  0
SECTION
  2
HEADER
  9
$ACADVER
  1
AC1015
  9
$ACADMAINTVER
 70
    20
  9
$DWGCODEPAGE
  3
ANSI_932
  9
$INSBASE
 10
0.0
 20
0.0
 30
0.0
  9
$EXTMIN
 10
287968.6795428482
 20
34260.7924806588
 30
-0.0015258207003583
  9
$EXTMAX
 10
310575.5561595181
 20
59344.81845692143
 30
0.0000000349246037
  9
$LIMMIN
 10
0.0
 20
0.0
  9
$LIMMAX
 10
420.0
 20
297.0
  9
$ORTHOMODE
 70
     1
  9
$REGENMODE
 70
     1
  9
$FILLMODE
 70
     1
  9
$QTEXTMODE
 70
     0
  9
$MIRRTEXT
 70
     0
  9
$LTSCALE
 40
1.0
  9
$ATTMODE
 70
     1
  9
$TEXTSIZE
 40
2.5
  9
$TRACEWID
 40
1.0
  9
$TEXTSTYLE
  7
Standard
  9
$CLAYER
  8
0
  9
$CELTYPE
  6
ByLayer
  9
$CECOLOR
 62
   256
  9
$CELTSCALE
 40
1.0
  9
$DISPSILH
 70
     0
  9
$DIMSCALE
 40
1.0
  9
$DIMASZ
 40
2.5
  9
$DIMEXO
 40
0.625
  9
$DIMDLI
 40
3.75
  9
$DIMRND
 40
0.0
  9
$DIMDLE
 40
0.0
  9
$DIMEXE
 40
1.25
  9
$DIMTP
 40
0.0
  9
$DIMTM
 40
0.0
  9
$DIMTXT
 40
2.5
  9
$DIMCEN
 40
2.5
  9
$DIMTSZ
 40
0.0
  9
$DIMTOL
 70
     0
  9
$DIMLIM
 70
     0
  9
$DIMTIH
 70
     0
  9
$DIMTOH
 70
     0
  9
$DIMSE1
 70
     0
  9
$DIMSE2
 70
     0
  9
$DIMTAD
 70
     1
  9
$DIMZIN
 70
     8
  9
$DIMBLK
  1

  9
$DIMASO
 70
     1
  9
$DIMSHO
 70
     1
  9
$DIMPOST
  1

  9
$DIMAPOST
  1

  9
$DIMALT
 70
     0
  9
$DIMALTD
 70
     3
  9
$DIMALTF
 40
0.03937007874016
  9
$DIMLFAC
 40
1.0
  9
$DIMTOFL
 70
     1
  9
$DIMTVP
 40
0.0
  9
$DIMTIX
 70
     0
  9
$DIMSOXD
 70
     0
  9
$DIMSAH
 70
     0
  9
$DIMBLK1
  1

  9
$DIMBLK2
  1

  9
$DIMSTYLE
  2
ISO-25
  9
$DIMCLRD
 70
     0
  9
$DIMCLRE
 70
     0
  9
$DIMCLRT
 70
     0
  9
$DIMTFAC
 40
1.0
  9
$DIMGAP
 40
0.625
  9
$DIMJUST
 70
     0
  9
$DIMSD1
 70
     0
  9
$DIMSD2
 70
     0
  9
$DIMTOLJ
 70
     0
  9
$DIMTZIN
 70
     8
  9
$DIMALTZ
 70
     0
  9
$DIMALTTZ
 70
     0
  9
$DIMUPT
 70
     0
  9
$DIMDEC
 70
     2
  9
$DIMTDEC
 70
     2
  9
$DIMALTU
 70
     2
  9
$DIMALTTD
 70
     3
  9
$DIMTXSTY
  7
Standard
  9
$DIMAUNIT
 70
     0
  9
$DIMADEC
 70
     0
  9
$DIMALTRND
 40
0.0
  9
$DIMAZIN
 70
     0
  9
$DIMDSEP
 70
    44
  9
$DIMATFIT
 70
     3
  9
$DIMFRAC
 70
     0
  9
$DIMLDRBLK
  1

  9
$DIMLUNIT
 70
     2
  9
$DIMLWD
 70
    -2
  9
$DIMLWE
 70
    -2
  9
$DIMTMOVE
 70
     0
  9
$LUNITS
 70
     2
  9
$LUPREC
 70
     4
  9
$SKETCHINC
 40
1.0
  9
$FILLETRAD
 40
30.0
  9
$AUNITS
 70
     0
  9
$AUPREC
 70
     0
  9
$MENU
  1
.
  9
$ELEVATION
 40
0.0
  9
$PELEVATION
 40
0.0
  9
$THICKNESS
 40
0.0
  9
$LIMCHECK
 70
     0
  9
$CHAMFERA
 40
0.0
  9
$CHAMFERB
 40
0.0
  9
$CHAMFERC
 40
0.0
  9
$CHAMFERD
 40
0.0
  9
$SKPOLY
 70
     0
  9
$TDCREATE
 40
2455257.708088461
  9
$TDUCREATE
 40
2455257.333088461
  9
$TDUPDATE
 40
2458661.580206805
  9
$TDUUPDATE
 40
2458661.205206805
  9
$TDINDWG
 40
0.6436112847
  9
$TDUSRTIMER
 40
0.6436112847
  9
$USRTIMER
 70
     1
  9
$ANGBASE
 50
0.0
  9
$ANGDIR
 70
     0
  9
$PDMODE
 70
     0
  9
$PDSIZE
 40
0.0
  9
$PLINEWID
 40
0.0
  9
$SPLFRAME
 70
     0
  9
$SPLINETYPE
 70
     6
  9
$SPLINESEGS
 70
     8
  9
$HANDSEED
  5
30C30
  9
$SURFTAB1
 70
     6
  9
$SURFTAB2
 70
     6
  9
$SURFTYPE
 70
     6
  9
$SURFU
 70
     6
  9
$SURFV
 70
     6
  9
$UCSBASE
  2

  9
$UCSNAME
  2

  9
$UCSORG
 10
0.0
 20
0.0
 30
0.0
  9
$UCSXDIR
 10
1.0
 20
0.0
 30
0.0
  9
$UCSYDIR
 10
0.0
 20
1.0
 30
0.0
  9
$UCSORTHOREF
  2

  9
$UCSORTHOVIEW
 70
     0
  9
$UCSORGTOP
 10
0.0
 20
0.0
 30
0.0
  9
$UCSORGBOTTOM
 10
0.0
 20
0.0
 30
0.0
  9
$UCSORGLEFT
 10
0.0
 20
0.0
 30
0.0
  9
$UCSORGRIGHT
 10
0.0
 20
0.0
 30
0.0
  9
$UCSORGFRONT
 10
0.0
 20
0.0
 30
0.0
  9
$UCSORGBACK
 10
0.0
 20
0.0
 30
0.0
  9
$PUCSBASE
  2

  9
$PUCSNAME
  2

  9
$PUCSORG
 10
0.0
 20
0.0
 30
0.0
  9
$PUCSXDIR
 10
1.0
 20
0.0
 30
0.0
  9
$PUCSYDIR
 10
0.0
 20
1.0
 30
0.0
  9
$PUCSORTHOREF
  2

  9
$PUCSORTHOVIEW
 70
     0
  9
$PUCSORGTOP
 10
0.0
 20
0.0
 30
0.0
  9
$PUCSORGBOTTOM
 10
0.0
 20
0.0
 30
0.0
  9
$PUCSORGLEFT
 10
0.0
 20
0.0
 30
0.0
  9
$PUCSORGRIGHT
 10
0.0
 20
0.0
 30
0.0
  9
$PUCSORGFRONT
 10
0.0
 20
0.0
 30
0.0
  9
$PUCSORGBACK
 10
0.0
 20
0.0
 30
0.0
  9
$USERI1
 70
     0
  9
$USERI2
 70
     0
  9
$USERI3
 70
     0
  9
$USERI4
 70
     0
  9
$USERI5
 70
     0
  9
$USERR1
 40
0.0
  9
$USERR2
 40
0.0
  9
$USERR3
 40
0.0
  9
$USERR4
 40
0.0
  9
$USERR5
 40
0.0
  9
$WORLDVIEW
 70
     1
  9
$SHADEDGE
 70
     3
  9
$SHADEDIF
 70
    70
  9
$TILEMODE
 70
     1
  9
$MAXACTVP
 70
    64
  9
$PINSBASE
 10
0.0
 20
0.0
 30
0.0
  9
$PLIMCHECK
 70
     0
  9
$PEXTMIN
 10
0.0
 20
0.0
 30
0.0
  9
$PEXTMAX
 10
0.0
 20
0.0
 30
0.0
  9
$PLIMMIN
 10
0.0
 20
0.0
  9
$PLIMMAX
 10
12.0
 20
9.0
  9
$UNITMODE
 70
     0
  9
$VISRETAIN
 70
     1
  9
$PLINEGEN
 70
     0
  9
$PSLTSCALE
 70
     1
  9
$TREEDEPTH
 70
  3020
  9
$CMLSTYLE
  2
Standard
  9
$CMLJUST
 70
     0
  9
$CMLSCALE
 40
20.0
  9
$PROXYGRAPHICS
 70
     1
  9
$MEASUREMENT
 70
     1
  9
$CELWEIGHT
370
    -1
  9
$ENDCAPS
280
     0
  9
$JOINSTYLE
280
     0
  9
$LWDISPLAY
290
     0
  9
$INSUNITS
 70
     4
  9
$HYPERLINKBASE
  1

  9
$STYLESHEET
  1
all black（線：データ通り　色：黒）.ctb
  9
$XEDIT
290
     1
  9
$CEPSNTYPE
380
     0
  9
$PSTYLEMODE
290
     1
  9
$FINGERPRINTGUID
  2
{50FB7BFA-1896-4192-B2A6-4DE0A83D1404}
  9
$VERSIONGUID
  2
{87AC5DD2-8C58-4D61-B0EA-A4B7AA864CE8}
  9
$EXTNAMES
290
     1
  9
$PSVPSCALE
 40
0.0
  9
$OLESTARTUP
290
     0
  0
ENDSEC
  0
SECTION
  2
CLASSES
  0
CLASS
  1
ACDBDICTIONARYWDFLT
  2
AcDbDictionaryWithDefault
  3
ObjectDBX Classes
 90
        0
280
     0
281
     0
  0
CLASS
  1
DICTIONARYVAR
  2
AcDbDictionaryVar
  3
ObjectDBX Classes
 90
        0
280
     0
281
     0
  0
CLASS
  1
TABLESTYLE
  2
AcDbTableStyle
  3
ObjectDBX Classes
 90
     4095
280
     0
281
     0
  0
CLASS
  1
SORTENTSTABLE
  2
AcDbSortentsTable
  3
ObjectDBX Classes
 90
        0
280
     0
281
     0
  0
CLASS
  1
ACDBPLACEHOLDER
  2
AcDbPlaceHolder
  3
ObjectDBX Classes
 90
        0
280
     0
281
     0
  0
CLASS
  1
LAYOUT
  2
AcDbLayout
  3
ObjectDBX Classes
 90
        0
280
     0
281
     0
  0
CLASS
  1
MATERIAL
  2
AcDbMaterial
  3
ObjectDBX Classes
 90
     1153
280
     0
281
     0
  0
CLASS
  1
VISUALSTYLE
  2
AcDbVisualStyle
  3
ObjectDBX Classes
 90
     4095
280
     0
281
     0
  0
CLASS
  1
SCALE
  2
AcDbScale
  3
ObjectDBX Classes
 90
     1153
280
     0
281
     0
  0
CLASS
  1
MLEADERSTYLE
  2
AcDbMLeaderStyle
  3
ACDB_MLEADERSTYLE_CLASS
 90
     4095
280
     0
281
     0
  0
CLASS
  1
ACDBSECTIONVIEWSTYLE
  2
AcDbSectionViewStyle
  3
ObjectDBX Classes
 90
     1025
280
     0
281
     0
  0
CLASS
  1
ACDBDETAILVIEWSTYLE
  2
AcDbDetailViewStyle
  3
ObjectDBX Classes
 90
     1025
280
     0
281
     0
  0
CLASS
  1
EXACXREFPANELOBJECT
  2
ExAcXREFPanelObject
  3
EXAC_ESW
 90
    33793
280
     0
281
     0
  0
CLASS
  1
NPOCOLLECTION
  2
AcDbImpNonPersistentObjectsCollection
  3
ObjectDBX Classes
 90
    33921
280
     0
281
     0
  0
CLASS
  1
CELLSTYLEMAP
  2
AcDbCellStyleMap
  3
ObjectDBX Classes
 90
     1152
280
     0
281
     0
  0
ENDSEC
  0
SECTION
  2
TABLES
  0
TABLE
  2
VPORT
  5
8
330
0
100
AcDbSymbolTable
 70
     1
  0
VPORT
  5
1A081
330
8
100
AcDbSymbolTableRecord
100
AcDbViewportTableRecord
  2
*Active
 70
     0
 10
0.0
 20
0.0
 11
1.0
 21
1.0
 12
299272.1178511832
 22
46802.80546879012
 13
0.0
 23
0.0
 14
10.0
 24
10.0
 15
10.0
 25
10.0
 16
0.0
 26
0.0
 36
1.0
 17
0.0
 27
0.0
 37
0.0
 40
25269.14793918708
 41
1.814039408866994
 42
50.0
 43
0.0
 44
0.0
 50
0.0
 51
0.0
 71
     0
 72
  1000
 73
     1
 74
     3
 75
     0
 76
     0
 77
     0
 78
     0
281
     0
 65
     1
110
0.0
120
0.0
130
0.0
111
1.0
121
0.0
131
0.0
112
0.0
122
1.0
132
0.0
 79
     0
146
0.0
1001
ACAD_NAV_VCDISPLAY
1070
     3
  0
ENDTAB
  0
TABLE
  2
LTYPE
  5
5
330
0
100
AcDbSymbolTable
 70
     7
  0
LTYPE
  5
14
330
5
100
AcDbSymbolTableRecord
100
AcDbLinetypeTableRecord
  2
ByBlock
 70
     0
  3

 72
    65
 73
     0
 40
0.0
  0
LTYPE
  5
15
330
5
100
AcDbSymbolTableRecord
100
AcDbLinetypeTableRecord
  2
ByLayer
 70
     0
  3

 72
    65
 73
     0
 40
0.0
  0
LTYPE
  5
16
330
5
100
AcDbSymbolTableRecord
100
AcDbLinetypeTableRecord
  2
Continuous
 70
     0
  3
Solid line
 72
    65
 73
     0
 40
0.0
  0
ENDTAB
  0
TABLE
  2
LAYER
  5
2
102
{ACAD_XDICTIONARY
360
616
102
}
330
0
100
AcDbSymbolTable
 70
    15
  0
LAYER
  5
10
102
{ACAD_XDICTIONARY
360
1C73C
102
}
330
2
100
AcDbSymbolTableRecord
100
AcDbLayerTableRecord
  2
0
 70
     0
 62
     7
  6
Continuous
370
    -3
390
F
  0
LAYER
  5
610
330
2
100
AcDbSymbolTableRecord
100
AcDbLayerTableRecord
  2
DEFPOINTS
 70
     0
 62
     7
  6
Continuous
290
     0
370
    -3
390
F
  0
LAYER
  5
613
102
{ACAD_XDICTIONARY
360
1C744
102
}
330
2
100
AcDbSymbolTableRecord
100
AcDbLayerTableRecord
  2
15
 70
     0
 62
    96
  6
Continuous
370
    -3
390
F
  0
LAYER
  5
2ECF6
102
{ACAD_XDICTIONARY
360
2ECF7
102
}
330
2
100
AcDbSymbolTableRecord
100
AcDbLayerTableRecord
  2
電気錠制御盤　（株）アート
 70
     0
 62
    40
  6
Continuous
370
    -3
390
F
  0
ENDTAB
  0
TABLE
  2
STYLE
  5
3
330
0
100
AcDbSymbolTable
 70
     2
  0
STYLE
  5
11
330
3
100
AcDbSymbolTableRecord
100
AcDbTextStyleTableRecord
  2
Standard
 70
     0
 40
0.0
 41
1.0
 50
0.0
 71
     0
 42
2.5
  3
txt.shx
  4
extfont2.shx
  0
STYLE
  5
614
330
3
100
AcDbSymbolTableRecord
100
AcDbTextStyleTableRecord
  2
KANJI
 70
     0
 40
0.0
 41
1.0
 50
0.0
 71
     0
 42
0.2
  3
TXT
  4
BIGFONT
  0
ENDTAB
  0
TABLE
  2
VIEW
  5
6
330
0
100
AcDbSymbolTable
 70
     0
  0
ENDTAB
  0
TABLE
  2
UCS
  5
7
330
0
100
AcDbSymbolTable
 70
     0
  0
ENDTAB
  0
TABLE
  2
APPID
  5
9
330
0
100
AcDbSymbolTable
 70
     6
  0
APPID
  5
12
330
9
100
AcDbSymbolTableRecord
100
AcDbRegAppTableRecord
  2
ACAD
 70
     0
  0
APPID
  5
9E
330
9
100
AcDbSymbolTableRecord
100
AcDbRegAppTableRecord
  2
ACAD_PSEXT
 70
     0
  0
APPID
  5
9D99
330
9
100
AcDbSymbolTableRecord
100
AcDbRegAppTableRecord
  2
ACAD_EXEMPT_FROM_CAD_STANDARDS
 70
     0
  0
APPID
  5
1C198
330
9
100
AcDbSymbolTableRecord
100
AcDbRegAppTableRecord
  2
ACAD_NAV_VCDISPLAY
 70
     0
  0
APPID
  5
2DAE1
330
9
100
AcDbSymbolTableRecord
100
AcDbRegAppTableRecord
  2
AcadAnnoMonitorAlertIconDisabled
 70
     0
  0
APPID
  5
30C29
330
9
100
AcDbSymbolTableRecord
100
AcDbRegAppTableRecord
  2
ACAD_MLEADERVER
 70
     0
  0
ENDTAB
  0
TABLE
  2
DIMSTYLE
  5
A
330
0
100
AcDbSymbolTable
 70
     3
100
AcDbDimStyleTable
 71
     2
340
27
340
615
  0
DIMSTYLE
105
27
330
A
100
AcDbSymbolTableRecord
100
AcDbDimStyleTableRecord
  2
ISO-25
 70
     0
 41
2.5
 42
0.625
 43
3.75
 44
1.25
 73
     0
 74
     0
 77
     1
 78
     8
140
2.5
141
2.5
143
0.03937007874016
147
0.625
171
     3
172
     1
271
     2
272
     2
274
     3
278
    44
283
     0
284
     8
340
11
  0
DIMSTYLE
105
615
102
{ACAD_REACTORS
330
2E81B
330
2E81C
330
2E886
330
2E89C
330
2E89D
102
}
330
A
100
AcDbSymbolTableRecord
100
AcDbDimStyleTableRecord
  2
Standard
 70
     0
340
11
  0
ENDTAB
  0
TABLE
  2
BLOCK_RECORD
  5
1
330
0
100
AcDbSymbolTable
 70
   972
  0
BLOCK_RECORD
  5
1F
102
{ACAD_XDICTIONARY
360
B04B
102
}
330
1
100
AcDbSymbolTableRecord
100
AcDbBlockTableRecord
  2
*Model_Space
340
22
  0
BLOCK_RECORD
  5
D2
330
1
100
AcDbSymbolTableRecord
100
AcDbBlockTableRecord
  2
*Paper_Space
340
D3
  0
BLOCK_RECORD
  5
D6
330
1
100
AcDbSymbolTableRecord
100
AcDbBlockTableRecord
  2
*Paper_Space0
340
D7
  0
BLOCK_RECORD
  5
FF
330
1
100
AcDbSymbolTableRecord
100
AcDbBlockTableRecord
  2
_OPEN30
340
0
102
{BLKREFS
331
30B41
331
30B42
331
30B4A
331
30B4B
331
30B54
331
30B55
331
30B5D
331
30B5E
331
30B66
331
30B67
331
30B6F
331
30B70
331
30B78
331
30B79
331
30B81
331
30B82
331
30B8A
331
30B8B
102
}
  0
BLOCK_RECORD
  5
2E7C5
330
1
100
AcDbSymbolTableRecord
100
AcDbBlockTableRecord
  2
*D962
340
0
  0
BLOCK_RECORD
  5
2E7D1
330
1
100
AcDbSymbolTableRecord
100
AcDbBlockTableRecord
  2
*D963
340
0
  0
BLOCK_RECORD
  5
2E7DD
330
1
100
AcDbSymbolTableRecord
100
AcDbBlockTableRecord
  2
*D964
340
0
  0
BLOCK_RECORD
  5
2E7E9
330
1
100
AcDbSymbolTableRecord
100
AcDbBlockTableRecord
  2
*D965
340
0
  0
BLOCK_RECORD
  5
2E991
330
1
100
AcDbSymbolTableRecord
100
AcDbBlockTableRecord
  2
*D966
340
0
  0
BLOCK_RECORD
  5
2E99D
330
1
100
AcDbSymbolTableRecord
100
AcDbBlockTableRecord
  2
*D967
340
0
  0
BLOCK_RECORD
  5
2E9A9
330
1
100
AcDbSymbolTableRecord
100
AcDbBlockTableRecord
  2
*D968
340
0
  0
BLOCK_RECORD
  5
2E9B6
330
1
100
AcDbSymbolTableRecord
100
AcDbBlockTableRecord
  2
*D969
340
0
  0
BLOCK_RECORD
  5
2E9C2
330
1
100
AcDbSymbolTableRecord
100
AcDbBlockTableRecord
  2
*D970
340
0
  0
ENDTAB
  0
ENDSEC
  0
SECTION
  2
BLOCKS
  0
BLOCK
  5
20
330
1F
100
AcDbEntity
  8
0
100
AcDbBlockBegin
  2
*Model_Space
 70
     0
 10
0.0
 20
0.0
 30
0.0
  3
*Model_Space
  1

  0
ENDBLK
  5
21
330
1F
100
AcDbEntity
  8
0
100
AcDbBlockEnd
  0
BLOCK
  5
D4
330
D2
100
AcDbEntity
 67
     1
  8
0
100
AcDbBlockBegin
  2
*Paper_Space
 70
     0
 10
0.0
 20
0.0
 30
0.0
  3
*Paper_Space
  1

  0
ENDBLK
  5
D5
330
D2
100
AcDbEntity
 67
     1
  8
0
100
AcDbBlockEnd
  0
BLOCK
  5
D8
330
D6
100
AcDbEntity
 67
     1
  8
0
100
AcDbBlockBegin
  2
*Paper_Space0
 70
     0
 10
0.0
 20
0.0
 30
0.0
  3
*Paper_Space0
  1

  0
ENDBLK
  5
D9
330
D6
100
AcDbEntity
 67
     1
  8
0
100
AcDbBlockEnd
  0
BLOCK
  5
100
330
FF
100
AcDbEntity
  8
0
 62
     0
100
AcDbBlockBegin
  2
_OPEN30
 70
     2
 10
0.0
 20
0.0
 30
0.0
  3
_OPEN30
  1

  0
LINE
  5
101
330
FF
100
AcDbEntity
  8
0
  6
ByBlock
 62
     0
100
AcDbLine
 10
-1.0
 20
0.267949
 30
0.0
 11
0.0
 21
0.0
 31
0.0
  0
LINE
  5
102
330
FF
100
AcDbEntity
  8
0
  6
ByBlock
 62
     0
100
AcDbLine
 10
0.0
 20
0.0
 30
0.0
 11
-1.0
 21
-0.267949
 31
0.0
  0
LINE
  5
103
330
FF
100
AcDbEntity
  8
0
  6
ByBlock
 62
     0
100
AcDbLine
 10
0.0
 20
0.0
 30
0.0
 11
-1.0
 21
0.0
 31
0.0
  0
ENDBLK
  5
104
330
FF
100
AcDbEntity
  8
0
 62
     0
100
AcDbBlockEnd
  0
BLOCK
  5
2E7C6
330
2E7C5
100
AcDbEntity
  8
0
100
AcDbBlockBegin
  2
*D962
 70
     1
 10
0.0
 20
0.0
 30
0.0
  3
*D962
  1

  0
LINE
  5
30B75
330
2E7C5
100
AcDbEntity
  8
電気錠制御盤　（株）アート
  6
Continuous
 62
     0
370
    -2
100
AcDbLine
 10
277908.0837329277
 20
54143.39779313464
 30
0.0
 11
277908.0837329277
 21
55126.21420871523
 31
0.0
  0
LINE
  5
30B76
330
2E7C5
100
AcDbEntity
  8
電気錠制御盤　（株）アート
  6
Continuous
 62
     0
370
    -2
100
AcDbLine
 10
279733.2837329277
 20
54156.47180338087
 30
0.0
 11
279733.2837329277
 21
55126.21420871523
 31
0.0
  0
LINE
  5
30B77
330
2E7C5
100
AcDbEntity
  8
電気錠制御盤　（株）アート
  6
Continuous
 62
     0
370
    -2
100
AcDbLine
 10
278408.0837329277
 20
55126.03420871523
 30
0.0
 11
279233.2837329277
 21
55126.03420871523
 31
0.0
  0
INSERT
  5
30B78
330
2E7C5
100
AcDbEntity
  8
電気錠制御盤　（株）アート
  6
Continuous
 62
     0
370
    -2
100
AcDbBlockReference
  2
_OPEN30
 10
277908.0837329277
 20
55126.03420871523
 30
0.0
 41
500.0
 42
500.0
 43
500.0
 50
180.0
  0
INSERT
  5
30B79
330
2E7C5
100
AcDbEntity
  8
電気錠制御盤　（株）アート
  6
Continuous
 62
     0
370
    -2
100
AcDbBlockReference
  2
_OPEN30
 10
279733.2837329277
 20
55126.03420871523
 30
0.0
 41
500.0
 42
500.0
 43
500.0
  0
MTEXT
  5
30B7A
330
2E7C5
100
AcDbEntity
  8
電気錠制御盤　（株）アート
  6
Continuous
 62
     0
370
    13
100
AcDbMText
 10
278820.6837329277
 20
55376.03420871523
 30
0.0
 40
400.0
 41
0.0
 71
     5
 72
     1
  1
\A1;26
 73
     1
 44
1.0
1001
ACAD
1000
MTEXTBEGIN
1070
    73
1070
     1
1070
    44
1040
1.0
1070
    74
1070
     0
1000
MTEXTEND
  0
POINT
  5
30B7B
330
2E7C5
100
AcDbEntity
  8
DEFPOINTS
  6
Continuous
 62
     0
100
AcDbPoint
 10
277908.0837329277
 20
54143.33529313464
 30
0.0
  0
POINT
  5
30B7C
330
2E7C5
100
AcDbEntity
  8
DEFPOINTS
  6
Continuous
 62
     0
100
AcDbPoint
 10
279733.2837329277
 20
54156.40930338087
 30
0.0
  0
POINT
  5
30B7D
330
2E7C5
100
AcDbEntity
  8
DEFPOINTS
  6
Continuous
 62
     0
100
AcDbPoint
 10
279733.2837329277
 20
55126.03420871523
 30
0.0
  0
ENDBLK
  5
2E7C7
330
2E7C5
100
AcDbEntity
  8
0
100
AcDbBlockEnd
  0
BLOCK
  5
2E7D2
330
2E7D1
100
AcDbEntity
  8
0
100
AcDbBlockBegin
  2
*D963
 70
     1
 10
0.0
 20
0.0
 30
0.0
  3
*D963
  1

  0
LINE
  5
30B6C
330
2E7D1
100
AcDbEntity
  8
電気錠制御盤　（株）アート
  6
Continuous
 62
     0
370
    -2
100
AcDbLine
 10
277767.6212329277
 20
54036.24394755598
 30
0.0
 11
276854.9037329277
 21
54036.24394755598
 31
0.0
  0
LINE
  5
30B6D
330
2E7D1
100
AcDbEntity
  8
電気錠制御盤　（株）アート
  6
Continuous
 62
     0
370
    -2
100
AcDbLine
 10
277767.6212329277
 20
45826.22446685788
 30
0.0
 11
276854.9037329277
 21
45826.22446685788
 31
0.0
  0
LINE
  5
30B6E
330
2E7D1
100
AcDbEntity
  8
電気錠制御盤　（株）アート
  6
Continuous
 62
     0
370
    -2
100
AcDbLine
 10
276855.0837329277
 20
53536.24394755598
 30
0.0
 11
276855.0837329277
 21
46326.22446685789
 31
0.0
  0
INSERT
  5
30B6F
330
2E7D1
100
AcDbEntity
  8
電気錠制御盤　（株）アート
  6
Continuous
 62
     0
370
    -2
100
AcDbBlockReference
  2
_OPEN30
 10
276855.0837329277
 20
54036.24394755598
 30
0.0
 41
500.0
 42
500.0
 43
500.0
 50
90.0
  0
INSERT
  5
30B70
330
2E7D1
100
AcDbEntity
  8
電気錠制御盤　（株）アート
  6
Continuous
 62
     0
370
    -2
100
AcDbBlockReference
  2
_OPEN30
 10
276855.0837329277
 20
45826.22446685788
 30
0.0
 41
500.0
 42
500.0
 43
500.0
 50
270.0
  0
MTEXT
  5
30B71
330
2E7D1
100
AcDbEntity
  8
電気錠制御盤　（株）アート
  6
Continuous
 62
     0
370
    13
100
AcDbMText
 10
276605.0837329277
 20
49931.23420720698
 30
0.0
 40
400.0
 41
0.0
 71
     5
 72
     1
  1
\A1;（117）
 11
0.0000000000000001
 21
1.0
 31
0.0
 73
     1
 44
1.0
1001
ACAD
1000
MTEXTBEGIN
1070
    73
1070
     1
1070
    44
1040
1.0
1070
    74
1070
     0
1000
MTEXTEND
  0
POINT
  5
30B72
330
2E7D1
100
AcDbEntity
  8
DEFPOINTS
  6
Continuous
 62
     0
100
AcDbPoint
 10
277767.6837329277
 20
54036.24394755598
 30
0.0
  0
POINT
  5
30B73
330
2E7D1
100
AcDbEntity
  8
DEFPOINTS
  6
Continuous
 62
     0
100
AcDbPoint
 10
277767.6837329277
 20
45826.22446685788
 30
0.0
  0
POINT
  5
30B74
330
2E7D1
100
AcDbEntity
  8
DEFPOINTS
  6
Continuous
 62
     0
100
AcDbPoint
 10
276855.0837329277
 20
45826.22446685788
 30
0.0
  0
ENDBLK
  5
2E7D3
330
2E7D1
100
AcDbEntity
  8
0
100
AcDbBlockEnd
  0
BLOCK
  5
2E7DE
330
2E7DD
100
AcDbEntity
  8
0
100
AcDbBlockBegin
  2
*D964
 70
     1
 10
0.0
 20
0.0
 30
0.0
  3
*D964
  1

  0
LINE
  5
30B87
330
2E7DD
100
AcDbEntity
  8
電気錠制御盤　（株）アート
  6
Continuous
 62
     0
370
    -2
100
AcDbLine
 10
274538.5462329278
 20
45789.43420871524
 30
0.0
 11
275451.2637329277
 21
45789.43420871524
 31
0.0
  0
LINE
  5
30B88
330
2E7DD
100
AcDbEntity
  8
電気錠制御盤　（株）アート
  6
Continuous
 62
     0
370
    -2
100
AcDbLine
 10
274538.5462329278
 20
54073.03420871523
 30
0.0
 11
275451.2637329277
 21
54073.03420871523
 31
0.0
  0
LINE
  5
30B89
330
2E7DD
100
AcDbEntity
  8
電気錠制御盤　（株）アート
  6
Continuous
 62
     0
370
    -2
100
AcDbLine
 10
275451.0837329277
 20
46289.43420871523
 30
0.0
 11
275451.0837329277
 21
53573.03420871523
 31
0.0
  0
INSERT
  5
30B8A
330
2E7DD
100
AcDbEntity
  8
電気錠制御盤　（株）アート
  6
Continuous
 62
     0
370
    -2
100
AcDbBlockReference
  2
_OPEN30
 10
275451.0837329277
 20
45789.43420871524
 30
0.0
 41
500.0
 42
500.0
 43
500.0
 50
270.0
  0
INSERT
  5
30B8B
330
2E7DD
100
AcDbEntity
  8
電気錠制御盤　（株）アート
  6
Continuous
 62
     0
370
    -2
100
AcDbBlockReference
  2
_OPEN30
 10
275451.0837329277
 20
54073.03420871523
 30
0.0
 41
500.0
 42
500.0
 43
500.0
 50
90.0
  0
MTEXT
  5
30B8C
330
2E7DD
100
AcDbEntity
  8
電気錠制御盤　（株）アート
  6
Continuous
 62
     0
370
    13
100
AcDbMText
 10
275201.0837329277
 20
49931.23420871528
 30
0.0
 40
400.0
 41
0.0
 71
     5
 72
     1
  1
\A1;118
 11
0.0000000000000001
 21
1.0
 31
0.0
 73
     1
 44
1.0
1001
ACAD
1000
MTEXTBEGIN
1070
    73
1070
     1
1070
    44
1040
1.0
1070
    74
1070
     0
1000
MTEXTEND
  0
POINT
  5
30B8D
330
2E7DD
100
AcDbEntity
  8
DEFPOINTS
  6
Continuous
 62
     0
100
AcDbPoint
 10
274538.4837329277
 20
45789.43420871524
 30
0.0
  0
POINT
  5
30B8E
330
2E7DD
100
AcDbEntity
  8
DEFPOINTS
  6
Continuous
 62
     0
100
AcDbPoint
 10
274538.4837329277
 20
54073.03420871523
 30
0.0
  0
POINT
  5
30B8F
330
2E7DD
100
AcDbEntity
  8
DEFPOINTS
  6
Continuous
 62
     0
100
AcDbPoint
 10
275451.0837329277
 20
54073.03420871523
 30
0.0
  0
ENDBLK
  5
2E7DF
330
2E7DD
100
AcDbEntity
  8
0
100
AcDbBlockEnd
  0
BLOCK
  5
2E7EA
330
2E7E9
100
AcDbEntity
  8
0
100
AcDbBlockBegin
  2
*D965
 70
     1
 10
0.0
 20
0.0
 30
0.0
  3
*D965
  1

  0
LINE
  5
30B7E
330
2E7E9
100
AcDbEntity
  8
電気錠制御盤　（株）アート
  6
Continuous
 62
     0
370
    -2
100
AcDbLine
 10
266114.4837329277
 20
54213.49670871523
 30
0.0
 11
266114.4837329277
 21
55126.21420871523
 31
0.0
  0
LINE
  5
30B7F
330
2E7E9
100
AcDbEntity
  8
電気錠制御盤　（株）アート
  6
Continuous
 62
     0
370
    -2
100
AcDbLine
 10
274398.0837329277
 20
54213.49670871523
 30
0.0
 11
274398.0837329277
 21
55126.21420871523
 31
0.0
  0
LINE
  5
30B80
330
2E7E9
100
AcDbEntity
  8
電気錠制御盤　（株）アート
  6
Continuous
 62
     0
370
    -2
100
AcDbLine
 10
266614.4837329277
 20
55126.03420871523
 30
0.0
 11
273898.0837329277
 21
55126.03420871523
 31
0.0
  0
INSERT
  5
30B81
330
2E7E9
100
AcDbEntity
  8
電気錠制御盤　（株）アート
  6
Continuous
 62
     0
370
    -2
100
AcDbBlockReference
  2
_OPEN30
 10
266114.4837329277
 20
55126.03420871523
 30
0.0
 41
500.0
 42
500.0
 43
500.0
 50
180.0
  0
INSERT
  5
30B82
330
2E7E9
100
AcDbEntity
  8
電気錠制御盤　（株）アート
  6
Continuous
 62
     0
370
    -2
100
AcDbBlockReference
  2
_OPEN30
 10
274398.0837329277
 20
55126.03420871523
 30
0.0
 41
500.0
 42
500.0
 43
500.0
  0
MTEXT
  5
30B83
330
2E7E9
100
AcDbEntity
  8
電気錠制御盤　（株）アート
  6
Continuous
 62
     0
370
    13
100
AcDbMText
 10
270256.2837329277
 20
55376.03420871523
 30
0.0
 40
400.0
 41
0.0
 71
     5
 72
     1
  1
\A1;118
 73
     1
 44
1.0
1001
ACAD
1000
MTEXTBEGIN
1070
    73
1070
     1
1070
    44
1040
1.0
1070
    74
1070
     0
1000
MTEXTEND
  0
POINT
  5
30B84
330
2E7E9
100
AcDbEntity
  8
DEFPOINTS
  6
Continuous
 62
     0
100
AcDbPoint
 10
266114.4837329277
 20
54213.43420871524
 30
0.0
  0
POINT
  5
30B85
330
2E7E9
100
AcDbEntity
  8
DEFPOINTS
  6
Continuous
 62
     0
100
AcDbPoint
 10
274398.0837329277
 20
54213.43420871524
 30
0.0
  0
POINT
  5
30B86
330
2E7E9
100
AcDbEntity
  8
DEFPOINTS
  6
Continuous
 62
     0
100
AcDbPoint
 10
274398.0837329277
 20
55126.03420871523
 30
0.0
  0
ENDBLK
  5
2E7EB
330
2E7E9
100
AcDbEntity
  8
0
100
AcDbBlockEnd
  0
BLOCK
  5
2E992
330
2E991
100
AcDbEntity
  8
0
100
AcDbBlockBegin
  2
*D966
 70
     1
 10
0.0
 20
0.0
 30
0.0
  3
*D966
  1

  0
LINE
  5
30B63
330
2E991
100
AcDbEntity
  8
電気錠制御盤　（株）アート
  6
Continuous
 62
     0
370
    -2
100
AcDbLine
 10
300509.963467525
 20
45789.25390992524
 30
0.0
 11
301422.680967525
 21
45789.25390992524
 31
0.0
  0
LINE
  5
30B64
330
2E991
100
AcDbEntity
  8
電気錠制御盤　（株）アート
  6
Continuous
 62
     0
370
    -2
100
AcDbLine
 10
300509.963467525
 20
54072.85390992524
 30
0.0
 11
301422.680967525
 21
54072.85390992524
 31
0.0
  0
LINE
  5
30B65
330
2E991
100
AcDbEntity
  8
電気錠制御盤　（株）アート
  6
Continuous
 62
     0
370
    -2
100
AcDbLine
 10
301422.500967525
 20
46289.25390992524
 30
0.0
 11
301422.500967525
 21
53572.85390992524
 31
0.0
  0
INSERT
  5
30B66
330
2E991
100
AcDbEntity
  8
電気錠制御盤　（株）アート
  6
Continuous
 62
     0
370
    -2
100
AcDbBlockReference
  2
_OPEN30
 10
301422.500967525
 20
45789.25390992524
 30
0.0
 41
500.0
 42
500.0
 43
500.0
 50
270.0
  0
INSERT
  5
30B67
330
2E991
100
AcDbEntity
  8
電気錠制御盤　（株）アート
  6
Continuous
 62
     0
370
    -2
100
AcDbBlockReference
  2
_OPEN30
 10
301422.500967525
 20
54072.85390992524
 30
0.0
 41
500.0
 42
500.0
 43
500.0
 50
90.0
  0
MTEXT
  5
30B68
330
2E991
100
AcDbEntity
  8
電気錠制御盤　（株）アート
  6
Continuous
 62
     0
370
    13
100
AcDbMText
 10
301172.5009675251
 20
49931.05390992528
 30
0.0
 40
400.0
 41
0.0
 71
     5
 72
     1
  1
\A1;118
 11
0.0000000000000001
 21
1.0
 31
0.0
 73
     1
 44
1.0
1001
ACAD
1000
MTEXTBEGIN
1070
    73
1070
     1
1070
    44
1040
1.0
1070
    74
1070
     0
1000
MTEXTEND
  0
POINT
  5
30B69
330
2E991
100
AcDbEntity
  8
DEFPOINTS
  6
Continuous
 62
     0
100
AcDbPoint
 10
300509.900967525
 20
45789.25390992524
 30
0.0
  0
POINT
  5
30B6A
330
2E991
100
AcDbEntity
  8
DEFPOINTS
  6
Continuous
 62
     0
100
AcDbPoint
 10
300509.900967525
 20
54072.85390992524
 30
0.0
  0
POINT
  5
30B6B
330
2E991
100
AcDbEntity
  8
DEFPOINTS
  6
Continuous
 62
     0
100
AcDbPoint
 10
301422.500967525
 20
54072.85390992524
 30
0.0
  0
ENDBLK
  5
2E993
330
2E991
100
AcDbEntity
  8
0
100
AcDbBlockEnd
  0
BLOCK
  5
2E99E
330
2E99D
100
AcDbEntity
  8
0
100
AcDbBlockBegin
  2
*D967
 70
     1
 10
0.0
 20
0.0
 30
0.0
  3
*D967
  1

  0
LINE
  5
30B5A
330
2E99D
100
AcDbEntity
  8
電気錠制御盤　（株）アート
  6
Continuous
 62
     0
370
    -2
100
AcDbLine
 10
292085.900967525
 20
54213.31640992524
 30
0.0
 11
292085.900967525
 21
55126.03390992524
 31
0.0
  0
LINE
  5
30B5B
330
2E99D
100
AcDbEntity
  8
電気錠制御盤　（株）アート
  6
Continuous
 62
     0
370
    -2
100
AcDbLine
 10
300369.500967525
 20
54213.31640992524
 30
0.0
 11
300369.500967525
 21
55126.03390992524
 31
0.0
  0
LINE
  5
30B5C
330
2E99D
100
AcDbEntity
  8
電気錠制御盤　（株）アート
  6
Continuous
 62
     0
370
    -2
100
AcDbLine
 10
292585.900967525
 20
55125.85390992525
 30
0.0
 11
299869.500967525
 21
55125.85390992525
 31
0.0
  0
INSERT
  5
30B5D
330
2E99D
100
AcDbEntity
  8
電気錠制御盤　（株）アート
  6
Continuous
 62
     0
370
    -2
100
AcDbBlockReference
  2
_OPEN30
 10
292085.900967525
 20
55125.85390992525
 30
0.0
 41
500.0
 42
500.0
 43
500.0
 50
180.0
  0
INSERT
  5
30B5E
330
2E99D
100
AcDbEntity
  8
電気錠制御盤　（株）アート
  6
Continuous
 62
     0
370
    -2
100
AcDbBlockReference
  2
_OPEN30
 10
300369.500967525
 20
55125.85390992525
 30
0.0
 41
500.0
 42
500.0
 43
500.0
  0
MTEXT
  5
30B5F
330
2E99D
100
AcDbEntity
  8
電気錠制御盤　（株）アート
  6
Continuous
 62
     0
370
    13
100
AcDbMText
 10
296227.7009675251
 20
55375.85390992524
 30
0.0
 40
400.0
 41
0.0
 71
     5
 72
     1
  1
\A1;118
 73
     1
 44
1.0
1001
ACAD
1000
MTEXTBEGIN
1070
    73
1070
     1
1070
    44
1040
1.0
1070
    74
1070
     0
1000
MTEXTEND
  0
POINT
  5
30B60
330
2E99D
100
AcDbEntity
  8
DEFPOINTS
  6
Continuous
 62
     0
100
AcDbPoint
 10
292085.900967525
 20
54213.25390992524
 30
0.0
  0
POINT
  5
30B61
330
2E99D
100
AcDbEntity
  8
DEFPOINTS
  6
Continuous
 62
     0
100
AcDbPoint
 10
300369.500967525
 20
54213.25390992524
 30
0.0
  0
POINT
  5
30B62
330
2E99D
100
AcDbEntity
  8
DEFPOINTS
  6
Continuous
 62
     0
100
AcDbPoint
 10
300369.500967525
 20
55125.85390992525
 30
0.0
  0
ENDBLK
  5
2E99F
330
2E99D
100
AcDbEntity
  8
0
100
AcDbBlockEnd
  0
BLOCK
  5
2E9AA
330
2E9A9
100
AcDbEntity
  8
0
100
AcDbBlockBegin
  2
*D968
 70
     1
 10
0.0
 20
0.0
 30
0.0
  3
*D968
  1

  0
LINE
  5
30B50
330
2E9A9
100
AcDbEntity
  8
電気錠制御盤　（株）アート
  6
Continuous
 62
     0
370
    -2
100
AcDbLine
 10
303879.500967525
 20
54176.52615072477
 30
0.0
 11
303879.500967525
 21
55126.03390992524
 31
0.0
  0
LINE
  5
30B51
330
2E9A9
100
AcDbEntity
  8
電気錠制御盤　（株）アート
  6
Continuous
 62
     0
370
    -2
100
AcDbLine
 10
304581.500967525
 20
54213.31640992524
 30
0.0
 11
304581.500967525
 21
55126.03390992524
 31
0.0
  0
LINE
  5
30B52
330
2E9A9
100
AcDbEntity
  8
電気錠制御盤　（株）アート
  6
Continuous
 62
     0
370
    -2
100
AcDbLine
 10
303379.500967525
 20
55125.85390992525
 30
0.0
 11
302879.500967525
 21
55125.85390992525
 31
0.0
  0
LINE
  5
30B53
330
2E9A9
100
AcDbEntity
  8
電気錠制御盤　（株）アート
  6
Continuous
 62
     0
370
    -2
100
AcDbLine
 10
305081.500967525
 20
55125.85390992525
 30
0.0
 11
305581.500967525
 21
55125.85390992525
 31
0.0
  0
INSERT
  5
30B54
330
2E9A9
100
AcDbEntity
  8
電気錠制御盤　（株）アート
  6
Continuous
 62
     0
370
    -2
100
AcDbBlockReference
  2
_OPEN30
 10
303879.500967525
 20
55125.85390992525
 30
0.0
 41
500.0
 42
500.0
 43
500.0
  0
INSERT
  5
30B55
330
2E9A9
100
AcDbEntity
  8
電気錠制御盤　（株）アート
  6
Continuous
 62
     0
370
    -2
100
AcDbBlockReference
  2
_OPEN30
 10
304581.500967525
 20
55125.85390992525
 30
0.0
 41
500.0
 42
500.0
 43
500.0
 50
180.0
  0
MTEXT
  5
30B56
330
2E9A9
100
AcDbEntity
  8
電気錠制御盤　（株）アート
  6
Continuous
 62
     0
370
    13
100
AcDbMText
 10
304230.500967525
 20
55375.85390992524
 30
0.0
 40
400.0
 41
0.0
 71
     5
 72
     1
  1
\A1;10
 73
     1
 44
1.0
1001
ACAD
1000
MTEXTBEGIN
1070
    73
1070
     1
1070
    44
1040
1.0
1070
    74
1070
     0
1000
MTEXTEND
  0
POINT
  5
30B57
330
2E9A9
100
AcDbEntity
  8
DEFPOINTS
  6
Continuous
 62
     0
100
AcDbPoint
 10
303879.500967525
 20
54176.46365072477
 30
0.0
  0
POINT
  5
30B58
330
2E9A9
100
AcDbEntity
  8
DEFPOINTS
  6
Continuous
 62
     0
100
AcDbPoint
 10
304581.500967525
 20
54213.25390992524
 30
0.0
  0
POINT
  5
30B59
330
2E9A9
100
AcDbEntity
  8
DEFPOINTS
  6
Continuous
 62
     0
100
AcDbPoint
 10
304581.500967525
 20
55125.85390992525
 30
0.0
  0
ENDBLK
  5
2E9AB
330
2E9A9
100
AcDbEntity
  8
0
100
AcDbBlockEnd
  0
BLOCK
  5
2E9B7
330
2E9B6
100
AcDbEntity
  8
0
100
AcDbBlockBegin
  2
*D969
 70
     1
 10
0.0
 20
0.0
 30
0.0
  3
*D969
  1

  0
LINE
  5
30B47
330
2E9B6
100
AcDbEntity
  8
電気錠制御盤　（株）アート
  6
Continuous
 62
     0
370
    -2
100
AcDbLine
 10
303739.0384675251
 20
54036.06364876731
 30
0.0
 11
302826.320967525
 21
54036.06364876731
 31
0.0
  0
LINE
  5
30B48
330
2E9B6
100
AcDbEntity
  8
電気錠制御盤　（株）アート
  6
Continuous
 62
     0
370
    -2
100
AcDbLine
 10
303739.0384675251
 20
45826.04416806788
 30
0.0
 11
302826.320967525
 21
45826.04416806788
 31
0.0
  0
LINE
  5
30B49
330
2E9B6
100
AcDbEntity
  8
電気錠制御盤　（株）アート
  6
Continuous
 62
     0
370
    -2
100
AcDbLine
 10
302826.500967525
 20
53536.06364876731
 30
0.0
 11
302826.500967525
 21
46326.04416806788
 31
0.0
  0
INSERT
  5
30B4A
330
2E9B6
100
AcDbEntity
  8
電気錠制御盤　（株）アート
  6
Continuous
 62
     0
370
    -2
100
AcDbBlockReference
  2
_OPEN30
 10
302826.500967525
 20
54036.06364876731
 30
0.0
 41
500.0
 42
500.0
 43
500.0
 50
90.0
  0
INSERT
  5
30B4B
330
2E9B6
100
AcDbEntity
  8
電気錠制御盤　（株）アート
  6
Continuous
 62
     0
370
    -2
100
AcDbBlockReference
  2
_OPEN30
 10
302826.500967525
 20
45826.04416806788
 30
0.0
 41
500.0
 42
500.0
 43
500.0
 50
270.0
  0
MTEXT
  5
30B4C
330
2E9B6
100
AcDbEntity
  8
電気錠制御盤　（株）アート
  6
Continuous
 62
     0
370
    13
100
AcDbMText
 10
302576.5009675251
 20
49931.05390841764
 30
0.0
 40
400.0
 41
0.0
 71
     5
 72
     1
  1
\A1;（117）
 11
0.0000000000000001
 21
1.0
 31
0.0
 73
     1
 44
1.0
1001
ACAD
1000
MTEXTBEGIN
1070
    73
1070
     1
1070
    44
1040
1.0
1070
    74
1070
     0
1000
MTEXTEND
  0
POINT
  5
30B4D
330
2E9B6
100
AcDbEntity
  8
DEFPOINTS
  6
Continuous
 62
     0
100
AcDbPoint
 10
303739.1009675251
 20
54036.06364876731
 30
0.0
  0
POINT
  5
30B4E
330
2E9B6
100
AcDbEntity
  8
DEFPOINTS
  6
Continuous
 62
     0
100
AcDbPoint
 10
303739.1009675251
 20
45826.04416806788
 30
0.0
  0
POINT
  5
30B4F
330
2E9B6
100
AcDbEntity
  8
DEFPOINTS
  6
Continuous
 62
     0
100
AcDbPoint
 10
302826.500967525
 20
45826.04416806788
 30
0.0
  0
ENDBLK
  5
2E9B8
330
2E9B6
100
AcDbEntity
  8
0
100
AcDbBlockEnd
  0
BLOCK
  5
2E9C3
330
2E9C2
100
AcDbEntity
  8
0
100
AcDbBlockBegin
  2
*D970
 70
     1
 10
0.0
 20
0.0
 30
0.0
  3
*D970
  1

  0
LINE
  5
30B3D
330
2E9C2
100
AcDbEntity
  8
電気錠制御盤　（株）アート
  6
Continuous
 62
     0
370
    -2
100
AcDbLine
 10
304581.500967525
 20
54213.31640992524
 30
0.0
 11
304581.500967525
 21
55126.03390992524
 31
0.0
  0
LINE
  5
30B3E
330
2E9C2
100
AcDbEntity
  8
電気錠制御盤　（株）アート
  6
Continuous
 62
     0
370
    -2
100
AcDbLine
 10
305634.500967525
 20
52387.7934899259
 30
0.0
 11
305634.500967525
 21
55126.03390992524
 31
0.0
  0
LINE
  5
30B3F
330
2E9C2
100
AcDbEntity
  8
電気錠制御盤　（株）アート
  6
Continuous
 62
     0
370
    -2
100
AcDbLine
 10
304081.500967525
 20
55125.85390992525
 30
0.0
 11
303581.500967525
 21
55125.85390992525
 31
0.0
  0
LINE
  5
30B40
330
2E9C2
100
AcDbEntity
  8
電気錠制御盤　（株）アート
  6
Continuous
 62
     0
370
    -2
100
AcDbLine
 10
306134.500967525
 20
55125.85390992525
 30
0.0
 11
308307.8343008584
 21
55125.85390992525
 31
0.0
  0
INSERT
  5
30B41
330
2E9C2
100
AcDbEntity
  8
電気錠制御盤　（株）アート
  6
Continuous
 62
     0
370
    -2
100
AcDbBlockReference
  2
_OPEN30
 10
304581.500967525
 20
55125.85390992525
 30
0.0
 41
500.0
 42
500.0
 43
500.0
  0
INSERT
  5
30B42
330
2E9C2
100
AcDbEntity
  8
電気錠制御盤　（株）アート
  6
Continuous
 62
     0
370
    -2
100
AcDbBlockReference
  2
_OPEN30
 10
305634.500967525
 20
55125.85390992525
 30
0.0
 41
500.0
 42
500.0
 43
500.0
 50
180.0
  0
MTEXT
  5
30B43
330
2E9C2
100
AcDbEntity
  8
電気錠制御盤　（株）アート
  6
Continuous
 62
     0
370
    13
100
AcDbMText
 10
307471.1676341917
 20
55375.85390992524
 30
0.0
 40
400.0
 41
0.0
 71
     5
 72
     1
  1
\A1;（15）
 73
     1
 44
1.0
1001
ACAD
1000
MTEXTBEGIN
1070
    73
1070
     1
1070
    44
1040
1.0
1070
    74
1070
     0
1000
MTEXTEND
  0
POINT
  5
30B44
330
2E9C2
100
AcDbEntity
  8
DEFPOINTS
  6
Continuous
 62
     0
100
AcDbPoint
 10
304581.500967525
 20
54213.25390992524
 30
0.0
  0
POINT
  5
30B45
330
2E9C2
100
AcDbEntity
  8
DEFPOINTS
  6
Continuous
 62
     0
100
AcDbPoint
 10
305634.500967525
 20
52387.73098992591
 30
0.0
  0
POINT
  5
30B46
330
2E9C2
100
AcDbEntity
  8
DEFPOINTS
  6
Continuous
 62
     0
100
AcDbPoint
 10
305634.500967525
 20
55125.85390992525
 30
0.0
  0
ENDBLK
  5
2E9C4
330
2E9C2
100
AcDbEntity
  8
0
100
AcDbBlockEnd
  0
ENDSEC
  0
SECTION
  2
ENTITIES
  0
TEXT
  5
418F
330
1F
100
AcDbEntity
  8
15
  6
Continuous
 62
    96
100
AcDbText
 10
177832.9914936193
 20
113081.8097269762
 30
0.0
 40
6.0
  1
　
 41
0.8333333333333333
 11
177832.9914936193
 21
113081.8097269762
 31
0.0
100
AcDbText
 73
     1
  0
TEXT
  5
4190
330
1F
100
AcDbEntity
  8
15
  6
Continuous
 62
    96
100
AcDbText
 10
177832.9914936193
 20
113081.8097269762
 30
0.0
 40
6.0
  1
　
 41
0.8333333333333333
 11
177832.9914936193
 21
113081.8097269762
 31
0.0
100
AcDbText
 73
     1
  0
TEXT
  5
4406
330
1F
100
AcDbEntity
  8
15
  6
Continuous
 62
    96
100
AcDbText
 10
176501.6732595321
 20
112445.432569049
 30
0.0
 40
3.0
  1
　
 41
0.8333333333333333
 11
176501.6732595321
 21
112445.432569049
 31
0.0
100
AcDbText
 73
     1
  0
LINE
  5
2E51C
330
1F
100
AcDbEntity
  8
電気錠制御盤　（株）アート
 62
     7
370
    13
100
AcDbLine
 10
287986.8378764559
 20
59343.15712542248
 30
0.0
 11
310567.2955485006
 21
59343.15712542248
 31
0.0
  0
LINE
  5
2E51D
330
1F
100
AcDbEntity
  8
電気錠制御盤　（株）アート
  6
Continuous
 62
     7
370
    13
100
AcDbLine
 10
290742.5366540185
 20
59343.15712542248
 30
0.0
 11
290742.5366540185
 21
57506.02460704753
 31
0.0
  0
LINE
  5
2E51E
330
1F
100
AcDbEntity
  8
電気錠制御盤　（株）アート
  6
Continuous
 62
     7
370
    13
100
AcDbLine
 10
287986.8378764559
 20
57506.02460704753
 30
0.0
 11
310567.295548499
 21
57506.02460704753
 31
0.0
  0
LINE
  5
2E51F
330
1F
100
AcDbEntity
  8
電気錠制御盤　（株）アート
  6
Continuous
 62
     7
370
    13
100
AcDbLine
 10
287986.8378764559
 20
59343.15712542248
 30
0.0
 11
287986.8378764559
 21
34263.20110063238
 31
0.0
  0
LINE
  5
2E520
330
1F
100
AcDbEntity
  8
電気錠制御盤　（株）アート
 62
     7
370
    13
100
AcDbLine
 10
287986.8378764559
 20
34263.20110063238
 30
0.0
 11
310567.2955485006
 21
34263.20110063238
 31
0.0
  0
LINE
  5
2E521
330
1F
100
AcDbEntity
  8
電気錠制御盤　（株）アート
  6
Continuous
 62
     7
370
    13
100
AcDbLine
 10
310567.2955485006
 20
59343.15712542248
 30
0.0
 11
310567.2955485006
 21
34263.20110063238
 31
0.0
  0
LINE
  5
2E523
330
1F
100
AcDbEntity
  8
電気錠制御盤　（株）アート
  6
Continuous
 62
     7
370
    13
100
AcDbLine
 10
288855.9014601275
 20
57967.37431083763
 30
0.0
 11
289770.3345709222
 21
57967.37431083761
 31
0.0
  0
LINE
  5
2E524
330
1F
100
AcDbEntity
  8
電気錠制御盤　（株）アート
  6
Continuous
 62
     7
370
    13
100
AcDbLine
 10
288855.9014601275
 20
58881.80742163236
 30
0.0
 11
288855.9014601275
 21
57967.37431083763
 31
0.0
  0
LINE
  5
2E525
330
1F
100
AcDbEntity
  8
電気錠制御盤　（株）アート
  6
Continuous
 62
     7
370
    13
100
AcDbLine
 10
289770.3345709222
 20
57967.37431083763
 30
0.0
 11
289770.3345709222
 21
58881.80742163236
 31
0.0
  0
LINE
  5
2E526
330
1F
100
AcDbEntity
  8
電気錠制御盤　（株）アート
  6
Continuous
 62
     7
370
    13
100
AcDbLine
 10
289770.3345709222
 20
58881.80742163236
 30
0.0
 11
288855.9014601275
 21
58881.80742163236
 31
0.0
  0
TEXT
  5
2E527
330
1F
100
AcDbEntity
  8
電気錠制御盤　（株）アート
  6
Continuous
 62
     7
370
    13
100
AcDbText
 10
289018.889655596
 20
58032.28638632985
 30
0.0
 40
735.5708998221611
  1
Ｒ
 41
0.8
  7
KANJI
 72
     4
 11
289313.1180155248
 21
58424.59086623501
 31
0.0
100
AcDbText
  0
TEXT
  5
2E81A
330
1F
100
AcDbEntity
  8
電気錠制御盤　（株）アート
  6
Continuous
 62
     7
370
    13
100
AcDbText
 10
291326.1468931128
 20
58034.10988212312
 30
0.0
 40
735.5708998221611
  1
非接触式ＦｅｌｉＣａ／ＭＩＦＡＲＥ対応カードリーダ　ＷＭＬ－６０－Ｂ
 41
0.6
  7
KANJI
100
AcDbText
  0
DIMENSION
  5
2E81B
330
1F
100
AcDbEntity
  8
電気錠制御盤　（株）アート
  6
Continuous
 62
     7
370
    13
100
AcDbDimension
  2
*D966
 10
301422.500967525
 20
54072.85390992524
 30
0.0
 11
301172.5009675251
 21
49931.05390992528
 31
0.0
 70
    32
  1
118
 71
     5
 42
8283.600000000005
  3
Standard
100
AcDbAlignedDimension
 13
300509.900967525
 23
45789.25390992524
 33
0.0
 14
300509.900967525
 24
54072.85390992524
 34
0.0
 50
90.0
100
AcDbRotatedDimension
1001
ACAD
1000
DSTYLE
1002
{
1070
    41
1040
500.0
1070
    73
1070
     0
1070
    77
1070
     1
1070
   140
1040
400.0
1070
   147
1040
50.0
1070
   173
1070
     1
1070
   343
1005
FF
1070
   344
1005
FF
1002
}
  0
DIMENSION
  5
2E81C
330
1F
100
AcDbEntity
  8
電気錠制御盤　（株）アート
  6
Continuous
 62
     7
370
    13
100
AcDbDimension
  2
*D967
 10
300369.500967525
 20
55125.85390992525
 30
0.0
 11
296227.7009675251
 21
55375.85390992524
 31
0.0
 70
    32
  1
118
 71
     5
 42
8283.600000000035
  3
Standard
100
AcDbAlignedDimension
 13
292085.900967525
 23
54213.25390992524
 33
0.0
 14
300369.500967525
 24
54213.25390992524
 34
0.0
100
AcDbRotatedDimension
1001
ACAD
1000
DSTYLE
1002
{
1070
    41
1040
500.0
1070
    73
1070
     0
1070
    77
1070
     1
1070
   140
1040
400.0
1070
   147
1040
50.0
1070
   173
1070
     1
1070
   343
1005
FF
1070
   344
1005
FF
1002
}
  0
ARC
  5
2E81D
330
1F
100
AcDbEntity
  8
電気錠制御盤　（株）アート
  6
Continuous
 62
     7
370
    13
100
AcDbCircle
 10
298540.7909675276
 20
52122.20650992575
 30
0.0
 40
17.55
100
AcDbArc
 50
180.0
 51
270.0
  0
LINE
  5
2E81E
330
1F
100
AcDbEntity
  8
電気錠制御盤　（株）アート
  6
Continuous
 62
     7
370
    13
100
AcDbLine
 10
298523.2409675277
 20
52198.04356992529
 30
0.0
 11
298523.2409675277
 21
52122.20650992575
 31
0.0
  0
LINE
  5
2E81F
330
1F
100
AcDbEntity
  8
電気錠制御盤　（株）アート
  6
Continuous
 62
     7
370
    13
100
AcDbLine
 10
298540.7909675276
 20
52104.65650992575
 30
0.0
 11
298547.8109675275
 21
52104.65650992575
 31
0.0
  0
ARC
  5
2E820
330
1F
100
AcDbEntity
  8
電気錠制御盤　（株）アート
  6
Continuous
 62
     7
370
    13
100
AcDbCircle
 10
298547.8109675275
 20
52122.20650992575
 30
0.0
 40
17.55
100
AcDbArc
 50
270.0
 51
0.0
  0
LINE
  5
2E821
330
1F
100
AcDbEntity
  8
電気錠制御盤　（株）アート
  6
Continuous
 62
     7
370
    13
100
AcDbLine
 10
298565.3609675276
 20
52122.20650992575
 30
0.0
 11
298565.3609675276
 21
52198.04356992529
 31
0.0
  0
ARC
  5
2E822
330
1F
100
AcDbEntity
  8
電気錠制御盤　（株）アート
  6
Continuous
 62
     7
370
    13
100
AcDbCircle
 10
298544.300967525
 20
52238.52286463326
 30
0.0
 40
45.62999999999941
100
AcDbArc
 50
297.4864262490174
 51
242.5135737509826
  0
LINE
  5
2E823
330
1F
100
AcDbEntity
  8
電気錠制御盤　（株）アート
  6
Continuous
 62
     7
370
    13
100
AcDbLine
 10
298417.9409675276
 20
52336.20418992567
 30
0.0
 11
298417.9409675276
 21
52406.40418992566
 31
0.0
  0
ARC
  5
2E824
330
1F
100
AcDbEntity
  8
電気錠制御盤　（株）アート
  6
Continuous
 62
     7
370
    13
100
AcDbCircle
 10
298544.300967525
 20
52406.40418992566
 30
0.0
 40
126.36
100
AcDbArc
 50
90.0
 51
180.0
  0
LINE
  5
2E825
330
1F
100
AcDbEntity
  8
電気錠制御盤　（株）アート
  6
Continuous
 62
     7
370
    13
100
AcDbLine
 10
298670.6609675276
 20
52406.40418992566
 30
0.0
 11
298670.6609675276
 21
52336.20418992567
 31
0.0
  0
ARC
  5
2E826
330
1F
100
AcDbEntity
  8
電気錠制御盤　（株）アート
  6
Continuous
 62
     7
370
    13
100
AcDbCircle
 10
298544.300967525
 20
52406.40418992566
 30
0.0
 40
126.36
100
AcDbArc
 50
0.0
 51
90.0
  0
LINE
  5
2E827
330
1F
100
AcDbEntity
  8
電気錠制御盤　（株）アート
  6
Continuous
 62
     7
370
    13
100
AcDbLine
 10
298460.0609675276
 20
52336.20418992567
 30
0.0
 11
298460.0609675276
 21
52406.40418992566
 31
0.0
  0
ARC
  5
2E828
330
1F
100
AcDbEntity
  8
電気錠制御盤　（株）アート
  6
Continuous
 62
     7
370
    13
100
AcDbCircle
 10
298544.300967525
 20
52406.40418992566
 30
0.0
 40
84.24000000000001
100
AcDbArc
 50
90.0
 51
180.0
  0
LINE
  5
2E829
330
1F
100
AcDbEntity
  8
電気錠制御盤　（株）アート
  6
Continuous
 62
     7
370
    13
100
AcDbLine
 10
298628.5409675276
 20
52406.40418992566
 30
0.0
 11
298628.5409675276
 21
52336.20418992567
 31
0.0
  0
ARC
  5
2E82A
330
1F
100
AcDbEntity
  8
電気錠制御盤　（株）アート
  6
Continuous
 62
     7
370
    13
100
AcDbCircle
 10
298544.300967525
 20
52406.40418992566
 30
0.0
 40
84.24000000000001
100
AcDbArc
 50
0.0
 51
90.0
  0
LINE
  5
2E82B
330
1F
100
AcDbEntity
  8
電気錠制御盤　（株）アート
  6
Continuous
 62
     7
370
    13
100
AcDbLine
 10
298361.7809675276
 20
52336.20418992567
 30
0.0
 11
298361.7809675276
 21
52055.40418992566
 31
0.0
  0
LINE
  5
2E82C
330
1F
100
AcDbEntity
  8
電気錠制御盤　（株）アート
  6
Continuous
 62
     7
370
    13
100
AcDbLine
 10
298361.7809675276
 20
52055.40418992566
 30
0.0
 11
298726.8209675276
 21
52055.40418992566
 31
0.0
  0
LINE
  5
2E82D
330
1F
100
AcDbEntity
  8
電気錠制御盤　（株）アート
  6
Continuous
 62
     7
370
    13
100
AcDbLine
 10
298726.8209675276
 20
52055.40418992566
 30
0.0
 11
298726.8209675276
 21
52336.20418992567
 31
0.0
  0
LINE
  5
2E82E
330
1F
100
AcDbEntity
  8
電気錠制御盤　（株）アート
  6
Continuous
 62
     7
370
    13
100
AcDbLine
 10
298417.9409675276
 20
52336.20418992567
 30
0.0
 11
298361.7809675276
 21
52336.20418992567
 31
0.0
  0
LINE
  5
2E82F
330
1F
100
AcDbEntity
  8
電気錠制御盤　（株）アート
  6
Continuous
 62
     7
370
    13
100
AcDbLine
 10
298726.8209675276
 20
52336.20418992567
 30
0.0
 11
298670.6609675276
 21
52336.20418992567
 31
0.0
  0
LINE
  5
2E830
330
1F
100
AcDbEntity
  8
電気錠制御盤　（株）アート
  6
Continuous
 62
     7
370
    13
100
AcDbLine
 10
298628.5409675276
 20
52336.20418992567
 30
0.0
 11
298460.0609675276
 21
52336.20418992567
 31
0.0
  0
LINE
  5
2E831
330
1F
100
AcDbEntity
  8
電気錠制御盤　（株）アート
  6
Continuous
 62
     7
370
    13
100
AcDbLine
 10
297298.250967525
 20
52324.87390992525
 30
0.0
 11
297298.250967525
 21
52149.37390992525
 31
0.0
  0
LINE
  5
2E832
330
1F
100
AcDbEntity
  8
電気錠制御盤　（株）アート
  6
Continuous
 62
     7
370
    13
100
AcDbLine
 10
297298.250967525
 20
52149.37390992525
 30
0.0
 11
297473.750967525
 21
52149.37390992525
 31
0.0
  0
LINE
  5
2E833
330
1F
100
AcDbEntity
  8
電気錠制御盤　（株）アート
  6
Continuous
 62
     7
370
    13
100
AcDbLine
 10
297473.750967525
 20
52149.37390992525
 30
0.0
 11
297473.750967525
 21
52324.87390992525
 31
0.0
  0
LINE
  5
2E834
330
1F
100
AcDbEntity
  8
電気錠制御盤　（株）アート
  6
Continuous
 62
     7
370
    13
100
AcDbLine
 10
297473.750967525
 20
52324.87390992525
 30
0.0
 11
297298.250967525
 21
52324.87390992525
 31
0.0
  0
LINE
  5
2E835
330
1F
100
AcDbEntity
  8
電気錠制御盤　（株）アート
  6
Continuous
 62
     7
370
    13
100
AcDbLine
 10
296139.9509675251
 20
52324.87390992525
 30
0.0
 11
296139.9509675251
 21
52149.37390992525
 31
0.0
  0
LINE
  5
2E836
330
1F
100
AcDbEntity
  8
電気錠制御盤　（株）アート
  6
Continuous
 62
     7
370
    13
100
AcDbLine
 10
296139.9509675251
 20
52149.37390992525
 30
0.0
 11
296315.4509675251
 21
52149.37390992525
 31
0.0
  0
LINE
  5
2E837
330
1F
100
AcDbEntity
  8
電気錠制御盤　（株）アート
  6
Continuous
 62
     7
370
    13
100
AcDbLine
 10
296315.4509675251
 20
52149.37390992525
 30
0.0
 11
296315.4509675251
 21
52324.87390992525
 31
0.0
  0
LINE
  5
2E838
330
1F
100
AcDbEntity
  8
電気錠制御盤　（株）アート
  6
Continuous
 62
     7
370
    13
100
AcDbLine
 10
296315.4509675251
 20
52324.87390992525
 30
0.0
 11
296139.9509675251
 21
52324.87390992525
 31
0.0
  0
LINE
  5
2E839
330
1F
100
AcDbEntity
  8
電気錠制御盤　（株）アート
  6
Continuous
 62
     7
370
    13
100
AcDbLine
 10
294981.650967525
 20
52324.87390992525
 30
0.0
 11
294981.650967525
 21
52149.37390992525
 31
0.0
  0
LINE
  5
2E83A
330
1F
100
AcDbEntity
  8
電気錠制御盤　（株）アート
  6
Continuous
 62
     7
370
    13
100
AcDbLine
 10
294981.650967525
 20
52149.37390992525
 30
0.0
 11
295157.150967525
 21
52149.37390992525
 31
0.0
  0
LINE
  5
2E83B
330
1F
100
AcDbEntity
  8
電気錠制御盤　（株）アート
  6
Continuous
 62
     7
370
    13
100
AcDbLine
 10
295157.150967525
 20
52149.37390992525
 30
0.0
 11
295157.150967525
 21
52324.87390992525
 31
0.0
  0
LINE
  5
2E83C
330
1F
100
AcDbEntity
  8
電気錠制御盤　（株）アート
  6
Continuous
 62
     7
370
    13
100
AcDbLine
 10
295157.150967525
 20
52324.87390992525
 30
0.0
 11
294981.650967525
 21
52324.87390992525
 31
0.0
  0
LINE
  5
2E83D
330
1F
100
AcDbEntity
  8
電気錠制御盤　（株）アート
  6
Continuous
 62
     7
370
    13
100
AcDbLine
 10
293823.3509675251
 20
52324.87390992525
 30
0.0
 11
293823.3509675251
 21
52149.37390992525
 31
0.0
  0
LINE
  5
2E83E
330
1F
100
AcDbEntity
  8
電気錠制御盤　（株）アート
  6
Continuous
 62
     7
370
    13
100
AcDbLine
 10
293823.3509675251
 20
52149.37390992525
 30
0.0
 11
293998.8509675251
 21
52149.37390992525
 31
0.0
  0
LINE
  5
2E83F
330
1F
100
AcDbEntity
  8
電気錠制御盤　（株）アート
  6
Continuous
 62
     7
370
    13
100
AcDbLine
 10
293998.8509675251
 20
52149.37390992525
 30
0.0
 11
293998.8509675251
 21
52324.87390992525
 31
0.0
  0
LINE
  5
2E840
330
1F
100
AcDbEntity
  8
電気錠制御盤　（株）アート
  6
Continuous
 62
     7
370
    13
100
AcDbLine
 10
293998.8509675251
 20
52324.87390992525
 30
0.0
 11
293823.3509675251
 21
52324.87390992525
 31
0.0
  0
TEXT
  5
2E841
330
1F
100
AcDbEntity
  8
電気錠制御盤　（株）アート
  6
Continuous
 62
     7
370
    13
100
AcDbText
 10
297103.2002675266
 20
52403.62426992501
 30
0.0
 40
210.6
  1
GUARD
 41
0.5533333333333332
 11
297103.2002675266
 21
52403.62426992501
 31
0.0
100
AcDbText
 73
     1
  0
TEXT
  5
2E842
330
1F
100
AcDbEntity
  8
電気錠制御盤　（株）アート
  6
Continuous
 62
     7
370
    13
100
AcDbText
 10
295944.9002675266
 20
52403.62426992501
 30
0.0
 40
210.6
  1
ERROR
 41
0.5533333333333332
 11
295944.9002675266
 21
52403.62426992501
 31
0.0
100
AcDbText
 73
     1
  0
TEXT
  5
2E843
330
1F
100
AcDbEntity
  8
電気錠制御盤　（株）アート
  6
Continuous
 62
     7
370
    13
100
AcDbText
 10
294836.9336675286
 20
52403.62426992501
 30
0.0
 40
210.6
  1
LOCK
 41
0.5499999999999995
 11
294836.9336675286
 21
52403.62426992501
 31
0.0
100
AcDbText
 73
     1
  0
TEXT
  5
2E844
330
1F
100
AcDbEntity
  8
電気錠制御盤　（株）アート
  6
Continuous
 62
     7
370
    13
100
AcDbText
 10
293628.3002675266
 20
52403.62426992501
 30
0.0
 40
210.6
  1
POWER
 41
0.5533333333333332
 11
293628.3002675266
 21
52403.62426992501
 31
0.0
100
AcDbText
 73
     1
  0
ARC
  5
2E845
330
1F
100
AcDbEntity
  8
電気錠制御盤　（株）アート
  6
Continuous
 62
     7
370
    13
100
AcDbCircle
 10
296326.9787384007
 20
50173.22617341743
 30
0.0
 40
70.2
100
AcDbArc
 50
44.99999999955782
 51
135.0000000004422
  0
LINE
  5
2E846
330
1F
100
AcDbEntity
  8
電気錠制御盤　（株）アート
  6
Continuous
 62
     7
370
    13
100
AcDbLine
 10
296624.8121146362
 20
49974.67058925999
 30
0.0
 11
296376.6176344404
 21
50222.86506945712
 31
0.0
  0
ARC
  5
2E847
330
1F
100
AcDbEntity
  8
電気錠制御盤　（株）アート
  6
Continuous
 62
     7
370
    13
100
AcDbCircle
 10
296575.1732185965
 20
49925.03169322031
 30
0.0
 40
70.2
100
AcDbArc
 50
315.0000000004422
 51
44.99999999955782
  0
LINE
  5
2E848
330
1F
100
AcDbEntity
  8
電気錠制御盤　（株）アート
  6
Continuous
 62
     7
370
    13
100
AcDbLine
 10
296178.0620502843
 20
49428.64273282737
 30
0.0
 11
296624.8121146362
 21
49875.39279718061
 31
0.0
  0
ARC
  5
2E849
330
1F
100
AcDbEntity
  8
電気錠制御盤　（株）アート
  6
Continuous
 62
     7
370
    13
100
AcDbCircle
 10
296128.4231542446
 20
49478.28162886707
 30
0.0
 40
70.2
100
AcDbArc
 50
224.9999999995578
 51
315.0000000004422
  0
LINE
  5
2E84A
330
1F
100
AcDbEntity
  8
電気錠制御盤　（株）アート
  6
Continuous
 62
     7
370
    13
100
AcDbLine
 10
296277.339842361
 20
50222.86506945712
 30
0.0
 11
295830.5897780065
 21
49776.11500510255
 31
0.0
  0
LINE
  5
2E84B
330
1F
100
AcDbEntity
  8
電気錠制御盤　（株）アート
  6
Continuous
 62
     7
370
    13
100
AcDbLine
 10
295830.5897780065
 20
49676.83721302448
 30
0.0
 11
296078.7842582049
 21
49428.64273282737
 31
0.0
  0
ARC
  5
2E84C
330
1F
100
AcDbEntity
  8
電気錠制御盤　（株）アート
  6
Continuous
 62
     7
370
    13
100
AcDbCircle
 10
295880.2286740461
 20
49726.47610906418
 30
0.0
 40
70.2
100
AcDbArc
 50
135.0000000004422
 51
224.9999999995578
  0
LINE
  5
2E84D
330
1F
100
AcDbEntity
  8
電気錠制御盤　（株）アート
  6
Continuous
 62
     7
370
    13
100
AcDbLine
 10
295468.2258369207
 20
50456.16788084104
 30
0.0
 11
295743.721709939
 21
50309.73313752462
 31
0.0
  0
LINE
  5
2E84E
330
1F
100
AcDbEntity
  8
電気錠制御盤　（株）アート
  6
Continuous
 62
     7
370
    13
100
AcDbLine
 10
295743.721709939
 20
50309.73313752462
 30
0.0
 11
295597.2869666238
 21
50585.22901054292
 31
0.0
  0
LINE
  5
2E84F
330
1F
100
AcDbEntity
  8
電気錠制御盤　（株）アート
  6
Continuous
 62
     7
370
    13
100
AcDbLine
 10
295597.2869666238
 20
50585.22901054292
 30
0.0
 11
295468.2258369207
 21
50456.16788084104
 31
0.0
  0
LINE
  5
2E850
330
1F
100
AcDbEntity
  8
電気錠制御盤　（株）アート
  6
Continuous
 62
     7
370
    13
100
AcDbLine
 10
295553.2577100882
 20
50387.12060045485
 30
0.0
 11
295610.3431845248
 21
50356.77787079833
 31
0.0
  0
LINE
  5
2E851
330
1F
100
AcDbEntity
  8
電気錠制御盤　（株）アート
  6
Continuous
 62
     7
370
    13
100
AcDbLine
 10
295666.3342470101
 20
50500.19713737669
 30
0.0
 11
295696.6769766653
 21
50443.11166293877
 31
0.0
  0
LINE
  5
2E852
330
1F
100
AcDbEntity
  8
電気錠制御盤　（株）アート
  6
Continuous
 62
     7
370
    13
100
AcDbLine
 10
295597.2869666238
 20
49066.27879174157
 30
0.0
 11
295743.721709939
 21
49341.77466475987
 31
0.0
  0
LINE
  5
2E853
330
1F
100
AcDbEntity
  8
電気錠制御盤　（株）アート
  6
Continuous
 62
     7
370
    13
100
AcDbLine
 10
295743.721709939
 20
49341.77466475987
 30
0.0
 11
295468.2258369207
 21
49195.33992144343
 31
0.0
  0
LINE
  5
2E854
330
1F
100
AcDbEntity
  8
電気錠制御盤　（株）アート
  6
Continuous
 62
     7
370
    13
100
AcDbLine
 10
295468.2258369207
 20
49195.33992144343
 30
0.0
 11
295597.2869666238
 21
49066.27879174157
 31
0.0
  0
LINE
  5
2E855
330
1F
100
AcDbEntity
  8
電気錠制御盤　（株）アート
  6
Continuous
 62
     7
370
    13
100
AcDbLine
 10
295666.3342470101
 20
49151.31066490778
 30
0.0
 11
295696.6769766653
 21
49208.39613934441
 31
0.0
  0
LINE
  5
2E856
330
1F
100
AcDbEntity
  8
電気錠制御盤　（株）アート
  6
Continuous
 62
     7
370
    13
100
AcDbLine
 10
295553.2577100882
 20
49264.38720182964
 30
0.0
 11
295610.3431845248
 21
49294.72993148617
 31
0.0
  0
LINE
  5
2E857
330
1F
100
AcDbEntity
  8
電気錠制御盤　（株）アート
  6
Continuous
 62
     7
370
    13
100
AcDbLine
 10
296858.1149260215
 20
50585.22901054292
 30
0.0
 11
296711.6801827064
 21
50309.73313752462
 31
0.0
  0
LINE
  5
2E858
330
1F
100
AcDbEntity
  8
電気錠制御盤　（株）アート
  6
Continuous
 62
     7
370
    13
100
AcDbLine
 10
296711.6801827064
 20
50309.73313752462
 30
0.0
 11
296987.1760557246
 21
50456.16788084104
 31
0.0
  0
LINE
  5
2E859
330
1F
100
AcDbEntity
  8
電気錠制御盤　（株）アート
  6
Continuous
 62
     7
370
    13
100
AcDbLine
 10
296987.1760557246
 20
50456.16788084104
 30
0.0
 11
296858.1149260215
 21
50585.22901054292
 31
0.0
  0
LINE
  5
2E85A
330
1F
100
AcDbEntity
  8
電気錠制御盤　（株）アート
  6
Continuous
 62
     7
370
    13
100
AcDbLine
 10
296789.0676456326
 20
50500.19713737669
 30
0.0
 11
296758.7249159774
 21
50443.11166293877
 31
0.0
  0
LINE
  5
2E85B
330
1F
100
AcDbEntity
  8
電気錠制御盤　（株）アート
  6
Continuous
 62
     7
370
    13
100
AcDbLine
 10
296902.1441825571
 20
50387.12060045485
 30
0.0
 11
296845.0587081179
 21
50356.77787079833
 31
0.0
  0
LINE
  5
2E85C
330
1F
100
AcDbEntity
  8
電気錠制御盤　（株）アート
  6
Continuous
 62
     7
370
    13
100
AcDbLine
 10
296987.176098132
 20
49195.33987903349
 30
0.0
 11
296711.6802251137
 21
49341.77462234862
 31
0.0
  0
LINE
  5
2E85D
330
1F
100
AcDbEntity
  8
電気錠制御盤　（株）アート
  6
Continuous
 62
     7
370
    13
100
AcDbLine
 10
296711.6802251137
 20
49341.77462234862
 30
0.0
 11
296858.1149684315
 21
49066.27874933031
 31
0.0
  0
LINE
  5
2E85E
330
1F
100
AcDbEntity
  8
電気錠制御盤　（株）アート
  6
Continuous
 62
     7
370
    13
100
AcDbLine
 10
296858.1149684315
 20
49066.27874933031
 30
0.0
 11
296987.176098132
 21
49195.33987903349
 31
0.0
  0
LINE
  5
2E85F
330
1F
100
AcDbEntity
  8
電気錠制御盤　（株）アート
  6
Continuous
 62
     7
370
    13
100
AcDbLine
 10
296902.144224967
 20
49264.38715941968
 30
0.0
 11
296845.0587505278
 21
49294.72988907622
 31
0.0
  0
LINE
  5
2E860
330
1F
100
AcDbEntity
  8
電気錠制御盤　（株）アート
  6
Continuous
 62
     7
370
    13
100
AcDbLine
 10
296789.0676880453
 20
49151.31062249654
 30
0.0
 11
296758.7249583873
 21
49208.39609693576
 31
0.0
  0
LINE
  5
2E861
330
1F
100
AcDbEntity
  8
電気錠制御盤　（株）アート
  6
Continuous
 62
     7
370
    13
100
AcDbLine
 10
296184.1732466476
 20
49345.76994762828
 30
0.0
 11
296630.9233109996
 21
49792.52001198153
 31
0.0
  0
ARC
  5
2E862
330
1F
100
AcDbEntity
  8
電気錠制御盤　（株）アート
  6
Continuous
 62
     7
370
    13
100
AcDbCircle
 10
296134.5343506079
 20
49395.40884366796
 30
0.0
 40
70.2
100
AcDbArc
 50
224.9999999995578
 51
315.0000000004422
  0
LINE
  5
2E863
330
1F
100
AcDbEntity
  8
電気錠制御盤　（株）アート
  6
Continuous
 62
     7
370
    13
100
AcDbLine
 10
295836.7009743698
 20
49593.96442782541
 30
0.0
 11
296084.8954545682
 21
49345.76994762828
 31
0.0
  0
ARC
  5
2E864
330
1F
100
AcDbEntity
  8
電気錠制御盤　（株）アート
  6
Continuous
 62
     7
370
    13
100
AcDbCircle
 10
295886.3398704095
 20
49643.60332386378
 30
0.0
 40
70.2
100
AcDbArc
 50
148.1135373342441
 51
224.9999999995578
  0
ARC
  5
2E865
330
1F
100
AcDbEntity
  8
電気錠制御盤　（株）アート
  6
Continuous
 62
     7
370
    13
100
AcDbCircle
 10
296581.2844149625
 20
49842.15890802122
 30
0.0
 40
70.2
100
AcDbArc
 50
315.0000000004422
 51
40.50691148446093
  0
ARC
  5
2E866
330
1F
100
AcDbEntity
  8
電気錠制御盤　（株）アート
  6
Continuous
 62
     7
370
    13
100
AcDbCircle
 10
296227.7009463239
 20
49825.75390114224
 30
0.0
 40
877.5
100
AcDbArc
 50
140.2280028793335
 51
219.7719971206665
  0
ARC
  5
2E867
330
1F
100
AcDbEntity
  8
電気錠制御盤　（株）アート
  6
Continuous
 62
     7
370
    13
100
AcDbCircle
 10
296227.7009463239
 20
49825.75390114224
 30
0.0
 40
814.32
100
AcDbArc
 50
139.2993320216178
 51
220.7006679783822
  0
ARC
  5
2E868
330
1F
100
AcDbEntity
  8
電気錠制御盤　（株）アート
  6
Continuous
 62
     7
370
    13
100
AcDbCircle
 10
296227.7009463239
 20
49825.75390114224
 30
0.0
 40
877.5
100
AcDbArc
 50
230.228002880054
 51
309.7719982899264
  0
ARC
  5
2E869
330
1F
100
AcDbEntity
  8
電気錠制御盤　（株）アート
  6
Continuous
 62
     7
370
    13
100
AcDbCircle
 10
296227.7009463239
 20
49825.75390114224
 30
0.0
 40
814.32
100
AcDbArc
 50
229.2993320220698
 51
310.7006692431535
  0
ARC
  5
2E86A
330
1F
100
AcDbEntity
  8
電気錠制御盤　（株）アート
  6
Continuous
 62
     7
370
    13
100
AcDbCircle
 10
296227.7009463239
 20
49825.75390114224
 30
0.0
 40
877.5
100
AcDbArc
 50
320.2280017100736
 51
39.77199712066644
  0
ARC
  5
2E86B
330
1F
100
AcDbEntity
  8
電気錠制御盤　（株）アート
  6
Continuous
 62
     7
370
    13
100
AcDbCircle
 10
296227.7009463239
 20
49825.75390114224
 30
0.0
 40
877.5
100
AcDbArc
 50
50.22800288005401
 51
129.771997119946
  0
ARC
  5
2E86C
330
1F
100
AcDbEntity
  8
電気錠制御盤　（株）アート
  6
Continuous
 62
     7
370
    13
100
AcDbCircle
 10
296227.7009463239
 20
49825.75390114224
 30
0.0
 40
814.32
100
AcDbArc
 50
319.2033649876525
 51
40.70066797838217
  0
ARC
  5
2E86D
330
1F
100
AcDbEntity
  8
電気錠制御盤　（株）アート
  6
Continuous
 62
     7
370
    13
100
AcDbCircle
 10
296227.7009463239
 20
49825.75390114224
 30
0.0
 40
814.32
100
AcDbArc
 50
49.29933202206981
 51
130.7006679779302
  0
LINE
  5
2E86E
330
1F
100
AcDbEntity
  8
電気錠制御盤　（株）アート
  6
Continuous
 62
     7
370
    13
100
AcDbLine
 10
300354.1403191371
 20
45804.73501491317
 30
0.0
 11
300332.9969675276
 21
45826.04417047383
 31
0.0
  0
LINE
  5
2E86F
330
1F
100
AcDbEntity
  8
電気錠制御盤　（株）アート
  6
Continuous
 62
     7
370
    13
100
AcDbLine
 10
300332.9969675276
 20
54036.06365005004
 30
0.0
 11
300354.1403189959
 21
54057.37280507983
 31
0.0
  0
LINE
  5
2E870
330
1F
100
AcDbEntity
  8
電気錠制御盤　（株）アート
  6
Continuous
 62
     7
370
    13
100
AcDbLine
 10
292122.4049675276
 20
54036.06365005004
 30
0.0
 11
292101.2616160568
 21
54057.37280507983
 31
0.0
  0
LINE
  5
2E871
330
1F
100
AcDbEntity
  8
電気錠制御盤　（株）アート
  6
Continuous
 62
     7
370
    13
100
AcDbLine
 10
292122.4049675276
 20
45826.04417047383
 30
0.0
 11
292101.2616159156
 21
45804.73501491317
 31
0.0
  0
ARC
  5
2E872
330
1F
100
AcDbEntity
  8
電気錠制御盤　（株）アート
  6
Continuous
 62
     7
370
    13
100
AcDbCircle
 10
292139.9549675277
 20
45843.59417047383
 30
0.0
 40
17.55
100
AcDbArc
 50
180.0
 51
270.0
  0
LINE
  5
2E873
330
1F
100
AcDbEntity
  8
電気錠制御盤　（株）アート
  6
Continuous
 62
     7
370
    13
100
AcDbLine
 10
292122.4049675276
 20
54018.51365005004
 30
0.0
 11
292122.4049675276
 21
45843.59417047383
 31
0.0
  0
LINE
  5
2E874
330
1F
100
AcDbEntity
  8
電気錠制御盤　（株）アート
  6
Continuous
 62
     7
370
    13
100
AcDbLine
 10
292139.9549675277
 20
45826.04417047383
 30
0.0
 11
300315.4469675277
 21
45826.04417047383
 31
0.0
  0
ARC
  5
2E875
330
1F
100
AcDbEntity
  8
電気錠制御盤　（株）アート
  6
Continuous
 62
     7
370
    13
100
AcDbCircle
 10
300315.4469675277
 20
45843.59417047383
 30
0.0
 40
17.55
100
AcDbArc
 50
270.0
 51
0.0
  0
LINE
  5
2E876
330
1F
100
AcDbEntity
  8
電気錠制御盤　（株）アート
  6
Continuous
 62
     7
370
    13
100
AcDbLine
 10
300332.9969675276
 20
45843.59417047383
 30
0.0
 11
300332.9969675276
 21
54018.51365005004
 31
0.0
  0
ARC
  5
2E877
330
1F
100
AcDbEntity
  8
電気錠制御盤　（株）アート
  6
Continuous
 62
     7
370
    13
100
AcDbCircle
 10
300315.4469675277
 20
54018.51365005004
 30
0.0
 40
17.55
100
AcDbArc
 50
0.0
 51
90.0
  0
LINE
  5
2E878
330
1F
100
AcDbEntity
  8
電気錠制御盤　（株）アート
  6
Continuous
 62
     7
370
    13
100
AcDbLine
 10
300315.4469675277
 20
54036.06365005004
 30
0.0
 11
292139.9549675277
 21
54036.06365005004
 31
0.0
  0
ARC
  5
2E879
330
1F
100
AcDbEntity
  8
電気錠制御盤　（株）アート
  6
Continuous
 62
     7
370
    13
100
AcDbCircle
 10
292139.9549675277
 20
54018.51365005004
 30
0.0
 40
17.55
100
AcDbArc
 50
90.0
 51
180.0
  0
ARC
  5
2E87A
330
1F
100
AcDbEntity
  8
電気錠制御盤　（株）アート
  6
Continuous
 62
     7
370
    13
100
AcDbCircle
 10
292138.550967525
 20
54020.20390992523
 30
0.0
 40
52.65
100
AcDbArc
 50
90.0
 51
180.0
  0
LINE
  5
2E87B
330
1F
100
AcDbEntity
  8
電気錠制御盤　（株）アート
  6
Continuous
 62
     7
370
    13
100
AcDbLine
 10
292085.900967525
 20
54020.20390992523
 30
0.0
 11
292085.900967525
 21
45841.90390992525
 31
0.0
  0
LINE
  5
2E87C
330
1F
100
AcDbEntity
  8
電気錠制御盤　（株）アート
  6
Continuous
 62
     7
370
    13
100
AcDbLine
 10
300316.850967525
 20
54072.85390992524
 30
0.0
 11
292138.550967525
 21
54072.85390992524
 31
0.0
  0
ARC
  5
2E87D
330
1F
100
AcDbEntity
  8
電気錠制御盤　（株）アート
  6
Continuous
 62
     7
370
    13
100
AcDbCircle
 10
292138.550967525
 20
45841.90390992525
 30
0.0
 40
52.65
100
AcDbArc
 50
180.0
 51
270.0
  0
LINE
  5
2E87E
330
1F
100
AcDbEntity
  8
電気錠制御盤　（株）アート
  6
Continuous
 62
     7
370
    13
100
AcDbLine
 10
292138.550967525
 20
45789.25390992524
 30
0.0
 11
300316.850967525
 21
45789.25390992524
 31
0.0
  0
ARC
  5
2E87F
330
1F
100
AcDbEntity
  8
電気錠制御盤　（株）アート
  6
Continuous
 62
     7
370
    13
100
AcDbCircle
 10
300316.850967525
 20
45841.90390992525
 30
0.0
 40
52.65
100
AcDbArc
 50
270.0
 51
0.0
  0
LINE
  5
2E880
330
1F
100
AcDbEntity
  8
電気錠制御盤　（株）アート
  6
Continuous
 62
     7
370
    13
100
AcDbLine
 10
300369.500967525
 20
45841.90390992525
 30
0.0
 11
300369.500967525
 21
54020.20390992523
 31
0.0
  0
ARC
  5
2E881
330
1F
100
AcDbEntity
  8
電気錠制御盤　（株）アート
  6
Continuous
 62
     7
370
    13
100
AcDbCircle
 10
300316.850967525
 20
54020.20390992523
 30
0.0
 40
52.65
100
AcDbArc
 50
0.0
 51
90.0
  0
LINE
  5
2E882
330
1F
100
AcDbEntity
  8
電気錠制御盤　（株）アート
  6
Continuous
 62
     7
370
    13
100
AcDbLine
 10
292236.8309675276
 20
53921.92390992525
 30
0.0
 11
292236.8309675276
 21
45940.18390992524
 31
0.0
  0
LINE
  5
2E883
330
1F
100
AcDbEntity
  8
電気錠制御盤　（株）アート
  6
Continuous
 62
     7
370
    13
100
AcDbLine
 10
292236.8309675276
 20
45940.18390992524
 30
0.0
 11
300218.5709675277
 21
45940.18390992524
 31
0.0
  0
LINE
  5
2E884
330
1F
100
AcDbEntity
  8
電気錠制御盤　（株）アート
  6
Continuous
 62
     7
370
    13
100
AcDbLine
 10
300218.5709675277
 20
45940.18390992524
 30
0.0
 11
300218.5709675277
 21
53921.92390992525
 31
0.0
  0
LINE
  5
2E885
330
1F
100
AcDbEntity
  8
電気錠制御盤　（株）アート
  6
Continuous
 62
     7
370
    13
100
AcDbLine
 10
300218.5709675277
 20
53921.92390992525
 30
0.0
 11
292236.8309675276
 21
53921.92390992525
 31
0.0
  0
DIMENSION
  5
2E886
330
1F
100
AcDbEntity
  8
電気錠制御盤　（株）アート
  6
Continuous
 62
     7
370
    13
100
AcDbDimension
  2
*D968
 10
304581.500967525
 20
55125.85390992525
 30
0.0
 11
304230.500967525
 21
55375.85390992524
 31
0.0
 70
    32
  1
10
 71
     5
 42
702.0
  3
Standard
100
AcDbAlignedDimension
 13
303879.500967525
 23
54176.46365072477
 33
0.0
 14
304581.500967525
 24
54213.25390992524
 34
0.0
100
AcDbRotatedDimension
1001
ACAD
1000
DSTYLE
1002
{
1070
    41
1040
500.0
1070
    73
1070
     0
1070
    77
1070
     1
1070
   140
1040
400.0
1070
   147
1040
50.0
1070
   173
1070
     1
1070
   343
1005
FF
1070
   344
1005
FF
1002
}
  0
LINE
  5
2E887
330
1F
100
AcDbEntity
  8
電気錠制御盤　（株）アート
  6
Continuous
 62
     7
370
    13
100
AcDbLine
 10
304568.1957491133
 20
45789.66024121443
 30
0.0
 11
304560.4409508352
 21
45789.25384631554
 31
0.0
  0
ARC
  5
2E888
330
1F
100
AcDbEntity
  8
電気錠制御盤　（株）アート
  6
Continuous
 62
     7
370
    13
100
AcDbCircle
 10
304567.4609518367
 20
45803.68092883588
 30
0.0
 40
14.0399999999992
100
AcDbArc
 50
273.0000000004197
 51
0.0
  0
LINE
  5
2E889
330
1F
100
AcDbEntity
  8
電気錠制御盤　（株）アート
  6
Continuous
 62
     7
370
    13
100
AcDbLine
 10
304581.5009141759
 20
45892.14765880467
 30
0.0
 11
304581.5009141759
 21
45812.32244301797
 31
0.0
  0
ARC
  5
2E88A
330
1F
100
AcDbEntity
  8
電気錠制御盤　（株）アート
  6
Continuous
 62
     7
370
    13
100
AcDbCircle
 10
303914.6009518341
 20
45858.24903161435
 30
0.0
 40
35.1
100
AcDbArc
 50
180.0
 51
266.9999999995803
  0
LINE
  5
2E88B
330
1F
100
AcDbEntity
  8
電気錠制御盤　（株）アート
  6
Continuous
 62
     7
370
    13
100
AcDbLine
 10
304560.4409508352
 20
45789.25390992524
 30
0.0
 11
303912.7639584989
 21
45823.19703702093
 31
0.0
  0
LINE
  5
2E88C
330
1F
100
AcDbEntity
  8
電気錠制御盤　（株）アート
  6
Continuous
 62
     7
370
    13
100
AcDbLine
 10
304581.5009518341
 20
45870.49496997358
 30
0.0
 11
304581.5009518341
 21
45803.68092883588
 31
0.0
  0
LINE
  5
2E88D
330
1F
100
AcDbEntity
  8
電気錠制御盤　（株）アート
  6
Continuous
 62
     7
370
    13
100
AcDbLine
 10
303879.500967525
 20
45930.2402504182
 30
0.0
 11
303879.500967525
 21
45858.24898932339
 31
0.0
  0
LINE
  5
2E88E
330
1F
100
AcDbEntity
  8
電気錠制御盤　（株）アート
  6
Continuous
 62
     7
370
    13
100
AcDbLine
 10
303879.500967525
 20
45930.2402504182
 30
0.0
 11
303879.500967525
 21
46000.44039268257
 31
0.0
  0
LINE
  5
2E88F
330
1F
100
AcDbEntity
  8
電気錠制御盤　（株）アート
  6
Continuous
 62
     7
370
    13
100
AcDbLine
 10
304581.5009518341
 20
45929.65393293859
 30
0.0
 11
304581.5009518341
 21
45870.49496997358
 31
0.0
  0
LINE
  5
2E890
330
1F
100
AcDbEntity
  8
電気錠制御盤　（株）アート
  6
Continuous
 62
     7
370
    13
100
AcDbLine
 10
304581.5009141759
 20
54049.7853768325
 30
0.0
 11
304581.5009141759
 21
53969.96016104581
 31
0.0
  0
LINE
  5
2E891
330
1F
100
AcDbEntity
  8
電気錠制御盤　（株）アート
  6
Continuous
 62
     7
370
    13
100
AcDbLine
 10
304581.5009518341
 20
54058.4268910146
 30
0.0
 11
304581.5009518341
 21
53991.6128498769
 31
0.0
  0
ARC
  5
2E892
330
1F
100
AcDbEntity
  8
電気錠制御盤　（株）アート
  6
Continuous
 62
     7
370
    13
100
AcDbCircle
 10
304567.4609518367
 20
54058.4268274049
 30
0.0
 40
14.0399999999992
100
AcDbArc
 50
0.0
 51
86.99999999958031
  0
LINE
  5
2E893
330
1F
100
AcDbEntity
  8
電気錠制御盤　（株）アート
  6
Continuous
 62
     7
370
    13
100
AcDbLine
 10
304560.4409508352
 20
54072.85390992524
 30
0.0
 11
304568.1957491133
 21
54072.44751502635
 31
0.0
  0
LINE
  5
2E894
330
1F
100
AcDbEntity
  8
電気錠制御盤　（株）アート
  6
Continuous
 62
     7
370
    13
100
AcDbLine
 10
303912.7639584989
 20
54038.91078282955
 30
0.0
 11
304560.4409508352
 21
54072.85390992524
 31
0.0
  0
LINE
  5
2E895
330
1F
100
AcDbEntity
  8
電気錠制御盤　（株）アート
  6
Continuous
 62
     7
370
    13
100
AcDbLine
 10
303879.500967525
 20
54003.85883052709
 30
0.0
 11
303879.500967525
 21
53931.86756943228
 31
0.0
  0
ARC
  5
2E896
330
1F
100
AcDbEntity
  8
電気錠制御盤　（株）アート
  6
Continuous
 62
     7
370
    13
100
AcDbCircle
 10
303914.6009518341
 20
54003.8587882348
 30
0.0
 40
35.1
100
AcDbArc
 50
93.0000000004197
 51
180.0
  0
LINE
  5
2E897
330
1F
100
AcDbEntity
  8
電気錠制御盤　（株）アート
  6
Continuous
 62
     7
370
    13
100
AcDbLine
 10
303879.500967525
 20
53861.66742716791
 30
0.0
 11
303879.500967525
 21
53931.86756943228
 31
0.0
  0
LINE
  5
2E898
330
1F
100
AcDbEntity
  8
電気錠制御盤　（株）アート
  6
Continuous
 62
     7
370
    13
100
AcDbLine
 10
304581.5009518341
 20
53991.6128498769
 30
0.0
 11
304581.5009518341
 21
53932.45388691189
 31
0.0
  0
LINE
  5
2E899
330
1F
100
AcDbEntity
  8
電気錠制御盤　（株）アート
  6
Continuous
 62
     7
370
    13
100
AcDbLine
 10
304581.5009141759
 20
53969.96016104581
 30
0.0
 11
304581.5009141759
 21
45892.14765880467
 31
0.0
  0
LINE
  5
2E89A
330
1F
100
AcDbEntity
  8
電気錠制御盤　（株）アート
  6
Continuous
 62
     7
370
    13
100
AcDbLine
 10
303879.500967525
 20
46000.44039268257
 30
0.0
 11
303879.500967525
 21
53861.66742716791
 31
0.0
  0
LINE
  5
2E89B
330
1F
100
AcDbEntity
  8
電気錠制御盤　（株）アート
  6
Continuous
 62
     7
370
    13
100
AcDbLine
 10
304581.5009518341
 20
53932.45388691189
 30
0.0
 11
304581.5009518341
 21
45929.65393293859
 31
0.0
  0
DIMENSION
  5
2E89C
330
1F
100
AcDbEntity
  8
電気錠制御盤　（株）アート
  6
Continuous
 62
     7
370
    13
100
AcDbDimension
  2
*D969
 10
302826.500967525
 20
45826.04416806788
 30
0.0
 11
302576.5009675251
 21
49931.05390841764
 31
0.0
 70
    32
  1
（117）
 71
     5
 42
8210.019480699427
  3
Standard
100
AcDbAlignedDimension
 13
303739.1009675251
 23
54036.06364876731
 33
0.0
 14
303739.1009675251
 24
45826.04416806788
 34
0.0
 50
90.0
100
AcDbRotatedDimension
1001
ACAD
1000
DSTYLE
1002
{
1070
    41
1040
500.0
1070
    73
1070
     0
1070
    77
1070
     1
1070
   140
1040
400.0
1070
   147
1040
50.0
1070
   173
1070
     1
1070
   343
1005
FF
1070
   344
1005
FF
1002
}
  0
DIMENSION
  5
2E89D
330
1F
100
AcDbEntity
  8
電気錠制御盤　（株）アート
  6
Continuous
 62
     7
370
    13
100
AcDbDimension
  2
*D970
 10
305634.500967525
 20
55125.85390992525
 30
0.0
 11
307471.1676341917
 21
55375.85390992524
 31
0.0
 70
    32
  1
（15）
 71
     5
 42
1053.0
  3
Standard
100
AcDbAlignedDimension
 13
304581.500967525
 23
54213.25390992524
 33
0.0
 14
305634.500967525
 24
52387.73098992591
 34
0.0
100
AcDbRotatedDimension
1001
ACAD
1000
DSTYLE
1002
{
1070
    41
1040
500.0
1070
    73
1070
     0
1070
    77
1070
     1
1070
   140
1040
400.0
1070
   147
1040
50.0
1070
   173
1070
     1
1070
   343
1005
FF
1070
   344
1005
FF
1002
}
  0
LINE
  5
2E89E
330
1F
100
AcDbEntity
  8
電気錠制御盤　（株）アート
  6
Continuous
 62
     7
370
    13
100
AcDbLine
 10
304711.3709142151
 20
52224.03539743782
 30
0.0
 11
304771.0409190924
 21
52226.02082219483
 31
0.0
  0
LINE
  5
2E89F
330
1F
100
AcDbEntity
  8
電気錠制御盤　（株）アート
  6
Continuous
 62
     7
370
    13
100
AcDbLine
 10
304771.0409141785
 20
52225.98726892048
 30
0.0
 11
304769.0520374473
 21
52225.92338805022
 31
0.0
  0
LINE
  5
2E8A0
330
1F
100
AcDbEntity
  8
電気錠制御盤　（株）アート
  6
Continuous
 62
     7
370
    13
100
AcDbLine
 10
304769.0520374473
 20
52225.92338805022
 30
0.0
 11
304767.0631538983
 21
52225.8594417475
 31
0.0
  0
LINE
  5
2E8A1
330
1F
100
AcDbEntity
  8
電気錠制御盤　（株）アート
  6
Continuous
 62
     7
370
    13
100
AcDbLine
 10
304767.0631538983
 20
52225.8594417475
 30
0.0
 11
304765.0742635316
 21
52225.79543001623
 31
0.0
  0
LINE
  5
2E8A2
330
1F
100
AcDbEntity
  8
電気錠制御盤　（株）アート
  6
Continuous
 62
     7
370
    13
100
AcDbLine
 10
304765.0742635316
 20
52225.79543001623
 30
0.0
 11
304763.0853663473
 21
52225.73135285515
 31
0.0
  0
LINE
  5
2E8A3
330
1F
100
AcDbEntity
  8
電気錠制御盤　（株）アート
  6
Continuous
 62
     7
370
    13
100
AcDbLine
 10
304763.0853663473
 20
52225.73135285515
 30
0.0
 11
304761.0964623479
 21
52225.66721026421
 31
0.0
  0
LINE
  5
2E8A4
330
1F
100
AcDbEntity
  8
電気錠制御盤　（株）アート
  6
Continuous
 62
     7
370
    13
100
AcDbLine
 10
304761.0964623479
 20
52225.66721026421
 30
0.0
 11
304759.107551528
 21
52225.60300224214
 31
0.0
  0
LINE
  5
2E8A5
330
1F
100
AcDbEntity
  8
電気錠制御盤　（株）アート
  6
Continuous
 62
     7
370
    13
100
AcDbLine
 10
304759.107551528
 20
52225.60300224214
 30
0.0
 11
304757.1186338932
 21
52225.53872879153
 31
0.0
  0
LINE
  5
2E8A6
330
1F
100
AcDbEntity
  8
電気錠制御盤　（株）アート
  6
Continuous
 62
     7
370
    13
100
AcDbLine
 10
304757.1186338932
 20
52225.53872879153
 30
0.0
 11
304755.1297094381
 21
52225.47438990977
 31
0.0
  0
LINE
  5
2E8A7
330
1F
100
AcDbEntity
  8
電気錠制御盤　（株）アート
  6
Continuous
 62
     7
370
    13
100
AcDbLine
 10
304755.1297094381
 20
52225.47438990977
 30
0.0
 11
304753.1407781678
 21
52225.40998559815
 31
0.0
  0
LINE
  5
2E8A8
330
1F
100
AcDbEntity
  8
電気錠制御盤　（株）アート
  6
Continuous
 62
     7
370
    13
100
AcDbLine
 10
304753.1407781678
 20
52225.40998559815
 30
0.0
 11
304751.1518400824
 21
52225.34551585802
 31
0.0
  0
LINE
  5
2E8A9
330
1F
100
AcDbEntity
  8
電気錠制御盤　（株）アート
  6
Continuous
 62
     7
370
    13
100
AcDbLine
 10
304751.1518400824
 20
52225.34551585802
 30
0.0
 11
304749.1628951741
 21
52225.28098068677
 31
0.0
  0
LINE
  5
2E8AA
330
1F
100
AcDbEntity
  8
電気錠制御盤　（株）アート
  6
Continuous
 62
     7
370
    13
100
AcDbLine
 10
304749.1628951741
 20
52225.28098068677
 30
0.0
 11
304747.1739434507
 21
52225.21638008694
 31
0.0
  0
LINE
  5
2E8AB
330
1F
100
AcDbEntity
  8
電気錠制御盤　（株）アート
  6
Continuous
 62
     7
370
    13
100
AcDbLine
 10
304747.1739434507
 20
52225.21638008694
 30
0.0
 11
304745.1849849123
 21
52225.15171405596
 31
0.0
  0
LINE
  5
2E8AC
330
1F
100
AcDbEntity
  8
電気錠制御盤　（株）アート
  6
Continuous
 62
     7
370
    13
100
AcDbLine
 10
304745.1849849123
 20
52225.15171405596
 30
0.0
 11
304743.1960195534
 21
52225.08698259516
 31
0.0
  0
LINE
  5
2E8AD
330
1F
100
AcDbEntity
  8
電気錠制御盤　（株）アート
  6
Continuous
 62
     7
370
    13
100
AcDbLine
 10
304743.1960195534
 20
52225.08698259516
 30
0.0
 11
304741.2070473795
 21
52225.02218570451
 31
0.0
  0
LINE
  5
2E8AE
330
1F
100
AcDbEntity
  8
電気錠制御盤　（株）アート
  6
Continuous
 62
     7
370
    13
100
AcDbLine
 10
304741.2070473795
 20
52225.02218570451
 30
0.0
 11
304739.2180683853
 21
52224.95732338404
 31
0.0
  0
LINE
  5
2E8AF
330
1F
100
AcDbEntity
  8
電気錠制御盤　（株）アート
  6
Continuous
 62
     7
370
    13
100
AcDbLine
 10
304739.2180683853
 20
52224.95732338404
 30
0.0
 11
304737.2290825761
 21
52224.89239563372
 31
0.0
  0
LINE
  5
2E8B0
330
1F
100
AcDbEntity
  8
電気錠制御盤　（株）アート
  6
Continuous
 62
     7
370
    13
100
AcDbLine
 10
304737.2290825761
 20
52224.89239563372
 30
0.0
 11
304735.240089949
 21
52224.82740245486
 31
0.0
  0
LINE
  5
2E8B1
330
1F
100
AcDbEntity
  8
電気錠制御盤　（株）アート
  6
Continuous
 62
     7
370
    13
100
AcDbLine
 10
304735.240089949
 20
52224.82740245486
 30
0.0
 11
304733.2510905017
 21
52224.76234384487
 31
0.0
  0
LINE
  5
2E8B2
330
1F
100
AcDbEntity
  8
電気錠制御盤　（株）アート
  6
Continuous
 62
     7
370
    13
100
AcDbLine
 10
304733.2510905017
 20
52224.76234384487
 30
0.0
 11
304731.2620842419
 21
52224.6972198037
 31
0.0
  0
LINE
  5
2E8B3
330
1F
100
AcDbEntity
  8
電気錠制御盤　（株）アート
  6
Continuous
 62
     7
370
    13
100
AcDbLine
 10
304936.3720204168
 20
47492.65182715418
 30
0.0
 11
305129.8242954024
 21
47502.79025536539
 31
0.0
  0
ARC
  5
2E8B4
330
1F
100
AcDbEntity
  8
電気錠制御盤　（株）アート
  6
Continuous
 62
     7
370
    13
100
AcDbCircle
 10
305129.0610502083
 20
47516.80961224098
 30
0.0
 40
14.03989083698923
100
AcDbArc
 50
273.3459700221199
 51
0.0094399911960293
  0
LINE
  5
2E8B5
330
1F
100
AcDbEntity
  8
電気錠制御盤　（株）アート
  6
Continuous
 62
     7
370
    13
100
AcDbLine
 10
305294.0309459762
 20
48989.29682232948
 30
0.0
 11
305294.0309459762
 21
49539.01097503067
 31
0.0
  0
LINE
  5
2E8B6
330
1F
100
AcDbEntity
  8
電気錠制御盤　（株）アート
  6
Continuous
 62
     7
370
    13
100
AcDbLine
 10
304711.3709142151
 20
51994.96217806401
 30
0.0
 11
304711.3709142151
 21
52205.98822113635
 31
0.0
  0
LINE
  5
2E8B7
330
1F
100
AcDbEntity
  8
電気錠制御盤　（株）アート
  6
Continuous
 62
     7
370
    13
100
AcDbLine
 10
304711.3709142151
 20
51994.96217806401
 30
0.0
 11
304771.0409190924
 21
51992.976753307
 31
0.0
  0
LINE
  5
2E8B8
330
1F
100
AcDbEntity
  8
電気錠制御盤　（株）アート
  6
Continuous
 62
     7
370
    13
100
AcDbLine
 10
304771.0409190924
 20
51821.03601422669
 30
0.0
 11
304771.0409190924
 21
51992.976753307
 31
0.0
  0
LINE
  5
2E8B9
330
1F
100
AcDbEntity
  8
電気錠制御盤　（株）アート
  6
Continuous
 62
     7
370
    13
100
AcDbLine
 10
304932.5009063304
 20
47492.44915273549
 30
0.0
 11
304581.5009141759
 21
47474.05389946463
 31
0.0
  0
LINE
  5
2E8BA
330
1F
100
AcDbEntity
  8
電気錠制御盤　（株）アート
  6
Continuous
 62
     7
370
    13
100
AcDbLine
 10
304581.5009141759
 20
52388.05392038585
 30
0.0
 11
304771.0409190924
 21
52378.12052023175
 31
0.0
  0
LINE
  5
2E8BB
330
1F
100
AcDbEntity
  8
電気錠制御盤　（株）アート
  6
Continuous
 62
     7
370
    13
100
AcDbLine
 10
304771.0409190924
 20
52378.12052023175
 30
0.0
 11
304771.0409190924
 21
52219.6510921097
 31
0.0
  0
LINE
  5
2E8BC
330
1F
100
AcDbEntity
  8
電気錠制御盤　（株）アート
  6
Continuous
 62
     7
370
    13
100
AcDbLine
 10
304711.3709142151
 20
52224.03539743782
 30
0.0
 11
304711.3709142151
 21
52205.98822113635
 31
0.0
  0
LINE
  5
2E8BD
330
1F
100
AcDbEntity
  8
電気錠制御盤　（株）アート
  6
Continuous
 62
     7
370
    13
100
AcDbLine
 10
304771.0409190924
 20
51993.0103580332
 30
0.0
 11
304771.0409190924
 21
52021.67008992793
 31
0.0
  0
LINE
  5
2E8BE
330
1F
100
AcDbEntity
  8
電気錠制御盤　（株）アート
  6
Continuous
 62
     7
370
    13
100
AcDbLine
 10
304771.0409141785
 20
51993.01030658135
 30
0.0
 11
304769.0520374473
 21
51993.07418745292
 31
0.0
  0
LINE
  5
2E8BF
330
1F
100
AcDbEntity
  8
電気錠制御盤　（株）アート
  6
Continuous
 62
     7
370
    13
100
AcDbLine
 10
304769.0520374473
 20
51993.07418745292
 30
0.0
 11
304767.0631538983
 21
51993.13813375435
 31
0.0
  0
LINE
  5
2E8C0
330
1F
100
AcDbEntity
  8
電気錠制御盤　（株）アート
  6
Continuous
 62
     7
370
    13
100
AcDbLine
 10
304767.0631538983
 20
51993.13813375435
 30
0.0
 11
304765.0742635316
 21
51993.2021454869
 31
0.0
  0
LINE
  5
2E8C1
330
1F
100
AcDbEntity
  8
電気錠制御盤　（株）アート
  6
Continuous
 62
     7
370
    13
100
AcDbLine
 10
304765.0742635316
 20
51993.2021454869
 30
0.0
 11
304763.0853663473
 21
51993.26622264798
 31
0.0
  0
LINE
  5
2E8C2
330
1F
100
AcDbEntity
  8
電気錠制御盤　（株）アート
  6
Continuous
 62
     7
370
    13
100
AcDbLine
 10
304763.0853663473
 20
51993.26622264798
 30
0.0
 11
304761.0964623479
 21
51993.33036523892
 31
0.0
  0
LINE
  5
2E8C3
330
1F
100
AcDbEntity
  8
電気錠制御盤　（株）アート
  6
Continuous
 62
     7
370
    13
100
AcDbLine
 10
304761.0964623479
 20
51993.33036523892
 30
0.0
 11
304759.107551528
 21
51993.39457325968
 31
0.0
  0
LINE
  5
2E8C4
330
1F
100
AcDbEntity
  8
電気錠制御盤　（株）アート
  6
Continuous
 62
     7
370
    13
100
AcDbLine
 10
304759.107551528
 20
51993.39457325968
 30
0.0
 11
304757.1186338932
 21
51993.4588467116
 31
0.0
  0
LINE
  5
2E8C5
330
1F
100
AcDbEntity
  8
電気錠制御盤　（株）アート
  6
Continuous
 62
     7
370
    13
100
AcDbLine
 10
304757.1186338932
 20
51993.4588467116
 30
0.0
 11
304755.1297094381
 21
51993.52318559208
 31
0.0
  0
LINE
  5
2E8C6
330
1F
100
AcDbEntity
  8
電気錠制御盤　（株）アート
  6
Continuous
 62
     7
370
    13
100
AcDbLine
 10
304755.1297094381
 20
51993.52318559208
 30
0.0
 11
304753.1407781678
 21
51993.58758990236
 31
0.0
  0
LINE
  5
2E8C7
330
1F
100
AcDbEntity
  8
電気錠制御盤　（株）アート
  6
Continuous
 62
     7
370
    13
100
AcDbLine
 10
304753.1407781678
 20
51993.58758990236
 30
0.0
 11
304751.1518400824
 21
51993.65205964512
 31
0.0
  0
LINE
  5
2E8C8
330
1F
100
AcDbEntity
  8
電気錠制御盤　（株）アート
  6
Continuous
 62
     7
370
    13
100
AcDbLine
 10
304751.1518400824
 20
51993.65205964512
 30
0.0
 11
304749.1628951741
 21
51993.71659481508
 31
0.0
  0
LINE
  5
2E8C9
330
1F
100
AcDbEntity
  8
電気錠制御盤　（株）アート
  6
Continuous
 62
     7
370
    13
100
AcDbLine
 10
304749.1628951741
 20
51993.71659481508
 30
0.0
 11
304747.1739434507
 21
51993.78119541623
 31
0.0
  0
LINE
  5
2E8CA
330
1F
100
AcDbEntity
  8
電気錠制御盤　（株）アート
  6
Continuous
 62
     7
370
    13
100
AcDbLine
 10
304747.1739434507
 20
51993.78119541623
 30
0.0
 11
304745.1849849123
 21
51993.84586144586
 31
0.0
  0
LINE
  5
2E8CB
330
1F
100
AcDbEntity
  8
電気錠制御盤　（株）アート
  6
Continuous
 62
     7
370
    13
100
AcDbLine
 10
304745.1849849123
 20
51993.84586144586
 30
0.0
 11
304743.1960195534
 21
51993.91059290666
 31
0.0
  0
LINE
  5
2E8CC
330
1F
100
AcDbEntity
  8
電気錠制御盤　（株）アート
  6
Continuous
 62
     7
370
    13
100
AcDbLine
 10
304743.1960195534
 20
51993.91059290666
 30
0.0
 11
304741.2070473795
 21
51993.9753897973
 31
0.0
  0
LINE
  5
2E8CD
330
1F
100
AcDbEntity
  8
電気錠制御盤　（株）アート
  6
Continuous
 62
     7
370
    13
100
AcDbLine
 10
304741.2070473795
 20
51993.9753897973
 30
0.0
 11
304739.2180683853
 21
51994.04025211778
 31
0.0
  0
LINE
  5
2E8CE
330
1F
100
AcDbEntity
  8
電気錠制御盤　（株）アート
  6
Continuous
 62
     7
370
    13
100
AcDbLine
 10
304739.2180683853
 20
51994.04025211778
 30
0.0
 11
304737.2290825761
 21
51994.10517986812
 31
0.0
  0
LINE
  5
2E8CF
330
1F
100
AcDbEntity
  8
電気錠制御盤　（株）アート
  6
Continuous
 62
     7
370
    13
100
AcDbLine
 10
304737.2290825761
 20
51994.10517986812
 30
0.0
 11
304735.240089949
 21
51994.17017304827
 31
0.0
  0
LINE
  5
2E8D0
330
1F
100
AcDbEntity
  8
電気錠制御盤　（株）アート
  6
Continuous
 62
     7
370
    13
100
AcDbLine
 10
304735.240089949
 20
51994.17017304827
 30
0.0
 11
304733.2510905017
 21
51994.23523165827
 31
0.0
  0
LINE
  5
2E8D1
330
1F
100
AcDbEntity
  8
電気錠制御盤　（株）アート
  6
Continuous
 62
     7
370
    13
100
AcDbLine
 10
304733.2510905017
 20
51994.23523165827
 30
0.0
 11
304731.2620842419
 21
51994.30035569812
 31
0.0
  0
LINE
  5
2E8D2
330
1F
100
AcDbEntity
  8
電気錠制御盤　（株）アート
  6
Continuous
 62
     7
370
    13
100
AcDbLine
 10
304771.0409190924
 20
51992.976753307
 30
0.0
 11
304771.0409190924
 21
51993.0103580332
 31
0.0
  0
LINE
  5
2E8D3
330
1F
100
AcDbEntity
  8
電気錠制御盤　（株）アート
  6
Continuous
 62
     7
370
    13
100
AcDbLine
 10
304771.0409190924
 20
52194.2623945749
 30
0.0
 11
304771.0409190924
 21
52219.6510921097
 31
0.0
  0
LINE
  5
2E8D4
330
1F
100
AcDbEntity
  8
電気錠制御盤　（株）アート
  6
Continuous
 62
     7
370
    13
100
AcDbLine
 10
304771.0409190924
 20
51891.13991883161
 30
0.0
 11
305567.9749086917
 21
51849.37434372069
 31
0.0
  0
LINE
  5
2E8D5
330
1F
100
AcDbEntity
  8
電気錠制御盤　（株）アート
  6
Continuous
 62
     7
370
    13
100
AcDbLine
 10
305143.1009408505
 20
49565.40693173693
 30
0.0
 11
305143.1009408505
 21
47545.21537226202
 31
0.0
  0
LINE
  5
2E8D6
330
1F
100
AcDbEntity
  8
電気錠制御盤　（株）アート
  6
Continuous
 62
     7
370
    13
100
AcDbLine
 10
305143.1009141759
 20
49565.40692356981
 30
0.0
 11
305143.1009141759
 21
49568.55920578367
 31
0.0
  0
LINE
  5
2E8D7
330
1F
100
AcDbEntity
  8
電気錠制御盤　（株）アート
  6
Continuous
 62
     7
370
    13
100
AcDbLine
 10
305143.1009141759
 20
49568.55920578367
 30
0.0
 11
305143.0908167193
 21
49569.19214070967
 31
0.0
  0
LINE
  5
2E8D8
330
1F
100
AcDbEntity
  8
電気錠制御盤　（株）アート
  6
Continuous
 62
     7
370
    13
100
AcDbLine
 10
305143.0908167193
 20
49569.19214070967
 30
0.0
 11
305143.0605243443
 21
49569.83003260478
 31
0.0
  0
LINE
  5
2E8D9
330
1F
100
AcDbEntity
  8
電気錠制御盤　（株）アート
  6
Continuous
 62
     7
370
    13
100
AcDbLine
 10
305143.0605243443
 20
49569.83003260478
 30
0.0
 11
305143.0100370534
 21
49570.47288146767
 31
0.0
  0
LINE
  5
2E8DA
330
1F
100
AcDbEntity
  8
電気錠制御盤　（株）アート
  6
Continuous
 62
     7
370
    13
100
AcDbLine
 10
305143.0100370534
 20
49570.47288146767
 30
0.0
 11
305142.9393548442
 21
49571.12068729832
 31
0.0
  0
LINE
  5
2E8DB
330
1F
100
AcDbEntity
  8
電気錠制御盤　（株）アート
  6
Continuous
 62
     7
370
    13
100
AcDbLine
 10
305142.9393548442
 20
49571.12068729832
 30
0.0
 11
305142.8484777217
 21
49571.77345009808
 31
0.0
  0
LINE
  5
2E8DC
330
1F
100
AcDbEntity
  8
電気錠制御盤　（株）アート
  6
Continuous
 62
     7
370
    13
100
AcDbLine
 10
305142.8484777217
 20
49571.77345009808
 30
0.0
 11
305142.7374056782
 21
49572.43116986561
 31
0.0
  0
LINE
  5
2E8DD
330
1F
100
AcDbEntity
  8
電気錠制御盤　（株）アート
  6
Continuous
 62
     7
370
    13
100
AcDbLine
 10
305142.7374056782
 20
49572.43116986561
 30
0.0
 11
305142.6061387215
 21
49573.09384660095
 31
0.0
  0
LINE
  5
2E8DE
330
1F
100
AcDbEntity
  8
電気錠制御盤　（株）アート
  6
Continuous
 62
     7
370
    13
100
AcDbLine
 10
305142.6061387215
 20
49573.09384660095
 30
0.0
 11
305142.4546768464
 21
49573.76148030535
 31
0.0
  0
LINE
  5
2E8DF
330
1F
100
AcDbEntity
  8
電気錠制御盤　（株）アート
  6
Continuous
 62
     7
370
    13
100
AcDbLine
 10
305142.4546768464
 20
49573.76148030535
 30
0.0
 11
305142.2830200555
 21
49574.43407097755
 31
0.0
  0
LINE
  5
2E8E0
330
1F
100
AcDbEntity
  8
電気錠制御盤　（株）アート
  6
Continuous
 62
     7
370
    13
100
AcDbLine
 10
305142.2830200555
 20
49574.43407097755
 30
0.0
 11
305142.0911683488
 21
49575.11161861882
 31
0.0
  0
LINE
  5
2E8E1
330
1F
100
AcDbEntity
  8
電気錠制御盤　（株）アート
  6
Continuous
 62
     7
370
    13
100
AcDbLine
 10
305142.0911683488
 20
49575.11161861882
 30
0.0
 11
305141.8743521879
 21
49575.82615888403
 31
0.0
  0
LINE
  5
2E8E2
330
1F
100
AcDbEntity
  8
電気錠制御盤　（株）アート
  6
Continuous
 62
     7
370
    13
100
AcDbLine
 10
305141.8743521879
 20
49575.82615888403
 30
0.0
 11
305141.6278020448
 21
49576.60972743588
 31
0.0
  0
LINE
  5
2E8E3
330
1F
100
AcDbEntity
  8
電気錠制御盤　（株）アート
  6
Continuous
 62
     7
370
    13
100
AcDbLine
 10
305141.6278020448
 20
49576.60972743588
 30
0.0
 11
305141.3515179169
 21
49577.4623242704
 31
0.0
  0
LINE
  5
2E8E4
330
1F
100
AcDbEntity
  8
電気錠制御盤　（株）アート
  6
Continuous
 62
     7
370
    13
100
AcDbLine
 10
305141.3515179169
 20
49577.4623242704
 30
0.0
 11
305141.0454998043
 21
49578.38394939026
 31
0.0
  0
LINE
  5
2E8E5
330
1F
100
AcDbEntity
  8
電気錠制御盤　（株）アート
  6
Continuous
 62
     7
370
    13
100
AcDbLine
 10
305141.0454998043
 20
49578.38394939026
 30
0.0
 11
305140.7097477043
 21
49579.37460279412
 31
0.0
  0
LINE
  5
2E8E6
330
1F
100
AcDbEntity
  8
電気錠制御盤　（株）アート
  6
Continuous
 62
     7
370
    13
100
AcDbLine
 10
305140.7097477043
 20
49579.37460279412
 30
0.0
 11
305140.3442616222
 21
49580.43428448196
 31
0.0
  0
LINE
  5
2E8E7
330
1F
100
AcDbEntity
  8
電気錠制御盤　（株）アート
  6
Continuous
 62
     7
370
    13
100
AcDbLine
 10
305140.3442616222
 20
49580.43428448196
 30
0.0
 11
305139.9490415526
 21
49581.56299445382
 31
0.0
  0
LINE
  5
2E8E8
330
1F
100
AcDbEntity
  8
電気錠制御盤　（株）アート
  6
Continuous
 62
     7
370
    13
100
AcDbLine
 10
305139.9490415526
 20
49581.56299445382
 30
0.0
 11
305139.5240875009
 21
49582.7607327123
 31
0.0
  0
LINE
  5
2E8E9
330
1F
100
AcDbEntity
  8
電気錠制御盤　（株）アート
  6
Continuous
 62
     7
370
    13
100
AcDbLine
 10
305139.5240875009
 20
49582.7607327123
 30
0.0
 11
305139.0693994619
 21
49584.02749925218
 31
0.0
  0
LINE
  5
2E8EA
330
1F
100
AcDbEntity
  8
電気錠制御盤　（株）アート
  6
Continuous
 62
     7
370
    13
100
AcDbLine
 10
305139.0693994619
 20
49584.02749925218
 30
0.0
 11
305138.584977438
 21
49585.36329407868
 31
0.0
  0
LINE
  5
2E8EB
330
1F
100
AcDbEntity
  8
電気錠制御盤　（株）アート
  6
Continuous
 62
     7
370
    13
100
AcDbLine
 10
305138.584977438
 20
49585.36329407868
 30
0.0
 11
305138.0949465212
 21
49586.70045280203
 31
0.0
  0
LINE
  5
2E8EC
330
1F
100
AcDbEntity
  8
電気錠制御盤　（株）アート
  6
Continuous
 62
     7
370
    13
100
AcDbLine
 10
305138.0949465212
 20
49586.70045280203
 30
0.0
 11
305137.623431806
 21
49587.97131103767
 31
0.0
  0
LINE
  5
2E8ED
330
1F
100
AcDbEntity
  8
電気錠制御盤　（株）アート
  6
Continuous
 62
     7
370
    13
100
AcDbLine
 10
305137.623431806
 20
49587.97131103767
 30
0.0
 11
305137.1704332896
 21
49589.17586878431
 31
0.0
  0
LINE
  5
2E8EE
330
1F
100
AcDbEntity
  8
電気錠制御盤　（株）アート
  6
Continuous
 62
     7
370
    13
100
AcDbLine
 10
305137.1704332896
 20
49589.17586878431
 30
0.0
 11
305136.735950967
 21
49590.31412604325
 31
0.0
  0
LINE
  5
2E8EF
330
1F
100
AcDbEntity
  8
電気錠制御盤　（株）アート
  6
Continuous
 62
     7
370
    13
100
AcDbLine
 10
305136.735950967
 20
49590.31412604325
 30
0.0
 11
305136.3199848484
 21
49591.38608281581
 31
0.0
  0
LINE
  5
2E8F0
330
1F
100
AcDbEntity
  8
電気錠制御盤　（株）アート
  6
Continuous
 62
     7
370
    13
100
AcDbLine
 10
305136.3199848484
 20
49591.38608281581
 30
0.0
 11
305135.9225349287
 21
49592.39173909805
 31
0.0
  0
LINE
  5
2E8F1
330
1F
100
AcDbEntity
  8
電気錠制御盤　（株）アート
  6
Continuous
 62
     7
370
    13
100
AcDbLine
 10
305135.9225349287
 20
49592.39173909805
 30
0.0
 11
305135.543601208
 21
49593.33109489262
 31
0.0
  0
LINE
  5
2E8F2
330
1F
100
AcDbEntity
  8
電気錠制御盤　（株）アート
  6
Continuous
 62
     7
370
    13
100
AcDbLine
 10
305135.543601208
 20
49593.33109489262
 30
0.0
 11
305135.1831836861
 21
49594.20415019945
 31
0.0
  0
LINE
  5
2E8F3
330
1F
100
AcDbEntity
  8
電気錠制御盤　（株）アート
  6
Continuous
 62
     7
370
    13
100
AcDbLine
 10
305135.1831836861
 20
49594.20415019945
 30
0.0
 11
305134.8412823605
 21
49595.01090501859
 31
0.0
  0
LINE
  5
2E8F4
330
1F
100
AcDbEntity
  8
電気錠制御盤　（株）アート
  6
Continuous
 62
     7
370
    13
100
AcDbLine
 10
305134.8412823605
 20
49595.01090501859
 30
0.0
 11
305134.5178972391
 21
49595.75135935004
 31
0.0
  0
LINE
  5
2E8F5
330
1F
100
AcDbEntity
  8
電気錠制御盤　（株）アート
  6
Continuous
 62
     7
370
    13
100
AcDbLine
 10
305134.5178972391
 20
49595.75135935004
 30
0.0
 11
305134.2037188085
 21
49596.45831289068
 31
0.0
  0
LINE
  5
2E8F6
330
1F
100
AcDbEntity
  8
電気錠制御盤　（株）アート
  6
Continuous
 62
     7
370
    13
100
AcDbLine
 10
305134.2037188085
 20
49596.45831289068
 30
0.0
 11
305133.8894375709
 21
49597.16456534255
 31
0.0
  0
LINE
  5
2E8F7
330
1F
100
AcDbEntity
  8
電気錠制御盤　（株）アート
  6
Continuous
 62
     7
370
    13
100
AcDbLine
 10
305133.8894375709
 20
49597.16456534255
 30
0.0
 11
305133.5750535264
 21
49597.8701167031
 31
0.0
  0
LINE
  5
2E8F8
330
1F
100
AcDbEntity
  8
電気錠制御盤　（株）アート
  6
Continuous
 62
     7
370
    13
100
AcDbLine
 10
305133.5750535264
 20
49597.8701167031
 30
0.0
 11
305133.2605666697
 21
49598.57496697489
 31
0.0
  0
LINE
  5
2E8F9
330
1F
100
AcDbEntity
  8
電気錠制御盤　（株）アート
  6
Continuous
 62
     7
370
    13
100
AcDbLine
 10
305133.2605666697
 20
49598.57496697489
 30
0.0
 11
305132.9459770061
 21
49599.27911615537
 31
0.0
  0
LINE
  5
2E8FA
330
1F
100
AcDbEntity
  8
電気錠制御盤　（株）アート
  6
Continuous
 62
     7
370
    13
100
AcDbLine
 10
305132.9459770061
 20
49599.27911615537
 30
0.0
 11
305132.6312845356
 21
49599.98256424709
 31
0.0
  0
LINE
  5
2E8FB
330
1F
100
AcDbEntity
  8
電気錠制御盤　（株）アート
  6
Continuous
 62
     7
370
    13
100
AcDbLine
 10
305132.6312845356
 20
49599.98256424709
 30
0.0
 11
305132.3164892529
 21
49600.68531124615
 31
0.0
  0
LINE
  5
2E8FC
330
1F
100
AcDbEntity
  8
電気錠制御盤　（株）アート
  6
Continuous
 62
     7
370
    13
100
AcDbLine
 10
305132.3164892529
 20
49600.68531124615
 30
0.0
 11
305132.0015911633
 21
49601.38735715779
 31
0.0
  0
LINE
  5
2E8FD
330
1F
100
AcDbEntity
  8
電気錠制御盤　（株）アート
  6
Continuous
 62
     7
370
    13
100
AcDbLine
 10
305132.0015911633
 20
49601.38735715779
 30
0.0
 11
305131.6865902668
 21
49602.08870197678
 31
0.0
  0
LINE
  5
2E8FE
330
1F
100
AcDbEntity
  8
電気錠制御盤　（株）アート
  6
Continuous
 62
     7
370
    13
100
AcDbLine
 10
305131.6865902668
 20
49602.08870197678
 30
0.0
 11
305131.3714865581
 21
49602.78934570704
 31
0.0
  0
LINE
  5
2E8FF
330
1F
100
AcDbEntity
  8
電気錠制御盤　（株）アート
  6
Continuous
 62
     7
370
    13
100
AcDbLine
 10
305131.3714865581
 20
49602.78934570704
 30
0.0
 11
305129.7957110052
 21
49606.29081163252
 31
0.0
  0
LINE
  5
2E900
330
1F
100
AcDbEntity
  8
電気錠制御盤　（株）アート
  6
Continuous
 62
     7
370
    13
100
AcDbLine
 10
305565.5260786832
 20
49543.74996059152
 30
0.0
 11
305143.1009408505
 21
49536.37650179254
 31
0.0
  0
LINE
  5
2E901
330
1F
100
AcDbEntity
  8
電気錠制御盤　（株）アート
  6
Continuous
 62
     7
370
    13
100
AcDbLine
 10
305634.5008906395
 20
51779.27056987347
 30
0.0
 11
305634.5008906395
 21
49613.93924996765
 31
0.0
  0
ARC
  5
2E902
330
1F
100
AcDbEntity
  8
電気錠制御盤　（株）アート
  6
Continuous
 62
     7
370
    13
100
AcDbCircle
 10
305564.3009141759
 20
49613.9392577961
 30
0.0
 40
70.20000000000099
100
AcDbArc
 50
270.9999999998728
 51
0.0
  0
ARC
  5
2E903
330
1F
100
AcDbEntity
  8
電気錠制御盤　（株）アート
  6
Continuous
 62
     7
370
    13
100
AcDbCircle
 10
305564.3009141759
 20
51779.27052123161
 30
0.0
 40
70.2
100
AcDbArc
 50
0.0
 51
86.99999999958031
  0
LINE
  5
2E904
330
1F
100
AcDbEntity
  8
電気錠制御盤　（株）アート
  6
Continuous
 62
     7
370
    13
100
AcDbLine
 10
304771.0409190924
 20
52021.67008992793
 30
0.0
 11
304771.0409190924
 21
52194.2623945749
 31
0.0
  0
LINE
  5
2E905
330
1F
100
AcDbEntity
  8
電気錠制御盤　（株）アート
  6
Continuous
 62
     7
370
    13
100
AcDbLine
 10
305634.5008906395
 20
52107.25387435915
 30
0.0
 11
305634.5008906395
 21
51779.27056987347
 31
0.0
  0
LINE
  5
2E906
330
1F
100
AcDbEntity
  8
電気錠制御盤　（株）アート
  6
Continuous
 62
     7
370
    13
100
AcDbLine
 10
304771.0409190924
 20
52378.12052023175
 30
0.0
 11
305567.9749086917
 21
52336.35494512083
 31
0.0
  0
LINE
  5
2E907
330
1F
100
AcDbEntity
  8
電気錠制御盤　（株）アート
  6
Continuous
 62
     7
370
    13
100
AcDbLine
 10
305634.5008906395
 20
52266.2513020313
 30
0.0
 11
305634.5008906395
 21
52107.25387435915
 31
0.0
  0
ARC
  5
2E908
330
1F
100
AcDbEntity
  8
電気錠制御盤　（株）アート
  6
Continuous
 62
     7
370
    13
100
AcDbCircle
 10
305564.3009141759
 20
52266.25120575702
 30
0.0
 40
70.2
100
AcDbArc
 50
0.0
 51
86.99999999958031
  0
LINE
  5
2E909
330
1F
100
AcDbEntity
  8
電気錠制御盤　（株）アート
  6
Continuous
 62
     7
370
    13
100
AcDbLine
 10
304936.3699282938
 20
47492.65182715418
 30
0.0
 11
304932.5009063304
 21
47492.44915273549
 31
0.0
  0
LINE
  5
2E90A
330
1F
100
AcDbEntity
  8
電気錠制御盤　（株）アート
  6
Continuous
 62
     7
370
    13
100
AcDbLine
 10
305143.1009408505
 20
47517.36293834211
 30
0.0
 11
305143.1009408505
 21
47516.80957180025
 31
0.0
  0
LINE
  5
2E90B
330
1F
100
AcDbEntity
  8
電気錠制御盤　（株）アート
  6
Continuous
 62
     7
370
    13
100
AcDbLine
 10
305567.9749086917
 20
47525.75287472965
 30
0.0
 11
305129.8263875255
 21
47502.79051688076
 31
0.0
  0
ELLIPSE
  5
2E90C
330
1F
100
AcDbEntity
  8
電気錠制御盤　（株）アート
  6
Continuous
 62
     7
370
    13
100
AcDbEllipse
 10
305143.1009141759
 20
48921.72063540185
 30
0.0
 11
70.19741948033526
 21
68.98281200111096
 31
0.0
210
0.0
220
0.0
230
0.9999999999999998
 40
0.0087255388489246
 41
-1.570718851227487
 42
-0.7766715171557328
  0
LINE
  5
2E90D
330
1F
100
AcDbEntity
  8
電気錠制御盤　（株）アート
  6
Continuous
 62
     7
370
    13
100
AcDbLine
 10
305213.3008869783
 20
48990.70599794896
 30
0.0
 11
305565.5260786832
 21
48984.55790214748
 31
0.0
  0
LINE
  5
2E90E
330
1F
100
AcDbEntity
  8
電気錠制御盤　（株）アート
  6
Continuous
 62
     7
370
    13
100
AcDbLine
 10
305213.3008869783
 20
49537.60183210062
 30
0.0
 11
305213.3008869783
 21
48990.69566809149
 31
0.0
  0
LINE
  5
2E90F
330
1F
100
AcDbEntity
  8
電気錠制御盤　（株）アート
  6
Continuous
 62
     7
370
    13
100
AcDbLine
 10
305634.5008906395
 20
48914.3685473925
 30
0.0
 11
305634.5008906395
 21
47595.85651781918
 31
0.0
  0
ARC
  5
2E910
330
1F
100
AcDbEntity
  8
電気錠制御盤　（株）アート
  6
Continuous
 62
     7
370
    13
100
AcDbCircle
 10
305564.3009141759
 20
48914.36856205436
 30
0.0
 40
70.2
100
AcDbArc
 50
0.0
 51
89.00000000012713
  0
ARC
  5
2E911
330
1F
100
AcDbEntity
  8
電気錠制御盤　（株）アート
  6
Continuous
 62
     7
370
    13
100
AcDbCircle
 10
305564.3009141759
 20
47595.85661409345
 30
0.0
 40
70.2
100
AcDbArc
 50
273.0000000004197
 51
0.0
  0
ARC
  5
2E912
330
1F
100
AcDbEntity
  8
電気錠制御盤　（株）アート
  6
Continuous
 62
     7
370
    13
100
AcDbCircle
 10
305423.9009141759
 20
49033.16875004942
 30
0.0
 40
70.2
100
AcDbArc
 50
317.9172903512722
 51
0.0
  0
LINE
  5
2E913
330
1F
100
AcDbEntity
  8
電気錠制御盤　（株）アート
  6
Continuous
 62
     7
370
    13
100
AcDbLine
 10
305528.5883389831
 20
49326.37844298543
 30
0.0
 11
305529.2009387584
 21
49326.38916511597
 31
0.0
  0
LINE
  5
2E914
330
1F
100
AcDbEntity
  8
電気錠制御盤　（株）アート
  6
Continuous
 62
     7
370
    13
100
AcDbLine
 10
305600.0134846614
 20
49325.15311267735
 30
0.0
 11
305529.2009387584
 21
49326.38916511597
 31
0.0
  0
LINE
  5
2E915
330
1F
100
AcDbEntity
  8
電気錠制御盤　（株）アート
  6
Continuous
 62
     7
370
    13
100
AcDbLine
 10
305494.100933005
 20
49264.1539313695
 30
0.0
 11
305494.100933005
 21
49291.28379829736
 31
0.0
  0
ARC
  5
2E916
330
1F
100
AcDbEntity
  8
電気錠制御盤　（株）アート
  6
Continuous
 62
     7
370
    13
100
AcDbCircle
 10
305529.2009141759
 20
49291.28381708332
 30
0.0
 40
35.1
100
AcDbArc
 50
90.99999999987288
 51
180.0
  0
LINE
  5
2E917
330
1F
100
AcDbEntity
  8
電気錠制御盤　（株）アート
  6
Continuous
 62
     7
370
    13
100
AcDbLine
 10
305494.100933005
 20
49033.16877306016
 30
0.0
 11
305494.100933005
 21
49264.1539313695
 31
0.0
  0
LINE
  5
2E918
330
1F
100
AcDbEntity
  8
電気錠制御盤　（株）アート
  6
Continuous
 62
     7
370
    13
100
AcDbLine
 10
305634.5008906395
 20
49264.1539313695
 30
0.0
 11
305634.5008906395
 21
48914.3685473925
 31
0.0
  0
ARC
  5
2E919
330
1F
100
AcDbEntity
  8
電気錠制御盤　（株）アート
  6
Continuous
 62
     7
370
    13
100
AcDbCircle
 10
305599.4009141759
 20
49290.05847152627
 30
0.0
 40
35.1
100
AcDbArc
 50
0.0
 51
89.00000000012713
  0
LINE
  5
2E91A
330
1F
100
AcDbEntity
  8
電気錠制御盤　（株）アート
  6
Continuous
 62
     7
370
    13
100
AcDbLine
 10
305634.5008906395
 20
49290.05846798928
 30
0.0
 11
305634.5008906395
 21
49264.1539313695
 31
0.0
  0
ARC
  5
2E91B
330
1F
100
AcDbEntity
  8
電気錠制御盤　（株）アート
  6
Continuous
 62
     7
370
    13
100
AcDbCircle
 10
305423.9009141759
 20
49495.13906980105
 30
0.0
 40
70.2000000000005
100
AcDbArc
 50
0.0
 51
42.08270964872774
  0
LINE
  5
2E91C
330
1F
100
AcDbEntity
  8
電気錠制御盤　（株）アート
  6
Continuous
 62
     7
370
    13
100
AcDbLine
 10
305494.100933005
 20
49291.28379829736
 30
0.0
 11
305494.100933005
 21
49495.13905698942
 31
0.0
  0
LINE
  5
2E91D
330
1F
100
AcDbEntity
  8
電気錠制御盤　（株）アート
  6
Continuous
 62
     7
370
    13
100
AcDbLine
 10
305634.5008906395
 20
49613.93924996765
 30
0.0
 11
305634.5008906395
 21
49290.05846798928
 31
0.0
  0
LINE
  5
2E91E
330
1F
100
AcDbEntity
  8
電気錠制御盤　（株）アート
  6
Continuous
 62
     7
370
    13
100
AcDbLine
 10
305143.1009141759
 20
47545.21524865155
 30
0.0
 11
305143.1009141759
 21
47541.18338555458
 31
0.0
  0
LINE
  5
2E91F
330
1F
100
AcDbEntity
  8
電気錠制御盤　（株）アート
  6
Continuous
 62
     7
370
    13
100
AcDbLine
 10
305143.1009141759
 20
47541.18338555458
 30
0.0
 11
305143.1009141759
 21
47540.37800177033
 31
0.0
  0
LINE
  5
2E920
330
1F
100
AcDbEntity
  8
電気錠制御盤　（株）アート
  6
Continuous
 62
     7
370
    13
100
AcDbLine
 10
305143.1009141759
 20
47540.37800177033
 30
0.0
 11
305143.1009141759
 21
47539.57459566345
 31
0.0
  0
LINE
  5
2E921
330
1F
100
AcDbEntity
  8
電気錠制御盤　（株）アート
  6
Continuous
 62
     7
370
    13
100
AcDbLine
 10
305143.1009141759
 20
47539.57459566345
 30
0.0
 11
305143.1009141759
 21
47538.7731672274
 31
0.0
  0
LINE
  5
2E922
330
1F
100
AcDbEntity
  8
電気錠制御盤　（株）アート
  6
Continuous
 62
     7
370
    13
100
AcDbLine
 10
305143.1009141759
 20
47538.7731672274
 30
0.0
 11
305143.1009141759
 21
47537.97371646609
 31
0.0
  0
LINE
  5
2E923
330
1F
100
AcDbEntity
  8
電気錠制御盤　（株）アート
  6
Continuous
 62
     7
370
    13
100
AcDbLine
 10
305143.1009141759
 20
47537.97371646609
 30
0.0
 11
305143.1009141759
 21
47537.17624337954
 31
0.0
  0
LINE
  5
2E924
330
1F
100
AcDbEntity
  8
電気錠制御盤　（株）アート
  6
Continuous
 62
     7
370
    13
100
AcDbLine
 10
305143.1009141759
 20
47537.17624337954
 30
0.0
 11
305143.1009141759
 21
47536.38074796512
 31
0.0
  0
LINE
  5
2E925
330
1F
100
AcDbEntity
  8
電気錠制御盤　（株）アート
  6
Continuous
 62
     7
370
    13
100
AcDbLine
 10
305143.1009141759
 20
47536.38074796512
 30
0.0
 11
305143.1009141759
 21
47535.58723022544
 31
0.0
  0
LINE
  5
2E926
330
1F
100
AcDbEntity
  8
電気錠制御盤　（株）アート
  6
Continuous
 62
     7
370
    13
100
AcDbLine
 10
305143.1009141759
 20
47535.58723022544
 30
0.0
 11
305143.1009141759
 21
47534.79569016051
 31
0.0
  0
LINE
  5
2E927
330
1F
100
AcDbEntity
  8
電気錠制御盤　（株）アート
  6
Continuous
 62
     7
370
    13
100
AcDbLine
 10
305143.1009141759
 20
47534.79569016051
 30
0.0
 11
305143.1009141759
 21
47534.00612776774
 31
0.0
  0
LINE
  5
2E928
330
1F
100
AcDbEntity
  8
電気錠制御盤　（株）アート
  6
Continuous
 62
     7
370
    13
100
AcDbLine
 10
305143.1009141759
 20
47534.00612776774
 30
0.0
 11
305143.1009141759
 21
47533.21854305101
 31
0.0
  0
LINE
  5
2E929
330
1F
100
AcDbEntity
  8
電気錠制御盤　（株）アート
  6
Continuous
 62
     7
370
    13
100
AcDbLine
 10
305143.1009141759
 20
47533.21854305101
 30
0.0
 11
305143.1009141759
 21
47532.41843011838
 31
0.0
  0
LINE
  5
2E92A
330
1F
100
AcDbEntity
  8
電気錠制御盤　（株）アート
  6
Continuous
 62
     7
370
    13
100
AcDbLine
 10
305143.1009141759
 20
47532.41843011838
 30
0.0
 11
305143.1009141759
 21
47531.59128308446
 31
0.0
  0
LINE
  5
2E92B
330
1F
100
AcDbEntity
  8
電気錠制御盤　（株）アート
  6
Continuous
 62
     7
370
    13
100
AcDbLine
 10
305143.1009141759
 20
47531.59128308446
 30
0.0
 11
305143.1009141759
 21
47530.73710195053
 31
0.0
  0
LINE
  5
2E92C
330
1F
100
AcDbEntity
  8
電気錠制御盤　（株）アート
  6
Continuous
 62
     7
370
    13
100
AcDbLine
 10
305143.1009141759
 20
47530.73710195053
 30
0.0
 11
305143.1009141759
 21
47529.85588671398
 31
0.0
  0
LINE
  5
2E92D
330
1F
100
AcDbEntity
  8
電気錠制御盤　（株）アート
  6
Continuous
 62
     7
370
    13
100
AcDbLine
 10
305143.1009141759
 20
47529.85588671398
 30
0.0
 11
305143.1009141759
 21
47528.94763737614
 31
0.0
  0
LINE
  5
2E92E
330
1F
100
AcDbEntity
  8
電気錠制御盤　（株）アート
  6
Continuous
 62
     7
370
    13
100
AcDbLine
 10
305143.1009141759
 20
47528.94763737614
 30
0.0
 11
305143.1009141759
 21
47528.012353937
 31
0.0
  0
LINE
  5
2E92F
330
1F
100
AcDbEntity
  8
電気錠制御盤　（株）アート
  6
Continuous
 62
     7
370
    13
100
AcDbLine
 10
305143.1009141759
 20
47528.012353937
 30
0.0
 11
305143.1009141759
 21
47527.05003639525
 31
0.0
  0
LINE
  5
2E930
330
1F
100
AcDbEntity
  8
電気錠制御盤　（株）アート
  6
Continuous
 62
     7
370
    13
100
AcDbLine
 10
305143.1009141759
 20
47527.05003639525
 30
0.0
 11
305143.1009141759
 21
47526.06068475217
 31
0.0
  0
LINE
  5
2E931
330
1F
100
AcDbEntity
  8
電気錠制御盤　（株）アート
  6
Continuous
 62
     7
370
    13
100
AcDbLine
 10
305143.1009141759
 20
47526.06068475217
 30
0.0
 11
305143.1009141759
 21
47525.04429900913
 31
0.0
  0
LINE
  5
2E932
330
1F
100
AcDbEntity
  8
電気錠制御盤　（株）アート
  6
Continuous
 62
     7
370
    13
100
AcDbLine
 10
305143.1009141759
 20
47525.04429900913
 30
0.0
 11
305143.1009141759
 21
47524.00087916345
 31
0.0
  0
LINE
  5
2E933
330
1F
100
AcDbEntity
  8
電気錠制御盤　（株）アート
  6
Continuous
 62
     7
370
    13
100
AcDbLine
 10
305143.1009141759
 20
47524.00087916345
 30
0.0
 11
305143.1009141759
 21
47522.98351413293
 31
0.0
  0
LINE
  5
2E934
330
1F
100
AcDbEntity
  8
電気錠制御盤　（株）アート
  6
Continuous
 62
     7
370
    13
100
AcDbLine
 10
305143.1009141759
 20
47522.98351413293
 30
0.0
 11
305143.1009141759
 21
47522.04529283524
 31
0.0
  0
LINE
  5
2E935
330
1F
100
AcDbEntity
  8
電気錠制御盤　（株）アート
  6
Continuous
 62
     7
370
    13
100
AcDbLine
 10
305143.1009141759
 20
47522.04529283524
 30
0.0
 11
305143.1009141759
 21
47521.18621527173
 31
0.0
  0
LINE
  5
2E936
330
1F
100
AcDbEntity
  8
電気錠制御盤　（株）アート
  6
Continuous
 62
     7
370
    13
100
AcDbLine
 10
305143.1009141759
 20
47521.18621527173
 30
0.0
 11
305143.1009141759
 21
47520.40628144109
 31
0.0
  0
LINE
  5
2E937
330
1F
100
AcDbEntity
  8
電気錠制御盤　（株）アート
  6
Continuous
 62
     7
370
    13
100
AcDbLine
 10
305143.1009141759
 20
47520.40628144109
 30
0.0
 11
305143.1009141759
 21
47519.70549134197
 31
0.0
  0
LINE
  5
2E938
330
1F
100
AcDbEntity
  8
電気錠制御盤　（株）アート
  6
Continuous
 62
     7
370
    13
100
AcDbLine
 10
305143.1009141759
 20
47519.70549134197
 30
0.0
 11
305143.1009141759
 21
47519.08384497572
 31
0.0
  0
LINE
  5
2E939
330
1F
100
AcDbEntity
  8
電気錠制御盤　（株）アート
  6
Continuous
 62
     7
370
    13
100
AcDbLine
 10
305143.1009141759
 20
47519.08384497572
 30
0.0
 11
305143.1009141759
 21
47518.54134234368
 31
0.0
  0
LINE
  5
2E93A
330
1F
100
AcDbEntity
  8
電気錠制御盤　（株）アート
  6
Continuous
 62
     7
370
    13
100
AcDbLine
 10
305143.1009141759
 20
47518.54134234368
 30
0.0
 11
305143.1009141759
 21
47518.07798344577
 31
0.0
  0
LINE
  5
2E93B
330
1F
100
AcDbEntity
  8
電気錠制御盤　（株）アート
  6
Continuous
 62
     7
370
    13
100
AcDbLine
 10
305143.1009141759
 20
47518.07798344577
 30
0.0
 11
305143.1009141759
 21
47517.69376827811
 31
0.0
  0
LINE
  5
2E93C
330
1F
100
AcDbEntity
  8
電気錠制御盤　（株）アート
  6
Continuous
 62
     7
370
    13
100
AcDbLine
 10
305143.1009141759
 20
47517.69376827811
 30
0.0
 11
305143.1009141759
 21
47517.38869684462
 31
0.0
  0
LINE
  5
2E93D
330
1F
100
AcDbEntity
  8
電気錠制御盤　（株）アート
  6
Continuous
 62
     7
370
    13
100
AcDbLine
 10
305143.1009141759
 20
47517.38869684462
 30
0.0
 11
305143.1009141759
 21
47517.14118125737
 31
0.0
  0
LINE
  5
2E93E
330
1F
100
AcDbEntity
  8
電気錠制御盤　（株）アート
  6
Continuous
 62
     7
370
    13
100
AcDbLine
 10
305143.1009141759
 20
47517.14118125737
 30
0.0
 11
305143.1009141759
 21
47516.92963362971
 31
0.0
  0
LINE
  5
2E93F
330
1F
100
AcDbEntity
  8
電気錠制御盤　（株）アート
  6
Continuous
 62
     7
370
    13
100
AcDbLine
 10
305143.1009141759
 20
47516.92963362971
 30
0.0
 11
305143.1009141759
 21
47516.75405396036
 31
0.0
  0
LINE
  5
2E940
330
1F
100
AcDbEntity
  8
電気錠制御盤　（株）アート
  6
Continuous
 62
     7
370
    13
100
AcDbLine
 10
305143.1009141759
 20
47516.75405396036
 30
0.0
 11
305143.1009141759
 21
47516.61444224931
 31
0.0
  0
LINE
  5
2E941
330
1F
100
AcDbEntity
  8
電気錠制御盤　（株）アート
  6
Continuous
 62
     7
370
    13
100
AcDbLine
 10
305143.1009141759
 20
47516.61444224931
 30
0.0
 11
305143.1009141759
 21
47516.51079849915
 31
0.0
  0
LINE
  5
2E942
330
1F
100
AcDbEntity
  8
電気錠制御盤　（株）アート
  6
Continuous
 62
     7
370
    13
100
AcDbLine
 10
305143.1009141759
 20
47516.51079849915
 30
0.0
 11
305143.1009141759
 21
47516.44312270733
 31
0.0
  0
LINE
  5
2E943
330
1F
100
AcDbEntity
  8
電気錠制御盤　（株）アート
  6
Continuous
 62
     7
370
    13
100
AcDbLine
 10
305143.1009141759
 20
47516.44312270733
 30
0.0
 11
305143.1009141759
 21
47516.41141487376
 31
0.0
  0
LINE
  5
2E944
330
1F
100
AcDbEntity
  8
電気錠制御盤　（株）アート
  6
Continuous
 62
     7
370
    13
100
AcDbLine
 10
305143.1009141759
 20
47516.41141487376
 30
0.0
 11
305143.1009141759
 21
47516.41567499983
 31
0.0
  0
LINE
  5
2E945
330
1F
100
AcDbEntity
  8
電気錠制御盤　（株）アート
  6
Continuous
 62
     7
370
    13
100
AcDbLine
 10
305143.1009141759
 20
47516.41567499983
 30
0.0
 11
305143.1009141759
 21
47516.45590308548
 31
0.0
  0
LINE
  5
2E946
330
1F
100
AcDbEntity
  8
電気錠制御盤　（株）アート
  6
Continuous
 62
     7
370
    13
100
AcDbLine
 10
305143.1009141759
 20
47516.45590308548
 30
0.0
 11
305143.1009141759
 21
47516.53209913077
 31
0.0
  0
LINE
  5
2E947
330
1F
100
AcDbEntity
  8
電気錠制御盤　（株）アート
  6
Continuous
 62
     7
370
    13
100
AcDbLine
 10
305143.1009141759
 20
47516.53209913077
 30
0.0
 11
305143.1009141759
 21
47517.0029992509
 31
0.0
  0
LINE
  5
2E948
330
1F
100
AcDbEntity
  8
電気錠制御盤　（株）アート
  6
Continuous
 62
     7
370
    13
100
AcDbLine
 10
305143.1009408505
 20
47521.09267067672
 30
0.0
 11
305143.1009408505
 21
47521.68232692056
 31
0.0
  0
LINE
  5
2E949
330
1F
100
AcDbEntity
  8
電気錠制御盤　（株）アート
  6
Continuous
 62
     7
370
    13
100
AcDbLine
 10
305143.1009408505
 20
47521.68232692056
 30
0.0
 11
305143.1009408505
 21
47521.80259772043
 31
0.0
  0
LINE
  5
2E94A
330
1F
100
AcDbEntity
  8
電気錠制御盤　（株）アート
  6
Continuous
 62
     7
370
    13
100
AcDbLine
 10
305143.1009408505
 20
47521.80259772043
 30
0.0
 11
305143.1009408505
 21
47521.92754762277
 31
0.0
  0
LINE
  5
2E94B
330
1F
100
AcDbEntity
  8
電気錠制御盤　（株）アート
  6
Continuous
 62
     7
370
    13
100
AcDbLine
 10
305143.1009408505
 20
47521.92754762277
 30
0.0
 11
305143.1009408505
 21
47522.05717662625
 31
0.0
  0
LINE
  5
2E94C
330
1F
100
AcDbEntity
  8
電気錠制御盤　（株）アート
  6
Continuous
 62
     7
370
    13
100
AcDbLine
 10
305143.1009408505
 20
47522.05717662625
 30
0.0
 11
305143.1009408505
 21
47522.19148473351
 31
0.0
  0
LINE
  5
2E94D
330
1F
100
AcDbEntity
  8
電気錠制御盤　（株）アート
  6
Continuous
 62
     7
370
    13
100
AcDbLine
 10
305143.1009408505
 20
47522.19148473351
 30
0.0
 11
305143.1009408505
 21
47522.33047194189
 31
0.0
  0
LINE
  5
2E94E
330
1F
100
AcDbEntity
  8
電気錠制御盤　（株）アート
  6
Continuous
 62
     7
370
    13
100
AcDbLine
 10
305143.1009408505
 20
47522.33047194189
 30
0.0
 11
305143.1009408505
 21
47522.47413825147
 31
0.0
  0
LINE
  5
2E94F
330
1F
100
AcDbEntity
  8
電気錠制御盤　（株）アート
  6
Continuous
 62
     7
370
    13
100
AcDbLine
 10
305143.1009408505
 20
47522.47413825147
 30
0.0
 11
305143.1009408505
 21
47522.6224836648
 31
0.0
  0
LINE
  5
2E950
330
1F
100
AcDbEntity
  8
電気錠制御盤　（株）アート
  6
Continuous
 62
     7
370
    13
100
AcDbLine
 10
305143.1009408505
 20
47522.6224836648
 30
0.0
 11
305143.1009408505
 21
47522.77550818059
 31
0.0
  0
LINE
  5
2E951
330
1F
100
AcDbEntity
  8
電気錠制御盤　（株）アート
  6
Continuous
 62
     7
370
    13
100
AcDbLine
 10
305143.1009408505
 20
47522.77550818059
 30
0.0
 11
305143.1009408505
 21
47522.93321179753
 31
0.0
  0
LINE
  5
2E952
330
1F
100
AcDbEntity
  8
電気錠制御盤　（株）アート
  6
Continuous
 62
     7
370
    13
100
AcDbLine
 10
305143.1009408505
 20
47522.93321179753
 30
0.0
 11
305143.1009408505
 21
47523.09559451562
 31
0.0
  0
LINE
  5
2E953
330
1F
100
AcDbEntity
  8
電気錠制御盤　（株）アート
  6
Continuous
 62
     7
370
    13
100
AcDbLine
 10
305143.1009408505
 20
47523.09559451562
 30
0.0
 11
305143.1009408505
 21
47523.26613413116
 31
0.0
  0
LINE
  5
2E954
330
1F
100
AcDbEntity
  8
電気錠制御盤　（株）アート
  6
Continuous
 62
     7
370
    13
100
AcDbLine
 10
305143.1009408505
 20
47523.26613413116
 30
0.0
 11
305143.1009408505
 21
47523.4483084325
 31
0.0
  0
LINE
  5
2E955
330
1F
100
AcDbEntity
  8
電気錠制御盤　（株）アート
  6
Continuous
 62
     7
370
    13
100
AcDbLine
 10
305143.1009408505
 20
47523.4483084325
 30
0.0
 11
305143.1009408505
 21
47523.64211742362
 31
0.0
  0
LINE
  5
2E956
330
1F
100
AcDbEntity
  8
電気錠制御盤　（株）アート
  6
Continuous
 62
     7
370
    13
100
AcDbLine
 10
305143.1009408505
 20
47523.64211742362
 30
0.0
 11
305143.1009408505
 21
47523.84756110321
 31
0.0
  0
LINE
  5
2E957
330
1F
100
AcDbEntity
  8
電気錠制御盤　（株）アート
  6
Continuous
 62
     7
370
    13
100
AcDbLine
 10
305143.1009408505
 20
47523.84756110321
 30
0.0
 11
305143.1009408505
 21
47524.06463946861
 31
0.0
  0
LINE
  5
2E958
330
1F
100
AcDbEntity
  8
電気錠制御盤　（株）アート
  6
Continuous
 62
     7
370
    13
100
AcDbLine
 10
305143.1009408505
 20
47524.06463946861
 30
0.0
 11
305143.1009408505
 21
47524.29335252375
 31
0.0
  0
LINE
  5
2E959
330
1F
100
AcDbEntity
  8
電気錠制御盤　（株）アート
  6
Continuous
 62
     7
370
    13
100
AcDbLine
 10
305143.1009408505
 20
47524.29335252375
 30
0.0
 11
305143.1009408505
 21
47524.53370026605
 31
0.0
  0
LINE
  5
2E95A
330
1F
100
AcDbEntity
  8
電気錠制御盤　（株）アート
  6
Continuous
 62
     7
370
    13
100
AcDbLine
 10
305143.1009408505
 20
47524.53370026605
 30
0.0
 11
305143.1009408505
 21
47524.78568269682
 31
0.0
  0
LINE
  5
2E95B
330
1F
100
AcDbEntity
  8
電気錠制御盤　（株）アート
  6
Continuous
 62
     7
370
    13
100
AcDbLine
 10
305143.1009408505
 20
47524.78568269682
 30
0.0
 11
305143.1009408505
 21
47525.04929981475
 31
0.0
  0
LINE
  5
2E95C
330
1F
100
AcDbEntity
  8
電気錠制御盤　（株）アート
  6
Continuous
 62
     7
370
    13
100
AcDbLine
 10
305143.1009408505
 20
47525.04929981475
 30
0.0
 11
305143.1009408505
 21
47525.3245516224
 31
0.0
  0
LINE
  5
2E95D
330
1F
100
AcDbEntity
  8
電気錠制御盤　（株）アート
  6
Continuous
 62
     7
370
    13
100
AcDbLine
 10
305143.1009408505
 20
47525.3245516224
 30
0.0
 11
305143.1009408505
 21
47525.59555934143
 31
0.0
  0
LINE
  5
2E95E
330
1F
100
AcDbEntity
  8
電気錠制御盤　（株）アート
  6
Continuous
 62
     7
370
    13
100
AcDbLine
 10
305143.1009408505
 20
47525.59555934143
 30
0.0
 11
305143.1009408505
 21
47525.8464441987
 31
0.0
  0
LINE
  5
2E95F
330
1F
100
AcDbEntity
  8
電気錠制御盤　（株）アート
  6
Continuous
 62
     7
370
    13
100
AcDbLine
 10
305143.1009408505
 20
47525.8464441987
 30
0.0
 11
305143.1009408505
 21
47526.07720619415
 31
0.0
  0
LINE
  5
2E960
330
1F
100
AcDbEntity
  8
電気錠制御盤　（株）アート
  6
Continuous
 62
     7
370
    13
100
AcDbLine
 10
305143.1009408505
 20
47526.07720619415
 30
0.0
 11
305143.1009408505
 21
47526.28784532652
 31
0.0
  0
LINE
  5
2E961
330
1F
100
AcDbEntity
  8
電気錠制御盤　（株）アート
  6
Continuous
 62
     7
370
    13
100
AcDbLine
 10
305143.1009408505
 20
47526.28784532652
 30
0.0
 11
305143.1009408505
 21
47526.47836159582
 31
0.0
  0
LINE
  5
2E962
330
1F
100
AcDbEntity
  8
電気錠制御盤　（株）アート
  6
Continuous
 62
     7
370
    13
100
AcDbLine
 10
305143.1009408505
 20
47526.47836159582
 30
0.0
 11
305143.1009408505
 21
47526.648755002
 31
0.0
  0
LINE
  5
2E963
330
1F
100
AcDbEntity
  8
電気錠制御盤　（株）アート
  6
Continuous
 62
     7
370
    13
100
AcDbLine
 10
305143.1009408505
 20
47526.648755002
 30
0.0
 11
305143.1009408505
 21
47526.79902554772
 31
0.0
  0
LINE
  5
2E964
330
1F
100
AcDbEntity
  8
電気錠制御盤　（株）アート
  6
Continuous
 62
     7
370
    13
100
AcDbLine
 10
305143.1009408505
 20
47526.79902554772
 30
0.0
 11
305143.1009408505
 21
47526.92917322905
 31
0.0
  0
LINE
  5
2E965
330
1F
100
AcDbEntity
  8
電気錠制御盤　（株）アート
  6
Continuous
 62
     7
370
    13
100
AcDbLine
 10
305143.1009408505
 20
47526.92917322905
 30
0.0
 11
305143.1009408505
 21
47527.03919804856
 31
0.0
  0
LINE
  5
2E966
330
1F
100
AcDbEntity
  8
電気錠制御盤　（株）アート
  6
Continuous
 62
     7
370
    13
100
AcDbLine
 10
305143.1009408505
 20
47527.03919804856
 30
0.0
 11
305143.1009408505
 21
47527.12910000762
 31
0.0
  0
LINE
  5
2E967
330
1F
100
AcDbEntity
  8
電気錠制御盤　（株）アート
  6
Continuous
 62
     7
370
    13
100
AcDbLine
 10
305143.1009408505
 20
47527.12910000762
 30
0.0
 11
305143.1009408505
 21
47527.52830263736
 31
0.0
  0
LINE
  5
2E968
330
1F
100
AcDbEntity
  8
電気錠制御盤　（株）アート
  6
Continuous
 62
     7
370
    13
100
AcDbLine
 10
305144.326075022
 20
48921.72065999867
 30
0.0
 11
305144.326075022
 21
49536.39788067476
 31
0.0
  0
LINE
  5
2E969
330
1F
100
AcDbEntity
  8
電気錠制御盤　（株）アート
  6
Continuous
 62
     7
370
    13
100
AcDbLine
 10
305257.5580498622
 20
48989.93348151954
 30
0.0
 11
305257.5580498622
 21
49538.37434853004
 31
0.0
  0
TEXT
  5
2E96A
330
1F
100
AcDbEntity
  8
電気錠制御盤　（株）アート
  6
Continuous
 62
     7
370
    13
100
AcDbText
 10
290068.7272372584
 20
42854.21483002491
 30
0.0
 40
447.9946116360424
  1
材　質
 41
0.944444
  7
KANJI
100
AcDbText
  0
TEXT
  5
2E96B
330
1F
100
AcDbEntity
  8
電気錠制御盤　（株）アート
  6
Continuous
 62
     7
370
    13
100
AcDbText
 10
290475.6405813746
 20
43515.96410232031
 30
0.0
 40
447.9946116360424
  1
項　目
 41
0.944444
  7
KANJI
100
AcDbText
  0
LINE
  5
2E96C
330
1F
100
AcDbEntity
  8
電気錠制御盤　（株）アート
  6
Continuous
 62
     7
370
    13
100
AcDbLine
 10
289744.380278173
 20
44037.28321175669
 30
0.0
 11
308809.7531467817
 21
44037.28321175669
 31
0.0
  0
TEXT
  5
2E96D
330
1F
100
AcDbEntity
  8
電気錠制御盤　（株）アート
  6
Continuous
 62
     7
370
    13
100
AcDbText
 10
299559.9702905805
 20
43515.96410232031
 30
0.0
 40
447.9946116360424
  1
内　容
 41
0.944444
  7
KANJI
100
AcDbText
  0
TEXT
  5
2E96E
330
1F
100
AcDbEntity
  8
電気錠制御盤　（株）アート
  6
Continuous
 62
     7
370
    13
100
AcDbText
 10
290068.7272372584
 20
42222.93032972278
 30
0.0
 40
447.9946116360424
  1
仕　上
 41
0.944444
  7
KANJI
100
AcDbText
  0
TEXT
  5
2E96F
330
1F
100
AcDbEntity
  8
電気錠制御盤　（株）アート
  6
Continuous
 62
     7
370
    13
100
AcDbText
 10
290068.7272372584
 20
41603.0449331116
 30
0.0
 40
447.9946116360424
  1
彩　色
 41
0.944444
  7
KANJI
100
AcDbText
  0
TEXT
  5
2E970
330
1F
100
AcDbEntity
  8
電気錠制御盤　（株）アート
  6
Continuous
 62
     7
370
    13
100
AcDbText
 10
294168.6445809915
 20
42854.21483002465
 30
0.0
 40
447.9946116360424
  1
樹　脂
 41
0.944444
  7
KANJI
100
AcDbText
  0
TEXT
  5
2E971
330
1F
100
AcDbEntity
  8
電気錠制御盤　（株）アート
  6
Continuous
 62
     7
370
    13
100
AcDbText
 10
294160.9574123842
 20
42222.93032972252
 30
0.0
 40
447.9946116360424
  1
艶消し
 41
0.944444
  7
KANJI
100
AcDbText
  0
TEXT
  5
2E972
330
1F
100
AcDbEntity
  8
電気錠制御盤　（株）アート
  6
Continuous
 62
     7
370
    13
100
AcDbText
 10
294160.9574123842
 20
41603.04493311134
 30
0.0
 40
447.9946116360424
  1
ブラック
 41
0.8
  7
KANJI
100
AcDbText
  0
TEXT
  5
2E973
330
1F
100
AcDbEntity
  8
電気錠制御盤　（株）アート
  6
Continuous
 62
     7
370
    13
100
AcDbText
 10
290068.7272372584
 20
40273.42888025298
 30
0.0
 40
447.9946116360424
  1
入力電源
 41
0.944444
  7
KANJI
100
AcDbText
  0
TEXT
  5
2E974
330
1F
100
AcDbEntity
  8
電気錠制御盤　（株）アート
  6
Continuous
 62
     7
370
    13
100
AcDbText
 10
290068.7272372584
 20
40942.52600954856
 30
0.0
 40
447.9946116360424
  1
重　量
 41
0.944444
  7
KANJI
100
AcDbText
  0
TEXT
  5
2E975
330
1F
100
AcDbEntity
  8
電気錠制御盤　（株）アート
  6
Continuous
 62
     7
370
    13
100
AcDbText
 10
294160.9574123842
 20
40942.5260095483
 30
0.0
 40
447.9946116360424
  1
約１６０ｇ\U+00B1５ｇ
 41
0.944444
  7
KANJI
100
AcDbText
  0
TEXT
  5
2E976
330
1F
100
AcDbEntity
  8
電気錠制御盤　（株）アート
  6
Continuous
 62
     7
370
    13
100
AcDbText
 10
294160.9574123842
 20
40273.42888025272
 30
0.0
 40
447.9946116360424
  1
ＤＣ２４Ｖ%%P１０％　出入管理装置より供給
 41
0.8872049999999999
  7
KANJI
100
AcDbText
  0
LINE
  5
2E977
330
1F
100
AcDbEntity
  8
電気錠制御盤　（株）アート
  6
Continuous
 62
     7
370
    13
100
AcDbLine
 10
308809.7531467803
 20
44037.28321175669
 30
0.0
 11
308809.7531467803
 21
36350.09427879319
 31
0.0
  0
LINE
  5
2E978
330
1F
100
AcDbEntity
  8
電気錠制御盤　（株）アート
  6
Continuous
 62
     7
370
    13
100
AcDbLine
 10
289744.3802781732
 20
44037.28321175669
 30
0.0
 11
289744.3802781715
 21
36350.09427879677
 31
0.0
  0
TEXT
  5
2E979
330
1F
100
AcDbEntity
  8
電気錠制御盤　（株）アート
  6
Continuous
 62
     7
370
    13
100
AcDbText
 10
290068.7272372584
 20
39649.92184922023
 30
0.0
 40
447.9946116360424
  1
消費電力
 41
0.944444
  7
KANJI
100
AcDbText
  0
TEXT
  5
2E97A
330
1F
100
AcDbEntity
  8
電気錠制御盤　（株）アート
  6
Continuous
 62
     7
370
    13
100
AcDbText
 10
294160.9574123842
 20
39649.92184921997
 30
0.0
 40
447.9946116360424
  1
２．５Ｗ
 41
0.8872049999999999
  7
KANJI
100
AcDbText
  0
LINE
  5
2E97B
330
1F
100
AcDbEntity
  8
電気錠制御盤　（株）アート
  6
Continuous
 62
     7
370
    13
100
AcDbLine
 10
289744.380278173
 20
43396.25642201428
 30
0.0
 11
308809.7531467817
 21
43396.25642201428
 31
0.0
  0
LINE
  5
2E97C
330
1F
100
AcDbEntity
  8
電気錠制御盤　（株）アート
  6
Continuous
 62
     7
370
    13
100
AcDbLine
 10
289744.380278173
 20
42755.22963227194
 30
0.0
 11
308809.7531467817
 21
42755.22963226833
 31
0.0
  0
LINE
  5
2E97D
330
1F
100
AcDbEntity
  8
電気錠制御盤　（株）アート
  6
Continuous
 62
     7
370
    13
100
AcDbLine
 10
289744.380278173
 20
42114.20284252596
 30
0.0
 11
308809.7531467817
 21
42114.20284252596
 31
0.0
  0
LINE
  5
2E97E
330
1F
100
AcDbEntity
  8
電気錠制御盤　（株）アート
  6
Continuous
 62
     7
370
    13
100
AcDbLine
 10
289744.380278173
 20
40832.14926304117
 30
0.0
 11
308809.7531467817
 21
40832.14926304117
 31
0.0
  0
LINE
  5
2E97F
330
1F
100
AcDbEntity
  8
電気錠制御盤　（株）アート
  6
Continuous
 62
     7
370
    13
100
AcDbLine
 10
289744.380278173
 20
40191.12247329882
 30
0.0
 11
308809.7531467817
 21
40191.12247329882
 31
0.0
  0
LINE
  5
2E980
330
1F
100
AcDbEntity
  8
電気錠制御盤　（株）アート
  6
Continuous
 62
     7
370
    13
100
AcDbLine
 10
289744.3802781728
 20
37001.38615646672
 30
0.0
 11
308809.7531467816
 21
37001.38615646614
 31
0.0
  0
TEXT
  5
2E981
330
1F
100
AcDbEntity
  8
電気錠制御盤　（株）アート
  6
Continuous
 62
     7
370
    13
100
AcDbText
 10
290068.7272372585
 20
38393.53098957601
 30
0.0
 40
447.9946116360424
  1
設置場所
 41
0.944444
  7
KANJI
100
AcDbText
  0
TEXT
  5
2E982
330
1F
100
AcDbEntity
  8
電気錠制御盤　（株）アート
  6
Continuous
 62
     7
370
    13
100
AcDbText
 10
294160.9574123844
 20
38393.53098957575
 30
0.0
 40
447.9946116360424
  1
ＩＰＸ３：ＪＩＳ保護等級防雨型相当
 41
0.8872049999999999
  7
KANJI
100
AcDbText
  0
LINE
  5
2E983
330
1F
100
AcDbEntity
  8
電気錠制御盤　（株）アート
  6
Continuous
 62
     7
370
    13
100
AcDbLine
 10
289744.3802781727
 20
37652.67803413909
 30
0.0
 11
308809.7531467814
 21
37652.67803413909
 31
0.0
  0
LINE
  5
2E984
330
1F
100
AcDbEntity
  8
電気錠制御盤　（株）アート
  6
Continuous
 62
     7
370
    13
100
AcDbLine
 10
289744.380278173
 20
41473.17605277997
 30
0.0
 11
308809.7531467817
 21
41473.17605277997
 31
0.0
  0
LINE
  5
2E985
330
1F
100
AcDbEntity
  8
電気錠制御盤　（株）アート
  6
Continuous
 62
     7
370
    13
100
AcDbLine
 10
289744.380278173
 20
36350.09427879677
 30
0.0
 11
308809.7531467817
 21
36350.09427879319
 31
0.0
  0
LINE
  5
2E986
330
1F
100
AcDbEntity
  8
電気錠制御盤　（株）アート
  6
Continuous
 62
     7
370
    13
100
AcDbLine
 10
289744.3802781729
 20
38914.20143779509
 30
0.0
 11
308809.7531467816
 21
38914.20143779151
 31
0.0
  0
TEXT
  5
2E987
330
1F
100
AcDbEntity
  8
電気錠制御盤　（株）アート
  6
Continuous
 62
     7
370
    13
100
AcDbText
 10
290068.7272372584
 20
39008.89505947788
 30
0.0
 40
447.9946116360424
  1
使用環境温度
 41
0.944444
  7
KANJI
100
AcDbText
  0
TEXT
  5
2E988
330
1F
100
AcDbEntity
  8
電気錠制御盤　（株）アート
  6
Continuous
 62
     7
370
    13
100
AcDbText
 10
294160.9574123842
 20
39008.89505947762
 30
0.0
 40
447.9946116360424
  1
０℃～４０℃（結露なきこと）
 41
0.8872049999999999
  7
KANJI
100
AcDbText
  0
LINE
  5
2E989
330
1F
100
AcDbEntity
  8
電気錠制御盤　（株）アート
  6
Continuous
 62
     7
370
    13
100
AcDbLine
 10
289744.380278173
 20
39550.09568355645
 30
0.0
 11
308809.7531467817
 21
39550.09568355645
 31
0.0
  0
TEXT
  5
2E98A
330
1F
100
AcDbEntity
  8
電気錠制御盤　（株）アート
  6
Continuous
 62
     7
370
    13
100
AcDbText
 10
290068.7272372584
 20
37126.87504198648
 30
0.0
 40
447.9946116360424
  1
カード感知距離
 41
0.944444
  7
KANJI
100
AcDbText
  0
TEXT
  5
2E98B
330
1F
100
AcDbEntity
  8
電気錠制御盤　（株）アート
  6
Continuous
 62
     7
370
    13
100
AcDbText
 10
294160.9574123841
 20
37111.47741006025
 30
0.0
 40
447.9946116360424
  1
ＦｅｌｉＣａ・５ｃｍ以上／ＭＩＦＡＲＥ・５ｃｍ以上
 41
0.8872049999999999
  7
KANJI
100
AcDbText
  0
TEXT
  5
2E98C
330
1F
100
AcDbEntity
  8
電気錠制御盤　（株）アート
  6
Continuous
 62
     7
370
    13
100
AcDbText
 10
294160.9574123842
 20
36460.18553239033
 30
0.0
 40
447.9946116360424
  1
スイッチボックス２個用(ＪＩＳ Ｃ８３４０)に取付け可能。
 41
0.8872049999999999
  7
KANJI
100
AcDbText
  0
LINE
  5
2E98D
330
1F
100
AcDbEntity
  8
電気錠制御盤　（株）アート
 62
     7
370
    13
100
AcDbLine
 10
289744.3802781729
 20
38914.20143779509
 30
0.0
 11
292552.4413089256
 21
38914.20143779457
 31
0.0
  0
LINE
  5
2E98E
330
1F
100
AcDbEntity
  8
電気錠制御盤　（株）アート
  6
Continuous
 62
     7
370
    13
100
AcDbLine
 10
293956.4718243019
 20
44037.28321175672
 30
0.0
 11
293956.4718243003
 21
36350.09427879597
 31
0.0
  0
TEXT
  5
2E98F
330
1F
100
AcDbEntity
  8
電気錠制御盤　（株）アート
  6
Continuous
 62
     7
370
    13
100
AcDbText
 10
290068.7272372584
 20
36475.58316430667
 30
0.0
 40
447.9946116360424
  1
備考
 41
0.944444
  7
KANJI
100
AcDbText
  0
TEXT
  5
2E990
330
1F
100
AcDbEntity
  8
電気錠制御盤　（株）アート
  6
Continuous
 62
     7
370
    13
100
AcDbText
 10
294160.9574123842
 20
37793.55459170928
 30
0.0
 40
447.9946116360424
  1
※上部・左右の３方向にコーキング処理を行うこと
 41
0.8872049999999999
  7
KANJI
100
AcDbText
  0
ENDSEC
  0
SECTION
  2
OBJECTS
  0
DICTIONARY
  5
C
330
0
100
AcDbDictionary
281
     1
  3
ACAD_CIP_PREVIOUS_PRODUCT_INFO
350
1A0D0
  3
ACAD_COLOR
350
6B
  3
ACAD_DETAILVIEWSTYLE
350
1A0CA
  3
ACAD_GROUP
350
D
  3
ACAD_LAYOUT
350
1A
  3
ACAD_MATERIAL
350
6A
  3
ACAD_MLEADERSTYLE
350
1A0C6
  3
ACAD_MLINESTYLE
350
17
  3
ACAD_PLOTSETTINGS
350
19
  3
ACAD_PLOTSTYLENAME
350
E
  3
ACAD_SCALELIST
350
1A0B4
  3
ACAD_SECTIONVIEWSTYLE
350
1A0C8
  3
ACAD_TABLESTYLE
350
7E
  3
ACAD_VISUALSTYLE
350
1A09B
  3
ACDB_RECOMPOSE_DATA
350
30BE5
  3
AcDbVariableDictionary
350
5E
  3
AcDsDecomposeData
350
30BEC
  3
DWGPROPS
350
30BE6
  0
DICTIONARY
  5
616
330
2
100
AcDbDictionary
280
     1
281
     1
  3
ACAD_LAYERSTATES
360
617
  0
DICTIONARY
  5
1C73C
330
10
100
AcDbDictionary
280
     1
281
     1
  3
ADSK_XREC_LAYER_RECONCILED
360
1C73D
  0
DICTIONARY
  5
1C744
330
613
100
AcDbDictionary
280
     1
281
     1
  3
ADSK_XREC_LAYER_RECONCILED
360
1C745
  0
DICTIONARY
  5
2ECF7
330
2ECF6
100
AcDbDictionary
280
     1
281
     1
  0
DICTIONARY
  5
B04B
330
1F
100
AcDbDictionary
280
     1
281
     1
  3
ACAD_SORTENTS
360
B04C
  0
XRECORD
  5
1A0D0
102
{ACAD_REACTORS
330
C
102
}
330
C
100
AcDbXrecord
280
     1
300
ACDLT
300
2015
300
ACDLT_F_S
  0
DICTIONARY
  5
6B
102
{ACAD_REACTORS
330
C
102
}
330
C
100
AcDbDictionary
281
     1
  0
DICTIONARY
  5
1A0CA
102
{ACAD_REACTORS
330
C
102
}
330
C
100
AcDbDictionary
281
     1
  3
Imperial24
350
1C19A
  3
Metric50
350
1A0CB
  0
DICTIONARY
  5
D
102
{ACAD_REACTORS
330
C
102
}
330
C
100
AcDbDictionary
281
     1
  0
DICTIONARY
  5
1A
102
{ACAD_REACTORS
330
C
102
}
330
C
100
AcDbDictionary
281
     1
  3
Model
350
22
  3
レイアウト1
350
D3
  3
レイアウト2
350
D7
  0
DICTIONARY
  5
6A
102
{ACAD_REACTORS
330
C
102
}
330
C
100
AcDbDictionary
281
     1
  3
ByBlock
350
1A08B
  3
ByLayer
350
1A083
  3
Global
350
1A093
  0
DICTIONARY
  5
1A0C6
102
{ACAD_REACTORS
330
C
102
}
330
C
100
AcDbDictionary
281
     1
  3
Standard
350
1A0C7
  0
DICTIONARY
  5
17
102
{ACAD_REACTORS
330
C
102
}
330
C
100
AcDbDictionary
281
     1
  3
Standard
350
18
  0
DICTIONARY
  5
19
102
{ACAD_REACTORS
330
C
102
}
330
C
100
AcDbDictionary
281
     1
  0
ACDBDICTIONARYWDFLT
  5
E
102
{ACAD_REACTORS
330
C
102
}
330
C
100
AcDbDictionary
281
     1
  3
Normal
350
F
100
AcDbDictionaryWithDefault
340
F
  0
DICTIONARY
  5
1A0B4
102
{ACAD_REACTORS
330
C
102
}
330
C
100
AcDbDictionary
281
     1
  3
A0
350
1A0B5
  3
A1
350
1A0B6
  3
A2
350
1A0B7
  3
A3
350
1A0B8
  3
A4
350
1A0B9
  3
A5
350
1A0BA
  3
A6
350
1A0BB
  3
A7
350
1A0BC
  3
A8
350
1A0BD
  3
A9
350
1A0BE
  3
B0
350
1A0BF
  3
B1
350
1A0C0
  3
B2
350
1A0C1
  3
B3
350
1A0C2
  3
B4
350
1A0C3
  3
B5
350
1A0C4
  3
B6
350
1A0C5
  0
DICTIONARY
  5
1A0C8
102
{ACAD_REACTORS
330
C
102
}
330
C
100
AcDbDictionary
281
     1
  3
Imperial24
350
1C199
  3
Metric50
350
1A0C9
  0
DICTIONARY
  5
7E
102
{ACAD_REACTORS
330
C
102
}
330
C
100
AcDbDictionary
281
     1
  3
Standard
350
7F
  0
DICTIONARY
  5
1A09B
102
{ACAD_REACTORS
330
C
102
}
330
C
100
AcDbDictionary
281
     1
  3
2dWireframe
350
1A0A1
  3
Basic
350
1A0A0
  3
Brighten
350
1A0A7
  3
ColorChange
350
1A0AB
  3
Conceptual
350
1A0A4
  3
Dim
350
1A0A6
  3
EdgeColorOff
350
1A0B3
  3
Facepattern
350
1A0AA
  3
Flat
350
1A09C
  3
FlatWithEdges
350
1A09D
  3
Gouraud
350
1A09E
  3
GouraudWithEdges
350
1A09F
  3
Hidden
350
1A0A3
  3
JitterOff
350
1A0B1
  3
Linepattern
350
1A0A9
  3
OverhangOff
350
1A0B2
  3
Realistic
350
1A0A5
  3
Shaded
350
1A0B0
  3
Shaded with edges
350
1A0AF
  3
Shades of Gray
350
1A0AC
  3
Sketchy
350
1A0AD
  3
Thicken
350
1A0A8
  3
Wireframe
350
1A0A2
  3
X-Ray
350
1A0AE
  0
XRECORD
  5
30BE5
102
{ACAD_REACTORS
330
C
102
}
330
C
100
AcDbXrecord
280
     1
 90
        1
330
7F
  0
DICTIONARY
  5
5E
102
{ACAD_REACTORS
330
C
102
}
330
C
100
AcDbDictionary
281
     1
  3
CANNOSCALE
350
1C766
  3
CMLEADERSTYLE
350
1C762
  3
CTABLESTYLE
350
84
  3
CVIEWDETAILSTYLE
350
1C763
  3
CVIEWSECTIONSTYLE
350
1C764
  3
DIMASSOC
350
5F
  3
HIDETEXT
350
63
  3
INDEXCTL
350
30BE1
  3
LAYEREVAL
350
1C768
  3
LAYERNOTIFY
350
1C769
  3
LIGHTINGUNITS
350
1C767
  3
MSLTSCALE
350
1C765
  3
PROJECTNAME
350
66AB
  3
SORTENTS
350
30BE0
  3
XCLIPFRAME
350
30BE2
  0
DICTIONARY
  5
30BEC
102
{ACAD_REACTORS
330
C
102
}
330
C
100
AcDbDictionary
281
     1
  3
AcDsRecords
350
30BEE
  3
AcDsSchemas
350
30BED
1001
ACAD
1070
     2
  0
XRECORD
  5
30BE6
102
{ACAD_REACTORS
330
C
102
}
330
C
100
AcDbXrecord
280
     1
  1
DWGPROPS COOKIE
  2

  3

  4

  6

  7

  8
nagahama
  9

300
=
301
=
302
=
303
=
304
=
305
=
306
=
307
=
308
=
309
=
 40
0.6436099305555557
 41
2455257.708088461
 42
2458661.580206805
  1

 90
        0
  0
DICTIONARY
  5
617
102
{ACAD_REACTORS
330
616
102
}
330
616
100
AcDbDictionary
281
     1
  0
XRECORD
  5
1C73D
102
{ACAD_REACTORS
330
1C73C
102
}
330
1C73C
100
AcDbXrecord
280
     1
290
     1
  0
XRECORD
  5
1C745
102
{ACAD_REACTORS
330
1C744
102
}
330
1C744
100
AcDbXrecord
280
     1
290
     1
  0
SORTENTSTABLE
  5
B04C
102
{ACAD_REACTORS
330
B04B
102
}
330
B04B
100
AcDbSortentsTable
330
1F
331
4406
  5
4406
331
4190
  5
4190
331
418F
  5
418F
  0
ACDBDETAILVIEWSTYLE
  5
1C19A
102
{ACAD_XDICTIONARY
360
1C75F
102
}
102
{ACAD_REACTORS
330
1A0CA
102
}
330
1A0CA
100
AcDbModelDocViewStyle
 70
     0
  3
Imperial24
290
     0
100
AcDbDetailViewStyle
 70
     0
 71
     0
 90
        3
 71
     1
340
11
 40
0.24
340
0
 40
0.24
300

 40
0.36
280
     3
 71
     2
340
16
 90
       25
 71
     3
340
11
 40
0.24
 90
        1
 40
0.75
 90
        1
300
%<\AcVar ViewType \f "%tc1">% %<\AcVar ViewDetailId>%\PSCALE %<\AcVar ViewScale \f "%sn">%
 71
     4
340
16
 90
       25
340
16
 90
       25
280
     0
  0
ACDBDETAILVIEWSTYLE
  5
1A0CB
102
{ACAD_XDICTIONARY
360
1C75B
102
}
102
{ACAD_REACTORS
330
1A0CA
102
}
330
1A0CA
100
AcDbModelDocViewStyle
 70
     0
  3
Metric50
290
     0
100
AcDbDetailViewStyle
 70
     0
 71
     0
 90
        3
 71
     1
340
11
 40
5.0
340
0
 40
5.0
300

 40
0.0
280
     1
 71
     2
340
16
 90
       25
 71
     3
340
11
 40
5.0
 90
        0
 40
15.0
 90
        1
300
%<\AcVar ViewDetailId>% (%<\AcVar ViewScale \f "%sn">%)
 71
     4
340
16
 90
       25
340
16
 90
       25
280
     0
  0
LAYOUT
  5
22
102
{ACAD_XDICTIONARY
360
30BEF
102
}
102
{ACAD_REACTORS
330
1A
102
}
330
1A
100
AcDbPlotSettings
  1

  2
none_device
  4
ISO_A4_(210.00_x_297.00_MM)
  6

 40
7.5
 41
20.0
 42
7.5
 43
20.0
 44
210.0
 45
297.0
 46
11.54999923706054
 47
-13.65000009536743
 48
0.0
 49
0.0
140
0.0
141
0.0
142
1.0
143
8.704084754739808
 70
 11952
 72
     1
 73
     0
 74
     0
  7
all black（線：データ通り　色：黒）.ctb
 75
     0
147
0.1148885871608098
148
0.0
149
0.0
100
AcDbLayout
  1
Model
 70
     1
 71
     0
 10
0.0
 20
0.0
 11
12.0
 21
9.0
 12
0.0
 22
0.0
 32
0.0
 14
0.0
 24
0.0
 34
0.0
 15
0.0
 25
0.0
 35
0.0
146
0.0
 13
0.0
 23
0.0
 33
0.0
 16
1.0
 26
0.0
 36
0.0
 17
0.0
 27
1.0
 37
0.0
 76
     0
330
1F
331
1A081
1001
ACAD_PSEXT
1000
None
1000
None
1000
Not applicable
1000
The layout will not be plotted unless a new plotter configuration name is selected.
1070
     0
  0
LAYOUT
  5
D3
102
{ACAD_XDICTIONARY
360
30BF2
102
}
102
{ACAD_REACTORS
330
1A
102
}
330
1A
100
AcDbPlotSettings
  1

  2
C:\Documents and Settings\basas\Application Data\Autodesk\AutoCAD 2005\R16.1\enu\plotters\Default Windows System Printer.pc3
  4

  6

 40
0.0
 41
0.0
 42
0.0
 43
0.0
 44
0.0
 45
0.0
 46
0.0
 47
0.0
 48
0.0
 49
0.0
140
0.0
141
0.0
142
1.0
143
1.0
 70
   688
 72
     0
 73
     0
 74
     5
  7
all black（線：データ通り　色：黒）.ctb
 75
    16
147
1.0
148
0.0
149
0.0
100
AcDbLayout
  1
レイアウト1
 70
     1
 71
     1
 10
0.0
 20
0.0
 11
12.0
 21
9.0
 12
0.0
 22
0.0
 32
0.0
 14
0.0
 24
0.0
 34
0.0
 15
0.0
 25
0.0
 35
0.0
146
0.0
 13
0.0
 23
0.0
 33
0.0
 16
1.0
 26
0.0
 36
0.0
 17
0.0
 27
1.0
 37
0.0
 76
     0
330
D2
  0
LAYOUT
  5
D7
102
{ACAD_XDICTIONARY
360
30BF4
102
}
102
{ACAD_REACTORS
330
1A
102
}
330
1A
100
AcDbPlotSettings
  1

  2
C:\Documents and Settings\basas\Application Data\Autodesk\AutoCAD 2005\R16.1\enu\plotters\Default Windows System Printer.pc3
  4

  6

 40
0.0
 41
0.0
 42
0.0
 43
0.0
 44
0.0
 45
0.0
 46
0.0
 47
0.0
 48
0.0
 49
0.0
140
0.0
141
0.0
142
1.0
143
1.0
 70
   688
 72
     0
 73
     0
 74
     5
  7
all black（線：データ通り　色：黒）.ctb
 75
    16
147
1.0
148
0.0
149
0.0
100
AcDbLayout
  1
レイアウト2
 70
     1
 71
     2
 10
0.0
 20
0.0
 11
12.0
 21
9.0
 12
0.0
 22
0.0
 32
0.0
 14
0.0
 24
0.0
 34
0.0
 15
0.0
 25
0.0
 35
0.0
146
0.0
 13
0.0
 23
0.0
 33
0.0
 16
1.0
 26
0.0
 36
0.0
 17
0.0
 27
1.0
 37
0.0
 76
     0
330
D6
  0
MATERIAL
  5
1A08B
102
{ACAD_XDICTIONARY
360
1A08C
102
}
102
{ACAD_REACTORS
330
6A
102
}
330
6A
100
AcDbMaterial
  1
ByBlock
 72
     0
 43
0.0008202099737533
 43
0.0
 43
0.0
 43
0.0
 43
0.0
 43
0.0008202099737533
 43
0.0
 43
0.0
 43
0.0
 43
0.0
 43
1.0
 43
0.0
 43
0.0
 43
0.0
 43
0.0
 43
1.0
 77
     0
 47
0.0008202099737533
 47
0.0
 47
0.0
 47
0.0
 47
0.0
 47
0.0008202099737533
 47
0.0
 47
0.0
 47
0.0
 47
0.0
 47
1.0
 47
0.0
 47
0.0
 47
0.0
 47
0.0
 47
1.0
171
     0
 49
0.0008202099737533
 49
0.0
 49
0.0
 49
0.0
 49
0.0
 49
0.0008202099737533
 49
0.0
 49
0.0
 49
0.0
 49
0.0
 49
1.0
 49
0.0
 49
0.0
 49
0.0
 49
0.0
 49
1.0
175
     0
142
0.0008202099737533
142
0.0
142
0.0
142
0.0
142
0.0
142
0.0008202099737533
142
0.0
142
0.0
142
0.0
142
0.0
142
1.0
142
0.0
142
0.0
142
0.0
142
0.0
142
1.0
179
     0
144
0.0008202099737533
144
0.0
144
0.0
144
0.0
144
0.0
144
0.0008202099737533
144
0.0
144
0.0
144
0.0
144
0.0
144
1.0
144
0.0
144
0.0
144
0.0
144
0.0
144
1.0
147
0.0008202099737533
147
0.0
147
0.0
147
0.0
147
0.0
147
0.0008202099737533
147
0.0
147
0.0
147
0.0
147
0.0
147
1.0
147
0.0
147
0.0
147
0.0
147
0.0
147
1.0
  0
MATERIAL
  5
1A083
102
{ACAD_XDICTIONARY
360
1A084
102
}
102
{ACAD_REACTORS
330
6A
102
}
330
6A
100
AcDbMaterial
  1
ByLayer
 72
     0
 43
0.0008202099737533
 43
0.0
 43
0.0
 43
0.0
 43
0.0
 43
0.0008202099737533
 43
0.0
 43
0.0
 43
0.0
 43
0.0
 43
1.0
 43
0.0
 43
0.0
 43
0.0
 43
0.0
 43
1.0
 77
     0
 47
0.0008202099737533
 47
0.0
 47
0.0
 47
0.0
 47
0.0
 47
0.0008202099737533
 47
0.0
 47
0.0
 47
0.0
 47
0.0
 47
1.0
 47
0.0
 47
0.0
 47
0.0
 47
0.0
 47
1.0
171
     0
 49
0.0008202099737533
 49
0.0
 49
0.0
 49
0.0
 49
0.0
 49
0.0008202099737533
 49
0.0
 49
0.0
 49
0.0
 49
0.0
 49
1.0
 49
0.0
 49
0.0
 49
0.0
 49
0.0
 49
1.0
175
     0
142
0.0008202099737533
142
0.0
142
0.0
142
0.0
142
0.0
142
0.0008202099737533
142
0.0
142
0.0
142
0.0
142
0.0
142
1.0
142
0.0
142
0.0
142
0.0
142
0.0
142
1.0
179
     0
144
0.0008202099737533
144
0.0
144
0.0
144
0.0
144
0.0
144
0.0008202099737533
144
0.0
144
0.0
144
0.0
144
0.0
144
1.0
144
0.0
144
0.0
144
0.0
144
0.0
144
1.0
147
0.0008202099737533
147
0.0
147
0.0
147
0.0
147
0.0
147
0.0008202099737533
147
0.0
147
0.0
147
0.0
147
0.0
147
1.0
147
0.0
147
0.0
147
0.0
147
0.0
147
1.0
  0
MATERIAL
  5
1A093
102
{ACAD_XDICTIONARY
360
1A094
102
}
102
{ACAD_REACTORS
330
6A
102
}
330
6A
100
AcDbMaterial
  1
Global
 72
     0
 43
0.0008202099737533
 43
0.0
 43
0.0
 43
0.0
 43
0.0
 43
0.0008202099737533
 43
0.0
 43
0.0
 43
0.0
 43
0.0
 43
1.0
 43
0.0
 43
0.0
 43
0.0
 43
0.0
 43
1.0
 77
     0
 47
0.0008202099737533
 47
0.0
 47
0.0
 47
0.0
 47
0.0
 47
0.0008202099737533
 47
0.0
 47
0.0
 47
0.0
 47
0.0
 47
1.0
 47
0.0
 47
0.0
 47
0.0
 47
0.0
 47
1.0
171
     0
 49
0.0008202099737533
 49
0.0
 49
0.0
 49
0.0
 49
0.0
 49
0.0008202099737533
 49
0.0
 49
0.0
 49
0.0
 49
0.0
 49
1.0
 49
0.0
 49
0.0
 49
0.0
 49
0.0
 49
1.0
175
     0
142
0.0008202099737533
142
0.0
142
0.0
142
0.0
142
0.0
142
0.0008202099737533
142
0.0
142
0.0
142
0.0
142
0.0
142
1.0
142
0.0
142
0.0
142
0.0
142
0.0
142
1.0
179
     0
144
0.0008202099737533
144
0.0
144
0.0
144
0.0
144
0.0
144
0.0008202099737533
144
0.0
144
0.0
144
0.0
144
0.0
144
1.0
144
0.0
144
0.0
144
0.0
144
0.0
144
1.0
147
0.0008202099737533
147
0.0
147
0.0
147
0.0
147
0.0
147
0.0008202099737533
147
0.0
147
0.0
147
0.0
147
0.0
147
1.0
147
0.0
147
0.0
147
0.0
147
0.0
147
1.0
  0
MLEADERSTYLE
  5
1A0C7
102
{ACAD_XDICTIONARY
360
30C2A
102
}
102
{ACAD_REACTORS
330
1A0C6
102
}
330
1A0C6
100
AcDbMLeaderStyle
170
     2
171
     1
172
     0
 90
        2
 40
0.0
 41
0.0
173
     1
 91
-1056964608
340
14
 92
       -2
290
     1
 42
2.0
291
     1
 43
0.36
  3
Standard
 44
4.0
300

342
11
174
     1
178
     6
175
     1
176
     0
 93
-1056964608
 45
4.0
292
     0
297
     0
 46
4.0
 94
-1056964608
 47
1.0
 49
1.0
140
1.0
293
     1
141
0.0
294
     1
177
     0
142
1.0
295
     0
296
     0
143
0.125
1001
ACAD_MLEADERVER
1070
     2
  0
MLINESTYLE
  5
18
102
{ACAD_REACTORS
330
17
102
}
330
17
100
AcDbMlineStyle
  2
STANDARD
 70
     0
  3

 62
   256
 51
90.0
 52
90.0
 71
     2
 49
0.5
 62
   256
  6
BYLAYER
 49
-0.5
 62
   256
  6
BYLAYER
  0
ACDBPLACEHOLDER
  5
F
102
{ACAD_REACTORS
330
E
102
}
330
E
  0
SCALE
  5
1A0B5
102
{ACAD_REACTORS
330
1A0B4
102
}
330
1A0B4
100
AcDbScale
 70
     0
300
1:1
140
1.0
141
1.0
290
     1
  0
SCALE
  5
1A0B6
102
{ACAD_REACTORS
330
1A0B4
102
}
330
1A0B4
100
AcDbScale
 70
     0
300
1:2
140
1.0
141
2.0
290
     0
  0
SCALE
  5
1A0B7
102
{ACAD_REACTORS
330
1A0B4
102
}
330
1A0B4
100
AcDbScale
 70
     0
300
1:4
140
1.0
141
4.0
290
     0
  0
SCALE
  5
1A0B8
102
{ACAD_REACTORS
330
1A0B4
102
}
330
1A0B4
100
AcDbScale
 70
     0
300
1:5
140
1.0
141
5.0
290
     0
  0
SCALE
  5
1A0B9
102
{ACAD_REACTORS
330
1A0B4
102
}
330
1A0B4
100
AcDbScale
 70
     0
300
1:8
140
1.0
141
8.0
290
     0
  0
SCALE
  5
1A0BA
102
{ACAD_REACTORS
330
1A0B4
102
}
330
1A0B4
100
AcDbScale
 70
     0
300
1:10
140
1.0
141
10.0
290
     0
  0
SCALE
  5
1A0BB
102
{ACAD_REACTORS
330
1A0B4
102
}
330
1A0B4
100
AcDbScale
 70
     0
300
1:16
140
1.0
141
16.0
290
     0
  0
SCALE
  5
1A0BC
102
{ACAD_REACTORS
330
1A0B4
102
}
330
1A0B4
100
AcDbScale
 70
     0
300
1:20
140
1.0
141
20.0
290
     0
  0
SCALE
  5
1A0BD
102
{ACAD_REACTORS
330
1A0B4
102
}
330
1A0B4
100
AcDbScale
 70
     0
300
1:30
140
1.0
141
30.0
290
     0
  0
SCALE
  5
1A0BE
102
{ACAD_REACTORS
330
1A0B4
102
}
330
1A0B4
100
AcDbScale
 70
     0
300
1:40
140
1.0
141
40.0
290
     0
  0
SCALE
  5
1A0BF
102
{ACAD_REACTORS
330
1A0B4
102
}
330
1A0B4
100
AcDbScale
 70
     0
300
1:50
140
1.0
141
50.0
290
     0
  0
SCALE
  5
1A0C0
102
{ACAD_REACTORS
330
1A0B4
102
}
330
1A0B4
100
AcDbScale
 70
     0
300
1:100
140
1.0
141
100.0
290
     0
  0
SCALE
  5
1A0C1
102
{ACAD_REACTORS
330
1A0B4
102
}
330
1A0B4
100
AcDbScale
 70
     0
300
2:1
140
2.0
141
1.0
290
     0
  0
SCALE
  5
1A0C2
102
{ACAD_REACTORS
330
1A0B4
102
}
330
1A0B4
100
AcDbScale
 70
     0
300
4:1
140
4.0
141
1.0
290
     0
  0
SCALE
  5
1A0C3
102
{ACAD_REACTORS
330
1A0B4
102
}
330
1A0B4
100
AcDbScale
 70
     0
300
8:1
140
8.0
141
1.0
290
     0
  0
SCALE
  5
1A0C4
102
{ACAD_REACTORS
330
1A0B4
102
}
330
1A0B4
100
AcDbScale
 70
     0
300
10:1
140
10.0
141
1.0
290
     0
  0
SCALE
  5
1A0C5
102
{ACAD_REACTORS
330
1A0B4
102
}
330
1A0B4
100
AcDbScale
 70
     0
300
100:1
140
100.0
141
1.0
290
     0
  0
ACDBSECTIONVIEWSTYLE
  5
1C199
102
{ACAD_XDICTIONARY
360
1C75D
102
}
102
{ACAD_REACTORS
330
1A0C8
102
}
330
1A0C8
100
AcDbModelDocViewStyle
 70
     0
  3
Imperial24
290
     0
100
AcDbSectionViewStyle
 70
     0
 71
     0
 90
       78
 71
     1
340
11
 40
0.24
340
0
340
0
 40
0.24
300
I, O, Q, S, X, Z
 40
0.48
 90
        3
 40
0.18
 90
        1
 71
     2
340
16
 90
       25
340
16
 90
       50
 40
0.24
 40
0.0
 40
0.24
 71
     3
340
11
 40
0.24
 90
        1
 40
0.75
 90
        1
300
%<\AcVar ViewType \f "%tc1">% %<\AcVar ViewSectionStartId>%-%<\AcVar ViewSectionEndId>%\PSCALE %<\AcVar ViewScale \f "%sn">%
 71
     4
300
ANSI31
 40
1.0
 90
        0
290
     0
290
     0
 90
        6
 40
0.0
 40
1.570796326794896
 40
0.2617993877991494
 40
1.308996938995747
 40
-0.2617993877991494
 40
1.832595714594046
  0
ACDBSECTIONVIEWSTYLE
  5
1A0C9
102
{ACAD_XDICTIONARY
360
1C759
102
}
102
{ACAD_REACTORS
330
1A0C8
102
}
330
1A0C8
100
AcDbModelDocViewStyle
 70
     0
  3
Metric50
290
     0
100
AcDbSectionViewStyle
 70
     0
 71
     0
 90
      102
 71
     1
340
11
 40
5.0
340
0
340
0
 40
5.0
300
I, O, Q, S, X, Z
 40
10.0
 90
        0
 40
2.5
 90
        0
 71
     2
340
16
 90
       25
340
16
 90
       50
 40
5.0
 40
2.5
 40
5.0
 71
     3
340
11
 40
5.0
 90
        0
 40
15.0
 90
        1
300
%<\AcVar ViewSectionStartId>%-%<\AcVar ViewSectionEndId>% (%<\AcVar ViewScale \f "%sn">%)
 71
     4
300
ANSI31
 40
1.0
 90
        0
290
     0
290
     0
 90
        6
 40
0.0
 40
1.570796326794896
 40
0.2617993877991494
 40
1.308996938995747
 40
-0.2617993877991494
 40
1.832595714594046
  0
TABLESTYLE
  5
7F
102
{ACAD_XDICTIONARY
360
30BE3
102
}
102
{ACAD_REACTORS
330
7E
102
}
330
7E
100
AcDbTableStyle
  3
Standard
 70
     0
 71
     0
 40
1.5
 41
1.5
280
     0
281
     0
  7
Standard
140
4.5
170
     2
 62
     0
 63
     7
283
     0
274
    -2
284
     1
 64
     0
275
    -2
285
     1
 65
     0
276
    -2
286
     1
 66
     0
277
    -2
287
     1
 67
     0
278
    -2
288
     1
 68
     0
279
    -2
289
     1
 69
     0
  7
Standard
140
6.0
170
     5
 62
     0
 63
     7
283
     0
274
    -2
284
     1
 64
     0
275
    -2
285
     1
 65
     0
276
    -2
286
     1
 66
     0
277
    -2
287
     1
 67
     0
278
    -2
288
     1
 68
     0
279
    -2
289
     1
 69
     0
  7
Standard
140
4.5
170
     5
 62
     0
 63
     7
283
     0
274
    -2
284
     1
 64
     0
275
    -2
285
     1
 65
     0
276
    -2
286
     1
 66
     0
277
    -2
287
     1
 67
     0
278
    -2
288
     1
 68
     0
279
    -2
289
     1
 69
     0
  0
VISUALSTYLE
  5
1A0A1
102
{ACAD_XDICTIONARY
360
30C03
102
}
102
{ACAD_REACTORS
330
1A09B
102
}
330
1A09B
100
AcDbVisualStyle
  2
2dWireframe
 70
     4
 71
     0
 72
     2
 73
     0
 90
        0
 40
-0.6
 41
-30.0
 62
     5
 63
     7
 74
     1
 91
        4
 64
     7
 65
   257
 75
     1
175
     1
 42
1.0
 92
        0
 66
   257
 43
1.0
 76
     1
 77
     6
 78
     2
 67
     7
 79
     5
170
     0
171
     0
290
     0
174
     0
 93
        1
 44
0.0
173
     0
291
     0
 45
0.0
1001
ACAD
1000
AcDbSavedByObjectVersion
1070
     0
  0
VISUALSTYLE
  5
1A0A0
102
{ACAD_XDICTIONARY
360
30C01
102
}
102
{ACAD_REACTORS
330
1A09B
102
}
330
1A09B
100
AcDbVisualStyle
  2
Basic
 70
     7
 71
     1
 72
     0
 73
     1
 90
        0
 40
-0.6
 41
-30.0
 62
     5
 63
     7
 74
     0
 91
        4
 64
     7
 65
   257
 75
     1
175
     1
 42
1.0
 92
        8
 66
     7
 43
1.0
 76
     1
 77
     6
 78
     2
 67
     7
 79
     5
170
     0
171
     0
290
     0
174
     0
 93
        1
 44
0.0
173
     0
291
     1
 45
0.0
1001
ACAD
1000
AcDbSavedByObjectVersion
1070
     0
  0
VISUALSTYLE
  5
1A0A7
102
{ACAD_XDICTIONARY
360
30C0F
102
}
102
{ACAD_REACTORS
330
1A09B
102
}
330
1A09B
100
AcDbVisualStyle
  2
Brighten
 70
    12
 71
     2
 72
     2
 73
     0
 90
        0
 40
-0.6
 41
-30.0
 62
     5
 63
     7
 74
     1
 91
        4
 64
     7
 65
   257
 75
     1
175
     1
 42
1.0
 92
        8
 66
     7
 43
1.0
 76
     1
 77
     6
 78
     2
 67
     7
 79
     5
170
     0
171
     0
290
     0
174
     0
 93
        1
 44
50.0
173
     0
291
     1
 45
0.0
1001
ACAD
1000
AcDbSavedByObjectVersion
1070
     0
  0
VISUALSTYLE
  5
1A0AB
102
{ACAD_XDICTIONARY
360
30C17
102
}
102
{ACAD_REACTORS
330
1A09B
102
}
330
1A09B
100
AcDbVisualStyle
  2
ColorChange
 70
    16
 71
     2
 72
     2
 73
     3
 90
        0
 40
-0.6
 41
-30.0
 62
     5
 63
     8
 74
     1
 91
        4
 64
     7
 65
   257
 75
     1
175
     1
 42
1.0
 92
        8
 66
     8
 43
1.0
 76
     1
 77
     6
 78
     2
 67
     7
 79
     5
170
     0
171
     0
290
     0
174
     0
 93
        1
 44
0.0
173
     0
291
     1
 45
0.0
1001
ACAD
1000
AcDbSavedByObjectVersion
1070
     0
  0
VISUALSTYLE
  5
1A0A4
102
{ACAD_XDICTIONARY
360
30C09
102
}
102
{ACAD_REACTORS
330
1A09B
102
}
330
1A09B
100
AcDbVisualStyle
  2
Conceptual
 70
     9
 71
     3
 72
     2
 73
     0
 90
        0
 40
-0.6
 41
-30.0
 62
     5
 63
     7
 74
     2
 91
        2
 64
     7
 65
   257
 75
     1
175
     1
 42
179.0
 92
        8
 66
     7
 43
1.0
 76
     1
 77
     6
 78
     2
 67
     7
 79
     3
170
     0
171
     0
290
     0
174
     0
 93
        1
 44
0.0
173
     0
291
     0
 45
0.0
1001
ACAD
1000
AcDbSavedByObjectVersion
1070
     0
  0
VISUALSTYLE
  5
1A0A6
102
{ACAD_XDICTIONARY
360
30C0D
102
}
102
{ACAD_REACTORS
330
1A09B
102
}
330
1A09B
100
AcDbVisualStyle
  2
Dim
 70
    11
 71
     2
 72
     2
 73
     0
 90
        0
 40
-0.6
 41
-30.0
 62
     5
 63
     7
 74
     1
 91
        4
 64
     7
 65
   257
 75
     1
175
     1
 42
1.0
 92
        8
 66
     7
 43
1.0
 76
     1
 77
     6
 78
     2
 67
     7
 79
     5
170
     0
171
     0
290
     0
174
     0
 93
        1
 44
-50.0
173
     0
291
     1
 45
0.0
1001
ACAD
1000
AcDbSavedByObjectVersion
1070
     0
  0
VISUALSTYLE
  5
1A0B3
102
{ACAD_XDICTIONARY
360
30C27
102
}
102
{ACAD_REACTORS
330
1A09B
102
}
330
1A09B
100
AcDbVisualStyle
  2
EdgeColorOff
 70
    22
 71
     2
 72
     2
 73
     0
 90
        0
 40
-0.6
 41
-30.0
 62
     5
 63
     7
 74
     1
 91
        4
 64
     7
 65
   257
 75
     1
175
     1
 42
1.0
 92
        8
 66
     7
 43
1.0
 76
     1
 77
     6
 78
     2
 67
     7
 79
     5
170
     0
171
     0
290
     0
174
     0
 93
        1
 44
0.0
173
     0
291
     1
 45
0.0
1001
ACAD
1000
AcDbSavedByObjectVersion
1070
     0
  0
VISUALSTYLE
  5
1A0AA
102
{ACAD_XDICTIONARY
360
30C15
102
}
102
{ACAD_REACTORS
330
1A09B
102
}
330
1A09B
100
AcDbVisualStyle
  2
Facepattern
 70
    15
 71
     2
 72
     2
 73
     0
 90
        0
 40
-0.6
 41
-30.0
 62
     5
 63
     7
 74
     1
 91
        4
 64
     7
 65
   257
 75
     1
175
     1
 42
1.0
 92
        8
 66
     7
 43
1.0
 76
     1
 77
     6
 78
     2
 67
     7
 79
     5
170
     0
171
     0
290
     0
174
     0
 93
        1
 44
0.0
173
     0
291
     1
 45
0.0
1001
ACAD
1000
AcDbSavedByObjectVersion
1070
     0
  0
VISUALSTYLE
  5
1A09C
102
{ACAD_XDICTIONARY
360
30BF9
102
}
102
{ACAD_REACTORS
330
1A09B
102
}
330
1A09B
100
AcDbVisualStyle
  2
Flat
 70
     0
 71
     2
 72
     1
 73
     1
 90
        2
 40
-0.6
 41
30.0
 62
     5
 63
     7
 74
     0
 91
        0
 64
     7
 65
   257
 75
     1
175
     1
 42
1.0
 92
        8
 66
     7
 43
1.0
 76
     1
 77
     6
 78
     2
 67
     7
 79
     5
170
     0
171
     0
290
     0
174
     0
 93
       13
 44
0.0
173
     0
291
     1
 45
0.0
1001
ACAD
1000
AcDbSavedByObjectVersion
1070
     0
  0
VISUALSTYLE
  5
1A09D
102
{ACAD_XDICTIONARY
360
30BFB
102
}
102
{ACAD_REACTORS
330
1A09B
102
}
330
1A09B
100
AcDbVisualStyle
  2
FlatWithEdges
 70
     1
 71
     2
 72
     1
 73
     1
 90
        2
 40
-0.6
 41
30.0
 62
     5
 63
     7
 74
     1
 91
        0
 64
     7
 65
   257
 75
     1
175
     1
 42
1.0
 92
        0
 66
   257
 43
1.0
 76
     1
 77
     6
 78
     2
 67
     7
 79
     5
170
     0
171
     0
290
     0
174
     0
 93
       13
 44
0.0
173
     0
291
     1
 45
0.0
1001
ACAD
1000
AcDbSavedByObjectVersion
1070
     0
  0
VISUALSTYLE
  5
1A09E
102
{ACAD_XDICTIONARY
360
30BFD
102
}
102
{ACAD_REACTORS
330
1A09B
102
}
330
1A09B
100
AcDbVisualStyle
  2
Gouraud
 70
     2
 71
     2
 72
     2
 73
     1
 90
        2
 40
-0.6
 41
30.0
 62
     5
 63
     7
 74
     0
 91
        0
 64
     7
 65
   257
 75
     1
175
     1
 42
1.0
 92
        0
 66
     7
 43
1.0
 76
     1
 77
     6
 78
     2
 67
     7
 79
     5
170
     0
171
     0
290
     0
174
     0
 93
       13
 44
0.0
173
     0
291
     1
 45
0.0
1001
ACAD
1000
AcDbSavedByObjectVersion
1070
     0
  0
VISUALSTYLE
  5
1A09F
102
{ACAD_XDICTIONARY
360
30BFF
102
}
102
{ACAD_REACTORS
330
1A09B
102
}
330
1A09B
100
AcDbVisualStyle
  2
GouraudWithEdges
 70
     3
 71
     2
 72
     2
 73
     1
 90
        2
 40
-0.6
 41
30.0
 62
     5
 63
     7
 74
     1
 91
        0
 64
     7
 65
   257
 75
     1
175
     1
 42
1.0
 92
        0
 66
   257
 43
1.0
 76
     1
 77
     6
 78
     2
 67
     7
 79
     5
170
     0
171
     0
290
     0
174
     0
 93
       13
 44
0.0
173
     0
291
     1
 45
0.0
1001
ACAD
1000
AcDbSavedByObjectVersion
1070
     0
  0
VISUALSTYLE
  5
1A0A3
102
{ACAD_XDICTIONARY
360
30C07
102
}
102
{ACAD_REACTORS
330
1A09B
102
}
330
1A09B
100
AcDbVisualStyle
  2
Hidden
 70
     6
 71
     1
 72
     2
 73
     2
 90
        0
 40
-0.6
 41
-30.0
 62
     5
 63
     7
 74
     2
 91
        2
 64
     7
 65
   257
 75
     2
175
     1
 42
40.0
 92
        0
 66
   257
 43
1.0
 76
     1
 77
     6
 78
     2
 67
     7
 79
     3
170
     0
171
     0
290
     0
174
     0
 93
        1
 44
0.0
173
     0
291
     0
 45
0.0
1001
ACAD
1000
AcDbSavedByObjectVersion
1070
     0
  0
VISUALSTYLE
  5
1A0B1
102
{ACAD_XDICTIONARY
360
30C23
102
}
102
{ACAD_REACTORS
330
1A09B
102
}
330
1A09B
100
AcDbVisualStyle
  2
JitterOff
 70
    20
 71
     2
 72
     2
 73
     0
 90
        0
 40
-0.6
 41
-30.0
 62
     5
 63
     7
 74
     1
 91
        4
 64
     7
 65
   257
 75
     1
175
     1
 42
1.0
 92
       10
 66
     7
 43
1.0
 76
     1
 77
     6
 78
     2
 67
     7
 79
     5
170
     0
171
     0
290
     0
174
     0
 93
        1
 44
0.0
173
     0
291
     1
 45
0.0
1001
ACAD
1000
AcDbSavedByObjectVersion
1070
     0
  0
VISUALSTYLE
  5
1A0A9
102
{ACAD_XDICTIONARY
360
30C13
102
}
102
{ACAD_REACTORS
330
1A09B
102
}
330
1A09B
100
AcDbVisualStyle
  2
Linepattern
 70
    14
 71
     2
 72
     2
 73
     0
 90
        0
 40
-0.6
 41
-30.0
 62
     5
 63
     7
 74
     1
 91
        4
 64
     7
 65
   257
 75
     7
175
     7
 42
1.0
 92
        8
 66
     7
 43
1.0
 76
     1
 77
     6
 78
     2
 67
     7
 79
     5
170
     0
171
     0
290
     0
174
     0
 93
        1
 44
0.0
173
     0
291
     1
 45
0.0
1001
ACAD
1000
AcDbSavedByObjectVersion
1070
     0
  0
VISUALSTYLE
  5
1A0B2
102
{ACAD_XDICTIONARY
360
30C25
102
}
102
{ACAD_REACTORS
330
1A09B
102
}
330
1A09B
100
AcDbVisualStyle
  2
OverhangOff
 70
    21
 71
     2
 72
     2
 73
     0
 90
        0
 40
-0.6
 41
-30.0
 62
     5
 63
     7
 74
     1
 91
        4
 64
     7
 65
   257
 75
     1
175
     1
 42
1.0
 92
        9
 66
     7
 43
1.0
 76
     1
 77
     6
 78
     2
 67
     7
 79
     5
170
     0
171
     0
290
     0
174
     0
 93
        1
 44
0.0
173
     0
291
     1
 45
0.0
1001
ACAD
1000
AcDbSavedByObjectVersion
1070
     0
  0
VISUALSTYLE
  5
1A0A5
102
{ACAD_XDICTIONARY
360
30C0B
102
}
102
{ACAD_REACTORS
330
1A09B
102
}
330
1A09B
100
AcDbVisualStyle
  2
Realistic
 70
     8
 71
     2
 72
     3
 73
     0
 90
        2
 40
-0.6
 41
30.0
 62
     5
 63
     7
 74
     0
 91
        0
 64
     7
 65
   257
 75
     1
175
     1
 42
1.0
 92
        8
 66
   257
 43
1.0
 76
     1
 77
     6
 78
     2
 67
     7
 79
     3
170
     0
171
     0
290
     0
174
     0
 93
       13
 44
0.0
173
     0
291
     0
 45
0.0
1001
ACAD
1000
AcDbSavedByObjectVersion
1070
     0
  0
VISUALSTYLE
  5
1A0B0
102
{ACAD_XDICTIONARY
360
30C21
102
}
102
{ACAD_REACTORS
330
1A09B
102
}
330
1A09B
100
AcDbVisualStyle
  2
Shaded
 70
    27
 71
     2
 72
     2
 73
     1
 90
        2
 40
-0.6
 41
30.0
 62
     5
 63
     7
 74
     0
 91
        4
 64
     7
 65
   257
 75
     1
175
     1
 42
1.0
 92
        8
 66
   257
 43
1.0
 76
     1
 77
     6
 78
     2
 67
     8
 79
     3
170
     0
171
     0
290
     0
174
     0
 93
        5
 44
0.0
173
     0
291
     0
 45
0.0
1001
ACAD
1000
AcDbSavedByObjectVersion
1070
     0
  0
VISUALSTYLE
  5
1A0AF
102
{ACAD_XDICTIONARY
360
30C1F
102
}
102
{ACAD_REACTORS
330
1A09B
102
}
330
1A09B
100
AcDbVisualStyle
  2
Shaded with edges
 70
    26
 71
     2
 72
     2
 73
     1
 90
        2
 40
-0.6
 41
30.0
 62
     5
 63
     7
 74
     1
 91
       10
 64
     7
 65
   257
 75
     2
175
     1
 42
1.0
 92
        8
 66
   257
 43
1.0
 76
     1
 77
     6
 78
     2
 67
     7
 79
     3
170
     0
171
     0
290
     0
174
     0
 93
        5
 44
0.0
173
     0
291
     0
 45
0.0
1001
ACAD
1000
AcDbSavedByObjectVersion
1070
     0
  0
VISUALSTYLE
  5
1A0AC
102
{ACAD_XDICTIONARY
360
30C19
102
}
102
{ACAD_REACTORS
330
1A09B
102
}
330
1A09B
100
AcDbVisualStyle
  2
Shades of Gray
 70
    23
 71
     2
 72
     2
 73
     3
 90
        0
 40
-0.6
 41
-30.0
 62
     5
 63
     7
 74
     2
 91
        2
 64
     7
 65
     7
 75
     1
175
     1
 42
40.0
 92
        8
 66
     7
 43
1.0
 76
     1
 77
     6
 78
     2
 67
     7
 79
     3
170
     0
171
     0
290
     0
174
     0
 93
        1
 44
0.0
173
     0
291
     0
 45
0.0
1001
ACAD
1000
AcDbSavedByObjectVersion
1070
     0
  0
VISUALSTYLE
  5
1A0AD
102
{ACAD_XDICTIONARY
360
30C1B
102
}
102
{ACAD_REACTORS
330
1A09B
102
}
330
1A09B
100
AcDbVisualStyle
  2
Sketchy
 70
    24
 71
     1
 72
     2
 73
     2
 90
        0
 40
-0.6
 41
-30.0
 62
     5
 63
     7
 74
     2
 91
        2
 64
     7
 65
     7
 75
     1
175
     1
 42
40.0
 92
       11
 66
     7
 43
1.0
 76
     1
 77
     6
 78
     2
 67
     7
 79
     6
170
     0
171
     0
290
     0
174
     0
 93
        1
 44
0.0
173
     0
291
     0
 45
0.0
1001
ACAD
1000
AcDbSavedByObjectVersion
1070
     0
  0
VISUALSTYLE
  5
1A0A8
102
{ACAD_XDICTIONARY
360
30C11
102
}
102
{ACAD_REACTORS
330
1A09B
102
}
330
1A09B
100
AcDbVisualStyle
  2
Thicken
 70
    13
 71
     2
 72
     2
 73
     0
 90
        0
 40
-0.6
 41
-30.0
 62
     5
 63
     7
 74
     1
 91
        4
 64
     7
 65
   257
 75
     1
175
     1
 42
1.0
 92
       12
 66
     7
 43
1.0
 76
     1
 77
     6
 78
     2
 67
     7
 79
     5
170
     0
171
     0
290
     0
174
     0
 93
        1
 44
0.0
173
     0
291
     1
 45
0.0
1001
ACAD
1000
AcDbSavedByObjectVersion
1070
     0
  0
VISUALSTYLE
  5
1A0A2
102
{ACAD_XDICTIONARY
360
30C05
102
}
102
{ACAD_REACTORS
330
1A09B
102
}
330
1A09B
100
AcDbVisualStyle
  2
Wireframe
 70
     5
 71
     0
 72
     2
 73
     0
 90
        0
 40
-0.6
 41
-30.0
 62
     5
 63
     7
 74
     1
 91
        4
 64
     7
 65
   257
 75
     1
175
     1
 42
1.0
 92
        0
 66
   257
 43
1.0
 76
     1
 77
     6
 78
     2
 67
     7
 79
     3
170
     0
171
     0
290
     0
174
     0
 93
        1
 44
0.0
173
     0
291
     0
 45
0.0
1001
ACAD
1000
AcDbSavedByObjectVersion
1070
     0
  0
VISUALSTYLE
  5
1A0AE
102
{ACAD_XDICTIONARY
360
30C1D
102
}
102
{ACAD_REACTORS
330
1A09B
102
}
330
1A09B
100
AcDbVisualStyle
  2
X-Ray
 70
    25
 71
     2
 72
     2
 73
     1
 90
        1
 40
0.5
 41
-30.0
 62
     5
 63
     7
 74
     1
 91
        0
 64
     7
 65
   257
 75
     1
175
     1
 42
1.0
 92
        8
 66
     7
 43
1.0
 76
     1
 77
     6
 78
     2
 67
     7
 79
     3
170
     0
171
     0
290
     0
174
     0
 93
       13
 44
0.0
173
     0
291
     0
 45
0.0
1001
ACAD
1000
AcDbSavedByObjectVersion
1070
     0
  0
DICTIONARYVAR
  5
1C766
102
{ACAD_REACTORS
330
5E
102
}
330
5E
100
DictionaryVariables
280
     0
  1
1:1
  0
DICTIONARYVAR
  5
1C762
102
{ACAD_REACTORS
330
5E
102
}
330
5E
100
DictionaryVariables
280
     0
  1
STANDARD
  0
DICTIONARYVAR
  5
84
102
{ACAD_REACTORS
330
5E
102
}
330
5E
100
DictionaryVariables
280
     0
  1
STANDARD
  0
DICTIONARYVAR
  5
1C763
102
{ACAD_REACTORS
330
5E
102
}
330
5E
100
DictionaryVariables
280
     0
  1
Metric50
  0
DICTIONARYVAR
  5
1C764
102
{ACAD_REACTORS
330
5E
102
}
330
5E
100
DictionaryVariables
280
     0
  1
Metric50
  0
DICTIONARYVAR
  5
5F
102
{ACAD_REACTORS
330
5E
102
}
330
5E
100
DictionaryVariables
280
     0
  1
2
  0
DICTIONARYVAR
  5
63
102
{ACAD_REACTORS
330
5E
102
}
330
5E
100
DictionaryVariables
280
     0
  1
1
  0
DICTIONARYVAR
  5
30BE1
102
{ACAD_REACTORS
330
5E
102
}
330
5E
100
DictionaryVariables
280
     0
  1
0
  0
DICTIONARYVAR
  5
1C768
102
{ACAD_REACTORS
330
5E
102
}
330
5E
100
DictionaryVariables
280
     0
  1
1
  0
DICTIONARYVAR
  5
1C769
102
{ACAD_REACTORS
330
5E
102
}
330
5E
100
DictionaryVariables
280
     0
  1
15
  0
DICTIONARYVAR
  5
1C767
102
{ACAD_REACTORS
330
5E
102
}
330
5E
100
DictionaryVariables
280
     0
  1
0
  0
DICTIONARYVAR
  5
1C765
102
{ACAD_REACTORS
330
5E
102
}
330
5E
100
DictionaryVariables
280
     0
  1
0
  0
DICTIONARYVAR
  5
66AB
102
{ACAD_REACTORS
330
5E
102
}
330
5E
100
DictionaryVariables
280
     0
  1

  0
DICTIONARYVAR
  5
30BE0
102
{ACAD_REACTORS
330
5E
102
}
330
5E
100
DictionaryVariables
280
     0
  1
127
  0
DICTIONARYVAR
  5
30BE2
102
{ACAD_REACTORS
330
5E
102
}
330
5E
100
DictionaryVariables
280
     0
  1
2
  0
DICTIONARY
  5
30BEE
102
{ACAD_REACTORS
330
30BEC
102
}
330
30BEC
100
AcDbDictionary
281
     1
  0
DICTIONARY
  5
30BED
102
{ACAD_REACTORS
330
30BEC
102
}
330
30BEC
100
AcDbDictionary
281
     1
  3
8796065493872
350
30BE7
  3
8796065493888
350
30BE8
  3
8796065493904
350
30BE9
  3
8796065493920
350
30BEA
  3
8796065493936
350
30BEB
  0
DICTIONARY
  5
1C75F
330
1C19A
100
AcDbDictionary
280
     1
281
     1
  3
ACAD_XREC_ROUNDTRIP
360
30C2F
  0
DICTIONARY
  5
1C75B
330
1A0CB
100
AcDbDictionary
280
     1
281
     1
  3
ACAD_XREC_ROUNDTRIP
360
30C2D
  0
DICTIONARY
  5
30BEF
330
22
100
AcDbDictionary
280
     1
281
     1
  3
ACAD_XREC_ROUNDTRIP
360
30BF0
  0
DICTIONARY
  5
30BF2
330
D3
100
AcDbDictionary
280
     1
281
     1
  3
ACAD_XREC_ROUNDTRIP
360
30BF3
  0
DICTIONARY
  5
30BF4
330
D7
100
AcDbDictionary
280
     1
281
     1
  3
ACAD_XREC_ROUNDTRIP
360
30BF5
  0
DICTIONARY
  5
1A08C
330
1A08B
100
AcDbDictionary
280
     1
281
     1
  3
ACAD_XREC_ROUNDTRIP
360
30BF7
  3
BUMPTILE
360
1A08E
  3
DIFFUSETILE
360
1A08D
  3
OPACITYTILE
360
1A091
  3
REFLECTIONTILE
360
1A090
  3
REFRACTIONTILE
360
1A092
  3
SPECULARTILE
360
1A08F
  0
DICTIONARY
  5
1A084
330
1A083
100
AcDbDictionary
280
     1
281
     1
  3
ACAD_XREC_ROUNDTRIP
360
30BF6
  3
BUMPTILE
360
1A086
  3
DIFFUSETILE
360
1A085
  3
OPACITYTILE
360
1A089
  3
REFLECTIONTILE
360
1A088
  3
REFRACTIONTILE
360
1A08A
  3
SPECULARTILE
360
1A087
  0
DICTIONARY
  5
1A094
330
1A093
100
AcDbDictionary
280
     1
281
     1
  3
ACAD_XREC_ROUNDTRIP
360
30BF8
  3
BUMPTILE
360
1A096
  3
DIFFUSETILE
360
1A095
  3
OPACITYTILE
360
1A099
  3
REFLECTIONTILE
360
1A098
  3
REFRACTIONTILE
360
1A09A
  3
SPECULARTILE
360
1A097
  0
DICTIONARY
  5
30C2A
330
1A0C7
100
AcDbDictionary
280
     1
281
     1
  3
ACAD_XREC_ROUNDTRIP
360
30C2B
  0
DICTIONARY
  5
1C75D
330
1C199
100
AcDbDictionary
280
     1
281
     1
  3
ACAD_XREC_ROUNDTRIP
360
30C2E
  0
DICTIONARY
  5
1C759
330
1A0C9
100
AcDbDictionary
280
     1
281
     1
  3
ACAD_XREC_ROUNDTRIP
360
30C2C
  0
DICTIONARY
  5
30BE3
330
7F
100
AcDbDictionary
280
     1
281
     1
  3
ACAD_ROUNDTRIP_2008_TABLESTYLE_CELLSTYLEMAP
360
30BE4
  3
ACAD_XREC_ROUNDTRIP
360
30BF1
  0
DICTIONARY
  5
30C03
330
1A0A1
100
AcDbDictionary
280
     1
281
     1
  3
ACAD_XREC_ROUNDTRIP
360
30C04
  0
DICTIONARY
  5
30C01
330
1A0A0
100
AcDbDictionary
280
     1
281
     1
  3
ACAD_XREC_ROUNDTRIP
360
30C02
  0
DICTIONARY
  5
30C0F
330
1A0A7
100
AcDbDictionary
280
     1
281
     1
  3
ACAD_XREC_ROUNDTRIP
360
30C10
  0
DICTIONARY
  5
30C17
330
1A0AB
100
AcDbDictionary
280
     1
281
     1
  3
ACAD_XREC_ROUNDTRIP
360
30C18
  0
DICTIONARY
  5
30C09
330
1A0A4
100
AcDbDictionary
280
     1
281
     1
  3
ACAD_XREC_ROUNDTRIP
360
30C0A
  0
DICTIONARY
  5
30C0D
330
1A0A6
100
AcDbDictionary
280
     1
281
     1
  3
ACAD_XREC_ROUNDTRIP
360
30C0E
  0
DICTIONARY
  5
30C27
330
1A0B3
100
AcDbDictionary
280
     1
281
     1
  3
ACAD_XREC_ROUNDTRIP
360
30C28
  0
DICTIONARY
  5
30C15
330
1A0AA
100
AcDbDictionary
280
     1
281
     1
  3
ACAD_XREC_ROUNDTRIP
360
30C16
  0
DICTIONARY
  5
30BF9
330
1A09C
100
AcDbDictionary
280
     1
281
     1
  3
ACAD_XREC_ROUNDTRIP
360
30BFA
  0
DICTIONARY
  5
30BFB
330
1A09D
100
AcDbDictionary
280
     1
281
     1
  3
ACAD_XREC_ROUNDTRIP
360
30BFC
  0
DICTIONARY
  5
30BFD
330
1A09E
100
AcDbDictionary
280
     1
281
     1
  3
ACAD_XREC_ROUNDTRIP
360
30BFE
  0
DICTIONARY
  5
30BFF
330
1A09F
100
AcDbDictionary
280
     1
281
     1
  3
ACAD_XREC_ROUNDTRIP
360
30C00
  0
DICTIONARY
  5
30C07
330
1A0A3
100
AcDbDictionary
280
     1
281
     1
  3
ACAD_XREC_ROUNDTRIP
360
30C08
  0
DICTIONARY
  5
30C23
330
1A0B1
100
AcDbDictionary
280
     1
281
     1
  3
ACAD_XREC_ROUNDTRIP
360
30C24
  0
DICTIONARY
  5
30C13
330
1A0A9
100
AcDbDictionary
280
     1
281
     1
  3
ACAD_XREC_ROUNDTRIP
360
30C14
  0
DICTIONARY
  5
30C25
330
1A0B2
100
AcDbDictionary
280
     1
281
     1
  3
ACAD_XREC_ROUNDTRIP
360
30C26
  0
DICTIONARY
  5
30C0B
330
1A0A5
100
AcDbDictionary
280
     1
281
     1
  3
ACAD_XREC_ROUNDTRIP
360
30C0C
  0
DICTIONARY
  5
30C21
330
1A0B0
100
AcDbDictionary
280
     1
281
     1
  3
ACAD_XREC_ROUNDTRIP
360
30C22
  0
DICTIONARY
  5
30C1F
330
1A0AF
100
AcDbDictionary
280
     1
281
     1
  3
ACAD_XREC_ROUNDTRIP
360
30C20
  0
DICTIONARY
  5
30C19
330
1A0AC
100
AcDbDictionary
280
     1
281
     1
  3
ACAD_XREC_ROUNDTRIP
360
30C1A
  0
DICTIONARY
  5
30C1B
330
1A0AD
100
AcDbDictionary
280
     1
281
     1
  3
ACAD_XREC_ROUNDTRIP
360
30C1C
  0
DICTIONARY
  5
30C11
330
1A0A8
100
AcDbDictionary
280
     1
281
     1
  3
ACAD_XREC_ROUNDTRIP
360
30C12
  0
DICTIONARY
  5
30C05
330
1A0A2
100
AcDbDictionary
280
     1
281
     1
  3
ACAD_XREC_ROUNDTRIP
360
30C06
  0
DICTIONARY
  5
30C1D
330
1A0AE
100
AcDbDictionary
280
     1
281
     1
  3
ACAD_XREC_ROUNDTRIP
360
30C1E
  0
XRECORD
  5
30BE7
102
{ACAD_REACTORS
330
30BED
102
}
330
30BED
100
AcDbXrecord
280
     1
  1
AcDb_Thumbnail_Schema
102
{ATTRRECORD
341
30BE8
  2
AcDbDs::TreatedAsObjectData
280
     1
291
     1
102
ATTRRECORD}
102
{ATTRRECORD
341
30BE9
  2
AcDbDs::Legacy
280
     1
291
     1
102
ATTRRECORD}
  2
AcDbDs::ID
280
    10
 91
        8
102
{ATTRRECORD
341
30BEA
  2
AcDs:Indexable
280
     1
291
     1
102
ATTRRECORD}
102
{ATTRRECORD
341
30BEB
  2
AcDbDs::HandleAttribute
280
     7
282
     1
102
ATTRRECORD}
  2
Thumbnail_Data
280
    15
 91
        0
  0
XRECORD
  5
30BE8
102
{ACAD_REACTORS
330
30BED
102
}
330
30BED
100
AcDbXrecord
280
     1
  1
AcDbDs::TreatedAsObjectDataSchema
  2
AcDbDs::TreatedAsObjectData
280
     1
 91
        0
  0
XRECORD
  5
30BE9
102
{ACAD_REACTORS
330
30BED
102
}
330
30BED
100
AcDbXrecord
280
     1
  1
AcDbDs::LegacySchema
  2
AcDbDs::Legacy
280
     1
 91
        0
  0
XRECORD
  5
30BEA
102
{ACAD_REACTORS
330
30BED
102
}
330
30BED
100
AcDbXrecord
280
     1
  1
AcDbDs::IndexedPropertySchema
  2
AcDs:Indexable
280
     1
 91
        0
  0
XRECORD
  5
30BEB
102
{ACAD_REACTORS
330
30BED
102
}
330
30BED
100
AcDbXrecord
280
     1
  1
AcDbDs::HandleAttributeSchema
  2
AcDbDs::HandleAttribute
280
     7
 91
        1
284
     1
  0
XRECORD
  5
30C2F
102
{ACAD_REACTORS
330
1C75F
102
}
330
1C75F
100
AcDbXrecord
280
     1
102
DISPLAYNAME
  1
Imperial24
102
FLAGS
 90
        0
  0
XRECORD
  5
30C2D
102
{ACAD_REACTORS
330
1C75B
102
}
330
1C75B
100
AcDbXrecord
280
     1
102
DISPLAYNAME
  1
Metric50
102
FLAGS
 90
        0
  0
XRECORD
  5
30BF0
102
{ACAD_REACTORS
330
30BEF
102
}
330
30BEF
100
AcDbXrecord
280
     1
102
SHADEPLOT
 70
     0
102
SHADEPLOTRESLEVEL
 70
     2
102
SHADEPLOTCUSTOMDPI
 70
   300
  0
XRECORD
  5
30BF3
102
{ACAD_REACTORS
330
30BF2
102
}
330
30BF2
100
AcDbXrecord
280
     1
102
SHADEPLOT
 70
     0
102
SHADEPLOTRESLEVEL
 70
     2
102
SHADEPLOTCUSTOMDPI
 70
   300
  0
XRECORD
  5
30BF5
102
{ACAD_REACTORS
330
30BF4
102
}
330
30BF4
100
AcDbXrecord
280
     1
102
SHADEPLOT
 70
     0
102
SHADEPLOTRESLEVEL
 70
     2
102
SHADEPLOTCUSTOMDPI
 70
   300
  0
XRECORD
  5
30BF7
102
{ACAD_REACTORS
330
1A08C
102
}
330
1A08C
100
AcDbXrecord
280
     1
102
MATERIAL
148
0.0
149
0.0
149
0.0
 93
        0
 94
      127
282
     0
 72
     0
 77
     0
171
     0
175
     0
179
     0
273
     0
  0
XRECORD
  5
1A08E
102
{ACAD_REACTORS
330
1A08C
102
}
330
1A08C
100
AcDbXrecord
280
     1
270
     1
271
     1
  0
XRECORD
  5
1A08D
102
{ACAD_REACTORS
330
1A08C
102
}
330
1A08C
100
AcDbXrecord
280
     1
270
     1
271
     1
  0
XRECORD
  5
1A091
102
{ACAD_REACTORS
330
1A08C
102
}
330
1A08C
100
AcDbXrecord
280
     1
270
     1
271
     1
  0
XRECORD
  5
1A090
102
{ACAD_REACTORS
330
1A08C
102
}
330
1A08C
100
AcDbXrecord
280
     1
270
     1
271
     1
  0
XRECORD
  5
1A092
102
{ACAD_REACTORS
330
1A08C
102
}
330
1A08C
100
AcDbXrecord
280
     1
270
     1
271
     1
  0
XRECORD
  5
1A08F
102
{ACAD_REACTORS
330
1A08C
102
}
330
1A08C
100
AcDbXrecord
280
     1
270
     1
271
     1
  0
XRECORD
  5
30BF6
102
{ACAD_REACTORS
330
1A084
102
}
330
1A084
100
AcDbXrecord
280
     1
102
MATERIAL
148
0.0
149
0.0
149
0.0
 93
        0
 94
      127
282
     0
 72
     0
 77
     0
171
     0
175
     0
179
     0
273
     0
  0
XRECORD
  5
1A086
102
{ACAD_REACTORS
330
1A084
102
}
330
1A084
100
AcDbXrecord
280
     1
270
     1
271
     1
  0
XRECORD
  5
1A085
102
{ACAD_REACTORS
330
1A084
102
}
330
1A084
100
AcDbXrecord
280
     1
270
     1
271
     1
  0
XRECORD
  5
1A089
102
{ACAD_REACTORS
330
1A084
102
}
330
1A084
100
AcDbXrecord
280
     1
270
     1
271
     1
  0
XRECORD
  5
1A088
102
{ACAD_REACTORS
330
1A084
102
}
330
1A084
100
AcDbXrecord
280
     1
270
     1
271
     1
  0
XRECORD
  5
1A08A
102
{ACAD_REACTORS
330
1A084
102
}
330
1A084
100
AcDbXrecord
280
     1
270
     1
271
     1
  0
XRECORD
  5
1A087
102
{ACAD_REACTORS
330
1A084
102
}
330
1A084
100
AcDbXrecord
280
     1
270
     1
271
     1
  0
XRECORD
  5
30BF8
102
{ACAD_REACTORS
330
1A094
102
}
330
1A094
100
AcDbXrecord
280
     1
102
MATERIAL
148
0.0
149
0.0
149
0.0
 93
        0
 94
      127
282
     0
 72
     0
 77
     0
171
     0
175
     0
179
     0
273
     0
  0
XRECORD
  5
1A096
102
{ACAD_REACTORS
330
1A094
102
}
330
1A094
100
AcDbXrecord
280
     1
270
     1
271
     1
  0
XRECORD
  5
1A095
102
{ACAD_REACTORS
330
1A094
102
}
330
1A094
100
AcDbXrecord
280
     1
270
     1
271
     1
  0
XRECORD
  5
1A099
102
{ACAD_REACTORS
330
1A094
102
}
330
1A094
100
AcDbXrecord
280
     1
270
     1
271
     1
  0
XRECORD
  5
1A098
102
{ACAD_REACTORS
330
1A094
102
}
330
1A094
100
AcDbXrecord
280
     1
270
     1
271
     1
  0
XRECORD
  5
1A09A
102
{ACAD_REACTORS
330
1A094
102
}
330
1A094
100
AcDbXrecord
280
     1
270
     1
271
     1
  0
XRECORD
  5
1A097
102
{ACAD_REACTORS
330
1A094
102
}
330
1A094
100
AcDbXrecord
280
     1
270
     1
271
     1
  0
XRECORD
  5
30C2B
102
{ACAD_REACTORS
330
30C2A
102
}
330
30C2A
100
AcDbXrecord
280
     1
102
ACAD_ROUNDTRIP_2012_MLEADER_STYLE
298
     1
  0
XRECORD
  5
30C2E
102
{ACAD_REACTORS
330
1C75D
102
}
330
1C75D
100
AcDbXrecord
280
     1
102
DISPLAYNAME
  1
Imperial24
102
FLAGS
 90
        0
  0
XRECORD
  5
30C2C
102
{ACAD_REACTORS
330
1C759
102
}
330
1C759
100
AcDbXrecord
280
     1
102
DISPLAYNAME
  1
Metric50
102
FLAGS
 90
        0
  0
CELLSTYLEMAP
  5
30BE4
102
{ACAD_REACTORS
330
30BE3
102
}
330
30BE3
100
AcDbCellStyleMap
 90
        3
300
CELLSTYLE
  1
TABLEFORMAT_BEGIN
 90
        5
170
     1
 91
        0
 92
    32768
 62
   257
 93
        1
300
CONTENTFORMAT
  1
CONTENTFORMAT_BEGIN
 90
        0
 91
        0
 92
        4
 93
        0
300

 40
0.0
140
1.0
 94
        5
 62
     0
340
11
144
6.0
309
CONTENTFORMAT_END
171
     1
301
MARGIN
  1
CELLMARGIN_BEGIN
 40
1.5
 40
1.5
 40
1.5
 40
1.5
 40
0.18
 40
0.18
309
CELLMARGIN_END
 94
        6
 95
        1
302
GRIDFORMAT
  1
GRIDFORMAT_BEGIN
 90
        0
 91
        1
 62
     0
 92
       -2
340
0
 93
        0
 40
0.045
309
GRIDFORMAT_END
 95
        2
302
GRIDFORMAT
  1
GRIDFORMAT_BEGIN
 90
        0
 91
        1
 62
     0
 92
       -2
340
0
 93
        0
 40
0.045
309
GRIDFORMAT_END
 95
        4
302
GRIDFORMAT
  1
GRIDFORMAT_BEGIN
 90
        0
 91
        1
 62
     0
 92
       -2
340
0
 93
        0
 40
0.045
309
GRIDFORMAT_END
 95
        8
302
GRIDFORMAT
  1
GRIDFORMAT_BEGIN
 90
        0
 91
        1
 62
     0
 92
       -2
340
0
 93
        0
 40
0.045
309
GRIDFORMAT_END
 95
       16
302
GRIDFORMAT
  1
GRIDFORMAT_BEGIN
 90
        0
 91
        1
 62
     0
 92
       -2
340
0
 93
        0
 40
0.045
309
GRIDFORMAT_END
 95
       32
302
GRIDFORMAT
  1
GRIDFORMAT_BEGIN
 90
        0
 91
        1
 62
     0
 92
       -2
340
0
 93
        0
 40
0.045
309
GRIDFORMAT_END
309
TABLEFORMAT_END
  1
CELLSTYLE_BEGIN
 90
        1
 91
        1
300
_TITLE
309
CELLSTYLE_END
300
CELLSTYLE
  1
TABLEFORMAT_BEGIN
 90
        5
170
     1
 91
        0
 92
        0
 62
   257
 93
        1
300
CONTENTFORMAT
  1
CONTENTFORMAT_BEGIN
 90
        0
 91
        0
 92
        4
 93
        0
300

 40
0.0
140
1.0
 94
        5
 62
     0
340
11
144
4.5
309
CONTENTFORMAT_END
171
     1
301
MARGIN
  1
CELLMARGIN_BEGIN
 40
1.5
 40
1.5
 40
1.5
 40
1.5
 40
0.18
 40
0.18
309
CELLMARGIN_END
 94
        6
 95
        1
302
GRIDFORMAT
  1
GRIDFORMAT_BEGIN
 90
        0
 91
        1
 62
     0
 92
       -2
340
0
 93
        0
 40
0.045
309
GRIDFORMAT_END
 95
        2
302
GRIDFORMAT
  1
GRIDFORMAT_BEGIN
 90
        0
 91
        1
 62
     0
 92
       -2
340
0
 93
        0
 40
0.045
309
GRIDFORMAT_END
 95
        4
302
GRIDFORMAT
  1
GRIDFORMAT_BEGIN
 90
        0
 91
        1
 62
     0
 92
       -2
340
0
 93
        0
 40
0.045
309
GRIDFORMAT_END
 95
        8
302
GRIDFORMAT
  1
GRIDFORMAT_BEGIN
 90
        0
 91
        1
 62
     0
 92
       -2
340
0
 93
        0
 40
0.045
309
GRIDFORMAT_END
 95
       16
302
GRIDFORMAT
  1
GRIDFORMAT_BEGIN
 90
        0
 91
        1
 62
     0
 92
       -2
340
0
 93
        0
 40
0.045
309
GRIDFORMAT_END
 95
       32
302
GRIDFORMAT
  1
GRIDFORMAT_BEGIN
 90
        0
 91
        1
 62
     0
 92
       -2
340
0
 93
        0
 40
0.045
309
GRIDFORMAT_END
309
TABLEFORMAT_END
  1
CELLSTYLE_BEGIN
 90
        2
 91
        1
300
_HEADER
309
CELLSTYLE_END
300
CELLSTYLE
  1
TABLEFORMAT_BEGIN
 90
        5
170
     1
 91
        0
 92
        0
 62
   257
 93
        1
300
CONTENTFORMAT
  1
CONTENTFORMAT_BEGIN
 90
        0
 91
        0
 92
        4
 93
        0
300

 40
0.0
140
1.0
 94
        2
 62
     0
340
11
144
4.5
309
CONTENTFORMAT_END
171
     1
301
MARGIN
  1
CELLMARGIN_BEGIN
 40
1.5
 40
1.5
 40
1.5
 40
1.5
 40
0.18
 40
0.18
309
CELLMARGIN_END
 94
        6
 95
        1
302
GRIDFORMAT
  1
GRIDFORMAT_BEGIN
 90
        0
 91
        1
 62
     0
 92
       -2
340
0
 93
        0
 40
0.045
309
GRIDFORMAT_END
 95
        2
302
GRIDFORMAT
  1
GRIDFORMAT_BEGIN
 90
        0
 91
        1
 62
     0
 92
       -2
340
0
 93
        0
 40
0.045
309
GRIDFORMAT_END
 95
        4
302
GRIDFORMAT
  1
GRIDFORMAT_BEGIN
 90
        0
 91
        1
 62
     0
 92
       -2
340
0
 93
        0
 40
0.045
309
GRIDFORMAT_END
 95
        8
302
GRIDFORMAT
  1
GRIDFORMAT_BEGIN
 90
        0
 91
        1
 62
     0
 92
       -2
340
0
 93
        0
 40
0.045
309
GRIDFORMAT_END
 95
       16
302
GRIDFORMAT
  1
GRIDFORMAT_BEGIN
 90
        0
 91
        1
 62
     0
 92
       -2
340
0
 93
        0
 40
0.045
309
GRIDFORMAT_END
 95
       32
302
GRIDFORMAT
  1
GRIDFORMAT_BEGIN
 90
        0
 91
        1
 62
     0
 92
       -2
340
0
 93
        0
 40
0.045
309
GRIDFORMAT_END
309
TABLEFORMAT_END
  1
CELLSTYLE_BEGIN
 90
        3
 91
        2
300
_DATA
309
CELLSTYLE_END
  0
XRECORD
  5
30BF1
102
{ACAD_REACTORS
330
30BE3
102
}
330
30BE3
100
AcDbXrecord
280
     1
102
ACAD_ROUNDTRIP_PRE2007_TABLESTYLE
 90
        4
 91
        0
  1

 92
        4
 93
        0
  2

 94
        4
 95
        0
  3

  0
XRECORD
  5
30C04
102
{ACAD_REACTORS
330
30C03
102
}
330
30C03
100
AcDbXrecord
280
     1
102
RTVSPost2010Prop28
280
     1
102
RTVSPost2010PropOp28
 70
     1
102
RTVSPost2010Prop29
280
     1
102
RTVSPost2010PropOp29
 70
     1
102
RTVSPost2010Prop30
280
     0
102
RTVSPost2010PropOp30
 70
     1
102
RTVSPost2010Prop31
280
     0
102
RTVSPost2010PropOp31
 70
     1
102
RTVSPost2010Prop32
280
     0
102
RTVSPost2010PropOp32
 70
     1
102
RTVSPost2010Prop33
280
     0
102
RTVSPost2010PropOp33
 70
     1
102
RTVSPost2010Prop34
280
     0
102
RTVSPost2010PropOp34
 70
     1
102
RTVSPost2010Prop35
280
     0
102
RTVSPost2010PropOp35
 70
     1
102
RTVSPost2010Prop36
280
     0
102
RTVSPost2010PropOp36
 70
     1
102
RTVSPost2010Prop37
 90
       50
102
RTVSPost2010PropOp37
 70
     1
102
RTVSPost2010Prop38
140
0.0
102
RTVSPost2010PropOp38
 70
     1
102
RTVSPost2010Prop39
140
1.0
102
RTVSPost2010PropOp39
 70
     1
102
RTVSPost2010Prop40
 90
        0
102
RTVSPost2010PropOp40
 70
     1
102
RTVSPost2010Prop41ColorIndex
 90
       18
102
RTVSPost2010Prop41ColorRGB
 90
        0
102
RTVSPost2010PropOp41
 70
     1
102
RTVSPost2010Prop42
 90
       50
102
RTVSPost2010PropOp42
 70
     1
102
RTVSPost2010Prop43
 90
        3
102
RTVSPost2010PropOp43
 70
     1
102
RTVSPost2010Prop44ColorIndex
 90
        5
102
RTVSPost2010Prop44ColorRGB
 90
      255
102
RTVSPost2010PropOp44
 70
     1
102
RTVSPost2010Prop45
280
     0
102
RTVSPost2010PropOp45
 70
     1
102
RTVSPost2010Prop46
 90
       50
102
RTVSPost2010PropOp46
 70
     1
102
RTVSPost2010Prop47
 90
       50
102
RTVSPost2010PropOp47
 70
     1
102
RTVSPost2010Prop48
 90
       50
102
RTVSPost2010PropOp48
 70
     1
102
RTVSPost2010Prop49
280
     0
102
RTVSPost2010PropOp49
 70
     1
102
RTVSPost2010Prop50
 90
       50
102
RTVSPost2010PropOp50
 70
     1
102
RTVSPost2010Prop51ColorIndex
 90
      256
102
RTVSPost2010Prop51ColorRGB
 90
-16777216
102
RTVSPost2010PropOp51
 70
     0
102
RTVSPost2010Prop52
140
1.0
102
RTVSPost2010PropOp52
 70
     0
102
RTVSPost2010Prop53
 90
        2
102
RTVSPost2010PropOp53
 70
     1
102
RTVSPost2010Prop54
  1
strokes_ogs.tif
102
RTVSPost2010PropOp54
 70
     1
102
RTVSPost2010Prop55
280
     0
102
RTVSPost2010PropOp55
 70
     1
102
RTVSPost2010Prop56
140
1.0
102
RTVSPost2010PropOp56
 70
     1
102
RTVSPost2010Prop57
140
1.0
102
RTVSPost2010PropOp57
 70
     1
102
RTVSPropertyOp0
 70
     1
102
RTVSPropertyOp1
 70
     1
102
RTVSPropertyOp2
 70
     1
102
RTVSPropertyOp3
 70
     1
102
RTVSPropertyOp4
 70
     1
102
RTVSPropertyOp5
 70
     1
102
RTVSPropertyOp6
 70
     1
102
RTVSPropertyOp7
 70
     1
102
RTVSPropertyOp8
 70
     1
102
RTVSPropertyOp9
 70
     1
102
RTVSPropertyOp10
 70
     1
102
RTVSPropertyOp11
 70
     1
102
RTVSPropertyOp12
 70
     1
102
RTVSPropertyOp13
 70
     1
102
RTVSPropertyOp14
 70
     1
102
RTVSPropertyOp15
 70
     1
102
RTVSPropertyOp16
 70
     1
102
RTVSPropertyOp17
 70
     1
102
RTVSPropertyOp18
 70
     1
102
RTVSPropertyOp19
 70
     1
102
RTVSPropertyOp20
 70
     1
102
RTVSPropertyOp21
 70
     1
102
RTVSPropertyOp22
 70
     1
102
RTVSPropertyOp23
 70
     1
102
RTVSPropertyOp24
 70
     1
102
RTVSPropertyOp25
 70
     1
102
RTVSPropertyOp26
 70
     1
102
RTVSPropertyOp27
 70
     1
102
RTVSPropertyOp28
 70
     1
102
RTVSPropertyOp29
 70
     1
102
RTVSPropertyOp30
 70
     1
102
RTVSPropertyOp31
 70
     1
102
RTVSPropertyOp32
 70
     1
102
RTVSPropertyOp33
 70
     1
102
RTVSPropertyOp34
 70
     1
102
RTVSPropertyOp35
 70
     1
102
RTVSPropertyOp36
 70
     1
102
RTVSPropertyOp37
 70
     1
102
RTVSPropertyOp38
 70
     1
102
RTVSPropertyOp39
 70
     1
102
RTVSPropertyOp40
 70
     1
102
RTVSPropertyOp41
 70
     1
102
RTVSPropertyOp42
 70
     1
102
RTVSPropertyOp43
 70
     1
102
RTVSPropertyOp44
 70
     1
102
RTVSPropertyOp45
 70
     1
102
RTVSPropertyOp46
 70
     1
102
RTVSPropertyOp47
 70
     1
102
RTVSPropertyOp48
 70
     1
102
RTVSPropertyOp49
 70
     1
102
RTVSPropertyOp50
 70
     1
102
RTVSPropertyOp51
 70
     0
102
RTVSPropertyOp52
 70
     0
102
RTVSPropertyOp53
 70
     1
102
RTVSPropertyOp54
 70
     1
102
RTVSPropertyOp55
 70
     1
102
RTVSPropertyOp56
 70
     1
102
RTVSPropertyOp57
 70
     1
102
RTVSPropertyOp58
 70
     1
102
RTVSPropertyOp59
 70
     1
102
RTVSPropertyOp60
 70
     1
102
RTVSPropertyOp61
 70
     1
102
RTVSPropertyOp62
 70
     1
  0
XRECORD
  5
30C02
102
{ACAD_REACTORS
330
30C01
102
}
330
30C01
100
AcDbXrecord
280
     1
102
RTVSPost2010Prop28
280
     0
102
RTVSPost2010PropOp28
 70
     1
102
RTVSPost2010Prop29
280
     1
102
RTVSPost2010PropOp29
 70
     1
102
RTVSPost2010Prop30
280
     1
102
RTVSPost2010PropOp30
 70
     1
102
RTVSPost2010Prop31
280
     0
102
RTVSPost2010PropOp31
 70
     1
102
RTVSPost2010Prop32
280
     0
102
RTVSPost2010PropOp32
 70
     1
102
RTVSPost2010Prop33
280
     0
102
RTVSPost2010PropOp33
 70
     1
102
RTVSPost2010Prop34
280
     0
102
RTVSPost2010PropOp34
 70
     1
102
RTVSPost2010Prop35
280
     0
102
RTVSPost2010PropOp35
 70
     1
102
RTVSPost2010Prop36
280
     0
102
RTVSPost2010PropOp36
 70
     1
102
RTVSPost2010Prop37
 90
       50
102
RTVSPost2010PropOp37
 70
     1
102
RTVSPost2010Prop38
140
0.0
102
RTVSPost2010PropOp38
 70
     1
102
RTVSPost2010Prop39
140
1.0
102
RTVSPost2010PropOp39
 70
     1
102
RTVSPost2010Prop40
 90
        0
102
RTVSPost2010PropOp40
 70
     1
102
RTVSPost2010Prop41ColorIndex
 90
       18
102
RTVSPost2010Prop41ColorRGB
 90
        0
102
RTVSPost2010PropOp41
 70
     1
102
RTVSPost2010Prop42
 90
       50
102
RTVSPost2010PropOp42
 70
     1
102
RTVSPost2010Prop43
 90
        3
102
RTVSPost2010PropOp43
 70
     1
102
RTVSPost2010Prop44ColorIndex
 90
        5
102
RTVSPost2010Prop44ColorRGB
 90
      255
102
RTVSPost2010PropOp44
 70
     1
102
RTVSPost2010Prop45
280
     0
102
RTVSPost2010PropOp45
 70
     1
102
RTVSPost2010Prop46
 90
       50
102
RTVSPost2010PropOp46
 70
     1
102
RTVSPost2010Prop47
 90
       50
102
RTVSPost2010PropOp47
 70
     1
102
RTVSPost2010Prop48
 90
       50
102
RTVSPost2010PropOp48
 70
     1
102
RTVSPost2010Prop49
280
     0
102
RTVSPost2010PropOp49
 70
     1
102
RTVSPost2010Prop50
 90
       50
102
RTVSPost2010PropOp50
 70
     1
102
RTVSPost2010Prop51ColorIndex
 90
      256
102
RTVSPost2010Prop51ColorRGB
 90
-16777216
102
RTVSPost2010PropOp51
 70
     0
102
RTVSPost2010Prop52
140
1.0
102
RTVSPost2010PropOp52
 70
     0
102
RTVSPost2010Prop53
 90
        2
102
RTVSPost2010PropOp53
 70
     1
102
RTVSPost2010Prop54
  1
strokes_ogs.tif
102
RTVSPost2010PropOp54
 70
     1
102
RTVSPost2010Prop55
280
     0
102
RTVSPost2010PropOp55
 70
     1
102
RTVSPost2010Prop56
140
1.0
102
RTVSPost2010PropOp56
 70
     1
102
RTVSPost2010Prop57
140
1.0
102
RTVSPost2010PropOp57
 70
     1
102
RTVSPropertyOp0
 70
     1
102
RTVSPropertyOp1
 70
     1
102
RTVSPropertyOp2
 70
     1
102
RTVSPropertyOp3
 70
     1
102
RTVSPropertyOp4
 70
     1
102
RTVSPropertyOp5
 70
     1
102
RTVSPropertyOp6
 70
     1
102
RTVSPropertyOp7
 70
     1
102
RTVSPropertyOp8
 70
     1
102
RTVSPropertyOp9
 70
     1
102
RTVSPropertyOp10
 70
     1
102
RTVSPropertyOp11
 70
     1
102
RTVSPropertyOp12
 70
     1
102
RTVSPropertyOp13
 70
     1
102
RTVSPropertyOp14
 70
     1
102
RTVSPropertyOp15
 70
     1
102
RTVSPropertyOp16
 70
     1
102
RTVSPropertyOp17
 70
     1
102
RTVSPropertyOp18
 70
     1
102
RTVSPropertyOp19
 70
     1
102
RTVSPropertyOp20
 70
     1
102
RTVSPropertyOp21
 70
     1
102
RTVSPropertyOp22
 70
     1
102
RTVSPropertyOp23
 70
     1
102
RTVSPropertyOp24
 70
     1
102
RTVSPropertyOp25
 70
     1
102
RTVSPropertyOp26
 70
     1
102
RTVSPropertyOp27
 70
     1
102
RTVSPropertyOp28
 70
     1
102
RTVSPropertyOp29
 70
     1
102
RTVSPropertyOp30
 70
     1
102
RTVSPropertyOp31
 70
     1
102
RTVSPropertyOp32
 70
     1
102
RTVSPropertyOp33
 70
     1
102
RTVSPropertyOp34
 70
     1
102
RTVSPropertyOp35
 70
     1
102
RTVSPropertyOp36
 70
     1
102
RTVSPropertyOp37
 70
     1
102
RTVSPropertyOp38
 70
     1
102
RTVSPropertyOp39
 70
     1
102
RTVSPropertyOp40
 70
     1
102
RTVSPropertyOp41
 70
     1
102
RTVSPropertyOp42
 70
     1
102
RTVSPropertyOp43
 70
     1
102
RTVSPropertyOp44
 70
     1
102
RTVSPropertyOp45
 70
     1
102
RTVSPropertyOp46
 70
     1
102
RTVSPropertyOp47
 70
     1
102
RTVSPropertyOp48
 70
     1
102
RTVSPropertyOp49
 70
     1
102
RTVSPropertyOp50
 70
     1
102
RTVSPropertyOp51
 70
     0
102
RTVSPropertyOp52
 70
     0
102
RTVSPropertyOp53
 70
     1
102
RTVSPropertyOp54
 70
     1
102
RTVSPropertyOp55
 70
     1
102
RTVSPropertyOp56
 70
     1
102
RTVSPropertyOp57
 70
     1
102
RTVSPropertyOp58
 70
     1
102
RTVSPropertyOp59
 70
     1
102
RTVSPropertyOp60
 70
     1
102
RTVSPropertyOp61
 70
     1
102
RTVSPropertyOp62
 70
     1
  0
XRECORD
  5
30C10
102
{ACAD_REACTORS
330
30C0F
102
}
330
30C0F
100
AcDbXrecord
280
     1
102
RTVSPost2010Prop28
280
     0
102
RTVSPost2010PropOp28
 70
     1
102
RTVSPost2010Prop29
280
     1
102
RTVSPost2010PropOp29
 70
     1
102
RTVSPost2010Prop30
280
     1
102
RTVSPost2010PropOp30
 70
     1
102
RTVSPost2010Prop31
280
     0
102
RTVSPost2010PropOp31
 70
     1
102
RTVSPost2010Prop32
280
     0
102
RTVSPost2010PropOp32
 70
     1
102
RTVSPost2010Prop33
280
     0
102
RTVSPost2010PropOp33
 70
     1
102
RTVSPost2010Prop34
280
     0
102
RTVSPost2010PropOp34
 70
     1
102
RTVSPost2010Prop35
280
     0
102
RTVSPost2010PropOp35
 70
     1
102
RTVSPost2010Prop36
280
     0
102
RTVSPost2010PropOp36
 70
     1
102
RTVSPost2010Prop37
 90
       50
102
RTVSPost2010PropOp37
 70
     1
102
RTVSPost2010Prop38
140
0.0
102
RTVSPost2010PropOp38
 70
     1
102
RTVSPost2010Prop39
140
1.0
102
RTVSPost2010PropOp39
 70
     1
102
RTVSPost2010Prop40
 90
        0
102
RTVSPost2010PropOp40
 70
     1
102
RTVSPost2010Prop41ColorIndex
 90
       18
102
RTVSPost2010Prop41ColorRGB
 90
        0
102
RTVSPost2010PropOp41
 70
     1
102
RTVSPost2010Prop42
 90
       50
102
RTVSPost2010PropOp42
 70
     1
102
RTVSPost2010Prop43
 90
        3
102
RTVSPost2010PropOp43
 70
     1
102
RTVSPost2010Prop44ColorIndex
 90
        5
102
RTVSPost2010Prop44ColorRGB
 90
      255
102
RTVSPost2010PropOp44
 70
     1
102
RTVSPost2010Prop45
280
     0
102
RTVSPost2010PropOp45
 70
     1
102
RTVSPost2010Prop46
 90
       50
102
RTVSPost2010PropOp46
 70
     1
102
RTVSPost2010Prop47
 90
       50
102
RTVSPost2010PropOp47
 70
     1
102
RTVSPost2010Prop48
 90
       50
102
RTVSPost2010PropOp48
 70
     1
102
RTVSPost2010Prop49
280
     0
102
RTVSPost2010PropOp49
 70
     1
102
RTVSPost2010Prop50
 90
       50
102
RTVSPost2010PropOp50
 70
     1
102
RTVSPost2010Prop51ColorIndex
 90
      256
102
RTVSPost2010Prop51ColorRGB
 90
-16777216
102
RTVSPost2010PropOp51
 70
     0
102
RTVSPost2010Prop52
140
1.0
102
RTVSPost2010PropOp52
 70
     0
102
RTVSPost2010Prop53
 90
        2
102
RTVSPost2010PropOp53
 70
     1
102
RTVSPost2010Prop54
  1
strokes_ogs.tif
102
RTVSPost2010PropOp54
 70
     1
102
RTVSPost2010Prop55
280
     0
102
RTVSPost2010PropOp55
 70
     1
102
RTVSPost2010Prop56
140
1.0
102
RTVSPost2010PropOp56
 70
     1
102
RTVSPost2010Prop57
140
1.0
102
RTVSPost2010PropOp57
 70
     1
102
RTVSPropertyOp0
 70
     1
102
RTVSPropertyOp1
 70
     1
102
RTVSPropertyOp2
 70
     1
102
RTVSPropertyOp3
 70
     1
102
RTVSPropertyOp4
 70
     1
102
RTVSPropertyOp5
 70
     1
102
RTVSPropertyOp6
 70
     1
102
RTVSPropertyOp7
 70
     1
102
RTVSPropertyOp8
 70
     1
102
RTVSPropertyOp9
 70
     1
102
RTVSPropertyOp10
 70
     1
102
RTVSPropertyOp11
 70
     1
102
RTVSPropertyOp12
 70
     1
102
RTVSPropertyOp13
 70
     1
102
RTVSPropertyOp14
 70
     1
102
RTVSPropertyOp15
 70
     1
102
RTVSPropertyOp16
 70
     1
102
RTVSPropertyOp17
 70
     1
102
RTVSPropertyOp18
 70
     1
102
RTVSPropertyOp19
 70
     1
102
RTVSPropertyOp20
 70
     1
102
RTVSPropertyOp21
 70
     1
102
RTVSPropertyOp22
 70
     1
102
RTVSPropertyOp23
 70
     1
102
RTVSPropertyOp24
 70
     1
102
RTVSPropertyOp25
 70
     1
102
RTVSPropertyOp26
 70
     1
102
RTVSPropertyOp27
 70
     1
102
RTVSPropertyOp28
 70
     1
102
RTVSPropertyOp29
 70
     1
102
RTVSPropertyOp30
 70
     1
102
RTVSPropertyOp31
 70
     1
102
RTVSPropertyOp32
 70
     1
102
RTVSPropertyOp33
 70
     1
102
RTVSPropertyOp34
 70
     1
102
RTVSPropertyOp35
 70
     1
102
RTVSPropertyOp36
 70
     1
102
RTVSPropertyOp37
 70
     1
102
RTVSPropertyOp38
 70
     1
102
RTVSPropertyOp39
 70
     1
102
RTVSPropertyOp40
 70
     1
102
RTVSPropertyOp41
 70
     1
102
RTVSPropertyOp42
 70
     1
102
RTVSPropertyOp43
 70
     1
102
RTVSPropertyOp44
 70
     1
102
RTVSPropertyOp45
 70
     1
102
RTVSPropertyOp46
 70
     1
102
RTVSPropertyOp47
 70
     1
102
RTVSPropertyOp48
 70
     1
102
RTVSPropertyOp49
 70
     1
102
RTVSPropertyOp50
 70
     1
102
RTVSPropertyOp51
 70
     0
102
RTVSPropertyOp52
 70
     0
102
RTVSPropertyOp53
 70
     1
102
RTVSPropertyOp54
 70
     1
102
RTVSPropertyOp55
 70
     1
102
RTVSPropertyOp56
 70
     1
102
RTVSPropertyOp57
 70
     1
102
RTVSPropertyOp58
 70
     1
102
RTVSPropertyOp59
 70
     1
102
RTVSPropertyOp60
 70
     1
102
RTVSPropertyOp61
 70
     1
102
RTVSPropertyOp62
 70
     1
  0
XRECORD
  5
30C18
102
{ACAD_REACTORS
330
30C17
102
}
330
30C17
100
AcDbXrecord
280
     1
102
RTVSPost2010Prop28
280
     0
102
RTVSPost2010PropOp28
 70
     1
102
RTVSPost2010Prop29
280
     1
102
RTVSPost2010PropOp29
 70
     1
102
RTVSPost2010Prop30
280
     1
102
RTVSPost2010PropOp30
 70
     1
102
RTVSPost2010Prop31
280
     0
102
RTVSPost2010PropOp31
 70
     1
102
RTVSPost2010Prop32
280
     0
102
RTVSPost2010PropOp32
 70
     1
102
RTVSPost2010Prop33
280
     0
102
RTVSPost2010PropOp33
 70
     1
102
RTVSPost2010Prop34
280
     0
102
RTVSPost2010PropOp34
 70
     1
102
RTVSPost2010Prop35
280
     0
102
RTVSPost2010PropOp35
 70
     1
102
RTVSPost2010Prop36
280
     0
102
RTVSPost2010PropOp36
 70
     1
102
RTVSPost2010Prop37
 90
       50
102
RTVSPost2010PropOp37
 70
     1
102
RTVSPost2010Prop38
140
0.0
102
RTVSPost2010PropOp38
 70
     1
102
RTVSPost2010Prop39
140
1.0
102
RTVSPost2010PropOp39
 70
     1
102
RTVSPost2010Prop40
 90
        0
102
RTVSPost2010PropOp40
 70
     1
102
RTVSPost2010Prop41ColorIndex
 90
       18
102
RTVSPost2010Prop41ColorRGB
 90
        0
102
RTVSPost2010PropOp41
 70
     1
102
RTVSPost2010Prop42
 90
       50
102
RTVSPost2010PropOp42
 70
     1
102
RTVSPost2010Prop43
 90
        3
102
RTVSPost2010PropOp43
 70
     1
102
RTVSPost2010Prop44ColorIndex
 90
        5
102
RTVSPost2010Prop44ColorRGB
 90
      255
102
RTVSPost2010PropOp44
 70
     1
102
RTVSPost2010Prop45
280
     0
102
RTVSPost2010PropOp45
 70
     1
102
RTVSPost2010Prop46
 90
       50
102
RTVSPost2010PropOp46
 70
     1
102
RTVSPost2010Prop47
 90
       50
102
RTVSPost2010PropOp47
 70
     1
102
RTVSPost2010Prop48
 90
       50
102
RTVSPost2010PropOp48
 70
     1
102
RTVSPost2010Prop49
280
     0
102
RTVSPost2010PropOp49
 70
     1
102
RTVSPost2010Prop50
 90
       50
102
RTVSPost2010PropOp50
 70
     1
102
RTVSPost2010Prop51ColorIndex
 90
      256
102
RTVSPost2010Prop51ColorRGB
 90
-16777216
102
RTVSPost2010PropOp51
 70
     0
102
RTVSPost2010Prop52
140
1.0
102
RTVSPost2010PropOp52
 70
     0
102
RTVSPost2010Prop53
 90
        2
102
RTVSPost2010PropOp53
 70
     1
102
RTVSPost2010Prop54
  1
strokes_ogs.tif
102
RTVSPost2010PropOp54
 70
     1
102
RTVSPost2010Prop55
280
     0
102
RTVSPost2010PropOp55
 70
     1
102
RTVSPost2010Prop56
140
1.0
102
RTVSPost2010PropOp56
 70
     1
102
RTVSPost2010Prop57
140
1.0
102
RTVSPost2010PropOp57
 70
     1
102
RTVSPropertyOp0
 70
     1
102
RTVSPropertyOp1
 70
     1
102
RTVSPropertyOp2
 70
     1
102
RTVSPropertyOp3
 70
     1
102
RTVSPropertyOp4
 70
     1
102
RTVSPropertyOp5
 70
     1
102
RTVSPropertyOp6
 70
     1
102
RTVSPropertyOp7
 70
     1
102
RTVSPropertyOp8
 70
     1
102
RTVSPropertyOp9
 70
     1
102
RTVSPropertyOp10
 70
     1
102
RTVSPropertyOp11
 70
     1
102
RTVSPropertyOp12
 70
     1
102
RTVSPropertyOp13
 70
     1
102
RTVSPropertyOp14
 70
     1
102
RTVSPropertyOp15
 70
     1
102
RTVSPropertyOp16
 70
     1
102
RTVSPropertyOp17
 70
     1
102
RTVSPropertyOp18
 70
     1
102
RTVSPropertyOp19
 70
     1
102
RTVSPropertyOp20
 70
     1
102
RTVSPropertyOp21
 70
     1
102
RTVSPropertyOp22
 70
     1
102
RTVSPropertyOp23
 70
     1
102
RTVSPropertyOp24
 70
     1
102
RTVSPropertyOp25
 70
     1
102
RTVSPropertyOp26
 70
     1
102
RTVSPropertyOp27
 70
     1
102
RTVSPropertyOp28
 70
     1
102
RTVSPropertyOp29
 70
     1
102
RTVSPropertyOp30
 70
     1
102
RTVSPropertyOp31
 70
     1
102
RTVSPropertyOp32
 70
     1
102
RTVSPropertyOp33
 70
     1
102
RTVSPropertyOp34
 70
     1
102
RTVSPropertyOp35
 70
     1
102
RTVSPropertyOp36
 70
     1
102
RTVSPropertyOp37
 70
     1
102
RTVSPropertyOp38
 70
     1
102
RTVSPropertyOp39
 70
     1
102
RTVSPropertyOp40
 70
     1
102
RTVSPropertyOp41
 70
     1
102
RTVSPropertyOp42
 70
     1
102
RTVSPropertyOp43
 70
     1
102
RTVSPropertyOp44
 70
     1
102
RTVSPropertyOp45
 70
     1
102
RTVSPropertyOp46
 70
     1
102
RTVSPropertyOp47
 70
     1
102
RTVSPropertyOp48
 70
     1
102
RTVSPropertyOp49
 70
     1
102
RTVSPropertyOp50
 70
     1
102
RTVSPropertyOp51
 70
     0
102
RTVSPropertyOp52
 70
     0
102
RTVSPropertyOp53
 70
     1
102
RTVSPropertyOp54
 70
     1
102
RTVSPropertyOp55
 70
     1
102
RTVSPropertyOp56
 70
     1
102
RTVSPropertyOp57
 70
     1
102
RTVSPropertyOp58
 70
     1
102
RTVSPropertyOp59
 70
     1
102
RTVSPropertyOp60
 70
     1
102
RTVSPropertyOp61
 70
     1
102
RTVSPropertyOp62
 70
     1
  0
XRECORD
  5
30C0A
102
{ACAD_REACTORS
330
30C09
102
}
330
30C09
100
AcDbXrecord
280
     1
102
RTVSPost2010Prop28
280
     0
102
RTVSPost2010PropOp28
 70
     1
102
RTVSPost2010Prop29
280
     1
102
RTVSPost2010PropOp29
 70
     1
102
RTVSPost2010Prop30
280
     1
102
RTVSPost2010PropOp30
 70
     1
102
RTVSPost2010Prop31
280
     0
102
RTVSPost2010PropOp31
 70
     1
102
RTVSPost2010Prop32
280
     0
102
RTVSPost2010PropOp32
 70
     1
102
RTVSPost2010Prop33
280
     0
102
RTVSPost2010PropOp33
 70
     1
102
RTVSPost2010Prop34
280
     0
102
RTVSPost2010PropOp34
 70
     1
102
RTVSPost2010Prop35
280
     0
102
RTVSPost2010PropOp35
 70
     1
102
RTVSPost2010Prop36
280
     0
102
RTVSPost2010PropOp36
 70
     1
102
RTVSPost2010Prop37
 90
       50
102
RTVSPost2010PropOp37
 70
     1
102
RTVSPost2010Prop38
140
0.0
102
RTVSPost2010PropOp38
 70
     1
102
RTVSPost2010Prop39
140
1.0
102
RTVSPost2010PropOp39
 70
     1
102
RTVSPost2010Prop40
 90
        0
102
RTVSPost2010PropOp40
 70
     1
102
RTVSPost2010Prop41ColorIndex
 90
       18
102
RTVSPost2010Prop41ColorRGB
 90
        0
102
RTVSPost2010PropOp41
 70
     1
102
RTVSPost2010Prop42
 90
       50
102
RTVSPost2010PropOp42
 70
     1
102
RTVSPost2010Prop43
 90
        3
102
RTVSPost2010PropOp43
 70
     1
102
RTVSPost2010Prop44ColorIndex
 90
        5
102
RTVSPost2010Prop44ColorRGB
 90
      255
102
RTVSPost2010PropOp44
 70
     1
102
RTVSPost2010Prop45
280
     0
102
RTVSPost2010PropOp45
 70
     1
102
RTVSPost2010Prop46
 90
       50
102
RTVSPost2010PropOp46
 70
     1
102
RTVSPost2010Prop47
 90
       50
102
RTVSPost2010PropOp47
 70
     1
102
RTVSPost2010Prop48
 90
       50
102
RTVSPost2010PropOp48
 70
     1
102
RTVSPost2010Prop49
280
     0
102
RTVSPost2010PropOp49
 70
     1
102
RTVSPost2010Prop50
 90
       50
102
RTVSPost2010PropOp50
 70
     1
102
RTVSPost2010Prop51ColorIndex
 90
      256
102
RTVSPost2010Prop51ColorRGB
 90
-16777216
102
RTVSPost2010PropOp51
 70
     0
102
RTVSPost2010Prop52
140
1.0
102
RTVSPost2010PropOp52
 70
     0
102
RTVSPost2010Prop53
 90
        2
102
RTVSPost2010PropOp53
 70
     1
102
RTVSPost2010Prop54
  1
strokes_ogs.tif
102
RTVSPost2010PropOp54
 70
     1
102
RTVSPost2010Prop55
280
     0
102
RTVSPost2010PropOp55
 70
     1
102
RTVSPost2010Prop56
140
1.0
102
RTVSPost2010PropOp56
 70
     1
102
RTVSPost2010Prop57
140
1.0
102
RTVSPost2010PropOp57
 70
     1
102
RTVSPropertyOp0
 70
     1
102
RTVSPropertyOp1
 70
     1
102
RTVSPropertyOp2
 70
     1
102
RTVSPropertyOp3
 70
     1
102
RTVSPropertyOp4
 70
     1
102
RTVSPropertyOp5
 70
     1
102
RTVSPropertyOp6
 70
     1
102
RTVSPropertyOp7
 70
     1
102
RTVSPropertyOp8
 70
     1
102
RTVSPropertyOp9
 70
     1
102
RTVSPropertyOp10
 70
     1
102
RTVSPropertyOp11
 70
     1
102
RTVSPropertyOp12
 70
     1
102
RTVSPropertyOp13
 70
     1
102
RTVSPropertyOp14
 70
     1
102
RTVSPropertyOp15
 70
     1
102
RTVSPropertyOp16
 70
     1
102
RTVSPropertyOp17
 70
     1
102
RTVSPropertyOp18
 70
     1
102
RTVSPropertyOp19
 70
     1
102
RTVSPropertyOp20
 70
     1
102
RTVSPropertyOp21
 70
     1
102
RTVSPropertyOp22
 70
     1
102
RTVSPropertyOp23
 70
     1
102
RTVSPropertyOp24
 70
     1
102
RTVSPropertyOp25
 70
     1
102
RTVSPropertyOp26
 70
     1
102
RTVSPropertyOp27
 70
     1
102
RTVSPropertyOp28
 70
     1
102
RTVSPropertyOp29
 70
     1
102
RTVSPropertyOp30
 70
     1
102
RTVSPropertyOp31
 70
     1
102
RTVSPropertyOp32
 70
     1
102
RTVSPropertyOp33
 70
     1
102
RTVSPropertyOp34
 70
     1
102
RTVSPropertyOp35
 70
     1
102
RTVSPropertyOp36
 70
     1
102
RTVSPropertyOp37
 70
     1
102
RTVSPropertyOp38
 70
     1
102
RTVSPropertyOp39
 70
     1
102
RTVSPropertyOp40
 70
     1
102
RTVSPropertyOp41
 70
     1
102
RTVSPropertyOp42
 70
     1
102
RTVSPropertyOp43
 70
     1
102
RTVSPropertyOp44
 70
     1
102
RTVSPropertyOp45
 70
     1
102
RTVSPropertyOp46
 70
     1
102
RTVSPropertyOp47
 70
     1
102
RTVSPropertyOp48
 70
     1
102
RTVSPropertyOp49
 70
     1
102
RTVSPropertyOp50
 70
     1
102
RTVSPropertyOp51
 70
     0
102
RTVSPropertyOp52
 70
     0
102
RTVSPropertyOp53
 70
     1
102
RTVSPropertyOp54
 70
     1
102
RTVSPropertyOp55
 70
     1
102
RTVSPropertyOp56
 70
     1
102
RTVSPropertyOp57
 70
     1
102
RTVSPropertyOp58
 70
     1
102
RTVSPropertyOp59
 70
     1
102
RTVSPropertyOp60
 70
     1
102
RTVSPropertyOp61
 70
     1
102
RTVSPropertyOp62
 70
     1
  0
XRECORD
  5
30C0E
102
{ACAD_REACTORS
330
30C0D
102
}
330
30C0D
100
AcDbXrecord
280
     1
102
RTVSPost2010Prop28
280
     0
102
RTVSPost2010PropOp28
 70
     1
102
RTVSPost2010Prop29
280
     1
102
RTVSPost2010PropOp29
 70
     1
102
RTVSPost2010Prop30
280
     1
102
RTVSPost2010PropOp30
 70
     1
102
RTVSPost2010Prop31
280
     0
102
RTVSPost2010PropOp31
 70
     1
102
RTVSPost2010Prop32
280
     0
102
RTVSPost2010PropOp32
 70
     1
102
RTVSPost2010Prop33
280
     0
102
RTVSPost2010PropOp33
 70
     1
102
RTVSPost2010Prop34
280
     0
102
RTVSPost2010PropOp34
 70
     1
102
RTVSPost2010Prop35
280
     0
102
RTVSPost2010PropOp35
 70
     1
102
RTVSPost2010Prop36
280
     0
102
RTVSPost2010PropOp36
 70
     1
102
RTVSPost2010Prop37
 90
       50
102
RTVSPost2010PropOp37
 70
     1
102
RTVSPost2010Prop38
140
0.0
102
RTVSPost2010PropOp38
 70
     1
102
RTVSPost2010Prop39
140
1.0
102
RTVSPost2010PropOp39
 70
     1
102
RTVSPost2010Prop40
 90
        0
102
RTVSPost2010PropOp40
 70
     1
102
RTVSPost2010Prop41ColorIndex
 90
       18
102
RTVSPost2010Prop41ColorRGB
 90
        0
102
RTVSPost2010PropOp41
 70
     1
102
RTVSPost2010Prop42
 90
       50
102
RTVSPost2010PropOp42
 70
     1
102
RTVSPost2010Prop43
 90
        3
102
RTVSPost2010PropOp43
 70
     1
102
RTVSPost2010Prop44ColorIndex
 90
        5
102
RTVSPost2010Prop44ColorRGB
 90
      255
102
RTVSPost2010PropOp44
 70
     1
102
RTVSPost2010Prop45
280
     0
102
RTVSPost2010PropOp45
 70
     1
102
RTVSPost2010Prop46
 90
       50
102
RTVSPost2010PropOp46
 70
     1
102
RTVSPost2010Prop47
 90
       50
102
RTVSPost2010PropOp47
 70
     1
102
RTVSPost2010Prop48
 90
       50
102
RTVSPost2010PropOp48
 70
     1
102
RTVSPost2010Prop49
280
     0
102
RTVSPost2010PropOp49
 70
     1
102
RTVSPost2010Prop50
 90
       50
102
RTVSPost2010PropOp50
 70
     1
102
RTVSPost2010Prop51ColorIndex
 90
      256
102
RTVSPost2010Prop51ColorRGB
 90
-16777216
102
RTVSPost2010PropOp51
 70
     0
102
RTVSPost2010Prop52
140
1.0
102
RTVSPost2010PropOp52
 70
     0
102
RTVSPost2010Prop53
 90
        2
102
RTVSPost2010PropOp53
 70
     1
102
RTVSPost2010Prop54
  1
strokes_ogs.tif
102
RTVSPost2010PropOp54
 70
     1
102
RTVSPost2010Prop55
280
     0
102
RTVSPost2010PropOp55
 70
     1
102
RTVSPost2010Prop56
140
1.0
102
RTVSPost2010PropOp56
 70
     1
102
RTVSPost2010Prop57
140
1.0
102
RTVSPost2010PropOp57
 70
     1
102
RTVSPropertyOp0
 70
     1
102
RTVSPropertyOp1
 70
     1
102
RTVSPropertyOp2
 70
     1
102
RTVSPropertyOp3
 70
     1
102
RTVSPropertyOp4
 70
     1
102
RTVSPropertyOp5
 70
     1
102
RTVSPropertyOp6
 70
     1
102
RTVSPropertyOp7
 70
     1
102
RTVSPropertyOp8
 70
     1
102
RTVSPropertyOp9
 70
     1
102
RTVSPropertyOp10
 70
     1
102
RTVSPropertyOp11
 70
     1
102
RTVSPropertyOp12
 70
     1
102
RTVSPropertyOp13
 70
     1
102
RTVSPropertyOp14
 70
     1
102
RTVSPropertyOp15
 70
     1
102
RTVSPropertyOp16
 70
     1
102
RTVSPropertyOp17
 70
     1
102
RTVSPropertyOp18
 70
     1
102
RTVSPropertyOp19
 70
     1
102
RTVSPropertyOp20
 70
     1
102
RTVSPropertyOp21
 70
     1
102
RTVSPropertyOp22
 70
     1
102
RTVSPropertyOp23
 70
     1
102
RTVSPropertyOp24
 70
     1
102
RTVSPropertyOp25
 70
     1
102
RTVSPropertyOp26
 70
     1
102
RTVSPropertyOp27
 70
     1
102
RTVSPropertyOp28
 70
     1
102
RTVSPropertyOp29
 70
     1
102
RTVSPropertyOp30
 70
     1
102
RTVSPropertyOp31
 70
     1
102
RTVSPropertyOp32
 70
     1
102
RTVSPropertyOp33
 70
     1
102
RTVSPropertyOp34
 70
     1
102
RTVSPropertyOp35
 70
     1
102
RTVSPropertyOp36
 70
     1
102
RTVSPropertyOp37
 70
     1
102
RTVSPropertyOp38
 70
     1
102
RTVSPropertyOp39
 70
     1
102
RTVSPropertyOp40
 70
     1
102
RTVSPropertyOp41
 70
     1
102
RTVSPropertyOp42
 70
     1
102
RTVSPropertyOp43
 70
     1
102
RTVSPropertyOp44
 70
     1
102
RTVSPropertyOp45
 70
     1
102
RTVSPropertyOp46
 70
     1
102
RTVSPropertyOp47
 70
     1
102
RTVSPropertyOp48
 70
     1
102
RTVSPropertyOp49
 70
     1
102
RTVSPropertyOp50
 70
     1
102
RTVSPropertyOp51
 70
     0
102
RTVSPropertyOp52
 70
     0
102
RTVSPropertyOp53
 70
     1
102
RTVSPropertyOp54
 70
     1
102
RTVSPropertyOp55
 70
     1
102
RTVSPropertyOp56
 70
     1
102
RTVSPropertyOp57
 70
     1
102
RTVSPropertyOp58
 70
     1
102
RTVSPropertyOp59
 70
     1
102
RTVSPropertyOp60
 70
     1
102
RTVSPropertyOp61
 70
     1
102
RTVSPropertyOp62
 70
     1
  0
XRECORD
  5
30C28
102
{ACAD_REACTORS
330
30C27
102
}
330
30C27
100
AcDbXrecord
280
     1
102
RTVSPost2010Prop28
280
     0
102
RTVSPost2010PropOp28
 70
     0
102
RTVSPost2010Prop29
280
     1
102
RTVSPost2010PropOp29
 70
     0
102
RTVSPost2010Prop30
280
     1
102
RTVSPost2010PropOp30
 70
     0
102
RTVSPost2010Prop31
280
     0
102
RTVSPost2010PropOp31
 70
     0
102
RTVSPost2010Prop32
280
     0
102
RTVSPost2010PropOp32
 70
     0
102
RTVSPost2010Prop33
280
     0
102
RTVSPost2010PropOp33
 70
     0
102
RTVSPost2010Prop34
280
     0
102
RTVSPost2010PropOp34
 70
     0
102
RTVSPost2010Prop35
280
     0
102
RTVSPost2010PropOp35
 70
     0
102
RTVSPost2010Prop36
280
     0
102
RTVSPost2010PropOp36
 70
     0
102
RTVSPost2010Prop37
 90
       50
102
RTVSPost2010PropOp37
 70
     0
102
RTVSPost2010Prop38
140
0.0
102
RTVSPost2010PropOp38
 70
     0
102
RTVSPost2010Prop39
140
1.0
102
RTVSPost2010PropOp39
 70
     0
102
RTVSPost2010Prop40
 90
        0
102
RTVSPost2010PropOp40
 70
     0
102
RTVSPost2010Prop41ColorIndex
 90
       18
102
RTVSPost2010Prop41ColorRGB
 90
        0
102
RTVSPost2010PropOp41
 70
     0
102
RTVSPost2010Prop42
 90
       50
102
RTVSPost2010PropOp42
 70
     0
102
RTVSPost2010Prop43
 90
        3
102
RTVSPost2010PropOp43
 70
     0
102
RTVSPost2010Prop44ColorIndex
 90
        5
102
RTVSPost2010Prop44ColorRGB
 90
      255
102
RTVSPost2010PropOp44
 70
     0
102
RTVSPost2010Prop45
280
     0
102
RTVSPost2010PropOp45
 70
     0
102
RTVSPost2010Prop46
 90
       50
102
RTVSPost2010PropOp46
 70
     0
102
RTVSPost2010Prop47
 90
       50
102
RTVSPost2010PropOp47
 70
     0
102
RTVSPost2010Prop48
 90
       50
102
RTVSPost2010PropOp48
 70
     0
102
RTVSPost2010Prop49
280
     0
102
RTVSPost2010PropOp49
 70
     0
102
RTVSPost2010Prop50
 90
       50
102
RTVSPost2010PropOp50
 70
     0
102
RTVSPost2010Prop51ColorIndex
 90
      256
102
RTVSPost2010Prop51ColorRGB
 90
-16777216
102
RTVSPost2010PropOp51
 70
     0
102
RTVSPost2010Prop52
140
1.0
102
RTVSPost2010PropOp52
 70
     0
102
RTVSPost2010Prop53
 90
        2
102
RTVSPost2010PropOp53
 70
     0
102
RTVSPost2010Prop54
  1
strokes_ogs.tif
102
RTVSPost2010PropOp54
 70
     0
102
RTVSPost2010Prop55
280
     0
102
RTVSPost2010PropOp55
 70
     0
102
RTVSPost2010Prop56
140
1.0
102
RTVSPost2010PropOp56
 70
     0
102
RTVSPost2010Prop57
140
1.0
102
RTVSPost2010PropOp57
 70
     0
102
RTVSPropertyOp0
 70
     0
102
RTVSPropertyOp1
 70
     0
102
RTVSPropertyOp2
 70
     0
102
RTVSPropertyOp3
 70
     0
102
RTVSPropertyOp4
 70
     0
102
RTVSPropertyOp5
 70
     0
102
RTVSPropertyOp6
 70
     0
102
RTVSPropertyOp7
 70
     0
102
RTVSPropertyOp8
 70
     0
102
RTVSPropertyOp9
 70
     0
102
RTVSPropertyOp10
 70
     0
102
RTVSPropertyOp11
 70
     0
102
RTVSPropertyOp12
 70
     0
102
RTVSPropertyOp13
 70
     0
102
RTVSPropertyOp14
 70
     2
102
RTVSPropertyOp15
 70
     0
102
RTVSPropertyOp16
 70
     0
102
RTVSPropertyOp17
 70
     0
102
RTVSPropertyOp18
 70
     0
102
RTVSPropertyOp19
 70
     0
102
RTVSPropertyOp20
 70
     0
102
RTVSPropertyOp21
 70
     0
102
RTVSPropertyOp22
 70
     0
102
RTVSPropertyOp23
 70
     0
102
RTVSPropertyOp24
 70
     0
102
RTVSPropertyOp25
 70
     0
102
RTVSPropertyOp26
 70
     0
102
RTVSPropertyOp27
 70
     0
102
RTVSPropertyOp28
 70
     0
102
RTVSPropertyOp29
 70
     0
102
RTVSPropertyOp30
 70
     0
102
RTVSPropertyOp31
 70
     0
102
RTVSPropertyOp32
 70
     0
102
RTVSPropertyOp33
 70
     0
102
RTVSPropertyOp34
 70
     0
102
RTVSPropertyOp35
 70
     0
102
RTVSPropertyOp36
 70
     0
102
RTVSPropertyOp37
 70
     0
102
RTVSPropertyOp38
 70
     0
102
RTVSPropertyOp39
 70
     0
102
RTVSPropertyOp40
 70
     0
102
RTVSPropertyOp41
 70
     0
102
RTVSPropertyOp42
 70
     0
102
RTVSPropertyOp43
 70
     0
102
RTVSPropertyOp44
 70
     0
102
RTVSPropertyOp45
 70
     0
102
RTVSPropertyOp46
 70
     0
102
RTVSPropertyOp47
 70
     0
102
RTVSPropertyOp48
 70
     0
102
RTVSPropertyOp49
 70
     0
102
RTVSPropertyOp50
 70
     0
102
RTVSPropertyOp51
 70
     0
102
RTVSPropertyOp52
 70
     0
102
RTVSPropertyOp53
 70
     0
102
RTVSPropertyOp54
 70
     0
102
RTVSPropertyOp55
 70
     0
102
RTVSPropertyOp56
 70
     0
102
RTVSPropertyOp57
 70
     0
102
RTVSPropertyOp58
 70
     1
102
RTVSPropertyOp59
 70
     1
102
RTVSPropertyOp60
 70
     1
102
RTVSPropertyOp61
 70
     1
102
RTVSPropertyOp62
 70
     1
  0
XRECORD
  5
30C16
102
{ACAD_REACTORS
330
30C15
102
}
330
30C15
100
AcDbXrecord
280
     1
102
RTVSPost2010Prop28
280
     0
102
RTVSPost2010PropOp28
 70
     1
102
RTVSPost2010Prop29
280
     1
102
RTVSPost2010PropOp29
 70
     1
102
RTVSPost2010Prop30
280
     1
102
RTVSPost2010PropOp30
 70
     1
102
RTVSPost2010Prop31
280
     0
102
RTVSPost2010PropOp31
 70
     1
102
RTVSPost2010Prop32
280
     0
102
RTVSPost2010PropOp32
 70
     1
102
RTVSPost2010Prop33
280
     0
102
RTVSPost2010PropOp33
 70
     1
102
RTVSPost2010Prop34
280
     0
102
RTVSPost2010PropOp34
 70
     1
102
RTVSPost2010Prop35
280
     0
102
RTVSPost2010PropOp35
 70
     1
102
RTVSPost2010Prop36
280
     0
102
RTVSPost2010PropOp36
 70
     1
102
RTVSPost2010Prop37
 90
       50
102
RTVSPost2010PropOp37
 70
     1
102
RTVSPost2010Prop38
140
0.0
102
RTVSPost2010PropOp38
 70
     1
102
RTVSPost2010Prop39
140
1.0
102
RTVSPost2010PropOp39
 70
     1
102
RTVSPost2010Prop40
 90
        0
102
RTVSPost2010PropOp40
 70
     1
102
RTVSPost2010Prop41ColorIndex
 90
       18
102
RTVSPost2010Prop41ColorRGB
 90
        0
102
RTVSPost2010PropOp41
 70
     1
102
RTVSPost2010Prop42
 90
       50
102
RTVSPost2010PropOp42
 70
     1
102
RTVSPost2010Prop43
 90
        3
102
RTVSPost2010PropOp43
 70
     1
102
RTVSPost2010Prop44ColorIndex
 90
        5
102
RTVSPost2010Prop44ColorRGB
 90
      255
102
RTVSPost2010PropOp44
 70
     1
102
RTVSPost2010Prop45
280
     0
102
RTVSPost2010PropOp45
 70
     1
102
RTVSPost2010Prop46
 90
       50
102
RTVSPost2010PropOp46
 70
     1
102
RTVSPost2010Prop47
 90
       50
102
RTVSPost2010PropOp47
 70
     1
102
RTVSPost2010Prop48
 90
       50
102
RTVSPost2010PropOp48
 70
     1
102
RTVSPost2010Prop49
280
     0
102
RTVSPost2010PropOp49
 70
     1
102
RTVSPost2010Prop50
 90
       50
102
RTVSPost2010PropOp50
 70
     1
102
RTVSPost2010Prop51ColorIndex
 90
      256
102
RTVSPost2010Prop51ColorRGB
 90
-16777216
102
RTVSPost2010PropOp51
 70
     0
102
RTVSPost2010Prop52
140
1.0
102
RTVSPost2010PropOp52
 70
     0
102
RTVSPost2010Prop53
 90
        2
102
RTVSPost2010PropOp53
 70
     1
102
RTVSPost2010Prop54
  1
strokes_ogs.tif
102
RTVSPost2010PropOp54
 70
     1
102
RTVSPost2010Prop55
280
     0
102
RTVSPost2010PropOp55
 70
     1
102
RTVSPost2010Prop56
140
1.0
102
RTVSPost2010PropOp56
 70
     1
102
RTVSPost2010Prop57
140
1.0
102
RTVSPost2010PropOp57
 70
     1
102
RTVSPropertyOp0
 70
     1
102
RTVSPropertyOp1
 70
     1
102
RTVSPropertyOp2
 70
     1
102
RTVSPropertyOp3
 70
     1
102
RTVSPropertyOp4
 70
     1
102
RTVSPropertyOp5
 70
     1
102
RTVSPropertyOp6
 70
     1
102
RTVSPropertyOp7
 70
     1
102
RTVSPropertyOp8
 70
     1
102
RTVSPropertyOp9
 70
     1
102
RTVSPropertyOp10
 70
     1
102
RTVSPropertyOp11
 70
     1
102
RTVSPropertyOp12
 70
     1
102
RTVSPropertyOp13
 70
     1
102
RTVSPropertyOp14
 70
     1
102
RTVSPropertyOp15
 70
     1
102
RTVSPropertyOp16
 70
     1
102
RTVSPropertyOp17
 70
     1
102
RTVSPropertyOp18
 70
     1
102
RTVSPropertyOp19
 70
     1
102
RTVSPropertyOp20
 70
     1
102
RTVSPropertyOp21
 70
     1
102
RTVSPropertyOp22
 70
     1
102
RTVSPropertyOp23
 70
     1
102
RTVSPropertyOp24
 70
     1
102
RTVSPropertyOp25
 70
     1
102
RTVSPropertyOp26
 70
     1
102
RTVSPropertyOp27
 70
     1
102
RTVSPropertyOp28
 70
     1
102
RTVSPropertyOp29
 70
     1
102
RTVSPropertyOp30
 70
     1
102
RTVSPropertyOp31
 70
     1
102
RTVSPropertyOp32
 70
     1
102
RTVSPropertyOp33
 70
     1
102
RTVSPropertyOp34
 70
     1
102
RTVSPropertyOp35
 70
     1
102
RTVSPropertyOp36
 70
     1
102
RTVSPropertyOp37
 70
     1
102
RTVSPropertyOp38
 70
     1
102
RTVSPropertyOp39
 70
     1
102
RTVSPropertyOp40
 70
     1
102
RTVSPropertyOp41
 70
     1
102
RTVSPropertyOp42
 70
     1
102
RTVSPropertyOp43
 70
     1
102
RTVSPropertyOp44
 70
     1
102
RTVSPropertyOp45
 70
     1
102
RTVSPropertyOp46
 70
     1
102
RTVSPropertyOp47
 70
     1
102
RTVSPropertyOp48
 70
     1
102
RTVSPropertyOp49
 70
     1
102
RTVSPropertyOp50
 70
     1
102
RTVSPropertyOp51
 70
     0
102
RTVSPropertyOp52
 70
     0
102
RTVSPropertyOp53
 70
     1
102
RTVSPropertyOp54
 70
     1
102
RTVSPropertyOp55
 70
     1
102
RTVSPropertyOp56
 70
     1
102
RTVSPropertyOp57
 70
     1
102
RTVSPropertyOp58
 70
     1
102
RTVSPropertyOp59
 70
     1
102
RTVSPropertyOp60
 70
     1
102
RTVSPropertyOp61
 70
     1
102
RTVSPropertyOp62
 70
     1
  0
XRECORD
  5
30BFA
102
{ACAD_REACTORS
330
30BF9
102
}
330
30BF9
100
AcDbXrecord
280
     1
102
RTVSPost2010Prop28
280
     0
102
RTVSPost2010PropOp28
 70
     1
102
RTVSPost2010Prop29
280
     1
102
RTVSPost2010PropOp29
 70
     1
102
RTVSPost2010Prop30
280
     1
102
RTVSPost2010PropOp30
 70
     1
102
RTVSPost2010Prop31
280
     0
102
RTVSPost2010PropOp31
 70
     1
102
RTVSPost2010Prop32
280
     0
102
RTVSPost2010PropOp32
 70
     1
102
RTVSPost2010Prop33
280
     0
102
RTVSPost2010PropOp33
 70
     1
102
RTVSPost2010Prop34
280
     0
102
RTVSPost2010PropOp34
 70
     1
102
RTVSPost2010Prop35
280
     0
102
RTVSPost2010PropOp35
 70
     1
102
RTVSPost2010Prop36
280
     0
102
RTVSPost2010PropOp36
 70
     1
102
RTVSPost2010Prop37
 90
       50
102
RTVSPost2010PropOp37
 70
     1
102
RTVSPost2010Prop38
140
0.0
102
RTVSPost2010PropOp38
 70
     1
102
RTVSPost2010Prop39
140
1.0
102
RTVSPost2010PropOp39
 70
     1
102
RTVSPost2010Prop40
 90
        0
102
RTVSPost2010PropOp40
 70
     1
102
RTVSPost2010Prop41ColorIndex
 90
       18
102
RTVSPost2010Prop41ColorRGB
 90
        0
102
RTVSPost2010PropOp41
 70
     1
102
RTVSPost2010Prop42
 90
       50
102
RTVSPost2010PropOp42
 70
     1
102
RTVSPost2010Prop43
 90
        3
102
RTVSPost2010PropOp43
 70
     1
102
RTVSPost2010Prop44ColorIndex
 90
        5
102
RTVSPost2010Prop44ColorRGB
 90
      255
102
RTVSPost2010PropOp44
 70
     1
102
RTVSPost2010Prop45
280
     0
102
RTVSPost2010PropOp45
 70
     1
102
RTVSPost2010Prop46
 90
       50
102
RTVSPost2010PropOp46
 70
     1
102
RTVSPost2010Prop47
 90
       50
102
RTVSPost2010PropOp47
 70
     1
102
RTVSPost2010Prop48
 90
       50
102
RTVSPost2010PropOp48
 70
     1
102
RTVSPost2010Prop49
280
     0
102
RTVSPost2010PropOp49
 70
     1
102
RTVSPost2010Prop50
 90
       50
102
RTVSPost2010PropOp50
 70
     1
102
RTVSPost2010Prop51ColorIndex
 90
      256
102
RTVSPost2010Prop51ColorRGB
 90
-16777216
102
RTVSPost2010PropOp51
 70
     0
102
RTVSPost2010Prop52
140
1.0
102
RTVSPost2010PropOp52
 70
     0
102
RTVSPost2010Prop53
 90
        2
102
RTVSPost2010PropOp53
 70
     1
102
RTVSPost2010Prop54
  1
strokes_ogs.tif
102
RTVSPost2010PropOp54
 70
     1
102
RTVSPost2010Prop55
280
     0
102
RTVSPost2010PropOp55
 70
     1
102
RTVSPost2010Prop56
140
1.0
102
RTVSPost2010PropOp56
 70
     1
102
RTVSPost2010Prop57
140
1.0
102
RTVSPost2010PropOp57
 70
     1
102
RTVSPropertyOp0
 70
     1
102
RTVSPropertyOp1
 70
     1
102
RTVSPropertyOp2
 70
     1
102
RTVSPropertyOp3
 70
     1
102
RTVSPropertyOp4
 70
     1
102
RTVSPropertyOp5
 70
     1
102
RTVSPropertyOp6
 70
     1
102
RTVSPropertyOp7
 70
     1
102
RTVSPropertyOp8
 70
     1
102
RTVSPropertyOp9
 70
     1
102
RTVSPropertyOp10
 70
     1
102
RTVSPropertyOp11
 70
     1
102
RTVSPropertyOp12
 70
     1
102
RTVSPropertyOp13
 70
     1
102
RTVSPropertyOp14
 70
     1
102
RTVSPropertyOp15
 70
     1
102
RTVSPropertyOp16
 70
     1
102
RTVSPropertyOp17
 70
     1
102
RTVSPropertyOp18
 70
     1
102
RTVSPropertyOp19
 70
     1
102
RTVSPropertyOp20
 70
     1
102
RTVSPropertyOp21
 70
     1
102
RTVSPropertyOp22
 70
     1
102
RTVSPropertyOp23
 70
     1
102
RTVSPropertyOp24
 70
     1
102
RTVSPropertyOp25
 70
     1
102
RTVSPropertyOp26
 70
     1
102
RTVSPropertyOp27
 70
     1
102
RTVSPropertyOp28
 70
     1
102
RTVSPropertyOp29
 70
     1
102
RTVSPropertyOp30
 70
     1
102
RTVSPropertyOp31
 70
     1
102
RTVSPropertyOp32
 70
     1
102
RTVSPropertyOp33
 70
     1
102
RTVSPropertyOp34
 70
     1
102
RTVSPropertyOp35
 70
     1
102
RTVSPropertyOp36
 70
     1
102
RTVSPropertyOp37
 70
     1
102
RTVSPropertyOp38
 70
     1
102
RTVSPropertyOp39
 70
     1
102
RTVSPropertyOp40
 70
     1
102
RTVSPropertyOp41
 70
     1
102
RTVSPropertyOp42
 70
     1
102
RTVSPropertyOp43
 70
     1
102
RTVSPropertyOp44
 70
     1
102
RTVSPropertyOp45
 70
     1
102
RTVSPropertyOp46
 70
     1
102
RTVSPropertyOp47
 70
     1
102
RTVSPropertyOp48
 70
     1
102
RTVSPropertyOp49
 70
     1
102
RTVSPropertyOp50
 70
     1
102
RTVSPropertyOp51
 70
     0
102
RTVSPropertyOp52
 70
     0
102
RTVSPropertyOp53
 70
     1
102
RTVSPropertyOp54
 70
     1
102
RTVSPropertyOp55
 70
     1
102
RTVSPropertyOp56
 70
     1
102
RTVSPropertyOp57
 70
     1
102
RTVSPropertyOp58
 70
     1
102
RTVSPropertyOp59
 70
     1
102
RTVSPropertyOp60
 70
     1
102
RTVSPropertyOp61
 70
     1
102
RTVSPropertyOp62
 70
     1
  0
XRECORD
  5
30BFC
102
{ACAD_REACTORS
330
30BFB
102
}
330
30BFB
100
AcDbXrecord
280
     1
102
RTVSPost2010Prop28
280
     0
102
RTVSPost2010PropOp28
 70
     1
102
RTVSPost2010Prop29
280
     1
102
RTVSPost2010PropOp29
 70
     1
102
RTVSPost2010Prop30
280
     1
102
RTVSPost2010PropOp30
 70
     1
102
RTVSPost2010Prop31
280
     0
102
RTVSPost2010PropOp31
 70
     1
102
RTVSPost2010Prop32
280
     0
102
RTVSPost2010PropOp32
 70
     1
102
RTVSPost2010Prop33
280
     0
102
RTVSPost2010PropOp33
 70
     1
102
RTVSPost2010Prop34
280
     0
102
RTVSPost2010PropOp34
 70
     1
102
RTVSPost2010Prop35
280
     0
102
RTVSPost2010PropOp35
 70
     1
102
RTVSPost2010Prop36
280
     0
102
RTVSPost2010PropOp36
 70
     1
102
RTVSPost2010Prop37
 90
       50
102
RTVSPost2010PropOp37
 70
     1
102
RTVSPost2010Prop38
140
0.0
102
RTVSPost2010PropOp38
 70
     1
102
RTVSPost2010Prop39
140
1.0
102
RTVSPost2010PropOp39
 70
     1
102
RTVSPost2010Prop40
 90
        0
102
RTVSPost2010PropOp40
 70
     1
102
RTVSPost2010Prop41ColorIndex
 90
       18
102
RTVSPost2010Prop41ColorRGB
 90
        0
102
RTVSPost2010PropOp41
 70
     1
102
RTVSPost2010Prop42
 90
       50
102
RTVSPost2010PropOp42
 70
     1
102
RTVSPost2010Prop43
 90
        3
102
RTVSPost2010PropOp43
 70
     1
102
RTVSPost2010Prop44ColorIndex
 90
        5
102
RTVSPost2010Prop44ColorRGB
 90
      255
102
RTVSPost2010PropOp44
 70
     1
102
RTVSPost2010Prop45
280
     0
102
RTVSPost2010PropOp45
 70
     1
102
RTVSPost2010Prop46
 90
       50
102
RTVSPost2010PropOp46
 70
     1
102
RTVSPost2010Prop47
 90
       50
102
RTVSPost2010PropOp47
 70
     1
102
RTVSPost2010Prop48
 90
       50
102
RTVSPost2010PropOp48
 70
     1
102
RTVSPost2010Prop49
280
     0
102
RTVSPost2010PropOp49
 70
     1
102
RTVSPost2010Prop50
 90
       50
102
RTVSPost2010PropOp50
 70
     1
102
RTVSPost2010Prop51ColorIndex
 90
      256
102
RTVSPost2010Prop51ColorRGB
 90
-16777216
102
RTVSPost2010PropOp51
 70
     0
102
RTVSPost2010Prop52
140
1.0
102
RTVSPost2010PropOp52
 70
     0
102
RTVSPost2010Prop53
 90
        2
102
RTVSPost2010PropOp53
 70
     1
102
RTVSPost2010Prop54
  1
strokes_ogs.tif
102
RTVSPost2010PropOp54
 70
     1
102
RTVSPost2010Prop55
280
     0
102
RTVSPost2010PropOp55
 70
     1
102
RTVSPost2010Prop56
140
1.0
102
RTVSPost2010PropOp56
 70
     1
102
RTVSPost2010Prop57
140
1.0
102
RTVSPost2010PropOp57
 70
     1
102
RTVSPropertyOp0
 70
     1
102
RTVSPropertyOp1
 70
     1
102
RTVSPropertyOp2
 70
     1
102
RTVSPropertyOp3
 70
     1
102
RTVSPropertyOp4
 70
     1
102
RTVSPropertyOp5
 70
     1
102
RTVSPropertyOp6
 70
     1
102
RTVSPropertyOp7
 70
     1
102
RTVSPropertyOp8
 70
     1
102
RTVSPropertyOp9
 70
     1
102
RTVSPropertyOp10
 70
     1
102
RTVSPropertyOp11
 70
     1
102
RTVSPropertyOp12
 70
     1
102
RTVSPropertyOp13
 70
     1
102
RTVSPropertyOp14
 70
     1
102
RTVSPropertyOp15
 70
     1
102
RTVSPropertyOp16
 70
     1
102
RTVSPropertyOp17
 70
     1
102
RTVSPropertyOp18
 70
     1
102
RTVSPropertyOp19
 70
     1
102
RTVSPropertyOp20
 70
     1
102
RTVSPropertyOp21
 70
     1
102
RTVSPropertyOp22
 70
     1
102
RTVSPropertyOp23
 70
     1
102
RTVSPropertyOp24
 70
     1
102
RTVSPropertyOp25
 70
     1
102
RTVSPropertyOp26
 70
     1
102
RTVSPropertyOp27
 70
     1
102
RTVSPropertyOp28
 70
     1
102
RTVSPropertyOp29
 70
     1
102
RTVSPropertyOp30
 70
     1
102
RTVSPropertyOp31
 70
     1
102
RTVSPropertyOp32
 70
     1
102
RTVSPropertyOp33
 70
     1
102
RTVSPropertyOp34
 70
     1
102
RTVSPropertyOp35
 70
     1
102
RTVSPropertyOp36
 70
     1
102
RTVSPropertyOp37
 70
     1
102
RTVSPropertyOp38
 70
     1
102
RTVSPropertyOp39
 70
     1
102
RTVSPropertyOp40
 70
     1
102
RTVSPropertyOp41
 70
     1
102
RTVSPropertyOp42
 70
     1
102
RTVSPropertyOp43
 70
     1
102
RTVSPropertyOp44
 70
     1
102
RTVSPropertyOp45
 70
     1
102
RTVSPropertyOp46
 70
     1
102
RTVSPropertyOp47
 70
     1
102
RTVSPropertyOp48
 70
     1
102
RTVSPropertyOp49
 70
     1
102
RTVSPropertyOp50
 70
     1
102
RTVSPropertyOp51
 70
     0
102
RTVSPropertyOp52
 70
     0
102
RTVSPropertyOp53
 70
     1
102
RTVSPropertyOp54
 70
     1
102
RTVSPropertyOp55
 70
     1
102
RTVSPropertyOp56
 70
     1
102
RTVSPropertyOp57
 70
     1
102
RTVSPropertyOp58
 70
     1
102
RTVSPropertyOp59
 70
     1
102
RTVSPropertyOp60
 70
     1
102
RTVSPropertyOp61
 70
     1
102
RTVSPropertyOp62
 70
     1
  0
XRECORD
  5
30BFE
102
{ACAD_REACTORS
330
30BFD
102
}
330
30BFD
100
AcDbXrecord
280
     1
102
RTVSPost2010Prop28
280
     0
102
RTVSPost2010PropOp28
 70
     1
102
RTVSPost2010Prop29
280
     1
102
RTVSPost2010PropOp29
 70
     1
102
RTVSPost2010Prop30
280
     1
102
RTVSPost2010PropOp30
 70
     1
102
RTVSPost2010Prop31
280
     0
102
RTVSPost2010PropOp31
 70
     1
102
RTVSPost2010Prop32
280
     0
102
RTVSPost2010PropOp32
 70
     1
102
RTVSPost2010Prop33
280
     0
102
RTVSPost2010PropOp33
 70
     1
102
RTVSPost2010Prop34
280
     0
102
RTVSPost2010PropOp34
 70
     1
102
RTVSPost2010Prop35
280
     0
102
RTVSPost2010PropOp35
 70
     1
102
RTVSPost2010Prop36
280
     0
102
RTVSPost2010PropOp36
 70
     1
102
RTVSPost2010Prop37
 90
       50
102
RTVSPost2010PropOp37
 70
     1
102
RTVSPost2010Prop38
140
0.0
102
RTVSPost2010PropOp38
 70
     1
102
RTVSPost2010Prop39
140
1.0
102
RTVSPost2010PropOp39
 70
     1
102
RTVSPost2010Prop40
 90
        0
102
RTVSPost2010PropOp40
 70
     1
102
RTVSPost2010Prop41ColorIndex
 90
       18
102
RTVSPost2010Prop41ColorRGB
 90
        0
102
RTVSPost2010PropOp41
 70
     1
102
RTVSPost2010Prop42
 90
       50
102
RTVSPost2010PropOp42
 70
     1
102
RTVSPost2010Prop43
 90
        3
102
RTVSPost2010PropOp43
 70
     1
102
RTVSPost2010Prop44ColorIndex
 90
        5
102
RTVSPost2010Prop44ColorRGB
 90
      255
102
RTVSPost2010PropOp44
 70
     1
102
RTVSPost2010Prop45
280
     0
102
RTVSPost2010PropOp45
 70
     1
102
RTVSPost2010Prop46
 90
       50
102
RTVSPost2010PropOp46
 70
     1
102
RTVSPost2010Prop47
 90
       50
102
RTVSPost2010PropOp47
 70
     1
102
RTVSPost2010Prop48
 90
       50
102
RTVSPost2010PropOp48
 70
     1
102
RTVSPost2010Prop49
280
     0
102
RTVSPost2010PropOp49
 70
     1
102
RTVSPost2010Prop50
 90
       50
102
RTVSPost2010PropOp50
 70
     1
102
RTVSPost2010Prop51ColorIndex
 90
      256
102
RTVSPost2010Prop51ColorRGB
 90
-16777216
102
RTVSPost2010PropOp51
 70
     0
102
RTVSPost2010Prop52
140
1.0
102
RTVSPost2010PropOp52
 70
     0
102
RTVSPost2010Prop53
 90
        2
102
RTVSPost2010PropOp53
 70
     1
102
RTVSPost2010Prop54
  1
strokes_ogs.tif
102
RTVSPost2010PropOp54
 70
     1
102
RTVSPost2010Prop55
280
     0
102
RTVSPost2010PropOp55
 70
     1
102
RTVSPost2010Prop56
140
1.0
102
RTVSPost2010PropOp56
 70
     1
102
RTVSPost2010Prop57
140
1.0
102
RTVSPost2010PropOp57
 70
     1
102
RTVSPropertyOp0
 70
     1
102
RTVSPropertyOp1
 70
     1
102
RTVSPropertyOp2
 70
     1
102
RTVSPropertyOp3
 70
     1
102
RTVSPropertyOp4
 70
     1
102
RTVSPropertyOp5
 70
     1
102
RTVSPropertyOp6
 70
     1
102
RTVSPropertyOp7
 70
     1
102
RTVSPropertyOp8
 70
     1
102
RTVSPropertyOp9
 70
     1
102
RTVSPropertyOp10
 70
     1
102
RTVSPropertyOp11
 70
     1
102
RTVSPropertyOp12
 70
     1
102
RTVSPropertyOp13
 70
     1
102
RTVSPropertyOp14
 70
     1
102
RTVSPropertyOp15
 70
     1
102
RTVSPropertyOp16
 70
     1
102
RTVSPropertyOp17
 70
     1
102
RTVSPropertyOp18
 70
     1
102
RTVSPropertyOp19
 70
     1
102
RTVSPropertyOp20
 70
     1
102
RTVSPropertyOp21
 70
     1
102
RTVSPropertyOp22
 70
     1
102
RTVSPropertyOp23
 70
     1
102
RTVSPropertyOp24
 70
     1
102
RTVSPropertyOp25
 70
     1
102
RTVSPropertyOp26
 70
     1
102
RTVSPropertyOp27
 70
     1
102
RTVSPropertyOp28
 70
     1
102
RTVSPropertyOp29
 70
     1
102
RTVSPropertyOp30
 70
     1
102
RTVSPropertyOp31
 70
     1
102
RTVSPropertyOp32
 70
     1
102
RTVSPropertyOp33
 70
     1
102
RTVSPropertyOp34
 70
     1
102
RTVSPropertyOp35
 70
     1
102
RTVSPropertyOp36
 70
     1
102
RTVSPropertyOp37
 70
     1
102
RTVSPropertyOp38
 70
     1
102
RTVSPropertyOp39
 70
     1
102
RTVSPropertyOp40
 70
     1
102
RTVSPropertyOp41
 70
     1
102
RTVSPropertyOp42
 70
     1
102
RTVSPropertyOp43
 70
     1
102
RTVSPropertyOp44
 70
     1
102
RTVSPropertyOp45
 70
     1
102
RTVSPropertyOp46
 70
     1
102
RTVSPropertyOp47
 70
     1
102
RTVSPropertyOp48
 70
     1
102
RTVSPropertyOp49
 70
     1
102
RTVSPropertyOp50
 70
     1
102
RTVSPropertyOp51
 70
     0
102
RTVSPropertyOp52
 70
     0
102
RTVSPropertyOp53
 70
     1
102
RTVSPropertyOp54
 70
     1
102
RTVSPropertyOp55
 70
     1
102
RTVSPropertyOp56
 70
     1
102
RTVSPropertyOp57
 70
     1
102
RTVSPropertyOp58
 70
     1
102
RTVSPropertyOp59
 70
     1
102
RTVSPropertyOp60
 70
     1
102
RTVSPropertyOp61
 70
     1
102
RTVSPropertyOp62
 70
     1
  0
XRECORD
  5
30C00
102
{ACAD_REACTORS
330
30BFF
102
}
330
30BFF
100
AcDbXrecord
280
     1
102
RTVSPost2010Prop28
280
     0
102
RTVSPost2010PropOp28
 70
     1
102
RTVSPost2010Prop29
280
     1
102
RTVSPost2010PropOp29
 70
     1
102
RTVSPost2010Prop30
280
     1
102
RTVSPost2010PropOp30
 70
     1
102
RTVSPost2010Prop31
280
     0
102
RTVSPost2010PropOp31
 70
     1
102
RTVSPost2010Prop32
280
     0
102
RTVSPost2010PropOp32
 70
     1
102
RTVSPost2010Prop33
280
     0
102
RTVSPost2010PropOp33
 70
     1
102
RTVSPost2010Prop34
280
     0
102
RTVSPost2010PropOp34
 70
     1
102
RTVSPost2010Prop35
280
     0
102
RTVSPost2010PropOp35
 70
     1
102
RTVSPost2010Prop36
280
     0
102
RTVSPost2010PropOp36
 70
     1
102
RTVSPost2010Prop37
 90
       50
102
RTVSPost2010PropOp37
 70
     1
102
RTVSPost2010Prop38
140
0.0
102
RTVSPost2010PropOp38
 70
     1
102
RTVSPost2010Prop39
140
1.0
102
RTVSPost2010PropOp39
 70
     1
102
RTVSPost2010Prop40
 90
        0
102
RTVSPost2010PropOp40
 70
     1
102
RTVSPost2010Prop41ColorIndex
 90
       18
102
RTVSPost2010Prop41ColorRGB
 90
        0
102
RTVSPost2010PropOp41
 70
     1
102
RTVSPost2010Prop42
 90
       50
102
RTVSPost2010PropOp42
 70
     1
102
RTVSPost2010Prop43
 90
        3
102
RTVSPost2010PropOp43
 70
     1
102
RTVSPost2010Prop44ColorIndex
 90
        5
102
RTVSPost2010Prop44ColorRGB
 90
      255
102
RTVSPost2010PropOp44
 70
     1
102
RTVSPost2010Prop45
280
     0
102
RTVSPost2010PropOp45
 70
     1
102
RTVSPost2010Prop46
 90
       50
102
RTVSPost2010PropOp46
 70
     1
102
RTVSPost2010Prop47
 90
       50
102
RTVSPost2010PropOp47
 70
     1
102
RTVSPost2010Prop48
 90
       50
102
RTVSPost2010PropOp48
 70
     1
102
RTVSPost2010Prop49
280
     0
102
RTVSPost2010PropOp49
 70
     1
102
RTVSPost2010Prop50
 90
       50
102
RTVSPost2010PropOp50
 70
     1
102
RTVSPost2010Prop51ColorIndex
 90
      256
102
RTVSPost2010Prop51ColorRGB
 90
-16777216
102
RTVSPost2010PropOp51
 70
     0
102
RTVSPost2010Prop52
140
1.0
102
RTVSPost2010PropOp52
 70
     0
102
RTVSPost2010Prop53
 90
        2
102
RTVSPost2010PropOp53
 70
     1
102
RTVSPost2010Prop54
  1
strokes_ogs.tif
102
RTVSPost2010PropOp54
 70
     1
102
RTVSPost2010Prop55
280
     0
102
RTVSPost2010PropOp55
 70
     1
102
RTVSPost2010Prop56
140
1.0
102
RTVSPost2010PropOp56
 70
     1
102
RTVSPost2010Prop57
140
1.0
102
RTVSPost2010PropOp57
 70
     1
102
RTVSPropertyOp0
 70
     1
102
RTVSPropertyOp1
 70
     1
102
RTVSPropertyOp2
 70
     1
102
RTVSPropertyOp3
 70
     1
102
RTVSPropertyOp4
 70
     1
102
RTVSPropertyOp5
 70
     1
102
RTVSPropertyOp6
 70
     1
102
RTVSPropertyOp7
 70
     1
102
RTVSPropertyOp8
 70
     1
102
RTVSPropertyOp9
 70
     1
102
RTVSPropertyOp10
 70
     1
102
RTVSPropertyOp11
 70
     1
102
RTVSPropertyOp12
 70
     1
102
RTVSPropertyOp13
 70
     1
102
RTVSPropertyOp14
 70
     1
102
RTVSPropertyOp15
 70
     1
102
RTVSPropertyOp16
 70
     1
102
RTVSPropertyOp17
 70
     1
102
RTVSPropertyOp18
 70
     1
102
RTVSPropertyOp19
 70
     1
102
RTVSPropertyOp20
 70
     1
102
RTVSPropertyOp21
 70
     1
102
RTVSPropertyOp22
 70
     1
102
RTVSPropertyOp23
 70
     1
102
RTVSPropertyOp24
 70
     1
102
RTVSPropertyOp25
 70
     1
102
RTVSPropertyOp26
 70
     1
102
RTVSPropertyOp27
 70
     1
102
RTVSPropertyOp28
 70
     1
102
RTVSPropertyOp29
 70
     1
102
RTVSPropertyOp30
 70
     1
102
RTVSPropertyOp31
 70
     1
102
RTVSPropertyOp32
 70
     1
102
RTVSPropertyOp33
 70
     1
102
RTVSPropertyOp34
 70
     1
102
RTVSPropertyOp35
 70
     1
102
RTVSPropertyOp36
 70
     1
102
RTVSPropertyOp37
 70
     1
102
RTVSPropertyOp38
 70
     1
102
RTVSPropertyOp39
 70
     1
102
RTVSPropertyOp40
 70
     1
102
RTVSPropertyOp41
 70
     1
102
RTVSPropertyOp42
 70
     1
102
RTVSPropertyOp43
 70
     1
102
RTVSPropertyOp44
 70
     1
102
RTVSPropertyOp45
 70
     1
102
RTVSPropertyOp46
 70
     1
102
RTVSPropertyOp47
 70
     1
102
RTVSPropertyOp48
 70
     1
102
RTVSPropertyOp49
 70
     1
102
RTVSPropertyOp50
 70
     1
102
RTVSPropertyOp51
 70
     0
102
RTVSPropertyOp52
 70
     0
102
RTVSPropertyOp53
 70
     1
102
RTVSPropertyOp54
 70
     1
102
RTVSPropertyOp55
 70
     1
102
RTVSPropertyOp56
 70
     1
102
RTVSPropertyOp57
 70
     1
102
RTVSPropertyOp58
 70
     1
102
RTVSPropertyOp59
 70
     1
102
RTVSPropertyOp60
 70
     1
102
RTVSPropertyOp61
 70
     1
102
RTVSPropertyOp62
 70
     1
  0
XRECORD
  5
30C08
102
{ACAD_REACTORS
330
30C07
102
}
330
30C07
100
AcDbXrecord
280
     1
102
RTVSPost2010Prop28
280
     0
102
RTVSPost2010PropOp28
 70
     1
102
RTVSPost2010Prop29
280
     1
102
RTVSPost2010PropOp29
 70
     1
102
RTVSPost2010Prop30
280
     1
102
RTVSPost2010PropOp30
 70
     1
102
RTVSPost2010Prop31
280
     0
102
RTVSPost2010PropOp31
 70
     1
102
RTVSPost2010Prop32
280
     0
102
RTVSPost2010PropOp32
 70
     1
102
RTVSPost2010Prop33
280
     0
102
RTVSPost2010PropOp33
 70
     1
102
RTVSPost2010Prop34
280
     0
102
RTVSPost2010PropOp34
 70
     1
102
RTVSPost2010Prop35
280
     0
102
RTVSPost2010PropOp35
 70
     1
102
RTVSPost2010Prop36
280
     0
102
RTVSPost2010PropOp36
 70
     1
102
RTVSPost2010Prop37
 90
       50
102
RTVSPost2010PropOp37
 70
     1
102
RTVSPost2010Prop38
140
0.0
102
RTVSPost2010PropOp38
 70
     1
102
RTVSPost2010Prop39
140
1.0
102
RTVSPost2010PropOp39
 70
     1
102
RTVSPost2010Prop40
 90
        0
102
RTVSPost2010PropOp40
 70
     1
102
RTVSPost2010Prop41ColorIndex
 90
       18
102
RTVSPost2010Prop41ColorRGB
 90
        0
102
RTVSPost2010PropOp41
 70
     1
102
RTVSPost2010Prop42
 90
       50
102
RTVSPost2010PropOp42
 70
     1
102
RTVSPost2010Prop43
 90
        3
102
RTVSPost2010PropOp43
 70
     1
102
RTVSPost2010Prop44ColorIndex
 90
        5
102
RTVSPost2010Prop44ColorRGB
 90
      255
102
RTVSPost2010PropOp44
 70
     1
102
RTVSPost2010Prop45
280
     0
102
RTVSPost2010PropOp45
 70
     1
102
RTVSPost2010Prop46
 90
       50
102
RTVSPost2010PropOp46
 70
     1
102
RTVSPost2010Prop47
 90
       50
102
RTVSPost2010PropOp47
 70
     1
102
RTVSPost2010Prop48
 90
       50
102
RTVSPost2010PropOp48
 70
     1
102
RTVSPost2010Prop49
280
     0
102
RTVSPost2010PropOp49
 70
     1
102
RTVSPost2010Prop50
 90
       50
102
RTVSPost2010PropOp50
 70
     1
102
RTVSPost2010Prop51ColorIndex
 90
      256
102
RTVSPost2010Prop51ColorRGB
 90
-16777216
102
RTVSPost2010PropOp51
 70
     0
102
RTVSPost2010Prop52
140
1.0
102
RTVSPost2010PropOp52
 70
     0
102
RTVSPost2010Prop53
 90
        2
102
RTVSPost2010PropOp53
 70
     1
102
RTVSPost2010Prop54
  1
strokes_ogs.tif
102
RTVSPost2010PropOp54
 70
     1
102
RTVSPost2010Prop55
280
     0
102
RTVSPost2010PropOp55
 70
     1
102
RTVSPost2010Prop56
140
1.0
102
RTVSPost2010PropOp56
 70
     1
102
RTVSPost2010Prop57
140
1.0
102
RTVSPost2010PropOp57
 70
     1
102
RTVSPropertyOp0
 70
     1
102
RTVSPropertyOp1
 70
     1
102
RTVSPropertyOp2
 70
     1
102
RTVSPropertyOp3
 70
     1
102
RTVSPropertyOp4
 70
     1
102
RTVSPropertyOp5
 70
     1
102
RTVSPropertyOp6
 70
     1
102
RTVSPropertyOp7
 70
     1
102
RTVSPropertyOp8
 70
     1
102
RTVSPropertyOp9
 70
     1
102
RTVSPropertyOp10
 70
     1
102
RTVSPropertyOp11
 70
     1
102
RTVSPropertyOp12
 70
     1
102
RTVSPropertyOp13
 70
     1
102
RTVSPropertyOp14
 70
     1
102
RTVSPropertyOp15
 70
     1
102
RTVSPropertyOp16
 70
     1
102
RTVSPropertyOp17
 70
     1
102
RTVSPropertyOp18
 70
     1
102
RTVSPropertyOp19
 70
     1
102
RTVSPropertyOp20
 70
     1
102
RTVSPropertyOp21
 70
     1
102
RTVSPropertyOp22
 70
     1
102
RTVSPropertyOp23
 70
     1
102
RTVSPropertyOp24
 70
     1
102
RTVSPropertyOp25
 70
     1
102
RTVSPropertyOp26
 70
     1
102
RTVSPropertyOp27
 70
     1
102
RTVSPropertyOp28
 70
     1
102
RTVSPropertyOp29
 70
     1
102
RTVSPropertyOp30
 70
     1
102
RTVSPropertyOp31
 70
     1
102
RTVSPropertyOp32
 70
     1
102
RTVSPropertyOp33
 70
     1
102
RTVSPropertyOp34
 70
     1
102
RTVSPropertyOp35
 70
     1
102
RTVSPropertyOp36
 70
     1
102
RTVSPropertyOp37
 70
     1
102
RTVSPropertyOp38
 70
     1
102
RTVSPropertyOp39
 70
     1
102
RTVSPropertyOp40
 70
     1
102
RTVSPropertyOp41
 70
     1
102
RTVSPropertyOp42
 70
     1
102
RTVSPropertyOp43
 70
     1
102
RTVSPropertyOp44
 70
     1
102
RTVSPropertyOp45
 70
     1
102
RTVSPropertyOp46
 70
     1
102
RTVSPropertyOp47
 70
     1
102
RTVSPropertyOp48
 70
     1
102
RTVSPropertyOp49
 70
     1
102
RTVSPropertyOp50
 70
     1
102
RTVSPropertyOp51
 70
     0
102
RTVSPropertyOp52
 70
     0
102
RTVSPropertyOp53
 70
     1
102
RTVSPropertyOp54
 70
     1
102
RTVSPropertyOp55
 70
     1
102
RTVSPropertyOp56
 70
     1
102
RTVSPropertyOp57
 70
     1
102
RTVSPropertyOp58
 70
     1
102
RTVSPropertyOp59
 70
     1
102
RTVSPropertyOp60
 70
     1
102
RTVSPropertyOp61
 70
     1
102
RTVSPropertyOp62
 70
     1
  0
XRECORD
  5
30C24
102
{ACAD_REACTORS
330
30C23
102
}
330
30C23
100
AcDbXrecord
280
     1
102
RTVSPost2010Prop28
280
     0
102
RTVSPost2010PropOp28
 70
     0
102
RTVSPost2010Prop29
280
     1
102
RTVSPost2010PropOp29
 70
     0
102
RTVSPost2010Prop30
280
     1
102
RTVSPost2010PropOp30
 70
     0
102
RTVSPost2010Prop31
280
     0
102
RTVSPost2010PropOp31
 70
     0
102
RTVSPost2010Prop32
280
     0
102
RTVSPost2010PropOp32
 70
     0
102
RTVSPost2010Prop33
280
     0
102
RTVSPost2010PropOp33
 70
     0
102
RTVSPost2010Prop34
280
     0
102
RTVSPost2010PropOp34
 70
     0
102
RTVSPost2010Prop35
280
     0
102
RTVSPost2010PropOp35
 70
     0
102
RTVSPost2010Prop36
280
     0
102
RTVSPost2010PropOp36
 70
     0
102
RTVSPost2010Prop37
 90
       50
102
RTVSPost2010PropOp37
 70
     0
102
RTVSPost2010Prop38
140
0.0
102
RTVSPost2010PropOp38
 70
     0
102
RTVSPost2010Prop39
140
1.0
102
RTVSPost2010PropOp39
 70
     0
102
RTVSPost2010Prop40
 90
        0
102
RTVSPost2010PropOp40
 70
     0
102
RTVSPost2010Prop41ColorIndex
 90
       18
102
RTVSPost2010Prop41ColorRGB
 90
        0
102
RTVSPost2010PropOp41
 70
     0
102
RTVSPost2010Prop42
 90
       50
102
RTVSPost2010PropOp42
 70
     0
102
RTVSPost2010Prop43
 90
        3
102
RTVSPost2010PropOp43
 70
     0
102
RTVSPost2010Prop44ColorIndex
 90
        5
102
RTVSPost2010Prop44ColorRGB
 90
      255
102
RTVSPost2010PropOp44
 70
     0
102
RTVSPost2010Prop45
280
     0
102
RTVSPost2010PropOp45
 70
     0
102
RTVSPost2010Prop46
 90
       50
102
RTVSPost2010PropOp46
 70
     0
102
RTVSPost2010Prop47
 90
       50
102
RTVSPost2010PropOp47
 70
     0
102
RTVSPost2010Prop48
 90
       50
102
RTVSPost2010PropOp48
 70
     0
102
RTVSPost2010Prop49
280
     0
102
RTVSPost2010PropOp49
 70
     0
102
RTVSPost2010Prop50
 90
       50
102
RTVSPost2010PropOp50
 70
     0
102
RTVSPost2010Prop51ColorIndex
 90
      256
102
RTVSPost2010Prop51ColorRGB
 90
-16777216
102
RTVSPost2010PropOp51
 70
     0
102
RTVSPost2010Prop52
140
1.0
102
RTVSPost2010PropOp52
 70
     0
102
RTVSPost2010Prop53
 90
        2
102
RTVSPost2010PropOp53
 70
     0
102
RTVSPost2010Prop54
  1
strokes_ogs.tif
102
RTVSPost2010PropOp54
 70
     0
102
RTVSPost2010Prop55
280
     0
102
RTVSPost2010PropOp55
 70
     0
102
RTVSPost2010Prop56
140
1.0
102
RTVSPost2010PropOp56
 70
     0
102
RTVSPost2010Prop57
140
1.0
102
RTVSPost2010PropOp57
 70
     0
102
RTVSPropertyOp0
 70
     0
102
RTVSPropertyOp1
 70
     0
102
RTVSPropertyOp2
 70
     0
102
RTVSPropertyOp3
 70
     0
102
RTVSPropertyOp4
 70
     0
102
RTVSPropertyOp5
 70
     0
102
RTVSPropertyOp6
 70
     0
102
RTVSPropertyOp7
 70
     0
102
RTVSPropertyOp8
 70
     0
102
RTVSPropertyOp9
 70
     0
102
RTVSPropertyOp10
 70
     0
102
RTVSPropertyOp11
 70
     0
102
RTVSPropertyOp12
 70
     0
102
RTVSPropertyOp13
 70
     0
102
RTVSPropertyOp14
 70
     2
102
RTVSPropertyOp15
 70
     0
102
RTVSPropertyOp16
 70
     0
102
RTVSPropertyOp17
 70
     0
102
RTVSPropertyOp18
 70
     0
102
RTVSPropertyOp19
 70
     0
102
RTVSPropertyOp20
 70
     0
102
RTVSPropertyOp21
 70
     0
102
RTVSPropertyOp22
 70
     0
102
RTVSPropertyOp23
 70
     0
102
RTVSPropertyOp24
 70
     0
102
RTVSPropertyOp25
 70
     0
102
RTVSPropertyOp26
 70
     0
102
RTVSPropertyOp27
 70
     0
102
RTVSPropertyOp28
 70
     0
102
RTVSPropertyOp29
 70
     0
102
RTVSPropertyOp30
 70
     0
102
RTVSPropertyOp31
 70
     0
102
RTVSPropertyOp32
 70
     0
102
RTVSPropertyOp33
 70
     0
102
RTVSPropertyOp34
 70
     0
102
RTVSPropertyOp35
 70
     0
102
RTVSPropertyOp36
 70
     0
102
RTVSPropertyOp37
 70
     0
102
RTVSPropertyOp38
 70
     0
102
RTVSPropertyOp39
 70
     0
102
RTVSPropertyOp40
 70
     0
102
RTVSPropertyOp41
 70
     0
102
RTVSPropertyOp42
 70
     0
102
RTVSPropertyOp43
 70
     0
102
RTVSPropertyOp44
 70
     0
102
RTVSPropertyOp45
 70
     0
102
RTVSPropertyOp46
 70
     0
102
RTVSPropertyOp47
 70
     0
102
RTVSPropertyOp48
 70
     0
102
RTVSPropertyOp49
 70
     0
102
RTVSPropertyOp50
 70
     0
102
RTVSPropertyOp51
 70
     0
102
RTVSPropertyOp52
 70
     0
102
RTVSPropertyOp53
 70
     0
102
RTVSPropertyOp54
 70
     0
102
RTVSPropertyOp55
 70
     0
102
RTVSPropertyOp56
 70
     0
102
RTVSPropertyOp57
 70
     0
102
RTVSPropertyOp58
 70
     1
102
RTVSPropertyOp59
 70
     1
102
RTVSPropertyOp60
 70
     1
102
RTVSPropertyOp61
 70
     1
102
RTVSPropertyOp62
 70
     1
  0
XRECORD
  5
30C14
102
{ACAD_REACTORS
330
30C13
102
}
330
30C13
100
AcDbXrecord
280
     1
102
RTVSPost2010Prop28
280
     0
102
RTVSPost2010PropOp28
 70
     1
102
RTVSPost2010Prop29
280
     1
102
RTVSPost2010PropOp29
 70
     1
102
RTVSPost2010Prop30
280
     1
102
RTVSPost2010PropOp30
 70
     1
102
RTVSPost2010Prop31
280
     0
102
RTVSPost2010PropOp31
 70
     1
102
RTVSPost2010Prop32
280
     0
102
RTVSPost2010PropOp32
 70
     1
102
RTVSPost2010Prop33
280
     0
102
RTVSPost2010PropOp33
 70
     1
102
RTVSPost2010Prop34
280
     0
102
RTVSPost2010PropOp34
 70
     1
102
RTVSPost2010Prop35
280
     0
102
RTVSPost2010PropOp35
 70
     1
102
RTVSPost2010Prop36
280
     0
102
RTVSPost2010PropOp36
 70
     1
102
RTVSPost2010Prop37
 90
       50
102
RTVSPost2010PropOp37
 70
     1
102
RTVSPost2010Prop38
140
0.0
102
RTVSPost2010PropOp38
 70
     1
102
RTVSPost2010Prop39
140
1.0
102
RTVSPost2010PropOp39
 70
     1
102
RTVSPost2010Prop40
 90
        0
102
RTVSPost2010PropOp40
 70
     1
102
RTVSPost2010Prop41ColorIndex
 90
       18
102
RTVSPost2010Prop41ColorRGB
 90
        0
102
RTVSPost2010PropOp41
 70
     1
102
RTVSPost2010Prop42
 90
       50
102
RTVSPost2010PropOp42
 70
     1
102
RTVSPost2010Prop43
 90
        3
102
RTVSPost2010PropOp43
 70
     1
102
RTVSPost2010Prop44ColorIndex
 90
        5
102
RTVSPost2010Prop44ColorRGB
 90
      255
102
RTVSPost2010PropOp44
 70
     1
102
RTVSPost2010Prop45
280
     0
102
RTVSPost2010PropOp45
 70
     1
102
RTVSPost2010Prop46
 90
       50
102
RTVSPost2010PropOp46
 70
     1
102
RTVSPost2010Prop47
 90
       50
102
RTVSPost2010PropOp47
 70
     1
102
RTVSPost2010Prop48
 90
       50
102
RTVSPost2010PropOp48
 70
     1
102
RTVSPost2010Prop49
280
     0
102
RTVSPost2010PropOp49
 70
     1
102
RTVSPost2010Prop50
 90
       50
102
RTVSPost2010PropOp50
 70
     1
102
RTVSPost2010Prop51ColorIndex
 90
      256
102
RTVSPost2010Prop51ColorRGB
 90
-16777216
102
RTVSPost2010PropOp51
 70
     0
102
RTVSPost2010Prop52
140
1.0
102
RTVSPost2010PropOp52
 70
     0
102
RTVSPost2010Prop53
 90
        2
102
RTVSPost2010PropOp53
 70
     1
102
RTVSPost2010Prop54
  1
strokes_ogs.tif
102
RTVSPost2010PropOp54
 70
     1
102
RTVSPost2010Prop55
280
     0
102
RTVSPost2010PropOp55
 70
     1
102
RTVSPost2010Prop56
140
1.0
102
RTVSPost2010PropOp56
 70
     1
102
RTVSPost2010Prop57
140
1.0
102
RTVSPost2010PropOp57
 70
     1
102
RTVSPropertyOp0
 70
     1
102
RTVSPropertyOp1
 70
     1
102
RTVSPropertyOp2
 70
     1
102
RTVSPropertyOp3
 70
     1
102
RTVSPropertyOp4
 70
     1
102
RTVSPropertyOp5
 70
     1
102
RTVSPropertyOp6
 70
     1
102
RTVSPropertyOp7
 70
     1
102
RTVSPropertyOp8
 70
     1
102
RTVSPropertyOp9
 70
     1
102
RTVSPropertyOp10
 70
     1
102
RTVSPropertyOp11
 70
     1
102
RTVSPropertyOp12
 70
     1
102
RTVSPropertyOp13
 70
     1
102
RTVSPropertyOp14
 70
     1
102
RTVSPropertyOp15
 70
     1
102
RTVSPropertyOp16
 70
     1
102
RTVSPropertyOp17
 70
     1
102
RTVSPropertyOp18
 70
     1
102
RTVSPropertyOp19
 70
     1
102
RTVSPropertyOp20
 70
     1
102
RTVSPropertyOp21
 70
     1
102
RTVSPropertyOp22
 70
     1
102
RTVSPropertyOp23
 70
     1
102
RTVSPropertyOp24
 70
     1
102
RTVSPropertyOp25
 70
     1
102
RTVSPropertyOp26
 70
     1
102
RTVSPropertyOp27
 70
     1
102
RTVSPropertyOp28
 70
     1
102
RTVSPropertyOp29
 70
     1
102
RTVSPropertyOp30
 70
     1
102
RTVSPropertyOp31
 70
     1
102
RTVSPropertyOp32
 70
     1
102
RTVSPropertyOp33
 70
     1
102
RTVSPropertyOp34
 70
     1
102
RTVSPropertyOp35
 70
     1
102
RTVSPropertyOp36
 70
     1
102
RTVSPropertyOp37
 70
     1
102
RTVSPropertyOp38
 70
     1
102
RTVSPropertyOp39
 70
     1
102
RTVSPropertyOp40
 70
     1
102
RTVSPropertyOp41
 70
     1
102
RTVSPropertyOp42
 70
     1
102
RTVSPropertyOp43
 70
     1
102
RTVSPropertyOp44
 70
     1
102
RTVSPropertyOp45
 70
     1
102
RTVSPropertyOp46
 70
     1
102
RTVSPropertyOp47
 70
     1
102
RTVSPropertyOp48
 70
     1
102
RTVSPropertyOp49
 70
     1
102
RTVSPropertyOp50
 70
     1
102
RTVSPropertyOp51
 70
     0
102
RTVSPropertyOp52
 70
     0
102
RTVSPropertyOp53
 70
     1
102
RTVSPropertyOp54
 70
     1
102
RTVSPropertyOp55
 70
     1
102
RTVSPropertyOp56
 70
     1
102
RTVSPropertyOp57
 70
     1
102
RTVSPropertyOp58
 70
     1
102
RTVSPropertyOp59
 70
     1
102
RTVSPropertyOp60
 70
     1
102
RTVSPropertyOp61
 70
     1
102
RTVSPropertyOp62
 70
     1
  0
XRECORD
  5
30C26
102
{ACAD_REACTORS
330
30C25
102
}
330
30C25
100
AcDbXrecord
280
     1
102
RTVSPost2010Prop28
280
     0
102
RTVSPost2010PropOp28
 70
     0
102
RTVSPost2010Prop29
280
     1
102
RTVSPost2010PropOp29
 70
     0
102
RTVSPost2010Prop30
280
     1
102
RTVSPost2010PropOp30
 70
     0
102
RTVSPost2010Prop31
280
     0
102
RTVSPost2010PropOp31
 70
     0
102
RTVSPost2010Prop32
280
     0
102
RTVSPost2010PropOp32
 70
     0
102
RTVSPost2010Prop33
280
     0
102
RTVSPost2010PropOp33
 70
     0
102
RTVSPost2010Prop34
280
     0
102
RTVSPost2010PropOp34
 70
     0
102
RTVSPost2010Prop35
280
     0
102
RTVSPost2010PropOp35
 70
     0
102
RTVSPost2010Prop36
280
     0
102
RTVSPost2010PropOp36
 70
     0
102
RTVSPost2010Prop37
 90
       50
102
RTVSPost2010PropOp37
 70
     0
102
RTVSPost2010Prop38
140
0.0
102
RTVSPost2010PropOp38
 70
     0
102
RTVSPost2010Prop39
140
1.0
102
RTVSPost2010PropOp39
 70
     0
102
RTVSPost2010Prop40
 90
        0
102
RTVSPost2010PropOp40
 70
     0
102
RTVSPost2010Prop41ColorIndex
 90
       18
102
RTVSPost2010Prop41ColorRGB
 90
        0
102
RTVSPost2010PropOp41
 70
     0
102
RTVSPost2010Prop42
 90
       50
102
RTVSPost2010PropOp42
 70
     0
102
RTVSPost2010Prop43
 90
        3
102
RTVSPost2010PropOp43
 70
     0
102
RTVSPost2010Prop44ColorIndex
 90
        5
102
RTVSPost2010Prop44ColorRGB
 90
      255
102
RTVSPost2010PropOp44
 70
     0
102
RTVSPost2010Prop45
280
     0
102
RTVSPost2010PropOp45
 70
     0
102
RTVSPost2010Prop46
 90
       50
102
RTVSPost2010PropOp46
 70
     0
102
RTVSPost2010Prop47
 90
       50
102
RTVSPost2010PropOp47
 70
     0
102
RTVSPost2010Prop48
 90
       50
102
RTVSPost2010PropOp48
 70
     0
102
RTVSPost2010Prop49
280
     0
102
RTVSPost2010PropOp49
 70
     0
102
RTVSPost2010Prop50
 90
       50
102
RTVSPost2010PropOp50
 70
     0
102
RTVSPost2010Prop51ColorIndex
 90
      256
102
RTVSPost2010Prop51ColorRGB
 90
-16777216
102
RTVSPost2010PropOp51
 70
     0
102
RTVSPost2010Prop52
140
1.0
102
RTVSPost2010PropOp52
 70
     0
102
RTVSPost2010Prop53
 90
        2
102
RTVSPost2010PropOp53
 70
     0
102
RTVSPost2010Prop54
  1
strokes_ogs.tif
102
RTVSPost2010PropOp54
 70
     0
102
RTVSPost2010Prop55
280
     0
102
RTVSPost2010PropOp55
 70
     0
102
RTVSPost2010Prop56
140
1.0
102
RTVSPost2010PropOp56
 70
     0
102
RTVSPost2010Prop57
140
1.0
102
RTVSPost2010PropOp57
 70
     0
102
RTVSPropertyOp0
 70
     0
102
RTVSPropertyOp1
 70
     0
102
RTVSPropertyOp2
 70
     0
102
RTVSPropertyOp3
 70
     0
102
RTVSPropertyOp4
 70
     0
102
RTVSPropertyOp5
 70
     0
102
RTVSPropertyOp6
 70
     0
102
RTVSPropertyOp7
 70
     0
102
RTVSPropertyOp8
 70
     0
102
RTVSPropertyOp9
 70
     0
102
RTVSPropertyOp10
 70
     0
102
RTVSPropertyOp11
 70
     0
102
RTVSPropertyOp12
 70
     0
102
RTVSPropertyOp13
 70
     0
102
RTVSPropertyOp14
 70
     2
102
RTVSPropertyOp15
 70
     0
102
RTVSPropertyOp16
 70
     0
102
RTVSPropertyOp17
 70
     0
102
RTVSPropertyOp18
 70
     0
102
RTVSPropertyOp19
 70
     0
102
RTVSPropertyOp20
 70
     0
102
RTVSPropertyOp21
 70
     0
102
RTVSPropertyOp22
 70
     0
102
RTVSPropertyOp23
 70
     0
102
RTVSPropertyOp24
 70
     0
102
RTVSPropertyOp25
 70
     0
102
RTVSPropertyOp26
 70
     0
102
RTVSPropertyOp27
 70
     0
102
RTVSPropertyOp28
 70
     0
102
RTVSPropertyOp29
 70
     0
102
RTVSPropertyOp30
 70
     0
102
RTVSPropertyOp31
 70
     0
102
RTVSPropertyOp32
 70
     0
102
RTVSPropertyOp33
 70
     0
102
RTVSPropertyOp34
 70
     0
102
RTVSPropertyOp35
 70
     0
102
RTVSPropertyOp36
 70
     0
102
RTVSPropertyOp37
 70
     0
102
RTVSPropertyOp38
 70
     0
102
RTVSPropertyOp39
 70
     0
102
RTVSPropertyOp40
 70
     0
102
RTVSPropertyOp41
 70
     0
102
RTVSPropertyOp42
 70
     0
102
RTVSPropertyOp43
 70
     0
102
RTVSPropertyOp44
 70
     0
102
RTVSPropertyOp45
 70
     0
102
RTVSPropertyOp46
 70
     0
102
RTVSPropertyOp47
 70
     0
102
RTVSPropertyOp48
 70
     0
102
RTVSPropertyOp49
 70
     0
102
RTVSPropertyOp50
 70
     0
102
RTVSPropertyOp51
 70
     0
102
RTVSPropertyOp52
 70
     0
102
RTVSPropertyOp53
 70
     0
102
RTVSPropertyOp54
 70
     0
102
RTVSPropertyOp55
 70
     0
102
RTVSPropertyOp56
 70
     0
102
RTVSPropertyOp57
 70
     0
102
RTVSPropertyOp58
 70
     1
102
RTVSPropertyOp59
 70
     1
102
RTVSPropertyOp60
 70
     1
102
RTVSPropertyOp61
 70
     1
102
RTVSPropertyOp62
 70
     1
  0
XRECORD
  5
30C0C
102
{ACAD_REACTORS
330
30C0B
102
}
330
30C0B
100
AcDbXrecord
280
     1
102
RTVSPost2010Prop28
280
     0
102
RTVSPost2010PropOp28
 70
     1
102
RTVSPost2010Prop29
280
     1
102
RTVSPost2010PropOp29
 70
     1
102
RTVSPost2010Prop30
280
     1
102
RTVSPost2010PropOp30
 70
     1
102
RTVSPost2010Prop31
280
     0
102
RTVSPost2010PropOp31
 70
     1
102
RTVSPost2010Prop32
280
     0
102
RTVSPost2010PropOp32
 70
     1
102
RTVSPost2010Prop33
280
     0
102
RTVSPost2010PropOp33
 70
     1
102
RTVSPost2010Prop34
280
     0
102
RTVSPost2010PropOp34
 70
     1
102
RTVSPost2010Prop35
280
     0
102
RTVSPost2010PropOp35
 70
     1
102
RTVSPost2010Prop36
280
     0
102
RTVSPost2010PropOp36
 70
     1
102
RTVSPost2010Prop37
 90
       50
102
RTVSPost2010PropOp37
 70
     1
102
RTVSPost2010Prop38
140
0.0
102
RTVSPost2010PropOp38
 70
     1
102
RTVSPost2010Prop39
140
1.0
102
RTVSPost2010PropOp39
 70
     1
102
RTVSPost2010Prop40
 90
        0
102
RTVSPost2010PropOp40
 70
     1
102
RTVSPost2010Prop41ColorIndex
 90
       18
102
RTVSPost2010Prop41ColorRGB
 90
        0
102
RTVSPost2010PropOp41
 70
     1
102
RTVSPost2010Prop42
 90
       50
102
RTVSPost2010PropOp42
 70
     1
102
RTVSPost2010Prop43
 90
        3
102
RTVSPost2010PropOp43
 70
     1
102
RTVSPost2010Prop44ColorIndex
 90
        5
102
RTVSPost2010Prop44ColorRGB
 90
      255
102
RTVSPost2010PropOp44
 70
     1
102
RTVSPost2010Prop45
280
     0
102
RTVSPost2010PropOp45
 70
     1
102
RTVSPost2010Prop46
 90
       50
102
RTVSPost2010PropOp46
 70
     1
102
RTVSPost2010Prop47
 90
       50
102
RTVSPost2010PropOp47
 70
     1
102
RTVSPost2010Prop48
 90
       50
102
RTVSPost2010PropOp48
 70
     1
102
RTVSPost2010Prop49
280
     0
102
RTVSPost2010PropOp49
 70
     1
102
RTVSPost2010Prop50
 90
       50
102
RTVSPost2010PropOp50
 70
     1
102
RTVSPost2010Prop51ColorIndex
 90
      256
102
RTVSPost2010Prop51ColorRGB
 90
-16777216
102
RTVSPost2010PropOp51
 70
     0
102
RTVSPost2010Prop52
140
1.0
102
RTVSPost2010PropOp52
 70
     0
102
RTVSPost2010Prop53
 90
        2
102
RTVSPost2010PropOp53
 70
     1
102
RTVSPost2010Prop54
  1
strokes_ogs.tif
102
RTVSPost2010PropOp54
 70
     1
102
RTVSPost2010Prop55
280
     0
102
RTVSPost2010PropOp55
 70
     1
102
RTVSPost2010Prop56
140
1.0
102
RTVSPost2010PropOp56
 70
     1
102
RTVSPost2010Prop57
140
1.0
102
RTVSPost2010PropOp57
 70
     1
102
RTVSPropertyOp0
 70
     1
102
RTVSPropertyOp1
 70
     1
102
RTVSPropertyOp2
 70
     1
102
RTVSPropertyOp3
 70
     1
102
RTVSPropertyOp4
 70
     1
102
RTVSPropertyOp5
 70
     1
102
RTVSPropertyOp6
 70
     1
102
RTVSPropertyOp7
 70
     1
102
RTVSPropertyOp8
 70
     1
102
RTVSPropertyOp9
 70
     1
102
RTVSPropertyOp10
 70
     1
102
RTVSPropertyOp11
 70
     1
102
RTVSPropertyOp12
 70
     1
102
RTVSPropertyOp13
 70
     1
102
RTVSPropertyOp14
 70
     1
102
RTVSPropertyOp15
 70
     1
102
RTVSPropertyOp16
 70
     1
102
RTVSPropertyOp17
 70
     1
102
RTVSPropertyOp18
 70
     1
102
RTVSPropertyOp19
 70
     1
102
RTVSPropertyOp20
 70
     1
102
RTVSPropertyOp21
 70
     1
102
RTVSPropertyOp22
 70
     1
102
RTVSPropertyOp23
 70
     1
102
RTVSPropertyOp24
 70
     1
102
RTVSPropertyOp25
 70
     1
102
RTVSPropertyOp26
 70
     1
102
RTVSPropertyOp27
 70
     1
102
RTVSPropertyOp28
 70
     1
102
RTVSPropertyOp29
 70
     1
102
RTVSPropertyOp30
 70
     1
102
RTVSPropertyOp31
 70
     1
102
RTVSPropertyOp32
 70
     1
102
RTVSPropertyOp33
 70
     1
102
RTVSPropertyOp34
 70
     1
102
RTVSPropertyOp35
 70
     1
102
RTVSPropertyOp36
 70
     1
102
RTVSPropertyOp37
 70
     1
102
RTVSPropertyOp38
 70
     1
102
RTVSPropertyOp39
 70
     1
102
RTVSPropertyOp40
 70
     1
102
RTVSPropertyOp41
 70
     1
102
RTVSPropertyOp42
 70
     1
102
RTVSPropertyOp43
 70
     1
102
RTVSPropertyOp44
 70
     1
102
RTVSPropertyOp45
 70
     1
102
RTVSPropertyOp46
 70
     1
102
RTVSPropertyOp47
 70
     1
102
RTVSPropertyOp48
 70
     1
102
RTVSPropertyOp49
 70
     1
102
RTVSPropertyOp50
 70
     1
102
RTVSPropertyOp51
 70
     0
102
RTVSPropertyOp52
 70
     0
102
RTVSPropertyOp53
 70
     1
102
RTVSPropertyOp54
 70
     1
102
RTVSPropertyOp55
 70
     1
102
RTVSPropertyOp56
 70
     1
102
RTVSPropertyOp57
 70
     1
102
RTVSPropertyOp58
 70
     1
102
RTVSPropertyOp59
 70
     1
102
RTVSPropertyOp60
 70
     1
102
RTVSPropertyOp61
 70
     1
102
RTVSPropertyOp62
 70
     1
  0
XRECORD
  5
30C22
102
{ACAD_REACTORS
330
30C21
102
}
330
30C21
100
AcDbXrecord
280
     1
102
RTVSPost2010Prop28
280
     0
102
RTVSPost2010PropOp28
 70
     1
102
RTVSPost2010Prop29
280
     1
102
RTVSPost2010PropOp29
 70
     1
102
RTVSPost2010Prop30
280
     1
102
RTVSPost2010PropOp30
 70
     1
102
RTVSPost2010Prop31
280
     0
102
RTVSPost2010PropOp31
 70
     1
102
RTVSPost2010Prop32
280
     0
102
RTVSPost2010PropOp32
 70
     1
102
RTVSPost2010Prop33
280
     0
102
RTVSPost2010PropOp33
 70
     1
102
RTVSPost2010Prop34
280
     0
102
RTVSPost2010PropOp34
 70
     1
102
RTVSPost2010Prop35
280
     0
102
RTVSPost2010PropOp35
 70
     1
102
RTVSPost2010Prop36
280
     0
102
RTVSPost2010PropOp36
 70
     1
102
RTVSPost2010Prop37
 90
       50
102
RTVSPost2010PropOp37
 70
     1
102
RTVSPost2010Prop38
140
0.0
102
RTVSPost2010PropOp38
 70
     1
102
RTVSPost2010Prop39
140
1.0
102
RTVSPost2010PropOp39
 70
     1
102
RTVSPost2010Prop40
 90
        0
102
RTVSPost2010PropOp40
 70
     1
102
RTVSPost2010Prop41ColorIndex
 90
       18
102
RTVSPost2010Prop41ColorRGB
 90
        0
102
RTVSPost2010PropOp41
 70
     1
102
RTVSPost2010Prop42
 90
       50
102
RTVSPost2010PropOp42
 70
     1
102
RTVSPost2010Prop43
 90
        3
102
RTVSPost2010PropOp43
 70
     1
102
RTVSPost2010Prop44ColorIndex
 90
        5
102
RTVSPost2010Prop44ColorRGB
 90
      255
102
RTVSPost2010PropOp44
 70
     1
102
RTVSPost2010Prop45
280
     0
102
RTVSPost2010PropOp45
 70
     1
102
RTVSPost2010Prop46
 90
       50
102
RTVSPost2010PropOp46
 70
     1
102
RTVSPost2010Prop47
 90
       50
102
RTVSPost2010PropOp47
 70
     1
102
RTVSPost2010Prop48
 90
       50
102
RTVSPost2010PropOp48
 70
     1
102
RTVSPost2010Prop49
280
     0
102
RTVSPost2010PropOp49
 70
     1
102
RTVSPost2010Prop50
 90
       50
102
RTVSPost2010PropOp50
 70
     1
102
RTVSPost2010Prop51ColorIndex
 90
      256
102
RTVSPost2010Prop51ColorRGB
 90
-16777216
102
RTVSPost2010PropOp51
 70
     0
102
RTVSPost2010Prop52
140
1.0
102
RTVSPost2010PropOp52
 70
     0
102
RTVSPost2010Prop53
 90
        2
102
RTVSPost2010PropOp53
 70
     1
102
RTVSPost2010Prop54
  1
strokes_ogs.tif
102
RTVSPost2010PropOp54
 70
     1
102
RTVSPost2010Prop55
280
     0
102
RTVSPost2010PropOp55
 70
     1
102
RTVSPost2010Prop56
140
1.0
102
RTVSPost2010PropOp56
 70
     1
102
RTVSPost2010Prop57
140
1.0
102
RTVSPost2010PropOp57
 70
     1
102
RTVSPropertyOp0
 70
     1
102
RTVSPropertyOp1
 70
     1
102
RTVSPropertyOp2
 70
     1
102
RTVSPropertyOp3
 70
     1
102
RTVSPropertyOp4
 70
     1
102
RTVSPropertyOp5
 70
     1
102
RTVSPropertyOp6
 70
     1
102
RTVSPropertyOp7
 70
     1
102
RTVSPropertyOp8
 70
     1
102
RTVSPropertyOp9
 70
     1
102
RTVSPropertyOp10
 70
     1
102
RTVSPropertyOp11
 70
     1
102
RTVSPropertyOp12
 70
     1
102
RTVSPropertyOp13
 70
     1
102
RTVSPropertyOp14
 70
     1
102
RTVSPropertyOp15
 70
     1
102
RTVSPropertyOp16
 70
     1
102
RTVSPropertyOp17
 70
     1
102
RTVSPropertyOp18
 70
     1
102
RTVSPropertyOp19
 70
     1
102
RTVSPropertyOp20
 70
     1
102
RTVSPropertyOp21
 70
     1
102
RTVSPropertyOp22
 70
     1
102
RTVSPropertyOp23
 70
     1
102
RTVSPropertyOp24
 70
     1
102
RTVSPropertyOp25
 70
     1
102
RTVSPropertyOp26
 70
     1
102
RTVSPropertyOp27
 70
     1
102
RTVSPropertyOp28
 70
     1
102
RTVSPropertyOp29
 70
     1
102
RTVSPropertyOp30
 70
     1
102
RTVSPropertyOp31
 70
     1
102
RTVSPropertyOp32
 70
     1
102
RTVSPropertyOp33
 70
     1
102
RTVSPropertyOp34
 70
     1
102
RTVSPropertyOp35
 70
     1
102
RTVSPropertyOp36
 70
     1
102
RTVSPropertyOp37
 70
     1
102
RTVSPropertyOp38
 70
     1
102
RTVSPropertyOp39
 70
     1
102
RTVSPropertyOp40
 70
     1
102
RTVSPropertyOp41
 70
     1
102
RTVSPropertyOp42
 70
     1
102
RTVSPropertyOp43
 70
     1
102
RTVSPropertyOp44
 70
     1
102
RTVSPropertyOp45
 70
     1
102
RTVSPropertyOp46
 70
     1
102
RTVSPropertyOp47
 70
     1
102
RTVSPropertyOp48
 70
     1
102
RTVSPropertyOp49
 70
     1
102
RTVSPropertyOp50
 70
     1
102
RTVSPropertyOp51
 70
     0
102
RTVSPropertyOp52
 70
     0
102
RTVSPropertyOp53
 70
     1
102
RTVSPropertyOp54
 70
     1
102
RTVSPropertyOp55
 70
     1
102
RTVSPropertyOp56
 70
     1
102
RTVSPropertyOp57
 70
     1
102
RTVSPropertyOp58
 70
     1
102
RTVSPropertyOp59
 70
     1
102
RTVSPropertyOp60
 70
     1
102
RTVSPropertyOp61
 70
     1
102
RTVSPropertyOp62
 70
     1
  0
XRECORD
  5
30C20
102
{ACAD_REACTORS
330
30C1F
102
}
330
30C1F
100
AcDbXrecord
280
     1
102
RTVSPost2010Prop28
280
     0
102
RTVSPost2010PropOp28
 70
     1
102
RTVSPost2010Prop29
280
     1
102
RTVSPost2010PropOp29
 70
     1
102
RTVSPost2010Prop30
280
     1
102
RTVSPost2010PropOp30
 70
     1
102
RTVSPost2010Prop31
280
     0
102
RTVSPost2010PropOp31
 70
     1
102
RTVSPost2010Prop32
280
     0
102
RTVSPost2010PropOp32
 70
     1
102
RTVSPost2010Prop33
280
     0
102
RTVSPost2010PropOp33
 70
     1
102
RTVSPost2010Prop34
280
     0
102
RTVSPost2010PropOp34
 70
     1
102
RTVSPost2010Prop35
280
     0
102
RTVSPost2010PropOp35
 70
     1
102
RTVSPost2010Prop36
280
     0
102
RTVSPost2010PropOp36
 70
     1
102
RTVSPost2010Prop37
 90
       50
102
RTVSPost2010PropOp37
 70
     1
102
RTVSPost2010Prop38
140
0.0
102
RTVSPost2010PropOp38
 70
     1
102
RTVSPost2010Prop39
140
1.0
102
RTVSPost2010PropOp39
 70
     1
102
RTVSPost2010Prop40
 90
        0
102
RTVSPost2010PropOp40
 70
     1
102
RTVSPost2010Prop41ColorIndex
 90
       18
102
RTVSPost2010Prop41ColorRGB
 90
        0
102
RTVSPost2010PropOp41
 70
     1
102
RTVSPost2010Prop42
 90
       50
102
RTVSPost2010PropOp42
 70
     1
102
RTVSPost2010Prop43
 90
        3
102
RTVSPost2010PropOp43
 70
     1
102
RTVSPost2010Prop44ColorIndex
 90
        5
102
RTVSPost2010Prop44ColorRGB
 90
      255
102
RTVSPost2010PropOp44
 70
     1
102
RTVSPost2010Prop45
280
     0
102
RTVSPost2010PropOp45
 70
     1
102
RTVSPost2010Prop46
 90
       50
102
RTVSPost2010PropOp46
 70
     1
102
RTVSPost2010Prop47
 90
       50
102
RTVSPost2010PropOp47
 70
     1
102
RTVSPost2010Prop48
 90
       50
102
RTVSPost2010PropOp48
 70
     1
102
RTVSPost2010Prop49
280
     0
102
RTVSPost2010PropOp49
 70
     1
102
RTVSPost2010Prop50
 90
       50
102
RTVSPost2010PropOp50
 70
     1
102
RTVSPost2010Prop51ColorIndex
 90
      256
102
RTVSPost2010Prop51ColorRGB
 90
-16777216
102
RTVSPost2010PropOp51
 70
     0
102
RTVSPost2010Prop52
140
1.0
102
RTVSPost2010PropOp52
 70
     0
102
RTVSPost2010Prop53
 90
        2
102
RTVSPost2010PropOp53
 70
     1
102
RTVSPost2010Prop54
  1
strokes_ogs.tif
102
RTVSPost2010PropOp54
 70
     1
102
RTVSPost2010Prop55
280
     0
102
RTVSPost2010PropOp55
 70
     1
102
RTVSPost2010Prop56
140
1.0
102
RTVSPost2010PropOp56
 70
     1
102
RTVSPost2010Prop57
140
1.0
102
RTVSPost2010PropOp57
 70
     1
102
RTVSPropertyOp0
 70
     1
102
RTVSPropertyOp1
 70
     1
102
RTVSPropertyOp2
 70
     1
102
RTVSPropertyOp3
 70
     1
102
RTVSPropertyOp4
 70
     1
102
RTVSPropertyOp5
 70
     1
102
RTVSPropertyOp6
 70
     1
102
RTVSPropertyOp7
 70
     1
102
RTVSPropertyOp8
 70
     1
102
RTVSPropertyOp9
 70
     1
102
RTVSPropertyOp10
 70
     1
102
RTVSPropertyOp11
 70
     1
102
RTVSPropertyOp12
 70
     1
102
RTVSPropertyOp13
 70
     1
102
RTVSPropertyOp14
 70
     1
102
RTVSPropertyOp15
 70
     1
102
RTVSPropertyOp16
 70
     1
102
RTVSPropertyOp17
 70
     1
102
RTVSPropertyOp18
 70
     1
102
RTVSPropertyOp19
 70
     1
102
RTVSPropertyOp20
 70
     1
102
RTVSPropertyOp21
 70
     1
102
RTVSPropertyOp22
 70
     1
102
RTVSPropertyOp23
 70
     1
102
RTVSPropertyOp24
 70
     1
102
RTVSPropertyOp25
 70
     1
102
RTVSPropertyOp26
 70
     1
102
RTVSPropertyOp27
 70
     1
102
RTVSPropertyOp28
 70
     1
102
RTVSPropertyOp29
 70
     1
102
RTVSPropertyOp30
 70
     1
102
RTVSPropertyOp31
 70
     1
102
RTVSPropertyOp32
 70
     1
102
RTVSPropertyOp33
 70
     1
102
RTVSPropertyOp34
 70
     1
102
RTVSPropertyOp35
 70
     1
102
RTVSPropertyOp36
 70
     1
102
RTVSPropertyOp37
 70
     1
102
RTVSPropertyOp38
 70
     1
102
RTVSPropertyOp39
 70
     1
102
RTVSPropertyOp40
 70
     1
102
RTVSPropertyOp41
 70
     1
102
RTVSPropertyOp42
 70
     1
102
RTVSPropertyOp43
 70
     1
102
RTVSPropertyOp44
 70
     1
102
RTVSPropertyOp45
 70
     1
102
RTVSPropertyOp46
 70
     1
102
RTVSPropertyOp47
 70
     1
102
RTVSPropertyOp48
 70
     1
102
RTVSPropertyOp49
 70
     1
102
RTVSPropertyOp50
 70
     1
102
RTVSPropertyOp51
 70
     0
102
RTVSPropertyOp52
 70
     0
102
RTVSPropertyOp53
 70
     1
102
RTVSPropertyOp54
 70
     1
102
RTVSPropertyOp55
 70
     1
102
RTVSPropertyOp56
 70
     1
102
RTVSPropertyOp57
 70
     1
102
RTVSPropertyOp58
 70
     1
102
RTVSPropertyOp59
 70
     1
102
RTVSPropertyOp60
 70
     1
102
RTVSPropertyOp61
 70
     1
102
RTVSPropertyOp62
 70
     1
  0
XRECORD
  5
30C1A
102
{ACAD_REACTORS
330
30C19
102
}
330
30C19
100
AcDbXrecord
280
     1
102
RTVSPost2010Prop28
280
     0
102
RTVSPost2010PropOp28
 70
     1
102
RTVSPost2010Prop29
280
     1
102
RTVSPost2010PropOp29
 70
     1
102
RTVSPost2010Prop30
280
     1
102
RTVSPost2010PropOp30
 70
     1
102
RTVSPost2010Prop31
280
     0
102
RTVSPost2010PropOp31
 70
     1
102
RTVSPost2010Prop32
280
     0
102
RTVSPost2010PropOp32
 70
     1
102
RTVSPost2010Prop33
280
     0
102
RTVSPost2010PropOp33
 70
     1
102
RTVSPost2010Prop34
280
     0
102
RTVSPost2010PropOp34
 70
     1
102
RTVSPost2010Prop35
280
     0
102
RTVSPost2010PropOp35
 70
     1
102
RTVSPost2010Prop36
280
     0
102
RTVSPost2010PropOp36
 70
     1
102
RTVSPost2010Prop37
 90
       50
102
RTVSPost2010PropOp37
 70
     1
102
RTVSPost2010Prop38
140
0.0
102
RTVSPost2010PropOp38
 70
     1
102
RTVSPost2010Prop39
140
1.0
102
RTVSPost2010PropOp39
 70
     1
102
RTVSPost2010Prop40
 90
        0
102
RTVSPost2010PropOp40
 70
     1
102
RTVSPost2010Prop41ColorIndex
 90
       18
102
RTVSPost2010Prop41ColorRGB
 90
        0
102
RTVSPost2010PropOp41
 70
     1
102
RTVSPost2010Prop42
 90
       50
102
RTVSPost2010PropOp42
 70
     1
102
RTVSPost2010Prop43
 90
        3
102
RTVSPost2010PropOp43
 70
     1
102
RTVSPost2010Prop44ColorIndex
 90
        5
102
RTVSPost2010Prop44ColorRGB
 90
      255
102
RTVSPost2010PropOp44
 70
     1
102
RTVSPost2010Prop45
280
     0
102
RTVSPost2010PropOp45
 70
     1
102
RTVSPost2010Prop46
 90
       50
102
RTVSPost2010PropOp46
 70
     1
102
RTVSPost2010Prop47
 90
       50
102
RTVSPost2010PropOp47
 70
     1
102
RTVSPost2010Prop48
 90
       50
102
RTVSPost2010PropOp48
 70
     1
102
RTVSPost2010Prop49
280
     0
102
RTVSPost2010PropOp49
 70
     1
102
RTVSPost2010Prop50
 90
       50
102
RTVSPost2010PropOp50
 70
     1
102
RTVSPost2010Prop51ColorIndex
 90
      256
102
RTVSPost2010Prop51ColorRGB
 90
-16777216
102
RTVSPost2010PropOp51
 70
     0
102
RTVSPost2010Prop52
140
1.0
102
RTVSPost2010PropOp52
 70
     0
102
RTVSPost2010Prop53
 90
        2
102
RTVSPost2010PropOp53
 70
     1
102
RTVSPost2010Prop54
  1
strokes_ogs.tif
102
RTVSPost2010PropOp54
 70
     1
102
RTVSPost2010Prop55
280
     0
102
RTVSPost2010PropOp55
 70
     1
102
RTVSPost2010Prop56
140
1.0
102
RTVSPost2010PropOp56
 70
     1
102
RTVSPost2010Prop57
140
1.0
102
RTVSPost2010PropOp57
 70
     1
102
RTVSPropertyOp0
 70
     1
102
RTVSPropertyOp1
 70
     1
102
RTVSPropertyOp2
 70
     1
102
RTVSPropertyOp3
 70
     1
102
RTVSPropertyOp4
 70
     1
102
RTVSPropertyOp5
 70
     1
102
RTVSPropertyOp6
 70
     1
102
RTVSPropertyOp7
 70
     1
102
RTVSPropertyOp8
 70
     1
102
RTVSPropertyOp9
 70
     1
102
RTVSPropertyOp10
 70
     1
102
RTVSPropertyOp11
 70
     1
102
RTVSPropertyOp12
 70
     1
102
RTVSPropertyOp13
 70
     1
102
RTVSPropertyOp14
 70
     1
102
RTVSPropertyOp15
 70
     1
102
RTVSPropertyOp16
 70
     1
102
RTVSPropertyOp17
 70
     1
102
RTVSPropertyOp18
 70
     1
102
RTVSPropertyOp19
 70
     1
102
RTVSPropertyOp20
 70
     1
102
RTVSPropertyOp21
 70
     1
102
RTVSPropertyOp22
 70
     1
102
RTVSPropertyOp23
 70
     1
102
RTVSPropertyOp24
 70
     1
102
RTVSPropertyOp25
 70
     1
102
RTVSPropertyOp26
 70
     1
102
RTVSPropertyOp27
 70
     1
102
RTVSPropertyOp28
 70
     1
102
RTVSPropertyOp29
 70
     1
102
RTVSPropertyOp30
 70
     1
102
RTVSPropertyOp31
 70
     1
102
RTVSPropertyOp32
 70
     1
102
RTVSPropertyOp33
 70
     1
102
RTVSPropertyOp34
 70
     1
102
RTVSPropertyOp35
 70
     1
102
RTVSPropertyOp36
 70
     1
102
RTVSPropertyOp37
 70
     1
102
RTVSPropertyOp38
 70
     1
102
RTVSPropertyOp39
 70
     1
102
RTVSPropertyOp40
 70
     1
102
RTVSPropertyOp41
 70
     1
102
RTVSPropertyOp42
 70
     1
102
RTVSPropertyOp43
 70
     1
102
RTVSPropertyOp44
 70
     1
102
RTVSPropertyOp45
 70
     1
102
RTVSPropertyOp46
 70
     1
102
RTVSPropertyOp47
 70
     1
102
RTVSPropertyOp48
 70
     1
102
RTVSPropertyOp49
 70
     1
102
RTVSPropertyOp50
 70
     1
102
RTVSPropertyOp51
 70
     0
102
RTVSPropertyOp52
 70
     0
102
RTVSPropertyOp53
 70
     1
102
RTVSPropertyOp54
 70
     1
102
RTVSPropertyOp55
 70
     1
102
RTVSPropertyOp56
 70
     1
102
RTVSPropertyOp57
 70
     1
102
RTVSPropertyOp58
 70
     1
102
RTVSPropertyOp59
 70
     1
102
RTVSPropertyOp60
 70
     1
102
RTVSPropertyOp61
 70
     1
102
RTVSPropertyOp62
 70
     1
  0
XRECORD
  5
30C1C
102
{ACAD_REACTORS
330
30C1B
102
}
330
30C1B
100
AcDbXrecord
280
     1
102
RTVSPost2010Prop28
280
     0
102
RTVSPost2010PropOp28
 70
     1
102
RTVSPost2010Prop29
280
     1
102
RTVSPost2010PropOp29
 70
     1
102
RTVSPost2010Prop30
280
     1
102
RTVSPost2010PropOp30
 70
     1
102
RTVSPost2010Prop31
280
     0
102
RTVSPost2010PropOp31
 70
     1
102
RTVSPost2010Prop32
280
     0
102
RTVSPost2010PropOp32
 70
     1
102
RTVSPost2010Prop33
280
     0
102
RTVSPost2010PropOp33
 70
     1
102
RTVSPost2010Prop34
280
     0
102
RTVSPost2010PropOp34
 70
     1
102
RTVSPost2010Prop35
280
     0
102
RTVSPost2010PropOp35
 70
     1
102
RTVSPost2010Prop36
280
     0
102
RTVSPost2010PropOp36
 70
     1
102
RTVSPost2010Prop37
 90
       50
102
RTVSPost2010PropOp37
 70
     1
102
RTVSPost2010Prop38
140
0.0
102
RTVSPost2010PropOp38
 70
     1
102
RTVSPost2010Prop39
140
1.0
102
RTVSPost2010PropOp39
 70
     1
102
RTVSPost2010Prop40
 90
        0
102
RTVSPost2010PropOp40
 70
     1
102
RTVSPost2010Prop41ColorIndex
 90
       18
102
RTVSPost2010Prop41ColorRGB
 90
        0
102
RTVSPost2010PropOp41
 70
     1
102
RTVSPost2010Prop42
 90
       50
102
RTVSPost2010PropOp42
 70
     1
102
RTVSPost2010Prop43
 90
        3
102
RTVSPost2010PropOp43
 70
     1
102
RTVSPost2010Prop44ColorIndex
 90
        5
102
RTVSPost2010Prop44ColorRGB
 90
      255
102
RTVSPost2010PropOp44
 70
     1
102
RTVSPost2010Prop45
280
     0
102
RTVSPost2010PropOp45
 70
     1
102
RTVSPost2010Prop46
 90
       50
102
RTVSPost2010PropOp46
 70
     1
102
RTVSPost2010Prop47
 90
       50
102
RTVSPost2010PropOp47
 70
     1
102
RTVSPost2010Prop48
 90
       50
102
RTVSPost2010PropOp48
 70
     1
102
RTVSPost2010Prop49
280
     0
102
RTVSPost2010PropOp49
 70
     1
102
RTVSPost2010Prop50
 90
       50
102
RTVSPost2010PropOp50
 70
     1
102
RTVSPost2010Prop51ColorIndex
 90
      256
102
RTVSPost2010Prop51ColorRGB
 90
-16777216
102
RTVSPost2010PropOp51
 70
     0
102
RTVSPost2010Prop52
140
1.0
102
RTVSPost2010PropOp52
 70
     0
102
RTVSPost2010Prop53
 90
        2
102
RTVSPost2010PropOp53
 70
     1
102
RTVSPost2010Prop54
  1
strokes_ogs.tif
102
RTVSPost2010PropOp54
 70
     1
102
RTVSPost2010Prop55
280
     0
102
RTVSPost2010PropOp55
 70
     1
102
RTVSPost2010Prop56
140
1.0
102
RTVSPost2010PropOp56
 70
     1
102
RTVSPost2010Prop57
140
1.0
102
RTVSPost2010PropOp57
 70
     1
102
RTVSPropertyOp0
 70
     1
102
RTVSPropertyOp1
 70
     1
102
RTVSPropertyOp2
 70
     1
102
RTVSPropertyOp3
 70
     1
102
RTVSPropertyOp4
 70
     1
102
RTVSPropertyOp5
 70
     1
102
RTVSPropertyOp6
 70
     1
102
RTVSPropertyOp7
 70
     1
102
RTVSPropertyOp8
 70
     1
102
RTVSPropertyOp9
 70
     1
102
RTVSPropertyOp10
 70
     1
102
RTVSPropertyOp11
 70
     1
102
RTVSPropertyOp12
 70
     1
102
RTVSPropertyOp13
 70
     1
102
RTVSPropertyOp14
 70
     1
102
RTVSPropertyOp15
 70
     1
102
RTVSPropertyOp16
 70
     1
102
RTVSPropertyOp17
 70
     1
102
RTVSPropertyOp18
 70
     1
102
RTVSPropertyOp19
 70
     1
102
RTVSPropertyOp20
 70
     1
102
RTVSPropertyOp21
 70
     1
102
RTVSPropertyOp22
 70
     1
102
RTVSPropertyOp23
 70
     1
102
RTVSPropertyOp24
 70
     1
102
RTVSPropertyOp25
 70
     1
102
RTVSPropertyOp26
 70
     1
102
RTVSPropertyOp27
 70
     1
102
RTVSPropertyOp28
 70
     1
102
RTVSPropertyOp29
 70
     1
102
RTVSPropertyOp30
 70
     1
102
RTVSPropertyOp31
 70
     1
102
RTVSPropertyOp32
 70
     1
102
RTVSPropertyOp33
 70
     1
102
RTVSPropertyOp34
 70
     1
102
RTVSPropertyOp35
 70
     1
102
RTVSPropertyOp36
 70
     1
102
RTVSPropertyOp37
 70
     1
102
RTVSPropertyOp38
 70
     1
102
RTVSPropertyOp39
 70
     1
102
RTVSPropertyOp40
 70
     1
102
RTVSPropertyOp41
 70
     1
102
RTVSPropertyOp42
 70
     1
102
RTVSPropertyOp43
 70
     1
102
RTVSPropertyOp44
 70
     1
102
RTVSPropertyOp45
 70
     1
102
RTVSPropertyOp46
 70
     1
102
RTVSPropertyOp47
 70
     1
102
RTVSPropertyOp48
 70
     1
102
RTVSPropertyOp49
 70
     1
102
RTVSPropertyOp50
 70
     1
102
RTVSPropertyOp51
 70
     0
102
RTVSPropertyOp52
 70
     0
102
RTVSPropertyOp53
 70
     1
102
RTVSPropertyOp54
 70
     1
102
RTVSPropertyOp55
 70
     1
102
RTVSPropertyOp56
 70
     1
102
RTVSPropertyOp57
 70
     1
102
RTVSPropertyOp58
 70
     1
102
RTVSPropertyOp59
 70
     1
102
RTVSPropertyOp60
 70
     1
102
RTVSPropertyOp61
 70
     1
102
RTVSPropertyOp62
 70
     1
  0
XRECORD
  5
30C12
102
{ACAD_REACTORS
330
30C11
102
}
330
30C11
100
AcDbXrecord
280
     1
102
RTVSPost2010Prop28
280
     0
102
RTVSPost2010PropOp28
 70
     1
102
RTVSPost2010Prop29
280
     1
102
RTVSPost2010PropOp29
 70
     1
102
RTVSPost2010Prop30
280
     1
102
RTVSPost2010PropOp30
 70
     1
102
RTVSPost2010Prop31
280
     0
102
RTVSPost2010PropOp31
 70
     1
102
RTVSPost2010Prop32
280
     0
102
RTVSPost2010PropOp32
 70
     1
102
RTVSPost2010Prop33
280
     0
102
RTVSPost2010PropOp33
 70
     1
102
RTVSPost2010Prop34
280
     0
102
RTVSPost2010PropOp34
 70
     1
102
RTVSPost2010Prop35
280
     0
102
RTVSPost2010PropOp35
 70
     1
102
RTVSPost2010Prop36
280
     0
102
RTVSPost2010PropOp36
 70
     1
102
RTVSPost2010Prop37
 90
       50
102
RTVSPost2010PropOp37
 70
     1
102
RTVSPost2010Prop38
140
0.0
102
RTVSPost2010PropOp38
 70
     1
102
RTVSPost2010Prop39
140
1.0
102
RTVSPost2010PropOp39
 70
     1
102
RTVSPost2010Prop40
 90
        0
102
RTVSPost2010PropOp40
 70
     1
102
RTVSPost2010Prop41ColorIndex
 90
       18
102
RTVSPost2010Prop41ColorRGB
 90
        0
102
RTVSPost2010PropOp41
 70
     1
102
RTVSPost2010Prop42
 90
       50
102
RTVSPost2010PropOp42
 70
     1
102
RTVSPost2010Prop43
 90
        3
102
RTVSPost2010PropOp43
 70
     1
102
RTVSPost2010Prop44ColorIndex
 90
        5
102
RTVSPost2010Prop44ColorRGB
 90
      255
102
RTVSPost2010PropOp44
 70
     1
102
RTVSPost2010Prop45
280
     0
102
RTVSPost2010PropOp45
 70
     1
102
RTVSPost2010Prop46
 90
       50
102
RTVSPost2010PropOp46
 70
     1
102
RTVSPost2010Prop47
 90
       50
102
RTVSPost2010PropOp47
 70
     1
102
RTVSPost2010Prop48
 90
       50
102
RTVSPost2010PropOp48
 70
     1
102
RTVSPost2010Prop49
280
     0
102
RTVSPost2010PropOp49
 70
     1
102
RTVSPost2010Prop50
 90
       50
102
RTVSPost2010PropOp50
 70
     1
102
RTVSPost2010Prop51ColorIndex
 90
      256
102
RTVSPost2010Prop51ColorRGB
 90
-16777216
102
RTVSPost2010PropOp51
 70
     0
102
RTVSPost2010Prop52
140
1.0
102
RTVSPost2010PropOp52
 70
     0
102
RTVSPost2010Prop53
 90
        2
102
RTVSPost2010PropOp53
 70
     1
102
RTVSPost2010Prop54
  1
strokes_ogs.tif
102
RTVSPost2010PropOp54
 70
     1
102
RTVSPost2010Prop55
280
     0
102
RTVSPost2010PropOp55
 70
     1
102
RTVSPost2010Prop56
140
1.0
102
RTVSPost2010PropOp56
 70
     1
102
RTVSPost2010Prop57
140
1.0
102
RTVSPost2010PropOp57
 70
     1
102
RTVSPropertyOp0
 70
     1
102
RTVSPropertyOp1
 70
     1
102
RTVSPropertyOp2
 70
     1
102
RTVSPropertyOp3
 70
     1
102
RTVSPropertyOp4
 70
     1
102
RTVSPropertyOp5
 70
     1
102
RTVSPropertyOp6
 70
     1
102
RTVSPropertyOp7
 70
     1
102
RTVSPropertyOp8
 70
     1
102
RTVSPropertyOp9
 70
     1
102
RTVSPropertyOp10
 70
     1
102
RTVSPropertyOp11
 70
     1
102
RTVSPropertyOp12
 70
     1
102
RTVSPropertyOp13
 70
     1
102
RTVSPropertyOp14
 70
     1
102
RTVSPropertyOp15
 70
     1
102
RTVSPropertyOp16
 70
     1
102
RTVSPropertyOp17
 70
     1
102
RTVSPropertyOp18
 70
     1
102
RTVSPropertyOp19
 70
     1
102
RTVSPropertyOp20
 70
     1
102
RTVSPropertyOp21
 70
     1
102
RTVSPropertyOp22
 70
     1
102
RTVSPropertyOp23
 70
     1
102
RTVSPropertyOp24
 70
     1
102
RTVSPropertyOp25
 70
     1
102
RTVSPropertyOp26
 70
     1
102
RTVSPropertyOp27
 70
     1
102
RTVSPropertyOp28
 70
     1
102
RTVSPropertyOp29
 70
     1
102
RTVSPropertyOp30
 70
     1
102
RTVSPropertyOp31
 70
     1
102
RTVSPropertyOp32
 70
     1
102
RTVSPropertyOp33
 70
     1
102
RTVSPropertyOp34
 70
     1
102
RTVSPropertyOp35
 70
     1
102
RTVSPropertyOp36
 70
     1
102
RTVSPropertyOp37
 70
     1
102
RTVSPropertyOp38
 70
     1
102
RTVSPropertyOp39
 70
     1
102
RTVSPropertyOp40
 70
     1
102
RTVSPropertyOp41
 70
     1
102
RTVSPropertyOp42
 70
     1
102
RTVSPropertyOp43
 70
     1
102
RTVSPropertyOp44
 70
     1
102
RTVSPropertyOp45
 70
     1
102
RTVSPropertyOp46
 70
     1
102
RTVSPropertyOp47
 70
     1
102
RTVSPropertyOp48
 70
     1
102
RTVSPropertyOp49
 70
     1
102
RTVSPropertyOp50
 70
     1
102
RTVSPropertyOp51
 70
     0
102
RTVSPropertyOp52
 70
     0
102
RTVSPropertyOp53
 70
     1
102
RTVSPropertyOp54
 70
     1
102
RTVSPropertyOp55
 70
     1
102
RTVSPropertyOp56
 70
     1
102
RTVSPropertyOp57
 70
     1
102
RTVSPropertyOp58
 70
     1
102
RTVSPropertyOp59
 70
     1
102
RTVSPropertyOp60
 70
     1
102
RTVSPropertyOp61
 70
     1
102
RTVSPropertyOp62
 70
     1
  0
XRECORD
  5
30C06
102
{ACAD_REACTORS
330
30C05
102
}
330
30C05
100
AcDbXrecord
280
     1
102
RTVSPost2010Prop28
280
     0
102
RTVSPost2010PropOp28
 70
     1
102
RTVSPost2010Prop29
280
     1
102
RTVSPost2010PropOp29
 70
     1
102
RTVSPost2010Prop30
280
     1
102
RTVSPost2010PropOp30
 70
     1
102
RTVSPost2010Prop31
280
     0
102
RTVSPost2010PropOp31
 70
     1
102
RTVSPost2010Prop32
280
     0
102
RTVSPost2010PropOp32
 70
     1
102
RTVSPost2010Prop33
280
     0
102
RTVSPost2010PropOp33
 70
     1
102
RTVSPost2010Prop34
280
     0
102
RTVSPost2010PropOp34
 70
     1
102
RTVSPost2010Prop35
280
     0
102
RTVSPost2010PropOp35
 70
     1
102
RTVSPost2010Prop36
280
     0
102
RTVSPost2010PropOp36
 70
     1
102
RTVSPost2010Prop37
 90
       50
102
RTVSPost2010PropOp37
 70
     1
102
RTVSPost2010Prop38
140
0.0
102
RTVSPost2010PropOp38
 70
     1
102
RTVSPost2010Prop39
140
1.0
102
RTVSPost2010PropOp39
 70
     1
102
RTVSPost2010Prop40
 90
        0
102
RTVSPost2010PropOp40
 70
     1
102
RTVSPost2010Prop41ColorIndex
 90
       18
102
RTVSPost2010Prop41ColorRGB
 90
        0
102
RTVSPost2010PropOp41
 70
     1
102
RTVSPost2010Prop42
 90
       50
102
RTVSPost2010PropOp42
 70
     1
102
RTVSPost2010Prop43
 90
        3
102
RTVSPost2010PropOp43
 70
     1
102
RTVSPost2010Prop44ColorIndex
 90
        5
102
RTVSPost2010Prop44ColorRGB
 90
      255
102
RTVSPost2010PropOp44
 70
     1
102
RTVSPost2010Prop45
280
     0
102
RTVSPost2010PropOp45
 70
     1
102
RTVSPost2010Prop46
 90
       50
102
RTVSPost2010PropOp46
 70
     1
102
RTVSPost2010Prop47
 90
       50
102
RTVSPost2010PropOp47
 70
     1
102
RTVSPost2010Prop48
 90
       50
102
RTVSPost2010PropOp48
 70
     1
102
RTVSPost2010Prop49
280
     0
102
RTVSPost2010PropOp49
 70
     1
102
RTVSPost2010Prop50
 90
       50
102
RTVSPost2010PropOp50
 70
     1
102
RTVSPost2010Prop51ColorIndex
 90
      256
102
RTVSPost2010Prop51ColorRGB
 90
-16777216
102
RTVSPost2010PropOp51
 70
     0
102
RTVSPost2010Prop52
140
1.0
102
RTVSPost2010PropOp52
 70
     0
102
RTVSPost2010Prop53
 90
        2
102
RTVSPost2010PropOp53
 70
     1
102
RTVSPost2010Prop54
  1
strokes_ogs.tif
102
RTVSPost2010PropOp54
 70
     1
102
RTVSPost2010Prop55
280
     0
102
RTVSPost2010PropOp55
 70
     1
102
RTVSPost2010Prop56
140
1.0
102
RTVSPost2010PropOp56
 70
     1
102
RTVSPost2010Prop57
140
1.0
102
RTVSPost2010PropOp57
 70
     1
102
RTVSPropertyOp0
 70
     1
102
RTVSPropertyOp1
 70
     1
102
RTVSPropertyOp2
 70
     1
102
RTVSPropertyOp3
 70
     1
102
RTVSPropertyOp4
 70
     1
102
RTVSPropertyOp5
 70
     1
102
RTVSPropertyOp6
 70
     1
102
RTVSPropertyOp7
 70
     1
102
RTVSPropertyOp8
 70
     1
102
RTVSPropertyOp9
 70
     1
102
RTVSPropertyOp10
 70
     1
102
RTVSPropertyOp11
 70
     1
102
RTVSPropertyOp12
 70
     1
102
RTVSPropertyOp13
 70
     1
102
RTVSPropertyOp14
 70
     1
102
RTVSPropertyOp15
 70
     1
102
RTVSPropertyOp16
 70
     1
102
RTVSPropertyOp17
 70
     1
102
RTVSPropertyOp18
 70
     1
102
RTVSPropertyOp19
 70
     1
102
RTVSPropertyOp20
 70
     1
102
RTVSPropertyOp21
 70
     1
102
RTVSPropertyOp22
 70
     1
102
RTVSPropertyOp23
 70
     1
102
RTVSPropertyOp24
 70
     1
102
RTVSPropertyOp25
 70
     1
102
RTVSPropertyOp26
 70
     1
102
RTVSPropertyOp27
 70
     1
102
RTVSPropertyOp28
 70
     1
102
RTVSPropertyOp29
 70
     1
102
RTVSPropertyOp30
 70
     1
102
RTVSPropertyOp31
 70
     1
102
RTVSPropertyOp32
 70
     1
102
RTVSPropertyOp33
 70
     1
102
RTVSPropertyOp34
 70
     1
102
RTVSPropertyOp35
 70
     1
102
RTVSPropertyOp36
 70
     1
102
RTVSPropertyOp37
 70
     1
102
RTVSPropertyOp38
 70
     1
102
RTVSPropertyOp39
 70
     1
102
RTVSPropertyOp40
 70
     1
102
RTVSPropertyOp41
 70
     1
102
RTVSPropertyOp42
 70
     1
102
RTVSPropertyOp43
 70
     1
102
RTVSPropertyOp44
 70
     1
102
RTVSPropertyOp45
 70
     1
102
RTVSPropertyOp46
 70
     1
102
RTVSPropertyOp47
 70
     1
102
RTVSPropertyOp48
 70
     1
102
RTVSPropertyOp49
 70
     1
102
RTVSPropertyOp50
 70
     1
102
RTVSPropertyOp51
 70
     0
102
RTVSPropertyOp52
 70
     0
102
RTVSPropertyOp53
 70
     1
102
RTVSPropertyOp54
 70
     1
102
RTVSPropertyOp55
 70
     1
102
RTVSPropertyOp56
 70
     1
102
RTVSPropertyOp57
 70
     1
102
RTVSPropertyOp58
 70
     1
102
RTVSPropertyOp59
 70
     1
102
RTVSPropertyOp60
 70
     1
102
RTVSPropertyOp61
 70
     1
102
RTVSPropertyOp62
 70
     1
  0
XRECORD
  5
30C1E
102
{ACAD_REACTORS
330
30C1D
102
}
330
30C1D
100
AcDbXrecord
280
     1
102
RTVSPost2010Prop28
280
     0
102
RTVSPost2010PropOp28
 70
     1
102
RTVSPost2010Prop29
280
     1
102
RTVSPost2010PropOp29
 70
     1
102
RTVSPost2010Prop30
280
     1
102
RTVSPost2010PropOp30
 70
     1
102
RTVSPost2010Prop31
280
     0
102
RTVSPost2010PropOp31
 70
     1
102
RTVSPost2010Prop32
280
     0
102
RTVSPost2010PropOp32
 70
     1
102
RTVSPost2010Prop33
280
     0
102
RTVSPost2010PropOp33
 70
     1
102
RTVSPost2010Prop34
280
     0
102
RTVSPost2010PropOp34
 70
     1
102
RTVSPost2010Prop35
280
     0
102
RTVSPost2010PropOp35
 70
     1
102
RTVSPost2010Prop36
280
     0
102
RTVSPost2010PropOp36
 70
     1
102
RTVSPost2010Prop37
 90
       50
102
RTVSPost2010PropOp37
 70
     1
102
RTVSPost2010Prop38
140
0.0
102
RTVSPost2010PropOp38
 70
     1
102
RTVSPost2010Prop39
140
1.0
102
RTVSPost2010PropOp39
 70
     1
102
RTVSPost2010Prop40
 90
        0
102
RTVSPost2010PropOp40
 70
     1
102
RTVSPost2010Prop41ColorIndex
 90
       18
102
RTVSPost2010Prop41ColorRGB
 90
        0
102
RTVSPost2010PropOp41
 70
     1
102
RTVSPost2010Prop42
 90
       50
102
RTVSPost2010PropOp42
 70
     1
102
RTVSPost2010Prop43
 90
        3
102
RTVSPost2010PropOp43
 70
     1
102
RTVSPost2010Prop44ColorIndex
 90
        5
102
RTVSPost2010Prop44ColorRGB
 90
      255
102
RTVSPost2010PropOp44
 70
     1
102
RTVSPost2010Prop45
280
     0
102
RTVSPost2010PropOp45
 70
     1
102
RTVSPost2010Prop46
 90
       50
102
RTVSPost2010PropOp46
 70
     1
102
RTVSPost2010Prop47
 90
       50
102
RTVSPost2010PropOp47
 70
     1
102
RTVSPost2010Prop48
 90
       50
102
RTVSPost2010PropOp48
 70
     1
102
RTVSPost2010Prop49
280
     0
102
RTVSPost2010PropOp49
 70
     1
102
RTVSPost2010Prop50
 90
       50
102
RTVSPost2010PropOp50
 70
     1
102
RTVSPost2010Prop51ColorIndex
 90
      256
102
RTVSPost2010Prop51ColorRGB
 90
-16777216
102
RTVSPost2010PropOp51
 70
     0
102
RTVSPost2010Prop52
140
1.0
102
RTVSPost2010PropOp52
 70
     0
102
RTVSPost2010Prop53
 90
        2
102
RTVSPost2010PropOp53
 70
     1
102
RTVSPost2010Prop54
  1
strokes_ogs.tif
102
RTVSPost2010PropOp54
 70
     1
102
RTVSPost2010Prop55
280
     0
102
RTVSPost2010PropOp55
 70
     1
102
RTVSPost2010Prop56
140
1.0
102
RTVSPost2010PropOp56
 70
     1
102
RTVSPost2010Prop57
140
1.0
102
RTVSPost2010PropOp57
 70
     1
102
RTVSPropertyOp0
 70
     1
102
RTVSPropertyOp1
 70
     1
102
RTVSPropertyOp2
 70
     1
102
RTVSPropertyOp3
 70
     1
102
RTVSPropertyOp4
 70
     1
102
RTVSPropertyOp5
 70
     1
102
RTVSPropertyOp6
 70
     1
102
RTVSPropertyOp7
 70
     1
102
RTVSPropertyOp8
 70
     1
102
RTVSPropertyOp9
 70
     1
102
RTVSPropertyOp10
 70
     1
102
RTVSPropertyOp11
 70
     1
102
RTVSPropertyOp12
 70
     1
102
RTVSPropertyOp13
 70
     1
102
RTVSPropertyOp14
 70
     1
102
RTVSPropertyOp15
 70
     1
102
RTVSPropertyOp16
 70
     1
102
RTVSPropertyOp17
 70
     1
102
RTVSPropertyOp18
 70
     1
102
RTVSPropertyOp19
 70
     1
102
RTVSPropertyOp20
 70
     1
102
RTVSPropertyOp21
 70
     1
102
RTVSPropertyOp22
 70
     1
102
RTVSPropertyOp23
 70
     1
102
RTVSPropertyOp24
 70
     1
102
RTVSPropertyOp25
 70
     1
102
RTVSPropertyOp26
 70
     1
102
RTVSPropertyOp27
 70
     1
102
RTVSPropertyOp28
 70
     1
102
RTVSPropertyOp29
 70
     1
102
RTVSPropertyOp30
 70
     1
102
RTVSPropertyOp31
 70
     1
102
RTVSPropertyOp32
 70
     1
102
RTVSPropertyOp33
 70
     1
102
RTVSPropertyOp34
 70
     1
102
RTVSPropertyOp35
 70
     1
102
RTVSPropertyOp36
 70
     1
102
RTVSPropertyOp37
 70
     1
102
RTVSPropertyOp38
 70
     1
102
RTVSPropertyOp39
 70
     1
102
RTVSPropertyOp40
 70
     1
102
RTVSPropertyOp41
 70
     1
102
RTVSPropertyOp42
 70
     1
102
RTVSPropertyOp43
 70
     1
102
RTVSPropertyOp44
 70
     1
102
RTVSPropertyOp45
 70
     1
102
RTVSPropertyOp46
 70
     1
102
RTVSPropertyOp47
 70
     1
102
RTVSPropertyOp48
 70
     1
102
RTVSPropertyOp49
 70
     1
102
RTVSPropertyOp50
 70
     1
102
RTVSPropertyOp51
 70
     0
102
RTVSPropertyOp52
 70
     0
102
RTVSPropertyOp53
 70
     1
102
RTVSPropertyOp54
 70
     1
102
RTVSPropertyOp55
 70
     1
102
RTVSPropertyOp56
 70
     1
102
RTVSPropertyOp57
 70
     1
102
RTVSPropertyOp58
 70
     1
102
RTVSPropertyOp59
 70
     1
102
RTVSPropertyOp60
 70
     1
102
RTVSPropertyOp61
 70
     1
102
RTVSPropertyOp62
 70
     1
  0
ENDSEC
  0
EOF
