  0
SECTION
  2
HEADER
  9
$ACADVER
  1
AC1015
  9
$ACADMAINTVER
 70
    20
  9
$DWGCODEPAGE
  3
ANSI_932
  9
$INSBASE
 10
0.0
 20
0.0
 30
0.0
  9
$EXTMIN
 10
261720.4134195588
 20
34258.91919479
 30
-0.0000000349181948
  9
$EXTMAX
 10
284324.7820766061
 20
59346.62965523002
 30
0.0000000814935747
  9
$LIMMIN
 10
0.0
 20
0.0
  9
$LIMMAX
 10
420.0
 20
297.0
  9
$ORTHOMODE
 70
     1
  9
$REGENMODE
 70
     1
  9
$FILLMODE
 70
     1
  9
$QTEXTMODE
 70
     0
  9
$MIRRTEXT
 70
     0
  9
$LTSCALE
 40
1.0
  9
$ATTMODE
 70
     1
  9
$TEXTSIZE
 40
2.5
  9
$TRACEWID
 40
1.0
  9
$TEXTSTYLE
  7
Standard
  9
$CLAYER
  8
0
  9
$CELTYPE
  6
ByLayer
  9
$CECOLOR
 62
   256
  9
$CELTSCALE
 40
1.0
  9
$DISPSILH
 70
     0
  9
$DIMSCALE
 40
1.0
  9
$DIMASZ
 40
2.5
  9
$DIMEXO
 40
0.625
  9
$DIMDLI
 40
3.75
  9
$DIMRND
 40
0.0
  9
$DIMDLE
 40
0.0
  9
$DIMEXE
 40
1.25
  9
$DIMTP
 40
0.0
  9
$DIMTM
 40
0.0
  9
$DIMTXT
 40
2.5
  9
$DIMCEN
 40
2.5
  9
$DIMTSZ
 40
0.0
  9
$DIMTOL
 70
     0
  9
$DIMLIM
 70
     0
  9
$DIMTIH
 70
     0
  9
$DIMTOH
 70
     0
  9
$DIMSE1
 70
     0
  9
$DIMSE2
 70
     0
  9
$DIMTAD
 70
     1
  9
$DIMZIN
 70
     8
  9
$DIMBLK
  1

  9
$DIMASO
 70
     1
  9
$DIMSHO
 70
     1
  9
$DIMPOST
  1

  9
$DIMAPOST
  1

  9
$DIMALT
 70
     0
  9
$DIMALTD
 70
     3
  9
$DIMALTF
 40
0.03937007874016
  9
$DIMLFAC
 40
1.0
  9
$DIMTOFL
 70
     1
  9
$DIMTVP
 40
0.0
  9
$DIMTIX
 70
     0
  9
$DIMSOXD
 70
     0
  9
$DIMSAH
 70
     0
  9
$DIMBLK1
  1

  9
$DIMBLK2
  1

  9
$DIMSTYLE
  2
ISO-25
  9
$DIMCLRD
 70
     0
  9
$DIMCLRE
 70
     0
  9
$DIMCLRT
 70
     0
  9
$DIMTFAC
 40
1.0
  9
$DIMGAP
 40
0.625
  9
$DIMJUST
 70
     0
  9
$DIMSD1
 70
     0
  9
$DIMSD2
 70
     0
  9
$DIMTOLJ
 70
     0
  9
$DIMTZIN
 70
     8
  9
$DIMALTZ
 70
     0
  9
$DIMALTTZ
 70
     0
  9
$DIMUPT
 70
     0
  9
$DIMDEC
 70
     2
  9
$DIMTDEC
 70
     2
  9
$DIMALTU
 70
     2
  9
$DIMALTTD
 70
     3
  9
$DIMTXSTY
  7
Standard
  9
$DIMAUNIT
 70
     0
  9
$DIMADEC
 70
     0
  9
$DIMALTRND
 40
0.0
  9
$DIMAZIN
 70
     0
  9
$DIMDSEP
 70
    44
  9
$DIMATFIT
 70
     3
  9
$DIMFRAC
 70
     0
  9
$DIMLDRBLK
  1

  9
$DIMLUNIT
 70
     2
  9
$DIMLWD
 70
    -2
  9
$DIMLWE
 70
    -2
  9
$DIMTMOVE
 70
     0
  9
$LUNITS
 70
     2
  9
$LUPREC
 70
     4
  9
$SKETCHINC
 40
1.0
  9
$FILLETRAD
 40
30.0
  9
$AUNITS
 70
     0
  9
$AUPREC
 70
     0
  9
$MENU
  1
.
  9
$ELEVATION
 40
0.0
  9
$PELEVATION
 40
0.0
  9
$THICKNESS
 40
0.0
  9
$LIMCHECK
 70
     0
  9
$CHAMFERA
 40
0.0
  9
$CHAMFERB
 40
0.0
  9
$CHAMFERC
 40
0.0
  9
$CHAMFERD
 40
0.0
  9
$SKPOLY
 70
     0
  9
$TDCREATE
 40
2455257.708088461
  9
$TDUCREATE
 40
2455257.333088461
  9
$TDUPDATE
 40
2458661.581288160
  9
$TDUUPDATE
 40
2458661.206288160
  9
$TDINDWG
 40
0.6440088194
  9
$TDUSRTIMER
 40
0.6440084491
  9
$USRTIMER
 70
     1
  9
$ANGBASE
 50
0.0
  9
$ANGDIR
 70
     0
  9
$PDMODE
 70
     0
  9
$PDSIZE
 40
0.0
  9
$PLINEWID
 40
0.0
  9
$SPLFRAME
 70
     0
  9
$SPLINETYPE
 70
     6
  9
$SPLINESEGS
 70
     8
  9
$HANDSEED
  5
30C2C
  9
$SURFTAB1
 70
     6
  9
$SURFTAB2
 70
     6
  9
$SURFTYPE
 70
     6
  9
$SURFU
 70
     6
  9
$SURFV
 70
     6
  9
$UCSBASE
  2

  9
$UCSNAME
  2

  9
$UCSORG
 10
0.0
 20
0.0
 30
0.0
  9
$UCSXDIR
 10
1.0
 20
0.0
 30
0.0
  9
$UCSYDIR
 10
0.0
 20
1.0
 30
0.0
  9
$UCSORTHOREF
  2

  9
$UCSORTHOVIEW
 70
     0
  9
$UCSORGTOP
 10
0.0
 20
0.0
 30
0.0
  9
$UCSORGBOTTOM
 10
0.0
 20
0.0
 30
0.0
  9
$UCSORGLEFT
 10
0.0
 20
0.0
 30
0.0
  9
$UCSORGRIGHT
 10
0.0
 20
0.0
 30
0.0
  9
$UCSORGFRONT
 10
0.0
 20
0.0
 30
0.0
  9
$UCSORGBACK
 10
0.0
 20
0.0
 30
0.0
  9
$PUCSBASE
  2

  9
$PUCSNAME
  2

  9
$PUCSORG
 10
0.0
 20
0.0
 30
0.0
  9
$PUCSXDIR
 10
1.0
 20
0.0
 30
0.0
  9
$PUCSYDIR
 10
0.0
 20
1.0
 30
0.0
  9
$PUCSORTHOREF
  2

  9
$PUCSORTHOVIEW
 70
     0
  9
$PUCSORGTOP
 10
0.0
 20
0.0
 30
0.0
  9
$PUCSORGBOTTOM
 10
0.0
 20
0.0
 30
0.0
  9
$PUCSORGLEFT
 10
0.0
 20
0.0
 30
0.0
  9
$PUCSORGRIGHT
 10
0.0
 20
0.0
 30
0.0
  9
$PUCSORGFRONT
 10
0.0
 20
0.0
 30
0.0
  9
$PUCSORGBACK
 10
0.0
 20
0.0
 30
0.0
  9
$USERI1
 70
     0
  9
$USERI2
 70
     0
  9
$USERI3
 70
     0
  9
$USERI4
 70
     0
  9
$USERI5
 70
     0
  9
$USERR1
 40
0.0
  9
$USERR2
 40
0.0
  9
$USERR3
 40
0.0
  9
$USERR4
 40
0.0
  9
$USERR5
 40
0.0
  9
$WORLDVIEW
 70
     1
  9
$SHADEDGE
 70
     3
  9
$SHADEDIF
 70
    70
  9
$TILEMODE
 70
     1
  9
$MAXACTVP
 70
    64
  9
$PINSBASE
 10
0.0
 20
0.0
 30
0.0
  9
$PLIMCHECK
 70
     0
  9
$PEXTMIN
 10
0.0
 20
0.0
 30
0.0
  9
$PEXTMAX
 10
0.0
 20
0.0
 30
0.0
  9
$PLIMMIN
 10
0.0
 20
0.0
  9
$PLIMMAX
 10
12.0
 20
9.0
  9
$UNITMODE
 70
     0
  9
$VISRETAIN
 70
     1
  9
$PLINEGEN
 70
     0
  9
$PSLTSCALE
 70
     1
  9
$TREEDEPTH
 70
  3020
  9
$CMLSTYLE
  2
Standard
  9
$CMLJUST
 70
     0
  9
$CMLSCALE
 40
20.0
  9
$PROXYGRAPHICS
 70
     1
  9
$MEASUREMENT
 70
     1
  9
$CELWEIGHT
370
    -1
  9
$ENDCAPS
280
     0
  9
$JOINSTYLE
280
     0
  9
$LWDISPLAY
290
     0
  9
$INSUNITS
 70
     4
  9
$HYPERLINKBASE
  1

  9
$STYLESHEET
  1
ALL BLACK（線：データ通り　色：黒）.CTB
  9
$XEDIT
290
     1
  9
$CEPSNTYPE
380
     0
  9
$PSTYLEMODE
290
     1
  9
$FINGERPRINTGUID
  2
{50FB7BFA-1896-4192-B2A6-4DE0A83D1404}
  9
$VERSIONGUID
  2
{B6F01B6B-A187-4686-BCB9-B4847B053E46}
  9
$EXTNAMES
290
     1
  9
$PSVPSCALE
 40
0.0
  9
$OLESTARTUP
290
     0
  0
ENDSEC
  0
SECTION
  2
CLASSES
  0
CLASS
  1
ACDBDICTIONARYWDFLT
  2
AcDbDictionaryWithDefault
  3
ObjectDBX Classes
 90
        0
280
     0
281
     0
  0
CLASS
  1
DICTIONARYVAR
  2
AcDbDictionaryVar
  3
ObjectDBX Classes
 90
        0
280
     0
281
     0
  0
CLASS
  1
TABLESTYLE
  2
AcDbTableStyle
  3
ObjectDBX Classes
 90
     4095
280
     0
281
     0
  0
CLASS
  1
SORTENTSTABLE
  2
AcDbSortentsTable
  3
ObjectDBX Classes
 90
        0
280
     0
281
     0
  0
CLASS
  1
ACDBPLACEHOLDER
  2
AcDbPlaceHolder
  3
ObjectDBX Classes
 90
        0
280
     0
281
     0
  0
CLASS
  1
LAYOUT
  2
AcDbLayout
  3
ObjectDBX Classes
 90
        0
280
     0
281
     0
  0
CLASS
  1
MATERIAL
  2
AcDbMaterial
  3
ObjectDBX Classes
 90
     1153
280
     0
281
     0
  0
CLASS
  1
VISUALSTYLE
  2
AcDbVisualStyle
  3
ObjectDBX Classes
 90
     4095
280
     0
281
     0
  0
CLASS
  1
SCALE
  2
AcDbScale
  3
ObjectDBX Classes
 90
     1153
280
     0
281
     0
  0
CLASS
  1
MLEADERSTYLE
  2
AcDbMLeaderStyle
  3
ACDB_MLEADERSTYLE_CLASS
 90
     4095
280
     0
281
     0
  0
CLASS
  1
ACDBSECTIONVIEWSTYLE
  2
AcDbSectionViewStyle
  3
ObjectDBX Classes
 90
     1025
280
     0
281
     0
  0
CLASS
  1
ACDBDETAILVIEWSTYLE
  2
AcDbDetailViewStyle
  3
ObjectDBX Classes
 90
     1025
280
     0
281
     0
  0
CLASS
  1
EXACXREFPANELOBJECT
  2
ExAcXREFPanelObject
  3
EXAC_ESW
 90
    33793
280
     0
281
     0
  0
CLASS
  1
NPOCOLLECTION
  2
AcDbImpNonPersistentObjectsCollection
  3
ObjectDBX Classes
 90
    33921
280
     0
281
     0
  0
CLASS
  1
CELLSTYLEMAP
  2
AcDbCellStyleMap
  3
ObjectDBX Classes
 90
     1152
280
     0
281
     0
  0
ENDSEC
  0
SECTION
  2
TABLES
  0
TABLE
  2
VPORT
  5
8
330
0
100
AcDbSymbolTable
 70
     1
  0
VPORT
  5
1A081
330
8
100
AcDbSymbolTableRecord
100
AcDbViewportTableRecord
  2
*Active
 70
     0
 10
0.0
 20
0.0
 11
1.0
 21
1.0
 12
273022.5977480824
 22
46802.77442501001
 13
0.0
 23
0.0
 14
10.0
 24
10.0
 15
10.0
 25
10.0
 16
0.0
 26
0.0
 36
1.0
 17
0.0
 27
0.0
 37
0.0
 40
25272.85961512962
 41
1.814039408866995
 42
50.0
 43
0.0
 44
0.0
 50
0.0
 51
0.0
 71
     0
 72
  1000
 73
     1
 74
     3
 75
     0
 76
     0
 77
     0
 78
     0
281
     0
 65
     1
110
0.0
120
0.0
130
0.0
111
1.0
121
0.0
131
0.0
112
0.0
122
1.0
132
0.0
 79
     0
146
0.0
1001
ACAD_NAV_VCDISPLAY
1070
     3
  0
ENDTAB
  0
TABLE
  2
LTYPE
  5
5
330
0
100
AcDbSymbolTable
 70
     2
  0
LTYPE
  5
14
330
5
100
AcDbSymbolTableRecord
100
AcDbLinetypeTableRecord
  2
ByBlock
 70
     0
  3

 72
    65
 73
     0
 40
0.0
  0
LTYPE
  5
15
330
5
100
AcDbSymbolTableRecord
100
AcDbLinetypeTableRecord
  2
ByLayer
 70
     0
  3

 72
    65
 73
     0
 40
0.0
  0
LTYPE
  5
16
330
5
100
AcDbSymbolTableRecord
100
AcDbLinetypeTableRecord
  2
Continuous
 70
     0
  3
Solid line
 72
    65
 73
     0
 40
0.0
  0
ENDTAB
  0
TABLE
  2
LAYER
  5
2
102
{ACAD_XDICTIONARY
360
616
102
}
330
0
100
AcDbSymbolTable
 70
     4
  0
LAYER
  5
10
102
{ACAD_XDICTIONARY
360
1C73C
102
}
330
2
100
AcDbSymbolTableRecord
100
AcDbLayerTableRecord
  2
0
 70
     0
 62
     7
  6
Continuous
370
    -3
390
F
  0
LAYER
  5
610
330
2
100
AcDbSymbolTableRecord
100
AcDbLayerTableRecord
  2
DEFPOINTS
 70
     0
 62
     7
  6
Continuous
290
     0
370
    -3
390
F
  0
LAYER
  5
613
102
{ACAD_XDICTIONARY
360
1C744
102
}
330
2
100
AcDbSymbolTableRecord
100
AcDbLayerTableRecord
  2
15
 70
     0
 62
    96
  6
Continuous
370
    -3
390
F
  0
LAYER
  5
2ECF6
102
{ACAD_XDICTIONARY
360
2ECF7
102
}
330
2
100
AcDbSymbolTableRecord
100
AcDbLayerTableRecord
  2
電気錠制御盤　（株）アート
 70
     0
 62
    40
  6
Continuous
370
    -3
390
F
  0
ENDTAB
  0
TABLE
  2
STYLE
  5
3
330
0
100
AcDbSymbolTable
 70
     2
  0
STYLE
  5
11
330
3
100
AcDbSymbolTableRecord
100
AcDbTextStyleTableRecord
  2
Standard
 70
     0
 40
0.0
 41
1.0
 50
0.0
 71
     0
 42
2.5
  3
txt.shx
  4
extfont2.shx
  0
STYLE
  5
614
330
3
100
AcDbSymbolTableRecord
100
AcDbTextStyleTableRecord
  2
KANJI
 70
     0
 40
0.0
 41
1.0
 50
0.0
 71
     0
 42
0.2
  3
TXT
  4
BIGFONT
  0
ENDTAB
  0
TABLE
  2
VIEW
  5
6
330
0
100
AcDbSymbolTable
 70
     0
  0
ENDTAB
  0
TABLE
  2
UCS
  5
7
330
0
100
AcDbSymbolTable
 70
     0
  0
ENDTAB
  0
TABLE
  2
APPID
  5
9
330
0
100
AcDbSymbolTable
 70
     6
  0
APPID
  5
12
330
9
100
AcDbSymbolTableRecord
100
AcDbRegAppTableRecord
  2
ACAD
 70
     0
  0
APPID
  5
9E
330
9
100
AcDbSymbolTableRecord
100
AcDbRegAppTableRecord
  2
ACAD_PSEXT
 70
     0
  0
APPID
  5
9D99
330
9
100
AcDbSymbolTableRecord
100
AcDbRegAppTableRecord
  2
ACAD_EXEMPT_FROM_CAD_STANDARDS
 70
     0
  0
APPID
  5
1C198
330
9
100
AcDbSymbolTableRecord
100
AcDbRegAppTableRecord
  2
ACAD_NAV_VCDISPLAY
 70
     0
  0
APPID
  5
2DAE1
330
9
100
AcDbSymbolTableRecord
100
AcDbRegAppTableRecord
  2
AcadAnnoMonitorAlertIconDisabled
 70
     0
  0
APPID
  5
30BD9
330
9
100
AcDbSymbolTableRecord
100
AcDbRegAppTableRecord
  2
ACAD_MLEADERVER
 70
     0
  0
ENDTAB
  0
TABLE
  2
DIMSTYLE
  5
A
330
0
100
AcDbSymbolTable
 70
     2
100
AcDbDimStyleTable
 71
     2
340
27
340
615
  0
DIMSTYLE
105
27
330
A
100
AcDbSymbolTableRecord
100
AcDbDimStyleTableRecord
  2
ISO-25
 70
     0
 41
2.5
 42
0.625
 43
3.75
 44
1.25
 73
     0
 74
     0
 77
     1
 78
     8
140
2.5
141
2.5
143
0.03937007874016
147
0.625
171
     3
172
     1
271
     2
272
     2
274
     3
278
    44
283
     0
284
     8
340
11
  0
DIMSTYLE
105
615
102
{ACAD_REACTORS
330
2E77B
330
2E79D
330
2E70C
330
2E70D
102
}
330
A
100
AcDbSymbolTableRecord
100
AcDbDimStyleTableRecord
  2
Standard
 70
     0
340
11
  0
ENDTAB
  0
TABLE
  2
BLOCK_RECORD
  5
1
330
0
100
AcDbSymbolTable
 70
    11
  0
BLOCK_RECORD
  5
1F
102
{ACAD_XDICTIONARY
360
B04B
102
}
330
1
100
AcDbSymbolTableRecord
100
AcDbBlockTableRecord
  2
*Model_Space
340
22
  0
BLOCK_RECORD
  5
D2
330
1
100
AcDbSymbolTableRecord
100
AcDbBlockTableRecord
  2
*Paper_Space
340
D3
  0
BLOCK_RECORD
  5
D6
330
1
100
AcDbSymbolTableRecord
100
AcDbBlockTableRecord
  2
*Paper_Space0
340
D7
  0
BLOCK_RECORD
  5
FF
330
1
100
AcDbSymbolTableRecord
100
AcDbBlockTableRecord
  2
_OPEN30
340
0
102
{BLKREFS
331
30B41
331
30B42
331
30B4A
331
30B4B
331
30B54
331
30B55
331
30B5D
331
30B5E
331
30B66
331
30B67
331
30B6F
331
30B70
331
30B78
331
30B79
331
30B81
331
30B82
331
30B8A
331
30B8B
102
}
  0
BLOCK_RECORD
  5
2E7C5
330
1
100
AcDbSymbolTableRecord
100
AcDbBlockTableRecord
  2
*D2
340
0
  0
BLOCK_RECORD
  5
2E7D1
330
1
100
AcDbSymbolTableRecord
100
AcDbBlockTableRecord
  2
*D3
340
0
  0
BLOCK_RECORD
  5
2E7DD
330
1
100
AcDbSymbolTableRecord
100
AcDbBlockTableRecord
  2
*D4
340
0
  0
BLOCK_RECORD
  5
2E7E9
330
1
100
AcDbSymbolTableRecord
100
AcDbBlockTableRecord
  2
*D5
340
0
  0
BLOCK_RECORD
  5
2E991
330
1
100
AcDbSymbolTableRecord
100
AcDbBlockTableRecord
  2
*D6
340
0
  0
BLOCK_RECORD
  5
2E99D
330
1
100
AcDbSymbolTableRecord
100
AcDbBlockTableRecord
  2
*D7
340
0
  0
BLOCK_RECORD
  5
2E9A9
330
1
100
AcDbSymbolTableRecord
100
AcDbBlockTableRecord
  2
*D8
340
0
  0
BLOCK_RECORD
  5
2E9B6
330
1
100
AcDbSymbolTableRecord
100
AcDbBlockTableRecord
  2
*D9
340
0
  0
BLOCK_RECORD
  5
2E9C2
330
1
100
AcDbSymbolTableRecord
100
AcDbBlockTableRecord
  2
*D10
340
0
  0
ENDTAB
  0
ENDSEC
  0
SECTION
  2
BLOCKS
  0
BLOCK
  5
20
330
1F
100
AcDbEntity
  8
0
100
AcDbBlockBegin
  2
*Model_Space
 70
     0
 10
0.0
 20
0.0
 30
0.0
  3
*Model_Space
  1

  0
ENDBLK
  5
21
330
1F
100
AcDbEntity
  8
0
100
AcDbBlockEnd
  0
BLOCK
  5
D4
330
D2
100
AcDbEntity
 67
     1
  8
0
100
AcDbBlockBegin
  2
*Paper_Space
 70
     0
 10
0.0
 20
0.0
 30
0.0
  3
*Paper_Space
  1

  0
ENDBLK
  5
D5
330
D2
100
AcDbEntity
 67
     1
  8
0
100
AcDbBlockEnd
  0
BLOCK
  5
D8
330
D6
100
AcDbEntity
 67
     1
  8
0
100
AcDbBlockBegin
  2
*Paper_Space0
 70
     0
 10
0.0
 20
0.0
 30
0.0
  3
*Paper_Space0
  1

  0
ENDBLK
  5
D9
330
D6
100
AcDbEntity
 67
     1
  8
0
100
AcDbBlockEnd
  0
BLOCK
  5
100
330
FF
100
AcDbEntity
  8
0
 62
     0
100
AcDbBlockBegin
  2
_OPEN30
 70
     2
 10
0.0
 20
0.0
 30
0.0
  3
_OPEN30
  1

  0
LINE
  5
101
330
FF
100
AcDbEntity
  8
0
  6
ByBlock
 62
     0
100
AcDbLine
 10
-1.0
 20
0.267949
 30
0.0
 11
0.0
 21
0.0
 31
0.0
  0
LINE
  5
102
330
FF
100
AcDbEntity
  8
0
  6
ByBlock
 62
     0
100
AcDbLine
 10
0.0
 20
0.0
 30
0.0
 11
-1.0
 21
-0.267949
 31
0.0
  0
LINE
  5
103
330
FF
100
AcDbEntity
  8
0
  6
ByBlock
 62
     0
100
AcDbLine
 10
0.0
 20
0.0
 30
0.0
 11
-1.0
 21
0.0
 31
0.0
  0
ENDBLK
  5
104
330
FF
100
AcDbEntity
  8
0
 62
     0
100
AcDbBlockEnd
  0
BLOCK
  5
2E7C6
330
2E7C5
100
AcDbEntity
  8
0
100
AcDbBlockBegin
  2
*D2
 70
     1
 10
0.0
 20
0.0
 30
0.0
  3
*D2
  1

  0
LINE
  5
30B75
330
2E7C5
100
AcDbEntity
  8
電気錠制御盤　（株）アート
  6
Continuous
 62
     0
370
    -2
100
AcDbLine
 10
277908.0837329277
 20
54143.39779313464
 30
0.0
 11
277908.0837329277
 21
55126.21420871523
 31
0.0
  0
LINE
  5
30B76
330
2E7C5
100
AcDbEntity
  8
電気錠制御盤　（株）アート
  6
Continuous
 62
     0
370
    -2
100
AcDbLine
 10
279733.2837329277
 20
54156.47180338087
 30
0.0
 11
279733.2837329277
 21
55126.21420871523
 31
0.0
  0
LINE
  5
30B77
330
2E7C5
100
AcDbEntity
  8
電気錠制御盤　（株）アート
  6
Continuous
 62
     0
370
    -2
100
AcDbLine
 10
278408.0837329277
 20
55126.03420871523
 30
0.0
 11
279233.2837329277
 21
55126.03420871523
 31
0.0
  0
INSERT
  5
30B78
330
2E7C5
100
AcDbEntity
  8
電気錠制御盤　（株）アート
  6
Continuous
 62
     0
370
    -2
100
AcDbBlockReference
  2
_OPEN30
 10
277908.0837329277
 20
55126.03420871523
 30
0.0
 41
500.0
 42
500.0
 43
500.0
 50
180.0
  0
INSERT
  5
30B79
330
2E7C5
100
AcDbEntity
  8
電気錠制御盤　（株）アート
  6
Continuous
 62
     0
370
    -2
100
AcDbBlockReference
  2
_OPEN30
 10
279733.2837329277
 20
55126.03420871523
 30
0.0
 41
500.0
 42
500.0
 43
500.0
  0
MTEXT
  5
30B7A
330
2E7C5
100
AcDbEntity
  8
電気錠制御盤　（株）アート
  6
Continuous
 62
     0
370
    13
100
AcDbMText
 10
278820.6837329278
 20
55376.03420871523
 30
0.0
 40
400.0
 41
0.0
 71
     5
 72
     1
  1
\A1;26
 73
     1
 44
1.0
1001
ACAD
1000
MTEXTBEGIN
1070
    73
1070
     1
1070
    44
1040
1.0
1070
    74
1070
     0
1000
MTEXTEND
  0
POINT
  5
30B7B
330
2E7C5
100
AcDbEntity
  8
DEFPOINTS
  6
Continuous
 62
     0
100
AcDbPoint
 10
277908.0837329277
 20
54143.33529313464
 30
0.0
  0
POINT
  5
30B7C
330
2E7C5
100
AcDbEntity
  8
DEFPOINTS
  6
Continuous
 62
     0
100
AcDbPoint
 10
279733.2837329277
 20
54156.40930338087
 30
0.0
  0
POINT
  5
30B7D
330
2E7C5
100
AcDbEntity
  8
DEFPOINTS
  6
Continuous
 62
     0
100
AcDbPoint
 10
279733.2837329277
 20
55126.03420871523
 30
0.0
  0
ENDBLK
  5
2E7C7
330
2E7C5
100
AcDbEntity
  8
0
100
AcDbBlockEnd
  0
BLOCK
  5
2E7D2
330
2E7D1
100
AcDbEntity
  8
0
100
AcDbBlockBegin
  2
*D3
 70
     1
 10
0.0
 20
0.0
 30
0.0
  3
*D3
  1

  0
LINE
  5
30B6C
330
2E7D1
100
AcDbEntity
  8
電気錠制御盤　（株）アート
  6
Continuous
 62
     0
370
    -2
100
AcDbLine
 10
277767.6212329277
 20
54036.24394755597
 30
0.0
 11
276854.9037329277
 21
54036.24394755597
 31
0.0
  0
LINE
  5
30B6D
330
2E7D1
100
AcDbEntity
  8
電気錠制御盤　（株）アート
  6
Continuous
 62
     0
370
    -2
100
AcDbLine
 10
277767.6212329277
 20
45826.22446685787
 30
0.0
 11
276854.9037329277
 21
45826.22446685787
 31
0.0
  0
LINE
  5
30B6E
330
2E7D1
100
AcDbEntity
  8
電気錠制御盤　（株）アート
  6
Continuous
 62
     0
370
    -2
100
AcDbLine
 10
276855.0837329277
 20
53536.24394755597
 30
0.0
 11
276855.0837329277
 21
46326.22446685789
 31
0.0
  0
INSERT
  5
30B6F
330
2E7D1
100
AcDbEntity
  8
電気錠制御盤　（株）アート
  6
Continuous
 62
     0
370
    -2
100
AcDbBlockReference
  2
_OPEN30
 10
276855.0837329277
 20
54036.24394755597
 30
0.0
 41
500.0
 42
500.0
 43
500.0
 50
90.0
  0
INSERT
  5
30B70
330
2E7D1
100
AcDbEntity
  8
電気錠制御盤　（株）アート
  6
Continuous
 62
     0
370
    -2
100
AcDbBlockReference
  2
_OPEN30
 10
276855.0837329277
 20
45826.22446685787
 30
0.0
 41
500.0
 42
500.0
 43
500.0
 50
270.0
  0
MTEXT
  5
30B71
330
2E7D1
100
AcDbEntity
  8
電気錠制御盤　（株）アート
  6
Continuous
 62
     0
370
    13
100
AcDbMText
 10
276605.0837329277
 20
49931.23420720698
 30
0.0
 40
400.0
 41
0.0
 71
     5
 72
     1
  1
\A1;（117）
 11
0.0000000000000001
 21
1.0
 31
0.0
 73
     1
 44
1.0
1001
ACAD
1000
MTEXTBEGIN
1070
    73
1070
     1
1070
    44
1040
1.0
1070
    74
1070
     0
1000
MTEXTEND
  0
POINT
  5
30B72
330
2E7D1
100
AcDbEntity
  8
DEFPOINTS
  6
Continuous
 62
     0
100
AcDbPoint
 10
277767.6837329277
 20
54036.24394755597
 30
0.0
  0
POINT
  5
30B73
330
2E7D1
100
AcDbEntity
  8
DEFPOINTS
  6
Continuous
 62
     0
100
AcDbPoint
 10
277767.6837329277
 20
45826.22446685787
 30
0.0
  0
POINT
  5
30B74
330
2E7D1
100
AcDbEntity
  8
DEFPOINTS
  6
Continuous
 62
     0
100
AcDbPoint
 10
276855.0837329277
 20
45826.22446685787
 30
0.0
  0
ENDBLK
  5
2E7D3
330
2E7D1
100
AcDbEntity
  8
0
100
AcDbBlockEnd
  0
BLOCK
  5
2E7DE
330
2E7DD
100
AcDbEntity
  8
0
100
AcDbBlockBegin
  2
*D4
 70
     1
 10
0.0
 20
0.0
 30
0.0
  3
*D4
  1

  0
LINE
  5
30B87
330
2E7DD
100
AcDbEntity
  8
電気錠制御盤　（株）アート
  6
Continuous
 62
     0
370
    -2
100
AcDbLine
 10
274538.5462329279
 20
45789.43420871523
 30
0.0
 11
275451.2637329277
 21
45789.43420871523
 31
0.0
  0
LINE
  5
30B88
330
2E7DD
100
AcDbEntity
  8
電気錠制御盤　（株）アート
  6
Continuous
 62
     0
370
    -2
100
AcDbLine
 10
274538.5462329279
 20
54073.03420871523
 30
0.0
 11
275451.2637329277
 21
54073.03420871523
 31
0.0
  0
LINE
  5
30B89
330
2E7DD
100
AcDbEntity
  8
電気錠制御盤　（株）アート
  6
Continuous
 62
     0
370
    -2
100
AcDbLine
 10
275451.0837329277
 20
46289.43420871523
 30
0.0
 11
275451.0837329277
 21
53573.03420871523
 31
0.0
  0
INSERT
  5
30B8A
330
2E7DD
100
AcDbEntity
  8
電気錠制御盤　（株）アート
  6
Continuous
 62
     0
370
    -2
100
AcDbBlockReference
  2
_OPEN30
 10
275451.0837329277
 20
45789.43420871523
 30
0.0
 41
500.0
 42
500.0
 43
500.0
 50
270.0
  0
INSERT
  5
30B8B
330
2E7DD
100
AcDbEntity
  8
電気錠制御盤　（株）アート
  6
Continuous
 62
     0
370
    -2
100
AcDbBlockReference
  2
_OPEN30
 10
275451.0837329277
 20
54073.03420871523
 30
0.0
 41
500.0
 42
500.0
 43
500.0
 50
90.0
  0
MTEXT
  5
30B8C
330
2E7DD
100
AcDbEntity
  8
電気錠制御盤　（株）アート
  6
Continuous
 62
     0
370
    13
100
AcDbMText
 10
275201.0837329277
 20
49931.23420871528
 30
0.0
 40
400.0
 41
0.0
 71
     5
 72
     1
  1
\A1;118
 11
0.0000000000000001
 21
1.0
 31
0.0
 73
     1
 44
1.0
1001
ACAD
1000
MTEXTBEGIN
1070
    73
1070
     1
1070
    44
1040
1.0
1070
    74
1070
     0
1000
MTEXTEND
  0
POINT
  5
30B8D
330
2E7DD
100
AcDbEntity
  8
DEFPOINTS
  6
Continuous
 62
     0
100
AcDbPoint
 10
274538.4837329277
 20
45789.43420871523
 30
0.0
  0
POINT
  5
30B8E
330
2E7DD
100
AcDbEntity
  8
DEFPOINTS
  6
Continuous
 62
     0
100
AcDbPoint
 10
274538.4837329277
 20
54073.03420871523
 30
0.0
  0
POINT
  5
30B8F
330
2E7DD
100
AcDbEntity
  8
DEFPOINTS
  6
Continuous
 62
     0
100
AcDbPoint
 10
275451.0837329277
 20
54073.03420871523
 30
0.0
  0
ENDBLK
  5
2E7DF
330
2E7DD
100
AcDbEntity
  8
0
100
AcDbBlockEnd
  0
BLOCK
  5
2E7EA
330
2E7E9
100
AcDbEntity
  8
0
100
AcDbBlockBegin
  2
*D5
 70
     1
 10
0.0
 20
0.0
 30
0.0
  3
*D5
  1

  0
LINE
  5
30B7E
330
2E7E9
100
AcDbEntity
  8
電気錠制御盤　（株）アート
  6
Continuous
 62
     0
370
    -2
100
AcDbLine
 10
266114.4837329277
 20
54213.49670871523
 30
0.0
 11
266114.4837329277
 21
55126.21420871523
 31
0.0
  0
LINE
  5
30B7F
330
2E7E9
100
AcDbEntity
  8
電気錠制御盤　（株）アート
  6
Continuous
 62
     0
370
    -2
100
AcDbLine
 10
274398.0837329277
 20
54213.49670871523
 30
0.0
 11
274398.0837329277
 21
55126.21420871523
 31
0.0
  0
LINE
  5
30B80
330
2E7E9
100
AcDbEntity
  8
電気錠制御盤　（株）アート
  6
Continuous
 62
     0
370
    -2
100
AcDbLine
 10
266614.4837329277
 20
55126.03420871523
 30
0.0
 11
273898.0837329277
 21
55126.03420871523
 31
0.0
  0
INSERT
  5
30B81
330
2E7E9
100
AcDbEntity
  8
電気錠制御盤　（株）アート
  6
Continuous
 62
     0
370
    -2
100
AcDbBlockReference
  2
_OPEN30
 10
266114.4837329277
 20
55126.03420871523
 30
0.0
 41
500.0
 42
500.0
 43
500.0
 50
180.0
  0
INSERT
  5
30B82
330
2E7E9
100
AcDbEntity
  8
電気錠制御盤　（株）アート
  6
Continuous
 62
     0
370
    -2
100
AcDbBlockReference
  2
_OPEN30
 10
274398.0837329277
 20
55126.03420871523
 30
0.0
 41
500.0
 42
500.0
 43
500.0
  0
MTEXT
  5
30B83
330
2E7E9
100
AcDbEntity
  8
電気錠制御盤　（株）アート
  6
Continuous
 62
     0
370
    13
100
AcDbMText
 10
270256.2837329277
 20
55376.03420871523
 30
0.0
 40
400.0
 41
0.0
 71
     5
 72
     1
  1
\A1;118
 73
     1
 44
1.0
1001
ACAD
1000
MTEXTBEGIN
1070
    73
1070
     1
1070
    44
1040
1.0
1070
    74
1070
     0
1000
MTEXTEND
  0
POINT
  5
30B84
330
2E7E9
100
AcDbEntity
  8
DEFPOINTS
  6
Continuous
 62
     0
100
AcDbPoint
 10
266114.4837329277
 20
54213.43420871523
 30
0.0
  0
POINT
  5
30B85
330
2E7E9
100
AcDbEntity
  8
DEFPOINTS
  6
Continuous
 62
     0
100
AcDbPoint
 10
274398.0837329277
 20
54213.43420871523
 30
0.0
  0
POINT
  5
30B86
330
2E7E9
100
AcDbEntity
  8
DEFPOINTS
  6
Continuous
 62
     0
100
AcDbPoint
 10
274398.0837329277
 20
55126.03420871523
 30
0.0
  0
ENDBLK
  5
2E7EB
330
2E7E9
100
AcDbEntity
  8
0
100
AcDbBlockEnd
  0
BLOCK
  5
2E992
330
2E991
100
AcDbEntity
  8
0
100
AcDbBlockBegin
  2
*D6
 70
     1
 10
0.0
 20
0.0
 30
0.0
  3
*D6
  1

  0
LINE
  5
30B63
330
2E991
100
AcDbEntity
  8
電気錠制御盤　（株）アート
  6
Continuous
 62
     0
370
    -2
100
AcDbLine
 10
300509.963467525
 20
45789.25390992523
 30
0.0
 11
301422.680967525
 21
45789.25390992523
 31
0.0
  0
LINE
  5
30B64
330
2E991
100
AcDbEntity
  8
電気錠制御盤　（株）アート
  6
Continuous
 62
     0
370
    -2
100
AcDbLine
 10
300509.963467525
 20
54072.85390992523
 30
0.0
 11
301422.680967525
 21
54072.85390992523
 31
0.0
  0
LINE
  5
30B65
330
2E991
100
AcDbEntity
  8
電気錠制御盤　（株）アート
  6
Continuous
 62
     0
370
    -2
100
AcDbLine
 10
301422.500967525
 20
46289.25390992523
 30
0.0
 11
301422.500967525
 21
53572.85390992523
 31
0.0
  0
INSERT
  5
30B66
330
2E991
100
AcDbEntity
  8
電気錠制御盤　（株）アート
  6
Continuous
 62
     0
370
    -2
100
AcDbBlockReference
  2
_OPEN30
 10
301422.500967525
 20
45789.25390992523
 30
0.0
 41
500.0
 42
500.0
 43
500.0
 50
270.0
  0
INSERT
  5
30B67
330
2E991
100
AcDbEntity
  8
電気錠制御盤　（株）アート
  6
Continuous
 62
     0
370
    -2
100
AcDbBlockReference
  2
_OPEN30
 10
301422.500967525
 20
54072.85390992523
 30
0.0
 41
500.0
 42
500.0
 43
500.0
 50
90.0
  0
MTEXT
  5
30B68
330
2E991
100
AcDbEntity
  8
電気錠制御盤　（株）アート
  6
Continuous
 62
     0
370
    13
100
AcDbMText
 10
301172.5009675251
 20
49931.05390992528
 30
0.0
 40
400.0
 41
0.0
 71
     5
 72
     1
  1
\A1;118
 11
0.0000000000000001
 21
1.0
 31
0.0
 73
     1
 44
1.0
1001
ACAD
1000
MTEXTBEGIN
1070
    73
1070
     1
1070
    44
1040
1.0
1070
    74
1070
     0
1000
MTEXTEND
  0
POINT
  5
30B69
330
2E991
100
AcDbEntity
  8
DEFPOINTS
  6
Continuous
 62
     0
100
AcDbPoint
 10
300509.900967525
 20
45789.25390992523
 30
0.0
  0
POINT
  5
30B6A
330
2E991
100
AcDbEntity
  8
DEFPOINTS
  6
Continuous
 62
     0
100
AcDbPoint
 10
300509.900967525
 20
54072.85390992523
 30
0.0
  0
POINT
  5
30B6B
330
2E991
100
AcDbEntity
  8
DEFPOINTS
  6
Continuous
 62
     0
100
AcDbPoint
 10
301422.500967525
 20
54072.85390992523
 30
0.0
  0
ENDBLK
  5
2E993
330
2E991
100
AcDbEntity
  8
0
100
AcDbBlockEnd
  0
BLOCK
  5
2E99E
330
2E99D
100
AcDbEntity
  8
0
100
AcDbBlockBegin
  2
*D7
 70
     1
 10
0.0
 20
0.0
 30
0.0
  3
*D7
  1

  0
LINE
  5
30B5A
330
2E99D
100
AcDbEntity
  8
電気錠制御盤　（株）アート
  6
Continuous
 62
     0
370
    -2
100
AcDbLine
 10
292085.9009675251
 20
54213.31640992523
 30
0.0
 11
292085.9009675251
 21
55126.03390992524
 31
0.0
  0
LINE
  5
30B5B
330
2E99D
100
AcDbEntity
  8
電気錠制御盤　（株）アート
  6
Continuous
 62
     0
370
    -2
100
AcDbLine
 10
300369.500967525
 20
54213.31640992523
 30
0.0
 11
300369.500967525
 21
55126.03390992524
 31
0.0
  0
LINE
  5
30B5C
330
2E99D
100
AcDbEntity
  8
電気錠制御盤　（株）アート
  6
Continuous
 62
     0
370
    -2
100
AcDbLine
 10
292585.900967525
 20
55125.85390992525
 30
0.0
 11
299869.500967525
 21
55125.85390992525
 31
0.0
  0
INSERT
  5
30B5D
330
2E99D
100
AcDbEntity
  8
電気錠制御盤　（株）アート
  6
Continuous
 62
     0
370
    -2
100
AcDbBlockReference
  2
_OPEN30
 10
292085.9009675251
 20
55125.85390992525
 30
0.0
 41
500.0
 42
500.0
 43
500.0
 50
180.0
  0
INSERT
  5
30B5E
330
2E99D
100
AcDbEntity
  8
電気錠制御盤　（株）アート
  6
Continuous
 62
     0
370
    -2
100
AcDbBlockReference
  2
_OPEN30
 10
300369.500967525
 20
55125.85390992525
 30
0.0
 41
500.0
 42
500.0
 43
500.0
  0
MTEXT
  5
30B5F
330
2E99D
100
AcDbEntity
  8
電気錠制御盤　（株）アート
  6
Continuous
 62
     0
370
    13
100
AcDbMText
 10
296227.7009675251
 20
55375.85390992523
 30
0.0
 40
400.0
 41
0.0
 71
     5
 72
     1
  1
\A1;118
 73
     1
 44
1.0
1001
ACAD
1000
MTEXTBEGIN
1070
    73
1070
     1
1070
    44
1040
1.0
1070
    74
1070
     0
1000
MTEXTEND
  0
POINT
  5
30B60
330
2E99D
100
AcDbEntity
  8
DEFPOINTS
  6
Continuous
 62
     0
100
AcDbPoint
 10
292085.9009675251
 20
54213.25390992523
 30
0.0
  0
POINT
  5
30B61
330
2E99D
100
AcDbEntity
  8
DEFPOINTS
  6
Continuous
 62
     0
100
AcDbPoint
 10
300369.500967525
 20
54213.25390992523
 30
0.0
  0
POINT
  5
30B62
330
2E99D
100
AcDbEntity
  8
DEFPOINTS
  6
Continuous
 62
     0
100
AcDbPoint
 10
300369.500967525
 20
55125.85390992525
 30
0.0
  0
ENDBLK
  5
2E99F
330
2E99D
100
AcDbEntity
  8
0
100
AcDbBlockEnd
  0
BLOCK
  5
2E9AA
330
2E9A9
100
AcDbEntity
  8
0
100
AcDbBlockBegin
  2
*D8
 70
     1
 10
0.0
 20
0.0
 30
0.0
  3
*D8
  1

  0
LINE
  5
30B50
330
2E9A9
100
AcDbEntity
  8
電気錠制御盤　（株）アート
  6
Continuous
 62
     0
370
    -2
100
AcDbLine
 10
303879.500967525
 20
54176.52615072476
 30
0.0
 11
303879.500967525
 21
55126.03390992524
 31
0.0
  0
LINE
  5
30B51
330
2E9A9
100
AcDbEntity
  8
電気錠制御盤　（株）アート
  6
Continuous
 62
     0
370
    -2
100
AcDbLine
 10
304581.500967525
 20
54213.31640992523
 30
0.0
 11
304581.500967525
 21
55126.03390992524
 31
0.0
  0
LINE
  5
30B52
330
2E9A9
100
AcDbEntity
  8
電気錠制御盤　（株）アート
  6
Continuous
 62
     0
370
    -2
100
AcDbLine
 10
303379.500967525
 20
55125.85390992525
 30
0.0
 11
302879.500967525
 21
55125.85390992525
 31
0.0
  0
LINE
  5
30B53
330
2E9A9
100
AcDbEntity
  8
電気錠制御盤　（株）アート
  6
Continuous
 62
     0
370
    -2
100
AcDbLine
 10
305081.500967525
 20
55125.85390992525
 30
0.0
 11
305581.500967525
 21
55125.85390992525
 31
0.0
  0
INSERT
  5
30B54
330
2E9A9
100
AcDbEntity
  8
電気錠制御盤　（株）アート
  6
Continuous
 62
     0
370
    -2
100
AcDbBlockReference
  2
_OPEN30
 10
303879.500967525
 20
55125.85390992525
 30
0.0
 41
500.0
 42
500.0
 43
500.0
  0
INSERT
  5
30B55
330
2E9A9
100
AcDbEntity
  8
電気錠制御盤　（株）アート
  6
Continuous
 62
     0
370
    -2
100
AcDbBlockReference
  2
_OPEN30
 10
304581.500967525
 20
55125.85390992525
 30
0.0
 41
500.0
 42
500.0
 43
500.0
 50
180.0
  0
MTEXT
  5
30B56
330
2E9A9
100
AcDbEntity
  8
電気錠制御盤　（株）アート
  6
Continuous
 62
     0
370
    13
100
AcDbMText
 10
304230.500967525
 20
55375.85390992523
 30
0.0
 40
400.0
 41
0.0
 71
     5
 72
     1
  1
\A1;10
 73
     1
 44
1.0
1001
ACAD
1000
MTEXTBEGIN
1070
    73
1070
     1
1070
    44
1040
1.0
1070
    74
1070
     0
1000
MTEXTEND
  0
POINT
  5
30B57
330
2E9A9
100
AcDbEntity
  8
DEFPOINTS
  6
Continuous
 62
     0
100
AcDbPoint
 10
303879.500967525
 20
54176.46365072476
 30
0.0
  0
POINT
  5
30B58
330
2E9A9
100
AcDbEntity
  8
DEFPOINTS
  6
Continuous
 62
     0
100
AcDbPoint
 10
304581.500967525
 20
54213.25390992523
 30
0.0
  0
POINT
  5
30B59
330
2E9A9
100
AcDbEntity
  8
DEFPOINTS
  6
Continuous
 62
     0
100
AcDbPoint
 10
304581.500967525
 20
55125.85390992525
 30
0.0
  0
ENDBLK
  5
2E9AB
330
2E9A9
100
AcDbEntity
  8
0
100
AcDbBlockEnd
  0
BLOCK
  5
2E9B7
330
2E9B6
100
AcDbEntity
  8
0
100
AcDbBlockBegin
  2
*D9
 70
     1
 10
0.0
 20
0.0
 30
0.0
  3
*D9
  1

  0
LINE
  5
30B47
330
2E9B6
100
AcDbEntity
  8
電気錠制御盤　（株）アート
  6
Continuous
 62
     0
370
    -2
100
AcDbLine
 10
303739.0384675251
 20
54036.06364876731
 30
0.0
 11
302826.320967525
 21
54036.06364876731
 31
0.0
  0
LINE
  5
30B48
330
2E9B6
100
AcDbEntity
  8
電気錠制御盤　（株）アート
  6
Continuous
 62
     0
370
    -2
100
AcDbLine
 10
303739.0384675251
 20
45826.04416806788
 30
0.0
 11
302826.320967525
 21
45826.04416806788
 31
0.0
  0
LINE
  5
30B49
330
2E9B6
100
AcDbEntity
  8
電気錠制御盤　（株）アート
  6
Continuous
 62
     0
370
    -2
100
AcDbLine
 10
302826.500967525
 20
53536.06364876731
 30
0.0
 11
302826.500967525
 21
46326.04416806787
 31
0.0
  0
INSERT
  5
30B4A
330
2E9B6
100
AcDbEntity
  8
電気錠制御盤　（株）アート
  6
Continuous
 62
     0
370
    -2
100
AcDbBlockReference
  2
_OPEN30
 10
302826.500967525
 20
54036.06364876731
 30
0.0
 41
500.0
 42
500.0
 43
500.0
 50
90.0
  0
INSERT
  5
30B4B
330
2E9B6
100
AcDbEntity
  8
電気錠制御盤　（株）アート
  6
Continuous
 62
     0
370
    -2
100
AcDbBlockReference
  2
_OPEN30
 10
302826.500967525
 20
45826.04416806788
 30
0.0
 41
500.0
 42
500.0
 43
500.0
 50
270.0
  0
MTEXT
  5
30B4C
330
2E9B6
100
AcDbEntity
  8
電気錠制御盤　（株）アート
  6
Continuous
 62
     0
370
    13
100
AcDbMText
 10
302576.5009675251
 20
49931.05390841763
 30
0.0
 40
400.0
 41
0.0
 71
     5
 72
     1
  1
\A1;（117）
 11
0.0000000000000001
 21
1.0
 31
0.0
 73
     1
 44
1.0
1001
ACAD
1000
MTEXTBEGIN
1070
    73
1070
     1
1070
    44
1040
1.0
1070
    74
1070
     0
1000
MTEXTEND
  0
POINT
  5
30B4D
330
2E9B6
100
AcDbEntity
  8
DEFPOINTS
  6
Continuous
 62
     0
100
AcDbPoint
 10
303739.1009675251
 20
54036.06364876731
 30
0.0
  0
POINT
  5
30B4E
330
2E9B6
100
AcDbEntity
  8
DEFPOINTS
  6
Continuous
 62
     0
100
AcDbPoint
 10
303739.1009675251
 20
45826.04416806788
 30
0.0
  0
POINT
  5
30B4F
330
2E9B6
100
AcDbEntity
  8
DEFPOINTS
  6
Continuous
 62
     0
100
AcDbPoint
 10
302826.500967525
 20
45826.04416806788
 30
0.0
  0
ENDBLK
  5
2E9B8
330
2E9B6
100
AcDbEntity
  8
0
100
AcDbBlockEnd
  0
BLOCK
  5
2E9C3
330
2E9C2
100
AcDbEntity
  8
0
100
AcDbBlockBegin
  2
*D10
 70
     1
 10
0.0
 20
0.0
 30
0.0
  3
*D10
  1

  0
LINE
  5
30B3D
330
2E9C2
100
AcDbEntity
  8
電気錠制御盤　（株）アート
  6
Continuous
 62
     0
370
    -2
100
AcDbLine
 10
304581.500967525
 20
54213.31640992523
 30
0.0
 11
304581.500967525
 21
55126.03390992524
 31
0.0
  0
LINE
  5
30B3E
330
2E9C2
100
AcDbEntity
  8
電気錠制御盤　（株）アート
  6
Continuous
 62
     0
370
    -2
100
AcDbLine
 10
305634.500967525
 20
52387.7934899259
 30
0.0
 11
305634.500967525
 21
55126.03390992524
 31
0.0
  0
LINE
  5
30B3F
330
2E9C2
100
AcDbEntity
  8
電気錠制御盤　（株）アート
  6
Continuous
 62
     0
370
    -2
100
AcDbLine
 10
304081.500967525
 20
55125.85390992525
 30
0.0
 11
303581.500967525
 21
55125.85390992525
 31
0.0
  0
LINE
  5
30B40
330
2E9C2
100
AcDbEntity
  8
電気錠制御盤　（株）アート
  6
Continuous
 62
     0
370
    -2
100
AcDbLine
 10
306134.500967525
 20
55125.85390992525
 30
0.0
 11
308307.8343008584
 21
55125.85390992525
 31
0.0
  0
INSERT
  5
30B41
330
2E9C2
100
AcDbEntity
  8
電気錠制御盤　（株）アート
  6
Continuous
 62
     0
370
    -2
100
AcDbBlockReference
  2
_OPEN30
 10
304581.500967525
 20
55125.85390992525
 30
0.0
 41
500.0
 42
500.0
 43
500.0
  0
INSERT
  5
30B42
330
2E9C2
100
AcDbEntity
  8
電気錠制御盤　（株）アート
  6
Continuous
 62
     0
370
    -2
100
AcDbBlockReference
  2
_OPEN30
 10
305634.500967525
 20
55125.85390992525
 30
0.0
 41
500.0
 42
500.0
 43
500.0
 50
180.0
  0
MTEXT
  5
30B43
330
2E9C2
100
AcDbEntity
  8
電気錠制御盤　（株）アート
  6
Continuous
 62
     0
370
    13
100
AcDbMText
 10
307471.1676341917
 20
55375.85390992523
 30
0.0
 40
400.0
 41
0.0
 71
     5
 72
     1
  1
\A1;（15）
 73
     1
 44
1.0
1001
ACAD
1000
MTEXTBEGIN
1070
    73
1070
     1
1070
    44
1040
1.0
1070
    74
1070
     0
1000
MTEXTEND
  0
POINT
  5
30B44
330
2E9C2
100
AcDbEntity
  8
DEFPOINTS
  6
Continuous
 62
     0
100
AcDbPoint
 10
304581.500967525
 20
54213.25390992523
 30
0.0
  0
POINT
  5
30B45
330
2E9C2
100
AcDbEntity
  8
DEFPOINTS
  6
Continuous
 62
     0
100
AcDbPoint
 10
305634.500967525
 20
52387.73098992591
 30
0.0
  0
POINT
  5
30B46
330
2E9C2
100
AcDbEntity
  8
DEFPOINTS
  6
Continuous
 62
     0
100
AcDbPoint
 10
305634.500967525
 20
55125.85390992525
 30
0.0
  0
ENDBLK
  5
2E9C4
330
2E9C2
100
AcDbEntity
  8
0
100
AcDbBlockEnd
  0
ENDSEC
  0
SECTION
  2
ENTITIES
  0
TEXT
  5
418F
330
1F
100
AcDbEntity
  8
15
  6
Continuous
 62
    96
100
AcDbText
 10
177832.9914936193
 20
113081.8097269762
 30
0.0
 40
6.0
  1
　
 41
0.8333333333333332
 11
177832.9914936193
 21
113081.8097269762
 31
0.0
100
AcDbText
 73
     1
  0
TEXT
  5
4190
330
1F
100
AcDbEntity
  8
15
  6
Continuous
 62
    96
100
AcDbText
 10
177832.9914936193
 20
113081.8097269762
 30
0.0
 40
6.0
  1
　
 41
0.8333333333333332
 11
177832.9914936193
 21
113081.8097269762
 31
0.0
100
AcDbText
 73
     1
  0
TEXT
  5
4406
330
1F
100
AcDbEntity
  8
15
  6
Continuous
 62
    96
100
AcDbText
 10
176501.6732595321
 20
112445.432569049
 30
0.0
 40
3.0
  1
　
 41
0.8333333333333332
 11
176501.6732595321
 21
112445.432569049
 31
0.0
100
AcDbText
 73
     1
  0
LINE
  5
2E32D
330
1F
100
AcDbEntity
  8
電気錠制御盤　（株）アート
 62
     7
370
    13
100
AcDbLine
 10
261731.0992268533
 20
59343.15712542247
 30
0.0
 11
284311.556898898
 21
59343.15712542247
 31
0.0
  0
LINE
  5
2E32E
330
1F
100
AcDbEntity
  8
電気錠制御盤　（株）アート
  6
Continuous
 62
     7
370
    13
100
AcDbLine
 10
264486.7980044158
 20
59343.15712542247
 30
0.0
 11
264486.7980044158
 21
57506.02460704753
 31
0.0
  0
LINE
  5
2E32F
330
1F
100
AcDbEntity
  8
電気錠制御盤　（株）アート
  6
Continuous
 62
     7
370
    13
100
AcDbLine
 10
261731.0992268533
 20
57506.02460704753
 30
0.0
 11
284311.5568988963
 21
57506.02460704753
 31
0.0
  0
LINE
  5
2E330
330
1F
100
AcDbEntity
  8
電気錠制御盤　（株）アート
  6
Continuous
 62
     7
370
    13
100
AcDbLine
 10
261731.0992268533
 20
59343.15712542247
 30
0.0
 11
261731.0992268533
 21
34263.20110063238
 31
0.0
  0
LINE
  5
2E331
330
1F
100
AcDbEntity
  8
電気錠制御盤　（株）アート
 62
     7
370
    13
100
AcDbLine
 10
261731.0992268533
 20
34263.20110063238
 30
0.0
 11
284311.556898898
 21
34263.20110063238
 31
0.0
  0
LINE
  5
2E332
330
1F
100
AcDbEntity
  8
電気錠制御盤　（株）アート
  6
Continuous
 62
     7
370
    13
100
AcDbLine
 10
284311.556898898
 20
59343.15712542247
 30
0.0
 11
284311.556898898
 21
34263.20110063238
 31
0.0
  0
LINE
  5
2E334
330
1F
100
AcDbEntity
  8
電気錠制御盤　（株）アート
  6
Continuous
 62
     7
370
    13
100
AcDbLine
 10
262600.1628105248
 20
57967.37431083763
 30
0.0
 11
263514.5959213196
 21
57967.37431083761
 31
0.0
  0
LINE
  5
2E335
330
1F
100
AcDbEntity
  8
電気錠制御盤　（株）アート
  6
Continuous
 62
     7
370
    13
100
AcDbLine
 10
262600.1628105248
 20
58881.80742163236
 30
0.0
 11
262600.1628105248
 21
57967.37431083763
 31
0.0
  0
LINE
  5
2E336
330
1F
100
AcDbEntity
  8
電気錠制御盤　（株）アート
  6
Continuous
 62
     7
370
    13
100
AcDbLine
 10
263514.5959213196
 20
57967.37431083763
 30
0.0
 11
263514.5959213196
 21
58881.80742163236
 31
0.0
  0
LINE
  5
2E337
330
1F
100
AcDbEntity
  8
電気錠制御盤　（株）アート
  6
Continuous
 62
     7
370
    13
100
AcDbLine
 10
263514.5959213196
 20
58881.80742163236
 30
0.0
 11
262600.1628105248
 21
58881.80742163236
 31
0.0
  0
TEXT
  5
2E338
330
1F
100
AcDbEntity
  8
電気錠制御盤　（株）アート
  6
Continuous
 62
     7
370
    13
100
AcDbText
 10
262763.1510059933
 20
58032.28638632986
 30
0.0
 40
735.5708998221611
  1
Ｒ
 41
0.8
  7
KANJI
 72
     4
 11
263057.3793659222
 21
58424.59086623501
 31
0.0
100
AcDbText
  0
TEXT
  5
2E70B
330
1F
100
AcDbEntity
  8
電気錠制御盤　（株）アート
  6
Continuous
 62
     7
370
    13
100
AcDbText
 10
265070.4082435102
 20
58034.10988212313
 30
0.0
 40
735.5708998221611
  1
非接触式ＦｅｌｉＣａ／ＭＩＦＡＲＥ対応カードリーダ　ＷＭＬ－５０－Ｂ
 41
0.6
  7
KANJI
100
AcDbText
  0
DIMENSION
  5
2E70C
330
1F
100
AcDbEntity
  8
電気錠制御盤　（株）アート
  6
Continuous
 62
     7
370
    13
100
AcDbDimension
  2
*D4
 10
275451.0837329277
 20
54073.03420871523
 30
0.0
 11
275201.0837329277
 21
49931.23420871528
 31
0.0
 70
    32
  1
118
 71
     5
 42
8283.59999999999
  3
Standard
100
AcDbAlignedDimension
 13
274538.4837329277
 23
45789.43420871523
 33
0.0
 14
274538.4837329277
 24
54073.03420871523
 34
0.0
 50
90.0
100
AcDbRotatedDimension
1001
ACAD
1000
DSTYLE
1002
{
1070
    41
1040
500.0
1070
    73
1070
     0
1070
    77
1070
     1
1070
   140
1040
400.0
1070
   147
1040
50.0
1070
   173
1070
     1
1070
   343
1005
FF
1070
   344
1005
FF
1002
}
  0
DIMENSION
  5
2E70D
330
1F
100
AcDbEntity
  8
電気錠制御盤　（株）アート
  6
Continuous
 62
     7
370
    13
100
AcDbDimension
  2
*D5
 10
274398.0837329277
 20
55126.03420871523
 30
0.0
 11
270256.2837329277
 21
55376.03420871523
 31
0.0
 70
    32
  1
118
 71
     5
 42
8283.599999999976
  3
Standard
100
AcDbAlignedDimension
 13
266114.4837329277
 23
54213.43420871523
 33
0.0
 14
274398.0837329277
 24
54213.43420871523
 34
0.0
100
AcDbRotatedDimension
1001
ACAD
1000
DSTYLE
1002
{
1070
    41
1040
500.0
1070
    73
1070
     0
1070
    77
1070
     1
1070
   140
1040
400.0
1070
   147
1040
50.0
1070
   173
1070
     1
1070
   343
1005
FF
1070
   344
1005
FF
1002
}
  0
ARC
  5
2E70E
330
1F
100
AcDbEntity
  8
電気錠制御盤　（株）アート
  6
Continuous
 62
     7
370
    13
100
AcDbCircle
 10
272569.3737329303
 20
52122.38680871446
 30
0.0
 40
17.55
100
AcDbArc
 50
180.0
 51
270.0
  0
LINE
  5
2E70F
330
1F
100
AcDbEntity
  8
電気錠制御盤　（株）アート
  6
Continuous
 62
     7
370
    13
100
AcDbLine
 10
272551.8237329304
 20
52198.22386871529
 30
0.0
 11
272551.8237329304
 21
52122.38680871446
 31
0.0
  0
LINE
  5
2E710
330
1F
100
AcDbEntity
  8
電気錠制御盤　（株）アート
  6
Continuous
 62
     7
370
    13
100
AcDbLine
 10
272569.3737329303
 20
52104.83680871445
 30
0.0
 11
272576.3937329303
 21
52104.83680871445
 31
0.0
  0
ARC
  5
2E711
330
1F
100
AcDbEntity
  8
電気錠制御盤　（株）アート
  6
Continuous
 62
     7
370
    13
100
AcDbCircle
 10
272576.3937329303
 20
52122.38680871446
 30
0.0
 40
17.55
100
AcDbArc
 50
270.0
 51
0.0
  0
LINE
  5
2E712
330
1F
100
AcDbEntity
  8
電気錠制御盤　（株）アート
  6
Continuous
 62
     7
370
    13
100
AcDbLine
 10
272593.9437329304
 20
52122.38680871446
 30
0.0
 11
272593.9437329304
 21
52198.22386871529
 31
0.0
  0
ARC
  5
2E713
330
1F
100
AcDbEntity
  8
電気錠制御盤　（株）アート
  6
Continuous
 62
     7
370
    13
100
AcDbCircle
 10
272572.8837329278
 20
52238.70316342323
 30
0.0
 40
45.62999999999941
100
AcDbArc
 50
297.4864262498532
 51
242.5135737501468
  0
LINE
  5
2E714
330
1F
100
AcDbEntity
  8
電気錠制御盤　（株）アート
  6
Continuous
 62
     7
370
    13
100
AcDbLine
 10
272446.5237329303
 20
52336.38448871433
 30
0.0
 11
272446.5237329303
 21
52406.58448871434
 31
0.0
  0
ARC
  5
2E715
330
1F
100
AcDbEntity
  8
電気錠制御盤　（株）アート
  6
Continuous
 62
     7
370
    13
100
AcDbCircle
 10
272572.8837329278
 20
52406.58448871434
 30
0.0
 40
126.36
100
AcDbArc
 50
90.0
 51
180.0
  0
LINE
  5
2E716
330
1F
100
AcDbEntity
  8
電気錠制御盤　（株）アート
  6
Continuous
 62
     7
370
    13
100
AcDbLine
 10
272699.2437329303
 20
52406.58448871434
 30
0.0
 11
272699.2437329303
 21
52336.38448871433
 31
0.0
  0
ARC
  5
2E717
330
1F
100
AcDbEntity
  8
電気錠制御盤　（株）アート
  6
Continuous
 62
     7
370
    13
100
AcDbCircle
 10
272572.8837329278
 20
52406.58448871434
 30
0.0
 40
126.36
100
AcDbArc
 50
0.0
 51
90.0
  0
LINE
  5
2E718
330
1F
100
AcDbEntity
  8
電気錠制御盤　（株）アート
  6
Continuous
 62
     7
370
    13
100
AcDbLine
 10
272488.6437329303
 20
52336.38448871433
 30
0.0
 11
272488.6437329303
 21
52406.58448871434
 31
0.0
  0
ARC
  5
2E719
330
1F
100
AcDbEntity
  8
電気錠制御盤　（株）アート
  6
Continuous
 62
     7
370
    13
100
AcDbCircle
 10
272572.8837329278
 20
52406.58448871434
 30
0.0
 40
84.24000000000003
100
AcDbArc
 50
90.0
 51
180.0
  0
LINE
  5
2E71A
330
1F
100
AcDbEntity
  8
電気錠制御盤　（株）アート
  6
Continuous
 62
     7
370
    13
100
AcDbLine
 10
272657.1237329304
 20
52406.58448871434
 30
0.0
 11
272657.1237329304
 21
52336.38448871433
 31
0.0
  0
ARC
  5
2E71B
330
1F
100
AcDbEntity
  8
電気錠制御盤　（株）アート
  6
Continuous
 62
     7
370
    13
100
AcDbCircle
 10
272572.8837329278
 20
52406.58448871434
 30
0.0
 40
84.24000000000003
100
AcDbArc
 50
0.0
 51
90.0
  0
LINE
  5
2E71C
330
1F
100
AcDbEntity
  8
電気錠制御盤　（株）アート
  6
Continuous
 62
     7
370
    13
100
AcDbLine
 10
272390.3637329277
 20
52336.38448871433
 30
0.0
 11
272390.3637329277
 21
52055.58448871434
 31
0.0
  0
LINE
  5
2E71D
330
1F
100
AcDbEntity
  8
電気錠制御盤　（株）アート
  6
Continuous
 62
     7
370
    13
100
AcDbLine
 10
272390.3637329277
 20
52055.58448871434
 30
0.0
 11
272755.4037329304
 21
52055.58448871434
 31
0.0
  0
LINE
  5
2E71E
330
1F
100
AcDbEntity
  8
電気錠制御盤　（株）アート
  6
Continuous
 62
     7
370
    13
100
AcDbLine
 10
272755.4037329304
 20
52055.58448871434
 30
0.0
 11
272755.4037329304
 21
52336.38448871433
 31
0.0
  0
LINE
  5
2E71F
330
1F
100
AcDbEntity
  8
電気錠制御盤　（株）アート
  6
Continuous
 62
     7
370
    13
100
AcDbLine
 10
272446.5237329303
 20
52336.38448871433
 30
0.0
 11
272390.3637329277
 21
52336.38448871433
 31
0.0
  0
LINE
  5
2E720
330
1F
100
AcDbEntity
  8
電気錠制御盤　（株）アート
  6
Continuous
 62
     7
370
    13
100
AcDbLine
 10
272755.4037329304
 20
52336.38448871433
 30
0.0
 11
272699.2437329303
 21
52336.38448871433
 31
0.0
  0
LINE
  5
2E721
330
1F
100
AcDbEntity
  8
電気錠制御盤　（株）アート
  6
Continuous
 62
     7
370
    13
100
AcDbLine
 10
272657.1237329304
 20
52336.38448871433
 30
0.0
 11
272488.6437329303
 21
52336.38448871433
 31
0.0
  0
LINE
  5
2E722
330
1F
100
AcDbEntity
  8
電気錠制御盤　（株）アート
  6
Continuous
 62
     7
370
    13
100
AcDbLine
 10
271326.8337329277
 20
52325.05420871521
 30
0.0
 11
271326.8337329277
 21
52149.55420871521
 31
0.0
  0
LINE
  5
2E723
330
1F
100
AcDbEntity
  8
電気錠制御盤　（株）アート
  6
Continuous
 62
     7
370
    13
100
AcDbLine
 10
271326.8337329277
 20
52149.55420871521
 30
0.0
 11
271502.3337329277
 21
52149.55420871521
 31
0.0
  0
LINE
  5
2E724
330
1F
100
AcDbEntity
  8
電気錠制御盤　（株）アート
  6
Continuous
 62
     7
370
    13
100
AcDbLine
 10
271502.3337329277
 20
52149.55420871521
 30
0.0
 11
271502.3337329277
 21
52325.05420871521
 31
0.0
  0
LINE
  5
2E725
330
1F
100
AcDbEntity
  8
電気錠制御盤　（株）アート
  6
Continuous
 62
     7
370
    13
100
AcDbLine
 10
271502.3337329277
 20
52325.05420871521
 30
0.0
 11
271326.8337329277
 21
52325.05420871521
 31
0.0
  0
LINE
  5
2E726
330
1F
100
AcDbEntity
  8
電気錠制御盤　（株）アート
  6
Continuous
 62
     7
370
    13
100
AcDbLine
 10
270168.5337329277
 20
52325.05420871521
 30
0.0
 11
270168.5337329277
 21
52149.55420871521
 31
0.0
  0
LINE
  5
2E727
330
1F
100
AcDbEntity
  8
電気錠制御盤　（株）アート
  6
Continuous
 62
     7
370
    13
100
AcDbLine
 10
270168.5337329277
 20
52149.55420871521
 30
0.0
 11
270344.0337329277
 21
52149.55420871521
 31
0.0
  0
LINE
  5
2E728
330
1F
100
AcDbEntity
  8
電気錠制御盤　（株）アート
  6
Continuous
 62
     7
370
    13
100
AcDbLine
 10
270344.0337329277
 20
52149.55420871521
 30
0.0
 11
270344.0337329277
 21
52325.05420871521
 31
0.0
  0
LINE
  5
2E729
330
1F
100
AcDbEntity
  8
電気錠制御盤　（株）アート
  6
Continuous
 62
     7
370
    13
100
AcDbLine
 10
270344.0337329277
 20
52325.05420871521
 30
0.0
 11
270168.5337329277
 21
52325.05420871521
 31
0.0
  0
LINE
  5
2E72A
330
1F
100
AcDbEntity
  8
電気錠制御盤　（株）アート
  6
Continuous
 62
     7
370
    13
100
AcDbLine
 10
269010.2337329277
 20
52325.05420871521
 30
0.0
 11
269010.2337329277
 21
52149.55420871521
 31
0.0
  0
LINE
  5
2E72B
330
1F
100
AcDbEntity
  8
電気錠制御盤　（株）アート
  6
Continuous
 62
     7
370
    13
100
AcDbLine
 10
269010.2337329277
 20
52149.55420871521
 30
0.0
 11
269185.7337329278
 21
52149.55420871521
 31
0.0
  0
LINE
  5
2E72C
330
1F
100
AcDbEntity
  8
電気錠制御盤　（株）アート
  6
Continuous
 62
     7
370
    13
100
AcDbLine
 10
269185.7337329278
 20
52149.55420871521
 30
0.0
 11
269185.7337329278
 21
52325.05420871521
 31
0.0
  0
LINE
  5
2E72D
330
1F
100
AcDbEntity
  8
電気錠制御盤　（株）アート
  6
Continuous
 62
     7
370
    13
100
AcDbLine
 10
269185.7337329278
 20
52325.05420871521
 30
0.0
 11
269010.2337329277
 21
52325.05420871521
 31
0.0
  0
LINE
  5
2E72E
330
1F
100
AcDbEntity
  8
電気錠制御盤　（株）アート
  6
Continuous
 62
     7
370
    13
100
AcDbLine
 10
267851.9337329277
 20
52325.05420871521
 30
0.0
 11
267851.9337329277
 21
52149.55420871521
 31
0.0
  0
LINE
  5
2E72F
330
1F
100
AcDbEntity
  8
電気錠制御盤　（株）アート
  6
Continuous
 62
     7
370
    13
100
AcDbLine
 10
267851.9337329277
 20
52149.55420871521
 30
0.0
 11
268027.4337329278
 21
52149.55420871521
 31
0.0
  0
LINE
  5
2E730
330
1F
100
AcDbEntity
  8
電気錠制御盤　（株）アート
  6
Continuous
 62
     7
370
    13
100
AcDbLine
 10
268027.4337329278
 20
52149.55420871521
 30
0.0
 11
268027.4337329278
 21
52325.05420871521
 31
0.0
  0
LINE
  5
2E731
330
1F
100
AcDbEntity
  8
電気錠制御盤　（株）アート
  6
Continuous
 62
     7
370
    13
100
AcDbLine
 10
268027.4337329278
 20
52325.05420871521
 30
0.0
 11
267851.9337329277
 21
52325.05420871521
 31
0.0
  0
TEXT
  5
2E732
330
1F
100
AcDbEntity
  8
電気錠制御盤　（株）アート
  6
Continuous
 62
     7
370
    13
100
AcDbText
 10
271131.7830329293
 20
52403.80456871502
 30
0.0
 40
210.6
  1
GUARD
 41
0.5533333333333333
 11
271131.7830329293
 21
52403.80456871502
 31
0.0
100
AcDbText
 73
     1
  0
TEXT
  5
2E733
330
1F
100
AcDbEntity
  8
電気錠制御盤　（株）アート
  6
Continuous
 62
     7
370
    13
100
AcDbText
 10
269973.4830329293
 20
52403.80456871502
 30
0.0
 40
210.6
  1
ERROR
 41
0.5533333333333333
 11
269973.4830329293
 21
52403.80456871502
 31
0.0
100
AcDbText
 73
     1
  0
TEXT
  5
2E734
330
1F
100
AcDbEntity
  8
電気錠制御盤　（株）アート
  6
Continuous
 62
     7
370
    13
100
AcDbText
 10
268865.5164329288
 20
52403.80456871502
 30
0.0
 40
210.6
  1
LOCK
 41
0.5499999999999995
 11
268865.5164329288
 21
52403.80456871502
 31
0.0
100
AcDbText
 73
     1
  0
TEXT
  5
2E735
330
1F
100
AcDbEntity
  8
電気錠制御盤　（株）アート
  6
Continuous
 62
     7
370
    13
100
AcDbText
 10
267656.8830329293
 20
52403.80456871502
 30
0.0
 40
210.6
  1
POWER
 41
0.5533333333333333
 11
267656.8830329293
 21
52403.80456871502
 31
0.0
100
AcDbText
 73
     1
  0
ARC
  5
2E736
330
1F
100
AcDbEntity
  8
電気錠制御盤　（株）アート
  6
Continuous
 62
     7
370
    13
100
AcDbCircle
 10
270355.5615038034
 20
50173.40647220743
 30
0.0
 40
70.2
100
AcDbArc
 50
44.99999999955782
 51
135.0000000004422
  0
LINE
  5
2E737
330
1F
100
AcDbEntity
  8
電気錠制御盤　（株）アート
  6
Continuous
 62
     7
370
    13
100
AcDbLine
 10
270653.394880039
 20
49974.85088804998
 30
0.0
 11
270405.2003998431
 21
50223.04536824581
 31
0.0
  0
ARC
  5
2E738
330
1F
100
AcDbEntity
  8
電気錠制御盤　（株）アート
  6
Continuous
 62
     7
370
    13
100
AcDbCircle
 10
270603.7559839993
 20
49925.21199201028
 30
0.0
 40
70.2
100
AcDbArc
 50
315.0000000004422
 51
44.99999999955782
  0
LINE
  5
2E739
330
1F
100
AcDbEntity
  8
電気錠制御盤　（株）アート
  6
Continuous
 62
     7
370
    13
100
AcDbLine
 10
270206.644815687
 20
49428.82303161735
 30
0.0
 11
270653.394880039
 21
49875.57309597059
 31
0.0
  0
ARC
  5
2E73A
330
1F
100
AcDbEntity
  8
電気錠制御盤　（株）アート
  6
Continuous
 62
     7
370
    13
100
AcDbCircle
 10
270157.0059196473
 20
49478.46192765704
 30
0.0
 40
70.2
100
AcDbArc
 50
224.9999999995578
 51
315.0000000004422
  0
LINE
  5
2E73B
330
1F
100
AcDbEntity
  8
電気錠制御盤　（株）アート
  6
Continuous
 62
     7
370
    13
100
AcDbLine
 10
270305.9226077638
 20
50223.04536824581
 30
0.0
 11
269859.1725434092
 21
49776.29530389254
 31
0.0
  0
LINE
  5
2E73C
330
1F
100
AcDbEntity
  8
電気錠制御盤　（株）アート
  6
Continuous
 62
     7
370
    13
100
AcDbLine
 10
269859.1725434092
 20
49677.01751181317
 30
0.0
 11
270107.3670236076
 21
49428.82303161735
 31
0.0
  0
ARC
  5
2E73D
330
1F
100
AcDbEntity
  8
電気錠制御盤　（株）アート
  6
Continuous
 62
     7
370
    13
100
AcDbCircle
 10
269908.811439449
 20
49726.65640785285
 30
0.0
 40
70.2
100
AcDbArc
 50
135.0000000004422
 51
224.9999999995578
  0
LINE
  5
2E73E
330
1F
100
AcDbEntity
  8
電気錠制御盤　（株）アート
  6
Continuous
 62
     7
370
    13
100
AcDbLine
 10
269496.8086023234
 20
50456.34817963104
 30
0.0
 11
269772.3044753417
 21
50309.9134363159
 31
0.0
  0
LINE
  5
2E73F
330
1F
100
AcDbEntity
  8
電気錠制御盤　（株）アート
  6
Continuous
 62
     7
370
    13
100
AcDbLine
 10
269772.3044753417
 20
50309.9134363159
 30
0.0
 11
269625.8697320266
 21
50585.40930933291
 31
0.0
  0
LINE
  5
2E740
330
1F
100
AcDbEntity
  8
電気錠制御盤　（株）アート
  6
Continuous
 62
     7
370
    13
100
AcDbLine
 10
269625.8697320266
 20
50585.40930933291
 30
0.0
 11
269496.8086023234
 21
50456.34817963104
 31
0.0
  0
LINE
  5
2E741
330
1F
100
AcDbEntity
  8
電気錠制御盤　（株）アート
  6
Continuous
 62
     7
370
    13
100
AcDbLine
 10
269581.840475491
 20
50387.30089924483
 30
0.0
 11
269638.9259499275
 21
50356.9581695883
 31
0.0
  0
LINE
  5
2E742
330
1F
100
AcDbEntity
  8
電気錠制御盤　（株）アート
  6
Continuous
 62
     7
370
    13
100
AcDbLine
 10
269694.9170124128
 20
50500.37743616798
 30
0.0
 11
269725.2597420681
 21
50443.29196172874
 31
0.0
  0
LINE
  5
2E743
330
1F
100
AcDbEntity
  8
電気錠制御盤　（株）アート
  6
Continuous
 62
     7
370
    13
100
AcDbLine
 10
269625.8697320266
 20
49066.45909053023
 30
0.0
 11
269772.3044753417
 21
49341.95496354853
 31
0.0
  0
LINE
  5
2E744
330
1F
100
AcDbEntity
  8
電気錠制御盤　（株）アート
  6
Continuous
 62
     7
370
    13
100
AcDbLine
 10
269772.3044753417
 20
49341.95496354853
 30
0.0
 11
269496.8086023234
 21
49195.52022023212
 31
0.0
  0
LINE
  5
2E745
330
1F
100
AcDbEntity
  8
電気錠制御盤　（株）アート
  6
Continuous
 62
     7
370
    13
100
AcDbLine
 10
269496.8086023234
 20
49195.52022023212
 30
0.0
 11
269625.8697320266
 21
49066.45909053023
 31
0.0
  0
LINE
  5
2E746
330
1F
100
AcDbEntity
  8
電気錠制御盤　（株）アート
  6
Continuous
 62
     7
370
    13
100
AcDbLine
 10
269694.9170124128
 20
49151.49096369646
 30
0.0
 11
269725.2597420681
 21
49208.57643813572
 31
0.0
  0
LINE
  5
2E747
330
1F
100
AcDbEntity
  8
電気錠制御盤　（株）アート
  6
Continuous
 62
     7
370
    13
100
AcDbLine
 10
269581.840475491
 20
49264.5675006196
 30
0.0
 11
269638.9259499275
 21
49294.91023027613
 31
0.0
  0
LINE
  5
2E748
330
1F
100
AcDbEntity
  8
電気錠制御盤　（株）アート
  6
Continuous
 62
     7
370
    13
100
AcDbLine
 10
270886.6976914242
 20
50585.40930933291
 30
0.0
 11
270740.262948109
 21
50309.9134363159
 31
0.0
  0
LINE
  5
2E749
330
1F
100
AcDbEntity
  8
電気錠制御盤　（株）アート
  6
Continuous
 62
     7
370
    13
100
AcDbLine
 10
270740.262948109
 20
50309.9134363159
 30
0.0
 11
271015.7588211247
 21
50456.34817963104
 31
0.0
  0
LINE
  5
2E74A
330
1F
100
AcDbEntity
  8
電気錠制御盤　（株）アート
  6
Continuous
 62
     7
370
    13
100
AcDbLine
 10
271015.7588211247
 20
50456.34817963104
 30
0.0
 11
270886.6976914242
 21
50585.40930933291
 31
0.0
  0
LINE
  5
2E74B
330
1F
100
AcDbEntity
  8
電気錠制御盤　（株）アート
  6
Continuous
 62
     7
370
    13
100
AcDbLine
 10
270817.6504110354
 20
50500.37743616798
 30
0.0
 11
270787.3076813802
 21
50443.29196172874
 31
0.0
  0
LINE
  5
2E74C
330
1F
100
AcDbEntity
  8
電気錠制御盤　（株）アート
  6
Continuous
 62
     7
370
    13
100
AcDbLine
 10
270930.7269479599
 20
50387.30089924483
 30
0.0
 11
270873.6414735206
 21
50356.9581695883
 31
0.0
  0
LINE
  5
2E74D
330
1F
100
AcDbEntity
  8
電気錠制御盤　（株）アート
  6
Continuous
 62
     7
370
    13
100
AcDbLine
 10
271015.7588635347
 20
49195.52017782347
 30
0.0
 11
270740.2629905164
 21
49341.95492113857
 31
0.0
  0
LINE
  5
2E74E
330
1F
100
AcDbEntity
  8
電気錠制御盤　（株）アート
  6
Continuous
 62
     7
370
    13
100
AcDbLine
 10
270740.2629905164
 20
49341.95492113857
 30
0.0
 11
270886.6977338341
 21
49066.45904812161
 31
0.0
  0
LINE
  5
2E74F
330
1F
100
AcDbEntity
  8
電気錠制御盤　（株）アート
  6
Continuous
 62
     7
370
    13
100
AcDbLine
 10
270886.6977338341
 20
49066.45904812161
 30
0.0
 11
271015.7588635347
 21
49195.52017782347
 31
0.0
  0
LINE
  5
2E750
330
1F
100
AcDbEntity
  8
電気錠制御盤　（株）アート
  6
Continuous
 62
     7
370
    13
100
AcDbLine
 10
270930.7269903697
 20
49264.56745820966
 30
0.0
 11
270873.6415159306
 21
49294.91018786618
 31
0.0
  0
LINE
  5
2E751
330
1F
100
AcDbEntity
  8
電気錠制御盤　（株）アート
  6
Continuous
 62
     7
370
    13
100
AcDbLine
 10
270817.6504534479
 20
49151.49092128783
 30
0.0
 11
270787.3077237902
 21
49208.57639572576
 31
0.0
  0
LINE
  5
2E752
330
1F
100
AcDbEntity
  8
電気錠制御盤　（株）アート
  6
Continuous
 62
     7
370
    13
100
AcDbLine
 10
270212.7560120504
 20
49345.95024641827
 30
0.0
 11
270659.5060764023
 21
49792.70031077153
 31
0.0
  0
ARC
  5
2E753
330
1F
100
AcDbEntity
  8
電気錠制御盤　（株）アート
  6
Continuous
 62
     7
370
    13
100
AcDbCircle
 10
270163.1171160107
 20
49395.58914245794
 30
0.0
 40
70.2
100
AcDbArc
 50
224.9999999995578
 51
315.0000000004422
  0
LINE
  5
2E754
330
1F
100
AcDbEntity
  8
電気錠制御盤　（株）アート
  6
Continuous
 62
     7
370
    13
100
AcDbLine
 10
269865.2837397725
 20
49594.1447266141
 30
0.0
 11
270113.478219971
 21
49345.95024641827
 31
0.0
  0
ARC
  5
2E755
330
1F
100
AcDbEntity
  8
電気錠制御盤　（株）アート
  6
Continuous
 62
     7
370
    13
100
AcDbCircle
 10
269914.9226358122
 20
49643.78362265377
 30
0.0
 40
70.2
100
AcDbArc
 50
148.1135373338469
 51
224.9999999995578
  0
ARC
  5
2E756
330
1F
100
AcDbEntity
  8
電気錠制御盤　（株）アート
  6
Continuous
 62
     7
370
    13
100
AcDbCircle
 10
270609.8671803627
 20
49842.33920681122
 30
0.0
 40
70.2
100
AcDbArc
 50
315.0000000004422
 51
40.50691148489018
  0
ARC
  5
2E757
330
1F
100
AcDbEntity
  8
電気錠制御盤　（株）アート
  6
Continuous
 62
     7
370
    13
100
AcDbCircle
 10
270256.2837117242
 20
49825.93419993092
 30
0.0
 40
877.5
100
AcDbArc
 50
140.2280028793335
 51
219.7719971206665
  0
ARC
  5
2E758
330
1F
100
AcDbEntity
  8
電気錠制御盤　（株）アート
  6
Continuous
 62
     7
370
    13
100
AcDbCircle
 10
270256.2837117242
 20
49825.93419993092
 30
0.0
 40
814.32
100
AcDbArc
 50
139.2993320216178
 51
220.7006679783822
  0
ARC
  5
2E759
330
1F
100
AcDbEntity
  8
電気錠制御盤　（株）アート
  6
Continuous
 62
     7
370
    13
100
AcDbCircle
 10
270256.2837117242
 20
49825.93419993092
 30
0.0
 40
877.5
100
AcDbArc
 50
230.2280028803744
 51
309.7719982899264
  0
ARC
  5
2E75A
330
1F
100
AcDbEntity
  8
電気錠制御盤　（株）アート
  6
Continuous
 62
     7
370
    13
100
AcDbCircle
 10
270256.2837117242
 20
49825.93419993092
 30
0.0
 40
814.32
100
AcDbArc
 50
229.2993320217538
 51
310.7006692431535
  0
ARC
  5
2E75B
330
1F
100
AcDbEntity
  8
電気錠制御盤　（株）アート
  6
Continuous
 62
     7
370
    13
100
AcDbCircle
 10
270256.2837117242
 20
49825.93419993092
 30
0.0
 40
877.5
100
AcDbArc
 50
320.2280017100736
 51
39.77199712066644
  0
ARC
  5
2E75C
330
1F
100
AcDbEntity
  8
電気錠制御盤　（株）アート
  6
Continuous
 62
     7
370
    13
100
AcDbCircle
 10
270256.2837117242
 20
49825.93419993092
 30
0.0
 40
877.5
100
AcDbArc
 50
50.22800288037444
 51
129.7719971196256
  0
ARC
  5
2E75D
330
1F
100
AcDbEntity
  8
電気錠制御盤　（株）アート
  6
Continuous
 62
     7
370
    13
100
AcDbCircle
 10
270256.2837117242
 20
49825.93419993092
 30
0.0
 40
814.32
100
AcDbArc
 50
319.2033649873802
 51
40.70066797838217
  0
ARC
  5
2E75E
330
1F
100
AcDbEntity
  8
電気錠制御盤　（株）アート
  6
Continuous
 62
     7
370
    13
100
AcDbCircle
 10
270256.2837117242
 20
49825.93419993092
 30
0.0
 40
814.32
100
AcDbArc
 50
49.29933202175376
 51
130.7006679782462
  0
LINE
  5
2E75F
330
1F
100
AcDbEntity
  8
電気錠制御盤　（株）アート
  6
Continuous
 62
     7
370
    13
100
AcDbLine
 10
274382.7230845398
 20
45804.91531370316
 30
0.0
 11
274361.5797329304
 21
45826.22446926384
 31
0.0
  0
LINE
  5
2E760
330
1F
100
AcDbEntity
  8
電気錠制御盤　（株）アート
  6
Continuous
 62
     7
370
    13
100
AcDbLine
 10
274361.5797329304
 20
54036.24394884002
 30
0.0
 11
274382.7230843987
 21
54057.55310386981
 31
0.0
  0
LINE
  5
2E761
330
1F
100
AcDbEntity
  8
電気錠制御盤　（株）アート
  6
Continuous
 62
     7
370
    13
100
AcDbLine
 10
266150.9877329303
 20
54036.24394884002
 30
0.0
 11
266129.8443814595
 21
54057.55310386981
 31
0.0
  0
LINE
  5
2E762
330
1F
100
AcDbEntity
  8
電気錠制御盤　（株）アート
  6
Continuous
 62
     7
370
    13
100
AcDbLine
 10
266150.9877329303
 20
45826.22446926384
 30
0.0
 11
266129.8443813183
 21
45804.91531370316
 31
0.0
  0
ARC
  5
2E763
330
1F
100
AcDbEntity
  8
電気錠制御盤　（株）アート
  6
Continuous
 62
     7
370
    13
100
AcDbCircle
 10
266168.5377329304
 20
45843.77446926382
 30
0.0
 40
17.55
100
AcDbArc
 50
180.0
 51
270.0
  0
LINE
  5
2E764
330
1F
100
AcDbEntity
  8
電気錠制御盤　（株）アート
  6
Continuous
 62
     7
370
    13
100
AcDbLine
 10
266150.9877329303
 20
54018.69394884003
 30
0.0
 11
266150.9877329303
 21
45843.77446926382
 31
0.0
  0
LINE
  5
2E765
330
1F
100
AcDbEntity
  8
電気錠制御盤　（株）アート
  6
Continuous
 62
     7
370
    13
100
AcDbLine
 10
266168.5377329304
 20
45826.22446926384
 30
0.0
 11
274344.0297329304
 21
45826.22446926384
 31
0.0
  0
ARC
  5
2E766
330
1F
100
AcDbEntity
  8
電気錠制御盤　（株）アート
  6
Continuous
 62
     7
370
    13
100
AcDbCircle
 10
274344.0297329304
 20
45843.77446926382
 30
0.0
 40
17.55
100
AcDbArc
 50
270.0
 51
0.0
  0
LINE
  5
2E767
330
1F
100
AcDbEntity
  8
電気錠制御盤　（株）アート
  6
Continuous
 62
     7
370
    13
100
AcDbLine
 10
274361.5797329304
 20
45843.77446926382
 30
0.0
 11
274361.5797329304
 21
54018.69394884003
 31
0.0
  0
ARC
  5
2E768
330
1F
100
AcDbEntity
  8
電気錠制御盤　（株）アート
  6
Continuous
 62
     7
370
    13
100
AcDbCircle
 10
274344.0297329304
 20
54018.69394884003
 30
0.0
 40
17.55
100
AcDbArc
 50
0.0
 51
90.0
  0
LINE
  5
2E769
330
1F
100
AcDbEntity
  8
電気錠制御盤　（株）アート
  6
Continuous
 62
     7
370
    13
100
AcDbLine
 10
274344.0297329304
 20
54036.24394884002
 30
0.0
 11
266168.5377329304
 21
54036.24394884002
 31
0.0
  0
ARC
  5
2E76A
330
1F
100
AcDbEntity
  8
電気錠制御盤　（株）アート
  6
Continuous
 62
     7
370
    13
100
AcDbCircle
 10
266168.5377329304
 20
54018.69394884003
 30
0.0
 40
17.55
100
AcDbArc
 50
90.0
 51
180.0
  0
ARC
  5
2E76B
330
1F
100
AcDbEntity
  8
電気錠制御盤　（株）アート
  6
Continuous
 62
     7
370
    13
100
AcDbCircle
 10
266167.1337329277
 20
54020.38420871523
 30
0.0
 40
52.65
100
AcDbArc
 50
90.0
 51
180.0
  0
LINE
  5
2E76C
330
1F
100
AcDbEntity
  8
電気錠制御盤　（株）アート
  6
Continuous
 62
     7
370
    13
100
AcDbLine
 10
266114.4837329277
 20
54020.38420871523
 30
0.0
 11
266114.4837329277
 21
45842.08420871523
 31
0.0
  0
LINE
  5
2E76D
330
1F
100
AcDbEntity
  8
電気錠制御盤　（株）アート
  6
Continuous
 62
     7
370
    13
100
AcDbLine
 10
274345.4337329277
 20
54073.03420871523
 30
0.0
 11
266167.1337329277
 21
54073.03420871523
 31
0.0
  0
ARC
  5
2E76E
330
1F
100
AcDbEntity
  8
電気錠制御盤　（株）アート
  6
Continuous
 62
     7
370
    13
100
AcDbCircle
 10
266167.1337329277
 20
45842.08420871523
 30
0.0
 40
52.65
100
AcDbArc
 50
180.0
 51
270.0
  0
LINE
  5
2E76F
330
1F
100
AcDbEntity
  8
電気錠制御盤　（株）アート
  6
Continuous
 62
     7
370
    13
100
AcDbLine
 10
266167.1337329277
 20
45789.43420871523
 30
0.0
 11
274345.4337329277
 21
45789.43420871523
 31
0.0
  0
ARC
  5
2E770
330
1F
100
AcDbEntity
  8
電気錠制御盤　（株）アート
  6
Continuous
 62
     7
370
    13
100
AcDbCircle
 10
274345.4337329277
 20
45842.08420871523
 30
0.0
 40
52.65
100
AcDbArc
 50
270.0
 51
0.0
  0
LINE
  5
2E771
330
1F
100
AcDbEntity
  8
電気錠制御盤　（株）アート
  6
Continuous
 62
     7
370
    13
100
AcDbLine
 10
274398.0837329277
 20
45842.08420871523
 30
0.0
 11
274398.0837329277
 21
54020.38420871523
 31
0.0
  0
ARC
  5
2E772
330
1F
100
AcDbEntity
  8
電気錠制御盤　（株）アート
  6
Continuous
 62
     7
370
    13
100
AcDbCircle
 10
274345.4337329277
 20
54020.38420871523
 30
0.0
 40
52.65
100
AcDbArc
 50
0.0
 51
90.0
  0
LINE
  5
2E773
330
1F
100
AcDbEntity
  8
電気錠制御盤　（株）アート
  6
Continuous
 62
     7
370
    13
100
AcDbLine
 10
266265.4137329277
 20
53922.10420871522
 30
0.0
 11
266265.4137329277
 21
45940.36420871523
 31
0.0
  0
LINE
  5
2E774
330
1F
100
AcDbEntity
  8
電気錠制御盤　（株）アート
  6
Continuous
 62
     7
370
    13
100
AcDbLine
 10
266265.4137329277
 20
45940.36420871523
 30
0.0
 11
274247.1537329303
 21
45940.36420871523
 31
0.0
  0
LINE
  5
2E775
330
1F
100
AcDbEntity
  8
電気錠制御盤　（株）アート
  6
Continuous
 62
     7
370
    13
100
AcDbLine
 10
274247.1537329303
 20
45940.36420871523
 30
0.0
 11
274247.1537329303
 21
53922.10420871522
 31
0.0
  0
LINE
  5
2E776
330
1F
100
AcDbEntity
  8
電気錠制御盤　（株）アート
  6
Continuous
 62
     7
370
    13
100
AcDbLine
 10
274247.1537329303
 20
53922.10420871522
 30
0.0
 11
266265.4137329277
 21
53922.10420871522
 31
0.0
  0
LINE
  5
2E777
330
1F
100
AcDbEntity
  8
電気錠制御盤　（株）アート
  6
Continuous
 62
     7
370
    13
100
AcDbLine
 10
278644.4488843236
 20
45789.64152679971
 30
0.0
 11
278652.2036815792
 21
45789.23513190082
 31
0.0
  0
ARC
  5
2E778
330
1F
100
AcDbEntity
  8
電気錠制御盤　（株）アート
  6
Continuous
 62
     7
370
    13
100
AcDbCircle
 10
278645.1836795786
 20
45803.66235112049
 30
0.0
 40
14.0400000000002
100
AcDbArc
 50
180.0
 51
266.9999999995803
  0
LINE
  5
2E779
330
1F
100
AcDbEntity
  8
電気錠制御盤　（株）アート
  6
Continuous
 62
     7
370
    13
100
AcDbLine
 10
278596.7785145134
 20
45789.84054000311
 30
0.0
 11
278589.0237162378
 21
45789.43414510422
 31
0.0
  0
ARC
  5
2E77A
330
1F
100
AcDbEntity
  8
電気錠制御盤　（株）アート
  6
Continuous
 62
     7
370
    13
100
AcDbCircle
 10
278596.0437172394
 20
45803.86122762589
 30
0.0
 40
14.0399999999992
100
AcDbArc
 50
273.0000000004197
 51
0.0
  0
DIMENSION
  5
2E77B
330
1F
100
AcDbEntity
  8
電気錠制御盤　（株）アート
  6
Continuous
 62
     7
370
    13
100
AcDbDimension
  2
*D2
 10
279733.2837329277
 20
55126.03420871523
 30
0.0
 11
278820.6837329278
 21
55376.03420871523
 31
0.0
 70
    32
  1
26
 71
     5
 42
1825.200000000011
  3
Standard
100
AcDbAlignedDimension
 13
277908.0837329277
 23
54143.33529313464
 33
0.0
 14
279733.2837329277
 24
54156.40930338087
 34
0.0
100
AcDbRotatedDimension
1001
ACAD
1000
DSTYLE
1002
{
1070
    41
1040
500.0
1070
    73
1070
     0
1070
    77
1070
     1
1070
   140
1040
400.0
1070
   147
1040
50.0
1070
   173
1070
     1
1070
   343
1005
FF
1070
   344
1005
FF
1002
}
  0
LINE
  5
2E77C
330
1F
100
AcDbEntity
  8
電気錠制御盤　（株）アート
  6
Continuous
 62
     7
370
    13
100
AcDbLine
 10
279700.020676575
 20
45844.14897933034
 30
0.0
 11
278652.2036815792
 21
45789.23519551184
 31
0.0
  0
LINE
  5
2E77D
330
1F
100
AcDbEntity
  8
電気錠制御盤　（株）アート
  6
Continuous
 62
     7
370
    13
100
AcDbLine
 10
278631.1436805802
 20
45892.32795759467
 30
0.0
 11
278631.1436805802
 21
45803.66247593788
 31
0.0
  0
LINE
  5
2E77E
330
1F
100
AcDbEntity
  8
電気錠制御盤　（株）アート
  6
Continuous
 62
     7
370
    13
100
AcDbLine
 10
278631.1436805802
 20
45812.13505118516
 30
0.0
 11
278610.0836795786
 21
45812.50274180796
 31
0.0
  0
LINE
  5
2E77F
330
1F
100
AcDbEntity
  8
電気錠制御盤　（株）アート
  6
Continuous
 62
     7
370
    13
100
AcDbLine
 10
278610.0836795786
 20
45892.32795759467
 30
0.0
 11
278610.0836795786
 21
45812.50274180796
 31
0.0
  0
LINE
  5
2E780
330
1F
100
AcDbEntity
  8
電気錠制御盤　（株）アート
  6
Continuous
 62
     7
370
    13
100
AcDbLine
 10
279733.2837329277
 20
45879.2009316328
 30
0.0
 11
279733.2837329277
 21
45892.32795759467
 31
0.0
  0
ARC
  5
2E781
330
1F
100
AcDbEntity
  8
電気錠制御盤　（株）アート
  6
Continuous
 62
     7
370
    13
100
AcDbCircle
 10
279698.1836795786
 20
45879.20090270266
 30
0.0
 40
35.1
100
AcDbArc
 50
273.0000000004197
 51
0.0
  0
ARC
  5
2E782
330
1F
100
AcDbEntity
  8
電気錠制御盤　（株）アート
  6
Continuous
 62
     7
370
    13
100
AcDbCircle
 10
277943.1837172368
 20
45858.42933040433
 30
0.0
 40
35.1
100
AcDbArc
 50
180.0
 51
266.9999999995803
  0
LINE
  5
2E783
330
1F
100
AcDbEntity
  8
電気錠制御盤　（株）アート
  6
Continuous
 62
     7
370
    13
100
AcDbLine
 10
278589.0237162378
 20
45789.43420871523
 30
0.0
 11
277941.3467239016
 21
45823.37733581094
 31
0.0
  0
LINE
  5
2E784
330
1F
100
AcDbEntity
  8
電気錠制御盤　（株）アート
  6
Continuous
 62
     7
370
    13
100
AcDbLine
 10
278610.0837172369
 20
45870.67526876358
 30
0.0
 11
278610.0837172369
 21
45803.86122762589
 31
0.0
  0
LINE
  5
2E785
330
1F
100
AcDbEntity
  8
電気錠制御盤　（株）アート
  6
Continuous
 62
     7
370
    13
100
AcDbLine
 10
277908.0837329277
 20
45930.4205492082
 30
0.0
 11
277908.0837329277
 21
45858.42928811339
 31
0.0
  0
LINE
  5
2E786
330
1F
100
AcDbEntity
  8
電気錠制御盤　（株）アート
  6
Continuous
 62
     7
370
    13
100
AcDbLine
 10
277908.0837329277
 20
45930.4205492082
 30
0.0
 11
277908.0837329277
 21
46000.62069147257
 31
0.0
  0
LINE
  5
2E787
330
1F
100
AcDbEntity
  8
電気錠制御盤　（株）アート
  6
Continuous
 62
     7
370
    13
100
AcDbLine
 10
278610.0837172369
 20
45929.83423172858
 30
0.0
 11
278610.0837172369
 21
45870.67526876358
 31
0.0
  0
LINE
  5
2E788
330
1F
100
AcDbEntity
  8
電気錠制御盤　（株）アート
  6
Continuous
 62
     7
370
    13
100
AcDbLine
 10
279700.020676575
 20
54018.31943810011
 30
0.0
 11
278652.2036815792
 21
54073.23322191861
 31
0.0
  0
LINE
  5
2E789
330
1F
100
AcDbEntity
  8
電気錠制御盤　（株）アート
  6
Continuous
 62
     7
370
    13
100
AcDbLine
 10
278644.4488843236
 20
54072.82682701971
 30
0.0
 11
278652.2036815792
 21
54073.23322191861
 31
0.0
  0
ARC
  5
2E78A
330
1F
100
AcDbEntity
  8
電気錠制御盤　（株）アート
  6
Continuous
 62
     7
370
    13
100
AcDbCircle
 10
278645.1836795786
 20
54058.80600269894
 30
0.0
 40
14.04000000000119
100
AcDbArc
 50
92.99999999958705
 51
180.0
  0
LINE
  5
2E78B
330
1F
100
AcDbEntity
  8
電気錠制御盤　（株）アート
  6
Continuous
 62
     7
370
    13
100
AcDbLine
 10
278631.1436805802
 20
54058.80594149259
 30
0.0
 11
278631.1436805802
 21
53970.1404598358
 31
0.0
  0
LINE
  5
2E78C
330
1F
100
AcDbEntity
  8
電気錠制御盤　（株）アート
  6
Continuous
 62
     7
370
    13
100
AcDbLine
 10
278631.1436805802
 20
54050.3333662453
 30
0.0
 11
278610.0836795786
 21
54049.96567562249
 31
0.0
  0
LINE
  5
2E78D
330
1F
100
AcDbEntity
  8
電気錠制御盤　（株）アート
  6
Continuous
 62
     7
370
    13
100
AcDbLine
 10
278610.0836795786
 20
54049.96567562249
 30
0.0
 11
278610.0836795786
 21
53970.1404598358
 31
0.0
  0
LINE
  5
2E78E
330
1F
100
AcDbEntity
  8
電気錠制御盤　（株）アート
  6
Continuous
 62
     7
370
    13
100
AcDbLine
 10
279733.2837329277
 20
53970.1404598358
 30
0.0
 11
279733.2837329277
 21
53983.26748579767
 31
0.0
  0
ARC
  5
2E78F
330
1F
100
AcDbEntity
  8
電気錠制御盤　（株）アート
  6
Continuous
 62
     7
370
    13
100
AcDbCircle
 10
279698.1836795786
 20
53983.26751472781
 30
0.0
 40
35.1
100
AcDbArc
 50
0.0
 51
86.99999999958031
  0
LINE
  5
2E790
330
1F
100
AcDbEntity
  8
電気錠制御盤　（株）アート
  6
Continuous
 62
     7
370
    13
100
AcDbLine
 10
278610.0837172369
 20
54058.60718980457
 30
0.0
 11
278610.0837172369
 21
53991.79314866688
 31
0.0
  0
ARC
  5
2E791
330
1F
100
AcDbEntity
  8
電気錠制御盤　（株）アート
  6
Continuous
 62
     7
370
    13
100
AcDbCircle
 10
278596.0437172394
 20
54058.60712619356
 30
0.0
 40
14.0399999999992
100
AcDbArc
 50
0.0
 51
86.99999999958031
  0
LINE
  5
2E792
330
1F
100
AcDbEntity
  8
電気錠制御盤　（株）アート
  6
Continuous
 62
     7
370
    13
100
AcDbLine
 10
278589.0237162378
 20
54073.03420871523
 30
0.0
 11
278596.7785145134
 21
54072.62781381634
 31
0.0
  0
LINE
  5
2E793
330
1F
100
AcDbEntity
  8
電気錠制御盤　（株）アート
  6
Continuous
 62
     7
370
    13
100
AcDbLine
 10
277941.3467239016
 20
54039.09108161953
 30
0.0
 11
278589.0237162378
 21
54073.03420871523
 31
0.0
  0
LINE
  5
2E794
330
1F
100
AcDbEntity
  8
電気錠制御盤　（株）アート
  6
Continuous
 62
     7
370
    13
100
AcDbLine
 10
277908.0837329277
 20
54004.03912931706
 30
0.0
 11
277908.0837329277
 21
53932.04786822226
 31
0.0
  0
ARC
  5
2E795
330
1F
100
AcDbEntity
  8
電気錠制御盤　（株）アート
  6
Continuous
 62
     7
370
    13
100
AcDbCircle
 10
277943.1837172368
 20
54004.03908702611
 30
0.0
 40
35.1
100
AcDbArc
 50
92.99999999958705
 51
180.0
  0
LINE
  5
2E796
330
1F
100
AcDbEntity
  8
電気錠制御盤　（株）アート
  6
Continuous
 62
     7
370
    13
100
AcDbLine
 10
277908.0837329277
 20
53861.8477259579
 30
0.0
 11
277908.0837329277
 21
53932.04786822226
 31
0.0
  0
LINE
  5
2E797
330
1F
100
AcDbEntity
  8
電気錠制御盤　（株）アート
  6
Continuous
 62
     7
370
    13
100
AcDbLine
 10
278610.0837172369
 20
53991.79314866688
 30
0.0
 11
278610.0837172369
 21
53932.63418570188
 31
0.0
  0
LINE
  5
2E798
330
1F
100
AcDbEntity
  8
電気錠制御盤　（株）アート
  6
Continuous
 62
     7
370
    13
100
AcDbLine
 10
278631.1436805802
 20
53970.1404598358
 30
0.0
 11
278631.1436805802
 21
45892.32795759467
 31
0.0
  0
LINE
  5
2E799
330
1F
100
AcDbEntity
  8
電気錠制御盤　（株）アート
  6
Continuous
 62
     7
370
    13
100
AcDbLine
 10
278610.0836795786
 20
53970.1404598358
 30
0.0
 11
278610.0836795786
 21
45892.32795759467
 31
0.0
  0
LINE
  5
2E79A
330
1F
100
AcDbEntity
  8
電気錠制御盤　（株）アート
  6
Continuous
 62
     7
370
    13
100
AcDbLine
 10
279733.2837329277
 20
45892.32795759467
 30
0.0
 11
279733.2837329277
 21
53970.1404598358
 31
0.0
  0
LINE
  5
2E79B
330
1F
100
AcDbEntity
  8
電気錠制御盤　（株）アート
  6
Continuous
 62
     7
370
    13
100
AcDbLine
 10
277908.0837329277
 20
46000.62069147257
 30
0.0
 11
277908.0837329277
 21
53861.8477259579
 31
0.0
  0
LINE
  5
2E79C
330
1F
100
AcDbEntity
  8
電気錠制御盤　（株）アート
  6
Continuous
 62
     7
370
    13
100
AcDbLine
 10
278610.0837172369
 20
53932.63418570188
 30
0.0
 11
278610.0837172369
 21
45929.83423172858
 31
0.0
  0
DIMENSION
  5
2E79D
330
1F
100
AcDbEntity
  8
電気錠制御盤　（株）アート
  6
Continuous
 62
     7
370
    13
100
AcDbDimension
  2
*D3
 10
276855.0837329277
 20
45826.22446685787
 30
0.0
 11
276605.0837329277
 21
49931.23420720698
 31
0.0
 70
    32
  1
（117）
 71
     5
 42
8210.019480698102
  3
Standard
100
AcDbAlignedDimension
 13
277767.6837329277
 23
54036.24394755597
 33
0.0
 14
277767.6837329277
 24
45826.22446685787
 34
0.0
 50
90.0
100
AcDbRotatedDimension
1001
ACAD
1000
DSTYLE
1002
{
1070
    41
1040
500.0
1070
    73
1070
     0
1070
    77
1070
     1
1070
   140
1040
400.0
1070
   147
1040
50.0
1070
   173
1070
     1
1070
   343
1005
FF
1070
   344
1005
FF
1002
}
  0
TEXT
  5
2E79E
330
1F
100
AcDbEntity
  8
電気錠制御盤　（株）アート
  6
Continuous
 62
     7
370
    13
100
AcDbText
 10
263812.9885876568
 20
42854.2148300249
 30
0.0
 40
447.9946116360424
  1
材　質
 41
0.944444
  7
KANJI
100
AcDbText
  0
TEXT
  5
2E79F
330
1F
100
AcDbEntity
  8
電気錠制御盤　（株）アート
  6
Continuous
 62
     7
370
    13
100
AcDbText
 10
264219.9019317731
 20
43515.96410232031
 30
0.0
 40
447.9946116360424
  1
項　目
 41
0.944444
  7
KANJI
100
AcDbText
  0
LINE
  5
2E7A0
330
1F
100
AcDbEntity
  8
電気錠制御盤　（株）アート
  6
Continuous
 62
     7
370
    13
100
AcDbLine
 10
263488.6416285715
 20
44037.28321175671
 30
0.0
 11
282554.0144971802
 21
44037.28321175671
 31
0.0
  0
TEXT
  5
2E7A1
330
1F
100
AcDbEntity
  8
電気錠制御盤　（株）アート
  6
Continuous
 62
     7
370
    13
100
AcDbText
 10
273304.231640979
 20
43515.96410232031
 30
0.0
 40
447.9946116360424
  1
内　容
 41
0.944444
  7
KANJI
100
AcDbText
  0
TEXT
  5
2E7A2
330
1F
100
AcDbEntity
  8
電気錠制御盤　（株）アート
  6
Continuous
 62
     7
370
    13
100
AcDbText
 10
263812.9885876568
 20
42222.93032972281
 30
0.0
 40
447.9946116360424
  1
仕　上
 41
0.944444
  7
KANJI
100
AcDbText
  0
TEXT
  5
2E7A3
330
1F
100
AcDbEntity
  8
電気錠制御盤　（株）アート
  6
Continuous
 62
     7
370
    13
100
AcDbText
 10
263812.9885876568
 20
41603.04493311163
 30
0.0
 40
447.9946116360424
  1
彩　色
 41
0.944444
  7
KANJI
100
AcDbText
  0
TEXT
  5
2E7A4
330
1F
100
AcDbEntity
  8
電気錠制御盤　（株）アート
  6
Continuous
 62
     7
370
    13
100
AcDbText
 10
267912.9059313899
 20
42854.21483002468
 30
0.0
 40
447.9946116360424
  1
樹　脂
 41
0.944444
  7
KANJI
100
AcDbText
  0
TEXT
  5
2E7A5
330
1F
100
AcDbEntity
  8
電気錠制御盤　（株）アート
  6
Continuous
 62
     7
370
    13
100
AcDbText
 10
267905.2187627827
 20
42222.93032972252
 30
0.0
 40
447.9946116360424
  1
艶消し
 41
0.944444
  7
KANJI
100
AcDbText
  0
TEXT
  5
2E7A6
330
1F
100
AcDbEntity
  8
電気錠制御盤　（株）アート
  6
Continuous
 62
     7
370
    13
100
AcDbText
 10
267905.2187627827
 20
41603.04493311134
 30
0.0
 40
447.9946116360424
  1
ブラック
 41
0.8
  7
KANJI
100
AcDbText
  0
TEXT
  5
2E7A7
330
1F
100
AcDbEntity
  8
電気錠制御盤　（株）アート
  6
Continuous
 62
     7
370
    13
100
AcDbText
 10
263812.9885876568
 20
40273.42888025298
 30
0.0
 40
447.9946116360424
  1
入力電源
 41
0.944444
  7
KANJI
100
AcDbText
  0
TEXT
  5
2E7A8
330
1F
100
AcDbEntity
  8
電気錠制御盤　（株）アート
  6
Continuous
 62
     7
370
    13
100
AcDbText
 10
263812.9885876568
 20
40942.52600954856
 30
0.0
 40
447.9946116360424
  1
重　量
 41
0.944444
  7
KANJI
100
AcDbText
  0
TEXT
  5
2E7A9
330
1F
100
AcDbEntity
  8
電気錠制御盤　（株）アート
  6
Continuous
 62
     7
370
    13
100
AcDbText
 10
267905.2187627827
 20
40942.52600954833
 30
0.0
 40
447.9946116360424
  1
約２００ｇ\U+00B1５ｇ
 41
0.944444
  7
KANJI
100
AcDbText
  0
TEXT
  5
2E7AA
330
1F
100
AcDbEntity
  8
電気錠制御盤　（株）アート
  6
Continuous
 62
     7
370
    13
100
AcDbText
 10
267905.2187627827
 20
40273.42888025275
 30
0.0
 40
447.9946116360424
  1
ＤＣ２４Ｖ%%P１０％　出入管理装置より供給
 41
0.8872049999999999
  7
KANJI
100
AcDbText
  0
LINE
  5
2E7AB
330
1F
100
AcDbEntity
  8
電気錠制御盤　（株）アート
  6
Continuous
 62
     7
370
    13
100
AcDbLine
 10
282554.0144971789
 20
44037.28321175671
 30
0.0
 11
282554.0144971789
 21
36350.09427879324
 31
0.0
  0
LINE
  5
2E7AC
330
1F
100
AcDbEntity
  8
電気錠制御盤　（株）アート
  6
Continuous
 62
     7
370
    13
100
AcDbLine
 10
263488.6416285701
 20
44037.28321175671
 30
0.0
 11
263488.6416285701
 21
36350.09427879679
 31
0.0
  0
TEXT
  5
2E7AD
330
1F
100
AcDbEntity
  8
電気錠制御盤　（株）アート
  6
Continuous
 62
     7
370
    13
100
AcDbText
 10
263812.9885876568
 20
39649.92184922023
 30
0.0
 40
447.9946116360424
  1
消費電力
 41
0.944444
  7
KANJI
100
AcDbText
  0
TEXT
  5
2E7AE
330
1F
100
AcDbEntity
  8
電気錠制御盤　（株）アート
  6
Continuous
 62
     7
370
    13
100
AcDbText
 10
267905.2187627827
 20
39649.92184922
 30
0.0
 40
447.9946116360424
  1
２．５Ｗ
 41
0.8872049999999999
  7
KANJI
100
AcDbText
  0
LINE
  5
2E7AF
330
1F
100
AcDbEntity
  8
電気錠制御盤　（株）アート
  6
Continuous
 62
     7
370
    13
100
AcDbLine
 10
263488.6416285715
 20
43396.25642201432
 30
0.0
 11
282554.0144971802
 21
43396.25642201432
 31
0.0
  0
LINE
  5
2E7B0
330
1F
100
AcDbEntity
  8
電気錠制御盤　（株）アート
  6
Continuous
 62
     7
370
    13
100
AcDbLine
 10
263488.6416285715
 20
42755.22963227197
 30
0.0
 11
282554.0144971802
 21
42755.22963226836
 31
0.0
  0
LINE
  5
2E7B1
330
1F
100
AcDbEntity
  8
電気錠制御盤　（株）アート
  6
Continuous
 62
     7
370
    13
100
AcDbLine
 10
263488.6416285715
 20
42114.20284252596
 30
0.0
 11
282554.0144971802
 21
42114.20284252596
 31
0.0
  0
LINE
  5
2E7B2
330
1F
100
AcDbEntity
  8
電気錠制御盤　（株）アート
  6
Continuous
 62
     7
370
    13
100
AcDbLine
 10
263488.6416285715
 20
40832.1492630412
 30
0.0
 11
282554.0144971802
 21
40832.1492630412
 31
0.0
  0
LINE
  5
2E7B3
330
1F
100
AcDbEntity
  8
電気錠制御盤　（株）アート
  6
Continuous
 62
     7
370
    13
100
AcDbLine
 10
263488.6416285715
 20
40191.12247329881
 30
0.0
 11
282554.0144971802
 21
40191.12247329881
 31
0.0
  0
LINE
  5
2E7B4
330
1F
100
AcDbEntity
  8
電気錠制御盤　（株）アート
  6
Continuous
 62
     7
370
    13
100
AcDbLine
 10
263488.6416285714
 20
37001.38615646674
 30
0.0
 11
282554.0144971802
 21
37001.38615646619
 31
0.0
  0
TEXT
  5
2E7B5
330
1F
100
AcDbEntity
  8
電気錠制御盤　（株）アート
  6
Continuous
 62
     7
370
    13
100
AcDbText
 10
263812.988587657
 20
38393.53098957601
 30
0.0
 40
447.9946116360424
  1
設置場所
 41
0.944444
  7
KANJI
100
AcDbText
  0
TEXT
  5
2E7B6
330
1F
100
AcDbEntity
  8
電気錠制御盤　（株）アート
  6
Continuous
 62
     7
370
    13
100
AcDbText
 10
267905.2187627828
 20
38393.53098957575
 30
0.0
 40
447.9946116360424
  1
ＩＰＸ３：ＪＩＳ保護等級防雨型相当
 41
0.8872049999999999
  7
KANJI
100
AcDbText
  0
LINE
  5
2E7B7
330
1F
100
AcDbEntity
  8
電気錠制御盤　（株）アート
  6
Continuous
 62
     7
370
    13
100
AcDbLine
 10
263488.6416285713
 20
37652.67803413914
 30
0.0
 11
282554.01449718
 21
37652.67803413914
 31
0.0
  0
LINE
  5
2E7B8
330
1F
100
AcDbEntity
  8
電気錠制御盤　（株）アート
  6
Continuous
 62
     7
370
    13
100
AcDbLine
 10
263488.6416285715
 20
41473.17605278
 30
0.0
 11
282554.0144971802
 21
41473.17605278
 31
0.0
  0
LINE
  5
2E7B9
330
1F
100
AcDbEntity
  8
電気錠制御盤　（株）アート
  6
Continuous
 62
     7
370
    13
100
AcDbLine
 10
263488.6416285716
 20
36350.09427879679
 30
0.0
 11
282554.0144971803
 21
36350.09427879324
 31
0.0
  0
LINE
  5
2E7BA
330
1F
100
AcDbEntity
  8
電気錠制御盤　（株）アート
  6
Continuous
 62
     7
370
    13
100
AcDbLine
 10
263488.6416285715
 20
38914.20143779512
 30
0.0
 11
282554.0144971802
 21
38914.20143779151
 31
0.0
  0
TEXT
  5
2E7BB
330
1F
100
AcDbEntity
  8
電気錠制御盤　（株）アート
  6
Continuous
 62
     7
370
    13
100
AcDbText
 10
263812.9885876568
 20
39008.89505947788
 30
0.0
 40
447.9946116360424
  1
使用環境温度
 41
0.944444
  7
KANJI
100
AcDbText
  0
TEXT
  5
2E7BC
330
1F
100
AcDbEntity
  8
電気錠制御盤　（株）アート
  6
Continuous
 62
     7
370
    13
100
AcDbText
 10
267905.2187627827
 20
39008.89505947762
 30
0.0
 40
447.9946116360424
  1
０℃～４０℃（結露なきこと）
 41
0.8872049999999999
  7
KANJI
100
AcDbText
  0
LINE
  5
2E7BD
330
1F
100
AcDbEntity
  8
電気錠制御盤　（株）アート
  6
Continuous
 62
     7
370
    13
100
AcDbLine
 10
263488.6416285715
 20
39550.09568355645
 30
0.0
 11
282554.0144971802
 21
39550.09568355645
 31
0.0
  0
TEXT
  5
2E7BE
330
1F
100
AcDbEntity
  8
電気錠制御盤　（株）アート
  6
Continuous
 62
     7
370
    13
100
AcDbText
 10
263812.988587657
 20
37126.87504198653
 30
0.0
 40
447.9946116360424
  1
カード感知距離
 41
0.944444
  7
KANJI
100
AcDbText
  0
TEXT
  5
2E7BF
330
1F
100
AcDbEntity
  8
電気錠制御盤　（株）アート
  6
Continuous
 62
     7
370
    13
100
AcDbText
 10
267905.2187627828
 20
37111.47741006028
 30
0.0
 40
447.9946116360424
  1
ＦｅｌｉＣａ・５ｃｍ以上／ＭＩＦＡＲＥ・５ｃｍ以上
 41
0.8872049999999999
  7
KANJI
100
AcDbText
  0
TEXT
  5
2E7C0
330
1F
100
AcDbEntity
  8
電気錠制御盤　（株）アート
  6
Continuous
 62
     7
370
    13
100
AcDbText
 10
267905.2187627828
 20
36460.18553238925
 30
0.0
 40
447.9946116360424
  1
専用面付枠セット（ＷＭＬ－５０－ＢＸＢ\U+2026樹脂製）
 41
0.8872049999999999
  7
KANJI
100
AcDbText
  0
TEXT
  5
2E7C1
330
1F
100
AcDbEntity
  8
電気錠制御盤　（株）アート
  6
Continuous
 62
     7
370
    13
100
AcDbText
 10
263812.988587657
 20
36475.58316431664
 30
0.0
 40
447.9946116360424
  1
備考
 41
0.944444
  7
KANJI
100
AcDbText
  0
LINE
  5
2E7C2
330
1F
100
AcDbEntity
  8
電気錠制御盤　（株）アート
 62
     7
370
    13
100
AcDbLine
 10
263488.6416285715
 20
38914.20143779512
 30
0.0
 11
266296.7026593241
 21
38914.2014377946
 31
0.0
  0
LINE
  5
2E7C3
330
1F
100
AcDbEntity
  8
電気錠制御盤　（株）アート
  6
Continuous
 62
     7
370
    13
100
AcDbLine
 10
267700.7331747005
 20
44037.28321175671
 30
0.0
 11
267700.7331746989
 21
36350.094278796
 31
0.0
  0
TEXT
  5
2E7C4
330
1F
100
AcDbEntity
  8
電気錠制御盤　（株）アート
  6
Continuous
 62
     7
370
    13
100
AcDbText
 10
267905.2187627828
 20
37793.55459171427
 30
0.0
 40
447.9946116360424
  1
※上部・左右の３方向にコーキング処理を行うこと
 41
0.8872049999999999
  7
KANJI
100
AcDbText
  0
ENDSEC
  0
SECTION
  2
OBJECTS
  0
DICTIONARY
  5
C
330
0
100
AcDbDictionary
281
     1
  3
ACAD_CIP_PREVIOUS_PRODUCT_INFO
350
1A0D0
  3
ACAD_COLOR
350
6B
  3
ACAD_DETAILVIEWSTYLE
350
1A0CA
  3
ACAD_GROUP
350
D
  3
ACAD_LAYOUT
350
1A
  3
ACAD_MATERIAL
350
6A
  3
ACAD_MLEADERSTYLE
350
1A0C6
  3
ACAD_MLINESTYLE
350
17
  3
ACAD_PLOTSETTINGS
350
19
  3
ACAD_PLOTSTYLENAME
350
E
  3
ACAD_SCALELIST
350
1A0B4
  3
ACAD_SECTIONVIEWSTYLE
350
1A0C8
  3
ACAD_TABLESTYLE
350
7E
  3
ACAD_VISUALSTYLE
350
1A09B
  3
ACDB_RECOMPOSE_DATA
350
30BE9
  3
AcDbVariableDictionary
350
5E
  3
DWGPROPS
350
30BEA
  0
DICTIONARY
  5
616
330
2
100
AcDbDictionary
280
     1
281
     1
  3
ACAD_LAYERSTATES
360
617
  0
DICTIONARY
  5
1C73C
330
10
100
AcDbDictionary
280
     1
281
     1
  3
ADSK_XREC_LAYER_RECONCILED
360
1C73D
  0
DICTIONARY
  5
1C744
330
613
100
AcDbDictionary
280
     1
281
     1
  3
ADSK_XREC_LAYER_RECONCILED
360
1C745
  0
DICTIONARY
  5
2ECF7
330
2ECF6
100
AcDbDictionary
280
     1
281
     1
  0
DICTIONARY
  5
B04B
330
1F
100
AcDbDictionary
280
     1
281
     1
  3
ACAD_SORTENTS
360
B04C
  0
XRECORD
  5
1A0D0
102
{ACAD_REACTORS
330
C
102
}
330
C
100
AcDbXrecord
280
     1
300
ACDLT
300
2015
300
ACDLT_F_S
  0
DICTIONARY
  5
6B
102
{ACAD_REACTORS
330
C
102
}
330
C
100
AcDbDictionary
281
     1
  0
DICTIONARY
  5
1A0CA
102
{ACAD_REACTORS
330
C
102
}
330
C
100
AcDbDictionary
281
     1
  3
Imperial24
350
1C19A
  3
Metric50
350
1A0CB
  0
DICTIONARY
  5
D
102
{ACAD_REACTORS
330
C
102
}
330
C
100
AcDbDictionary
281
     1
  0
DICTIONARY
  5
1A
102
{ACAD_REACTORS
330
C
102
}
330
C
100
AcDbDictionary
281
     1
  3
Model
350
22
  3
レイアウト1
350
D3
  3
レイアウト2
350
D7
  0
DICTIONARY
  5
6A
102
{ACAD_REACTORS
330
C
102
}
330
C
100
AcDbDictionary
281
     1
  3
ByBlock
350
1A08B
  3
ByLayer
350
1A083
  3
Global
350
1A093
  0
DICTIONARY
  5
1A0C6
102
{ACAD_REACTORS
330
C
102
}
330
C
100
AcDbDictionary
281
     1
  3
Standard
350
1A0C7
  0
DICTIONARY
  5
17
102
{ACAD_REACTORS
330
C
102
}
330
C
100
AcDbDictionary
281
     1
  3
Standard
350
18
  0
DICTIONARY
  5
19
102
{ACAD_REACTORS
330
C
102
}
330
C
100
AcDbDictionary
281
     1
  0
ACDBDICTIONARYWDFLT
  5
E
102
{ACAD_REACTORS
330
C
102
}
330
C
100
AcDbDictionary
281
     1
  3
Normal
350
F
100
AcDbDictionaryWithDefault
340
F
  0
DICTIONARY
  5
1A0B4
102
{ACAD_REACTORS
330
C
102
}
330
C
100
AcDbDictionary
281
     1
  3
A0
350
1A0B5
  3
A1
350
1A0B6
  3
A2
350
1A0B7
  3
A3
350
1A0B8
  3
A4
350
1A0B9
  3
A5
350
1A0BA
  3
A6
350
1A0BB
  3
A7
350
1A0BC
  3
A8
350
1A0BD
  3
A9
350
1A0BE
  3
B0
350
1A0BF
  3
B1
350
1A0C0
  3
B2
350
1A0C1
  3
B3
350
1A0C2
  3
B4
350
1A0C3
  3
B5
350
1A0C4
  3
B6
350
1A0C5
  0
DICTIONARY
  5
1A0C8
102
{ACAD_REACTORS
330
C
102
}
330
C
100
AcDbDictionary
281
     1
  3
Imperial24
350
1C199
  3
Metric50
350
1A0C9
  0
DICTIONARY
  5
7E
102
{ACAD_REACTORS
330
C
102
}
330
C
100
AcDbDictionary
281
     1
  3
Standard
350
7F
  0
DICTIONARY
  5
1A09B
102
{ACAD_REACTORS
330
C
102
}
330
C
100
AcDbDictionary
281
     1
  3
2dWireframe
350
1A0A1
  3
Basic
350
1A0A0
  3
Brighten
350
1A0A7
  3
ColorChange
350
1A0AB
  3
Conceptual
350
1A0A4
  3
Dim
350
1A0A6
  3
EdgeColorOff
350
1A0B3
  3
Facepattern
350
1A0AA
  3
Flat
350
1A09C
  3
FlatWithEdges
350
1A09D
  3
Gouraud
350
1A09E
  3
GouraudWithEdges
350
1A09F
  3
Hidden
350
1A0A3
  3
JitterOff
350
1A0B1
  3
Linepattern
350
1A0A9
  3
OverhangOff
350
1A0B2
  3
Realistic
350
1A0A5
  3
Shaded
350
1A0B0
  3
Shaded with edges
350
1A0AF
  3
Shades of Gray
350
1A0AC
  3
Sketchy
350
1A0AD
  3
Thicken
350
1A0A8
  3
Wireframe
350
1A0A2
  3
X-Ray
350
1A0AE
  0
XRECORD
  5
30BE9
102
{ACAD_REACTORS
330
C
102
}
330
C
100
AcDbXrecord
280
     1
 90
        1
330
7F
  0
DICTIONARY
  5
5E
102
{ACAD_REACTORS
330
C
102
}
330
C
100
AcDbDictionary
281
     1
  3
CANNOSCALE
350
1C766
  3
CMLEADERSTYLE
350
1C762
  3
CTABLESTYLE
350
84
  3
CVIEWDETAILSTYLE
350
1C763
  3
CVIEWSECTIONSTYLE
350
1C764
  3
DIMASSOC
350
5F
  3
HIDETEXT
350
63
  3
INDEXCTL
350
30B91
  3
LAYEREVAL
350
1C768
  3
LAYERNOTIFY
350
1C769
  3
LIGHTINGUNITS
350
1C767
  3
MSLTSCALE
350
1C765
  3
PROJECTNAME
350
66AB
  3
SORTENTS
350
30B90
  3
XCLIPFRAME
350
30BE7
  0
XRECORD
  5
30BEA
102
{ACAD_REACTORS
330
C
102
}
330
C
100
AcDbXrecord
280
     1
  1
DWGPROPS COOKIE
  2

  3

  4

  6

  7

  8
nagahama
  9

300
=
301
=
302
=
303
=
304
=
305
=
306
=
307
=
308
=
309
=
 40
0.6440078935185185
 41
2455257.708088461
 42
2458661.58128816
  1

 90
        0
  0
DICTIONARY
  5
617
102
{ACAD_REACTORS
330
616
102
}
330
616
100
AcDbDictionary
281
     1
  0
XRECORD
  5
1C73D
102
{ACAD_REACTORS
330
1C73C
102
}
330
1C73C
100
AcDbXrecord
280
     1
290
     1
  0
XRECORD
  5
1C745
102
{ACAD_REACTORS
330
1C744
102
}
330
1C744
100
AcDbXrecord
280
     1
290
     1
  0
SORTENTSTABLE
  5
B04C
102
{ACAD_REACTORS
330
B04B
102
}
330
B04B
100
AcDbSortentsTable
330
1F
331
4406
  5
4406
331
418F
  5
418F
331
4190
  5
4190
  0
ACDBDETAILVIEWSTYLE
  5
1C19A
102
{ACAD_XDICTIONARY
360
30C2A
102
}
102
{ACAD_REACTORS
330
1A0CA
102
}
330
1A0CA
100
AcDbModelDocViewStyle
 70
     0
  3
Imperial24
290
     0
100
AcDbDetailViewStyle
 70
     0
 71
     0
 90
        3
 71
     1
340
11
 40
0.24
340
0
 40
0.24
300

 40
0.36
280
     3
 71
     2
340
16
 90
       25
 71
     3
340
11
 40
0.24
 90
        1
 40
0.75
 90
        1
300
%<\AcVar ViewType \f "%tc1">% %<\AcVar ViewDetailId>%\PSCALE %<\AcVar ViewScale \f "%sn">%
 71
     4
340
16
 90
       25
340
16
 90
       25
280
     0
  0
ACDBDETAILVIEWSTYLE
  5
1A0CB
102
{ACAD_XDICTIONARY
360
30C26
102
}
102
{ACAD_REACTORS
330
1A0CA
102
}
330
1A0CA
100
AcDbModelDocViewStyle
 70
     0
  3
Metric50
290
     0
100
AcDbDetailViewStyle
 70
     0
 71
     0
 90
        3
 71
     1
340
11
 40
5.0
340
0
 40
5.0
300

 40
0.0
280
     1
 71
     2
340
16
 90
       25
 71
     3
340
11
 40
5.0
 90
        0
 40
15.0
 90
        1
300
%<\AcVar ViewDetailId>% (%<\AcVar ViewScale \f "%sn">%)
 71
     4
340
16
 90
       25
340
16
 90
       25
280
     0
  0
LAYOUT
  5
22
102
{ACAD_XDICTIONARY
360
30BEB
102
}
102
{ACAD_REACTORS
330
1A
102
}
330
1A
100
AcDbPlotSettings
  1

  2
none_device
  4
ISO_A4_(210.00_x_297.00_MM)
  6

 40
7.5
 41
20.0
 42
7.5
 43
20.0
 44
210.0
 45
297.0
 46
11.54999923706054
 47
-13.65000009536743
 48
0.0
 49
0.0
140
0.0
141
0.0
142
1.0
143
8.704084754739808
 70
 11952
 72
     1
 73
     0
 74
     0
  7
all black（線：データ通り　色：黒）.ctb
 75
     0
147
0.1148885871608098
148
0.0
149
0.0
100
AcDbLayout
  1
Model
 70
     1
 71
     0
 10
0.0
 20
0.0
 11
12.0
 21
9.0
 12
0.0
 22
0.0
 32
0.0
 14
0.0
 24
0.0
 34
0.0
 15
0.0
 25
0.0
 35
0.0
146
0.0
 13
0.0
 23
0.0
 33
0.0
 16
1.0
 26
0.0
 36
0.0
 17
0.0
 27
1.0
 37
0.0
 76
     0
330
1F
331
1A081
1001
ACAD_PSEXT
1000
None
1000
None
1000
Not applicable
1000
The layout will not be plotted unless a new plotter configuration name is selected.
1070
     0
  0
LAYOUT
  5
D3
102
{ACAD_XDICTIONARY
360
30BEE
102
}
102
{ACAD_REACTORS
330
1A
102
}
330
1A
100
AcDbPlotSettings
  1

  2
C:\Documents and Settings\basas\Application Data\Autodesk\AutoCAD 2005\R16.1\enu\plotters\Default Windows System Printer.pc3
  4

  6

 40
0.0
 41
0.0
 42
0.0
 43
0.0
 44
0.0
 45
0.0
 46
0.0
 47
0.0
 48
0.0
 49
0.0
140
0.0
141
0.0
142
1.0
143
1.0
 70
   688
 72
     0
 73
     0
 74
     5
  7
all black（線：データ通り　色：黒）.ctb
 75
    16
147
1.0
148
0.0
149
0.0
100
AcDbLayout
  1
レイアウト1
 70
     1
 71
     1
 10
0.0
 20
0.0
 11
12.0
 21
9.0
 12
0.0
 22
0.0
 32
0.0
 14
0.0
 24
0.0
 34
0.0
 15
0.0
 25
0.0
 35
0.0
146
0.0
 13
0.0
 23
0.0
 33
0.0
 16
1.0
 26
0.0
 36
0.0
 17
0.0
 27
1.0
 37
0.0
 76
     0
330
D2
  0
LAYOUT
  5
D7
102
{ACAD_XDICTIONARY
360
30BF0
102
}
102
{ACAD_REACTORS
330
1A
102
}
330
1A
100
AcDbPlotSettings
  1

  2
C:\Documents and Settings\basas\Application Data\Autodesk\AutoCAD 2005\R16.1\enu\plotters\Default Windows System Printer.pc3
  4

  6

 40
0.0
 41
0.0
 42
0.0
 43
0.0
 44
0.0
 45
0.0
 46
0.0
 47
0.0
 48
0.0
 49
0.0
140
0.0
141
0.0
142
1.0
143
1.0
 70
   688
 72
     0
 73
     0
 74
     5
  7
all black（線：データ通り　色：黒）.ctb
 75
    16
147
1.0
148
0.0
149
0.0
100
AcDbLayout
  1
レイアウト2
 70
     1
 71
     2
 10
0.0
 20
0.0
 11
12.0
 21
9.0
 12
0.0
 22
0.0
 32
0.0
 14
0.0
 24
0.0
 34
0.0
 15
0.0
 25
0.0
 35
0.0
146
0.0
 13
0.0
 23
0.0
 33
0.0
 16
1.0
 26
0.0
 36
0.0
 17
0.0
 27
1.0
 37
0.0
 76
     0
330
D6
  0
MATERIAL
  5
1A08B
102
{ACAD_XDICTIONARY
360
1A08C
102
}
102
{ACAD_REACTORS
330
6A
102
}
330
6A
100
AcDbMaterial
  1
ByBlock
 72
     0
 43
0.0008202099737533
 43
0.0
 43
0.0
 43
0.0
 43
0.0
 43
0.0008202099737533
 43
0.0
 43
0.0
 43
0.0
 43
0.0
 43
1.0
 43
0.0
 43
0.0
 43
0.0
 43
0.0
 43
1.0
 77
     0
 47
0.0008202099737533
 47
0.0
 47
0.0
 47
0.0
 47
0.0
 47
0.0008202099737533
 47
0.0
 47
0.0
 47
0.0
 47
0.0
 47
1.0
 47
0.0
 47
0.0
 47
0.0
 47
0.0
 47
1.0
171
     0
 49
0.0008202099737533
 49
0.0
 49
0.0
 49
0.0
 49
0.0
 49
0.0008202099737533
 49
0.0
 49
0.0
 49
0.0
 49
0.0
 49
1.0
 49
0.0
 49
0.0
 49
0.0
 49
0.0
 49
1.0
175
     0
142
0.0008202099737533
142
0.0
142
0.0
142
0.0
142
0.0
142
0.0008202099737533
142
0.0
142
0.0
142
0.0
142
0.0
142
1.0
142
0.0
142
0.0
142
0.0
142
0.0
142
1.0
179
     0
144
0.0008202099737533
144
0.0
144
0.0
144
0.0
144
0.0
144
0.0008202099737533
144
0.0
144
0.0
144
0.0
144
0.0
144
1.0
144
0.0
144
0.0
144
0.0
144
0.0
144
1.0
147
0.0008202099737533
147
0.0
147
0.0
147
0.0
147
0.0
147
0.0008202099737533
147
0.0
147
0.0
147
0.0
147
0.0
147
1.0
147
0.0
147
0.0
147
0.0
147
0.0
147
1.0
  0
MATERIAL
  5
1A083
102
{ACAD_XDICTIONARY
360
1A084
102
}
102
{ACAD_REACTORS
330
6A
102
}
330
6A
100
AcDbMaterial
  1
ByLayer
 72
     0
 43
0.0008202099737533
 43
0.0
 43
0.0
 43
0.0
 43
0.0
 43
0.0008202099737533
 43
0.0
 43
0.0
 43
0.0
 43
0.0
 43
1.0
 43
0.0
 43
0.0
 43
0.0
 43
0.0
 43
1.0
 77
     0
 47
0.0008202099737533
 47
0.0
 47
0.0
 47
0.0
 47
0.0
 47
0.0008202099737533
 47
0.0
 47
0.0
 47
0.0
 47
0.0
 47
1.0
 47
0.0
 47
0.0
 47
0.0
 47
0.0
 47
1.0
171
     0
 49
0.0008202099737533
 49
0.0
 49
0.0
 49
0.0
 49
0.0
 49
0.0008202099737533
 49
0.0
 49
0.0
 49
0.0
 49
0.0
 49
1.0
 49
0.0
 49
0.0
 49
0.0
 49
0.0
 49
1.0
175
     0
142
0.0008202099737533
142
0.0
142
0.0
142
0.0
142
0.0
142
0.0008202099737533
142
0.0
142
0.0
142
0.0
142
0.0
142
1.0
142
0.0
142
0.0
142
0.0
142
0.0
142
1.0
179
     0
144
0.0008202099737533
144
0.0
144
0.0
144
0.0
144
0.0
144
0.0008202099737533
144
0.0
144
0.0
144
0.0
144
0.0
144
1.0
144
0.0
144
0.0
144
0.0
144
0.0
144
1.0
147
0.0008202099737533
147
0.0
147
0.0
147
0.0
147
0.0
147
0.0008202099737533
147
0.0
147
0.0
147
0.0
147
0.0
147
1.0
147
0.0
147
0.0
147
0.0
147
0.0
147
1.0
  0
MATERIAL
  5
1A093
102
{ACAD_XDICTIONARY
360
1A094
102
}
102
{ACAD_REACTORS
330
6A
102
}
330
6A
100
AcDbMaterial
  1
Global
 72
     0
 43
0.0008202099737533
 43
0.0
 43
0.0
 43
0.0
 43
0.0
 43
0.0008202099737533
 43
0.0
 43
0.0
 43
0.0
 43
0.0
 43
1.0
 43
0.0
 43
0.0
 43
0.0
 43
0.0
 43
1.0
 77
     0
 47
0.0008202099737533
 47
0.0
 47
0.0
 47
0.0
 47
0.0
 47
0.0008202099737533
 47
0.0
 47
0.0
 47
0.0
 47
0.0
 47
1.0
 47
0.0
 47
0.0
 47
0.0
 47
0.0
 47
1.0
171
     0
 49
0.0008202099737533
 49
0.0
 49
0.0
 49
0.0
 49
0.0
 49
0.0008202099737533
 49
0.0
 49
0.0
 49
0.0
 49
0.0
 49
1.0
 49
0.0
 49
0.0
 49
0.0
 49
0.0
 49
1.0
175
     0
142
0.0008202099737533
142
0.0
142
0.0
142
0.0
142
0.0
142
0.0008202099737533
142
0.0
142
0.0
142
0.0
142
0.0
142
1.0
142
0.0
142
0.0
142
0.0
142
0.0
142
1.0
179
     0
144
0.0008202099737533
144
0.0
144
0.0
144
0.0
144
0.0
144
0.0008202099737533
144
0.0
144
0.0
144
0.0
144
0.0
144
1.0
144
0.0
144
0.0
144
0.0
144
0.0
144
1.0
147
0.0008202099737533
147
0.0
147
0.0
147
0.0
147
0.0
147
0.0008202099737533
147
0.0
147
0.0
147
0.0
147
0.0
147
1.0
147
0.0
147
0.0
147
0.0
147
0.0
147
1.0
  0
MLEADERSTYLE
  5
1A0C7
102
{ACAD_XDICTIONARY
360
30C22
102
}
102
{ACAD_REACTORS
330
1A0C6
102
}
330
1A0C6
100
AcDbMLeaderStyle
170
     2
171
     1
172
     0
 90
        2
 40
0.0
 41
0.0
173
     1
 91
-1056964608
340
14
 92
       -2
290
     1
 42
2.0
291
     1
 43
0.36
  3
Standard
 44
4.0
300

342
11
174
     1
178
     6
175
     1
176
     0
 93
-1056964608
 45
4.0
292
     0
297
     0
 46
4.0
 94
-1056964608
 47
1.0
 49
1.0
140
1.0
293
     1
141
0.0
294
     1
177
     0
142
1.0
295
     0
296
     0
143
0.125
1001
ACAD_MLEADERVER
1070
     2
  0
MLINESTYLE
  5
18
102
{ACAD_REACTORS
330
17
102
}
330
17
100
AcDbMlineStyle
  2
STANDARD
 70
     0
  3

 62
   256
 51
90.0
 52
90.0
 71
     2
 49
0.5
 62
   256
  6
BYLAYER
 49
-0.5
 62
   256
  6
BYLAYER
  0
ACDBPLACEHOLDER
  5
F
102
{ACAD_REACTORS
330
E
102
}
330
E
  0
SCALE
  5
1A0B5
102
{ACAD_REACTORS
330
1A0B4
102
}
330
1A0B4
100
AcDbScale
 70
     0
300
1:1
140
1.0
141
1.0
290
     1
  0
SCALE
  5
1A0B6
102
{ACAD_REACTORS
330
1A0B4
102
}
330
1A0B4
100
AcDbScale
 70
     0
300
1:2
140
1.0
141
2.0
290
     0
  0
SCALE
  5
1A0B7
102
{ACAD_REACTORS
330
1A0B4
102
}
330
1A0B4
100
AcDbScale
 70
     0
300
1:4
140
1.0
141
4.0
290
     0
  0
SCALE
  5
1A0B8
102
{ACAD_REACTORS
330
1A0B4
102
}
330
1A0B4
100
AcDbScale
 70
     0
300
1:5
140
1.0
141
5.0
290
     0
  0
SCALE
  5
1A0B9
102
{ACAD_REACTORS
330
1A0B4
102
}
330
1A0B4
100
AcDbScale
 70
     0
300
1:8
140
1.0
141
8.0
290
     0
  0
SCALE
  5
1A0BA
102
{ACAD_REACTORS
330
1A0B4
102
}
330
1A0B4
100
AcDbScale
 70
     0
300
1:10
140
1.0
141
10.0
290
     0
  0
SCALE
  5
1A0BB
102
{ACAD_REACTORS
330
1A0B4
102
}
330
1A0B4
100
AcDbScale
 70
     0
300
1:16
140
1.0
141
16.0
290
     0
  0
SCALE
  5
1A0BC
102
{ACAD_REACTORS
330
1A0B4
102
}
330
1A0B4
100
AcDbScale
 70
     0
300
1:20
140
1.0
141
20.0
290
     0
  0
SCALE
  5
1A0BD
102
{ACAD_REACTORS
330
1A0B4
102
}
330
1A0B4
100
AcDbScale
 70
     0
300
1:30
140
1.0
141
30.0
290
     0
  0
SCALE
  5
1A0BE
102
{ACAD_REACTORS
330
1A0B4
102
}
330
1A0B4
100
AcDbScale
 70
     0
300
1:40
140
1.0
141
40.0
290
     0
  0
SCALE
  5
1A0BF
102
{ACAD_REACTORS
330
1A0B4
102
}
330
1A0B4
100
AcDbScale
 70
     0
300
1:50
140
1.0
141
50.0
290
     0
  0
SCALE
  5
1A0C0
102
{ACAD_REACTORS
330
1A0B4
102
}
330
1A0B4
100
AcDbScale
 70
     0
300
1:100
140
1.0
141
100.0
290
     0
  0
SCALE
  5
1A0C1
102
{ACAD_REACTORS
330
1A0B4
102
}
330
1A0B4
100
AcDbScale
 70
     0
300
2:1
140
2.0
141
1.0
290
     0
  0
SCALE
  5
1A0C2
102
{ACAD_REACTORS
330
1A0B4
102
}
330
1A0B4
100
AcDbScale
 70
     0
300
4:1
140
4.0
141
1.0
290
     0
  0
SCALE
  5
1A0C3
102
{ACAD_REACTORS
330
1A0B4
102
}
330
1A0B4
100
AcDbScale
 70
     0
300
8:1
140
8.0
141
1.0
290
     0
  0
SCALE
  5
1A0C4
102
{ACAD_REACTORS
330
1A0B4
102
}
330
1A0B4
100
AcDbScale
 70
     0
300
10:1
140
10.0
141
1.0
290
     0
  0
SCALE
  5
1A0C5
102
{ACAD_REACTORS
330
1A0B4
102
}
330
1A0B4
100
AcDbScale
 70
     0
300
100:1
140
100.0
141
1.0
290
     0
  0
ACDBSECTIONVIEWSTYLE
  5
1C199
102
{ACAD_XDICTIONARY
360
30C28
102
}
102
{ACAD_REACTORS
330
1A0C8
102
}
330
1A0C8
100
AcDbModelDocViewStyle
 70
     0
  3
Imperial24
290
     0
100
AcDbSectionViewStyle
 70
     0
 71
     0
 90
       78
 71
     1
340
11
 40
0.24
340
0
340
0
 40
0.24
300
I, O, Q, S, X, Z
 40
0.48
 90
        3
 40
0.18
 90
        1
 71
     2
340
16
 90
       25
340
16
 90
       50
 40
0.24
 40
0.0
 40
0.24
 71
     3
340
11
 40
0.24
 90
        1
 40
0.75
 90
        1
300
%<\AcVar ViewType \f "%tc1">% %<\AcVar ViewSectionStartId>%-%<\AcVar ViewSectionEndId>%\PSCALE %<\AcVar ViewScale \f "%sn">%
 71
     4
300
ANSI31
 40
1.0
 90
        0
290
     0
290
     0
 90
        6
 40
0.0
 40
1.570796326794896
 40
0.2617993877991494
 40
1.308996938995747
 40
-0.2617993877991494
 40
1.832595714594045
  0
ACDBSECTIONVIEWSTYLE
  5
1A0C9
102
{ACAD_XDICTIONARY
360
30C24
102
}
102
{ACAD_REACTORS
330
1A0C8
102
}
330
1A0C8
100
AcDbModelDocViewStyle
 70
     0
  3
Metric50
290
     0
100
AcDbSectionViewStyle
 70
     0
 71
     0
 90
      102
 71
     1
340
11
 40
5.0
340
0
340
0
 40
5.0
300
I, O, Q, S, X, Z
 40
10.0
 90
        0
 40
2.5
 90
        0
 71
     2
340
16
 90
       25
340
16
 90
       50
 40
5.0
 40
2.5
 40
5.0
 71
     3
340
11
 40
5.0
 90
        0
 40
15.0
 90
        1
300
%<\AcVar ViewSectionStartId>%-%<\AcVar ViewSectionEndId>% (%<\AcVar ViewScale \f "%sn">%)
 71
     4
300
ANSI31
 40
1.0
 90
        0
290
     0
290
     0
 90
        6
 40
0.0
 40
1.570796326794896
 40
0.2617993877991494
 40
1.308996938995747
 40
-0.2617993877991494
 40
1.832595714594045
  0
TABLESTYLE
  5
7F
102
{ACAD_XDICTIONARY
360
30B93
102
}
102
{ACAD_REACTORS
330
7E
102
}
330
7E
100
AcDbTableStyle
  3
Standard
 70
     0
 71
     0
 40
1.5
 41
1.5
280
     0
281
     0
  7
Standard
140
4.5
170
     2
 62
     0
 63
     7
283
     0
274
    -2
284
     1
 64
     0
275
    -2
285
     1
 65
     0
276
    -2
286
     1
 66
     0
277
    -2
287
     1
 67
     0
278
    -2
288
     1
 68
     0
279
    -2
289
     1
 69
     0
  7
Standard
140
6.0
170
     5
 62
     0
 63
     7
283
     0
274
    -2
284
     1
 64
     0
275
    -2
285
     1
 65
     0
276
    -2
286
     1
 66
     0
277
    -2
287
     1
 67
     0
278
    -2
288
     1
 68
     0
279
    -2
289
     1
 69
     0
  7
Standard
140
4.5
170
     5
 62
     0
 63
     7
283
     0
274
    -2
284
     1
 64
     0
275
    -2
285
     1
 65
     0
276
    -2
286
     1
 66
     0
277
    -2
287
     1
 67
     0
278
    -2
288
     1
 68
     0
279
    -2
289
     1
 69
     0
  0
VISUALSTYLE
  5
1A0A1
102
{ACAD_XDICTIONARY
360
30BFC
102
}
102
{ACAD_REACTORS
330
1A09B
102
}
330
1A09B
100
AcDbVisualStyle
  2

 70
     4
 71
     0
 72
     2
 73
     0
 90
        0
 40
-0.6
 41
-30.0
 62
     5
 63
     7
 74
     1
 91
        4
 64
     7
 65
   257
 75
     1
175
     1
 42
1.0
 92
        0
 66
   257
 43
1.0
 76
     1
 77
     6
 78
     2
 67
     7
 79
     5
170
     0
171
     0
290
     0
174
     0
 93
        1
 44
0.0
173
     0
291
     0
 45
0.0
1001
ACAD
1000
AcDbSavedByObjectVersion
1070
     0
  0
VISUALSTYLE
  5
1A0A0
102
{ACAD_XDICTIONARY
360
30BFA
102
}
102
{ACAD_REACTORS
330
1A09B
102
}
330
1A09B
100
AcDbVisualStyle
  2

 70
     7
 71
     1
 72
     0
 73
     1
 90
        0
 40
-0.6
 41
-30.0
 62
     5
 63
     7
 74
     0
 91
        4
 64
     7
 65
   257
 75
     1
175
     1
 42
1.0
 92
        8
 66
     7
 43
1.0
 76
     1
 77
     6
 78
     2
 67
     7
 79
     5
170
     0
171
     0
290
     0
174
     0
 93
        1
 44
0.0
173
     0
291
     1
 45
0.0
1001
ACAD
1000
AcDbSavedByObjectVersion
1070
     0
  0
VISUALSTYLE
  5
1A0A7
102
{ACAD_XDICTIONARY
360
30C08
102
}
102
{ACAD_REACTORS
330
1A09B
102
}
330
1A09B
100
AcDbVisualStyle
  2

 70
    12
 71
     2
 72
     2
 73
     0
 90
        0
 40
-0.6
 41
-30.0
 62
     5
 63
     7
 74
     1
 91
        4
 64
     7
 65
   257
 75
     1
175
     1
 42
1.0
 92
        8
 66
     7
 43
1.0
 76
     1
 77
     6
 78
     2
 67
     7
 79
     5
170
     0
171
     0
290
     0
174
     0
 93
        1
 44
50.0
173
     0
291
     1
 45
0.0
1001
ACAD
1000
AcDbSavedByObjectVersion
1070
     0
  0
VISUALSTYLE
  5
1A0AB
102
{ACAD_XDICTIONARY
360
30C10
102
}
102
{ACAD_REACTORS
330
1A09B
102
}
330
1A09B
100
AcDbVisualStyle
  2

 70
    16
 71
     2
 72
     2
 73
     3
 90
        0
 40
-0.6
 41
-30.0
 62
     5
 63
     8
 74
     1
 91
        4
 64
     7
 65
   257
 75
     1
175
     1
 42
1.0
 92
        8
 66
     8
 43
1.0
 76
     1
 77
     6
 78
     2
 67
     7
 79
     5
170
     0
171
     0
290
     0
174
     0
 93
        1
 44
0.0
173
     0
291
     1
 45
0.0
1001
ACAD
1000
AcDbSavedByObjectVersion
1070
     0
  0
VISUALSTYLE
  5
1A0A4
102
{ACAD_XDICTIONARY
360
30C02
102
}
102
{ACAD_REACTORS
330
1A09B
102
}
330
1A09B
100
AcDbVisualStyle
  2

 70
     9
 71
     3
 72
     2
 73
     0
 90
        0
 40
-0.6
 41
-30.0
 62
     5
 63
     7
 74
     2
 91
        2
 64
     7
 65
   257
 75
     1
175
     1
 42
179.0
 92
        8
 66
     7
 43
1.0
 76
     1
 77
     6
 78
     2
 67
     7
 79
     3
170
     0
171
     0
290
     0
174
     0
 93
        1
 44
0.0
173
     0
291
     0
 45
0.0
1001
ACAD
1000
AcDbSavedByObjectVersion
1070
     0
  0
VISUALSTYLE
  5
1A0A6
102
{ACAD_XDICTIONARY
360
30C06
102
}
102
{ACAD_REACTORS
330
1A09B
102
}
330
1A09B
100
AcDbVisualStyle
  2

 70
    11
 71
     2
 72
     2
 73
     0
 90
        0
 40
-0.6
 41
-30.0
 62
     5
 63
     7
 74
     1
 91
        4
 64
     7
 65
   257
 75
     1
175
     1
 42
1.0
 92
        8
 66
     7
 43
1.0
 76
     1
 77
     6
 78
     2
 67
     7
 79
     5
170
     0
171
     0
290
     0
174
     0
 93
        1
 44
-50.0
173
     0
291
     1
 45
0.0
1001
ACAD
1000
AcDbSavedByObjectVersion
1070
     0
  0
VISUALSTYLE
  5
1A0B3
102
{ACAD_XDICTIONARY
360
30C20
102
}
102
{ACAD_REACTORS
330
1A09B
102
}
330
1A09B
100
AcDbVisualStyle
  2

 70
    22
 71
     2
 72
     2
 73
     0
 90
        0
 40
-0.6
 41
-30.0
 62
     5
 63
     7
 74
     1
 91
        4
 64
     7
 65
   257
 75
     1
175
     1
 42
1.0
 92
        8
 66
     7
 43
1.0
 76
     1
 77
     6
 78
     2
 67
     7
 79
     5
170
     0
171
     0
290
     0
174
     0
 93
        1
 44
0.0
173
     0
291
     1
 45
0.0
1001
ACAD
1000
AcDbSavedByObjectVersion
1070
     0
  0
VISUALSTYLE
  5
1A0AA
102
{ACAD_XDICTIONARY
360
30C0E
102
}
102
{ACAD_REACTORS
330
1A09B
102
}
330
1A09B
100
AcDbVisualStyle
  2

 70
    15
 71
     2
 72
     2
 73
     0
 90
        0
 40
-0.6
 41
-30.0
 62
     5
 63
     7
 74
     1
 91
        4
 64
     7
 65
   257
 75
     1
175
     1
 42
1.0
 92
        8
 66
     7
 43
1.0
 76
     1
 77
     6
 78
     2
 67
     7
 79
     5
170
     0
171
     0
290
     0
174
     0
 93
        1
 44
0.0
173
     0
291
     1
 45
0.0
1001
ACAD
1000
AcDbSavedByObjectVersion
1070
     0
  0
VISUALSTYLE
  5
1A09C
102
{ACAD_XDICTIONARY
360
30BF2
102
}
102
{ACAD_REACTORS
330
1A09B
102
}
330
1A09B
100
AcDbVisualStyle
  2

 70
     0
 71
     2
 72
     1
 73
     1
 90
        2
 40
-0.6
 41
30.0
 62
     5
 63
     7
 74
     0
 91
        0
 64
     7
 65
   257
 75
     1
175
     1
 42
1.0
 92
        8
 66
     7
 43
1.0
 76
     1
 77
     6
 78
     2
 67
     7
 79
     5
170
     0
171
     0
290
     0
174
     0
 93
       13
 44
0.0
173
     0
291
     1
 45
0.0
1001
ACAD
1000
AcDbSavedByObjectVersion
1070
     0
  0
VISUALSTYLE
  5
1A09D
102
{ACAD_XDICTIONARY
360
30BF4
102
}
102
{ACAD_REACTORS
330
1A09B
102
}
330
1A09B
100
AcDbVisualStyle
  2

 70
     1
 71
     2
 72
     1
 73
     1
 90
        2
 40
-0.6
 41
30.0
 62
     5
 63
     7
 74
     1
 91
        0
 64
     7
 65
   257
 75
     1
175
     1
 42
1.0
 92
        0
 66
   257
 43
1.0
 76
     1
 77
     6
 78
     2
 67
     7
 79
     5
170
     0
171
     0
290
     0
174
     0
 93
       13
 44
0.0
173
     0
291
     1
 45
0.0
1001
ACAD
1000
AcDbSavedByObjectVersion
1070
     0
  0
VISUALSTYLE
  5
1A09E
102
{ACAD_XDICTIONARY
360
30BF6
102
}
102
{ACAD_REACTORS
330
1A09B
102
}
330
1A09B
100
AcDbVisualStyle
  2

 70
     2
 71
     2
 72
     2
 73
     1
 90
        2
 40
-0.6
 41
30.0
 62
     5
 63
     7
 74
     0
 91
        0
 64
     7
 65
   257
 75
     1
175
     1
 42
1.0
 92
        0
 66
     7
 43
1.0
 76
     1
 77
     6
 78
     2
 67
     7
 79
     5
170
     0
171
     0
290
     0
174
     0
 93
       13
 44
0.0
173
     0
291
     1
 45
0.0
1001
ACAD
1000
AcDbSavedByObjectVersion
1070
     0
  0
VISUALSTYLE
  5
1A09F
102
{ACAD_XDICTIONARY
360
30BF8
102
}
102
{ACAD_REACTORS
330
1A09B
102
}
330
1A09B
100
AcDbVisualStyle
  2

 70
     3
 71
     2
 72
     2
 73
     1
 90
        2
 40
-0.6
 41
30.0
 62
     5
 63
     7
 74
     1
 91
        0
 64
     7
 65
   257
 75
     1
175
     1
 42
1.0
 92
        0
 66
   257
 43
1.0
 76
     1
 77
     6
 78
     2
 67
     7
 79
     5
170
     0
171
     0
290
     0
174
     0
 93
       13
 44
0.0
173
     0
291
     1
 45
0.0
1001
ACAD
1000
AcDbSavedByObjectVersion
1070
     0
  0
VISUALSTYLE
  5
1A0A3
102
{ACAD_XDICTIONARY
360
30C00
102
}
102
{ACAD_REACTORS
330
1A09B
102
}
330
1A09B
100
AcDbVisualStyle
  2

 70
     6
 71
     1
 72
     2
 73
     2
 90
        0
 40
-0.6
 41
-30.0
 62
     5
 63
     7
 74
     2
 91
        2
 64
     7
 65
   257
 75
     2
175
     1
 42
40.0
 92
        0
 66
   257
 43
1.0
 76
     1
 77
     6
 78
     2
 67
     7
 79
     3
170
     0
171
     0
290
     0
174
     0
 93
        1
 44
0.0
173
     0
291
     0
 45
0.0
1001
ACAD
1000
AcDbSavedByObjectVersion
1070
     0
  0
VISUALSTYLE
  5
1A0B1
102
{ACAD_XDICTIONARY
360
30C1C
102
}
102
{ACAD_REACTORS
330
1A09B
102
}
330
1A09B
100
AcDbVisualStyle
  2

 70
    20
 71
     2
 72
     2
 73
     0
 90
        0
 40
-0.6
 41
-30.0
 62
     5
 63
     7
 74
     1
 91
        4
 64
     7
 65
   257
 75
     1
175
     1
 42
1.0
 92
       10
 66
     7
 43
1.0
 76
     1
 77
     6
 78
     2
 67
     7
 79
     5
170
     0
171
     0
290
     0
174
     0
 93
        1
 44
0.0
173
     0
291
     1
 45
0.0
1001
ACAD
1000
AcDbSavedByObjectVersion
1070
     0
  0
VISUALSTYLE
  5
1A0A9
102
{ACAD_XDICTIONARY
360
30C0C
102
}
102
{ACAD_REACTORS
330
1A09B
102
}
330
1A09B
100
AcDbVisualStyle
  2

 70
    14
 71
     2
 72
     2
 73
     0
 90
        0
 40
-0.6
 41
-30.0
 62
     5
 63
     7
 74
     1
 91
        4
 64
     7
 65
   257
 75
     7
175
     7
 42
1.0
 92
        8
 66
     7
 43
1.0
 76
     1
 77
     6
 78
     2
 67
     7
 79
     5
170
     0
171
     0
290
     0
174
     0
 93
        1
 44
0.0
173
     0
291
     1
 45
0.0
1001
ACAD
1000
AcDbSavedByObjectVersion
1070
     0
  0
VISUALSTYLE
  5
1A0B2
102
{ACAD_XDICTIONARY
360
30C1E
102
}
102
{ACAD_REACTORS
330
1A09B
102
}
330
1A09B
100
AcDbVisualStyle
  2

 70
    21
 71
     2
 72
     2
 73
     0
 90
        0
 40
-0.6
 41
-30.0
 62
     5
 63
     7
 74
     1
 91
        4
 64
     7
 65
   257
 75
     1
175
     1
 42
1.0
 92
        9
 66
     7
 43
1.0
 76
     1
 77
     6
 78
     2
 67
     7
 79
     5
170
     0
171
     0
290
     0
174
     0
 93
        1
 44
0.0
173
     0
291
     1
 45
0.0
1001
ACAD
1000
AcDbSavedByObjectVersion
1070
     0
  0
VISUALSTYLE
  5
1A0A5
102
{ACAD_XDICTIONARY
360
30C04
102
}
102
{ACAD_REACTORS
330
1A09B
102
}
330
1A09B
100
AcDbVisualStyle
  2

 70
     8
 71
     2
 72
     3
 73
     0
 90
        2
 40
-0.6
 41
30.0
 62
     5
 63
     7
 74
     0
 91
        0
 64
     7
 65
   257
 75
     1
175
     1
 42
1.0
 92
        8
 66
   257
 43
1.0
 76
     1
 77
     6
 78
     2
 67
     7
 79
     3
170
     0
171
     0
290
     0
174
     0
 93
       13
 44
0.0
173
     0
291
     0
 45
0.0
1001
ACAD
1000
AcDbSavedByObjectVersion
1070
     0
  0
VISUALSTYLE
  5
1A0B0
102
{ACAD_XDICTIONARY
360
30C1A
102
}
102
{ACAD_REACTORS
330
1A09B
102
}
330
1A09B
100
AcDbVisualStyle
  2

 70
    27
 71
     2
 72
     2
 73
     1
 90
        2
 40
-0.6
 41
30.0
 62
     5
 63
     7
 74
     0
 91
        4
 64
     7
 65
   257
 75
     1
175
     1
 42
1.0
 92
        8
 66
   257
 43
1.0
 76
     1
 77
     6
 78
     2
 67
     8
 79
     3
170
     0
171
     0
290
     0
174
     0
 93
        5
 44
0.0
173
     0
291
     0
 45
0.0
1001
ACAD
1000
AcDbSavedByObjectVersion
1070
     0
  0
VISUALSTYLE
  5
1A0AF
102
{ACAD_XDICTIONARY
360
30C18
102
}
102
{ACAD_REACTORS
330
1A09B
102
}
330
1A09B
100
AcDbVisualStyle
  2

 70
    26
 71
     2
 72
     2
 73
     1
 90
        2
 40
-0.6
 41
30.0
 62
     5
 63
     7
 74
     1
 91
       10
 64
     7
 65
   257
 75
     2
175
     1
 42
1.0
 92
        8
 66
   257
 43
1.0
 76
     1
 77
     6
 78
     2
 67
     7
 79
     3
170
     0
171
     0
290
     0
174
     0
 93
        5
 44
0.0
173
     0
291
     0
 45
0.0
1001
ACAD
1000
AcDbSavedByObjectVersion
1070
     0
  0
VISUALSTYLE
  5
1A0AC
102
{ACAD_XDICTIONARY
360
30C12
102
}
102
{ACAD_REACTORS
330
1A09B
102
}
330
1A09B
100
AcDbVisualStyle
  2

 70
    23
 71
     2
 72
     2
 73
     3
 90
        0
 40
-0.6
 41
-30.0
 62
     5
 63
     7
 74
     2
 91
        2
 64
     7
 65
     7
 75
     1
175
     1
 42
40.0
 92
        8
 66
     7
 43
1.0
 76
     1
 77
     6
 78
     2
 67
     7
 79
     3
170
     0
171
     0
290
     0
174
     0
 93
        1
 44
0.0
173
     0
291
     0
 45
0.0
1001
ACAD
1000
AcDbSavedByObjectVersion
1070
     0
  0
VISUALSTYLE
  5
1A0AD
102
{ACAD_XDICTIONARY
360
30C14
102
}
102
{ACAD_REACTORS
330
1A09B
102
}
330
1A09B
100
AcDbVisualStyle
  2

 70
    24
 71
     1
 72
     2
 73
     2
 90
        0
 40
-0.6
 41
-30.0
 62
     5
 63
     7
 74
     2
 91
        2
 64
     7
 65
     7
 75
     1
175
     1
 42
40.0
 92
       11
 66
     7
 43
1.0
 76
     1
 77
     6
 78
     2
 67
     7
 79
     6
170
     0
171
     0
290
     0
174
     0
 93
        1
 44
0.0
173
     0
291
     0
 45
0.0
1001
ACAD
1000
AcDbSavedByObjectVersion
1070
     0
  0
VISUALSTYLE
  5
1A0A8
102
{ACAD_XDICTIONARY
360
30C0A
102
}
102
{ACAD_REACTORS
330
1A09B
102
}
330
1A09B
100
AcDbVisualStyle
  2

 70
    13
 71
     2
 72
     2
 73
     0
 90
        0
 40
-0.6
 41
-30.0
 62
     5
 63
     7
 74
     1
 91
        4
 64
     7
 65
   257
 75
     1
175
     1
 42
1.0
 92
       12
 66
     7
 43
1.0
 76
     1
 77
     6
 78
     2
 67
     7
 79
     5
170
     0
171
     0
290
     0
174
     0
 93
        1
 44
0.0
173
     0
291
     1
 45
0.0
1001
ACAD
1000
AcDbSavedByObjectVersion
1070
     0
  0
VISUALSTYLE
  5
1A0A2
102
{ACAD_XDICTIONARY
360
30BFE
102
}
102
{ACAD_REACTORS
330
1A09B
102
}
330
1A09B
100
AcDbVisualStyle
  2

 70
     5
 71
     0
 72
     2
 73
     0
 90
        0
 40
-0.6
 41
-30.0
 62
     5
 63
     7
 74
     1
 91
        4
 64
     7
 65
   257
 75
     1
175
     1
 42
1.0
 92
        0
 66
   257
 43
1.0
 76
     1
 77
     6
 78
     2
 67
     7
 79
     3
170
     0
171
     0
290
     0
174
     0
 93
        1
 44
0.0
173
     0
291
     0
 45
0.0
1001
ACAD
1000
AcDbSavedByObjectVersion
1070
     0
  0
VISUALSTYLE
  5
1A0AE
102
{ACAD_XDICTIONARY
360
30C16
102
}
102
{ACAD_REACTORS
330
1A09B
102
}
330
1A09B
100
AcDbVisualStyle
  2

 70
    25
 71
     2
 72
     2
 73
     1
 90
        1
 40
0.5
 41
-30.0
 62
     5
 63
     7
 74
     1
 91
        0
 64
     7
 65
   257
 75
     1
175
     1
 42
1.0
 92
        8
 66
     7
 43
1.0
 76
     1
 77
     6
 78
     2
 67
     7
 79
     3
170
     0
171
     0
290
     0
174
     0
 93
       13
 44
0.0
173
     0
291
     0
 45
0.0
1001
ACAD
1000
AcDbSavedByObjectVersion
1070
     0
  0
DICTIONARYVAR
  5
1C766
102
{ACAD_REACTORS
330
5E
102
}
330
5E
100
DictionaryVariables
280
     0
  1
1:1
  0
DICTIONARYVAR
  5
1C762
102
{ACAD_REACTORS
330
5E
102
}
330
5E
100
DictionaryVariables
280
     0
  1
STANDARD
  0
DICTIONARYVAR
  5
84
102
{ACAD_REACTORS
330
5E
102
}
330
5E
100
DictionaryVariables
280
     0
  1
STANDARD
  0
DICTIONARYVAR
  5
1C763
102
{ACAD_REACTORS
330
5E
102
}
330
5E
100
DictionaryVariables
280
     0
  1
Metric50
  0
DICTIONARYVAR
  5
1C764
102
{ACAD_REACTORS
330
5E
102
}
330
5E
100
DictionaryVariables
280
     0
  1
Metric50
  0
DICTIONARYVAR
  5
5F
102
{ACAD_REACTORS
330
5E
102
}
330
5E
100
DictionaryVariables
280
     0
  1
2
  0
DICTIONARYVAR
  5
63
102
{ACAD_REACTORS
330
5E
102
}
330
5E
100
DictionaryVariables
280
     0
  1
1
  0
DICTIONARYVAR
  5
30B91
102
{ACAD_REACTORS
330
5E
102
}
330
5E
100
DictionaryVariables
280
     0
  1
0
  0
DICTIONARYVAR
  5
1C768
102
{ACAD_REACTORS
330
5E
102
}
330
5E
100
DictionaryVariables
280
     0
  1
1
  0
DICTIONARYVAR
  5
1C769
102
{ACAD_REACTORS
330
5E
102
}
330
5E
100
DictionaryVariables
280
     0
  1
15
  0
DICTIONARYVAR
  5
1C767
102
{ACAD_REACTORS
330
5E
102
}
330
5E
100
DictionaryVariables
280
     0
  1
0
  0
DICTIONARYVAR
  5
1C765
102
{ACAD_REACTORS
330
5E
102
}
330
5E
100
DictionaryVariables
280
     0
  1
0
  0
DICTIONARYVAR
  5
66AB
102
{ACAD_REACTORS
330
5E
102
}
330
5E
100
DictionaryVariables
280
     0
  1

  0
DICTIONARYVAR
  5
30B90
102
{ACAD_REACTORS
330
5E
102
}
330
5E
100
DictionaryVariables
280
     0
  1
127
  0
DICTIONARYVAR
  5
30BE7
102
{ACAD_REACTORS
330
5E
102
}
330
5E
100
DictionaryVariables
280
     0
  1
2
  0
DICTIONARY
  5
30C2A
330
1C19A
100
AcDbDictionary
280
     1
281
     1
  3
ACAD_XREC_ROUNDTRIP
360
30C2B
  0
DICTIONARY
  5
30C26
330
1A0CB
100
AcDbDictionary
280
     1
281
     1
  3
ACAD_XREC_ROUNDTRIP
360
30C27
  0
DICTIONARY
  5
30BEB
330
22
100
AcDbDictionary
280
     1
281
     1
  3
ACAD_XREC_ROUNDTRIP
360
30BEC
  0
DICTIONARY
  5
30BEE
330
D3
100
AcDbDictionary
280
     1
281
     1
  3
ACAD_XREC_ROUNDTRIP
360
30BEF
  0
DICTIONARY
  5
30BF0
330
D7
100
AcDbDictionary
280
     1
281
     1
  3
ACAD_XREC_ROUNDTRIP
360
30BF1
  0
DICTIONARY
  5
1A08C
330
1A08B
100
AcDbDictionary
280
     1
281
     1
  3
ACAD_XREC_ROUNDTRIP
360
30BA7
  3
BUMPTILE
360
1A08E
  3
DIFFUSETILE
360
1A08D
  3
OPACITYTILE
360
1A091
  3
REFLECTIONTILE
360
1A090
  3
REFRACTIONTILE
360
1A092
  3
SPECULARTILE
360
1A08F
  0
DICTIONARY
  5
1A084
330
1A083
100
AcDbDictionary
280
     1
281
     1
  3
ACAD_XREC_ROUNDTRIP
360
30BA6
  3
BUMPTILE
360
1A086
  3
DIFFUSETILE
360
1A085
  3
OPACITYTILE
360
1A089
  3
REFLECTIONTILE
360
1A088
  3
REFRACTIONTILE
360
1A08A
  3
SPECULARTILE
360
1A087
  0
DICTIONARY
  5
1A094
330
1A093
100
AcDbDictionary
280
     1
281
     1
  3
ACAD_XREC_ROUNDTRIP
360
30BA8
  3
BUMPTILE
360
1A096
  3
DIFFUSETILE
360
1A095
  3
OPACITYTILE
360
1A099
  3
REFLECTIONTILE
360
1A098
  3
REFRACTIONTILE
360
1A09A
  3
SPECULARTILE
360
1A097
  0
DICTIONARY
  5
30C22
330
1A0C7
100
AcDbDictionary
280
     1
281
     1
  3
ACAD_XREC_ROUNDTRIP
360
30C23
  0
DICTIONARY
  5
30C28
330
1C199
100
AcDbDictionary
280
     1
281
     1
  3
ACAD_XREC_ROUNDTRIP
360
30C29
  0
DICTIONARY
  5
30C24
330
1A0C9
100
AcDbDictionary
280
     1
281
     1
  3
ACAD_XREC_ROUNDTRIP
360
30C25
  0
DICTIONARY
  5
30B93
330
7F
100
AcDbDictionary
280
     1
281
     1
  3
ACAD_ROUNDTRIP_2008_TABLESTYLE_CELLSTYLEMAP
360
30BE8
  3
ACAD_XREC_ROUNDTRIP
360
30BED
  0
DICTIONARY
  5
30BFC
330
1A0A1
100
AcDbDictionary
280
     1
281
     1
  3
ACAD_XREC_ROUNDTRIP
360
30BFD
  0
DICTIONARY
  5
30BFA
330
1A0A0
100
AcDbDictionary
280
     1
281
     1
  3
ACAD_XREC_ROUNDTRIP
360
30BFB
  0
DICTIONARY
  5
30C08
330
1A0A7
100
AcDbDictionary
280
     1
281
     1
  3
ACAD_XREC_ROUNDTRIP
360
30C09
  0
DICTIONARY
  5
30C10
330
1A0AB
100
AcDbDictionary
280
     1
281
     1
  3
ACAD_XREC_ROUNDTRIP
360
30C11
  0
DICTIONARY
  5
30C02
330
1A0A4
100
AcDbDictionary
280
     1
281
     1
  3
ACAD_XREC_ROUNDTRIP
360
30C03
  0
DICTIONARY
  5
30C06
330
1A0A6
100
AcDbDictionary
280
     1
281
     1
  3
ACAD_XREC_ROUNDTRIP
360
30C07
  0
DICTIONARY
  5
30C20
330
1A0B3
100
AcDbDictionary
280
     1
281
     1
  3
ACAD_XREC_ROUNDTRIP
360
30C21
  0
DICTIONARY
  5
30C0E
330
1A0AA
100
AcDbDictionary
280
     1
281
     1
  3
ACAD_XREC_ROUNDTRIP
360
30C0F
  0
DICTIONARY
  5
30BF2
330
1A09C
100
AcDbDictionary
280
     1
281
     1
  3
ACAD_XREC_ROUNDTRIP
360
30BF3
  0
DICTIONARY
  5
30BF4
330
1A09D
100
AcDbDictionary
280
     1
281
     1
  3
ACAD_XREC_ROUNDTRIP
360
30BF5
  0
DICTIONARY
  5
30BF6
330
1A09E
100
AcDbDictionary
280
     1
281
     1
  3
ACAD_XREC_ROUNDTRIP
360
30BF7
  0
DICTIONARY
  5
30BF8
330
1A09F
100
AcDbDictionary
280
     1
281
     1
  3
ACAD_XREC_ROUNDTRIP
360
30BF9
  0
DICTIONARY
  5
30C00
330
1A0A3
100
AcDbDictionary
280
     1
281
     1
  3
ACAD_XREC_ROUNDTRIP
360
30C01
  0
DICTIONARY
  5
30C1C
330
1A0B1
100
AcDbDictionary
280
     1
281
     1
  3
ACAD_XREC_ROUNDTRIP
360
30C1D
  0
DICTIONARY
  5
30C0C
330
1A0A9
100
AcDbDictionary
280
     1
281
     1
  3
ACAD_XREC_ROUNDTRIP
360
30C0D
  0
DICTIONARY
  5
30C1E
330
1A0B2
100
AcDbDictionary
280
     1
281
     1
  3
ACAD_XREC_ROUNDTRIP
360
30C1F
  0
DICTIONARY
  5
30C04
330
1A0A5
100
AcDbDictionary
280
     1
281
     1
  3
ACAD_XREC_ROUNDTRIP
360
30C05
  0
DICTIONARY
  5
30C1A
330
1A0B0
100
AcDbDictionary
280
     1
281
     1
  3
ACAD_XREC_ROUNDTRIP
360
30C1B
  0
DICTIONARY
  5
30C18
330
1A0AF
100
AcDbDictionary
280
     1
281
     1
  3
ACAD_XREC_ROUNDTRIP
360
30C19
  0
DICTIONARY
  5
30C12
330
1A0AC
100
AcDbDictionary
280
     1
281
     1
  3
ACAD_XREC_ROUNDTRIP
360
30C13
  0
DICTIONARY
  5
30C14
330
1A0AD
100
AcDbDictionary
280
     1
281
     1
  3
ACAD_XREC_ROUNDTRIP
360
30C15
  0
DICTIONARY
  5
30C0A
330
1A0A8
100
AcDbDictionary
280
     1
281
     1
  3
ACAD_XREC_ROUNDTRIP
360
30C0B
  0
DICTIONARY
  5
30BFE
330
1A0A2
100
AcDbDictionary
280
     1
281
     1
  3
ACAD_XREC_ROUNDTRIP
360
30BFF
  0
DICTIONARY
  5
30C16
330
1A0AE
100
AcDbDictionary
280
     1
281
     1
  3
ACAD_XREC_ROUNDTRIP
360
30C17
  0
XRECORD
  5
30C2B
102
{ACAD_REACTORS
330
30C2A
102
}
330
30C2A
100
AcDbXrecord
280
     1
102
DISPLAYNAME
  1
Imperial24
102
FLAGS
 90
        0
  0
XRECORD
  5
30C27
102
{ACAD_REACTORS
330
30C26
102
}
330
30C26
100
AcDbXrecord
280
     1
102
DISPLAYNAME
  1
Metric50
102
FLAGS
 90
        0
  0
XRECORD
  5
30BEC
102
{ACAD_REACTORS
330
30BEB
102
}
330
30BEB
100
AcDbXrecord
280
     1
102
SHADEPLOT
 70
     0
102
SHADEPLOTRESLEVEL
 70
     2
102
SHADEPLOTCUSTOMDPI
 70
   300
  0
XRECORD
  5
30BEF
102
{ACAD_REACTORS
330
30BEE
102
}
330
30BEE
100
AcDbXrecord
280
     1
102
SHADEPLOT
 70
     0
102
SHADEPLOTRESLEVEL
 70
     2
102
SHADEPLOTCUSTOMDPI
 70
   300
  0
XRECORD
  5
30BF1
102
{ACAD_REACTORS
330
30BF0
102
}
330
30BF0
100
AcDbXrecord
280
     1
102
SHADEPLOT
 70
     0
102
SHADEPLOTRESLEVEL
 70
     2
102
SHADEPLOTCUSTOMDPI
 70
   300
  0
XRECORD
  5
30BA7
102
{ACAD_REACTORS
330
1A08C
102
}
330
1A08C
100
AcDbXrecord
280
     1
102
MATERIAL
148
0.0
149
0.0
149
0.0
 93
        0
 94
      127
282
     0
 72
     0
 77
     0
171
     0
175
     0
179
     0
273
     0
  0
XRECORD
  5
1A08E
102
{ACAD_REACTORS
330
1A08C
102
}
330
1A08C
100
AcDbXrecord
280
     1
270
     1
271
     1
  0
XRECORD
  5
1A08D
102
{ACAD_REACTORS
330
1A08C
102
}
330
1A08C
100
AcDbXrecord
280
     1
270
     1
271
     1
  0
XRECORD
  5
1A091
102
{ACAD_REACTORS
330
1A08C
102
}
330
1A08C
100
AcDbXrecord
280
     1
270
     1
271
     1
  0
XRECORD
  5
1A090
102
{ACAD_REACTORS
330
1A08C
102
}
330
1A08C
100
AcDbXrecord
280
     1
270
     1
271
     1
  0
XRECORD
  5
1A092
102
{ACAD_REACTORS
330
1A08C
102
}
330
1A08C
100
AcDbXrecord
280
     1
270
     1
271
     1
  0
XRECORD
  5
1A08F
102
{ACAD_REACTORS
330
1A08C
102
}
330
1A08C
100
AcDbXrecord
280
     1
270
     1
271
     1
  0
XRECORD
  5
30BA6
102
{ACAD_REACTORS
330
1A084
102
}
330
1A084
100
AcDbXrecord
280
     1
102
MATERIAL
148
0.0
149
0.0
149
0.0
 93
        0
 94
      127
282
     0
 72
     0
 77
     0
171
     0
175
     0
179
     0
273
     0
  0
XRECORD
  5
1A086
102
{ACAD_REACTORS
330
1A084
102
}
330
1A084
100
AcDbXrecord
280
     1
270
     1
271
     1
  0
XRECORD
  5
1A085
102
{ACAD_REACTORS
330
1A084
102
}
330
1A084
100
AcDbXrecord
280
     1
270
     1
271
     1
  0
XRECORD
  5
1A089
102
{ACAD_REACTORS
330
1A084
102
}
330
1A084
100
AcDbXrecord
280
     1
270
     1
271
     1
  0
XRECORD
  5
1A088
102
{ACAD_REACTORS
330
1A084
102
}
330
1A084
100
AcDbXrecord
280
     1
270
     1
271
     1
  0
XRECORD
  5
1A08A
102
{ACAD_REACTORS
330
1A084
102
}
330
1A084
100
AcDbXrecord
280
     1
270
     1
271
     1
  0
XRECORD
  5
1A087
102
{ACAD_REACTORS
330
1A084
102
}
330
1A084
100
AcDbXrecord
280
     1
270
     1
271
     1
  0
XRECORD
  5
30BA8
102
{ACAD_REACTORS
330
1A094
102
}
330
1A094
100
AcDbXrecord
280
     1
102
MATERIAL
148
0.0
149
0.0
149
0.0
 93
        0
 94
      127
282
     0
 72
     0
 77
     0
171
     0
175
     0
179
     0
273
     0
  0
XRECORD
  5
1A096
102
{ACAD_REACTORS
330
1A094
102
}
330
1A094
100
AcDbXrecord
280
     1
270
     1
271
     1
  0
XRECORD
  5
1A095
102
{ACAD_REACTORS
330
1A094
102
}
330
1A094
100
AcDbXrecord
280
     1
270
     1
271
     1
  0
XRECORD
  5
1A099
102
{ACAD_REACTORS
330
1A094
102
}
330
1A094
100
AcDbXrecord
280
     1
270
     1
271
     1
  0
XRECORD
  5
1A098
102
{ACAD_REACTORS
330
1A094
102
}
330
1A094
100
AcDbXrecord
280
     1
270
     1
271
     1
  0
XRECORD
  5
1A09A
102
{ACAD_REACTORS
330
1A094
102
}
330
1A094
100
AcDbXrecord
280
     1
270
     1
271
     1
  0
XRECORD
  5
1A097
102
{ACAD_REACTORS
330
1A094
102
}
330
1A094
100
AcDbXrecord
280
     1
270
     1
271
     1
  0
XRECORD
  5
30C23
102
{ACAD_REACTORS
330
30C22
102
}
330
30C22
100
AcDbXrecord
280
     1
102
ACAD_ROUNDTRIP_2012_MLEADER_STYLE
298
     1
  0
XRECORD
  5
30C29
102
{ACAD_REACTORS
330
30C28
102
}
330
30C28
100
AcDbXrecord
280
     1
102
DISPLAYNAME
  1
Imperial24
102
FLAGS
 90
        0
  0
XRECORD
  5
30C25
102
{ACAD_REACTORS
330
30C24
102
}
330
30C24
100
AcDbXrecord
280
     1
102
DISPLAYNAME
  1
Metric50
102
FLAGS
 90
        0
  0
CELLSTYLEMAP
  5
30BE8
102
{ACAD_REACTORS
330
30B93
102
}
330
30B93
100
AcDbCellStyleMap
 90
        3
300
CELLSTYLE
  1
TABLEFORMAT_BEGIN
 90
        5
170
     1
 91
        0
 92
    32768
 62
   257
 93
        1
300
CONTENTFORMAT
  1
CONTENTFORMAT_BEGIN
 90
        0
 91
        0
 92
        4
 93
        0
300

 40
0.0
140
1.0
 94
        5
 62
     0
340
11
144
6.0
309
CONTENTFORMAT_END
171
     1
301
MARGIN
  1
CELLMARGIN_BEGIN
 40
1.5
 40
1.5
 40
1.5
 40
1.5
 40
0.18
 40
0.18
309
CELLMARGIN_END
 94
        6
 95
        1
302
GRIDFORMAT
  1
GRIDFORMAT_BEGIN
 90
        0
 91
        1
 62
     0
 92
       -2
340
0
 93
        0
 40
0.045
309
GRIDFORMAT_END
 95
        2
302
GRIDFORMAT
  1
GRIDFORMAT_BEGIN
 90
        0
 91
        1
 62
     0
 92
       -2
340
0
 93
        0
 40
0.045
309
GRIDFORMAT_END
 95
        4
302
GRIDFORMAT
  1
GRIDFORMAT_BEGIN
 90
        0
 91
        1
 62
     0
 92
       -2
340
0
 93
        0
 40
0.045
309
GRIDFORMAT_END
 95
        8
302
GRIDFORMAT
  1
GRIDFORMAT_BEGIN
 90
        0
 91
        1
 62
     0
 92
       -2
340
0
 93
        0
 40
0.045
309
GRIDFORMAT_END
 95
       16
302
GRIDFORMAT
  1
GRIDFORMAT_BEGIN
 90
        0
 91
        1
 62
     0
 92
       -2
340
0
 93
        0
 40
0.045
309
GRIDFORMAT_END
 95
       32
302
GRIDFORMAT
  1
GRIDFORMAT_BEGIN
 90
        0
 91
        1
 62
     0
 92
       -2
340
0
 93
        0
 40
0.045
309
GRIDFORMAT_END
309
TABLEFORMAT_END
  1
CELLSTYLE_BEGIN
 90
        1
 91
        1
300
_TITLE
309
CELLSTYLE_END
300
CELLSTYLE
  1
TABLEFORMAT_BEGIN
 90
        5
170
     1
 91
        0
 92
        0
 62
   257
 93
        1
300
CONTENTFORMAT
  1
CONTENTFORMAT_BEGIN
 90
        0
 91
        0
 92
        4
 93
        0
300

 40
0.0
140
1.0
 94
        5
 62
     0
340
11
144
4.5
309
CONTENTFORMAT_END
171
     1
301
MARGIN
  1
CELLMARGIN_BEGIN
 40
1.5
 40
1.5
 40
1.5
 40
1.5
 40
0.18
 40
0.18
309
CELLMARGIN_END
 94
        6
 95
        1
302
GRIDFORMAT
  1
GRIDFORMAT_BEGIN
 90
        0
 91
        1
 62
     0
 92
       -2
340
0
 93
        0
 40
0.045
309
GRIDFORMAT_END
 95
        2
302
GRIDFORMAT
  1
GRIDFORMAT_BEGIN
 90
        0
 91
        1
 62
     0
 92
       -2
340
0
 93
        0
 40
0.045
309
GRIDFORMAT_END
 95
        4
302
GRIDFORMAT
  1
GRIDFORMAT_BEGIN
 90
        0
 91
        1
 62
     0
 92
       -2
340
0
 93
        0
 40
0.045
309
GRIDFORMAT_END
 95
        8
302
GRIDFORMAT
  1
GRIDFORMAT_BEGIN
 90
        0
 91
        1
 62
     0
 92
       -2
340
0
 93
        0
 40
0.045
309
GRIDFORMAT_END
 95
       16
302
GRIDFORMAT
  1
GRIDFORMAT_BEGIN
 90
        0
 91
        1
 62
     0
 92
       -2
340
0
 93
        0
 40
0.045
309
GRIDFORMAT_END
 95
       32
302
GRIDFORMAT
  1
GRIDFORMAT_BEGIN
 90
        0
 91
        1
 62
     0
 92
       -2
340
0
 93
        0
 40
0.045
309
GRIDFORMAT_END
309
TABLEFORMAT_END
  1
CELLSTYLE_BEGIN
 90
        2
 91
        1
300
_HEADER
309
CELLSTYLE_END
300
CELLSTYLE
  1
TABLEFORMAT_BEGIN
 90
        5
170
     1
 91
        0
 92
        0
 62
   257
 93
        1
300
CONTENTFORMAT
  1
CONTENTFORMAT_BEGIN
 90
        0
 91
        0
 92
        4
 93
        0
300

 40
0.0
140
1.0
 94
        2
 62
     0
340
11
144
4.5
309
CONTENTFORMAT_END
171
     1
301
MARGIN
  1
CELLMARGIN_BEGIN
 40
1.5
 40
1.5
 40
1.5
 40
1.5
 40
0.18
 40
0.18
309
CELLMARGIN_END
 94
        6
 95
        1
302
GRIDFORMAT
  1
GRIDFORMAT_BEGIN
 90
        0
 91
        1
 62
     0
 92
       -2
340
0
 93
        0
 40
0.045
309
GRIDFORMAT_END
 95
        2
302
GRIDFORMAT
  1
GRIDFORMAT_BEGIN
 90
        0
 91
        1
 62
     0
 92
       -2
340
0
 93
        0
 40
0.045
309
GRIDFORMAT_END
 95
        4
302
GRIDFORMAT
  1
GRIDFORMAT_BEGIN
 90
        0
 91
        1
 62
     0
 92
       -2
340
0
 93
        0
 40
0.045
309
GRIDFORMAT_END
 95
        8
302
GRIDFORMAT
  1
GRIDFORMAT_BEGIN
 90
        0
 91
        1
 62
     0
 92
       -2
340
0
 93
        0
 40
0.045
309
GRIDFORMAT_END
 95
       16
302
GRIDFORMAT
  1
GRIDFORMAT_BEGIN
 90
        0
 91
        1
 62
     0
 92
       -2
340
0
 93
        0
 40
0.045
309
GRIDFORMAT_END
 95
       32
302
GRIDFORMAT
  1
GRIDFORMAT_BEGIN
 90
        0
 91
        1
 62
     0
 92
       -2
340
0
 93
        0
 40
0.045
309
GRIDFORMAT_END
309
TABLEFORMAT_END
  1
CELLSTYLE_BEGIN
 90
        3
 91
        2
300
_DATA
309
CELLSTYLE_END
  0
XRECORD
  5
30BED
102
{ACAD_REACTORS
330
30B93
102
}
330
30B93
100
AcDbXrecord
280
     1
102
ACAD_ROUNDTRIP_PRE2007_TABLESTYLE
 90
        4
 91
        0
  1

 92
        4
 93
        0
  2

 94
        4
 95
        0
  3

  0
XRECORD
  5
30BFD
102
{ACAD_REACTORS
330
30BFC
102
}
330
30BFC
100
AcDbXrecord
280
     1
102
RTVSPost2010Prop28
280
     1
102
RTVSPost2010PropOp28
 70
     1
102
RTVSPost2010Prop29
280
     1
102
RTVSPost2010PropOp29
 70
     1
102
RTVSPost2010Prop30
280
     0
102
RTVSPost2010PropOp30
 70
     1
102
RTVSPost2010Prop31
280
     0
102
RTVSPost2010PropOp31
 70
     1
102
RTVSPost2010Prop32
280
     0
102
RTVSPost2010PropOp32
 70
     1
102
RTVSPost2010Prop33
280
     0
102
RTVSPost2010PropOp33
 70
     1
102
RTVSPost2010Prop34
280
     0
102
RTVSPost2010PropOp34
 70
     1
102
RTVSPost2010Prop35
280
     0
102
RTVSPost2010PropOp35
 70
     1
102
RTVSPost2010Prop36
280
     0
102
RTVSPost2010PropOp36
 70
     1
102
RTVSPost2010Prop37
 90
       50
102
RTVSPost2010PropOp37
 70
     1
102
RTVSPost2010Prop38
140
0.0
102
RTVSPost2010PropOp38
 70
     1
102
RTVSPost2010Prop39
140
1.0
102
RTVSPost2010PropOp39
 70
     1
102
RTVSPost2010Prop40
 90
        0
102
RTVSPost2010PropOp40
 70
     1
102
RTVSPost2010Prop41ColorIndex
 90
       18
102
RTVSPost2010Prop41ColorRGB
 90
        0
102
RTVSPost2010PropOp41
 70
     1
102
RTVSPost2010Prop42
 90
       50
102
RTVSPost2010PropOp42
 70
     1
102
RTVSPost2010Prop43
 90
        3
102
RTVSPost2010PropOp43
 70
     1
102
RTVSPost2010Prop44ColorIndex
 90
        5
102
RTVSPost2010Prop44ColorRGB
 90
      255
102
RTVSPost2010PropOp44
 70
     1
102
RTVSPost2010Prop45
280
     0
102
RTVSPost2010PropOp45
 70
     1
102
RTVSPost2010Prop46
 90
       50
102
RTVSPost2010PropOp46
 70
     1
102
RTVSPost2010Prop47
 90
       50
102
RTVSPost2010PropOp47
 70
     1
102
RTVSPost2010Prop48
 90
       50
102
RTVSPost2010PropOp48
 70
     1
102
RTVSPost2010Prop49
280
     0
102
RTVSPost2010PropOp49
 70
     1
102
RTVSPost2010Prop50
 90
       50
102
RTVSPost2010PropOp50
 70
     1
102
RTVSPost2010Prop51ColorIndex
 90
      256
102
RTVSPost2010Prop51ColorRGB
 90
-16777216
102
RTVSPost2010PropOp51
 70
     0
102
RTVSPost2010Prop52
140
1.0
102
RTVSPost2010PropOp52
 70
     0
102
RTVSPost2010Prop53
 90
        2
102
RTVSPost2010PropOp53
 70
     1
102
RTVSPost2010Prop54
  1
strokes_ogs.tif
102
RTVSPost2010PropOp54
 70
     1
102
RTVSPost2010Prop55
280
     0
102
RTVSPost2010PropOp55
 70
     1
102
RTVSPost2010Prop56
140
1.0
102
RTVSPost2010PropOp56
 70
     1
102
RTVSPost2010Prop57
140
1.0
102
RTVSPost2010PropOp57
 70
     1
102
RTVSPropertyOp0
 70
     1
102
RTVSPropertyOp1
 70
     1
102
RTVSPropertyOp2
 70
     1
102
RTVSPropertyOp3
 70
     1
102
RTVSPropertyOp4
 70
     1
102
RTVSPropertyOp5
 70
     1
102
RTVSPropertyOp6
 70
     1
102
RTVSPropertyOp7
 70
     1
102
RTVSPropertyOp8
 70
     1
102
RTVSPropertyOp9
 70
     1
102
RTVSPropertyOp10
 70
     1
102
RTVSPropertyOp11
 70
     1
102
RTVSPropertyOp12
 70
     1
102
RTVSPropertyOp13
 70
     1
102
RTVSPropertyOp14
 70
     1
102
RTVSPropertyOp15
 70
     1
102
RTVSPropertyOp16
 70
     1
102
RTVSPropertyOp17
 70
     1
102
RTVSPropertyOp18
 70
     1
102
RTVSPropertyOp19
 70
     1
102
RTVSPropertyOp20
 70
     1
102
RTVSPropertyOp21
 70
     1
102
RTVSPropertyOp22
 70
     1
102
RTVSPropertyOp23
 70
     1
102
RTVSPropertyOp24
 70
     1
102
RTVSPropertyOp25
 70
     1
102
RTVSPropertyOp26
 70
     1
102
RTVSPropertyOp27
 70
     1
102
RTVSPropertyOp28
 70
     1
102
RTVSPropertyOp29
 70
     1
102
RTVSPropertyOp30
 70
     1
102
RTVSPropertyOp31
 70
     1
102
RTVSPropertyOp32
 70
     1
102
RTVSPropertyOp33
 70
     1
102
RTVSPropertyOp34
 70
     1
102
RTVSPropertyOp35
 70
     1
102
RTVSPropertyOp36
 70
     1
102
RTVSPropertyOp37
 70
     1
102
RTVSPropertyOp38
 70
     1
102
RTVSPropertyOp39
 70
     1
102
RTVSPropertyOp40
 70
     1
102
RTVSPropertyOp41
 70
     1
102
RTVSPropertyOp42
 70
     1
102
RTVSPropertyOp43
 70
     1
102
RTVSPropertyOp44
 70
     1
102
RTVSPropertyOp45
 70
     1
102
RTVSPropertyOp46
 70
     1
102
RTVSPropertyOp47
 70
     1
102
RTVSPropertyOp48
 70
     1
102
RTVSPropertyOp49
 70
     1
102
RTVSPropertyOp50
 70
     1
102
RTVSPropertyOp51
 70
     0
102
RTVSPropertyOp52
 70
     0
102
RTVSPropertyOp53
 70
     1
102
RTVSPropertyOp54
 70
     1
102
RTVSPropertyOp55
 70
     1
102
RTVSPropertyOp56
 70
     1
102
RTVSPropertyOp57
 70
     1
102
RTVSPropertyOp58
 70
     1
102
RTVSPropertyOp59
 70
     1
102
RTVSPropertyOp60
 70
     1
102
RTVSPropertyOp61
 70
     1
102
RTVSPropertyOp62
 70
     1
  0
XRECORD
  5
30BFB
102
{ACAD_REACTORS
330
30BFA
102
}
330
30BFA
100
AcDbXrecord
280
     1
102
RTVSPost2010Prop28
280
     0
102
RTVSPost2010PropOp28
 70
     1
102
RTVSPost2010Prop29
280
     1
102
RTVSPost2010PropOp29
 70
     1
102
RTVSPost2010Prop30
280
     1
102
RTVSPost2010PropOp30
 70
     1
102
RTVSPost2010Prop31
280
     0
102
RTVSPost2010PropOp31
 70
     1
102
RTVSPost2010Prop32
280
     0
102
RTVSPost2010PropOp32
 70
     1
102
RTVSPost2010Prop33
280
     0
102
RTVSPost2010PropOp33
 70
     1
102
RTVSPost2010Prop34
280
     0
102
RTVSPost2010PropOp34
 70
     1
102
RTVSPost2010Prop35
280
     0
102
RTVSPost2010PropOp35
 70
     1
102
RTVSPost2010Prop36
280
     0
102
RTVSPost2010PropOp36
 70
     1
102
RTVSPost2010Prop37
 90
       50
102
RTVSPost2010PropOp37
 70
     1
102
RTVSPost2010Prop38
140
0.0
102
RTVSPost2010PropOp38
 70
     1
102
RTVSPost2010Prop39
140
1.0
102
RTVSPost2010PropOp39
 70
     1
102
RTVSPost2010Prop40
 90
        0
102
RTVSPost2010PropOp40
 70
     1
102
RTVSPost2010Prop41ColorIndex
 90
       18
102
RTVSPost2010Prop41ColorRGB
 90
        0
102
RTVSPost2010PropOp41
 70
     1
102
RTVSPost2010Prop42
 90
       50
102
RTVSPost2010PropOp42
 70
     1
102
RTVSPost2010Prop43
 90
        3
102
RTVSPost2010PropOp43
 70
     1
102
RTVSPost2010Prop44ColorIndex
 90
        5
102
RTVSPost2010Prop44ColorRGB
 90
      255
102
RTVSPost2010PropOp44
 70
     1
102
RTVSPost2010Prop45
280
     0
102
RTVSPost2010PropOp45
 70
     1
102
RTVSPost2010Prop46
 90
       50
102
RTVSPost2010PropOp46
 70
     1
102
RTVSPost2010Prop47
 90
       50
102
RTVSPost2010PropOp47
 70
     1
102
RTVSPost2010Prop48
 90
       50
102
RTVSPost2010PropOp48
 70
     1
102
RTVSPost2010Prop49
280
     0
102
RTVSPost2010PropOp49
 70
     1
102
RTVSPost2010Prop50
 90
       50
102
RTVSPost2010PropOp50
 70
     1
102
RTVSPost2010Prop51ColorIndex
 90
      256
102
RTVSPost2010Prop51ColorRGB
 90
-16777216
102
RTVSPost2010PropOp51
 70
     0
102
RTVSPost2010Prop52
140
1.0
102
RTVSPost2010PropOp52
 70
     0
102
RTVSPost2010Prop53
 90
        2
102
RTVSPost2010PropOp53
 70
     1
102
RTVSPost2010Prop54
  1
strokes_ogs.tif
102
RTVSPost2010PropOp54
 70
     1
102
RTVSPost2010Prop55
280
     0
102
RTVSPost2010PropOp55
 70
     1
102
RTVSPost2010Prop56
140
1.0
102
RTVSPost2010PropOp56
 70
     1
102
RTVSPost2010Prop57
140
1.0
102
RTVSPost2010PropOp57
 70
     1
102
RTVSPropertyOp0
 70
     1
102
RTVSPropertyOp1
 70
     1
102
RTVSPropertyOp2
 70
     1
102
RTVSPropertyOp3
 70
     1
102
RTVSPropertyOp4
 70
     1
102
RTVSPropertyOp5
 70
     1
102
RTVSPropertyOp6
 70
     1
102
RTVSPropertyOp7
 70
     1
102
RTVSPropertyOp8
 70
     1
102
RTVSPropertyOp9
 70
     1
102
RTVSPropertyOp10
 70
     1
102
RTVSPropertyOp11
 70
     1
102
RTVSPropertyOp12
 70
     1
102
RTVSPropertyOp13
 70
     1
102
RTVSPropertyOp14
 70
     1
102
RTVSPropertyOp15
 70
     1
102
RTVSPropertyOp16
 70
     1
102
RTVSPropertyOp17
 70
     1
102
RTVSPropertyOp18
 70
     1
102
RTVSPropertyOp19
 70
     1
102
RTVSPropertyOp20
 70
     1
102
RTVSPropertyOp21
 70
     1
102
RTVSPropertyOp22
 70
     1
102
RTVSPropertyOp23
 70
     1
102
RTVSPropertyOp24
 70
     1
102
RTVSPropertyOp25
 70
     1
102
RTVSPropertyOp26
 70
     1
102
RTVSPropertyOp27
 70
     1
102
RTVSPropertyOp28
 70
     1
102
RTVSPropertyOp29
 70
     1
102
RTVSPropertyOp30
 70
     1
102
RTVSPropertyOp31
 70
     1
102
RTVSPropertyOp32
 70
     1
102
RTVSPropertyOp33
 70
     1
102
RTVSPropertyOp34
 70
     1
102
RTVSPropertyOp35
 70
     1
102
RTVSPropertyOp36
 70
     1
102
RTVSPropertyOp37
 70
     1
102
RTVSPropertyOp38
 70
     1
102
RTVSPropertyOp39
 70
     1
102
RTVSPropertyOp40
 70
     1
102
RTVSPropertyOp41
 70
     1
102
RTVSPropertyOp42
 70
     1
102
RTVSPropertyOp43
 70
     1
102
RTVSPropertyOp44
 70
     1
102
RTVSPropertyOp45
 70
     1
102
RTVSPropertyOp46
 70
     1
102
RTVSPropertyOp47
 70
     1
102
RTVSPropertyOp48
 70
     1
102
RTVSPropertyOp49
 70
     1
102
RTVSPropertyOp50
 70
     1
102
RTVSPropertyOp51
 70
     0
102
RTVSPropertyOp52
 70
     0
102
RTVSPropertyOp53
 70
     1
102
RTVSPropertyOp54
 70
     1
102
RTVSPropertyOp55
 70
     1
102
RTVSPropertyOp56
 70
     1
102
RTVSPropertyOp57
 70
     1
102
RTVSPropertyOp58
 70
     1
102
RTVSPropertyOp59
 70
     1
102
RTVSPropertyOp60
 70
     1
102
RTVSPropertyOp61
 70
     1
102
RTVSPropertyOp62
 70
     1
  0
XRECORD
  5
30C09
102
{ACAD_REACTORS
330
30C08
102
}
330
30C08
100
AcDbXrecord
280
     1
102
RTVSPost2010Prop28
280
     0
102
RTVSPost2010PropOp28
 70
     1
102
RTVSPost2010Prop29
280
     1
102
RTVSPost2010PropOp29
 70
     1
102
RTVSPost2010Prop30
280
     1
102
RTVSPost2010PropOp30
 70
     1
102
RTVSPost2010Prop31
280
     0
102
RTVSPost2010PropOp31
 70
     1
102
RTVSPost2010Prop32
280
     0
102
RTVSPost2010PropOp32
 70
     1
102
RTVSPost2010Prop33
280
     0
102
RTVSPost2010PropOp33
 70
     1
102
RTVSPost2010Prop34
280
     0
102
RTVSPost2010PropOp34
 70
     1
102
RTVSPost2010Prop35
280
     0
102
RTVSPost2010PropOp35
 70
     1
102
RTVSPost2010Prop36
280
     0
102
RTVSPost2010PropOp36
 70
     1
102
RTVSPost2010Prop37
 90
       50
102
RTVSPost2010PropOp37
 70
     1
102
RTVSPost2010Prop38
140
0.0
102
RTVSPost2010PropOp38
 70
     1
102
RTVSPost2010Prop39
140
1.0
102
RTVSPost2010PropOp39
 70
     1
102
RTVSPost2010Prop40
 90
        0
102
RTVSPost2010PropOp40
 70
     1
102
RTVSPost2010Prop41ColorIndex
 90
       18
102
RTVSPost2010Prop41ColorRGB
 90
        0
102
RTVSPost2010PropOp41
 70
     1
102
RTVSPost2010Prop42
 90
       50
102
RTVSPost2010PropOp42
 70
     1
102
RTVSPost2010Prop43
 90
        3
102
RTVSPost2010PropOp43
 70
     1
102
RTVSPost2010Prop44ColorIndex
 90
        5
102
RTVSPost2010Prop44ColorRGB
 90
      255
102
RTVSPost2010PropOp44
 70
     1
102
RTVSPost2010Prop45
280
     0
102
RTVSPost2010PropOp45
 70
     1
102
RTVSPost2010Prop46
 90
       50
102
RTVSPost2010PropOp46
 70
     1
102
RTVSPost2010Prop47
 90
       50
102
RTVSPost2010PropOp47
 70
     1
102
RTVSPost2010Prop48
 90
       50
102
RTVSPost2010PropOp48
 70
     1
102
RTVSPost2010Prop49
280
     0
102
RTVSPost2010PropOp49
 70
     1
102
RTVSPost2010Prop50
 90
       50
102
RTVSPost2010PropOp50
 70
     1
102
RTVSPost2010Prop51ColorIndex
 90
      256
102
RTVSPost2010Prop51ColorRGB
 90
-16777216
102
RTVSPost2010PropOp51
 70
     0
102
RTVSPost2010Prop52
140
1.0
102
RTVSPost2010PropOp52
 70
     0
102
RTVSPost2010Prop53
 90
        2
102
RTVSPost2010PropOp53
 70
     1
102
RTVSPost2010Prop54
  1
strokes_ogs.tif
102
RTVSPost2010PropOp54
 70
     1
102
RTVSPost2010Prop55
280
     0
102
RTVSPost2010PropOp55
 70
     1
102
RTVSPost2010Prop56
140
1.0
102
RTVSPost2010PropOp56
 70
     1
102
RTVSPost2010Prop57
140
1.0
102
RTVSPost2010PropOp57
 70
     1
102
RTVSPropertyOp0
 70
     1
102
RTVSPropertyOp1
 70
     1
102
RTVSPropertyOp2
 70
     1
102
RTVSPropertyOp3
 70
     1
102
RTVSPropertyOp4
 70
     1
102
RTVSPropertyOp5
 70
     1
102
RTVSPropertyOp6
 70
     1
102
RTVSPropertyOp7
 70
     1
102
RTVSPropertyOp8
 70
     1
102
RTVSPropertyOp9
 70
     1
102
RTVSPropertyOp10
 70
     1
102
RTVSPropertyOp11
 70
     1
102
RTVSPropertyOp12
 70
     1
102
RTVSPropertyOp13
 70
     1
102
RTVSPropertyOp14
 70
     1
102
RTVSPropertyOp15
 70
     1
102
RTVSPropertyOp16
 70
     1
102
RTVSPropertyOp17
 70
     1
102
RTVSPropertyOp18
 70
     1
102
RTVSPropertyOp19
 70
     1
102
RTVSPropertyOp20
 70
     1
102
RTVSPropertyOp21
 70
     1
102
RTVSPropertyOp22
 70
     1
102
RTVSPropertyOp23
 70
     1
102
RTVSPropertyOp24
 70
     1
102
RTVSPropertyOp25
 70
     1
102
RTVSPropertyOp26
 70
     1
102
RTVSPropertyOp27
 70
     1
102
RTVSPropertyOp28
 70
     1
102
RTVSPropertyOp29
 70
     1
102
RTVSPropertyOp30
 70
     1
102
RTVSPropertyOp31
 70
     1
102
RTVSPropertyOp32
 70
     1
102
RTVSPropertyOp33
 70
     1
102
RTVSPropertyOp34
 70
     1
102
RTVSPropertyOp35
 70
     1
102
RTVSPropertyOp36
 70
     1
102
RTVSPropertyOp37
 70
     1
102
RTVSPropertyOp38
 70
     1
102
RTVSPropertyOp39
 70
     1
102
RTVSPropertyOp40
 70
     1
102
RTVSPropertyOp41
 70
     1
102
RTVSPropertyOp42
 70
     1
102
RTVSPropertyOp43
 70
     1
102
RTVSPropertyOp44
 70
     1
102
RTVSPropertyOp45
 70
     1
102
RTVSPropertyOp46
 70
     1
102
RTVSPropertyOp47
 70
     1
102
RTVSPropertyOp48
 70
     1
102
RTVSPropertyOp49
 70
     1
102
RTVSPropertyOp50
 70
     1
102
RTVSPropertyOp51
 70
     0
102
RTVSPropertyOp52
 70
     0
102
RTVSPropertyOp53
 70
     1
102
RTVSPropertyOp54
 70
     1
102
RTVSPropertyOp55
 70
     1
102
RTVSPropertyOp56
 70
     1
102
RTVSPropertyOp57
 70
     1
102
RTVSPropertyOp58
 70
     1
102
RTVSPropertyOp59
 70
     1
102
RTVSPropertyOp60
 70
     1
102
RTVSPropertyOp61
 70
     1
102
RTVSPropertyOp62
 70
     1
  0
XRECORD
  5
30C11
102
{ACAD_REACTORS
330
30C10
102
}
330
30C10
100
AcDbXrecord
280
     1
102
RTVSPost2010Prop28
280
     0
102
RTVSPost2010PropOp28
 70
     1
102
RTVSPost2010Prop29
280
     1
102
RTVSPost2010PropOp29
 70
     1
102
RTVSPost2010Prop30
280
     1
102
RTVSPost2010PropOp30
 70
     1
102
RTVSPost2010Prop31
280
     0
102
RTVSPost2010PropOp31
 70
     1
102
RTVSPost2010Prop32
280
     0
102
RTVSPost2010PropOp32
 70
     1
102
RTVSPost2010Prop33
280
     0
102
RTVSPost2010PropOp33
 70
     1
102
RTVSPost2010Prop34
280
     0
102
RTVSPost2010PropOp34
 70
     1
102
RTVSPost2010Prop35
280
     0
102
RTVSPost2010PropOp35
 70
     1
102
RTVSPost2010Prop36
280
     0
102
RTVSPost2010PropOp36
 70
     1
102
RTVSPost2010Prop37
 90
       50
102
RTVSPost2010PropOp37
 70
     1
102
RTVSPost2010Prop38
140
0.0
102
RTVSPost2010PropOp38
 70
     1
102
RTVSPost2010Prop39
140
1.0
102
RTVSPost2010PropOp39
 70
     1
102
RTVSPost2010Prop40
 90
        0
102
RTVSPost2010PropOp40
 70
     1
102
RTVSPost2010Prop41ColorIndex
 90
       18
102
RTVSPost2010Prop41ColorRGB
 90
        0
102
RTVSPost2010PropOp41
 70
     1
102
RTVSPost2010Prop42
 90
       50
102
RTVSPost2010PropOp42
 70
     1
102
RTVSPost2010Prop43
 90
        3
102
RTVSPost2010PropOp43
 70
     1
102
RTVSPost2010Prop44ColorIndex
 90
        5
102
RTVSPost2010Prop44ColorRGB
 90
      255
102
RTVSPost2010PropOp44
 70
     1
102
RTVSPost2010Prop45
280
     0
102
RTVSPost2010PropOp45
 70
     1
102
RTVSPost2010Prop46
 90
       50
102
RTVSPost2010PropOp46
 70
     1
102
RTVSPost2010Prop47
 90
       50
102
RTVSPost2010PropOp47
 70
     1
102
RTVSPost2010Prop48
 90
       50
102
RTVSPost2010PropOp48
 70
     1
102
RTVSPost2010Prop49
280
     0
102
RTVSPost2010PropOp49
 70
     1
102
RTVSPost2010Prop50
 90
       50
102
RTVSPost2010PropOp50
 70
     1
102
RTVSPost2010Prop51ColorIndex
 90
      256
102
RTVSPost2010Prop51ColorRGB
 90
-16777216
102
RTVSPost2010PropOp51
 70
     0
102
RTVSPost2010Prop52
140
1.0
102
RTVSPost2010PropOp52
 70
     0
102
RTVSPost2010Prop53
 90
        2
102
RTVSPost2010PropOp53
 70
     1
102
RTVSPost2010Prop54
  1
strokes_ogs.tif
102
RTVSPost2010PropOp54
 70
     1
102
RTVSPost2010Prop55
280
     0
102
RTVSPost2010PropOp55
 70
     1
102
RTVSPost2010Prop56
140
1.0
102
RTVSPost2010PropOp56
 70
     1
102
RTVSPost2010Prop57
140
1.0
102
RTVSPost2010PropOp57
 70
     1
102
RTVSPropertyOp0
 70
     1
102
RTVSPropertyOp1
 70
     1
102
RTVSPropertyOp2
 70
     1
102
RTVSPropertyOp3
 70
     1
102
RTVSPropertyOp4
 70
     1
102
RTVSPropertyOp5
 70
     1
102
RTVSPropertyOp6
 70
     1
102
RTVSPropertyOp7
 70
     1
102
RTVSPropertyOp8
 70
     1
102
RTVSPropertyOp9
 70
     1
102
RTVSPropertyOp10
 70
     1
102
RTVSPropertyOp11
 70
     1
102
RTVSPropertyOp12
 70
     1
102
RTVSPropertyOp13
 70
     1
102
RTVSPropertyOp14
 70
     1
102
RTVSPropertyOp15
 70
     1
102
RTVSPropertyOp16
 70
     1
102
RTVSPropertyOp17
 70
     1
102
RTVSPropertyOp18
 70
     1
102
RTVSPropertyOp19
 70
     1
102
RTVSPropertyOp20
 70
     1
102
RTVSPropertyOp21
 70
     1
102
RTVSPropertyOp22
 70
     1
102
RTVSPropertyOp23
 70
     1
102
RTVSPropertyOp24
 70
     1
102
RTVSPropertyOp25
 70
     1
102
RTVSPropertyOp26
 70
     1
102
RTVSPropertyOp27
 70
     1
102
RTVSPropertyOp28
 70
     1
102
RTVSPropertyOp29
 70
     1
102
RTVSPropertyOp30
 70
     1
102
RTVSPropertyOp31
 70
     1
102
RTVSPropertyOp32
 70
     1
102
RTVSPropertyOp33
 70
     1
102
RTVSPropertyOp34
 70
     1
102
RTVSPropertyOp35
 70
     1
102
RTVSPropertyOp36
 70
     1
102
RTVSPropertyOp37
 70
     1
102
RTVSPropertyOp38
 70
     1
102
RTVSPropertyOp39
 70
     1
102
RTVSPropertyOp40
 70
     1
102
RTVSPropertyOp41
 70
     1
102
RTVSPropertyOp42
 70
     1
102
RTVSPropertyOp43
 70
     1
102
RTVSPropertyOp44
 70
     1
102
RTVSPropertyOp45
 70
     1
102
RTVSPropertyOp46
 70
     1
102
RTVSPropertyOp47
 70
     1
102
RTVSPropertyOp48
 70
     1
102
RTVSPropertyOp49
 70
     1
102
RTVSPropertyOp50
 70
     1
102
RTVSPropertyOp51
 70
     0
102
RTVSPropertyOp52
 70
     0
102
RTVSPropertyOp53
 70
     1
102
RTVSPropertyOp54
 70
     1
102
RTVSPropertyOp55
 70
     1
102
RTVSPropertyOp56
 70
     1
102
RTVSPropertyOp57
 70
     1
102
RTVSPropertyOp58
 70
     1
102
RTVSPropertyOp59
 70
     1
102
RTVSPropertyOp60
 70
     1
102
RTVSPropertyOp61
 70
     1
102
RTVSPropertyOp62
 70
     1
  0
XRECORD
  5
30C03
102
{ACAD_REACTORS
330
30C02
102
}
330
30C02
100
AcDbXrecord
280
     1
102
RTVSPost2010Prop28
280
     0
102
RTVSPost2010PropOp28
 70
     1
102
RTVSPost2010Prop29
280
     1
102
RTVSPost2010PropOp29
 70
     1
102
RTVSPost2010Prop30
280
     1
102
RTVSPost2010PropOp30
 70
     1
102
RTVSPost2010Prop31
280
     0
102
RTVSPost2010PropOp31
 70
     1
102
RTVSPost2010Prop32
280
     0
102
RTVSPost2010PropOp32
 70
     1
102
RTVSPost2010Prop33
280
     0
102
RTVSPost2010PropOp33
 70
     1
102
RTVSPost2010Prop34
280
     0
102
RTVSPost2010PropOp34
 70
     1
102
RTVSPost2010Prop35
280
     0
102
RTVSPost2010PropOp35
 70
     1
102
RTVSPost2010Prop36
280
     0
102
RTVSPost2010PropOp36
 70
     1
102
RTVSPost2010Prop37
 90
       50
102
RTVSPost2010PropOp37
 70
     1
102
RTVSPost2010Prop38
140
0.0
102
RTVSPost2010PropOp38
 70
     1
102
RTVSPost2010Prop39
140
1.0
102
RTVSPost2010PropOp39
 70
     1
102
RTVSPost2010Prop40
 90
        0
102
RTVSPost2010PropOp40
 70
     1
102
RTVSPost2010Prop41ColorIndex
 90
       18
102
RTVSPost2010Prop41ColorRGB
 90
        0
102
RTVSPost2010PropOp41
 70
     1
102
RTVSPost2010Prop42
 90
       50
102
RTVSPost2010PropOp42
 70
     1
102
RTVSPost2010Prop43
 90
        3
102
RTVSPost2010PropOp43
 70
     1
102
RTVSPost2010Prop44ColorIndex
 90
        5
102
RTVSPost2010Prop44ColorRGB
 90
      255
102
RTVSPost2010PropOp44
 70
     1
102
RTVSPost2010Prop45
280
     0
102
RTVSPost2010PropOp45
 70
     1
102
RTVSPost2010Prop46
 90
       50
102
RTVSPost2010PropOp46
 70
     1
102
RTVSPost2010Prop47
 90
       50
102
RTVSPost2010PropOp47
 70
     1
102
RTVSPost2010Prop48
 90
       50
102
RTVSPost2010PropOp48
 70
     1
102
RTVSPost2010Prop49
280
     0
102
RTVSPost2010PropOp49
 70
     1
102
RTVSPost2010Prop50
 90
       50
102
RTVSPost2010PropOp50
 70
     1
102
RTVSPost2010Prop51ColorIndex
 90
      256
102
RTVSPost2010Prop51ColorRGB
 90
-16777216
102
RTVSPost2010PropOp51
 70
     0
102
RTVSPost2010Prop52
140
1.0
102
RTVSPost2010PropOp52
 70
     0
102
RTVSPost2010Prop53
 90
        2
102
RTVSPost2010PropOp53
 70
     1
102
RTVSPost2010Prop54
  1
strokes_ogs.tif
102
RTVSPost2010PropOp54
 70
     1
102
RTVSPost2010Prop55
280
     0
102
RTVSPost2010PropOp55
 70
     1
102
RTVSPost2010Prop56
140
1.0
102
RTVSPost2010PropOp56
 70
     1
102
RTVSPost2010Prop57
140
1.0
102
RTVSPost2010PropOp57
 70
     1
102
RTVSPropertyOp0
 70
     1
102
RTVSPropertyOp1
 70
     1
102
RTVSPropertyOp2
 70
     1
102
RTVSPropertyOp3
 70
     1
102
RTVSPropertyOp4
 70
     1
102
RTVSPropertyOp5
 70
     1
102
RTVSPropertyOp6
 70
     1
102
RTVSPropertyOp7
 70
     1
102
RTVSPropertyOp8
 70
     1
102
RTVSPropertyOp9
 70
     1
102
RTVSPropertyOp10
 70
     1
102
RTVSPropertyOp11
 70
     1
102
RTVSPropertyOp12
 70
     1
102
RTVSPropertyOp13
 70
     1
102
RTVSPropertyOp14
 70
     1
102
RTVSPropertyOp15
 70
     1
102
RTVSPropertyOp16
 70
     1
102
RTVSPropertyOp17
 70
     1
102
RTVSPropertyOp18
 70
     1
102
RTVSPropertyOp19
 70
     1
102
RTVSPropertyOp20
 70
     1
102
RTVSPropertyOp21
 70
     1
102
RTVSPropertyOp22
 70
     1
102
RTVSPropertyOp23
 70
     1
102
RTVSPropertyOp24
 70
     1
102
RTVSPropertyOp25
 70
     1
102
RTVSPropertyOp26
 70
     1
102
RTVSPropertyOp27
 70
     1
102
RTVSPropertyOp28
 70
     1
102
RTVSPropertyOp29
 70
     1
102
RTVSPropertyOp30
 70
     1
102
RTVSPropertyOp31
 70
     1
102
RTVSPropertyOp32
 70
     1
102
RTVSPropertyOp33
 70
     1
102
RTVSPropertyOp34
 70
     1
102
RTVSPropertyOp35
 70
     1
102
RTVSPropertyOp36
 70
     1
102
RTVSPropertyOp37
 70
     1
102
RTVSPropertyOp38
 70
     1
102
RTVSPropertyOp39
 70
     1
102
RTVSPropertyOp40
 70
     1
102
RTVSPropertyOp41
 70
     1
102
RTVSPropertyOp42
 70
     1
102
RTVSPropertyOp43
 70
     1
102
RTVSPropertyOp44
 70
     1
102
RTVSPropertyOp45
 70
     1
102
RTVSPropertyOp46
 70
     1
102
RTVSPropertyOp47
 70
     1
102
RTVSPropertyOp48
 70
     1
102
RTVSPropertyOp49
 70
     1
102
RTVSPropertyOp50
 70
     1
102
RTVSPropertyOp51
 70
     0
102
RTVSPropertyOp52
 70
     0
102
RTVSPropertyOp53
 70
     1
102
RTVSPropertyOp54
 70
     1
102
RTVSPropertyOp55
 70
     1
102
RTVSPropertyOp56
 70
     1
102
RTVSPropertyOp57
 70
     1
102
RTVSPropertyOp58
 70
     1
102
RTVSPropertyOp59
 70
     1
102
RTVSPropertyOp60
 70
     1
102
RTVSPropertyOp61
 70
     1
102
RTVSPropertyOp62
 70
     1
  0
XRECORD
  5
30C07
102
{ACAD_REACTORS
330
30C06
102
}
330
30C06
100
AcDbXrecord
280
     1
102
RTVSPost2010Prop28
280
     0
102
RTVSPost2010PropOp28
 70
     1
102
RTVSPost2010Prop29
280
     1
102
RTVSPost2010PropOp29
 70
     1
102
RTVSPost2010Prop30
280
     1
102
RTVSPost2010PropOp30
 70
     1
102
RTVSPost2010Prop31
280
     0
102
RTVSPost2010PropOp31
 70
     1
102
RTVSPost2010Prop32
280
     0
102
RTVSPost2010PropOp32
 70
     1
102
RTVSPost2010Prop33
280
     0
102
RTVSPost2010PropOp33
 70
     1
102
RTVSPost2010Prop34
280
     0
102
RTVSPost2010PropOp34
 70
     1
102
RTVSPost2010Prop35
280
     0
102
RTVSPost2010PropOp35
 70
     1
102
RTVSPost2010Prop36
280
     0
102
RTVSPost2010PropOp36
 70
     1
102
RTVSPost2010Prop37
 90
       50
102
RTVSPost2010PropOp37
 70
     1
102
RTVSPost2010Prop38
140
0.0
102
RTVSPost2010PropOp38
 70
     1
102
RTVSPost2010Prop39
140
1.0
102
RTVSPost2010PropOp39
 70
     1
102
RTVSPost2010Prop40
 90
        0
102
RTVSPost2010PropOp40
 70
     1
102
RTVSPost2010Prop41ColorIndex
 90
       18
102
RTVSPost2010Prop41ColorRGB
 90
        0
102
RTVSPost2010PropOp41
 70
     1
102
RTVSPost2010Prop42
 90
       50
102
RTVSPost2010PropOp42
 70
     1
102
RTVSPost2010Prop43
 90
        3
102
RTVSPost2010PropOp43
 70
     1
102
RTVSPost2010Prop44ColorIndex
 90
        5
102
RTVSPost2010Prop44ColorRGB
 90
      255
102
RTVSPost2010PropOp44
 70
     1
102
RTVSPost2010Prop45
280
     0
102
RTVSPost2010PropOp45
 70
     1
102
RTVSPost2010Prop46
 90
       50
102
RTVSPost2010PropOp46
 70
     1
102
RTVSPost2010Prop47
 90
       50
102
RTVSPost2010PropOp47
 70
     1
102
RTVSPost2010Prop48
 90
       50
102
RTVSPost2010PropOp48
 70
     1
102
RTVSPost2010Prop49
280
     0
102
RTVSPost2010PropOp49
 70
     1
102
RTVSPost2010Prop50
 90
       50
102
RTVSPost2010PropOp50
 70
     1
102
RTVSPost2010Prop51ColorIndex
 90
      256
102
RTVSPost2010Prop51ColorRGB
 90
-16777216
102
RTVSPost2010PropOp51
 70
     0
102
RTVSPost2010Prop52
140
1.0
102
RTVSPost2010PropOp52
 70
     0
102
RTVSPost2010Prop53
 90
        2
102
RTVSPost2010PropOp53
 70
     1
102
RTVSPost2010Prop54
  1
strokes_ogs.tif
102
RTVSPost2010PropOp54
 70
     1
102
RTVSPost2010Prop55
280
     0
102
RTVSPost2010PropOp55
 70
     1
102
RTVSPost2010Prop56
140
1.0
102
RTVSPost2010PropOp56
 70
     1
102
RTVSPost2010Prop57
140
1.0
102
RTVSPost2010PropOp57
 70
     1
102
RTVSPropertyOp0
 70
     1
102
RTVSPropertyOp1
 70
     1
102
RTVSPropertyOp2
 70
     1
102
RTVSPropertyOp3
 70
     1
102
RTVSPropertyOp4
 70
     1
102
RTVSPropertyOp5
 70
     1
102
RTVSPropertyOp6
 70
     1
102
RTVSPropertyOp7
 70
     1
102
RTVSPropertyOp8
 70
     1
102
RTVSPropertyOp9
 70
     1
102
RTVSPropertyOp10
 70
     1
102
RTVSPropertyOp11
 70
     1
102
RTVSPropertyOp12
 70
     1
102
RTVSPropertyOp13
 70
     1
102
RTVSPropertyOp14
 70
     1
102
RTVSPropertyOp15
 70
     1
102
RTVSPropertyOp16
 70
     1
102
RTVSPropertyOp17
 70
     1
102
RTVSPropertyOp18
 70
     1
102
RTVSPropertyOp19
 70
     1
102
RTVSPropertyOp20
 70
     1
102
RTVSPropertyOp21
 70
     1
102
RTVSPropertyOp22
 70
     1
102
RTVSPropertyOp23
 70
     1
102
RTVSPropertyOp24
 70
     1
102
RTVSPropertyOp25
 70
     1
102
RTVSPropertyOp26
 70
     1
102
RTVSPropertyOp27
 70
     1
102
RTVSPropertyOp28
 70
     1
102
RTVSPropertyOp29
 70
     1
102
RTVSPropertyOp30
 70
     1
102
RTVSPropertyOp31
 70
     1
102
RTVSPropertyOp32
 70
     1
102
RTVSPropertyOp33
 70
     1
102
RTVSPropertyOp34
 70
     1
102
RTVSPropertyOp35
 70
     1
102
RTVSPropertyOp36
 70
     1
102
RTVSPropertyOp37
 70
     1
102
RTVSPropertyOp38
 70
     1
102
RTVSPropertyOp39
 70
     1
102
RTVSPropertyOp40
 70
     1
102
RTVSPropertyOp41
 70
     1
102
RTVSPropertyOp42
 70
     1
102
RTVSPropertyOp43
 70
     1
102
RTVSPropertyOp44
 70
     1
102
RTVSPropertyOp45
 70
     1
102
RTVSPropertyOp46
 70
     1
102
RTVSPropertyOp47
 70
     1
102
RTVSPropertyOp48
 70
     1
102
RTVSPropertyOp49
 70
     1
102
RTVSPropertyOp50
 70
     1
102
RTVSPropertyOp51
 70
     0
102
RTVSPropertyOp52
 70
     0
102
RTVSPropertyOp53
 70
     1
102
RTVSPropertyOp54
 70
     1
102
RTVSPropertyOp55
 70
     1
102
RTVSPropertyOp56
 70
     1
102
RTVSPropertyOp57
 70
     1
102
RTVSPropertyOp58
 70
     1
102
RTVSPropertyOp59
 70
     1
102
RTVSPropertyOp60
 70
     1
102
RTVSPropertyOp61
 70
     1
102
RTVSPropertyOp62
 70
     1
  0
XRECORD
  5
30C21
102
{ACAD_REACTORS
330
30C20
102
}
330
30C20
100
AcDbXrecord
280
     1
102
RTVSPost2010Prop28
280
     0
102
RTVSPost2010PropOp28
 70
     0
102
RTVSPost2010Prop29
280
     1
102
RTVSPost2010PropOp29
 70
     0
102
RTVSPost2010Prop30
280
     1
102
RTVSPost2010PropOp30
 70
     0
102
RTVSPost2010Prop31
280
     0
102
RTVSPost2010PropOp31
 70
     0
102
RTVSPost2010Prop32
280
     0
102
RTVSPost2010PropOp32
 70
     0
102
RTVSPost2010Prop33
280
     0
102
RTVSPost2010PropOp33
 70
     0
102
RTVSPost2010Prop34
280
     0
102
RTVSPost2010PropOp34
 70
     0
102
RTVSPost2010Prop35
280
     0
102
RTVSPost2010PropOp35
 70
     0
102
RTVSPost2010Prop36
280
     0
102
RTVSPost2010PropOp36
 70
     0
102
RTVSPost2010Prop37
 90
       50
102
RTVSPost2010PropOp37
 70
     0
102
RTVSPost2010Prop38
140
0.0
102
RTVSPost2010PropOp38
 70
     0
102
RTVSPost2010Prop39
140
1.0
102
RTVSPost2010PropOp39
 70
     0
102
RTVSPost2010Prop40
 90
        0
102
RTVSPost2010PropOp40
 70
     0
102
RTVSPost2010Prop41ColorIndex
 90
       18
102
RTVSPost2010Prop41ColorRGB
 90
        0
102
RTVSPost2010PropOp41
 70
     0
102
RTVSPost2010Prop42
 90
       50
102
RTVSPost2010PropOp42
 70
     0
102
RTVSPost2010Prop43
 90
        3
102
RTVSPost2010PropOp43
 70
     0
102
RTVSPost2010Prop44ColorIndex
 90
        5
102
RTVSPost2010Prop44ColorRGB
 90
      255
102
RTVSPost2010PropOp44
 70
     0
102
RTVSPost2010Prop45
280
     0
102
RTVSPost2010PropOp45
 70
     0
102
RTVSPost2010Prop46
 90
       50
102
RTVSPost2010PropOp46
 70
     0
102
RTVSPost2010Prop47
 90
       50
102
RTVSPost2010PropOp47
 70
     0
102
RTVSPost2010Prop48
 90
       50
102
RTVSPost2010PropOp48
 70
     0
102
RTVSPost2010Prop49
280
     0
102
RTVSPost2010PropOp49
 70
     0
102
RTVSPost2010Prop50
 90
       50
102
RTVSPost2010PropOp50
 70
     0
102
RTVSPost2010Prop51ColorIndex
 90
      256
102
RTVSPost2010Prop51ColorRGB
 90
-16777216
102
RTVSPost2010PropOp51
 70
     0
102
RTVSPost2010Prop52
140
1.0
102
RTVSPost2010PropOp52
 70
     0
102
RTVSPost2010Prop53
 90
        2
102
RTVSPost2010PropOp53
 70
     0
102
RTVSPost2010Prop54
  1
strokes_ogs.tif
102
RTVSPost2010PropOp54
 70
     0
102
RTVSPost2010Prop55
280
     0
102
RTVSPost2010PropOp55
 70
     0
102
RTVSPost2010Prop56
140
1.0
102
RTVSPost2010PropOp56
 70
     0
102
RTVSPost2010Prop57
140
1.0
102
RTVSPost2010PropOp57
 70
     0
102
RTVSPropertyOp0
 70
     0
102
RTVSPropertyOp1
 70
     0
102
RTVSPropertyOp2
 70
     0
102
RTVSPropertyOp3
 70
     0
102
RTVSPropertyOp4
 70
     0
102
RTVSPropertyOp5
 70
     0
102
RTVSPropertyOp6
 70
     0
102
RTVSPropertyOp7
 70
     0
102
RTVSPropertyOp8
 70
     0
102
RTVSPropertyOp9
 70
     0
102
RTVSPropertyOp10
 70
     0
102
RTVSPropertyOp11
 70
     0
102
RTVSPropertyOp12
 70
     0
102
RTVSPropertyOp13
 70
     0
102
RTVSPropertyOp14
 70
     2
102
RTVSPropertyOp15
 70
     0
102
RTVSPropertyOp16
 70
     0
102
RTVSPropertyOp17
 70
     0
102
RTVSPropertyOp18
 70
     0
102
RTVSPropertyOp19
 70
     0
102
RTVSPropertyOp20
 70
     0
102
RTVSPropertyOp21
 70
     0
102
RTVSPropertyOp22
 70
     0
102
RTVSPropertyOp23
 70
     0
102
RTVSPropertyOp24
 70
     0
102
RTVSPropertyOp25
 70
     0
102
RTVSPropertyOp26
 70
     0
102
RTVSPropertyOp27
 70
     0
102
RTVSPropertyOp28
 70
     0
102
RTVSPropertyOp29
 70
     0
102
RTVSPropertyOp30
 70
     0
102
RTVSPropertyOp31
 70
     0
102
RTVSPropertyOp32
 70
     0
102
RTVSPropertyOp33
 70
     0
102
RTVSPropertyOp34
 70
     0
102
RTVSPropertyOp35
 70
     0
102
RTVSPropertyOp36
 70
     0
102
RTVSPropertyOp37
 70
     0
102
RTVSPropertyOp38
 70
     0
102
RTVSPropertyOp39
 70
     0
102
RTVSPropertyOp40
 70
     0
102
RTVSPropertyOp41
 70
     0
102
RTVSPropertyOp42
 70
     0
102
RTVSPropertyOp43
 70
     0
102
RTVSPropertyOp44
 70
     0
102
RTVSPropertyOp45
 70
     0
102
RTVSPropertyOp46
 70
     0
102
RTVSPropertyOp47
 70
     0
102
RTVSPropertyOp48
 70
     0
102
RTVSPropertyOp49
 70
     0
102
RTVSPropertyOp50
 70
     0
102
RTVSPropertyOp51
 70
     0
102
RTVSPropertyOp52
 70
     0
102
RTVSPropertyOp53
 70
     0
102
RTVSPropertyOp54
 70
     0
102
RTVSPropertyOp55
 70
     0
102
RTVSPropertyOp56
 70
     0
102
RTVSPropertyOp57
 70
     0
102
RTVSPropertyOp58
 70
     1
102
RTVSPropertyOp59
 70
     1
102
RTVSPropertyOp60
 70
     1
102
RTVSPropertyOp61
 70
     1
102
RTVSPropertyOp62
 70
     1
  0
XRECORD
  5
30C0F
102
{ACAD_REACTORS
330
30C0E
102
}
330
30C0E
100
AcDbXrecord
280
     1
102
RTVSPost2010Prop28
280
     0
102
RTVSPost2010PropOp28
 70
     1
102
RTVSPost2010Prop29
280
     1
102
RTVSPost2010PropOp29
 70
     1
102
RTVSPost2010Prop30
280
     1
102
RTVSPost2010PropOp30
 70
     1
102
RTVSPost2010Prop31
280
     0
102
RTVSPost2010PropOp31
 70
     1
102
RTVSPost2010Prop32
280
     0
102
RTVSPost2010PropOp32
 70
     1
102
RTVSPost2010Prop33
280
     0
102
RTVSPost2010PropOp33
 70
     1
102
RTVSPost2010Prop34
280
     0
102
RTVSPost2010PropOp34
 70
     1
102
RTVSPost2010Prop35
280
     0
102
RTVSPost2010PropOp35
 70
     1
102
RTVSPost2010Prop36
280
     0
102
RTVSPost2010PropOp36
 70
     1
102
RTVSPost2010Prop37
 90
       50
102
RTVSPost2010PropOp37
 70
     1
102
RTVSPost2010Prop38
140
0.0
102
RTVSPost2010PropOp38
 70
     1
102
RTVSPost2010Prop39
140
1.0
102
RTVSPost2010PropOp39
 70
     1
102
RTVSPost2010Prop40
 90
        0
102
RTVSPost2010PropOp40
 70
     1
102
RTVSPost2010Prop41ColorIndex
 90
       18
102
RTVSPost2010Prop41ColorRGB
 90
        0
102
RTVSPost2010PropOp41
 70
     1
102
RTVSPost2010Prop42
 90
       50
102
RTVSPost2010PropOp42
 70
     1
102
RTVSPost2010Prop43
 90
        3
102
RTVSPost2010PropOp43
 70
     1
102
RTVSPost2010Prop44ColorIndex
 90
        5
102
RTVSPost2010Prop44ColorRGB
 90
      255
102
RTVSPost2010PropOp44
 70
     1
102
RTVSPost2010Prop45
280
     0
102
RTVSPost2010PropOp45
 70
     1
102
RTVSPost2010Prop46
 90
       50
102
RTVSPost2010PropOp46
 70
     1
102
RTVSPost2010Prop47
 90
       50
102
RTVSPost2010PropOp47
 70
     1
102
RTVSPost2010Prop48
 90
       50
102
RTVSPost2010PropOp48
 70
     1
102
RTVSPost2010Prop49
280
     0
102
RTVSPost2010PropOp49
 70
     1
102
RTVSPost2010Prop50
 90
       50
102
RTVSPost2010PropOp50
 70
     1
102
RTVSPost2010Prop51ColorIndex
 90
      256
102
RTVSPost2010Prop51ColorRGB
 90
-16777216
102
RTVSPost2010PropOp51
 70
     0
102
RTVSPost2010Prop52
140
1.0
102
RTVSPost2010PropOp52
 70
     0
102
RTVSPost2010Prop53
 90
        2
102
RTVSPost2010PropOp53
 70
     1
102
RTVSPost2010Prop54
  1
strokes_ogs.tif
102
RTVSPost2010PropOp54
 70
     1
102
RTVSPost2010Prop55
280
     0
102
RTVSPost2010PropOp55
 70
     1
102
RTVSPost2010Prop56
140
1.0
102
RTVSPost2010PropOp56
 70
     1
102
RTVSPost2010Prop57
140
1.0
102
RTVSPost2010PropOp57
 70
     1
102
RTVSPropertyOp0
 70
     1
102
RTVSPropertyOp1
 70
     1
102
RTVSPropertyOp2
 70
     1
102
RTVSPropertyOp3
 70
     1
102
RTVSPropertyOp4
 70
     1
102
RTVSPropertyOp5
 70
     1
102
RTVSPropertyOp6
 70
     1
102
RTVSPropertyOp7
 70
     1
102
RTVSPropertyOp8
 70
     1
102
RTVSPropertyOp9
 70
     1
102
RTVSPropertyOp10
 70
     1
102
RTVSPropertyOp11
 70
     1
102
RTVSPropertyOp12
 70
     1
102
RTVSPropertyOp13
 70
     1
102
RTVSPropertyOp14
 70
     1
102
RTVSPropertyOp15
 70
     1
102
RTVSPropertyOp16
 70
     1
102
RTVSPropertyOp17
 70
     1
102
RTVSPropertyOp18
 70
     1
102
RTVSPropertyOp19
 70
     1
102
RTVSPropertyOp20
 70
     1
102
RTVSPropertyOp21
 70
     1
102
RTVSPropertyOp22
 70
     1
102
RTVSPropertyOp23
 70
     1
102
RTVSPropertyOp24
 70
     1
102
RTVSPropertyOp25
 70
     1
102
RTVSPropertyOp26
 70
     1
102
RTVSPropertyOp27
 70
     1
102
RTVSPropertyOp28
 70
     1
102
RTVSPropertyOp29
 70
     1
102
RTVSPropertyOp30
 70
     1
102
RTVSPropertyOp31
 70
     1
102
RTVSPropertyOp32
 70
     1
102
RTVSPropertyOp33
 70
     1
102
RTVSPropertyOp34
 70
     1
102
RTVSPropertyOp35
 70
     1
102
RTVSPropertyOp36
 70
     1
102
RTVSPropertyOp37
 70
     1
102
RTVSPropertyOp38
 70
     1
102
RTVSPropertyOp39
 70
     1
102
RTVSPropertyOp40
 70
     1
102
RTVSPropertyOp41
 70
     1
102
RTVSPropertyOp42
 70
     1
102
RTVSPropertyOp43
 70
     1
102
RTVSPropertyOp44
 70
     1
102
RTVSPropertyOp45
 70
     1
102
RTVSPropertyOp46
 70
     1
102
RTVSPropertyOp47
 70
     1
102
RTVSPropertyOp48
 70
     1
102
RTVSPropertyOp49
 70
     1
102
RTVSPropertyOp50
 70
     1
102
RTVSPropertyOp51
 70
     0
102
RTVSPropertyOp52
 70
     0
102
RTVSPropertyOp53
 70
     1
102
RTVSPropertyOp54
 70
     1
102
RTVSPropertyOp55
 70
     1
102
RTVSPropertyOp56
 70
     1
102
RTVSPropertyOp57
 70
     1
102
RTVSPropertyOp58
 70
     1
102
RTVSPropertyOp59
 70
     1
102
RTVSPropertyOp60
 70
     1
102
RTVSPropertyOp61
 70
     1
102
RTVSPropertyOp62
 70
     1
  0
XRECORD
  5
30BF3
102
{ACAD_REACTORS
330
30BF2
102
}
330
30BF2
100
AcDbXrecord
280
     1
102
RTVSPost2010Prop28
280
     0
102
RTVSPost2010PropOp28
 70
     1
102
RTVSPost2010Prop29
280
     1
102
RTVSPost2010PropOp29
 70
     1
102
RTVSPost2010Prop30
280
     1
102
RTVSPost2010PropOp30
 70
     1
102
RTVSPost2010Prop31
280
     0
102
RTVSPost2010PropOp31
 70
     1
102
RTVSPost2010Prop32
280
     0
102
RTVSPost2010PropOp32
 70
     1
102
RTVSPost2010Prop33
280
     0
102
RTVSPost2010PropOp33
 70
     1
102
RTVSPost2010Prop34
280
     0
102
RTVSPost2010PropOp34
 70
     1
102
RTVSPost2010Prop35
280
     0
102
RTVSPost2010PropOp35
 70
     1
102
RTVSPost2010Prop36
280
     0
102
RTVSPost2010PropOp36
 70
     1
102
RTVSPost2010Prop37
 90
       50
102
RTVSPost2010PropOp37
 70
     1
102
RTVSPost2010Prop38
140
0.0
102
RTVSPost2010PropOp38
 70
     1
102
RTVSPost2010Prop39
140
1.0
102
RTVSPost2010PropOp39
 70
     1
102
RTVSPost2010Prop40
 90
        0
102
RTVSPost2010PropOp40
 70
     1
102
RTVSPost2010Prop41ColorIndex
 90
       18
102
RTVSPost2010Prop41ColorRGB
 90
        0
102
RTVSPost2010PropOp41
 70
     1
102
RTVSPost2010Prop42
 90
       50
102
RTVSPost2010PropOp42
 70
     1
102
RTVSPost2010Prop43
 90
        3
102
RTVSPost2010PropOp43
 70
     1
102
RTVSPost2010Prop44ColorIndex
 90
        5
102
RTVSPost2010Prop44ColorRGB
 90
      255
102
RTVSPost2010PropOp44
 70
     1
102
RTVSPost2010Prop45
280
     0
102
RTVSPost2010PropOp45
 70
     1
102
RTVSPost2010Prop46
 90
       50
102
RTVSPost2010PropOp46
 70
     1
102
RTVSPost2010Prop47
 90
       50
102
RTVSPost2010PropOp47
 70
     1
102
RTVSPost2010Prop48
 90
       50
102
RTVSPost2010PropOp48
 70
     1
102
RTVSPost2010Prop49
280
     0
102
RTVSPost2010PropOp49
 70
     1
102
RTVSPost2010Prop50
 90
       50
102
RTVSPost2010PropOp50
 70
     1
102
RTVSPost2010Prop51ColorIndex
 90
      256
102
RTVSPost2010Prop51ColorRGB
 90
-16777216
102
RTVSPost2010PropOp51
 70
     0
102
RTVSPost2010Prop52
140
1.0
102
RTVSPost2010PropOp52
 70
     0
102
RTVSPost2010Prop53
 90
        2
102
RTVSPost2010PropOp53
 70
     1
102
RTVSPost2010Prop54
  1
strokes_ogs.tif
102
RTVSPost2010PropOp54
 70
     1
102
RTVSPost2010Prop55
280
     0
102
RTVSPost2010PropOp55
 70
     1
102
RTVSPost2010Prop56
140
1.0
102
RTVSPost2010PropOp56
 70
     1
102
RTVSPost2010Prop57
140
1.0
102
RTVSPost2010PropOp57
 70
     1
102
RTVSPropertyOp0
 70
     1
102
RTVSPropertyOp1
 70
     1
102
RTVSPropertyOp2
 70
     1
102
RTVSPropertyOp3
 70
     1
102
RTVSPropertyOp4
 70
     1
102
RTVSPropertyOp5
 70
     1
102
RTVSPropertyOp6
 70
     1
102
RTVSPropertyOp7
 70
     1
102
RTVSPropertyOp8
 70
     1
102
RTVSPropertyOp9
 70
     1
102
RTVSPropertyOp10
 70
     1
102
RTVSPropertyOp11
 70
     1
102
RTVSPropertyOp12
 70
     1
102
RTVSPropertyOp13
 70
     1
102
RTVSPropertyOp14
 70
     1
102
RTVSPropertyOp15
 70
     1
102
RTVSPropertyOp16
 70
     1
102
RTVSPropertyOp17
 70
     1
102
RTVSPropertyOp18
 70
     1
102
RTVSPropertyOp19
 70
     1
102
RTVSPropertyOp20
 70
     1
102
RTVSPropertyOp21
 70
     1
102
RTVSPropertyOp22
 70
     1
102
RTVSPropertyOp23
 70
     1
102
RTVSPropertyOp24
 70
     1
102
RTVSPropertyOp25
 70
     1
102
RTVSPropertyOp26
 70
     1
102
RTVSPropertyOp27
 70
     1
102
RTVSPropertyOp28
 70
     1
102
RTVSPropertyOp29
 70
     1
102
RTVSPropertyOp30
 70
     1
102
RTVSPropertyOp31
 70
     1
102
RTVSPropertyOp32
 70
     1
102
RTVSPropertyOp33
 70
     1
102
RTVSPropertyOp34
 70
     1
102
RTVSPropertyOp35
 70
     1
102
RTVSPropertyOp36
 70
     1
102
RTVSPropertyOp37
 70
     1
102
RTVSPropertyOp38
 70
     1
102
RTVSPropertyOp39
 70
     1
102
RTVSPropertyOp40
 70
     1
102
RTVSPropertyOp41
 70
     1
102
RTVSPropertyOp42
 70
     1
102
RTVSPropertyOp43
 70
     1
102
RTVSPropertyOp44
 70
     1
102
RTVSPropertyOp45
 70
     1
102
RTVSPropertyOp46
 70
     1
102
RTVSPropertyOp47
 70
     1
102
RTVSPropertyOp48
 70
     1
102
RTVSPropertyOp49
 70
     1
102
RTVSPropertyOp50
 70
     1
102
RTVSPropertyOp51
 70
     0
102
RTVSPropertyOp52
 70
     0
102
RTVSPropertyOp53
 70
     1
102
RTVSPropertyOp54
 70
     1
102
RTVSPropertyOp55
 70
     1
102
RTVSPropertyOp56
 70
     1
102
RTVSPropertyOp57
 70
     1
102
RTVSPropertyOp58
 70
     1
102
RTVSPropertyOp59
 70
     1
102
RTVSPropertyOp60
 70
     1
102
RTVSPropertyOp61
 70
     1
102
RTVSPropertyOp62
 70
     1
  0
XRECORD
  5
30BF5
102
{ACAD_REACTORS
330
30BF4
102
}
330
30BF4
100
AcDbXrecord
280
     1
102
RTVSPost2010Prop28
280
     0
102
RTVSPost2010PropOp28
 70
     1
102
RTVSPost2010Prop29
280
     1
102
RTVSPost2010PropOp29
 70
     1
102
RTVSPost2010Prop30
280
     1
102
RTVSPost2010PropOp30
 70
     1
102
RTVSPost2010Prop31
280
     0
102
RTVSPost2010PropOp31
 70
     1
102
RTVSPost2010Prop32
280
     0
102
RTVSPost2010PropOp32
 70
     1
102
RTVSPost2010Prop33
280
     0
102
RTVSPost2010PropOp33
 70
     1
102
RTVSPost2010Prop34
280
     0
102
RTVSPost2010PropOp34
 70
     1
102
RTVSPost2010Prop35
280
     0
102
RTVSPost2010PropOp35
 70
     1
102
RTVSPost2010Prop36
280
     0
102
RTVSPost2010PropOp36
 70
     1
102
RTVSPost2010Prop37
 90
       50
102
RTVSPost2010PropOp37
 70
     1
102
RTVSPost2010Prop38
140
0.0
102
RTVSPost2010PropOp38
 70
     1
102
RTVSPost2010Prop39
140
1.0
102
RTVSPost2010PropOp39
 70
     1
102
RTVSPost2010Prop40
 90
        0
102
RTVSPost2010PropOp40
 70
     1
102
RTVSPost2010Prop41ColorIndex
 90
       18
102
RTVSPost2010Prop41ColorRGB
 90
        0
102
RTVSPost2010PropOp41
 70
     1
102
RTVSPost2010Prop42
 90
       50
102
RTVSPost2010PropOp42
 70
     1
102
RTVSPost2010Prop43
 90
        3
102
RTVSPost2010PropOp43
 70
     1
102
RTVSPost2010Prop44ColorIndex
 90
        5
102
RTVSPost2010Prop44ColorRGB
 90
      255
102
RTVSPost2010PropOp44
 70
     1
102
RTVSPost2010Prop45
280
     0
102
RTVSPost2010PropOp45
 70
     1
102
RTVSPost2010Prop46
 90
       50
102
RTVSPost2010PropOp46
 70
     1
102
RTVSPost2010Prop47
 90
       50
102
RTVSPost2010PropOp47
 70
     1
102
RTVSPost2010Prop48
 90
       50
102
RTVSPost2010PropOp48
 70
     1
102
RTVSPost2010Prop49
280
     0
102
RTVSPost2010PropOp49
 70
     1
102
RTVSPost2010Prop50
 90
       50
102
RTVSPost2010PropOp50
 70
     1
102
RTVSPost2010Prop51ColorIndex
 90
      256
102
RTVSPost2010Prop51ColorRGB
 90
-16777216
102
RTVSPost2010PropOp51
 70
     0
102
RTVSPost2010Prop52
140
1.0
102
RTVSPost2010PropOp52
 70
     0
102
RTVSPost2010Prop53
 90
        2
102
RTVSPost2010PropOp53
 70
     1
102
RTVSPost2010Prop54
  1
strokes_ogs.tif
102
RTVSPost2010PropOp54
 70
     1
102
RTVSPost2010Prop55
280
     0
102
RTVSPost2010PropOp55
 70
     1
102
RTVSPost2010Prop56
140
1.0
102
RTVSPost2010PropOp56
 70
     1
102
RTVSPost2010Prop57
140
1.0
102
RTVSPost2010PropOp57
 70
     1
102
RTVSPropertyOp0
 70
     1
102
RTVSPropertyOp1
 70
     1
102
RTVSPropertyOp2
 70
     1
102
RTVSPropertyOp3
 70
     1
102
RTVSPropertyOp4
 70
     1
102
RTVSPropertyOp5
 70
     1
102
RTVSPropertyOp6
 70
     1
102
RTVSPropertyOp7
 70
     1
102
RTVSPropertyOp8
 70
     1
102
RTVSPropertyOp9
 70
     1
102
RTVSPropertyOp10
 70
     1
102
RTVSPropertyOp11
 70
     1
102
RTVSPropertyOp12
 70
     1
102
RTVSPropertyOp13
 70
     1
102
RTVSPropertyOp14
 70
     1
102
RTVSPropertyOp15
 70
     1
102
RTVSPropertyOp16
 70
     1
102
RTVSPropertyOp17
 70
     1
102
RTVSPropertyOp18
 70
     1
102
RTVSPropertyOp19
 70
     1
102
RTVSPropertyOp20
 70
     1
102
RTVSPropertyOp21
 70
     1
102
RTVSPropertyOp22
 70
     1
102
RTVSPropertyOp23
 70
     1
102
RTVSPropertyOp24
 70
     1
102
RTVSPropertyOp25
 70
     1
102
RTVSPropertyOp26
 70
     1
102
RTVSPropertyOp27
 70
     1
102
RTVSPropertyOp28
 70
     1
102
RTVSPropertyOp29
 70
     1
102
RTVSPropertyOp30
 70
     1
102
RTVSPropertyOp31
 70
     1
102
RTVSPropertyOp32
 70
     1
102
RTVSPropertyOp33
 70
     1
102
RTVSPropertyOp34
 70
     1
102
RTVSPropertyOp35
 70
     1
102
RTVSPropertyOp36
 70
     1
102
RTVSPropertyOp37
 70
     1
102
RTVSPropertyOp38
 70
     1
102
RTVSPropertyOp39
 70
     1
102
RTVSPropertyOp40
 70
     1
102
RTVSPropertyOp41
 70
     1
102
RTVSPropertyOp42
 70
     1
102
RTVSPropertyOp43
 70
     1
102
RTVSPropertyOp44
 70
     1
102
RTVSPropertyOp45
 70
     1
102
RTVSPropertyOp46
 70
     1
102
RTVSPropertyOp47
 70
     1
102
RTVSPropertyOp48
 70
     1
102
RTVSPropertyOp49
 70
     1
102
RTVSPropertyOp50
 70
     1
102
RTVSPropertyOp51
 70
     0
102
RTVSPropertyOp52
 70
     0
102
RTVSPropertyOp53
 70
     1
102
RTVSPropertyOp54
 70
     1
102
RTVSPropertyOp55
 70
     1
102
RTVSPropertyOp56
 70
     1
102
RTVSPropertyOp57
 70
     1
102
RTVSPropertyOp58
 70
     1
102
RTVSPropertyOp59
 70
     1
102
RTVSPropertyOp60
 70
     1
102
RTVSPropertyOp61
 70
     1
102
RTVSPropertyOp62
 70
     1
  0
XRECORD
  5
30BF7
102
{ACAD_REACTORS
330
30BF6
102
}
330
30BF6
100
AcDbXrecord
280
     1
102
RTVSPost2010Prop28
280
     0
102
RTVSPost2010PropOp28
 70
     1
102
RTVSPost2010Prop29
280
     1
102
RTVSPost2010PropOp29
 70
     1
102
RTVSPost2010Prop30
280
     1
102
RTVSPost2010PropOp30
 70
     1
102
RTVSPost2010Prop31
280
     0
102
RTVSPost2010PropOp31
 70
     1
102
RTVSPost2010Prop32
280
     0
102
RTVSPost2010PropOp32
 70
     1
102
RTVSPost2010Prop33
280
     0
102
RTVSPost2010PropOp33
 70
     1
102
RTVSPost2010Prop34
280
     0
102
RTVSPost2010PropOp34
 70
     1
102
RTVSPost2010Prop35
280
     0
102
RTVSPost2010PropOp35
 70
     1
102
RTVSPost2010Prop36
280
     0
102
RTVSPost2010PropOp36
 70
     1
102
RTVSPost2010Prop37
 90
       50
102
RTVSPost2010PropOp37
 70
     1
102
RTVSPost2010Prop38
140
0.0
102
RTVSPost2010PropOp38
 70
     1
102
RTVSPost2010Prop39
140
1.0
102
RTVSPost2010PropOp39
 70
     1
102
RTVSPost2010Prop40
 90
        0
102
RTVSPost2010PropOp40
 70
     1
102
RTVSPost2010Prop41ColorIndex
 90
       18
102
RTVSPost2010Prop41ColorRGB
 90
        0
102
RTVSPost2010PropOp41
 70
     1
102
RTVSPost2010Prop42
 90
       50
102
RTVSPost2010PropOp42
 70
     1
102
RTVSPost2010Prop43
 90
        3
102
RTVSPost2010PropOp43
 70
     1
102
RTVSPost2010Prop44ColorIndex
 90
        5
102
RTVSPost2010Prop44ColorRGB
 90
      255
102
RTVSPost2010PropOp44
 70
     1
102
RTVSPost2010Prop45
280
     0
102
RTVSPost2010PropOp45
 70
     1
102
RTVSPost2010Prop46
 90
       50
102
RTVSPost2010PropOp46
 70
     1
102
RTVSPost2010Prop47
 90
       50
102
RTVSPost2010PropOp47
 70
     1
102
RTVSPost2010Prop48
 90
       50
102
RTVSPost2010PropOp48
 70
     1
102
RTVSPost2010Prop49
280
     0
102
RTVSPost2010PropOp49
 70
     1
102
RTVSPost2010Prop50
 90
       50
102
RTVSPost2010PropOp50
 70
     1
102
RTVSPost2010Prop51ColorIndex
 90
      256
102
RTVSPost2010Prop51ColorRGB
 90
-16777216
102
RTVSPost2010PropOp51
 70
     0
102
RTVSPost2010Prop52
140
1.0
102
RTVSPost2010PropOp52
 70
     0
102
RTVSPost2010Prop53
 90
        2
102
RTVSPost2010PropOp53
 70
     1
102
RTVSPost2010Prop54
  1
strokes_ogs.tif
102
RTVSPost2010PropOp54
 70
     1
102
RTVSPost2010Prop55
280
     0
102
RTVSPost2010PropOp55
 70
     1
102
RTVSPost2010Prop56
140
1.0
102
RTVSPost2010PropOp56
 70
     1
102
RTVSPost2010Prop57
140
1.0
102
RTVSPost2010PropOp57
 70
     1
102
RTVSPropertyOp0
 70
     1
102
RTVSPropertyOp1
 70
     1
102
RTVSPropertyOp2
 70
     1
102
RTVSPropertyOp3
 70
     1
102
RTVSPropertyOp4
 70
     1
102
RTVSPropertyOp5
 70
     1
102
RTVSPropertyOp6
 70
     1
102
RTVSPropertyOp7
 70
     1
102
RTVSPropertyOp8
 70
     1
102
RTVSPropertyOp9
 70
     1
102
RTVSPropertyOp10
 70
     1
102
RTVSPropertyOp11
 70
     1
102
RTVSPropertyOp12
 70
     1
102
RTVSPropertyOp13
 70
     1
102
RTVSPropertyOp14
 70
     1
102
RTVSPropertyOp15
 70
     1
102
RTVSPropertyOp16
 70
     1
102
RTVSPropertyOp17
 70
     1
102
RTVSPropertyOp18
 70
     1
102
RTVSPropertyOp19
 70
     1
102
RTVSPropertyOp20
 70
     1
102
RTVSPropertyOp21
 70
     1
102
RTVSPropertyOp22
 70
     1
102
RTVSPropertyOp23
 70
     1
102
RTVSPropertyOp24
 70
     1
102
RTVSPropertyOp25
 70
     1
102
RTVSPropertyOp26
 70
     1
102
RTVSPropertyOp27
 70
     1
102
RTVSPropertyOp28
 70
     1
102
RTVSPropertyOp29
 70
     1
102
RTVSPropertyOp30
 70
     1
102
RTVSPropertyOp31
 70
     1
102
RTVSPropertyOp32
 70
     1
102
RTVSPropertyOp33
 70
     1
102
RTVSPropertyOp34
 70
     1
102
RTVSPropertyOp35
 70
     1
102
RTVSPropertyOp36
 70
     1
102
RTVSPropertyOp37
 70
     1
102
RTVSPropertyOp38
 70
     1
102
RTVSPropertyOp39
 70
     1
102
RTVSPropertyOp40
 70
     1
102
RTVSPropertyOp41
 70
     1
102
RTVSPropertyOp42
 70
     1
102
RTVSPropertyOp43
 70
     1
102
RTVSPropertyOp44
 70
     1
102
RTVSPropertyOp45
 70
     1
102
RTVSPropertyOp46
 70
     1
102
RTVSPropertyOp47
 70
     1
102
RTVSPropertyOp48
 70
     1
102
RTVSPropertyOp49
 70
     1
102
RTVSPropertyOp50
 70
     1
102
RTVSPropertyOp51
 70
     0
102
RTVSPropertyOp52
 70
     0
102
RTVSPropertyOp53
 70
     1
102
RTVSPropertyOp54
 70
     1
102
RTVSPropertyOp55
 70
     1
102
RTVSPropertyOp56
 70
     1
102
RTVSPropertyOp57
 70
     1
102
RTVSPropertyOp58
 70
     1
102
RTVSPropertyOp59
 70
     1
102
RTVSPropertyOp60
 70
     1
102
RTVSPropertyOp61
 70
     1
102
RTVSPropertyOp62
 70
     1
  0
XRECORD
  5
30BF9
102
{ACAD_REACTORS
330
30BF8
102
}
330
30BF8
100
AcDbXrecord
280
     1
102
RTVSPost2010Prop28
280
     0
102
RTVSPost2010PropOp28
 70
     1
102
RTVSPost2010Prop29
280
     1
102
RTVSPost2010PropOp29
 70
     1
102
RTVSPost2010Prop30
280
     1
102
RTVSPost2010PropOp30
 70
     1
102
RTVSPost2010Prop31
280
     0
102
RTVSPost2010PropOp31
 70
     1
102
RTVSPost2010Prop32
280
     0
102
RTVSPost2010PropOp32
 70
     1
102
RTVSPost2010Prop33
280
     0
102
RTVSPost2010PropOp33
 70
     1
102
RTVSPost2010Prop34
280
     0
102
RTVSPost2010PropOp34
 70
     1
102
RTVSPost2010Prop35
280
     0
102
RTVSPost2010PropOp35
 70
     1
102
RTVSPost2010Prop36
280
     0
102
RTVSPost2010PropOp36
 70
     1
102
RTVSPost2010Prop37
 90
       50
102
RTVSPost2010PropOp37
 70
     1
102
RTVSPost2010Prop38
140
0.0
102
RTVSPost2010PropOp38
 70
     1
102
RTVSPost2010Prop39
140
1.0
102
RTVSPost2010PropOp39
 70
     1
102
RTVSPost2010Prop40
 90
        0
102
RTVSPost2010PropOp40
 70
     1
102
RTVSPost2010Prop41ColorIndex
 90
       18
102
RTVSPost2010Prop41ColorRGB
 90
        0
102
RTVSPost2010PropOp41
 70
     1
102
RTVSPost2010Prop42
 90
       50
102
RTVSPost2010PropOp42
 70
     1
102
RTVSPost2010Prop43
 90
        3
102
RTVSPost2010PropOp43
 70
     1
102
RTVSPost2010Prop44ColorIndex
 90
        5
102
RTVSPost2010Prop44ColorRGB
 90
      255
102
RTVSPost2010PropOp44
 70
     1
102
RTVSPost2010Prop45
280
     0
102
RTVSPost2010PropOp45
 70
     1
102
RTVSPost2010Prop46
 90
       50
102
RTVSPost2010PropOp46
 70
     1
102
RTVSPost2010Prop47
 90
       50
102
RTVSPost2010PropOp47
 70
     1
102
RTVSPost2010Prop48
 90
       50
102
RTVSPost2010PropOp48
 70
     1
102
RTVSPost2010Prop49
280
     0
102
RTVSPost2010PropOp49
 70
     1
102
RTVSPost2010Prop50
 90
       50
102
RTVSPost2010PropOp50
 70
     1
102
RTVSPost2010Prop51ColorIndex
 90
      256
102
RTVSPost2010Prop51ColorRGB
 90
-16777216
102
RTVSPost2010PropOp51
 70
     0
102
RTVSPost2010Prop52
140
1.0
102
RTVSPost2010PropOp52
 70
     0
102
RTVSPost2010Prop53
 90
        2
102
RTVSPost2010PropOp53
 70
     1
102
RTVSPost2010Prop54
  1
strokes_ogs.tif
102
RTVSPost2010PropOp54
 70
     1
102
RTVSPost2010Prop55
280
     0
102
RTVSPost2010PropOp55
 70
     1
102
RTVSPost2010Prop56
140
1.0
102
RTVSPost2010PropOp56
 70
     1
102
RTVSPost2010Prop57
140
1.0
102
RTVSPost2010PropOp57
 70
     1
102
RTVSPropertyOp0
 70
     1
102
RTVSPropertyOp1
 70
     1
102
RTVSPropertyOp2
 70
     1
102
RTVSPropertyOp3
 70
     1
102
RTVSPropertyOp4
 70
     1
102
RTVSPropertyOp5
 70
     1
102
RTVSPropertyOp6
 70
     1
102
RTVSPropertyOp7
 70
     1
102
RTVSPropertyOp8
 70
     1
102
RTVSPropertyOp9
 70
     1
102
RTVSPropertyOp10
 70
     1
102
RTVSPropertyOp11
 70
     1
102
RTVSPropertyOp12
 70
     1
102
RTVSPropertyOp13
 70
     1
102
RTVSPropertyOp14
 70
     1
102
RTVSPropertyOp15
 70
     1
102
RTVSPropertyOp16
 70
     1
102
RTVSPropertyOp17
 70
     1
102
RTVSPropertyOp18
 70
     1
102
RTVSPropertyOp19
 70
     1
102
RTVSPropertyOp20
 70
     1
102
RTVSPropertyOp21
 70
     1
102
RTVSPropertyOp22
 70
     1
102
RTVSPropertyOp23
 70
     1
102
RTVSPropertyOp24
 70
     1
102
RTVSPropertyOp25
 70
     1
102
RTVSPropertyOp26
 70
     1
102
RTVSPropertyOp27
 70
     1
102
RTVSPropertyOp28
 70
     1
102
RTVSPropertyOp29
 70
     1
102
RTVSPropertyOp30
 70
     1
102
RTVSPropertyOp31
 70
     1
102
RTVSPropertyOp32
 70
     1
102
RTVSPropertyOp33
 70
     1
102
RTVSPropertyOp34
 70
     1
102
RTVSPropertyOp35
 70
     1
102
RTVSPropertyOp36
 70
     1
102
RTVSPropertyOp37
 70
     1
102
RTVSPropertyOp38
 70
     1
102
RTVSPropertyOp39
 70
     1
102
RTVSPropertyOp40
 70
     1
102
RTVSPropertyOp41
 70
     1
102
RTVSPropertyOp42
 70
     1
102
RTVSPropertyOp43
 70
     1
102
RTVSPropertyOp44
 70
     1
102
RTVSPropertyOp45
 70
     1
102
RTVSPropertyOp46
 70
     1
102
RTVSPropertyOp47
 70
     1
102
RTVSPropertyOp48
 70
     1
102
RTVSPropertyOp49
 70
     1
102
RTVSPropertyOp50
 70
     1
102
RTVSPropertyOp51
 70
     0
102
RTVSPropertyOp52
 70
     0
102
RTVSPropertyOp53
 70
     1
102
RTVSPropertyOp54
 70
     1
102
RTVSPropertyOp55
 70
     1
102
RTVSPropertyOp56
 70
     1
102
RTVSPropertyOp57
 70
     1
102
RTVSPropertyOp58
 70
     1
102
RTVSPropertyOp59
 70
     1
102
RTVSPropertyOp60
 70
     1
102
RTVSPropertyOp61
 70
     1
102
RTVSPropertyOp62
 70
     1
  0
XRECORD
  5
30C01
102
{ACAD_REACTORS
330
30C00
102
}
330
30C00
100
AcDbXrecord
280
     1
102
RTVSPost2010Prop28
280
     0
102
RTVSPost2010PropOp28
 70
     1
102
RTVSPost2010Prop29
280
     1
102
RTVSPost2010PropOp29
 70
     1
102
RTVSPost2010Prop30
280
     1
102
RTVSPost2010PropOp30
 70
     1
102
RTVSPost2010Prop31
280
     0
102
RTVSPost2010PropOp31
 70
     1
102
RTVSPost2010Prop32
280
     0
102
RTVSPost2010PropOp32
 70
     1
102
RTVSPost2010Prop33
280
     0
102
RTVSPost2010PropOp33
 70
     1
102
RTVSPost2010Prop34
280
     0
102
RTVSPost2010PropOp34
 70
     1
102
RTVSPost2010Prop35
280
     0
102
RTVSPost2010PropOp35
 70
     1
102
RTVSPost2010Prop36
280
     0
102
RTVSPost2010PropOp36
 70
     1
102
RTVSPost2010Prop37
 90
       50
102
RTVSPost2010PropOp37
 70
     1
102
RTVSPost2010Prop38
140
0.0
102
RTVSPost2010PropOp38
 70
     1
102
RTVSPost2010Prop39
140
1.0
102
RTVSPost2010PropOp39
 70
     1
102
RTVSPost2010Prop40
 90
        0
102
RTVSPost2010PropOp40
 70
     1
102
RTVSPost2010Prop41ColorIndex
 90
       18
102
RTVSPost2010Prop41ColorRGB
 90
        0
102
RTVSPost2010PropOp41
 70
     1
102
RTVSPost2010Prop42
 90
       50
102
RTVSPost2010PropOp42
 70
     1
102
RTVSPost2010Prop43
 90
        3
102
RTVSPost2010PropOp43
 70
     1
102
RTVSPost2010Prop44ColorIndex
 90
        5
102
RTVSPost2010Prop44ColorRGB
 90
      255
102
RTVSPost2010PropOp44
 70
     1
102
RTVSPost2010Prop45
280
     0
102
RTVSPost2010PropOp45
 70
     1
102
RTVSPost2010Prop46
 90
       50
102
RTVSPost2010PropOp46
 70
     1
102
RTVSPost2010Prop47
 90
       50
102
RTVSPost2010PropOp47
 70
     1
102
RTVSPost2010Prop48
 90
       50
102
RTVSPost2010PropOp48
 70
     1
102
RTVSPost2010Prop49
280
     0
102
RTVSPost2010PropOp49
 70
     1
102
RTVSPost2010Prop50
 90
       50
102
RTVSPost2010PropOp50
 70
     1
102
RTVSPost2010Prop51ColorIndex
 90
      256
102
RTVSPost2010Prop51ColorRGB
 90
-16777216
102
RTVSPost2010PropOp51
 70
     0
102
RTVSPost2010Prop52
140
1.0
102
RTVSPost2010PropOp52
 70
     0
102
RTVSPost2010Prop53
 90
        2
102
RTVSPost2010PropOp53
 70
     1
102
RTVSPost2010Prop54
  1
strokes_ogs.tif
102
RTVSPost2010PropOp54
 70
     1
102
RTVSPost2010Prop55
280
     0
102
RTVSPost2010PropOp55
 70
     1
102
RTVSPost2010Prop56
140
1.0
102
RTVSPost2010PropOp56
 70
     1
102
RTVSPost2010Prop57
140
1.0
102
RTVSPost2010PropOp57
 70
     1
102
RTVSPropertyOp0
 70
     1
102
RTVSPropertyOp1
 70
     1
102
RTVSPropertyOp2
 70
     1
102
RTVSPropertyOp3
 70
     1
102
RTVSPropertyOp4
 70
     1
102
RTVSPropertyOp5
 70
     1
102
RTVSPropertyOp6
 70
     1
102
RTVSPropertyOp7
 70
     1
102
RTVSPropertyOp8
 70
     1
102
RTVSPropertyOp9
 70
     1
102
RTVSPropertyOp10
 70
     1
102
RTVSPropertyOp11
 70
     1
102
RTVSPropertyOp12
 70
     1
102
RTVSPropertyOp13
 70
     1
102
RTVSPropertyOp14
 70
     1
102
RTVSPropertyOp15
 70
     1
102
RTVSPropertyOp16
 70
     1
102
RTVSPropertyOp17
 70
     1
102
RTVSPropertyOp18
 70
     1
102
RTVSPropertyOp19
 70
     1
102
RTVSPropertyOp20
 70
     1
102
RTVSPropertyOp21
 70
     1
102
RTVSPropertyOp22
 70
     1
102
RTVSPropertyOp23
 70
     1
102
RTVSPropertyOp24
 70
     1
102
RTVSPropertyOp25
 70
     1
102
RTVSPropertyOp26
 70
     1
102
RTVSPropertyOp27
 70
     1
102
RTVSPropertyOp28
 70
     1
102
RTVSPropertyOp29
 70
     1
102
RTVSPropertyOp30
 70
     1
102
RTVSPropertyOp31
 70
     1
102
RTVSPropertyOp32
 70
     1
102
RTVSPropertyOp33
 70
     1
102
RTVSPropertyOp34
 70
     1
102
RTVSPropertyOp35
 70
     1
102
RTVSPropertyOp36
 70
     1
102
RTVSPropertyOp37
 70
     1
102
RTVSPropertyOp38
 70
     1
102
RTVSPropertyOp39
 70
     1
102
RTVSPropertyOp40
 70
     1
102
RTVSPropertyOp41
 70
     1
102
RTVSPropertyOp42
 70
     1
102
RTVSPropertyOp43
 70
     1
102
RTVSPropertyOp44
 70
     1
102
RTVSPropertyOp45
 70
     1
102
RTVSPropertyOp46
 70
     1
102
RTVSPropertyOp47
 70
     1
102
RTVSPropertyOp48
 70
     1
102
RTVSPropertyOp49
 70
     1
102
RTVSPropertyOp50
 70
     1
102
RTVSPropertyOp51
 70
     0
102
RTVSPropertyOp52
 70
     0
102
RTVSPropertyOp53
 70
     1
102
RTVSPropertyOp54
 70
     1
102
RTVSPropertyOp55
 70
     1
102
RTVSPropertyOp56
 70
     1
102
RTVSPropertyOp57
 70
     1
102
RTVSPropertyOp58
 70
     1
102
RTVSPropertyOp59
 70
     1
102
RTVSPropertyOp60
 70
     1
102
RTVSPropertyOp61
 70
     1
102
RTVSPropertyOp62
 70
     1
  0
XRECORD
  5
30C1D
102
{ACAD_REACTORS
330
30C1C
102
}
330
30C1C
100
AcDbXrecord
280
     1
102
RTVSPost2010Prop28
280
     0
102
RTVSPost2010PropOp28
 70
     0
102
RTVSPost2010Prop29
280
     1
102
RTVSPost2010PropOp29
 70
     0
102
RTVSPost2010Prop30
280
     1
102
RTVSPost2010PropOp30
 70
     0
102
RTVSPost2010Prop31
280
     0
102
RTVSPost2010PropOp31
 70
     0
102
RTVSPost2010Prop32
280
     0
102
RTVSPost2010PropOp32
 70
     0
102
RTVSPost2010Prop33
280
     0
102
RTVSPost2010PropOp33
 70
     0
102
RTVSPost2010Prop34
280
     0
102
RTVSPost2010PropOp34
 70
     0
102
RTVSPost2010Prop35
280
     0
102
RTVSPost2010PropOp35
 70
     0
102
RTVSPost2010Prop36
280
     0
102
RTVSPost2010PropOp36
 70
     0
102
RTVSPost2010Prop37
 90
       50
102
RTVSPost2010PropOp37
 70
     0
102
RTVSPost2010Prop38
140
0.0
102
RTVSPost2010PropOp38
 70
     0
102
RTVSPost2010Prop39
140
1.0
102
RTVSPost2010PropOp39
 70
     0
102
RTVSPost2010Prop40
 90
        0
102
RTVSPost2010PropOp40
 70
     0
102
RTVSPost2010Prop41ColorIndex
 90
       18
102
RTVSPost2010Prop41ColorRGB
 90
        0
102
RTVSPost2010PropOp41
 70
     0
102
RTVSPost2010Prop42
 90
       50
102
RTVSPost2010PropOp42
 70
     0
102
RTVSPost2010Prop43
 90
        3
102
RTVSPost2010PropOp43
 70
     0
102
RTVSPost2010Prop44ColorIndex
 90
        5
102
RTVSPost2010Prop44ColorRGB
 90
      255
102
RTVSPost2010PropOp44
 70
     0
102
RTVSPost2010Prop45
280
     0
102
RTVSPost2010PropOp45
 70
     0
102
RTVSPost2010Prop46
 90
       50
102
RTVSPost2010PropOp46
 70
     0
102
RTVSPost2010Prop47
 90
       50
102
RTVSPost2010PropOp47
 70
     0
102
RTVSPost2010Prop48
 90
       50
102
RTVSPost2010PropOp48
 70
     0
102
RTVSPost2010Prop49
280
     0
102
RTVSPost2010PropOp49
 70
     0
102
RTVSPost2010Prop50
 90
       50
102
RTVSPost2010PropOp50
 70
     0
102
RTVSPost2010Prop51ColorIndex
 90
      256
102
RTVSPost2010Prop51ColorRGB
 90
-16777216
102
RTVSPost2010PropOp51
 70
     0
102
RTVSPost2010Prop52
140
1.0
102
RTVSPost2010PropOp52
 70
     0
102
RTVSPost2010Prop53
 90
        2
102
RTVSPost2010PropOp53
 70
     0
102
RTVSPost2010Prop54
  1
strokes_ogs.tif
102
RTVSPost2010PropOp54
 70
     0
102
RTVSPost2010Prop55
280
     0
102
RTVSPost2010PropOp55
 70
     0
102
RTVSPost2010Prop56
140
1.0
102
RTVSPost2010PropOp56
 70
     0
102
RTVSPost2010Prop57
140
1.0
102
RTVSPost2010PropOp57
 70
     0
102
RTVSPropertyOp0
 70
     0
102
RTVSPropertyOp1
 70
     0
102
RTVSPropertyOp2
 70
     0
102
RTVSPropertyOp3
 70
     0
102
RTVSPropertyOp4
 70
     0
102
RTVSPropertyOp5
 70
     0
102
RTVSPropertyOp6
 70
     0
102
RTVSPropertyOp7
 70
     0
102
RTVSPropertyOp8
 70
     0
102
RTVSPropertyOp9
 70
     0
102
RTVSPropertyOp10
 70
     0
102
RTVSPropertyOp11
 70
     0
102
RTVSPropertyOp12
 70
     0
102
RTVSPropertyOp13
 70
     0
102
RTVSPropertyOp14
 70
     2
102
RTVSPropertyOp15
 70
     0
102
RTVSPropertyOp16
 70
     0
102
RTVSPropertyOp17
 70
     0
102
RTVSPropertyOp18
 70
     0
102
RTVSPropertyOp19
 70
     0
102
RTVSPropertyOp20
 70
     0
102
RTVSPropertyOp21
 70
     0
102
RTVSPropertyOp22
 70
     0
102
RTVSPropertyOp23
 70
     0
102
RTVSPropertyOp24
 70
     0
102
RTVSPropertyOp25
 70
     0
102
RTVSPropertyOp26
 70
     0
102
RTVSPropertyOp27
 70
     0
102
RTVSPropertyOp28
 70
     0
102
RTVSPropertyOp29
 70
     0
102
RTVSPropertyOp30
 70
     0
102
RTVSPropertyOp31
 70
     0
102
RTVSPropertyOp32
 70
     0
102
RTVSPropertyOp33
 70
     0
102
RTVSPropertyOp34
 70
     0
102
RTVSPropertyOp35
 70
     0
102
RTVSPropertyOp36
 70
     0
102
RTVSPropertyOp37
 70
     0
102
RTVSPropertyOp38
 70
     0
102
RTVSPropertyOp39
 70
     0
102
RTVSPropertyOp40
 70
     0
102
RTVSPropertyOp41
 70
     0
102
RTVSPropertyOp42
 70
     0
102
RTVSPropertyOp43
 70
     0
102
RTVSPropertyOp44
 70
     0
102
RTVSPropertyOp45
 70
     0
102
RTVSPropertyOp46
 70
     0
102
RTVSPropertyOp47
 70
     0
102
RTVSPropertyOp48
 70
     0
102
RTVSPropertyOp49
 70
     0
102
RTVSPropertyOp50
 70
     0
102
RTVSPropertyOp51
 70
     0
102
RTVSPropertyOp52
 70
     0
102
RTVSPropertyOp53
 70
     0
102
RTVSPropertyOp54
 70
     0
102
RTVSPropertyOp55
 70
     0
102
RTVSPropertyOp56
 70
     0
102
RTVSPropertyOp57
 70
     0
102
RTVSPropertyOp58
 70
     1
102
RTVSPropertyOp59
 70
     1
102
RTVSPropertyOp60
 70
     1
102
RTVSPropertyOp61
 70
     1
102
RTVSPropertyOp62
 70
     1
  0
XRECORD
  5
30C0D
102
{ACAD_REACTORS
330
30C0C
102
}
330
30C0C
100
AcDbXrecord
280
     1
102
RTVSPost2010Prop28
280
     0
102
RTVSPost2010PropOp28
 70
     1
102
RTVSPost2010Prop29
280
     1
102
RTVSPost2010PropOp29
 70
     1
102
RTVSPost2010Prop30
280
     1
102
RTVSPost2010PropOp30
 70
     1
102
RTVSPost2010Prop31
280
     0
102
RTVSPost2010PropOp31
 70
     1
102
RTVSPost2010Prop32
280
     0
102
RTVSPost2010PropOp32
 70
     1
102
RTVSPost2010Prop33
280
     0
102
RTVSPost2010PropOp33
 70
     1
102
RTVSPost2010Prop34
280
     0
102
RTVSPost2010PropOp34
 70
     1
102
RTVSPost2010Prop35
280
     0
102
RTVSPost2010PropOp35
 70
     1
102
RTVSPost2010Prop36
280
     0
102
RTVSPost2010PropOp36
 70
     1
102
RTVSPost2010Prop37
 90
       50
102
RTVSPost2010PropOp37
 70
     1
102
RTVSPost2010Prop38
140
0.0
102
RTVSPost2010PropOp38
 70
     1
102
RTVSPost2010Prop39
140
1.0
102
RTVSPost2010PropOp39
 70
     1
102
RTVSPost2010Prop40
 90
        0
102
RTVSPost2010PropOp40
 70
     1
102
RTVSPost2010Prop41ColorIndex
 90
       18
102
RTVSPost2010Prop41ColorRGB
 90
        0
102
RTVSPost2010PropOp41
 70
     1
102
RTVSPost2010Prop42
 90
       50
102
RTVSPost2010PropOp42
 70
     1
102
RTVSPost2010Prop43
 90
        3
102
RTVSPost2010PropOp43
 70
     1
102
RTVSPost2010Prop44ColorIndex
 90
        5
102
RTVSPost2010Prop44ColorRGB
 90
      255
102
RTVSPost2010PropOp44
 70
     1
102
RTVSPost2010Prop45
280
     0
102
RTVSPost2010PropOp45
 70
     1
102
RTVSPost2010Prop46
 90
       50
102
RTVSPost2010PropOp46
 70
     1
102
RTVSPost2010Prop47
 90
       50
102
RTVSPost2010PropOp47
 70
     1
102
RTVSPost2010Prop48
 90
       50
102
RTVSPost2010PropOp48
 70
     1
102
RTVSPost2010Prop49
280
     0
102
RTVSPost2010PropOp49
 70
     1
102
RTVSPost2010Prop50
 90
       50
102
RTVSPost2010PropOp50
 70
     1
102
RTVSPost2010Prop51ColorIndex
 90
      256
102
RTVSPost2010Prop51ColorRGB
 90
-16777216
102
RTVSPost2010PropOp51
 70
     0
102
RTVSPost2010Prop52
140
1.0
102
RTVSPost2010PropOp52
 70
     0
102
RTVSPost2010Prop53
 90
        2
102
RTVSPost2010PropOp53
 70
     1
102
RTVSPost2010Prop54
  1
strokes_ogs.tif
102
RTVSPost2010PropOp54
 70
     1
102
RTVSPost2010Prop55
280
     0
102
RTVSPost2010PropOp55
 70
     1
102
RTVSPost2010Prop56
140
1.0
102
RTVSPost2010PropOp56
 70
     1
102
RTVSPost2010Prop57
140
1.0
102
RTVSPost2010PropOp57
 70
     1
102
RTVSPropertyOp0
 70
     1
102
RTVSPropertyOp1
 70
     1
102
RTVSPropertyOp2
 70
     1
102
RTVSPropertyOp3
 70
     1
102
RTVSPropertyOp4
 70
     1
102
RTVSPropertyOp5
 70
     1
102
RTVSPropertyOp6
 70
     1
102
RTVSPropertyOp7
 70
     1
102
RTVSPropertyOp8
 70
     1
102
RTVSPropertyOp9
 70
     1
102
RTVSPropertyOp10
 70
     1
102
RTVSPropertyOp11
 70
     1
102
RTVSPropertyOp12
 70
     1
102
RTVSPropertyOp13
 70
     1
102
RTVSPropertyOp14
 70
     1
102
RTVSPropertyOp15
 70
     1
102
RTVSPropertyOp16
 70
     1
102
RTVSPropertyOp17
 70
     1
102
RTVSPropertyOp18
 70
     1
102
RTVSPropertyOp19
 70
     1
102
RTVSPropertyOp20
 70
     1
102
RTVSPropertyOp21
 70
     1
102
RTVSPropertyOp22
 70
     1
102
RTVSPropertyOp23
 70
     1
102
RTVSPropertyOp24
 70
     1
102
RTVSPropertyOp25
 70
     1
102
RTVSPropertyOp26
 70
     1
102
RTVSPropertyOp27
 70
     1
102
RTVSPropertyOp28
 70
     1
102
RTVSPropertyOp29
 70
     1
102
RTVSPropertyOp30
 70
     1
102
RTVSPropertyOp31
 70
     1
102
RTVSPropertyOp32
 70
     1
102
RTVSPropertyOp33
 70
     1
102
RTVSPropertyOp34
 70
     1
102
RTVSPropertyOp35
 70
     1
102
RTVSPropertyOp36
 70
     1
102
RTVSPropertyOp37
 70
     1
102
RTVSPropertyOp38
 70
     1
102
RTVSPropertyOp39
 70
     1
102
RTVSPropertyOp40
 70
     1
102
RTVSPropertyOp41
 70
     1
102
RTVSPropertyOp42
 70
     1
102
RTVSPropertyOp43
 70
     1
102
RTVSPropertyOp44
 70
     1
102
RTVSPropertyOp45
 70
     1
102
RTVSPropertyOp46
 70
     1
102
RTVSPropertyOp47
 70
     1
102
RTVSPropertyOp48
 70
     1
102
RTVSPropertyOp49
 70
     1
102
RTVSPropertyOp50
 70
     1
102
RTVSPropertyOp51
 70
     0
102
RTVSPropertyOp52
 70
     0
102
RTVSPropertyOp53
 70
     1
102
RTVSPropertyOp54
 70
     1
102
RTVSPropertyOp55
 70
     1
102
RTVSPropertyOp56
 70
     1
102
RTVSPropertyOp57
 70
     1
102
RTVSPropertyOp58
 70
     1
102
RTVSPropertyOp59
 70
     1
102
RTVSPropertyOp60
 70
     1
102
RTVSPropertyOp61
 70
     1
102
RTVSPropertyOp62
 70
     1
  0
XRECORD
  5
30C1F
102
{ACAD_REACTORS
330
30C1E
102
}
330
30C1E
100
AcDbXrecord
280
     1
102
RTVSPost2010Prop28
280
     0
102
RTVSPost2010PropOp28
 70
     0
102
RTVSPost2010Prop29
280
     1
102
RTVSPost2010PropOp29
 70
     0
102
RTVSPost2010Prop30
280
     1
102
RTVSPost2010PropOp30
 70
     0
102
RTVSPost2010Prop31
280
     0
102
RTVSPost2010PropOp31
 70
     0
102
RTVSPost2010Prop32
280
     0
102
RTVSPost2010PropOp32
 70
     0
102
RTVSPost2010Prop33
280
     0
102
RTVSPost2010PropOp33
 70
     0
102
RTVSPost2010Prop34
280
     0
102
RTVSPost2010PropOp34
 70
     0
102
RTVSPost2010Prop35
280
     0
102
RTVSPost2010PropOp35
 70
     0
102
RTVSPost2010Prop36
280
     0
102
RTVSPost2010PropOp36
 70
     0
102
RTVSPost2010Prop37
 90
       50
102
RTVSPost2010PropOp37
 70
     0
102
RTVSPost2010Prop38
140
0.0
102
RTVSPost2010PropOp38
 70
     0
102
RTVSPost2010Prop39
140
1.0
102
RTVSPost2010PropOp39
 70
     0
102
RTVSPost2010Prop40
 90
        0
102
RTVSPost2010PropOp40
 70
     0
102
RTVSPost2010Prop41ColorIndex
 90
       18
102
RTVSPost2010Prop41ColorRGB
 90
        0
102
RTVSPost2010PropOp41
 70
     0
102
RTVSPost2010Prop42
 90
       50
102
RTVSPost2010PropOp42
 70
     0
102
RTVSPost2010Prop43
 90
        3
102
RTVSPost2010PropOp43
 70
     0
102
RTVSPost2010Prop44ColorIndex
 90
        5
102
RTVSPost2010Prop44ColorRGB
 90
      255
102
RTVSPost2010PropOp44
 70
     0
102
RTVSPost2010Prop45
280
     0
102
RTVSPost2010PropOp45
 70
     0
102
RTVSPost2010Prop46
 90
       50
102
RTVSPost2010PropOp46
 70
     0
102
RTVSPost2010Prop47
 90
       50
102
RTVSPost2010PropOp47
 70
     0
102
RTVSPost2010Prop48
 90
       50
102
RTVSPost2010PropOp48
 70
     0
102
RTVSPost2010Prop49
280
     0
102
RTVSPost2010PropOp49
 70
     0
102
RTVSPost2010Prop50
 90
       50
102
RTVSPost2010PropOp50
 70
     0
102
RTVSPost2010Prop51ColorIndex
 90
      256
102
RTVSPost2010Prop51ColorRGB
 90
-16777216
102
RTVSPost2010PropOp51
 70
     0
102
RTVSPost2010Prop52
140
1.0
102
RTVSPost2010PropOp52
 70
     0
102
RTVSPost2010Prop53
 90
        2
102
RTVSPost2010PropOp53
 70
     0
102
RTVSPost2010Prop54
  1
strokes_ogs.tif
102
RTVSPost2010PropOp54
 70
     0
102
RTVSPost2010Prop55
280
     0
102
RTVSPost2010PropOp55
 70
     0
102
RTVSPost2010Prop56
140
1.0
102
RTVSPost2010PropOp56
 70
     0
102
RTVSPost2010Prop57
140
1.0
102
RTVSPost2010PropOp57
 70
     0
102
RTVSPropertyOp0
 70
     0
102
RTVSPropertyOp1
 70
     0
102
RTVSPropertyOp2
 70
     0
102
RTVSPropertyOp3
 70
     0
102
RTVSPropertyOp4
 70
     0
102
RTVSPropertyOp5
 70
     0
102
RTVSPropertyOp6
 70
     0
102
RTVSPropertyOp7
 70
     0
102
RTVSPropertyOp8
 70
     0
102
RTVSPropertyOp9
 70
     0
102
RTVSPropertyOp10
 70
     0
102
RTVSPropertyOp11
 70
     0
102
RTVSPropertyOp12
 70
     0
102
RTVSPropertyOp13
 70
     0
102
RTVSPropertyOp14
 70
     2
102
RTVSPropertyOp15
 70
     0
102
RTVSPropertyOp16
 70
     0
102
RTVSPropertyOp17
 70
     0
102
RTVSPropertyOp18
 70
     0
102
RTVSPropertyOp19
 70
     0
102
RTVSPropertyOp20
 70
     0
102
RTVSPropertyOp21
 70
     0
102
RTVSPropertyOp22
 70
     0
102
RTVSPropertyOp23
 70
     0
102
RTVSPropertyOp24
 70
     0
102
RTVSPropertyOp25
 70
     0
102
RTVSPropertyOp26
 70
     0
102
RTVSPropertyOp27
 70
     0
102
RTVSPropertyOp28
 70
     0
102
RTVSPropertyOp29
 70
     0
102
RTVSPropertyOp30
 70
     0
102
RTVSPropertyOp31
 70
     0
102
RTVSPropertyOp32
 70
     0
102
RTVSPropertyOp33
 70
     0
102
RTVSPropertyOp34
 70
     0
102
RTVSPropertyOp35
 70
     0
102
RTVSPropertyOp36
 70
     0
102
RTVSPropertyOp37
 70
     0
102
RTVSPropertyOp38
 70
     0
102
RTVSPropertyOp39
 70
     0
102
RTVSPropertyOp40
 70
     0
102
RTVSPropertyOp41
 70
     0
102
RTVSPropertyOp42
 70
     0
102
RTVSPropertyOp43
 70
     0
102
RTVSPropertyOp44
 70
     0
102
RTVSPropertyOp45
 70
     0
102
RTVSPropertyOp46
 70
     0
102
RTVSPropertyOp47
 70
     0
102
RTVSPropertyOp48
 70
     0
102
RTVSPropertyOp49
 70
     0
102
RTVSPropertyOp50
 70
     0
102
RTVSPropertyOp51
 70
     0
102
RTVSPropertyOp52
 70
     0
102
RTVSPropertyOp53
 70
     0
102
RTVSPropertyOp54
 70
     0
102
RTVSPropertyOp55
 70
     0
102
RTVSPropertyOp56
 70
     0
102
RTVSPropertyOp57
 70
     0
102
RTVSPropertyOp58
 70
     1
102
RTVSPropertyOp59
 70
     1
102
RTVSPropertyOp60
 70
     1
102
RTVSPropertyOp61
 70
     1
102
RTVSPropertyOp62
 70
     1
  0
XRECORD
  5
30C05
102
{ACAD_REACTORS
330
30C04
102
}
330
30C04
100
AcDbXrecord
280
     1
102
RTVSPost2010Prop28
280
     0
102
RTVSPost2010PropOp28
 70
     1
102
RTVSPost2010Prop29
280
     1
102
RTVSPost2010PropOp29
 70
     1
102
RTVSPost2010Prop30
280
     1
102
RTVSPost2010PropOp30
 70
     1
102
RTVSPost2010Prop31
280
     0
102
RTVSPost2010PropOp31
 70
     1
102
RTVSPost2010Prop32
280
     0
102
RTVSPost2010PropOp32
 70
     1
102
RTVSPost2010Prop33
280
     0
102
RTVSPost2010PropOp33
 70
     1
102
RTVSPost2010Prop34
280
     0
102
RTVSPost2010PropOp34
 70
     1
102
RTVSPost2010Prop35
280
     0
102
RTVSPost2010PropOp35
 70
     1
102
RTVSPost2010Prop36
280
     0
102
RTVSPost2010PropOp36
 70
     1
102
RTVSPost2010Prop37
 90
       50
102
RTVSPost2010PropOp37
 70
     1
102
RTVSPost2010Prop38
140
0.0
102
RTVSPost2010PropOp38
 70
     1
102
RTVSPost2010Prop39
140
1.0
102
RTVSPost2010PropOp39
 70
     1
102
RTVSPost2010Prop40
 90
        0
102
RTVSPost2010PropOp40
 70
     1
102
RTVSPost2010Prop41ColorIndex
 90
       18
102
RTVSPost2010Prop41ColorRGB
 90
        0
102
RTVSPost2010PropOp41
 70
     1
102
RTVSPost2010Prop42
 90
       50
102
RTVSPost2010PropOp42
 70
     1
102
RTVSPost2010Prop43
 90
        3
102
RTVSPost2010PropOp43
 70
     1
102
RTVSPost2010Prop44ColorIndex
 90
        5
102
RTVSPost2010Prop44ColorRGB
 90
      255
102
RTVSPost2010PropOp44
 70
     1
102
RTVSPost2010Prop45
280
     0
102
RTVSPost2010PropOp45
 70
     1
102
RTVSPost2010Prop46
 90
       50
102
RTVSPost2010PropOp46
 70
     1
102
RTVSPost2010Prop47
 90
       50
102
RTVSPost2010PropOp47
 70
     1
102
RTVSPost2010Prop48
 90
       50
102
RTVSPost2010PropOp48
 70
     1
102
RTVSPost2010Prop49
280
     0
102
RTVSPost2010PropOp49
 70
     1
102
RTVSPost2010Prop50
 90
       50
102
RTVSPost2010PropOp50
 70
     1
102
RTVSPost2010Prop51ColorIndex
 90
      256
102
RTVSPost2010Prop51ColorRGB
 90
-16777216
102
RTVSPost2010PropOp51
 70
     0
102
RTVSPost2010Prop52
140
1.0
102
RTVSPost2010PropOp52
 70
     0
102
RTVSPost2010Prop53
 90
        2
102
RTVSPost2010PropOp53
 70
     1
102
RTVSPost2010Prop54
  1
strokes_ogs.tif
102
RTVSPost2010PropOp54
 70
     1
102
RTVSPost2010Prop55
280
     0
102
RTVSPost2010PropOp55
 70
     1
102
RTVSPost2010Prop56
140
1.0
102
RTVSPost2010PropOp56
 70
     1
102
RTVSPost2010Prop57
140
1.0
102
RTVSPost2010PropOp57
 70
     1
102
RTVSPropertyOp0
 70
     1
102
RTVSPropertyOp1
 70
     1
102
RTVSPropertyOp2
 70
     1
102
RTVSPropertyOp3
 70
     1
102
RTVSPropertyOp4
 70
     1
102
RTVSPropertyOp5
 70
     1
102
RTVSPropertyOp6
 70
     1
102
RTVSPropertyOp7
 70
     1
102
RTVSPropertyOp8
 70
     1
102
RTVSPropertyOp9
 70
     1
102
RTVSPropertyOp10
 70
     1
102
RTVSPropertyOp11
 70
     1
102
RTVSPropertyOp12
 70
     1
102
RTVSPropertyOp13
 70
     1
102
RTVSPropertyOp14
 70
     1
102
RTVSPropertyOp15
 70
     1
102
RTVSPropertyOp16
 70
     1
102
RTVSPropertyOp17
 70
     1
102
RTVSPropertyOp18
 70
     1
102
RTVSPropertyOp19
 70
     1
102
RTVSPropertyOp20
 70
     1
102
RTVSPropertyOp21
 70
     1
102
RTVSPropertyOp22
 70
     1
102
RTVSPropertyOp23
 70
     1
102
RTVSPropertyOp24
 70
     1
102
RTVSPropertyOp25
 70
     1
102
RTVSPropertyOp26
 70
     1
102
RTVSPropertyOp27
 70
     1
102
RTVSPropertyOp28
 70
     1
102
RTVSPropertyOp29
 70
     1
102
RTVSPropertyOp30
 70
     1
102
RTVSPropertyOp31
 70
     1
102
RTVSPropertyOp32
 70
     1
102
RTVSPropertyOp33
 70
     1
102
RTVSPropertyOp34
 70
     1
102
RTVSPropertyOp35
 70
     1
102
RTVSPropertyOp36
 70
     1
102
RTVSPropertyOp37
 70
     1
102
RTVSPropertyOp38
 70
     1
102
RTVSPropertyOp39
 70
     1
102
RTVSPropertyOp40
 70
     1
102
RTVSPropertyOp41
 70
     1
102
RTVSPropertyOp42
 70
     1
102
RTVSPropertyOp43
 70
     1
102
RTVSPropertyOp44
 70
     1
102
RTVSPropertyOp45
 70
     1
102
RTVSPropertyOp46
 70
     1
102
RTVSPropertyOp47
 70
     1
102
RTVSPropertyOp48
 70
     1
102
RTVSPropertyOp49
 70
     1
102
RTVSPropertyOp50
 70
     1
102
RTVSPropertyOp51
 70
     0
102
RTVSPropertyOp52
 70
     0
102
RTVSPropertyOp53
 70
     1
102
RTVSPropertyOp54
 70
     1
102
RTVSPropertyOp55
 70
     1
102
RTVSPropertyOp56
 70
     1
102
RTVSPropertyOp57
 70
     1
102
RTVSPropertyOp58
 70
     1
102
RTVSPropertyOp59
 70
     1
102
RTVSPropertyOp60
 70
     1
102
RTVSPropertyOp61
 70
     1
102
RTVSPropertyOp62
 70
     1
  0
XRECORD
  5
30C1B
102
{ACAD_REACTORS
330
30C1A
102
}
330
30C1A
100
AcDbXrecord
280
     1
102
RTVSPost2010Prop28
280
     0
102
RTVSPost2010PropOp28
 70
     1
102
RTVSPost2010Prop29
280
     1
102
RTVSPost2010PropOp29
 70
     1
102
RTVSPost2010Prop30
280
     1
102
RTVSPost2010PropOp30
 70
     1
102
RTVSPost2010Prop31
280
     0
102
RTVSPost2010PropOp31
 70
     1
102
RTVSPost2010Prop32
280
     0
102
RTVSPost2010PropOp32
 70
     1
102
RTVSPost2010Prop33
280
     0
102
RTVSPost2010PropOp33
 70
     1
102
RTVSPost2010Prop34
280
     0
102
RTVSPost2010PropOp34
 70
     1
102
RTVSPost2010Prop35
280
     0
102
RTVSPost2010PropOp35
 70
     1
102
RTVSPost2010Prop36
280
     0
102
RTVSPost2010PropOp36
 70
     1
102
RTVSPost2010Prop37
 90
       50
102
RTVSPost2010PropOp37
 70
     1
102
RTVSPost2010Prop38
140
0.0
102
RTVSPost2010PropOp38
 70
     1
102
RTVSPost2010Prop39
140
1.0
102
RTVSPost2010PropOp39
 70
     1
102
RTVSPost2010Prop40
 90
        0
102
RTVSPost2010PropOp40
 70
     1
102
RTVSPost2010Prop41ColorIndex
 90
       18
102
RTVSPost2010Prop41ColorRGB
 90
        0
102
RTVSPost2010PropOp41
 70
     1
102
RTVSPost2010Prop42
 90
       50
102
RTVSPost2010PropOp42
 70
     1
102
RTVSPost2010Prop43
 90
        3
102
RTVSPost2010PropOp43
 70
     1
102
RTVSPost2010Prop44ColorIndex
 90
        5
102
RTVSPost2010Prop44ColorRGB
 90
      255
102
RTVSPost2010PropOp44
 70
     1
102
RTVSPost2010Prop45
280
     0
102
RTVSPost2010PropOp45
 70
     1
102
RTVSPost2010Prop46
 90
       50
102
RTVSPost2010PropOp46
 70
     1
102
RTVSPost2010Prop47
 90
       50
102
RTVSPost2010PropOp47
 70
     1
102
RTVSPost2010Prop48
 90
       50
102
RTVSPost2010PropOp48
 70
     1
102
RTVSPost2010Prop49
280
     0
102
RTVSPost2010PropOp49
 70
     1
102
RTVSPost2010Prop50
 90
       50
102
RTVSPost2010PropOp50
 70
     1
102
RTVSPost2010Prop51ColorIndex
 90
      256
102
RTVSPost2010Prop51ColorRGB
 90
-16777216
102
RTVSPost2010PropOp51
 70
     0
102
RTVSPost2010Prop52
140
1.0
102
RTVSPost2010PropOp52
 70
     0
102
RTVSPost2010Prop53
 90
        2
102
RTVSPost2010PropOp53
 70
     1
102
RTVSPost2010Prop54
  1
strokes_ogs.tif
102
RTVSPost2010PropOp54
 70
     1
102
RTVSPost2010Prop55
280
     0
102
RTVSPost2010PropOp55
 70
     1
102
RTVSPost2010Prop56
140
1.0
102
RTVSPost2010PropOp56
 70
     1
102
RTVSPost2010Prop57
140
1.0
102
RTVSPost2010PropOp57
 70
     1
102
RTVSPropertyOp0
 70
     1
102
RTVSPropertyOp1
 70
     1
102
RTVSPropertyOp2
 70
     1
102
RTVSPropertyOp3
 70
     1
102
RTVSPropertyOp4
 70
     1
102
RTVSPropertyOp5
 70
     1
102
RTVSPropertyOp6
 70
     1
102
RTVSPropertyOp7
 70
     1
102
RTVSPropertyOp8
 70
     1
102
RTVSPropertyOp9
 70
     1
102
RTVSPropertyOp10
 70
     1
102
RTVSPropertyOp11
 70
     1
102
RTVSPropertyOp12
 70
     1
102
RTVSPropertyOp13
 70
     1
102
RTVSPropertyOp14
 70
     1
102
RTVSPropertyOp15
 70
     1
102
RTVSPropertyOp16
 70
     1
102
RTVSPropertyOp17
 70
     1
102
RTVSPropertyOp18
 70
     1
102
RTVSPropertyOp19
 70
     1
102
RTVSPropertyOp20
 70
     1
102
RTVSPropertyOp21
 70
     1
102
RTVSPropertyOp22
 70
     1
102
RTVSPropertyOp23
 70
     1
102
RTVSPropertyOp24
 70
     1
102
RTVSPropertyOp25
 70
     1
102
RTVSPropertyOp26
 70
     1
102
RTVSPropertyOp27
 70
     1
102
RTVSPropertyOp28
 70
     1
102
RTVSPropertyOp29
 70
     1
102
RTVSPropertyOp30
 70
     1
102
RTVSPropertyOp31
 70
     1
102
RTVSPropertyOp32
 70
     1
102
RTVSPropertyOp33
 70
     1
102
RTVSPropertyOp34
 70
     1
102
RTVSPropertyOp35
 70
     1
102
RTVSPropertyOp36
 70
     1
102
RTVSPropertyOp37
 70
     1
102
RTVSPropertyOp38
 70
     1
102
RTVSPropertyOp39
 70
     1
102
RTVSPropertyOp40
 70
     1
102
RTVSPropertyOp41
 70
     1
102
RTVSPropertyOp42
 70
     1
102
RTVSPropertyOp43
 70
     1
102
RTVSPropertyOp44
 70
     1
102
RTVSPropertyOp45
 70
     1
102
RTVSPropertyOp46
 70
     1
102
RTVSPropertyOp47
 70
     1
102
RTVSPropertyOp48
 70
     1
102
RTVSPropertyOp49
 70
     1
102
RTVSPropertyOp50
 70
     1
102
RTVSPropertyOp51
 70
     0
102
RTVSPropertyOp52
 70
     0
102
RTVSPropertyOp53
 70
     1
102
RTVSPropertyOp54
 70
     1
102
RTVSPropertyOp55
 70
     1
102
RTVSPropertyOp56
 70
     1
102
RTVSPropertyOp57
 70
     1
102
RTVSPropertyOp58
 70
     1
102
RTVSPropertyOp59
 70
     1
102
RTVSPropertyOp60
 70
     1
102
RTVSPropertyOp61
 70
     1
102
RTVSPropertyOp62
 70
     1
  0
XRECORD
  5
30C19
102
{ACAD_REACTORS
330
30C18
102
}
330
30C18
100
AcDbXrecord
280
     1
102
RTVSPost2010Prop28
280
     0
102
RTVSPost2010PropOp28
 70
     1
102
RTVSPost2010Prop29
280
     1
102
RTVSPost2010PropOp29
 70
     1
102
RTVSPost2010Prop30
280
     1
102
RTVSPost2010PropOp30
 70
     1
102
RTVSPost2010Prop31
280
     0
102
RTVSPost2010PropOp31
 70
     1
102
RTVSPost2010Prop32
280
     0
102
RTVSPost2010PropOp32
 70
     1
102
RTVSPost2010Prop33
280
     0
102
RTVSPost2010PropOp33
 70
     1
102
RTVSPost2010Prop34
280
     0
102
RTVSPost2010PropOp34
 70
     1
102
RTVSPost2010Prop35
280
     0
102
RTVSPost2010PropOp35
 70
     1
102
RTVSPost2010Prop36
280
     0
102
RTVSPost2010PropOp36
 70
     1
102
RTVSPost2010Prop37
 90
       50
102
RTVSPost2010PropOp37
 70
     1
102
RTVSPost2010Prop38
140
0.0
102
RTVSPost2010PropOp38
 70
     1
102
RTVSPost2010Prop39
140
1.0
102
RTVSPost2010PropOp39
 70
     1
102
RTVSPost2010Prop40
 90
        0
102
RTVSPost2010PropOp40
 70
     1
102
RTVSPost2010Prop41ColorIndex
 90
       18
102
RTVSPost2010Prop41ColorRGB
 90
        0
102
RTVSPost2010PropOp41
 70
     1
102
RTVSPost2010Prop42
 90
       50
102
RTVSPost2010PropOp42
 70
     1
102
RTVSPost2010Prop43
 90
        3
102
RTVSPost2010PropOp43
 70
     1
102
RTVSPost2010Prop44ColorIndex
 90
        5
102
RTVSPost2010Prop44ColorRGB
 90
      255
102
RTVSPost2010PropOp44
 70
     1
102
RTVSPost2010Prop45
280
     0
102
RTVSPost2010PropOp45
 70
     1
102
RTVSPost2010Prop46
 90
       50
102
RTVSPost2010PropOp46
 70
     1
102
RTVSPost2010Prop47
 90
       50
102
RTVSPost2010PropOp47
 70
     1
102
RTVSPost2010Prop48
 90
       50
102
RTVSPost2010PropOp48
 70
     1
102
RTVSPost2010Prop49
280
     0
102
RTVSPost2010PropOp49
 70
     1
102
RTVSPost2010Prop50
 90
       50
102
RTVSPost2010PropOp50
 70
     1
102
RTVSPost2010Prop51ColorIndex
 90
      256
102
RTVSPost2010Prop51ColorRGB
 90
-16777216
102
RTVSPost2010PropOp51
 70
     0
102
RTVSPost2010Prop52
140
1.0
102
RTVSPost2010PropOp52
 70
     0
102
RTVSPost2010Prop53
 90
        2
102
RTVSPost2010PropOp53
 70
     1
102
RTVSPost2010Prop54
  1
strokes_ogs.tif
102
RTVSPost2010PropOp54
 70
     1
102
RTVSPost2010Prop55
280
     0
102
RTVSPost2010PropOp55
 70
     1
102
RTVSPost2010Prop56
140
1.0
102
RTVSPost2010PropOp56
 70
     1
102
RTVSPost2010Prop57
140
1.0
102
RTVSPost2010PropOp57
 70
     1
102
RTVSPropertyOp0
 70
     1
102
RTVSPropertyOp1
 70
     1
102
RTVSPropertyOp2
 70
     1
102
RTVSPropertyOp3
 70
     1
102
RTVSPropertyOp4
 70
     1
102
RTVSPropertyOp5
 70
     1
102
RTVSPropertyOp6
 70
     1
102
RTVSPropertyOp7
 70
     1
102
RTVSPropertyOp8
 70
     1
102
RTVSPropertyOp9
 70
     1
102
RTVSPropertyOp10
 70
     1
102
RTVSPropertyOp11
 70
     1
102
RTVSPropertyOp12
 70
     1
102
RTVSPropertyOp13
 70
     1
102
RTVSPropertyOp14
 70
     1
102
RTVSPropertyOp15
 70
     1
102
RTVSPropertyOp16
 70
     1
102
RTVSPropertyOp17
 70
     1
102
RTVSPropertyOp18
 70
     1
102
RTVSPropertyOp19
 70
     1
102
RTVSPropertyOp20
 70
     1
102
RTVSPropertyOp21
 70
     1
102
RTVSPropertyOp22
 70
     1
102
RTVSPropertyOp23
 70
     1
102
RTVSPropertyOp24
 70
     1
102
RTVSPropertyOp25
 70
     1
102
RTVSPropertyOp26
 70
     1
102
RTVSPropertyOp27
 70
     1
102
RTVSPropertyOp28
 70
     1
102
RTVSPropertyOp29
 70
     1
102
RTVSPropertyOp30
 70
     1
102
RTVSPropertyOp31
 70
     1
102
RTVSPropertyOp32
 70
     1
102
RTVSPropertyOp33
 70
     1
102
RTVSPropertyOp34
 70
     1
102
RTVSPropertyOp35
 70
     1
102
RTVSPropertyOp36
 70
     1
102
RTVSPropertyOp37
 70
     1
102
RTVSPropertyOp38
 70
     1
102
RTVSPropertyOp39
 70
     1
102
RTVSPropertyOp40
 70
     1
102
RTVSPropertyOp41
 70
     1
102
RTVSPropertyOp42
 70
     1
102
RTVSPropertyOp43
 70
     1
102
RTVSPropertyOp44
 70
     1
102
RTVSPropertyOp45
 70
     1
102
RTVSPropertyOp46
 70
     1
102
RTVSPropertyOp47
 70
     1
102
RTVSPropertyOp48
 70
     1
102
RTVSPropertyOp49
 70
     1
102
RTVSPropertyOp50
 70
     1
102
RTVSPropertyOp51
 70
     0
102
RTVSPropertyOp52
 70
     0
102
RTVSPropertyOp53
 70
     1
102
RTVSPropertyOp54
 70
     1
102
RTVSPropertyOp55
 70
     1
102
RTVSPropertyOp56
 70
     1
102
RTVSPropertyOp57
 70
     1
102
RTVSPropertyOp58
 70
     1
102
RTVSPropertyOp59
 70
     1
102
RTVSPropertyOp60
 70
     1
102
RTVSPropertyOp61
 70
     1
102
RTVSPropertyOp62
 70
     1
  0
XRECORD
  5
30C13
102
{ACAD_REACTORS
330
30C12
102
}
330
30C12
100
AcDbXrecord
280
     1
102
RTVSPost2010Prop28
280
     0
102
RTVSPost2010PropOp28
 70
     1
102
RTVSPost2010Prop29
280
     1
102
RTVSPost2010PropOp29
 70
     1
102
RTVSPost2010Prop30
280
     1
102
RTVSPost2010PropOp30
 70
     1
102
RTVSPost2010Prop31
280
     0
102
RTVSPost2010PropOp31
 70
     1
102
RTVSPost2010Prop32
280
     0
102
RTVSPost2010PropOp32
 70
     1
102
RTVSPost2010Prop33
280
     0
102
RTVSPost2010PropOp33
 70
     1
102
RTVSPost2010Prop34
280
     0
102
RTVSPost2010PropOp34
 70
     1
102
RTVSPost2010Prop35
280
     0
102
RTVSPost2010PropOp35
 70
     1
102
RTVSPost2010Prop36
280
     0
102
RTVSPost2010PropOp36
 70
     1
102
RTVSPost2010Prop37
 90
       50
102
RTVSPost2010PropOp37
 70
     1
102
RTVSPost2010Prop38
140
0.0
102
RTVSPost2010PropOp38
 70
     1
102
RTVSPost2010Prop39
140
1.0
102
RTVSPost2010PropOp39
 70
     1
102
RTVSPost2010Prop40
 90
        0
102
RTVSPost2010PropOp40
 70
     1
102
RTVSPost2010Prop41ColorIndex
 90
       18
102
RTVSPost2010Prop41ColorRGB
 90
        0
102
RTVSPost2010PropOp41
 70
     1
102
RTVSPost2010Prop42
 90
       50
102
RTVSPost2010PropOp42
 70
     1
102
RTVSPost2010Prop43
 90
        3
102
RTVSPost2010PropOp43
 70
     1
102
RTVSPost2010Prop44ColorIndex
 90
        5
102
RTVSPost2010Prop44ColorRGB
 90
      255
102
RTVSPost2010PropOp44
 70
     1
102
RTVSPost2010Prop45
280
     0
102
RTVSPost2010PropOp45
 70
     1
102
RTVSPost2010Prop46
 90
       50
102
RTVSPost2010PropOp46
 70
     1
102
RTVSPost2010Prop47
 90
       50
102
RTVSPost2010PropOp47
 70
     1
102
RTVSPost2010Prop48
 90
       50
102
RTVSPost2010PropOp48
 70
     1
102
RTVSPost2010Prop49
280
     0
102
RTVSPost2010PropOp49
 70
     1
102
RTVSPost2010Prop50
 90
       50
102
RTVSPost2010PropOp50
 70
     1
102
RTVSPost2010Prop51ColorIndex
 90
      256
102
RTVSPost2010Prop51ColorRGB
 90
-16777216
102
RTVSPost2010PropOp51
 70
     0
102
RTVSPost2010Prop52
140
1.0
102
RTVSPost2010PropOp52
 70
     0
102
RTVSPost2010Prop53
 90
        2
102
RTVSPost2010PropOp53
 70
     1
102
RTVSPost2010Prop54
  1
strokes_ogs.tif
102
RTVSPost2010PropOp54
 70
     1
102
RTVSPost2010Prop55
280
     0
102
RTVSPost2010PropOp55
 70
     1
102
RTVSPost2010Prop56
140
1.0
102
RTVSPost2010PropOp56
 70
     1
102
RTVSPost2010Prop57
140
1.0
102
RTVSPost2010PropOp57
 70
     1
102
RTVSPropertyOp0
 70
     1
102
RTVSPropertyOp1
 70
     1
102
RTVSPropertyOp2
 70
     1
102
RTVSPropertyOp3
 70
     1
102
RTVSPropertyOp4
 70
     1
102
RTVSPropertyOp5
 70
     1
102
RTVSPropertyOp6
 70
     1
102
RTVSPropertyOp7
 70
     1
102
RTVSPropertyOp8
 70
     1
102
RTVSPropertyOp9
 70
     1
102
RTVSPropertyOp10
 70
     1
102
RTVSPropertyOp11
 70
     1
102
RTVSPropertyOp12
 70
     1
102
RTVSPropertyOp13
 70
     1
102
RTVSPropertyOp14
 70
     1
102
RTVSPropertyOp15
 70
     1
102
RTVSPropertyOp16
 70
     1
102
RTVSPropertyOp17
 70
     1
102
RTVSPropertyOp18
 70
     1
102
RTVSPropertyOp19
 70
     1
102
RTVSPropertyOp20
 70
     1
102
RTVSPropertyOp21
 70
     1
102
RTVSPropertyOp22
 70
     1
102
RTVSPropertyOp23
 70
     1
102
RTVSPropertyOp24
 70
     1
102
RTVSPropertyOp25
 70
     1
102
RTVSPropertyOp26
 70
     1
102
RTVSPropertyOp27
 70
     1
102
RTVSPropertyOp28
 70
     1
102
RTVSPropertyOp29
 70
     1
102
RTVSPropertyOp30
 70
     1
102
RTVSPropertyOp31
 70
     1
102
RTVSPropertyOp32
 70
     1
102
RTVSPropertyOp33
 70
     1
102
RTVSPropertyOp34
 70
     1
102
RTVSPropertyOp35
 70
     1
102
RTVSPropertyOp36
 70
     1
102
RTVSPropertyOp37
 70
     1
102
RTVSPropertyOp38
 70
     1
102
RTVSPropertyOp39
 70
     1
102
RTVSPropertyOp40
 70
     1
102
RTVSPropertyOp41
 70
     1
102
RTVSPropertyOp42
 70
     1
102
RTVSPropertyOp43
 70
     1
102
RTVSPropertyOp44
 70
     1
102
RTVSPropertyOp45
 70
     1
102
RTVSPropertyOp46
 70
     1
102
RTVSPropertyOp47
 70
     1
102
RTVSPropertyOp48
 70
     1
102
RTVSPropertyOp49
 70
     1
102
RTVSPropertyOp50
 70
     1
102
RTVSPropertyOp51
 70
     0
102
RTVSPropertyOp52
 70
     0
102
RTVSPropertyOp53
 70
     1
102
RTVSPropertyOp54
 70
     1
102
RTVSPropertyOp55
 70
     1
102
RTVSPropertyOp56
 70
     1
102
RTVSPropertyOp57
 70
     1
102
RTVSPropertyOp58
 70
     1
102
RTVSPropertyOp59
 70
     1
102
RTVSPropertyOp60
 70
     1
102
RTVSPropertyOp61
 70
     1
102
RTVSPropertyOp62
 70
     1
  0
XRECORD
  5
30C15
102
{ACAD_REACTORS
330
30C14
102
}
330
30C14
100
AcDbXrecord
280
     1
102
RTVSPost2010Prop28
280
     0
102
RTVSPost2010PropOp28
 70
     1
102
RTVSPost2010Prop29
280
     1
102
RTVSPost2010PropOp29
 70
     1
102
RTVSPost2010Prop30
280
     1
102
RTVSPost2010PropOp30
 70
     1
102
RTVSPost2010Prop31
280
     0
102
RTVSPost2010PropOp31
 70
     1
102
RTVSPost2010Prop32
280
     0
102
RTVSPost2010PropOp32
 70
     1
102
RTVSPost2010Prop33
280
     0
102
RTVSPost2010PropOp33
 70
     1
102
RTVSPost2010Prop34
280
     0
102
RTVSPost2010PropOp34
 70
     1
102
RTVSPost2010Prop35
280
     0
102
RTVSPost2010PropOp35
 70
     1
102
RTVSPost2010Prop36
280
     0
102
RTVSPost2010PropOp36
 70
     1
102
RTVSPost2010Prop37
 90
       50
102
RTVSPost2010PropOp37
 70
     1
102
RTVSPost2010Prop38
140
0.0
102
RTVSPost2010PropOp38
 70
     1
102
RTVSPost2010Prop39
140
1.0
102
RTVSPost2010PropOp39
 70
     1
102
RTVSPost2010Prop40
 90
        0
102
RTVSPost2010PropOp40
 70
     1
102
RTVSPost2010Prop41ColorIndex
 90
       18
102
RTVSPost2010Prop41ColorRGB
 90
        0
102
RTVSPost2010PropOp41
 70
     1
102
RTVSPost2010Prop42
 90
       50
102
RTVSPost2010PropOp42
 70
     1
102
RTVSPost2010Prop43
 90
        3
102
RTVSPost2010PropOp43
 70
     1
102
RTVSPost2010Prop44ColorIndex
 90
        5
102
RTVSPost2010Prop44ColorRGB
 90
      255
102
RTVSPost2010PropOp44
 70
     1
102
RTVSPost2010Prop45
280
     0
102
RTVSPost2010PropOp45
 70
     1
102
RTVSPost2010Prop46
 90
       50
102
RTVSPost2010PropOp46
 70
     1
102
RTVSPost2010Prop47
 90
       50
102
RTVSPost2010PropOp47
 70
     1
102
RTVSPost2010Prop48
 90
       50
102
RTVSPost2010PropOp48
 70
     1
102
RTVSPost2010Prop49
280
     0
102
RTVSPost2010PropOp49
 70
     1
102
RTVSPost2010Prop50
 90
       50
102
RTVSPost2010PropOp50
 70
     1
102
RTVSPost2010Prop51ColorIndex
 90
      256
102
RTVSPost2010Prop51ColorRGB
 90
-16777216
102
RTVSPost2010PropOp51
 70
     0
102
RTVSPost2010Prop52
140
1.0
102
RTVSPost2010PropOp52
 70
     0
102
RTVSPost2010Prop53
 90
        2
102
RTVSPost2010PropOp53
 70
     1
102
RTVSPost2010Prop54
  1
strokes_ogs.tif
102
RTVSPost2010PropOp54
 70
     1
102
RTVSPost2010Prop55
280
     0
102
RTVSPost2010PropOp55
 70
     1
102
RTVSPost2010Prop56
140
1.0
102
RTVSPost2010PropOp56
 70
     1
102
RTVSPost2010Prop57
140
1.0
102
RTVSPost2010PropOp57
 70
     1
102
RTVSPropertyOp0
 70
     1
102
RTVSPropertyOp1
 70
     1
102
RTVSPropertyOp2
 70
     1
102
RTVSPropertyOp3
 70
     1
102
RTVSPropertyOp4
 70
     1
102
RTVSPropertyOp5
 70
     1
102
RTVSPropertyOp6
 70
     1
102
RTVSPropertyOp7
 70
     1
102
RTVSPropertyOp8
 70
     1
102
RTVSPropertyOp9
 70
     1
102
RTVSPropertyOp10
 70
     1
102
RTVSPropertyOp11
 70
     1
102
RTVSPropertyOp12
 70
     1
102
RTVSPropertyOp13
 70
     1
102
RTVSPropertyOp14
 70
     1
102
RTVSPropertyOp15
 70
     1
102
RTVSPropertyOp16
 70
     1
102
RTVSPropertyOp17
 70
     1
102
RTVSPropertyOp18
 70
     1
102
RTVSPropertyOp19
 70
     1
102
RTVSPropertyOp20
 70
     1
102
RTVSPropertyOp21
 70
     1
102
RTVSPropertyOp22
 70
     1
102
RTVSPropertyOp23
 70
     1
102
RTVSPropertyOp24
 70
     1
102
RTVSPropertyOp25
 70
     1
102
RTVSPropertyOp26
 70
     1
102
RTVSPropertyOp27
 70
     1
102
RTVSPropertyOp28
 70
     1
102
RTVSPropertyOp29
 70
     1
102
RTVSPropertyOp30
 70
     1
102
RTVSPropertyOp31
 70
     1
102
RTVSPropertyOp32
 70
     1
102
RTVSPropertyOp33
 70
     1
102
RTVSPropertyOp34
 70
     1
102
RTVSPropertyOp35
 70
     1
102
RTVSPropertyOp36
 70
     1
102
RTVSPropertyOp37
 70
     1
102
RTVSPropertyOp38
 70
     1
102
RTVSPropertyOp39
 70
     1
102
RTVSPropertyOp40
 70
     1
102
RTVSPropertyOp41
 70
     1
102
RTVSPropertyOp42
 70
     1
102
RTVSPropertyOp43
 70
     1
102
RTVSPropertyOp44
 70
     1
102
RTVSPropertyOp45
 70
     1
102
RTVSPropertyOp46
 70
     1
102
RTVSPropertyOp47
 70
     1
102
RTVSPropertyOp48
 70
     1
102
RTVSPropertyOp49
 70
     1
102
RTVSPropertyOp50
 70
     1
102
RTVSPropertyOp51
 70
     0
102
RTVSPropertyOp52
 70
     0
102
RTVSPropertyOp53
 70
     1
102
RTVSPropertyOp54
 70
     1
102
RTVSPropertyOp55
 70
     1
102
RTVSPropertyOp56
 70
     1
102
RTVSPropertyOp57
 70
     1
102
RTVSPropertyOp58
 70
     1
102
RTVSPropertyOp59
 70
     1
102
RTVSPropertyOp60
 70
     1
102
RTVSPropertyOp61
 70
     1
102
RTVSPropertyOp62
 70
     1
  0
XRECORD
  5
30C0B
102
{ACAD_REACTORS
330
30C0A
102
}
330
30C0A
100
AcDbXrecord
280
     1
102
RTVSPost2010Prop28
280
     0
102
RTVSPost2010PropOp28
 70
     1
102
RTVSPost2010Prop29
280
     1
102
RTVSPost2010PropOp29
 70
     1
102
RTVSPost2010Prop30
280
     1
102
RTVSPost2010PropOp30
 70
     1
102
RTVSPost2010Prop31
280
     0
102
RTVSPost2010PropOp31
 70
     1
102
RTVSPost2010Prop32
280
     0
102
RTVSPost2010PropOp32
 70
     1
102
RTVSPost2010Prop33
280
     0
102
RTVSPost2010PropOp33
 70
     1
102
RTVSPost2010Prop34
280
     0
102
RTVSPost2010PropOp34
 70
     1
102
RTVSPost2010Prop35
280
     0
102
RTVSPost2010PropOp35
 70
     1
102
RTVSPost2010Prop36
280
     0
102
RTVSPost2010PropOp36
 70
     1
102
RTVSPost2010Prop37
 90
       50
102
RTVSPost2010PropOp37
 70
     1
102
RTVSPost2010Prop38
140
0.0
102
RTVSPost2010PropOp38
 70
     1
102
RTVSPost2010Prop39
140
1.0
102
RTVSPost2010PropOp39
 70
     1
102
RTVSPost2010Prop40
 90
        0
102
RTVSPost2010PropOp40
 70
     1
102
RTVSPost2010Prop41ColorIndex
 90
       18
102
RTVSPost2010Prop41ColorRGB
 90
        0
102
RTVSPost2010PropOp41
 70
     1
102
RTVSPost2010Prop42
 90
       50
102
RTVSPost2010PropOp42
 70
     1
102
RTVSPost2010Prop43
 90
        3
102
RTVSPost2010PropOp43
 70
     1
102
RTVSPost2010Prop44ColorIndex
 90
        5
102
RTVSPost2010Prop44ColorRGB
 90
      255
102
RTVSPost2010PropOp44
 70
     1
102
RTVSPost2010Prop45
280
     0
102
RTVSPost2010PropOp45
 70
     1
102
RTVSPost2010Prop46
 90
       50
102
RTVSPost2010PropOp46
 70
     1
102
RTVSPost2010Prop47
 90
       50
102
RTVSPost2010PropOp47
 70
     1
102
RTVSPost2010Prop48
 90
       50
102
RTVSPost2010PropOp48
 70
     1
102
RTVSPost2010Prop49
280
     0
102
RTVSPost2010PropOp49
 70
     1
102
RTVSPost2010Prop50
 90
       50
102
RTVSPost2010PropOp50
 70
     1
102
RTVSPost2010Prop51ColorIndex
 90
      256
102
RTVSPost2010Prop51ColorRGB
 90
-16777216
102
RTVSPost2010PropOp51
 70
     0
102
RTVSPost2010Prop52
140
1.0
102
RTVSPost2010PropOp52
 70
     0
102
RTVSPost2010Prop53
 90
        2
102
RTVSPost2010PropOp53
 70
     1
102
RTVSPost2010Prop54
  1
strokes_ogs.tif
102
RTVSPost2010PropOp54
 70
     1
102
RTVSPost2010Prop55
280
     0
102
RTVSPost2010PropOp55
 70
     1
102
RTVSPost2010Prop56
140
1.0
102
RTVSPost2010PropOp56
 70
     1
102
RTVSPost2010Prop57
140
1.0
102
RTVSPost2010PropOp57
 70
     1
102
RTVSPropertyOp0
 70
     1
102
RTVSPropertyOp1
 70
     1
102
RTVSPropertyOp2
 70
     1
102
RTVSPropertyOp3
 70
     1
102
RTVSPropertyOp4
 70
     1
102
RTVSPropertyOp5
 70
     1
102
RTVSPropertyOp6
 70
     1
102
RTVSPropertyOp7
 70
     1
102
RTVSPropertyOp8
 70
     1
102
RTVSPropertyOp9
 70
     1
102
RTVSPropertyOp10
 70
     1
102
RTVSPropertyOp11
 70
     1
102
RTVSPropertyOp12
 70
     1
102
RTVSPropertyOp13
 70
     1
102
RTVSPropertyOp14
 70
     1
102
RTVSPropertyOp15
 70
     1
102
RTVSPropertyOp16
 70
     1
102
RTVSPropertyOp17
 70
     1
102
RTVSPropertyOp18
 70
     1
102
RTVSPropertyOp19
 70
     1
102
RTVSPropertyOp20
 70
     1
102
RTVSPropertyOp21
 70
     1
102
RTVSPropertyOp22
 70
     1
102
RTVSPropertyOp23
 70
     1
102
RTVSPropertyOp24
 70
     1
102
RTVSPropertyOp25
 70
     1
102
RTVSPropertyOp26
 70
     1
102
RTVSPropertyOp27
 70
     1
102
RTVSPropertyOp28
 70
     1
102
RTVSPropertyOp29
 70
     1
102
RTVSPropertyOp30
 70
     1
102
RTVSPropertyOp31
 70
     1
102
RTVSPropertyOp32
 70
     1
102
RTVSPropertyOp33
 70
     1
102
RTVSPropertyOp34
 70
     1
102
RTVSPropertyOp35
 70
     1
102
RTVSPropertyOp36
 70
     1
102
RTVSPropertyOp37
 70
     1
102
RTVSPropertyOp38
 70
     1
102
RTVSPropertyOp39
 70
     1
102
RTVSPropertyOp40
 70
     1
102
RTVSPropertyOp41
 70
     1
102
RTVSPropertyOp42
 70
     1
102
RTVSPropertyOp43
 70
     1
102
RTVSPropertyOp44
 70
     1
102
RTVSPropertyOp45
 70
     1
102
RTVSPropertyOp46
 70
     1
102
RTVSPropertyOp47
 70
     1
102
RTVSPropertyOp48
 70
     1
102
RTVSPropertyOp49
 70
     1
102
RTVSPropertyOp50
 70
     1
102
RTVSPropertyOp51
 70
     0
102
RTVSPropertyOp52
 70
     0
102
RTVSPropertyOp53
 70
     1
102
RTVSPropertyOp54
 70
     1
102
RTVSPropertyOp55
 70
     1
102
RTVSPropertyOp56
 70
     1
102
RTVSPropertyOp57
 70
     1
102
RTVSPropertyOp58
 70
     1
102
RTVSPropertyOp59
 70
     1
102
RTVSPropertyOp60
 70
     1
102
RTVSPropertyOp61
 70
     1
102
RTVSPropertyOp62
 70
     1
  0
XRECORD
  5
30BFF
102
{ACAD_REACTORS
330
30BFE
102
}
330
30BFE
100
AcDbXrecord
280
     1
102
RTVSPost2010Prop28
280
     0
102
RTVSPost2010PropOp28
 70
     1
102
RTVSPost2010Prop29
280
     1
102
RTVSPost2010PropOp29
 70
     1
102
RTVSPost2010Prop30
280
     1
102
RTVSPost2010PropOp30
 70
     1
102
RTVSPost2010Prop31
280
     0
102
RTVSPost2010PropOp31
 70
     1
102
RTVSPost2010Prop32
280
     0
102
RTVSPost2010PropOp32
 70
     1
102
RTVSPost2010Prop33
280
     0
102
RTVSPost2010PropOp33
 70
     1
102
RTVSPost2010Prop34
280
     0
102
RTVSPost2010PropOp34
 70
     1
102
RTVSPost2010Prop35
280
     0
102
RTVSPost2010PropOp35
 70
     1
102
RTVSPost2010Prop36
280
     0
102
RTVSPost2010PropOp36
 70
     1
102
RTVSPost2010Prop37
 90
       50
102
RTVSPost2010PropOp37
 70
     1
102
RTVSPost2010Prop38
140
0.0
102
RTVSPost2010PropOp38
 70
     1
102
RTVSPost2010Prop39
140
1.0
102
RTVSPost2010PropOp39
 70
     1
102
RTVSPost2010Prop40
 90
        0
102
RTVSPost2010PropOp40
 70
     1
102
RTVSPost2010Prop41ColorIndex
 90
       18
102
RTVSPost2010Prop41ColorRGB
 90
        0
102
RTVSPost2010PropOp41
 70
     1
102
RTVSPost2010Prop42
 90
       50
102
RTVSPost2010PropOp42
 70
     1
102
RTVSPost2010Prop43
 90
        3
102
RTVSPost2010PropOp43
 70
     1
102
RTVSPost2010Prop44ColorIndex
 90
        5
102
RTVSPost2010Prop44ColorRGB
 90
      255
102
RTVSPost2010PropOp44
 70
     1
102
RTVSPost2010Prop45
280
     0
102
RTVSPost2010PropOp45
 70
     1
102
RTVSPost2010Prop46
 90
       50
102
RTVSPost2010PropOp46
 70
     1
102
RTVSPost2010Prop47
 90
       50
102
RTVSPost2010PropOp47
 70
     1
102
RTVSPost2010Prop48
 90
       50
102
RTVSPost2010PropOp48
 70
     1
102
RTVSPost2010Prop49
280
     0
102
RTVSPost2010PropOp49
 70
     1
102
RTVSPost2010Prop50
 90
       50
102
RTVSPost2010PropOp50
 70
     1
102
RTVSPost2010Prop51ColorIndex
 90
      256
102
RTVSPost2010Prop51ColorRGB
 90
-16777216
102
RTVSPost2010PropOp51
 70
     0
102
RTVSPost2010Prop52
140
1.0
102
RTVSPost2010PropOp52
 70
     0
102
RTVSPost2010Prop53
 90
        2
102
RTVSPost2010PropOp53
 70
     1
102
RTVSPost2010Prop54
  1
strokes_ogs.tif
102
RTVSPost2010PropOp54
 70
     1
102
RTVSPost2010Prop55
280
     0
102
RTVSPost2010PropOp55
 70
     1
102
RTVSPost2010Prop56
140
1.0
102
RTVSPost2010PropOp56
 70
     1
102
RTVSPost2010Prop57
140
1.0
102
RTVSPost2010PropOp57
 70
     1
102
RTVSPropertyOp0
 70
     1
102
RTVSPropertyOp1
 70
     1
102
RTVSPropertyOp2
 70
     1
102
RTVSPropertyOp3
 70
     1
102
RTVSPropertyOp4
 70
     1
102
RTVSPropertyOp5
 70
     1
102
RTVSPropertyOp6
 70
     1
102
RTVSPropertyOp7
 70
     1
102
RTVSPropertyOp8
 70
     1
102
RTVSPropertyOp9
 70
     1
102
RTVSPropertyOp10
 70
     1
102
RTVSPropertyOp11
 70
     1
102
RTVSPropertyOp12
 70
     1
102
RTVSPropertyOp13
 70
     1
102
RTVSPropertyOp14
 70
     1
102
RTVSPropertyOp15
 70
     1
102
RTVSPropertyOp16
 70
     1
102
RTVSPropertyOp17
 70
     1
102
RTVSPropertyOp18
 70
     1
102
RTVSPropertyOp19
 70
     1
102
RTVSPropertyOp20
 70
     1
102
RTVSPropertyOp21
 70
     1
102
RTVSPropertyOp22
 70
     1
102
RTVSPropertyOp23
 70
     1
102
RTVSPropertyOp24
 70
     1
102
RTVSPropertyOp25
 70
     1
102
RTVSPropertyOp26
 70
     1
102
RTVSPropertyOp27
 70
     1
102
RTVSPropertyOp28
 70
     1
102
RTVSPropertyOp29
 70
     1
102
RTVSPropertyOp30
 70
     1
102
RTVSPropertyOp31
 70
     1
102
RTVSPropertyOp32
 70
     1
102
RTVSPropertyOp33
 70
     1
102
RTVSPropertyOp34
 70
     1
102
RTVSPropertyOp35
 70
     1
102
RTVSPropertyOp36
 70
     1
102
RTVSPropertyOp37
 70
     1
102
RTVSPropertyOp38
 70
     1
102
RTVSPropertyOp39
 70
     1
102
RTVSPropertyOp40
 70
     1
102
RTVSPropertyOp41
 70
     1
102
RTVSPropertyOp42
 70
     1
102
RTVSPropertyOp43
 70
     1
102
RTVSPropertyOp44
 70
     1
102
RTVSPropertyOp45
 70
     1
102
RTVSPropertyOp46
 70
     1
102
RTVSPropertyOp47
 70
     1
102
RTVSPropertyOp48
 70
     1
102
RTVSPropertyOp49
 70
     1
102
RTVSPropertyOp50
 70
     1
102
RTVSPropertyOp51
 70
     0
102
RTVSPropertyOp52
 70
     0
102
RTVSPropertyOp53
 70
     1
102
RTVSPropertyOp54
 70
     1
102
RTVSPropertyOp55
 70
     1
102
RTVSPropertyOp56
 70
     1
102
RTVSPropertyOp57
 70
     1
102
RTVSPropertyOp58
 70
     1
102
RTVSPropertyOp59
 70
     1
102
RTVSPropertyOp60
 70
     1
102
RTVSPropertyOp61
 70
     1
102
RTVSPropertyOp62
 70
     1
  0
XRECORD
  5
30C17
102
{ACAD_REACTORS
330
30C16
102
}
330
30C16
100
AcDbXrecord
280
     1
102
RTVSPost2010Prop28
280
     0
102
RTVSPost2010PropOp28
 70
     1
102
RTVSPost2010Prop29
280
     1
102
RTVSPost2010PropOp29
 70
     1
102
RTVSPost2010Prop30
280
     1
102
RTVSPost2010PropOp30
 70
     1
102
RTVSPost2010Prop31
280
     0
102
RTVSPost2010PropOp31
 70
     1
102
RTVSPost2010Prop32
280
     0
102
RTVSPost2010PropOp32
 70
     1
102
RTVSPost2010Prop33
280
     0
102
RTVSPost2010PropOp33
 70
     1
102
RTVSPost2010Prop34
280
     0
102
RTVSPost2010PropOp34
 70
     1
102
RTVSPost2010Prop35
280
     0
102
RTVSPost2010PropOp35
 70
     1
102
RTVSPost2010Prop36
280
     0
102
RTVSPost2010PropOp36
 70
     1
102
RTVSPost2010Prop37
 90
       50
102
RTVSPost2010PropOp37
 70
     1
102
RTVSPost2010Prop38
140
0.0
102
RTVSPost2010PropOp38
 70
     1
102
RTVSPost2010Prop39
140
1.0
102
RTVSPost2010PropOp39
 70
     1
102
RTVSPost2010Prop40
 90
        0
102
RTVSPost2010PropOp40
 70
     1
102
RTVSPost2010Prop41ColorIndex
 90
       18
102
RTVSPost2010Prop41ColorRGB
 90
        0
102
RTVSPost2010PropOp41
 70
     1
102
RTVSPost2010Prop42
 90
       50
102
RTVSPost2010PropOp42
 70
     1
102
RTVSPost2010Prop43
 90
        3
102
RTVSPost2010PropOp43
 70
     1
102
RTVSPost2010Prop44ColorIndex
 90
        5
102
RTVSPost2010Prop44ColorRGB
 90
      255
102
RTVSPost2010PropOp44
 70
     1
102
RTVSPost2010Prop45
280
     0
102
RTVSPost2010PropOp45
 70
     1
102
RTVSPost2010Prop46
 90
       50
102
RTVSPost2010PropOp46
 70
     1
102
RTVSPost2010Prop47
 90
       50
102
RTVSPost2010PropOp47
 70
     1
102
RTVSPost2010Prop48
 90
       50
102
RTVSPost2010PropOp48
 70
     1
102
RTVSPost2010Prop49
280
     0
102
RTVSPost2010PropOp49
 70
     1
102
RTVSPost2010Prop50
 90
       50
102
RTVSPost2010PropOp50
 70
     1
102
RTVSPost2010Prop51ColorIndex
 90
      256
102
RTVSPost2010Prop51ColorRGB
 90
-16777216
102
RTVSPost2010PropOp51
 70
     0
102
RTVSPost2010Prop52
140
1.0
102
RTVSPost2010PropOp52
 70
     0
102
RTVSPost2010Prop53
 90
        2
102
RTVSPost2010PropOp53
 70
     1
102
RTVSPost2010Prop54
  1
strokes_ogs.tif
102
RTVSPost2010PropOp54
 70
     1
102
RTVSPost2010Prop55
280
     0
102
RTVSPost2010PropOp55
 70
     1
102
RTVSPost2010Prop56
140
1.0
102
RTVSPost2010PropOp56
 70
     1
102
RTVSPost2010Prop57
140
1.0
102
RTVSPost2010PropOp57
 70
     1
102
RTVSPropertyOp0
 70
     1
102
RTVSPropertyOp1
 70
     1
102
RTVSPropertyOp2
 70
     1
102
RTVSPropertyOp3
 70
     1
102
RTVSPropertyOp4
 70
     1
102
RTVSPropertyOp5
 70
     1
102
RTVSPropertyOp6
 70
     1
102
RTVSPropertyOp7
 70
     1
102
RTVSPropertyOp8
 70
     1
102
RTVSPropertyOp9
 70
     1
102
RTVSPropertyOp10
 70
     1
102
RTVSPropertyOp11
 70
     1
102
RTVSPropertyOp12
 70
     1
102
RTVSPropertyOp13
 70
     1
102
RTVSPropertyOp14
 70
     1
102
RTVSPropertyOp15
 70
     1
102
RTVSPropertyOp16
 70
     1
102
RTVSPropertyOp17
 70
     1
102
RTVSPropertyOp18
 70
     1
102
RTVSPropertyOp19
 70
     1
102
RTVSPropertyOp20
 70
     1
102
RTVSPropertyOp21
 70
     1
102
RTVSPropertyOp22
 70
     1
102
RTVSPropertyOp23
 70
     1
102
RTVSPropertyOp24
 70
     1
102
RTVSPropertyOp25
 70
     1
102
RTVSPropertyOp26
 70
     1
102
RTVSPropertyOp27
 70
     1
102
RTVSPropertyOp28
 70
     1
102
RTVSPropertyOp29
 70
     1
102
RTVSPropertyOp30
 70
     1
102
RTVSPropertyOp31
 70
     1
102
RTVSPropertyOp32
 70
     1
102
RTVSPropertyOp33
 70
     1
102
RTVSPropertyOp34
 70
     1
102
RTVSPropertyOp35
 70
     1
102
RTVSPropertyOp36
 70
     1
102
RTVSPropertyOp37
 70
     1
102
RTVSPropertyOp38
 70
     1
102
RTVSPropertyOp39
 70
     1
102
RTVSPropertyOp40
 70
     1
102
RTVSPropertyOp41
 70
     1
102
RTVSPropertyOp42
 70
     1
102
RTVSPropertyOp43
 70
     1
102
RTVSPropertyOp44
 70
     1
102
RTVSPropertyOp45
 70
     1
102
RTVSPropertyOp46
 70
     1
102
RTVSPropertyOp47
 70
     1
102
RTVSPropertyOp48
 70
     1
102
RTVSPropertyOp49
 70
     1
102
RTVSPropertyOp50
 70
     1
102
RTVSPropertyOp51
 70
     0
102
RTVSPropertyOp52
 70
     0
102
RTVSPropertyOp53
 70
     1
102
RTVSPropertyOp54
 70
     1
102
RTVSPropertyOp55
 70
     1
102
RTVSPropertyOp56
 70
     1
102
RTVSPropertyOp57
 70
     1
102
RTVSPropertyOp58
 70
     1
102
RTVSPropertyOp59
 70
     1
102
RTVSPropertyOp60
 70
     1
102
RTVSPropertyOp61
 70
     1
102
RTVSPropertyOp62
 70
     1
  0
ENDSEC
  0
EOF
