  0
SECTION
  2
HEADER
  9
$ACADVER
  1
AC1015
  9
$ACADMAINTVER
 70
    13
  9
$DWGCODEPAGE
  3
ANSI_932
  9
$INSBASE
 10
0.0
 20
0.0
 30
0.0
  9
$EXTMIN
 10
146.6002771105778
 20
47.99244600467488
 30
0.0
  9
$EXTMAX
 10
22727.05794915526
 20
25127.94847079478
 30
0.0
  9
$LIMMIN
 10
0.0
 20
0.0
  9
$LIMMAX
 10
420.0
 20
297.0
  9
$ORTHOMODE
 70
     1
  9
$REGENMODE
 70
     1
  9
$FILLMODE
 70
     1
  9
$QTEXTMODE
 70
     0
  9
$MIRRTEXT
 70
     1
  9
$LTSCALE
 40
1.0
  9
$ATTMODE
 70
     1
  9
$TEXTSIZE
 40
2.5
  9
$TRACEWID
 40
1.0
  9
$TEXTSTYLE
  7
Standard
  9
$CLAYER
  8
0
  9
$CELTYPE
  6
ByLayer
  9
$CECOLOR
 62
   256
  9
$CELTSCALE
 40
1.0
  9
$DISPSILH
 70
     0
  9
$DIMSCALE
 40
1.0
  9
$DIMASZ
 40
2.5
  9
$DIMEXO
 40
0.625
  9
$DIMDLI
 40
3.75
  9
$DIMRND
 40
0.0
  9
$DIMDLE
 40
0.0
  9
$DIMEXE
 40
1.25
  9
$DIMTP
 40
0.0
  9
$DIMTM
 40
0.0
  9
$DIMTXT
 40
2.5
  9
$DIMCEN
 40
2.5
  9
$DIMTSZ
 40
0.0
  9
$DIMTOL
 70
     0
  9
$DIMLIM
 70
     0
  9
$DIMTIH
 70
     0
  9
$DIMTOH
 70
     0
  9
$DIMSE1
 70
     0
  9
$DIMSE2
 70
     0
  9
$DIMTAD
 70
     1
  9
$DIMZIN
 70
     8
  9
$DIMBLK
  1

  9
$DIMASO
 70
     1
  9
$DIMSHO
 70
     1
  9
$DIMPOST
  1

  9
$DIMAPOST
  1

  9
$DIMALT
 70
     0
  9
$DIMALTD
 70
     3
  9
$DIMALTF
 40
0.03937007874016
  9
$DIMLFAC
 40
1.0
  9
$DIMTOFL
 70
     1
  9
$DIMTVP
 40
0.0
  9
$DIMTIX
 70
     0
  9
$DIMSOXD
 70
     0
  9
$DIMSAH
 70
     0
  9
$DIMBLK1
  1

  9
$DIMBLK2
  1

  9
$DIMSTYLE
  2
ISO-25
  9
$DIMCLRD
 70
     0
  9
$DIMCLRE
 70
     0
  9
$DIMCLRT
 70
     0
  9
$DIMTFAC
 40
1.0
  9
$DIMGAP
 40
0.625
  9
$DIMJUST
 70
     0
  9
$DIMSD1
 70
     0
  9
$DIMSD2
 70
     0
  9
$DIMTOLJ
 70
     0
  9
$DIMTZIN
 70
     8
  9
$DIMALTZ
 70
     0
  9
$DIMALTTZ
 70
     0
  9
$DIMUPT
 70
     0
  9
$DIMDEC
 70
     2
  9
$DIMTDEC
 70
     2
  9
$DIMALTU
 70
     2
  9
$DIMALTTD
 70
     3
  9
$DIMTXSTY
  7
Standard
  9
$DIMAUNIT
 70
     0
  9
$DIMADEC
 70
     0
  9
$DIMALTRND
 40
0.0
  9
$DIMAZIN
 70
     0
  9
$DIMDSEP
 70
    46
  9
$DIMATFIT
 70
     3
  9
$DIMFRAC
 70
     0
  9
$DIMLDRBLK
  1

  9
$DIMLUNIT
 70
     2
  9
$DIMLWD
 70
    -2
  9
$DIMLWE
 70
    -2
  9
$DIMTMOVE
 70
     0
  9
$LUNITS
 70
     2
  9
$LUPREC
 70
     4
  9
$SKETCHINC
 40
1.0
  9
$FILLETRAD
 40
10.0
  9
$AUNITS
 70
     0
  9
$AUPREC
 70
     0
  9
$MENU
  1
.
  9
$ELEVATION
 40
0.0
  9
$PELEVATION
 40
0.0
  9
$THICKNESS
 40
0.0
  9
$LIMCHECK
 70
     0
  9
$CHAMFERA
 40
10.0
  9
$CHAMFERB
 40
10.0
  9
$CHAMFERC
 40
20.0
  9
$CHAMFERD
 40
0.0
  9
$SKPOLY
 70
     0
  9
$TDCREATE
 40
2456869.562836620
  9
$TDUCREATE
 40
2456869.187836620
  9
$TDUPDATE
 40
2456895.471470995
  9
$TDUUPDATE
 40
2456895.096470995
  9
$TDINDWG
 40
0.0047237963
  9
$TDUSRTIMER
 40
0.0047232639
  9
$USRTIMER
 70
     1
  9
$ANGBASE
 50
0.0
  9
$ANGDIR
 70
     0
  9
$PDMODE
 70
     0
  9
$PDSIZE
 40
0.0
  9
$PLINEWID
 40
0.0
  9
$SPLFRAME
 70
     0
  9
$SPLINETYPE
 70
     6
  9
$SPLINESEGS
 70
     8
  9
$HANDSEED
  5
274
  9
$SURFTAB1
 70
     6
  9
$SURFTAB2
 70
     6
  9
$SURFTYPE
 70
     6
  9
$SURFU
 70
     6
  9
$SURFV
 70
     6
  9
$UCSBASE
  2

  9
$UCSNAME
  2

  9
$UCSORG
 10
0.0
 20
0.0
 30
0.0
  9
$UCSXDIR
 10
1.0
 20
0.0
 30
0.0
  9
$UCSYDIR
 10
0.0
 20
1.0
 30
0.0
  9
$UCSORTHOREF
  2

  9
$UCSORTHOVIEW
 70
     0
  9
$UCSORGTOP
 10
0.0
 20
0.0
 30
0.0
  9
$UCSORGBOTTOM
 10
0.0
 20
0.0
 30
0.0
  9
$UCSORGLEFT
 10
0.0
 20
0.0
 30
0.0
  9
$UCSORGRIGHT
 10
0.0
 20
0.0
 30
0.0
  9
$UCSORGFRONT
 10
0.0
 20
0.0
 30
0.0
  9
$UCSORGBACK
 10
0.0
 20
0.0
 30
0.0
  9
$PUCSBASE
  2

  9
$PUCSNAME
  2

  9
$PUCSORG
 10
0.0
 20
0.0
 30
0.0
  9
$PUCSXDIR
 10
1.0
 20
0.0
 30
0.0
  9
$PUCSYDIR
 10
0.0
 20
1.0
 30
0.0
  9
$PUCSORTHOREF
  2

  9
$PUCSORTHOVIEW
 70
     0
  9
$PUCSORGTOP
 10
0.0
 20
0.0
 30
0.0
  9
$PUCSORGBOTTOM
 10
0.0
 20
0.0
 30
0.0
  9
$PUCSORGLEFT
 10
0.0
 20
0.0
 30
0.0
  9
$PUCSORGRIGHT
 10
0.0
 20
0.0
 30
0.0
  9
$PUCSORGFRONT
 10
0.0
 20
0.0
 30
0.0
  9
$PUCSORGBACK
 10
0.0
 20
0.0
 30
0.0
  9
$USERI1
 70
     0
  9
$USERI2
 70
     0
  9
$USERI3
 70
     0
  9
$USERI4
 70
     0
  9
$USERI5
 70
     0
  9
$USERR1
 40
0.0
  9
$USERR2
 40
0.0
  9
$USERR3
 40
0.0
  9
$USERR4
 40
0.0
  9
$USERR5
 40
0.0
  9
$WORLDVIEW
 70
     1
  9
$SHADEDGE
 70
     3
  9
$SHADEDIF
 70
    70
  9
$TILEMODE
 70
     1
  9
$MAXACTVP
 70
    64
  9
$PINSBASE
 10
0.0
 20
0.0
 30
0.0
  9
$PLIMCHECK
 70
     0
  9
$PEXTMIN
 10
1.000000000000000E+20
 20
1.000000000000000E+20
 30
1.000000000000000E+20
  9
$PEXTMAX
 10
-1.000000000000000E+20
 20
-1.000000000000000E+20
 30
-1.000000000000000E+20
  9
$PLIMMIN
 10
0.0
 20
0.0
  9
$PLIMMAX
 10
420.0
 20
297.0
  9
$UNITMODE
 70
     0
  9
$VISRETAIN
 70
     1
  9
$PLINEGEN
 70
     0
  9
$PSLTSCALE
 70
     1
  9
$TREEDEPTH
 70
  3020
  9
$CMLSTYLE
  2
Standard
  9
$CMLJUST
 70
     0
  9
$CMLSCALE
 40
20.0
  9
$PROXYGRAPHICS
 70
     1
  9
$MEASUREMENT
 70
     1
  9
$CELWEIGHT
370
    -1
  9
$ENDCAPS
280
     0
  9
$JOINSTYLE
280
     0
  9
$LWDISPLAY
290
     0
  9
$INSUNITS
 70
     4
  9
$HYPERLINKBASE
  1

  9
$STYLESHEET
  1

  9
$XEDIT
290
     1
  9
$CEPSNTYPE
380
     0
  9
$PSTYLEMODE
290
     1
  9
$FINGERPRINTGUID
  2
{0EF10A23-BF7E-4493-8EB2-1731DEE33FF5}
  9
$VERSIONGUID
  2
{C88EDB29-9B12-4407-91A0-6DD9947A2BD8}
  9
$EXTNAMES
290
     1
  9
$PSVPSCALE
 40
0.0
  9
$OLESTARTUP
290
     0
  0
ENDSEC
  0
SECTION
  2
CLASSES
  0
CLASS
  1
ACDBDICTIONARYWDFLT
  2
AcDbDictionaryWithDefault
  3
AutoCAD 2000
 90
        0
280
     0
281
     0
  0
CLASS
  1
ACDBPLACEHOLDER
  2
AcDbPlaceHolder
  3
AutoCAD 2000
 90
        0
280
     0
281
     0
  0
CLASS
  1
LAYOUT
  2
AcDbLayout
  3
AutoCAD 2000
 90
        0
280
     0
281
     0
  0
CLASS
  1
DICTIONARYVAR
  2
AcDbDictionaryVar
  3
AutoCAD 2000
 90
        0
280
     0
281
     0
  0
ENDSEC
  0
SECTION
  2
TABLES
  0
TABLE
  2
VPORT
  5
8
330
0
100
AcDbSymbolTable
 70
     2
  0
VPORT
  5
273
330
8
100
AcDbSymbolTableRecord
100
AcDbViewportTableRecord
  2
*Active
 70
     0
 10
0.0
 20
0.0
 11
1.0
 21
1.0
 12
15875.96709378313
 22
11133.93691051081
 13
0.0
 23
0.0
 14
10.0
 24
10.0
 15
10.0
 25
10.0
 16
0.0
 26
0.0
 36
1.0
 17
0.0
 27
0.0
 37
0.0
 40
40566.83563253043
 41
1.527918781725888
 42
50.0
 43
0.0
 44
0.0
 50
0.0
 51
0.0
 71
     0
 72
   100
 73
     1
 74
     3
 75
     0
 76
     0
 77
     0
 78
     0
281
     0
 65
     1
110
0.0
120
0.0
130
0.0
111
1.0
121
0.0
131
0.0
112
0.0
122
1.0
132
0.0
 79
     0
146
0.0
  0
ENDTAB
  0
TABLE
  2
LTYPE
  5
5
330
0
100
AcDbSymbolTable
 70
     1
  0
LTYPE
  5
14
330
5
100
AcDbSymbolTableRecord
100
AcDbLinetypeTableRecord
  2
ByBlock
 70
     0
  3

 72
    65
 73
     0
 40
0.0
  0
LTYPE
  5
15
330
5
100
AcDbSymbolTableRecord
100
AcDbLinetypeTableRecord
  2
ByLayer
 70
     0
  3

 72
    65
 73
     0
 40
0.0
  0
LTYPE
  5
16
330
5
100
AcDbSymbolTableRecord
100
AcDbLinetypeTableRecord
  2
Continuous
 70
     0
  3
Solid line
 72
    65
 73
     0
 40
0.0
  0
ENDTAB
  0
TABLE
  2
LAYER
  5
2
102
{ACAD_XDICTIONARY
360
A4
102
}
330
0
100
AcDbSymbolTable
 70
     4
  0
LAYER
  5
10
330
2
100
AcDbSymbolTableRecord
100
AcDbLayerTableRecord
  2
0
 70
     0
 62
     7
  6
Continuous
370
    -3
390
F
  0
LAYER
  5
9F
330
2
100
AcDbSymbolTableRecord
100
AcDbLayerTableRecord
  2
1
 70
     0
 62
     7
  6
Continuous
370
    -3
390
F
  0
LAYER
  5
A0
330
2
100
AcDbSymbolTableRecord
100
AcDbLayerTableRecord
  2
DEFPOINTS
 70
     0
 62
     7
  6
Continuous
290
     0
370
    -3
390
F
  0
LAYER
  5
25E
330
2
100
AcDbSymbolTableRecord
100
AcDbLayerTableRecord
  2
6
 70
     0
 62
   135
  6
Continuous
370
    -3
390
F
  0
ENDTAB
  0
TABLE
  2
STYLE
  5
3
330
0
100
AcDbSymbolTable
 70
     2
  0
STYLE
  5
11
330
3
100
AcDbSymbolTableRecord
100
AcDbTextStyleTableRecord
  2
Standard
 70
     0
 40
0.0
 41
1.0
 50
0.0
 71
     0
 42
2.5
  3
txt
  4

  0
STYLE
  5
A1
330
3
100
AcDbSymbolTableRecord
100
AcDbTextStyleTableRecord
  2
KANJI
 70
     0
 40
0.0
 41
1.0
 50
0.0
 71
     0
 42
0.2
  3
TXT
  4
BIGFONT
  0
ENDTAB
  0
TABLE
  2
VIEW
  5
6
330
0
100
AcDbSymbolTable
 70
     0
  0
ENDTAB
  0
TABLE
  2
UCS
  5
7
330
0
100
AcDbSymbolTable
 70
     0
  0
ENDTAB
  0
TABLE
  2
APPID
  5
9
330
0
100
AcDbSymbolTable
 70
     2
  0
APPID
  5
12
330
9
100
AcDbSymbolTableRecord
100
AcDbRegAppTableRecord
  2
ACAD
 70
     0
  0
APPID
  5
A3
330
9
100
AcDbSymbolTableRecord
100
AcDbRegAppTableRecord
  2
ACAD_PSEXT
 70
     0
  0
ENDTAB
  0
TABLE
  2
DIMSTYLE
  5
A
330
0
100
AcDbSymbolTable
 70
     2
100
AcDbDimStyleTable
 71
     0
  0
DIMSTYLE
105
27
330
A
100
AcDbSymbolTableRecord
100
AcDbDimStyleTableRecord
  2
ISO-25
 70
     0
 41
2.5
 42
0.625
 43
3.75
 44
1.25
 73
     0
 74
     0
 77
     1
 78
     8
140
2.5
141
2.5
143
0.03937007874016
147
0.625
171
     3
172
     1
271
     2
272
     2
274
     3
283
     0
284
     8
340
11
  0
DIMSTYLE
105
A2
102
{ACAD_REACTORS
330
136
330
13C
330
13D
330
140
330
143
330
162
330
167
330
168
330
18A
102
}
330
A
100
AcDbSymbolTableRecord
100
AcDbDimStyleTableRecord
  2
Standard
 70
     0
340
11
  0
ENDTAB
  0
TABLE
  2
BLOCK_RECORD
  5
1
330
0
100
AcDbSymbolTable
 70
    11
  0
BLOCK_RECORD
  5
1F
330
1
100
AcDbSymbolTableRecord
100
AcDbBlockTableRecord
  2
*Model_Space
340
22
  0
BLOCK_RECORD
  5
1B
330
1
100
AcDbSymbolTableRecord
100
AcDbBlockTableRecord
  2
*Paper_Space
340
1E
  0
BLOCK_RECORD
  5
23
330
1
100
AcDbSymbolTableRecord
100
AcDbBlockTableRecord
  2
*Paper_Space0
340
26
  0
BLOCK_RECORD
  5
2B
330
1
100
AcDbSymbolTableRecord
100
AcDbBlockTableRecord
  2
_OPEN30
340
0
102
{BLKREFS
331
35
331
36
331
41
331
42
331
4D
331
4E
331
5A
331
5B
331
67
331
68
331
73
331
74
331
7F
331
80
331
8B
331
8C
331
97
331
98
331
200
331
201
331
209
331
20A
331
212
331
213
331
21C
331
21D
331
226
331
227
331
22F
331
230
331
238
331
239
331
241
331
242
331
24A
331
24B
102
}
  0
BLOCK_RECORD
  5
18F
330
1
100
AcDbSymbolTableRecord
100
AcDbBlockTableRecord
  2
*D2
340
0
  0
BLOCK_RECORD
  5
19B
330
1
100
AcDbSymbolTableRecord
100
AcDbBlockTableRecord
  2
*D3
340
0
  0
BLOCK_RECORD
  5
1A7
330
1
100
AcDbSymbolTableRecord
100
AcDbBlockTableRecord
  2
*D4
340
0
  0
BLOCK_RECORD
  5
1B3
330
1
100
AcDbSymbolTableRecord
100
AcDbBlockTableRecord
  2
*D5
340
0
  0
BLOCK_RECORD
  5
1C0
330
1
100
AcDbSymbolTableRecord
100
AcDbBlockTableRecord
  2
*D6
340
0
  0
BLOCK_RECORD
  5
1CD
330
1
100
AcDbSymbolTableRecord
100
AcDbBlockTableRecord
  2
*D7
340
0
  0
BLOCK_RECORD
  5
1D9
330
1
100
AcDbSymbolTableRecord
100
AcDbBlockTableRecord
  2
*D8
340
0
  0
BLOCK_RECORD
  5
1E5
330
1
100
AcDbSymbolTableRecord
100
AcDbBlockTableRecord
  2
*D9
340
0
  0
BLOCK_RECORD
  5
1F1
330
1
100
AcDbSymbolTableRecord
100
AcDbBlockTableRecord
  2
*D10
340
0
  0
ENDTAB
  0
ENDSEC
  0
SECTION
  2
BLOCKS
  0
BLOCK
  5
20
330
1F
100
AcDbEntity
  8
0
100
AcDbBlockBegin
  2
*Model_Space
 70
     0
 10
0.0
 20
0.0
 30
0.0
  3
*Model_Space
  1

  0
ENDBLK
  5
21
330
1F
100
AcDbEntity
  8
0
100
AcDbBlockEnd
  0
BLOCK
  5
1C
330
1B
100
AcDbEntity
 67
     1
  8
0
100
AcDbBlockBegin
  2
*Paper_Space
 70
     0
 10
0.0
 20
0.0
 30
0.0
  3
*Paper_Space
  1

  0
ENDBLK
  5
1D
330
1B
100
AcDbEntity
 67
     1
  8
0
100
AcDbBlockEnd
  0
BLOCK
  5
24
330
23
100
AcDbEntity
  8
0
100
AcDbBlockBegin
  2
*Paper_Space0
 70
     0
 10
0.0
 20
0.0
 30
0.0
  3
*Paper_Space0
  1

  0
ENDBLK
  5
25
330
23
100
AcDbEntity
  8
0
100
AcDbBlockEnd
  0
BLOCK
  5
2F
330
2B
100
AcDbEntity
  8
0
 62
     0
100
AcDbBlockBegin
  2
_OPEN30
 70
     2
 10
0.0
 20
0.0
 30
0.0
  3
_OPEN30
  1

  0
LINE
  5
2C
330
2B
100
AcDbEntity
  8
0
  6
ByBlock
 62
     0
100
AcDbLine
 10
-1.0
 20
0.267949
 30
0.0
 11
0.0
 21
0.0
 31
0.0
  0
LINE
  5
2D
330
2B
100
AcDbEntity
  8
0
  6
ByBlock
 62
     0
100
AcDbLine
 10
0.0
 20
0.0
 30
0.0
 11
-1.0
 21
-0.267949
 31
0.0
  0
LINE
  5
2E
330
2B
100
AcDbEntity
  8
0
  6
ByBlock
 62
     0
100
AcDbLine
 10
0.0
 20
0.0
 30
0.0
 11
-1.0
 21
0.0
 31
0.0
  0
ENDBLK
  5
30
330
2B
100
AcDbEntity
  8
0
 62
     0
100
AcDbBlockEnd
  0
BLOCK
  5
199
330
18F
100
AcDbEntity
  8
0
100
AcDbBlockBegin
  2
*D2
 70
     1
 10
0.0
 20
0.0
 30
0.0
  3
*D2
  1

  0
LINE
  5
1FD
330
18F
100
AcDbEntity
  8
1
  6
Continuous
 62
     0
370
    -2
100
AcDbLine
 10
10643.22950778771
 20
12947.49991957112
 30
0.0
 11
10689.9041925398
 21
12947.49991957112
 31
0.0
  0
LINE
  5
1FE
330
18F
100
AcDbEntity
  8
1
  6
Continuous
 62
     0
370
    -2
100
AcDbLine
 10
10643.22950778771
 20
17987.49991957111
 30
0.0
 11
10689.9041925398
 21
17987.49991957111
 31
0.0
  0
LINE
  5
1FF
330
18F
100
AcDbEntity
  8
1
  6
Continuous
 62
     0
370
    -2
100
AcDbLine
 10
10689.7241925398
 20
13447.49991957112
 30
0.0
 11
10689.7241925398
 21
17487.49991957111
 31
0.0
  0
INSERT
  5
200
330
18F
100
AcDbEntity
  8
1
  6
Continuous
 62
     0
370
    -2
100
AcDbBlockReference
  2
_OPEN30
 10
10689.7241925398
 20
12947.49991957112
 30
0.0
 41
500.0
 42
500.0
 43
500.0
 50
270.0
  0
INSERT
  5
201
330
18F
100
AcDbEntity
  8
1
  6
Continuous
 62
     0
370
    -2
100
AcDbBlockReference
  2
_OPEN30
 10
10689.7241925398
 20
17987.49991957111
 30
0.0
 41
500.0
 42
500.0
 43
500.0
 50
90.0
  0
MTEXT
  5
202
330
18F
100
AcDbEntity
  8
1
  6
Continuous
 62
     0
370
    13
100
AcDbMText
 10
10439.72419253978
 20
15467.4999195711
 30
0.0
 40
400.0
 41
0.0
 71
     5
 72
     1
  1
\A1;70
 11
0.0000000000000001
 21
1.0
 31
0.0
 73
     1
 44
1.0
  0
POINT
  5
203
330
18F
100
AcDbEntity
  8
DEFPOINTS
  6
Continuous
 62
     0
100
AcDbPoint
 10
10643.16700778771
 20
12947.49991957112
 30
0.0
  0
POINT
  5
204
330
18F
100
AcDbEntity
  8
DEFPOINTS
  6
Continuous
 62
     0
100
AcDbPoint
 10
10643.16700778771
 20
17987.49991957111
 30
0.0
  0
POINT
  5
205
330
18F
100
AcDbEntity
  8
DEFPOINTS
  6
Continuous
 62
     0
100
AcDbPoint
 10
10689.7241925398
 20
17987.49991957111
 30
0.0
  0
ENDBLK
  5
19A
330
18F
100
AcDbEntity
  8
0
100
AcDbBlockEnd
  0
BLOCK
  5
1A5
330
19B
100
AcDbEntity
  8
0
100
AcDbBlockBegin
  2
*D3
 70
     1
 10
0.0
 20
0.0
 30
0.0
  3
*D3
  1

  0
LINE
  5
206
330
19B
100
AcDbEntity
  8
1
  6
Continuous
 62
     0
370
    -2
100
AcDbLine
 10
11543.22950778772
 20
20147.49991957111
 30
0.0
 11
12839.34700778773
 21
20147.49991957111
 31
0.0
  0
LINE
  5
207
330
19B
100
AcDbEntity
  8
1
  6
Continuous
 62
     0
370
    -2
100
AcDbLine
 10
11543.22950778772
 20
10787.49991957112
 30
0.0
 11
12839.34700778772
 21
10787.49991957111
 31
0.0
  0
LINE
  5
208
330
19B
100
AcDbEntity
  8
1
  6
Continuous
 62
     0
370
    -2
100
AcDbLine
 10
12839.16700778773
 20
19647.49991957111
 30
0.0
 11
12839.16700778771
 21
11287.49991957112
 31
0.0
  0
INSERT
  5
209
330
19B
100
AcDbEntity
  8
1
  6
Continuous
 62
     0
370
    -2
100
AcDbBlockReference
  2
_OPEN30
 10
12839.16700778773
 20
20147.49991957111
 30
0.0
 41
500.0
 42
500.0
 43
500.0
 50
90.0
  0
INSERT
  5
20A
330
19B
100
AcDbEntity
  8
1
  6
Continuous
 62
     0
370
    -2
100
AcDbBlockReference
  2
_OPEN30
 10
12839.16700778771
 20
10787.49991957111
 30
0.0
 41
500.0
 42
500.0
 43
500.0
 50
270.0
  0
MTEXT
  5
20B
330
19B
100
AcDbEntity
  8
1
  6
Continuous
 62
     0
370
    13
100
AcDbMText
 10
12589.16700778772
 20
15467.4999195711
 30
0.0
 40
400.0
 41
0.0
 71
     5
 72
     1
  1
\A1;130
 11
0.0000000000000001
 21
1.0
 31
0.0
 73
     1
 44
1.0
  0
POINT
  5
20C
330
19B
100
AcDbEntity
  8
DEFPOINTS
  6
Continuous
 62
     0
100
AcDbPoint
 10
11543.16700778772
 20
20147.49991957111
 30
0.0
  0
POINT
  5
20D
330
19B
100
AcDbEntity
  8
DEFPOINTS
  6
Continuous
 62
     0
100
AcDbPoint
 10
11543.16700778772
 20
10787.49991957112
 30
0.0
  0
POINT
  5
20E
330
19B
100
AcDbEntity
  8
DEFPOINTS
  6
Continuous
 62
     0
100
AcDbPoint
 10
12839.16700778771
 20
10787.49991957111
 30
0.0
  0
ENDBLK
  5
1A6
330
19B
100
AcDbEntity
  8
0
100
AcDbBlockEnd
  0
BLOCK
  5
1B1
330
1A7
100
AcDbEntity
  8
0
100
AcDbBlockBegin
  2
*D4
 70
     1
 10
0.0
 20
0.0
 30
0.0
  3
*D4
  1

  0
LINE
  5
20F
330
1A7
100
AcDbEntity
  8
1
  6
Continuous
 62
     0
370
    -2
100
AcDbLine
 10
11428.02950778774
 20
11147.49991957112
 30
0.0
 11
12119.34700778771
 21
11147.49991957112
 31
0.0
  0
LINE
  5
210
330
1A7
100
AcDbEntity
  8
1
  6
Continuous
 62
     0
370
    -2
100
AcDbLine
 10
11428.02950778774
 20
19787.4999195711
 30
0.0
 11
12119.34700778771
 21
19787.4999195711
 31
0.0
  0
LINE
  5
211
330
1A7
100
AcDbEntity
  8
1
  6
Continuous
 62
     0
370
    -2
100
AcDbLine
 10
12119.16700778771
 20
11647.49991957112
 30
0.0
 11
12119.16700778771
 21
19287.49991957111
 31
0.0
  0
INSERT
  5
212
330
1A7
100
AcDbEntity
  8
1
  6
Continuous
 62
     0
370
    -2
100
AcDbBlockReference
  2
_OPEN30
 10
12119.16700778771
 20
11147.49991957112
 30
0.0
 41
500.0
 42
500.0
 43
500.0
 50
270.0
  0
INSERT
  5
213
330
1A7
100
AcDbEntity
  8
1
  6
Continuous
 62
     0
370
    -2
100
AcDbBlockReference
  2
_OPEN30
 10
12119.16700778771
 20
19787.4999195711
 30
0.0
 41
500.0
 42
500.0
 43
500.0
 50
90.0
  0
MTEXT
  5
214
330
1A7
100
AcDbEntity
  8
1
  6
Continuous
 62
     0
370
    13
100
AcDbMText
 10
11869.16700778771
 20
15467.4999195711
 30
0.0
 40
400.0
 41
0.0
 71
     5
 72
     1
  1
\A1;120
 11
0.0000000000000001
 21
1.0
 31
0.0
 73
     1
 44
1.0
  0
POINT
  5
215
330
1A7
100
AcDbEntity
  8
DEFPOINTS
  6
Continuous
 62
     0
100
AcDbPoint
 10
11427.96700778774
 20
11147.49991957112
 30
0.0
  0
POINT
  5
216
330
1A7
100
AcDbEntity
  8
DEFPOINTS
  6
Continuous
 62
     0
100
AcDbPoint
 10
11427.96700778774
 20
19787.4999195711
 30
0.0
  0
POINT
  5
217
330
1A7
100
AcDbEntity
  8
DEFPOINTS
  6
Continuous
 62
     0
100
AcDbPoint
 10
12119.16700778771
 20
19787.4999195711
 30
0.0
  0
ENDBLK
  5
1B2
330
1A7
100
AcDbEntity
  8
0
100
AcDbBlockEnd
  0
BLOCK
  5
1BE
330
1B3
100
AcDbEntity
  8
0
100
AcDbBlockBegin
  2
*D5
 70
     1
 10
0.0
 20
0.0
 30
0.0
  3
*D5
  1

  0
LINE
  5
218
330
1B3
100
AcDbEntity
  8
1
  6
Continuous
 62
     0
370
    -2
100
AcDbLine
 10
5279.167007787727
 20
10643.43741957112
 30
0.0
 11
5279.167007787727
 21
10067.31991957112
 31
0.0
  0
LINE
  5
219
330
1B3
100
AcDbEntity
  8
1
  6
Continuous
 62
     0
370
    -2
100
AcDbLine
 10
4559.167007787728
 20
10643.43741957112
 30
0.0
 11
4559.167007787728
 21
10067.31991957112
 31
0.0
  0
LINE
  5
21A
330
1B3
100
AcDbEntity
  8
1
  6
Continuous
 62
     0
370
    -2
100
AcDbLine
 10
5779.167007787727
 20
10067.49991957112
 30
0.0
 11
6279.167007787727
 21
10067.49991957112
 31
0.0
  0
LINE
  5
21B
330
1B3
100
AcDbEntity
  8
1
  6
Continuous
 62
     0
370
    -2
100
AcDbLine
 10
4059.167007787728
 20
10067.49991957112
 30
0.0
 11
3559.167007787728
 21
10067.49991957112
 31
0.0
  0
INSERT
  5
21C
330
1B3
100
AcDbEntity
  8
1
  6
Continuous
 62
     0
370
    -2
100
AcDbBlockReference
  2
_OPEN30
 10
5279.167007787727
 20
10067.49991957112
 30
0.0
 41
500.0
 42
500.0
 43
500.0
 50
180.0
  0
INSERT
  5
21D
330
1B3
100
AcDbEntity
  8
1
  6
Continuous
 62
     0
370
    -2
100
AcDbBlockReference
  2
_OPEN30
 10
4559.167007787728
 20
10067.49991957112
 30
0.0
 41
500.0
 42
500.0
 43
500.0
  0
MTEXT
  5
21E
330
1B3
100
AcDbEntity
  8
1
  6
Continuous
 62
     0
370
    13
100
AcDbMText
 10
4919.167007787728
 20
10317.49991957112
 30
0.0
 40
400.0
 41
0.0
 71
     5
 72
     1
  1
\A1;10
 73
     1
 44
1.0
  0
POINT
  5
21F
330
1B3
100
AcDbEntity
  8
DEFPOINTS
  6
Continuous
 62
     0
100
AcDbPoint
 10
5279.167007787727
 20
10643.49991957112
 30
0.0
  0
POINT
  5
220
330
1B3
100
AcDbEntity
  8
DEFPOINTS
  6
Continuous
 62
     0
100
AcDbPoint
 10
4559.167007787728
 20
10643.49991957112
 30
0.0
  0
POINT
  5
221
330
1B3
100
AcDbEntity
  8
DEFPOINTS
  6
Continuous
 62
     0
100
AcDbPoint
 10
4559.167007787728
 20
10067.49991957112
 30
0.0
  0
ENDBLK
  5
1BF
330
1B3
100
AcDbEntity
  8
0
100
AcDbBlockEnd
  0
BLOCK
  5
1CB
330
1C0
100
AcDbEntity
  8
0
100
AcDbBlockBegin
  2
*D6
 70
     1
 10
0.0
 20
0.0
 30
0.0
  3
*D6
  1

  0
LINE
  5
222
330
1C0
100
AcDbEntity
  8
1
  6
Continuous
 62
     0
370
    -2
100
AcDbLine
 10
4415.104507787726
 20
10787.49991957112
 30
0.0
 11
3838.987007787727
 21
10787.49991957112
 31
0.0
  0
LINE
  5
223
330
1C0
100
AcDbEntity
  8
1
  6
Continuous
 62
     0
370
    -2
100
AcDbLine
 10
4530.304507787739
 20
11507.49991957112
 30
0.0
 11
3838.987007787728
 21
11507.49991957112
 31
0.0
  0
LINE
  5
224
330
1C0
100
AcDbEntity
  8
1
  6
Continuous
 62
     0
370
    -2
100
AcDbLine
 10
3839.167007787727
 20
10287.49991957112
 30
0.0
 11
3839.167007787727
 21
9787.499919571125
 31
0.0
  0
LINE
  5
225
330
1C0
100
AcDbEntity
  8
1
  6
Continuous
 62
     0
370
    -2
100
AcDbLine
 10
3839.167007787727
 20
12007.49991957112
 30
0.0
 11
3839.167007787727
 21
12507.49991957112
 31
0.0
  0
INSERT
  5
226
330
1C0
100
AcDbEntity
  8
1
  6
Continuous
 62
     0
370
    -2
100
AcDbBlockReference
  2
_OPEN30
 10
3839.167007787727
 20
10787.49991957112
 30
0.0
 41
500.0
 42
500.0
 43
500.0
 50
90.0
  0
INSERT
  5
227
330
1C0
100
AcDbEntity
  8
1
  6
Continuous
 62
     0
370
    -2
100
AcDbBlockReference
  2
_OPEN30
 10
3839.167007787727
 20
11507.49991957112
 30
0.0
 41
500.0
 42
500.0
 43
500.0
 50
270.0
  0
MTEXT
  5
228
330
1C0
100
AcDbEntity
  8
1
  6
Continuous
 62
     0
370
    13
100
AcDbMText
 10
3589.167007787725
 20
11147.49991957112
 30
0.0
 40
400.0
 41
0.0
 71
     5
 72
     1
  1
\A1;10
 11
0.0000000000000001
 21
1.0
 31
0.0
 73
     1
 44
1.0
  0
POINT
  5
229
330
1C0
100
AcDbEntity
  8
DEFPOINTS
  6
Continuous
 62
     0
100
AcDbPoint
 10
4415.167007787728
 20
10787.49991957112
 30
0.0
  0
POINT
  5
22A
330
1C0
100
AcDbEntity
  8
DEFPOINTS
  6
Continuous
 62
     0
100
AcDbPoint
 10
4530.36700778774
 20
11507.49991957112
 30
0.0
  0
POINT
  5
22B
330
1C0
100
AcDbEntity
  8
DEFPOINTS
  6
Continuous
 62
     0
100
AcDbPoint
 10
3839.167007787727
 20
11507.49991957112
 30
0.0
  0
ENDBLK
  5
1CC
330
1C0
100
AcDbEntity
  8
0
100
AcDbBlockEnd
  0
BLOCK
  5
1D7
330
1CD
100
AcDbEntity
  8
0
100
AcDbBlockBegin
  2
*D7
 70
     1
 10
0.0
 20
0.0
 30
0.0
  3
*D7
  1

  0
LINE
  5
22C
330
1CD
100
AcDbEntity
  8
1
  6
Continuous
 62
     0
370
    -2
100
AcDbLine
 10
4559.167007787728
 20
20291.56241957111
 30
0.0
 11
4559.167007787728
 21
21587.67991957111
 31
0.0
  0
LINE
  5
22D
330
1CD
100
AcDbEntity
  8
1
  6
Continuous
 62
     0
370
    -2
100
AcDbLine
 10
11399.1670077877
 20
20291.56241957111
 30
0.0
 11
11399.1670077877
 21
21587.67991957111
 31
0.0
  0
LINE
  5
22E
330
1CD
100
AcDbEntity
  8
1
  6
Continuous
 62
     0
370
    -2
100
AcDbLine
 10
5059.167007787728
 20
21587.4999195711
 30
0.0
 11
10899.16700778772
 21
21587.4999195711
 31
0.0
  0
INSERT
  5
22F
330
1CD
100
AcDbEntity
  8
1
  6
Continuous
 62
     0
370
    -2
100
AcDbBlockReference
  2
_OPEN30
 10
4559.167007787728
 20
21587.4999195711
 30
0.0
 41
500.0
 42
500.0
 43
500.0
 50
180.0
  0
INSERT
  5
230
330
1CD
100
AcDbEntity
  8
1
  6
Continuous
 62
     0
370
    -2
100
AcDbBlockReference
  2
_OPEN30
 10
11399.1670077877
 20
21587.4999195711
 30
0.0
 41
500.0
 42
500.0
 43
500.0
  0
MTEXT
  5
231
330
1CD
100
AcDbEntity
  8
1
  6
Continuous
 62
     0
370
    13
100
AcDbMText
 10
7979.167007787729
 20
21837.49991957111
 30
0.0
 40
400.0
 41
0.0
 71
     5
 72
     1
  1
\A1;95
 73
     1
 44
1.0
  0
POINT
  5
232
330
1CD
100
AcDbEntity
  8
DEFPOINTS
  6
Continuous
 62
     0
100
AcDbPoint
 10
4559.167007787728
 20
20291.4999195711
 30
0.0
  0
POINT
  5
233
330
1CD
100
AcDbEntity
  8
DEFPOINTS
  6
Continuous
 62
     0
100
AcDbPoint
 10
11399.1670077877
 20
20291.4999195711
 30
0.0
  0
POINT
  5
234
330
1CD
100
AcDbEntity
  8
DEFPOINTS
  6
Continuous
 62
     0
100
AcDbPoint
 10
11399.1670077877
 20
21587.4999195711
 30
0.0
  0
ENDBLK
  5
1D8
330
1CD
100
AcDbEntity
  8
0
100
AcDbBlockEnd
  0
BLOCK
  5
1E3
330
1D9
100
AcDbEntity
  8
0
100
AcDbBlockBegin
  2
*D8
 70
     1
 10
0.0
 20
0.0
 30
0.0
  3
*D8
  1

  0
LINE
  5
235
330
1D9
100
AcDbEntity
  8
1
  6
Continuous
 62
     0
370
    -2
100
AcDbLine
 10
11039.16700778772
 20
20176.36241957112
 30
0.0
 11
11039.16700778772
 21
20867.67991957112
 31
0.0
  0
LINE
  5
236
330
1D9
100
AcDbEntity
  8
1
  6
Continuous
 62
     0
370
    -2
100
AcDbLine
 10
4919.167007787728
 20
20176.36241957112
 30
0.0
 11
4919.167007787728
 21
20867.67991957112
 31
0.0
  0
LINE
  5
237
330
1D9
100
AcDbEntity
  8
1
  6
Continuous
 62
     0
370
    -2
100
AcDbLine
 10
10539.16700778771
 20
20867.4999195711
 30
0.0
 11
5419.167007787728
 21
20867.4999195711
 31
0.0
  0
INSERT
  5
238
330
1D9
100
AcDbEntity
  8
1
  6
Continuous
 62
     0
370
    -2
100
AcDbBlockReference
  2
_OPEN30
 10
11039.16700778772
 20
20867.4999195711
 30
0.0
 41
500.0
 42
500.0
 43
500.0
  0
INSERT
  5
239
330
1D9
100
AcDbEntity
  8
1
  6
Continuous
 62
     0
370
    -2
100
AcDbBlockReference
  2
_OPEN30
 10
4919.167007787728
 20
20867.4999195711
 30
0.0
 41
500.0
 42
500.0
 43
500.0
 50
180.0
  0
MTEXT
  5
23A
330
1D9
100
AcDbEntity
  8
1
  6
Continuous
 62
     0
370
    13
100
AcDbMText
 10
7979.167007787729
 20
21117.49991957111
 30
0.0
 40
400.0
 41
0.0
 71
     5
 72
     1
  1
\A1;85
 73
     1
 44
1.0
  0
POINT
  5
23B
330
1D9
100
AcDbEntity
  8
DEFPOINTS
  6
Continuous
 62
     0
100
AcDbPoint
 10
11039.16700778772
 20
20176.29991957111
 30
0.0
  0
POINT
  5
23C
330
1D9
100
AcDbEntity
  8
DEFPOINTS
  6
Continuous
 62
     0
100
AcDbPoint
 10
4919.167007787728
 20
20176.29991957111
 30
0.0
  0
POINT
  5
23D
330
1D9
100
AcDbEntity
  8
DEFPOINTS
  6
Continuous
 62
     0
100
AcDbPoint
 10
4919.167007787728
 20
20867.4999195711
 30
0.0
  0
ENDBLK
  5
1E4
330
1D9
100
AcDbEntity
  8
0
100
AcDbBlockEnd
  0
BLOCK
  5
1EF
330
1E5
100
AcDbEntity
  8
0
100
AcDbBlockBegin
  2
*D9
 70
     1
 10
0.0
 20
0.0
 30
0.0
  3
*D9
  1

  0
LINE
  5
23E
330
1E5
100
AcDbEntity
  8
1
  6
Continuous
 62
     0
370
    -2
100
AcDbLine
 10
10139.16700778771
 20
18491.56241957111
 30
0.0
 11
10139.16700778771
 21
18782.08602141474
 31
0.0
  0
LINE
  5
23F
330
1E5
100
AcDbEntity
  8
1
  6
Continuous
 62
     0
370
    -2
100
AcDbLine
 10
5819.167007787728
 20
18491.56241957111
 30
0.0
 11
5819.167007787728
 21
18782.08602141474
 31
0.0
  0
LINE
  5
240
330
1E5
100
AcDbEntity
  8
1
  6
Continuous
 62
     0
370
    -2
100
AcDbLine
 10
9639.167007787728
 20
18781.90602141474
 30
0.0
 11
6319.167007787728
 21
18781.90602141474
 31
0.0
  0
INSERT
  5
241
330
1E5
100
AcDbEntity
  8
1
  6
Continuous
 62
     0
370
    -2
100
AcDbBlockReference
  2
_OPEN30
 10
10139.16700778771
 20
18781.90602141474
 30
0.0
 41
500.0
 42
500.0
 43
500.0
  0
INSERT
  5
242
330
1E5
100
AcDbEntity
  8
1
  6
Continuous
 62
     0
370
    -2
100
AcDbBlockReference
  2
_OPEN30
 10
5819.167007787728
 20
18781.90602141474
 30
0.0
 41
500.0
 42
500.0
 43
500.0
 50
180.0
  0
MTEXT
  5
243
330
1E5
100
AcDbEntity
  8
1
  6
Continuous
 62
     0
370
    13
100
AcDbMText
 10
7979.167007787729
 20
19031.90602141473
 30
0.0
 40
400.0
 41
0.0
 71
     5
 72
     1
  1
\A1;60
 73
     1
 44
1.0
  0
POINT
  5
244
330
1E5
100
AcDbEntity
  8
DEFPOINTS
  6
Continuous
 62
     0
100
AcDbPoint
 10
10139.16700778771
 20
18491.49991957111
 30
0.0
  0
POINT
  5
245
330
1E5
100
AcDbEntity
  8
DEFPOINTS
  6
Continuous
 62
     0
100
AcDbPoint
 10
5819.167007787728
 20
18491.49991957111
 30
0.0
  0
POINT
  5
246
330
1E5
100
AcDbEntity
  8
DEFPOINTS
  6
Continuous
 62
     0
100
AcDbPoint
 10
5819.167007787728
 20
18781.90602141474
 30
0.0
  0
ENDBLK
  5
1F0
330
1E5
100
AcDbEntity
  8
0
100
AcDbBlockEnd
  0
BLOCK
  5
1FB
330
1F1
100
AcDbEntity
  8
0
100
AcDbBlockBegin
  2
*D10
 70
     1
 10
0.0
 20
0.0
 30
0.0
  3
*D10
  1

  0
LINE
  5
247
330
1F1
100
AcDbEntity
  8
1
  6
Continuous
 62
     0
370
    -2
100
AcDbLine
 10
18167.16700778772
 20
20291.56241957111
 30
0.0
 11
18167.16700778772
 21
20867.67991957112
 31
0.0
  0
LINE
  5
248
330
1F1
100
AcDbEntity
  8
1
  6
Continuous
 62
     0
370
    -2
100
AcDbLine
 10
14999.1670077877
 20
20291.56241957111
 30
0.0
 11
14999.1670077877
 21
20867.67991957112
 31
0.0
  0
LINE
  5
249
330
1F1
100
AcDbEntity
  8
1
  6
Continuous
 62
     0
370
    -2
100
AcDbLine
 10
17667.16700778772
 20
20867.4999195711
 30
0.0
 11
15499.16700778771
 21
20867.4999195711
 31
0.0
  0
INSERT
  5
24A
330
1F1
100
AcDbEntity
  8
1
  6
Continuous
 62
     0
370
    -2
100
AcDbBlockReference
  2
_OPEN30
 10
18167.16700778772
 20
20867.4999195711
 30
0.0
 41
500.0
 42
500.0
 43
500.0
  0
INSERT
  5
24B
330
1F1
100
AcDbEntity
  8
1
  6
Continuous
 62
     0
370
    -2
100
AcDbBlockReference
  2
_OPEN30
 10
14999.1670077877
 20
20867.4999195711
 30
0.0
 41
500.0
 42
500.0
 43
500.0
 50
180.0
  0
MTEXT
  5
24C
330
1F1
100
AcDbEntity
  8
1
  6
Continuous
 62
     0
370
    13
100
AcDbMText
 10
16583.16700778772
 20
21117.49991957111
 30
0.0
 40
400.0
 41
0.0
 71
     5
 72
     1
  1
\A1;44
 73
     1
 44
1.0
  0
POINT
  5
24D
330
1F1
100
AcDbEntity
  8
DEFPOINTS
  6
Continuous
 62
     0
100
AcDbPoint
 10
18167.16700778772
 20
20291.4999195711
 30
0.0
  0
POINT
  5
24E
330
1F1
100
AcDbEntity
  8
DEFPOINTS
  6
Continuous
 62
     0
100
AcDbPoint
 10
14999.1670077877
 20
20291.4999195711
 30
0.0
  0
POINT
  5
24F
330
1F1
100
AcDbEntity
  8
DEFPOINTS
  6
Continuous
 62
     0
100
AcDbPoint
 10
14999.1670077877
 20
20867.4999195711
 30
0.0
  0
ENDBLK
  5
1FC
330
1F1
100
AcDbEntity
  8
0
100
AcDbBlockEnd
  0
ENDSEC
  0
SECTION
  2
ENTITIES
  0
LINE
  5
11D
330
1F
100
AcDbEntity
  8
0
370
    13
100
AcDbLine
 10
146.6002771105778
 20
25127.94847079478
 30
0.0
 11
22727.05794915526
 21
25127.94847079478
 31
0.0
  0
LINE
  5
11E
330
1F
100
AcDbEntity
  8
1
  6
Continuous
 62
     7
370
    13
100
AcDbLine
 10
2902.299054673167
 20
25127.94847079478
 30
0.0
 11
2902.299054673167
 21
23290.81595241983
 31
0.0
  0
LINE
  5
11F
330
1F
100
AcDbEntity
  8
1
  6
Continuous
 62
     7
370
    13
100
AcDbLine
 10
146.6002771105778
 20
23290.81595241983
 30
0.0
 11
22727.05794915364
 21
23290.81595241983
 31
0.0
  0
LINE
  5
120
330
1F
100
AcDbEntity
  8
1
  6
Continuous
 62
     7
370
    13
100
AcDbLine
 10
146.6002771105778
 20
25127.94847079478
 30
0.0
 11
146.6002771105778
 21
47.99244600467488
 31
0.0
  0
LINE
  5
121
330
1F
100
AcDbEntity
  8
0
370
    13
100
AcDbLine
 10
146.6002771105778
 20
47.99244600467488
 30
0.0
 11
22727.05794915526
 21
47.99244600467488
 31
0.0
  0
LINE
  5
122
330
1F
100
AcDbEntity
  8
1
  6
Continuous
 62
     7
370
    13
100
AcDbLine
 10
22727.05794915526
 20
25127.94847079478
 30
0.0
 11
22727.05794915526
 21
47.99244600467488
 31
0.0
  0
TEXT
  5
123
330
1F
100
AcDbEntity
  8
1
  6
Continuous
 62
     7
370
    13
100
AcDbText
 10
3485.909293767407
 20
23818.90122749536
 30
0.0
 40
735.5708998221611
  1
ＷＬ／ＷＭ用埋込ボックス
 41
0.75
  7
KANJI
100
AcDbText
  0
TEXT
  5
124
330
1F
100
AcDbEntity
  8
1
  6
Continuous
 62
     7
370
    13
100
AcDbText
 10
2527.341051326504
 20
6516.760433144904
 30
0.0
 40
423.007619611172
  1
材　質
 41
0.8872049999999999
  7
KANJI
100
AcDbText
  0
TEXT
  5
125
330
1F
100
AcDbEntity
  8
1
  6
Continuous
 62
     7
370
    13
100
AcDbText
 10
2527.341051326504
 20
5880.740603591906
 30
0.0
 40
423.007619611172
  1
重　量
 41
0.8872049999999999
  7
KANJI
100
AcDbText
  0
TEXT
  5
126
330
1F
100
AcDbEntity
  8
1
  6
Continuous
 62
     7
370
    13
100
AcDbText
 10
5072.817754617332
 20
5880.898718081335
 30
0.0
 40
423.007619611172
  1
約４００ｇ
 41
0.8872049999999999
  7
KANJI
100
AcDbText
  0
TEXT
  5
127
330
1F
100
AcDbEntity
  8
1
  6
Continuous
 62
     7
370
    13
100
AcDbText
 10
5072.817754617332
 20
6519.201069140262
 30
0.0
 40
423.007619611172
  1
ＳＥＣＣ ｔ１．６
 41
0.8872049999999999
  7
KANJI
100
AcDbText
  0
TEXT
  5
128
330
1F
100
AcDbEntity
  8
1
  6
Continuous
 62
     7
370
    13
100
AcDbText
 10
12405.07881367383
 20
7126.662002249688
 30
0.0
 40
423.007619611172
  1
内　容
 41
0.8872049999999999
  7
KANJI
100
AcDbText
  0
LINE
  5
129
330
1F
100
AcDbEntity
  8
1
  6
Continuous
 62
     7
370
    13
100
AcDbLine
 10
2131.94800254111
 20
7608.223682196062
 30
0.0
 11
20133.94576027211
 21
7608.223682196062
 31
0.0
  0
LINE
  5
12A
330
1F
100
AcDbEntity
  8
1
  6
Continuous
 62
     7
370
    13
100
AcDbLine
 10
2131.94800254111
 20
7002.950294095215
 30
0.0
 11
20133.94576027211
 21
7002.950294095215
 31
0.0
  0
LINE
  5
12B
330
1F
100
AcDbEntity
  8
1
  6
Continuous
 62
     7
370
    13
100
AcDbLine
 10
20133.94576027211
 20
7608.223682196062
 30
0.0
 11
20133.94576027211
 21
5792.403517893493
 31
0.0
  0
LINE
  5
12C
330
1F
100
AcDbEntity
  8
1
  6
Continuous
 62
     7
370
    13
100
AcDbLine
 10
2131.94800254111
 20
6397.676905990966
 30
0.0
 11
20133.94576027211
 21
6397.676905990966
 31
0.0
  0
LINE
  5
12D
330
1F
100
AcDbEntity
  8
1
  6
Continuous
 62
     7
370
    13
100
AcDbLine
 10
2131.94800254111
 20
5792.403517893493
 30
0.0
 11
20133.94576027211
 21
5792.403517893493
 31
0.0
  0
TEXT
  5
12E
330
1F
100
AcDbEntity
  8
1
  6
Continuous
 62
     7
370
    13
100
AcDbText
 10
2822.422111235232
 20
7125.673804329366
 30
0.0
 40
423.007619611172
  1
項　目
 41
0.944444
  7
KANJI
100
AcDbText
  0
LINE
  5
12F
330
1F
100
AcDbEntity
  8
1
  6
Continuous
 62
     7
370
    13
100
AcDbLine
 10
4783.388849113507
 20
7608.223682196062
 30
0.0
 11
4783.388849113537
 21
5792.403517893493
 31
0.0
  0
LINE
  5
130
330
1F
100
AcDbEntity
  8
1
  6
Continuous
 62
     7
370
    13
100
AcDbLine
 10
2131.94800254111
 20
7608.223682196062
 30
0.0
 11
2131.94800254111
 21
5792.403517893493
 31
0.0
  0
POLYLINE
  5
131
330
1F
100
AcDbEntity
  8
1
  6
Continuous
 62
     7
370
    13
100
AcDb2dPolyline
 66
     1
 10
0.0
 20
0.0
 30
0.0
  0
VERTEX
  5
132
330
131
100
AcDbEntity
  8
1
  6
Continuous
 62
     7
370
    13
100
AcDbVertex
100
AcDb2dVertex
 10
7275.112572234641
 20
14786.95602548647
 30
0.0
  0
VERTEX
  5
133
330
131
100
AcDbEntity
  8
1
  6
Continuous
 62
     7
370
    13
100
AcDbVertex
100
AcDb2dVertex
 10
3987.667725889063
 20
12829.31390432227
 30
0.0
  0
VERTEX
  5
134
330
131
100
AcDbEntity
  8
1
  6
Continuous
 62
     7
370
    13
100
AcDbVertex
100
AcDb2dVertex
 10
2058.067725887805
 20
12829.31390432227
 30
0.0
  0
SEQEND
  5
135
330
131
100
AcDbEntity
  8
1
  6
Continuous
 62
     7
370
    13
  0
DIMENSION
  5
136
330
1F
100
AcDbEntity
  8
1
  6
Continuous
 62
     7
370
    13
100
AcDbDimension
  2
*D2
 10
10689.7241925398
 20
17987.49991957111
 30
0.0
 11
10439.72419253978
 21
15467.4999195711
 31
0.0
 70
    32
  1
70
 71
     5
 42
5040.000000000002
  3
Standard
100
AcDbAlignedDimension
 13
10643.16700778771
 23
12947.49991957112
 33
0.0
 14
10643.16700778771
 24
17987.49991957111
 34
0.0
 50
90.0
100
AcDbRotatedDimension
1001
ACAD
1000
DSTYLE
1002
{
1070
    41
1040
500.0
1070
    73
1070
     0
1070
    77
1070
     1
1070
   140
1040
400.0
1070
   147
1040
50.0
1070
   173
1070
     1
1070
   343
1005
2B
1070
   344
1005
2B
1002
}
  0
LINE
  5
137
330
1F
100
AcDbEntity
  8
1
  6
Continuous
 62
     7
370
    13
100
AcDbLine
 10
5819.167007788369
 20
12587.49991957125
 30
0.0
 11
5819.167007788369
 21
15467.49991957125
 31
0.0
  0
LINE
  5
138
330
1F
100
AcDbEntity
  8
1
  6
Continuous
 62
     7
370
    13
100
AcDbLine
 10
10139.16700778835
 20
12587.49991957125
 30
0.0
 11
10139.16700778835
 21
15467.49991957125
 31
0.0
  0
LINE
  5
139
330
1F
100
AcDbEntity
  8
1
  6
Continuous
 62
     7
370
    13
100
AcDbLine
 10
11283.96700778794
 20
10787.47720661038
 30
0.0
 11
11283.96700778794
 21
15467.49991957125
 31
0.0
  0
LINE
  5
13A
330
1F
100
AcDbEntity
  8
1
  6
Continuous
 62
     7
370
    13
100
AcDbLine
 10
4674.367007788787
 20
10787.49491831805
 30
0.0
 11
4674.367007788787
 21
15467.49991957125
 31
0.0
  0
LINE
  5
13B
330
1F
100
AcDbEntity
  8
1
  6
Continuous
 62
     7
370
    13
100
AcDbLine
 10
7979.167007788368
 20
15467.49991957125
 30
0.0
 11
7979.167007788368
 21
10427.49991957125
 31
0.0
  0
DIMENSION
  5
13C
330
1F
100
AcDbEntity
  8
1
  6
Continuous
 62
     7
370
    13
100
AcDbDimension
  2
*D3
 10
12839.16700778771
 20
10787.49991957111
 30
0.0
 11
12589.16700778772
 21
15467.4999195711
 31
0.0
 70
    32
  1
130
 71
     5
 42
9360.000000000002
  3
Standard
100
AcDbAlignedDimension
 13
11543.16700778772
 23
20147.49991957111
 33
0.0
 14
11543.16700778772
 24
10787.49991957112
 34
0.0
 50
90.0
100
AcDbRotatedDimension
1001
ACAD
1000
DSTYLE
1002
{
1070
    41
1040
500.0
1070
    73
1070
     0
1070
    77
1070
     1
1070
   140
1040
400.0
1070
   147
1040
50.0
1070
   173
1070
     1
1070
   343
1005
2B
1070
   344
1005
2B
1002
}
  0
DIMENSION
  5
13D
330
1F
100
AcDbEntity
  8
1
  6
Continuous
 62
     7
370
    13
100
AcDbDimension
  2
*D4
 10
12119.16700778771
 20
19787.4999195711
 30
0.0
 11
11869.16700778771
 21
15467.4999195711
 31
0.0
 70
    32
  1
120
 71
     5
 42
8640.000000000002
  3
Standard
100
AcDbAlignedDimension
 13
11427.96700778774
 23
11147.49991957112
 33
0.0
 14
11427.96700778774
 24
19787.4999195711
 34
0.0
 50
90.0
100
AcDbRotatedDimension
1001
ACAD
1000
DSTYLE
1002
{
1070
    41
1040
500.0
1070
    73
1070
     0
1070
    77
1070
     1
1070
   140
1040
400.0
1070
   147
1040
50.0
1070
   173
1070
     1
1070
   343
1005
2B
1070
   344
1005
2B
1002
}
  0
LINE
  5
13E
330
1F
100
AcDbEntity
  8
1
  6
Continuous
 62
     7
370
    13
100
AcDbLine
 10
4559.167007788368
 20
15467.49991957125
 30
0.0
 11
4559.167007788368
 21
10787.49991957125
 31
0.0
  0
LINE
  5
13F
330
1F
100
AcDbEntity
  8
1
  6
Continuous
 62
     7
370
    13
100
AcDbLine
 10
11399.16700778836
 20
15467.49991957125
 30
0.0
 11
11399.16700778836
 21
10787.49991957125
 31
0.0
  0
DIMENSION
  5
140
330
1F
100
AcDbEntity
  8
1
  6
Continuous
 62
     7
370
    13
100
AcDbDimension
  2
*D5
 10
4559.167007787728
 20
10067.49991957112
 30
0.0
 11
4919.167007787728
 21
10317.49991957112
 31
0.0
 70
    32
  1
10
 71
     5
 42
720.0
  3
Standard
100
AcDbAlignedDimension
 13
5279.167007787727
 23
10643.49991957112
 33
0.0
 14
4559.167007787728
 24
10643.49991957112
 34
0.0
100
AcDbRotatedDimension
1001
ACAD
1000
DSTYLE
1002
{
1070
    41
1040
500.0
1070
    73
1070
     0
1070
    77
1070
     1
1070
   140
1040
400.0
1070
   147
1040
50.0
1070
   173
1070
     1
1070
   343
1005
2B
1070
   344
1005
2B
1002
}
  0
LINE
  5
141
330
1F
100
AcDbEntity
  8
1
  6
Continuous
 62
     7
370
    13
100
AcDbLine
 10
4559.167007788368
 20
10787.49991957125
 30
0.0
 11
7979.167007788368
 21
10787.49991957125
 31
0.0
  0
TEXT
  5
142
330
1F
100
AcDbEntity
  8
1
  6
Continuous
 62
     7
370
    13
100
AcDbText
 10
2058.067725887805
 20
12894.11390432225
 30
0.0
 40
216.0
  1
%%c27.1ﾉｯｸｱｳﾄﾊ%%dﾝﾁ
 41
0.6118721461187217
  7
KANJI
 11
2058.067725887805
 21
12865.31390432225
 31
0.0
100
AcDbText
 73
     1
  0
DIMENSION
  5
143
330
1F
100
AcDbEntity
  8
1
  6
Continuous
 62
     7
370
    13
100
AcDbDimension
  2
*D6
 10
3839.167007787727
 20
11507.49991957112
 30
0.0
 11
3589.167007787725
 21
11147.49991957112
 31
0.0
 70
    32
  1
10
 71
     5
 42
720.0
  3
Standard
100
AcDbAlignedDimension
 13
4415.167007787728
 23
10787.49991957112
 33
0.0
 14
4530.36700778774
 24
11507.49991957112
 34
0.0
 50
90.0
100
AcDbRotatedDimension
1001
ACAD
1000
DSTYLE
1002
{
1070
    41
1040
500.0
1070
    73
1070
     0
1070
    77
1070
     1
1070
   140
1040
400.0
1070
   147
1040
50.0
1070
   173
1070
     1
1070
   343
1005
2B
1070
   344
1005
2B
1002
}
  0
TEXT
  5
144
330
1F
100
AcDbEntity
  8
1
  6
Continuous
 62
     7
370
    13
100
AcDbText
 10
9059.626306100101
 20
12457.49069834126
 30
0.0
 40
216.0
  1
4-%%c5
 41
0.6749999999999995
 11
9059.626306100101
 21
12385.49069834127
 31
0.0
100
AcDbText
 73
     1
  0
POLYLINE
  5
145
330
1F
100
AcDbEntity
  8
1
  6
Continuous
 62
     7
370
    13
100
AcDb2dPolyline
 66
     1
 10
0.0
 20
0.0
 30
0.0
  0
VERTEX
  5
146
330
145
100
AcDbEntity
  8
1
  6
Continuous
 62
     7
370
    13
100
AcDbVertex
100
AcDb2dVertex
 10
10010.47379493346
 20
12821.65057724179
 30
0.0
  0
VERTEX
  5
147
330
145
100
AcDbEntity
  8
1
  6
Continuous
 62
     7
370
    13
100
AcDbVertex
100
AcDb2dVertex
 10
9642.82630610052
 20
12349.49069834127
 30
0.0
  0
VERTEX
  5
148
330
145
100
AcDbEntity
  8
1
  6
Continuous
 62
     7
370
    13
100
AcDbVertex
100
AcDb2dVertex
 10
9059.626306100101
 20
12349.49069834127
 30
0.0
  0
SEQEND
  5
149
330
145
100
AcDbEntity
  8
1
  6
Continuous
 62
     7
370
    13
  0
LINE
  5
14A
330
1F
100
AcDbEntity
  8
1
  6
Continuous
 62
     7
370
    13
100
AcDbLine
 10
7979.167007788368
 20
12947.49991957125
 30
0.0
 11
10499.16700778835
 21
12947.49991957125
 31
0.0
  0
LINE
  5
14B
330
1F
100
AcDbEntity
  8
1
  6
Continuous
 62
     7
370
    13
100
AcDbLine
 10
11399.16700778836
 20
10787.49991957125
 30
0.0
 11
7979.167007788368
 21
10787.49991957125
 31
0.0
  0
LINE
  5
14C
330
1F
100
AcDbEntity
  8
1
  6
Continuous
 62
     7
370
    13
100
AcDbLine
 10
10679.16700778835
 20
10902.69991957115
 30
0.0
 11
7979.167007788368
 21
10902.69991957115
 31
0.0
  0
LINE
  5
14D
330
1F
100
AcDbEntity
  8
1
  6
Continuous
 62
     7
370
    13
100
AcDbLine
 10
7979.167007788368
 20
12947.49991957125
 30
0.0
 11
5459.167007788368
 21
12947.49991957125
 31
0.0
  0
LINE
  5
14E
330
1F
100
AcDbEntity
  8
1
  6
Continuous
 62
     7
370
    13
100
AcDbLine
 10
5279.167007788368
 20
10902.69991957115
 30
0.0
 11
7979.167007788368
 21
10902.69991957115
 31
0.0
  0
LINE
  5
14F
330
1F
100
AcDbEntity
  8
1
  6
Continuous
 62
     7
370
    13
100
AcDbLine
 10
4919.167007788368
 20
11363.49991957126
 30
0.0
 11
4919.167007788368
 21
10931.49991957125
 31
0.0
  0
CIRCLE
  5
150
330
1F
100
AcDbEntity
  8
1
  6
Continuous
 62
     7
370
    13
100
AcDbCircle
 10
4919.167007788368
 20
11147.49991957125
 30
0.0
 40
144.0
  0
CIRCLE
  5
151
330
1F
100
AcDbEntity
  8
1
  6
Continuous
 62
     7
370
    13
100
AcDbCircle
 10
4919.167007788368
 20
11147.49991957125
 30
0.0
 40
108.0
  0
LINE
  5
152
330
1F
100
AcDbEntity
  8
1
  6
Continuous
 62
     7
370
    13
100
AcDbLine
 10
4919.167007788368
 20
11507.49991957126
 30
0.0
 11
5279.167007788368
 21
11147.49991957125
 31
0.0
  0
LINE
  5
153
330
1F
100
AcDbEntity
  8
1
  6
Continuous
 62
     7
370
    13
100
AcDbLine
 10
5135.167007788368
 20
11147.49991957125
 30
0.0
 11
4703.167007788368
 21
11147.49991957125
 31
0.0
  0
LINE
  5
154
330
1F
100
AcDbEntity
  8
1
  6
Continuous
 62
     7
370
    13
100
AcDbLine
 10
5279.167007788368
 20
10787.49991957125
 30
0.0
 11
5279.167007788368
 21
11147.49991957125
 31
0.0
  0
LINE
  5
155
330
1F
100
AcDbEntity
  8
1
  6
Continuous
 62
     7
370
    13
100
AcDbLine
 10
4674.367007788787
 20
11507.49991957126
 30
0.0
 11
4919.167007788368
 21
11507.49991957126
 31
0.0
  0
CIRCLE
  5
156
330
1F
100
AcDbEntity
  8
1
  6
Continuous
 62
     7
370
    13
100
AcDbCircle
 10
5819.167007788369
 20
12947.49991957125
 30
0.0
 40
180.0
  0
LINE
  5
157
330
1F
100
AcDbEntity
  8
1
  6
Continuous
370
    13
100
AcDbLine
 10
11039.16700778835
 20
11363.49991957126
 30
0.0
 11
11039.16700778835
 21
10931.49991957125
 31
0.0
  0
CIRCLE
  5
158
330
1F
100
AcDbEntity
  8
1
  6
Continuous
370
    13
100
AcDbCircle
 10
11039.16700778835
 20
11147.49991957125
 30
0.0
 40
144.0
  0
CIRCLE
  5
159
330
1F
100
AcDbEntity
  8
1
  6
Continuous
370
    13
100
AcDbCircle
 10
11039.16700778835
 20
11147.49991957125
 30
0.0
 40
108.0
  0
LINE
  5
15A
330
1F
100
AcDbEntity
  8
1
  6
Continuous
370
    13
100
AcDbLine
 10
11039.16700778835
 20
11507.49991957126
 30
0.0
 11
10679.16700778835
 21
11147.49991957125
 31
0.0
  0
LINE
  5
15B
330
1F
100
AcDbEntity
  8
1
  6
Continuous
370
    13
100
AcDbLine
 10
11255.16700778836
 20
11147.49991957125
 30
0.0
 11
10823.16700778835
 21
11147.49991957125
 31
0.0
  0
LINE
  5
15C
330
1F
100
AcDbEntity
  8
1
  6
Continuous
370
    13
100
AcDbLine
 10
10679.16700778835
 20
10787.49991957125
 30
0.0
 11
10679.16700778835
 21
11147.49991957125
 31
0.0
  0
LINE
  5
15D
330
1F
100
AcDbEntity
  8
1
  6
Continuous
370
    13
100
AcDbLine
 10
11283.96700778794
 20
11507.49991957126
 30
0.0
 11
11039.16700778835
 21
11507.49991957126
 31
0.0
  0
CIRCLE
  5
15E
330
1F
100
AcDbEntity
  8
1
  6
Continuous
 62
     7
370
    13
100
AcDbCircle
 10
10139.16700778835
 20
12947.49991957125
 30
0.0
 40
180.0
  0
LINE
  5
15F
330
1F
100
AcDbEntity
  8
1
  6
Continuous
 62
     7
370
    13
100
AcDbLine
 10
10010.47379493346
 20
12821.65057724179
 30
0.0
 11
9872.640152590633
 21
12717.43096757744
 31
0.0
  0
LINE
  5
160
330
1F
100
AcDbEntity
  8
1
  6
Continuous
 62
     7
370
    13
100
AcDbLine
 10
10010.47379493346
 20
12821.65057724179
 30
0.0
 11
9943.216164000386
 21
12662.47692652866
 31
0.0
  0
LINE
  5
161
330
1F
100
AcDbEntity
  8
1
  6
Continuous
 62
     7
370
    13
100
AcDbLine
 10
4178.842513261414
 20
15467.49991957125
 30
0.0
 11
7979.167007788368
 21
15467.49991957125
 31
0.0
  0
DIMENSION
  5
162
330
1F
100
AcDbEntity
  8
1
  6
Continuous
 62
     7
370
    13
100
AcDbDimension
  2
*D7
 10
11399.1670077877
 20
21587.4999195711
 30
0.0
 11
7979.167007787729
 21
21837.49991957111
 31
0.0
 70
    32
  1
95
 71
     5
 42
6840.0
  3
Standard
100
AcDbAlignedDimension
 13
4559.167007787728
 23
20291.4999195711
 33
0.0
 14
11399.1670077877
 24
20291.4999195711
 34
0.0
100
AcDbRotatedDimension
1001
ACAD
1000
DSTYLE
1002
{
1070
    41
1040
500.0
1070
    73
1070
     0
1070
    77
1070
     1
1070
   140
1040
400.0
1070
   147
1040
50.0
1070
   173
1070
     1
1070
   343
1005
2B
1070
   344
1005
2B
1002
}
  0
LINE
  5
163
330
1F
100
AcDbEntity
  8
1
  6
Continuous
 62
     7
370
    13
100
AcDbLine
 10
4559.167007788368
 20
20147.49991957125
 30
0.0
 11
7979.167007788368
 21
20147.49991957125
 31
0.0
  0
LINE
  5
164
330
1F
100
AcDbEntity
  8
1
  6
Continuous
 62
     7
370
    13
100
AcDbLine
 10
4559.167007788368
 20
19427.49991957126
 30
0.0
 11
4919.167007788368
 21
19427.49991957126
 31
0.0
  0
LINE
  5
165
330
1F
100
AcDbEntity
  8
1
  6
Continuous
 62
     7
370
    13
100
AcDbLine
 10
4559.167007788368
 20
15467.49991957125
 30
0.0
 11
4559.167007788368
 21
20147.49991957125
 31
0.0
  0
LINE
  5
166
330
1F
100
AcDbEntity
  8
1
  6
Continuous
 62
     7
370
    13
100
AcDbLine
 10
7979.167007788368
 20
15467.49991957125
 30
0.0
 11
7979.167007788368
 21
20507.59018634637
 31
0.0
  0
DIMENSION
  5
167
330
1F
100
AcDbEntity
  8
1
  6
Continuous
 62
     7
370
    13
100
AcDbDimension
  2
*D8
 10
4919.167007787728
 20
20867.4999195711
 30
0.0
 11
7979.167007787729
 21
21117.49991957111
 31
0.0
 70
    32
  1
85
 71
     5
 42
6120.0
  3
Standard
100
AcDbAlignedDimension
 13
11039.16700778772
 23
20176.29991957111
 33
0.0
 14
4919.167007787728
 24
20176.29991957111
 34
0.0
100
AcDbRotatedDimension
1001
ACAD
1000
DSTYLE
1002
{
1070
    41
1040
500.0
1070
    73
1070
     0
1070
    77
1070
     1
1070
   140
1040
400.0
1070
   147
1040
50.0
1070
   173
1070
     1
1070
   343
1005
2B
1070
   344
1005
2B
1002
}
  0
DIMENSION
  5
168
330
1F
100
AcDbEntity
  8
1
  6
Continuous
 62
     7
370
    13
100
AcDbDimension
  2
*D9
 10
5819.167007787728
 20
18781.90602141474
 30
0.0
 11
7979.167007787729
 21
19031.90602141473
 31
0.0
 70
    32
  1
60
 71
     5
 42
4320.0
  3
Standard
100
AcDbAlignedDimension
 13
10139.16700778771
 23
18491.49991957111
 33
0.0
 14
5819.167007787728
 24
18491.49991957111
 34
0.0
100
AcDbRotatedDimension
1001
ACAD
1000
DSTYLE
1002
{
1070
    41
1040
500.0
1070
    73
1070
     0
1070
    77
1070
     1
1070
   140
1040
400.0
1070
   147
1040
50.0
1070
   173
1070
     1
1070
   343
1005
2B
1070
   344
1005
2B
1002
}
  0
LINE
  5
169
330
1F
100
AcDbEntity
  8
1
  6
Continuous
 62
     7
370
    13
100
AcDbLine
 10
7979.167007788368
 20
17987.49991957125
 30
0.0
 11
10499.16700778835
 21
17987.49991957125
 31
0.0
  0
LINE
  5
16A
330
1F
100
AcDbEntity
  8
1
  6
Continuous
 62
     7
370
    13
100
AcDbLine
 10
11759.22830066066
 20
15467.49991957125
 30
0.0
 11
7979.167007788368
 21
15467.49991957125
 31
0.0
  0
LINE
  5
16B
330
1F
100
AcDbEntity
  8
1
  6
Continuous
 62
     7
370
    13
100
AcDbLine
 10
11399.16700778836
 20
20147.49991957125
 30
0.0
 11
7979.167007788368
 21
20147.49991957125
 31
0.0
  0
LINE
  5
16C
330
1F
100
AcDbEntity
  8
1
  6
Continuous
 62
     7
370
    13
100
AcDbLine
 10
10679.16700778835
 20
20032.29991957109
 30
0.0
 11
7979.167007788368
 21
20032.29991957109
 31
0.0
  0
LINE
  5
16D
330
1F
100
AcDbEntity
  8
1
  6
Continuous
 62
     7
370
    13
100
AcDbLine
 10
5819.167007788369
 20
18347.49991957125
 30
0.0
 11
5819.167007788369
 21
15467.49991957125
 31
0.0
  0
LINE
  5
16E
330
1F
100
AcDbEntity
  8
1
  6
Continuous
 62
     7
370
    13
100
AcDbLine
 10
4674.367007788787
 20
20147.65262085588
 30
0.0
 11
4674.367007788787
 21
15467.49991957125
 31
0.0
  0
CIRCLE
  5
16F
330
1F
100
AcDbEntity
  8
1
  6
Continuous
 62
     7
370
    13
100
AcDbCircle
 10
7979.167007788368
 20
15467.49991957125
 30
0.0
 40
975.5999999999996
  0
LINE
  5
170
330
1F
100
AcDbEntity
  8
1
  6
Continuous
 62
     7
370
    13
100
AcDbLine
 10
7275.112572234641
 20
14786.95602548647
 30
0.0
 11
7108.819474231736
 21
14739.98320827218
 31
0.0
  0
LINE
  5
171
330
1F
100
AcDbEntity
  8
1
  6
Continuous
 62
     7
370
    13
100
AcDbLine
 10
7275.112572234641
 20
14786.95602548647
 30
0.0
 11
7154.584933496829
 21
14663.1298234909
 31
0.0
  0
LINE
  5
172
330
1F
100
AcDbEntity
  8
1
  6
Continuous
 62
     7
370
    13
100
AcDbLine
 10
7979.167007788368
 20
17987.49991957125
 30
0.0
 11
5459.167007788368
 21
17987.49991957125
 31
0.0
  0
LINE
  5
173
330
1F
100
AcDbEntity
  8
1
  6
Continuous
 62
     7
370
    13
100
AcDbLine
 10
5279.167007788368
 20
20032.29991957109
 30
0.0
 11
7979.167007788368
 21
20032.29991957109
 31
0.0
  0
CIRCLE
  5
174
330
1F
100
AcDbEntity
  8
1
  6
Continuous
 62
     7
370
    13
100
AcDbCircle
 10
5819.167007788369
 20
17987.49991957125
 30
0.0
 40
180.0
  0
LINE
  5
175
330
1F
100
AcDbEntity
  8
1
  6
Continuous
 62
     7
370
    13
100
AcDbLine
 10
4919.167007788368
 20
20003.49991957126
 30
0.0
 11
4919.167007788368
 21
19571.49991957125
 31
0.0
  0
LINE
  5
176
330
1F
100
AcDbEntity
  8
1
  6
Continuous
 62
     7
370
    13
100
AcDbLine
 10
4919.167007788368
 20
19427.49991957126
 30
0.0
 11
5279.167007788368
 21
19787.49991957126
 31
0.0
  0
LINE
  5
177
330
1F
100
AcDbEntity
  8
1
  6
Continuous
 62
     7
370
    13
100
AcDbLine
 10
5135.167007788368
 20
19787.49991957126
 30
0.0
 11
4703.167007788368
 21
19787.49991957126
 31
0.0
  0
CIRCLE
  5
178
330
1F
100
AcDbEntity
  8
1
  6
Continuous
 62
     7
370
    13
100
AcDbCircle
 10
4919.167007788368
 20
19787.49991957126
 30
0.0
 40
144.0
  0
CIRCLE
  5
179
330
1F
100
AcDbEntity
  8
1
  6
Continuous
 62
     7
370
    13
100
AcDbCircle
 10
4919.167007788368
 20
19787.49991957126
 30
0.0
 40
108.0
  0
LINE
  5
17A
330
1F
100
AcDbEntity
  8
1
  6
Continuous
 62
     7
370
    13
100
AcDbLine
 10
5279.167007788368
 20
20147.49991957125
 30
0.0
 11
5279.167007788368
 21
19787.49991957126
 31
0.0
  0
LINE
  5
17B
330
1F
100
AcDbEntity
  8
1
  6
Continuous
 62
     7
370
    13
100
AcDbLine
 10
10139.16700778835
 20
18347.49991957125
 30
0.0
 11
10139.16700778835
 21
15467.49991957125
 31
0.0
  0
LINE
  5
17C
330
1F
100
AcDbEntity
  8
1
  6
Continuous
 62
     7
370
    13
100
AcDbLine
 10
11283.96700778794
 20
20147.50424850205
 30
0.0
 11
11283.96700778794
 21
15467.49991957125
 31
0.0
  0
LINE
  5
17D
330
1F
100
AcDbEntity
  8
1
  6
Continuous
 62
     7
370
    13
100
AcDbLine
 10
11399.16700778836
 20
15467.49991957125
 30
0.0
 11
11399.16700778836
 21
20147.49991957125
 31
0.0
  0
CIRCLE
  5
17E
330
1F
100
AcDbEntity
  8
1
  6
Continuous
 62
     7
370
    13
100
AcDbCircle
 10
10139.16700778835
 20
17987.49991957125
 30
0.0
 40
180.0
  0
LINE
  5
17F
330
1F
100
AcDbEntity
  8
1
  6
Continuous
 62
     7
370
    13
100
AcDbLine
 10
11039.16700778835
 20
20003.49991957126
 30
0.0
 11
11039.16700778835
 21
19571.49991957125
 31
0.0
  0
LINE
  5
180
330
1F
100
AcDbEntity
  8
1
  6
Continuous
 62
     7
370
    13
100
AcDbLine
 10
11039.16700778835
 20
19427.49991957126
 30
0.0
 11
10679.16700778835
 21
19787.49991957126
 31
0.0
  0
LINE
  5
181
330
1F
100
AcDbEntity
  8
1
  6
Continuous
 62
     7
370
    13
100
AcDbLine
 10
11283.96700778794
 20
19427.49991957126
 30
0.0
 11
11039.16700778835
 21
19427.49991957126
 31
0.0
  0
LINE
  5
182
330
1F
100
AcDbEntity
  8
1
  6
Continuous
 62
     7
370
    13
100
AcDbLine
 10
11255.16700778836
 20
19787.49991957126
 30
0.0
 11
10823.16700778835
 21
19787.49991957126
 31
0.0
  0
CIRCLE
  5
183
330
1F
100
AcDbEntity
  8
1
  6
Continuous
 62
     7
370
    13
100
AcDbCircle
 10
11039.16700778835
 20
19787.49991957126
 30
0.0
 40
144.0
  0
CIRCLE
  5
184
330
1F
100
AcDbEntity
  8
1
  6
Continuous
 62
     7
370
    13
100
AcDbCircle
 10
11039.16700778835
 20
19787.49991957126
 30
0.0
 40
108.0
  0
LINE
  5
185
330
1F
100
AcDbEntity
  8
1
  6
Continuous
 62
     7
370
    13
100
AcDbLine
 10
10679.16700778835
 20
20147.49991957125
 30
0.0
 11
10679.16700778835
 21
19787.49991957126
 31
0.0
  0
LINE
  5
186
330
1F
100
AcDbEntity
  8
1
  6
Continuous
 62
     7
370
    13
100
AcDbLine
 10
14999.16700778834
 20
10787.49991957125
 30
0.0
 11
14999.16700778834
 21
15467.49991957125
 31
0.0
  0
LINE
  5
187
330
1F
100
AcDbEntity
  8
1
  6
Continuous
 62
     7
370
    13
100
AcDbLine
 10
18167.16700778837
 20
15467.49991957125
 30
0.0
 11
18167.16700778837
 21
10787.49991957125
 31
0.0
  0
LINE
  5
188
330
1F
100
AcDbEntity
  8
1
  6
Continuous
 62
     7
370
    13
100
AcDbLine
 10
18167.16700778837
 20
10787.49991957125
 30
0.0
 11
14999.16700778834
 21
10787.49991957125
 31
0.0
  0
LINE
  5
189
330
1F
100
AcDbEntity
  8
1
  6
Continuous
 62
     7
370
    13
100
AcDbLine
 10
16907.16700778836
 20
10604.6219043223
 30
0.0
 11
16907.16700778836
 21
10994.45870432216
 31
0.0
  0
DIMENSION
  5
18A
330
1F
100
AcDbEntity
  8
1
  6
Continuous
 62
     7
370
    13
100
AcDbDimension
  2
*D10
 10
14999.1670077877
 20
20867.4999195711
 30
0.0
 11
16583.16700778772
 21
21117.49991957111
 31
0.0
 70
    32
  1
44
 71
     5
 42
3168.0
  3
Standard
100
AcDbAlignedDimension
 13
18167.16700778772
 23
20291.4999195711
 33
0.0
 14
14999.1670077877
 24
20291.4999195711
 34
0.0
100
AcDbRotatedDimension
1001
ACAD
1000
DSTYLE
1002
{
1070
    41
1040
500.0
1070
    73
1070
     0
1070
    77
1070
     1
1070
   140
1040
400.0
1070
   147
1040
50.0
1070
   173
1070
     1
1070
   343
1005
2B
1070
   344
1005
2B
1002
}
  0
LINE
  5
18B
330
1F
100
AcDbEntity
  8
1
  6
Continuous
 62
     7
370
    13
100
AcDbLine
 10
14999.16700778834
 20
20147.49991957125
 30
0.0
 11
14999.16700778834
 21
15467.49991957125
 31
0.0
  0
LINE
  5
18C
330
1F
100
AcDbEntity
  8
1
  6
Continuous
 62
     7
370
    13
100
AcDbLine
 10
18167.16700778837
 20
15467.49991957125
 30
0.0
 11
18167.16700778837
 21
20147.49991957125
 31
0.0
  0
LINE
  5
18D
330
1F
100
AcDbEntity
  8
1
  6
Continuous
 62
     7
370
    13
100
AcDbLine
 10
18167.16700778837
 20
20147.49991957125
 30
0.0
 11
14999.16700778834
 21
20147.49991957125
 31
0.0
  0
LINE
  5
18E
330
1F
100
AcDbEntity
  8
1
  6
Continuous
 62
     7
370
    13
100
AcDbLine
 10
16907.16700778836
 20
19964.62190432229
 30
0.0
 11
16907.16700778836
 21
20354.45870432215
 31
0.0
  0
LWPOLYLINE
  5
267
330
1F
100
AcDbEntity
  8
1
  6
Continuous
100
AcDbPolyline
 90
        3
 70
     0
 43
0.0
 10
11039.16700778837
 20
11039.49991957117
 10
11595.74800778838
 20
9686.012719571095
 10
13007.47013639536
 20
9686.012719571095
  0
TEXT
  5
268
330
1F
100
AcDbEntity
  8
1
  6
Continuous
370
    13
100
AcDbText
 10
11595.74800778836
 20
9714.812719571176
 30
0.0
 40
216.0
  1
4-M3バーリング
 41
0.6118721461187217
  7
KANJI
 11
11595.74800778836
 21
9686.012719571175
 31
0.0
100
AcDbText
 73
     1
  0
LINE
  5
26B
330
1F
100
AcDbEntity
  8
1
  6
Continuous
 62
     7
370
    13
100
AcDbLine
 10
11039.16700778907
 20
11039.4999195718
 30
0.0
 11
11122.81320476065
 21
10939.08066061028
 31
0.0
  0
LINE
  5
26C
330
1F
100
AcDbEntity
  8
1
  6
Continuous
 62
     7
370
    13
100
AcDbLine
 10
11039.16700778907
 20
11039.4999195718
 30
0.0
 11
11053.81170243
 21
10904.78548514188
 31
0.0
  0
ENDSEC
  0
SECTION
  2
OBJECTS
  0
DICTIONARY
  5
C
330
0
100
AcDbDictionary
281
     1
  3
ACAD_GROUP
350
D
  3
ACAD_LAYOUT
350
1A
  3
ACAD_MLINESTYLE
350
17
  3
ACAD_PLOTSETTINGS
350
19
  3
ACAD_PLOTSTYLENAME
350
E
  3
AcDbVariableDictionary
350
251
  0
DICTIONARY
  5
A4
330
2
100
AcDbDictionary
280
     1
281
     1
  3
ACAD_LAYERSTATES
360
A5
  0
DICTIONARY
  5
D
102
{ACAD_REACTORS
330
C
102
}
330
C
100
AcDbDictionary
281
     1
  0
DICTIONARY
  5
1A
102
{ACAD_REACTORS
330
C
102
}
330
C
100
AcDbDictionary
281
     1
  3
Model
350
22
  3
ﾚｲｱｳﾄ1
350
1E
  3
ﾚｲｱｳﾄ2
350
26
  0
DICTIONARY
  5
17
102
{ACAD_REACTORS
330
C
102
}
330
C
100
AcDbDictionary
281
     1
  3
Standard
350
18
  0
DICTIONARY
  5
19
102
{ACAD_REACTORS
330
C
102
}
330
C
100
AcDbDictionary
281
     1
  0
ACDBDICTIONARYWDFLT
  5
E
102
{ACAD_REACTORS
330
C
102
}
330
C
100
AcDbDictionary
281
     1
  3
Normal
350
F
100
AcDbDictionaryWithDefault
340
F
  0
DICTIONARY
  5
251
102
{ACAD_REACTORS
330
C
102
}
330
C
100
AcDbDictionary
281
     1
  3
DIMASSOC
350
253
  3
HIDETEXT
350
252
  0
DICTIONARY
  5
A5
102
{ACAD_REACTORS
330
A4
102
}
330
A4
100
AcDbDictionary
281
     1
  0
LAYOUT
  5
22
102
{ACAD_REACTORS
330
1A
102
}
330
1A
100
AcDbPlotSettings
  1

  2
NEC MultiWriter2360/2360N
  4

  6

 40
0.0
 41
0.0
 42
0.0
 43
0.0
 44
0.0
 45
0.0
 46
0.0
 47
0.0
 48
0.0
 49
0.0
140
0.0
141
0.0
142
1.0
143
1.0
 70
  1712
 72
     0
 73
     0
 74
     0
  7

 75
     0
147
1.0
148
0.0
149
0.0
100
AcDbLayout
  1
Model
 70
     1
 71
     0
 10
0.0
 20
0.0
 11
12.0
 21
9.0
 12
0.0
 22
0.0
 32
0.0
 14
0.0
 24
0.0
 34
0.0
 15
0.0
 25
0.0
 35
0.0
146
0.0
 13
0.0
 23
0.0
 33
0.0
 16
1.0
 26
0.0
 36
0.0
 17
0.0
 27
1.0
 37
0.0
 76
     0
330
1F
  0
LAYOUT
  5
1E
102
{ACAD_REACTORS
330
1A
102
}
330
1A
100
AcDbPlotSettings
  1

  2
NEC MultiWriter2360/2360N
  4

  6

 40
0.0
 41
0.0
 42
0.0
 43
0.0
 44
0.0
 45
0.0
 46
0.0
 47
0.0
 48
0.0
 49
0.0
140
0.0
141
0.0
142
1.0
143
1.0
 70
   688
 72
     0
 73
     0
 74
     5
  7

 75
    16
147
1.0
148
0.0
149
0.0
100
AcDbLayout
  1
ﾚｲｱｳﾄ1
 70
     1
 71
     1
 10
0.0
 20
0.0
 11
420.0
 21
297.0
 12
0.0
 22
0.0
 32
0.0
 14
1.000000000000000E+20
 24
1.000000000000000E+20
 34
1.000000000000000E+20
 15
-1.000000000000000E+20
 25
-1.000000000000000E+20
 35
-1.000000000000000E+20
146
0.0
 13
0.0
 23
0.0
 33
0.0
 16
1.0
 26
0.0
 36
0.0
 17
0.0
 27
1.0
 37
0.0
 76
     0
330
1B
  0
LAYOUT
  5
26
102
{ACAD_REACTORS
330
1A
102
}
330
1A
100
AcDbPlotSettings
  1

  2
NEC MultiWriter2360/2360N
  4

  6

 40
0.0
 41
0.0
 42
0.0
 43
0.0
 44
0.0
 45
0.0
 46
0.0
 47
0.0
 48
0.0
 49
0.0
140
0.0
141
0.0
142
1.0
143
1.0
 70
   688
 72
     0
 73
     0
 74
     5
  7

 75
    16
147
1.0
148
0.0
149
0.0
100
AcDbLayout
  1
ﾚｲｱｳﾄ2
 70
     1
 71
     2
 10
0.0
 20
0.0
 11
12.0
 21
9.0
 12
0.0
 22
0.0
 32
0.0
 14
0.0
 24
0.0
 34
0.0
 15
0.0
 25
0.0
 35
0.0
146
0.0
 13
0.0
 23
0.0
 33
0.0
 16
1.0
 26
0.0
 36
0.0
 17
0.0
 27
1.0
 37
0.0
 76
     0
330
23
  0
MLINESTYLE
  5
18
102
{ACAD_REACTORS
330
17
102
}
330
17
100
AcDbMlineStyle
  2
STANDARD
 70
     0
  3

 62
   256
 51
90.0
 52
90.0
 71
     2
 49
0.5
 62
   256
  6
BYLAYER
 49
-0.5
 62
   256
  6
BYLAYER
  0
ACDBPLACEHOLDER
  5
F
102
{ACAD_REACTORS
330
E
102
}
330
E
  0
DICTIONARYVAR
  5
253
102
{ACAD_REACTORS
330
251
102
}
330
251
100
DictionaryVariables
280
     0
  1
2
  0
DICTIONARYVAR
  5
252
102
{ACAD_REACTORS
330
251
102
}
330
251
100
DictionaryVariables
280
     0
  1
1
  0
ENDSEC
  0
EOF
