  0
SECTION
  2
HEADER
  9
$ACADVER
  1
AC1015
  9
$ACADMAINTVER
 70
    20
  9
$DWGCODEPAGE
  3
ANSI_932
  9
$INSBASE
 10
0.0
 20
0.0
 30
0.0
  9
$EXTMIN
 10
62263.90899199945
 20
34260.79248065871
 30
-0.0015258207003583
  9
$EXTMAX
 10
84854.10953129624
 20
59344.81845692134
 30
0.0000000349246037
  9
$LIMMIN
 10
0.0
 20
0.0
  9
$LIMMAX
 10
420.0
 20
297.0
  9
$ORTHOMODE
 70
     0
  9
$REGENMODE
 70
     1
  9
$FILLMODE
 70
     1
  9
$QTEXTMODE
 70
     0
  9
$MIRRTEXT
 70
     0
  9
$LTSCALE
 40
1.0
  9
$ATTMODE
 70
     1
  9
$TEXTSIZE
 40
2.5
  9
$TRACEWID
 40
1.0
  9
$TEXTSTYLE
  7
Standard
  9
$CLAYER
  8
0
  9
$CELTYPE
  6
ByLayer
  9
$CECOLOR
 62
   256
  9
$CELTSCALE
 40
1.0
  9
$DISPSILH
 70
     0
  9
$DIMSCALE
 40
1.0
  9
$DIMASZ
 40
2.5
  9
$DIMEXO
 40
0.625
  9
$DIMDLI
 40
3.75
  9
$DIMRND
 40
0.0
  9
$DIMDLE
 40
0.0
  9
$DIMEXE
 40
1.25
  9
$DIMTP
 40
0.0
  9
$DIMTM
 40
0.0
  9
$DIMTXT
 40
2.5
  9
$DIMCEN
 40
2.5
  9
$DIMTSZ
 40
0.0
  9
$DIMTOL
 70
     0
  9
$DIMLIM
 70
     0
  9
$DIMTIH
 70
     0
  9
$DIMTOH
 70
     0
  9
$DIMSE1
 70
     0
  9
$DIMSE2
 70
     0
  9
$DIMTAD
 70
     1
  9
$DIMZIN
 70
     8
  9
$DIMBLK
  1

  9
$DIMASO
 70
     1
  9
$DIMSHO
 70
     1
  9
$DIMPOST
  1

  9
$DIMAPOST
  1

  9
$DIMALT
 70
     0
  9
$DIMALTD
 70
     3
  9
$DIMALTF
 40
0.03937007874016
  9
$DIMLFAC
 40
1.0
  9
$DIMTOFL
 70
     1
  9
$DIMTVP
 40
0.0
  9
$DIMTIX
 70
     0
  9
$DIMSOXD
 70
     0
  9
$DIMSAH
 70
     0
  9
$DIMBLK1
  1

  9
$DIMBLK2
  1

  9
$DIMSTYLE
  2
ISO-25
  9
$DIMCLRD
 70
     0
  9
$DIMCLRE
 70
     0
  9
$DIMCLRT
 70
     0
  9
$DIMTFAC
 40
1.0
  9
$DIMGAP
 40
0.625
  9
$DIMJUST
 70
     0
  9
$DIMSD1
 70
     0
  9
$DIMSD2
 70
     0
  9
$DIMTOLJ
 70
     0
  9
$DIMTZIN
 70
     8
  9
$DIMALTZ
 70
     0
  9
$DIMALTTZ
 70
     0
  9
$DIMUPT
 70
     0
  9
$DIMDEC
 70
     2
  9
$DIMTDEC
 70
     2
  9
$DIMALTU
 70
     2
  9
$DIMALTTD
 70
     3
  9
$DIMTXSTY
  7
Standard
  9
$DIMAUNIT
 70
     0
  9
$DIMADEC
 70
     0
  9
$DIMALTRND
 40
0.0
  9
$DIMAZIN
 70
     0
  9
$DIMDSEP
 70
    44
  9
$DIMATFIT
 70
     3
  9
$DIMFRAC
 70
     0
  9
$DIMLDRBLK
  1

  9
$DIMLUNIT
 70
     2
  9
$DIMLWD
 70
    -2
  9
$DIMLWE
 70
    -2
  9
$DIMTMOVE
 70
     0
  9
$LUNITS
 70
     2
  9
$LUPREC
 70
     4
  9
$SKETCHINC
 40
1.0
  9
$FILLETRAD
 40
0.0
  9
$AUNITS
 70
     0
  9
$AUPREC
 70
     0
  9
$MENU
  1
.
  9
$ELEVATION
 40
0.0
  9
$PELEVATION
 40
0.0
  9
$THICKNESS
 40
0.0
  9
$LIMCHECK
 70
     0
  9
$CHAMFERA
 40
0.0
  9
$CHAMFERB
 40
0.0
  9
$CHAMFERC
 40
0.0
  9
$CHAMFERD
 40
0.0
  9
$SKPOLY
 70
     0
  9
$TDCREATE
 40
2455257.708088461
  9
$TDUCREATE
 40
2455257.333088461
  9
$TDUPDATE
 40
2458395.578192269
  9
$TDUUPDATE
 40
2458395.203192269
  9
$TDINDWG
 40
0.0582085069
  9
$TDUSRTIMER
 40
0.0582084838
  9
$USRTIMER
 70
     1
  9
$ANGBASE
 50
0.0
  9
$ANGDIR
 70
     0
  9
$PDMODE
 70
     0
  9
$PDSIZE
 40
0.0
  9
$PLINEWID
 40
0.0
  9
$SPLFRAME
 70
     0
  9
$SPLINETYPE
 70
     6
  9
$SPLINESEGS
 70
     8
  9
$HANDSEED
  5
BD4B
  9
$SURFTAB1
 70
     6
  9
$SURFTAB2
 70
     6
  9
$SURFTYPE
 70
     6
  9
$SURFU
 70
     6
  9
$SURFV
 70
     6
  9
$UCSBASE
  2

  9
$UCSNAME
  2

  9
$UCSORG
 10
0.0
 20
0.0
 30
0.0
  9
$UCSXDIR
 10
1.0
 20
0.0
 30
0.0
  9
$UCSYDIR
 10
0.0
 20
1.0
 30
0.0
  9
$UCSORTHOREF
  2

  9
$UCSORTHOVIEW
 70
     0
  9
$UCSORGTOP
 10
0.0
 20
0.0
 30
0.0
  9
$UCSORGBOTTOM
 10
0.0
 20
0.0
 30
0.0
  9
$UCSORGLEFT
 10
0.0
 20
0.0
 30
0.0
  9
$UCSORGRIGHT
 10
0.0
 20
0.0
 30
0.0
  9
$UCSORGFRONT
 10
0.0
 20
0.0
 30
0.0
  9
$UCSORGBACK
 10
0.0
 20
0.0
 30
0.0
  9
$PUCSBASE
  2

  9
$PUCSNAME
  2

  9
$PUCSORG
 10
0.0
 20
0.0
 30
0.0
  9
$PUCSXDIR
 10
1.0
 20
0.0
 30
0.0
  9
$PUCSYDIR
 10
0.0
 20
1.0
 30
0.0
  9
$PUCSORTHOREF
  2

  9
$PUCSORTHOVIEW
 70
     0
  9
$PUCSORGTOP
 10
0.0
 20
0.0
 30
0.0
  9
$PUCSORGBOTTOM
 10
0.0
 20
0.0
 30
0.0
  9
$PUCSORGLEFT
 10
0.0
 20
0.0
 30
0.0
  9
$PUCSORGRIGHT
 10
0.0
 20
0.0
 30
0.0
  9
$PUCSORGFRONT
 10
0.0
 20
0.0
 30
0.0
  9
$PUCSORGBACK
 10
0.0
 20
0.0
 30
0.0
  9
$USERI1
 70
     0
  9
$USERI2
 70
     0
  9
$USERI3
 70
     0
  9
$USERI4
 70
     0
  9
$USERI5
 70
     0
  9
$USERR1
 40
0.0
  9
$USERR2
 40
0.0
  9
$USERR3
 40
0.0
  9
$USERR4
 40
0.0
  9
$USERR5
 40
0.0
  9
$WORLDVIEW
 70
     1
  9
$SHADEDGE
 70
     3
  9
$SHADEDIF
 70
    70
  9
$TILEMODE
 70
     1
  9
$MAXACTVP
 70
    64
  9
$PINSBASE
 10
0.0
 20
0.0
 30
0.0
  9
$PLIMCHECK
 70
     0
  9
$PEXTMIN
 10
0.0
 20
0.0
 30
0.0
  9
$PEXTMAX
 10
0.0
 20
0.0
 30
0.0
  9
$PLIMMIN
 10
0.0
 20
0.0
  9
$PLIMMAX
 10
12.0
 20
9.0
  9
$UNITMODE
 70
     0
  9
$VISRETAIN
 70
     1
  9
$PLINEGEN
 70
     0
  9
$PSLTSCALE
 70
     1
  9
$TREEDEPTH
 70
  3020
  9
$CMLSTYLE
  2
Standard
  9
$CMLJUST
 70
     0
  9
$CMLSCALE
 40
20.0
  9
$PROXYGRAPHICS
 70
     1
  9
$MEASUREMENT
 70
     1
  9
$CELWEIGHT
370
    -1
  9
$ENDCAPS
280
     0
  9
$JOINSTYLE
280
     0
  9
$LWDISPLAY
290
     0
  9
$INSUNITS
 70
     4
  9
$HYPERLINKBASE
  1

  9
$STYLESHEET
  1
ALL BLACK（線：データ通り　色：黒）.CTB
  9
$XEDIT
290
     1
  9
$CEPSNTYPE
380
     0
  9
$PSTYLEMODE
290
     1
  9
$FINGERPRINTGUID
  2
{50FB7BFA-1896-4192-B2A6-4DE0A83D1404}
  9
$VERSIONGUID
  2
{651C51CE-5FCD-4E25-8009-9DD8D38F0993}
  9
$EXTNAMES
290
     1
  9
$PSVPSCALE
 40
0.0
  9
$OLESTARTUP
290
     0
  0
ENDSEC
  0
SECTION
  2
CLASSES
  0
CLASS
  1
ACDBDICTIONARYWDFLT
  2
AcDbDictionaryWithDefault
  3
ObjectDBX Classes
 90
        0
280
     0
281
     0
  0
CLASS
  1
DICTIONARYVAR
  2
AcDbDictionaryVar
  3
ObjectDBX Classes
 90
        0
280
     0
281
     0
  0
CLASS
  1
TABLESTYLE
  2
AcDbTableStyle
  3
ObjectDBX Classes
 90
     4095
280
     0
281
     0
  0
CLASS
  1
SORTENTSTABLE
  2
AcDbSortentsTable
  3
ObjectDBX Classes
 90
        0
280
     0
281
     0
  0
CLASS
  1
ACDBPLACEHOLDER
  2
AcDbPlaceHolder
  3
ObjectDBX Classes
 90
        0
280
     0
281
     0
  0
CLASS
  1
LAYOUT
  2
AcDbLayout
  3
ObjectDBX Classes
 90
        0
280
     0
281
     0
  0
CLASS
  1
MATERIAL
  2
AcDbMaterial
  3
ObjectDBX Classes
 90
     1153
280
     0
281
     0
  0
CLASS
  1
VISUALSTYLE
  2
AcDbVisualStyle
  3
ObjectDBX Classes
 90
     4095
280
     0
281
     0
  0
CLASS
  1
SCALE
  2
AcDbScale
  3
ObjectDBX Classes
 90
     1153
280
     0
281
     0
  0
CLASS
  1
MLEADERSTYLE
  2
AcDbMLeaderStyle
  3
ACDB_MLEADERSTYLE_CLASS
 90
     4095
280
     0
281
     0
  0
CLASS
  1
ACDBSECTIONVIEWSTYLE
  2
AcDbSectionViewStyle
  3
ObjectDBX Classes
 90
     1025
280
     0
281
     0
  0
CLASS
  1
ACDBDETAILVIEWSTYLE
  2
AcDbDetailViewStyle
  3
ObjectDBX Classes
 90
     1025
280
     0
281
     0
  0
CLASS
  1
CELLSTYLEMAP
  2
AcDbCellStyleMap
  3
ObjectDBX Classes
 90
     1152
280
     0
281
     0
  0
ENDSEC
  0
SECTION
  2
TABLES
  0
TABLE
  2
VPORT
  5
8
330
0
100
AcDbSymbolTable
 70
     1
  0
VPORT
  5
9DD2
330
8
100
AcDbSymbolTableRecord
100
AcDbViewportTableRecord
  2
*Active
 70
     0
 10
0.0
 20
0.0
 11
1.0
 21
1.0
 12
83457.11590320059
 22
47448.76586332614
 13
0.0
 23
0.0
 14
10.0
 24
10.0
 15
10.0
 25
10.0
 16
0.0
 26
0.0
 36
1.0
 17
0.0
 27
0.0
 37
0.0
 40
40418.18977118625
 41
1.910735826296743
 42
50.0
 43
0.0
 44
0.0
 50
0.0
 51
0.0
 71
     0
 72
  1000
 73
     1
 74
     3
 75
     0
 76
     0
 77
     0
 78
     0
281
     0
 65
     1
110
0.0
120
0.0
130
0.0
111
1.0
121
0.0
131
0.0
112
0.0
122
1.0
132
0.0
 79
     0
146
0.0
1001
ACAD_NAV_VCDISPLAY
1070
     3
  0
ENDTAB
  0
TABLE
  2
LTYPE
  5
5
330
0
100
AcDbSymbolTable
 70
     8
  0
LTYPE
  5
14
330
5
100
AcDbSymbolTableRecord
100
AcDbLinetypeTableRecord
  2
ByBlock
 70
     0
  3

 72
    65
 73
     0
 40
0.0
  0
LTYPE
  5
15
330
5
100
AcDbSymbolTableRecord
100
AcDbLinetypeTableRecord
  2
ByLayer
 70
     0
  3

 72
    65
 73
     0
 40
0.0
  0
LTYPE
  5
16
330
5
100
AcDbSymbolTableRecord
100
AcDbLinetypeTableRecord
  2
Continuous
 70
     0
  3
Solid line
 72
    65
 73
     0
 40
0.0
  0
ENDTAB
  0
TABLE
  2
LAYER
  5
2
102
{ACAD_XDICTIONARY
360
616
102
}
330
0
100
AcDbSymbolTable
 70
     7
  0
LAYER
  5
10
102
{ACAD_XDICTIONARY
360
BC68
102
}
330
2
100
AcDbSymbolTableRecord
100
AcDbLayerTableRecord
  2
0
 70
     0
 62
     7
  6
Continuous
370
    -3
390
F
  0
LAYER
  5
60F
102
{ACAD_XDICTIONARY
360
BC6A
102
}
330
2
100
AcDbSymbolTableRecord
100
AcDbLayerTableRecord
  2
1
 70
     0
 62
     7
  6
Continuous
370
    -3
390
F
  0
LAYER
  5
610
330
2
100
AcDbSymbolTableRecord
100
AcDbLayerTableRecord
  2
DEFPOINTS
 70
     0
 62
     7
  6
Continuous
290
     0
370
    -3
390
F
  0
LAYER
  5
613
102
{ACAD_XDICTIONARY
360
BC6C
102
}
330
2
100
AcDbSymbolTableRecord
100
AcDbLayerTableRecord
  2
15
 70
     0
 62
    96
  6
Continuous
370
    -3
390
F
  0
LAYER
  5
9EC5
102
{ACAD_XDICTIONARY
360
9EC6
102
}
330
2
100
AcDbSymbolTableRecord
100
AcDbLayerTableRecord
  2
電気錠制御盤　（株）アート
 70
     0
 62
    40
  6
Continuous
370
    -3
390
F
  0
ENDTAB
  0
TABLE
  2
STYLE
  5
3
330
0
100
AcDbSymbolTable
 70
     2
  0
STYLE
  5
11
330
3
100
AcDbSymbolTableRecord
100
AcDbTextStyleTableRecord
  2
Standard
 70
     0
 40
0.0
 41
1.0
 50
0.0
 71
     0
 42
2.5
  3
txt.shx
  4
extfont2.shx
  0
STYLE
  5
614
330
3
100
AcDbSymbolTableRecord
100
AcDbTextStyleTableRecord
  2
KANJI
 70
     0
 40
0.0
 41
1.0
 50
0.0
 71
     0
 42
0.2
  3
TXT
  4
BIGFONT
  0
ENDTAB
  0
TABLE
  2
VIEW
  5
6
330
0
100
AcDbSymbolTable
 70
     0
  0
ENDTAB
  0
TABLE
  2
UCS
  5
7
330
0
100
AcDbSymbolTable
 70
     0
  0
ENDTAB
  0
TABLE
  2
APPID
  5
9
330
0
100
AcDbSymbolTable
 70
     5
  0
APPID
  5
12
330
9
100
AcDbSymbolTableRecord
100
AcDbRegAppTableRecord
  2
ACAD
 70
     0
  0
APPID
  5
9E
330
9
100
AcDbSymbolTableRecord
100
AcDbRegAppTableRecord
  2
ACAD_PSEXT
 70
     0
  0
APPID
  5
9D99
330
9
100
AcDbSymbolTableRecord
100
AcDbRegAppTableRecord
  2
ACAD_EXEMPT_FROM_CAD_STANDARDS
 70
     0
  0
APPID
  5
9EC7
330
9
100
AcDbSymbolTableRecord
100
AcDbRegAppTableRecord
  2
ACAD_NAV_VCDISPLAY
 70
     0
  0
APPID
  5
BD42
330
9
100
AcDbSymbolTableRecord
100
AcDbRegAppTableRecord
  2
ACAD_MLEADERVER
 70
     0
  0
ENDTAB
  0
TABLE
  2
DIMSTYLE
  5
A
330
0
100
AcDbSymbolTable
 70
     3
100
AcDbDimStyleTable
 71
     2
340
27
340
615
  0
DIMSTYLE
105
27
330
A
100
AcDbSymbolTableRecord
100
AcDbDimStyleTableRecord
  2
ISO-25
 70
     0
 41
2.5
 42
0.625
 43
3.75
 44
1.25
 73
     0
 74
     0
 77
     1
 78
     8
140
2.5
141
2.5
143
0.03937007874016
147
0.625
171
     3
172
     1
271
     2
272
     2
274
     3
278
    44
283
     0
284
     8
340
11
  0
DIMSTYLE
105
615
102
{ACAD_REACTORS
330
51A8
330
54AE
330
54AF
102
}
330
A
100
AcDbSymbolTableRecord
100
AcDbDimStyleTableRecord
  2
Standard
 70
     0
340
11
  0
ENDTAB
  0
TABLE
  2
BLOCK_RECORD
  5
1
330
0
100
AcDbSymbolTable
 70
   220
  0
BLOCK_RECORD
  5
1F
330
1
100
AcDbSymbolTableRecord
100
AcDbBlockTableRecord
  2
*Model_Space
340
22
  0
BLOCK_RECORD
  5
D2
330
1
100
AcDbSymbolTableRecord
100
AcDbBlockTableRecord
  2
*Paper_Space
340
D3
  0
BLOCK_RECORD
  5
D6
330
1
100
AcDbSymbolTableRecord
100
AcDbBlockTableRecord
  2
*Paper_Space0
340
D7
  0
BLOCK_RECORD
  5
FF
330
1
100
AcDbSymbolTableRecord
100
AcDbBlockTableRecord
  2
_OPEN30
340
0
102
{BLKREFS
331
BC47
331
BC48
331
BC50
331
BC51
331
BC59
331
BC5A
102
}
  0
BLOCK_RECORD
  5
105
330
1
100
AcDbSymbolTableRecord
100
AcDbBlockTableRecord
  2
*G22
340
0
102
{BLKREFS
331
54DD
331
51B8
102
}
  0
BLOCK_RECORD
  5
619A
330
1
100
AcDbSymbolTableRecord
100
AcDbBlockTableRecord
  2
*D83
340
0
  0
BLOCK_RECORD
  5
61A6
330
1
100
AcDbSymbolTableRecord
100
AcDbBlockTableRecord
  2
*D84
340
0
  0
BLOCK_RECORD
  5
628D
330
1
100
AcDbSymbolTableRecord
100
AcDbBlockTableRecord
  2
*D103
340
0
  0
ENDTAB
  0
ENDSEC
  0
SECTION
  2
BLOCKS
  0
BLOCK
  5
20
330
1F
100
AcDbEntity
  8
0
100
AcDbBlockBegin
  2
*Model_Space
 70
     0
 10
0.0
 20
0.0
 30
0.0
  3
*Model_Space
  1

  0
ENDBLK
  5
21
330
1F
100
AcDbEntity
  8
0
100
AcDbBlockEnd
  0
BLOCK
  5
D4
330
D2
100
AcDbEntity
 67
     1
  8
0
100
AcDbBlockBegin
  2
*Paper_Space
 70
     0
 10
0.0
 20
0.0
 30
0.0
  3
*Paper_Space
  1

  0
ENDBLK
  5
D5
330
D2
100
AcDbEntity
 67
     1
  8
0
100
AcDbBlockEnd
  0
BLOCK
  5
D8
330
D6
100
AcDbEntity
 67
     1
  8
0
100
AcDbBlockBegin
  2
*Paper_Space0
 70
     0
 10
0.0
 20
0.0
 30
0.0
  3
*Paper_Space0
  1

  0
ENDBLK
  5
D9
330
D6
100
AcDbEntity
 67
     1
  8
0
100
AcDbBlockEnd
  0
BLOCK
  5
100
330
FF
100
AcDbEntity
  8
0
 62
     0
100
AcDbBlockBegin
  2
_OPEN30
 70
     2
 10
0.0
 20
0.0
 30
0.0
  3
_OPEN30
  1

  0
LINE
  5
101
330
FF
100
AcDbEntity
  8
0
  6
ByBlock
 62
     0
100
AcDbLine
 10
-1.0
 20
0.267949
 30
0.0
 11
0.0
 21
0.0
 31
0.0
  0
LINE
  5
102
330
FF
100
AcDbEntity
  8
0
  6
ByBlock
 62
     0
100
AcDbLine
 10
0.0
 20
0.0
 30
0.0
 11
-1.0
 21
-0.267949
 31
0.0
  0
LINE
  5
103
330
FF
100
AcDbEntity
  8
0
  6
ByBlock
 62
     0
100
AcDbLine
 10
0.0
 20
0.0
 30
0.0
 11
-1.0
 21
0.0
 31
0.0
  0
ENDBLK
  5
104
330
FF
100
AcDbEntity
  8
0
 62
     0
100
AcDbBlockEnd
  0
BLOCK
  5
106
330
105
100
AcDbEntity
  8
1
  6
Continuous
 62
     7
100
AcDbBlockBegin
  2
*G22
 70
     0
 10
0.0
 20
0.0
 30
0.0
  3
*G22
  1

  0
ARC
  5
107
330
105
100
AcDbEntity
  8
1
  6
Continuous
 62
     7
100
AcDbCircle
 10
32.13475886270924
 20
198.4235911970954
 30
0.0
 40
0.2061750317438645
100
AcDbArc
 50
155.1525871731279
 51
-114.8474128268715
  0
LINE
  5
108
330
105
100
AcDbEntity
  8
1
  6
Continuous
 62
     7
100
AcDbLine
 10
31.94766943984103
 20
198.5102265915103
 30
0.0
 11
32.76035086431063
 21
200.2652148351326
 31
0.0
  0
ARC
  5
109
330
105
100
AcDbEntity
  8
1
  6
Continuous
 62
     7
100
AcDbCircle
 10
32.94744028717883
 20
200.1785794407177
 30
0.0
 40
0.2061750317438645
100
AcDbArc
 50
65.15258717313511
 51
155.1525871731422
  0
ARC
  5
10A
330
105
100
AcDbEntity
  8
1
  6
Continuous
 62
     7
100
AcDbCircle
 10
35.01190969208932
 20
197.0912705716258
 30
0.0
 40
0.2061750317438645
100
AcDbArc
 50
-114.8474128268715
 51
-24.84741282686105
  0
LINE
  5
10B
330
105
100
AcDbEntity
  8
1
  6
Continuous
 62
     7
100
AcDbLine
 10
36.01168053942711
 20
198.7596234208332
 30
0.0
 11
35.1989991149575
 21
197.004635177211
 31
0.0
  0
ARC
  5
10C
330
105
100
AcDbEntity
  8
1
  6
Continuous
 62
     7
100
AcDbCircle
 10
35.8245911165589
 20
198.8462588152481
 30
0.0
 40
0.2061750317438645
100
AcDbArc
 50
-24.84741282687206
 51
65.15258717313511
  0
LINE
  5
10D
330
105
100
AcDbEntity
  8
1
  6
Continuous
 62
     7
100
AcDbLine
 10
35.91122651097382
 20
199.0333482381164
 30
0.0
 11
35.42301228255293
 21
199.2594253278298
 31
0.0
  0
LINE
  5
10E
330
105
100
AcDbEntity
  8
1
  6
Continuous
 62
     7
100
AcDbLine
 10
32.04812346829433
 20
198.2365017742272
 30
0.0
 11
33.25456303002766
 21
197.6778364810955
 31
0.0
  0
LINE
  5
10F
330
105
100
AcDbEntity
  8
1
  6
Continuous
 62
     7
100
AcDbLine
 10
33.44351023631614
 20
197.5903408039512
 30
0.0
 11
34.9252742976744
 21
196.9041811487577
 31
0.0
  0
LINE
  5
110
330
105
100
AcDbEntity
  8
1
  6
Continuous
 62
     7
100
AcDbLine
 10
35.42301228255293
 20
199.2594253278298
 30
0.0
 11
35.04624409014212
 21
199.433895163976
 31
0.0
  0
LINE
  5
111
330
105
100
AcDbEntity
  8
1
  6
Continuous
 62
     7
100
AcDbLine
 10
34.85729732141005
 20
199.5213906385013
 30
0.0
 11
33.03407568159375
 21
200.3656688635859
 31
0.0
  0
ENDBLK
  5
112
330
105
100
AcDbEntity
  8
0
100
AcDbBlockEnd
  0
BLOCK
  5
61A4
330
619A
100
AcDbEntity
  8
0
100
AcDbBlockBegin
  2
*D83
 70
     1
 10
0.0
 20
0.0
 30
0.0
  3
*D83
  1

  0
LINE
  5
BC4D
330
619A
100
AcDbEntity
  8
電気錠制御盤　（株）アート
  6
Continuous
 62
     0
370
    -2
100
AcDbLine
 10
74885.89656130485
 20
54867.11008083077
 30
0.0
 11
76088.56659171621
 21
54867.11008083077
 31
0.0
  0
LINE
  5
BC4E
330
619A
100
AcDbEntity
  8
電気錠制御盤　（株）アート
  6
Continuous
 62
     0
370
    -2
100
AcDbLine
 10
74885.89656130485
 20
44499.11008083077
 30
0.0
 11
76088.56659171621
 21
44499.11008083077
 31
0.0
  0
LINE
  5
BC4F
330
619A
100
AcDbEntity
  8
電気錠制御盤　（株）アート
  6
Continuous
 62
     0
370
    -2
100
AcDbLine
 10
76088.38659171622
 20
54367.11008083078
 30
0.0
 11
76088.38659171622
 21
44999.11008083077
 31
0.0
  0
INSERT
  5
BC50
330
619A
100
AcDbEntity
  8
電気錠制御盤　（株）アート
  6
Continuous
 62
     0
370
    -2
100
AcDbBlockReference
  2
_OPEN30
 10
76088.38659171622
 20
54867.11008083077
 30
0.0
 41
500.0
 42
500.0
 43
500.0
 50
90.0
  0
INSERT
  5
BC51
330
619A
100
AcDbEntity
  8
電気錠制御盤　（株）アート
  6
Continuous
 62
     0
370
    -2
100
AcDbBlockReference
  2
_OPEN30
 10
76088.38659171622
 20
44499.11008083077
 30
0.0
 41
500.0
 42
500.0
 43
500.0
 50
270.0
  0
MTEXT
  5
BC52
330
619A
100
AcDbEntity
  8
電気錠制御盤　（株）アート
  6
Continuous
 62
     0
370
    13
100
AcDbMText
 10
75838.3865917162
 20
49683.11008083078
 30
0.0
 40
400.0
 41
0.0
 71
     5
 72
     1
  1
\A1;135
 11
0.0000000000000001
 21
1.0
 31
0.0
 73
     1
 44
1.0
1001
ACAD
1000
MTEXTBEGIN
1070
    73
1070
     1
1070
    44
1040
1.0
1070
    74
1070
     0
1000
MTEXTEND
  0
POINT
  5
BC53
330
619A
100
AcDbEntity
  8
DEFPOINTS
  6
Continuous
 62
     0
100
AcDbPoint
 10
74885.83406130485
 20
54867.11008083077
 30
0.0
  0
POINT
  5
BC54
330
619A
100
AcDbEntity
  8
DEFPOINTS
  6
Continuous
 62
     0
100
AcDbPoint
 10
74885.83406130485
 20
44499.11008083077
 30
0.0
  0
POINT
  5
BC55
330
619A
100
AcDbEntity
  8
DEFPOINTS
  6
Continuous
 62
     0
100
AcDbPoint
 10
76088.38659171622
 20
44499.11008083077
 30
0.0
  0
ENDBLK
  5
61A5
330
619A
100
AcDbEntity
  8
0
100
AcDbBlockEnd
  0
BLOCK
  5
61B0
330
61A6
100
AcDbEntity
  8
0
100
AcDbBlockBegin
  2
*D84
 70
     1
 10
0.0
 20
0.0
 30
0.0
  3
*D84
  1

  0
LINE
  5
BC44
330
61A6
100
AcDbEntity
  8
電気錠制御盤　（株）アート
  6
Continuous
 62
     0
370
    -2
100
AcDbLine
 10
67474.63406179659
 20
54751.97258083077
 30
0.0
 11
67474.63406179659
 21
55635.29008083078
 31
0.0
  0
LINE
  5
BC45
330
61A6
100
AcDbEntity
  8
電気錠制御盤　（株）アート
  6
Continuous
 62
     0
370
    -2
100
AcDbLine
 10
75001.03406130483
 20
54751.97258083077
 30
0.0
 11
75001.03406130483
 21
55635.29008083078
 31
0.0
  0
LINE
  5
BC46
330
61A6
100
AcDbEntity
  8
電気錠制御盤　（株）アート
  6
Continuous
 62
     0
370
    -2
100
AcDbLine
 10
67974.63406179659
 20
55635.11008083077
 30
0.0
 11
74501.03406130483
 21
55635.11008083077
 31
0.0
  0
INSERT
  5
BC47
330
61A6
100
AcDbEntity
  8
電気錠制御盤　（株）アート
  6
Continuous
 62
     0
370
    -2
100
AcDbBlockReference
  2
_OPEN30
 10
67474.63406179659
 20
55635.11008083077
 30
0.0
 41
500.0
 42
500.0
 43
500.0
 50
180.0
  0
INSERT
  5
BC48
330
61A6
100
AcDbEntity
  8
電気錠制御盤　（株）アート
  6
Continuous
 62
     0
370
    -2
100
AcDbBlockReference
  2
_OPEN30
 10
75001.03406130483
 20
55635.11008083077
 30
0.0
 41
500.0
 42
500.0
 43
500.0
  0
MTEXT
  5
BC49
330
61A6
100
AcDbEntity
  8
電気錠制御盤　（株）アート
  6
Continuous
 62
     0
370
    13
100
AcDbMText
 10
71237.8340615507
 20
55885.11008083077
 30
0.0
 40
400.0
 41
0.0
 71
     5
 72
     1
  1
\A1;98
 73
     1
 44
1.0
1001
ACAD
1000
MTEXTBEGIN
1070
    73
1070
     1
1070
    44
1040
1.0
1070
    74
1070
     0
1000
MTEXTEND
  0
POINT
  5
BC4A
330
61A6
100
AcDbEntity
  8
DEFPOINTS
  6
Continuous
 62
     0
100
AcDbPoint
 10
67474.63406179659
 20
54751.91008083077
 30
0.0
  0
POINT
  5
BC4B
330
61A6
100
AcDbEntity
  8
DEFPOINTS
  6
Continuous
 62
     0
100
AcDbPoint
 10
75001.03406130483
 20
54751.91008083077
 30
0.0
  0
POINT
  5
BC4C
330
61A6
100
AcDbEntity
  8
DEFPOINTS
  6
Continuous
 62
     0
100
AcDbPoint
 10
75001.03406130483
 20
55635.11008083077
 30
0.0
  0
ENDBLK
  5
61B1
330
61A6
100
AcDbEntity
  8
0
100
AcDbBlockEnd
  0
BLOCK
  5
6297
330
628D
100
AcDbEntity
  8
0
100
AcDbBlockBegin
  2
*D103
 70
     1
 10
0.0
 20
0.0
 30
0.0
  3
*D103
  1

  0
LINE
  5
BC56
330
628D
100
AcDbEntity
  8
電気錠制御盤　（株）アート
  6
Continuous
 62
     0
370
    -2
100
AcDbLine
 10
77753.68153089347
 20
54750.79128773773
 30
0.0
 11
77753.68153089347
 21
55636.63062825344
 31
0.0
  0
LINE
  5
BC57
330
628D
100
AcDbEntity
  8
電気錠制御盤　（株）アート
  6
Continuous
 62
     0
370
    -2
100
AcDbLine
 10
80211.28153089348
 20
55022.11312628762
 30
0.0
 11
80211.28153089348
 21
55636.63062825344
 31
0.0
  0
LINE
  5
BC58
330
628D
100
AcDbEntity
  8
電気錠制御盤　（株）アート
  6
Continuous
 62
     0
370
    -2
100
AcDbLine
 10
78253.68153089347
 20
55636.45062825345
 30
0.0
 11
79711.28153089348
 21
55636.45062825345
 31
0.0
  0
INSERT
  5
BC59
330
628D
100
AcDbEntity
  8
電気錠制御盤　（株）アート
  6
Continuous
 62
     0
370
    -2
100
AcDbBlockReference
  2
_OPEN30
 10
77753.68153089347
 20
55636.45062825345
 30
0.0
 41
500.0
 42
500.0
 43
500.0
 50
180.0
  0
INSERT
  5
BC5A
330
628D
100
AcDbEntity
  8
電気錠制御盤　（株）アート
  6
Continuous
 62
     0
370
    -2
100
AcDbBlockReference
  2
_OPEN30
 10
80211.28153089348
 20
55636.45062825345
 30
0.0
 41
500.0
 42
500.0
 43
500.0
  0
MTEXT
  5
BC5B
330
628D
100
AcDbEntity
  8
電気錠制御盤　（株）アート
  6
Continuous
 62
     0
370
    13
100
AcDbMText
 10
78982.48153089348
 20
55886.45062825345
 30
0.0
 40
400.0
 41
0.0
 71
     5
 72
     1
  1
\A1;32
 73
     1
 44
1.0
1001
ACAD
1000
MTEXTBEGIN
1070
    73
1070
     1
1070
    44
1040
1.0
1070
    74
1070
     0
1000
MTEXTEND
  0
POINT
  5
BC5C
330
628D
100
AcDbEntity
  8
DEFPOINTS
  6
Continuous
 62
     0
100
AcDbPoint
 10
77753.68153089347
 20
54750.72878773773
 30
0.0
  0
POINT
  5
BC5D
330
628D
100
AcDbEntity
  8
DEFPOINTS
  6
Continuous
 62
     0
100
AcDbPoint
 10
80211.28153089348
 20
55022.05062628763
 30
0.0
  0
POINT
  5
BC5E
330
628D
100
AcDbEntity
  8
DEFPOINTS
  6
Continuous
 62
     0
100
AcDbPoint
 10
80211.28153089348
 20
55636.45062825345
 30
0.0
  0
ENDBLK
  5
6298
330
628D
100
AcDbEntity
  8
0
100
AcDbBlockEnd
  0
ENDSEC
  0
SECTION
  2
ENTITIES
  0
LINE
  5
372B
330
1F
100
AcDbEntity
  8
電気錠制御盤　（株）アート
  6
Continuous
 62
     7
370
    13
100
AcDbLine
 10
65026.83963707437
 20
59343.15712542247
 30
0.0
 11
65026.83963707437
 21
57506.02460704753
 31
0.0
  0
LINE
  5
3736
330
1F
100
AcDbEntity
  8
電気錠制御盤　（株）アート
 62
     7
370
    13
100
AcDbLine
 10
62271.14085951177
 20
59343.15712542247
 30
0.0
 11
84851.59853155648
 21
59343.15712542247
 31
0.0
  0
LINE
  5
3738
330
1F
100
AcDbEntity
  8
電気錠制御盤　（株）アート
  6
Continuous
 62
     7
370
    13
100
AcDbLine
 10
62271.14085951177
 20
57506.02460704753
 30
0.0
 11
84851.59853155487
 21
57506.02460704753
 31
0.0
  0
LINE
  5
3739
330
1F
100
AcDbEntity
  8
電気錠制御盤　（株）アート
  6
Continuous
 62
     7
370
    13
100
AcDbLine
 10
62271.14085951177
 20
59343.15712542247
 30
0.0
 11
62271.14085951177
 21
34263.20110063238
 31
0.0
  0
LINE
  5
373A
330
1F
100
AcDbEntity
  8
電気錠制御盤　（株）アート
 62
     7
370
    13
100
AcDbLine
 10
62271.14085951177
 20
34263.20110063238
 30
0.0
 11
84851.59853155648
 21
34263.20110063238
 31
0.0
  0
LINE
  5
373B
330
1F
100
AcDbEntity
  8
電気錠制御盤　（株）アート
  6
Continuous
 62
     7
370
    13
100
AcDbLine
 10
84851.59853155648
 20
59343.15712542247
 30
0.0
 11
84851.59853155648
 21
34263.20110063238
 31
0.0
  0
TEXT
  5
418F
330
1F
100
AcDbEntity
  8
15
  6
Continuous
 62
    96
100
AcDbText
 10
177832.9914936193
 20
113081.8097269761
 30
0.0
 40
6.0
  1
　
 41
0.8333333333333332
 11
177832.9914936193
 21
113081.8097269761
 31
0.0
100
AcDbText
 73
     1
  0
TEXT
  5
4190
330
1F
100
AcDbEntity
  8
15
  6
Continuous
 62
    96
100
AcDbText
 10
177832.9914936193
 20
113081.8097269761
 30
0.0
 40
6.0
  1
　
 41
0.8333333333333332
 11
177832.9914936193
 21
113081.8097269761
 31
0.0
100
AcDbText
 73
     1
  0
TEXT
  5
4406
330
1F
100
AcDbEntity
  8
15
  6
Continuous
 62
    96
100
AcDbText
 10
176501.6732595321
 20
112445.432569049
 30
0.0
 40
3.0
  1
　
 41
0.8333333333333332
 11
176501.6732595321
 21
112445.432569049
 31
0.0
100
AcDbText
 73
     1
  0
TEXT
  5
519B
330
1F
100
AcDbEntity
  8
電気錠制御盤　（株）アート
  6
Continuous
 62
     7
370
    13
100
AcDbText
 10
65610.44987616861
 20
58034.10988212308
 30
0.0
 40
735.5708998221611
  1
手の甲静脈認証装置用インターフェース　Ｍ－ＩＦ－ＶＰ
 41
0.75
  7
KANJI
100
AcDbText
  0
LINE
  5
519C
330
1F
100
AcDbEntity
  8
電気錠制御盤　（株）アート
  6
Continuous
 62
     7
370
    13
100
AcDbLine
 10
63140.20444318329
 20
57967.3743108376
 30
0.0
 11
64054.63755397803
 21
57967.37431083759
 31
0.0
  0
LINE
  5
519D
330
1F
100
AcDbEntity
  8
電気錠制御盤　（株）アート
  6
Continuous
 62
     7
370
    13
100
AcDbLine
 10
63140.20444318329
 20
58881.80742163234
 30
0.0
 11
63140.20444318329
 21
57967.3743108376
 31
0.0
  0
LINE
  5
519E
330
1F
100
AcDbEntity
  8
電気錠制御盤　（株）アート
  6
Continuous
 62
     7
370
    13
100
AcDbLine
 10
64054.63755397803
 20
57967.3743108376
 30
0.0
 11
64054.63755397803
 21
58881.80742163234
 31
0.0
  0
LINE
  5
519F
330
1F
100
AcDbEntity
  8
電気錠制御盤　（株）アート
  6
Continuous
 62
     7
370
    13
100
AcDbLine
 10
64054.63755397803
 20
58881.80742163234
 30
0.0
 11
63140.20444318329
 21
58881.80742163234
 31
0.0
  0
TEXT
  5
51A0
330
1F
100
AcDbEntity
  8
電気錠制御盤　（株）アート
  6
Continuous
 62
     7
370
    13
100
AcDbText
 10
63322.80786264706
 20
58032.28638632981
 30
0.0
 40
735.5708998221611
  1
Ｕ
 41
0.8
  7
KANJI
 72
     4
 11
63597.42099858067
 21
58424.59086623497
 31
0.0
100
AcDbText
  0
LINE
  5
51A1
330
1F
100
AcDbEntity
  8
電気錠制御盤　（株）アート
  6
Continuous
 62
     7
370
    13
100
AcDbLine
 10
77753.68153089347
 20
44771.77246703582
 30
0.0
 11
77753.68153089347
 21
54599.80988431648
 31
0.0
  0
ARC
  5
51A2
330
1F
100
AcDbEntity
  8
電気錠制御盤　（株）アート
  6
Continuous
 62
     7
370
    13
100
AcDbCircle
 10
77868.88153089347
 20
54597.12878773773
 30
0.0
 40
115.1999999999999
100
AcDbArc
 50
90.9999999281374
 51
180.0
  0
LINE
  5
51A3
330
1F
100
AcDbEntity
  8
電気錠制御盤　（株）アート
  6
Continuous
 62
     7
370
    13
100
AcDbLine
 10
78482.61135849419
 20
54838.27657659577
 30
0.0
 11
80211.28153089348
 21
54868.45062628761
 31
0.0
  0
ARC
  5
51A4
330
1F
100
AcDbEntity
  8
電気錠制御盤　（株）アート
  6
Continuous
 62
     7
370
    13
100
AcDbCircle
 10
78483.28153089348
 20
54799.88242510112
 30
0.0
 40
38.39999999999999
100
AcDbArc
 50
90.9999999865097
 51
180.0
  0
ARC
  5
51A5
330
1F
100
AcDbEntity
  8
電気錠制御盤　（株）アート
  6
Continuous
 62
     7
370
    13
100
AcDbCircle
 10
57139.89222425581
 20
49684.63733187318
 30
0.0
 40
21919.38930743189
100
AcDbArc
 50
346.5050288877826
 51
13.49397151796245
  0
LINE
  5
51A6
330
1F
100
AcDbEntity
  8
電気錠制御盤　（株）アート
  6
Continuous
 62
     7
370
    13
100
AcDbLine
 10
78444.88153089347
 20
54799.88242510112
 30
0.0
 11
78444.88153089347
 21
54722.40045260938
 31
0.0
  0
LINE
  5
51A7
330
1F
100
AcDbEntity
  8
電気錠制御盤　（株）アート
  6
Continuous
 62
     7
370
    13
100
AcDbLine
 10
78444.88153089347
 20
54722.40045260938
 30
0.0
 11
77866.87101381409
 21
54712.31124222279
 31
0.0
  0
DIMENSION
  5
51A8
330
1F
100
AcDbEntity
  8
電気錠制御盤　（株）アート
  6
Continuous
 62
     7
370
    13
100
AcDbDimension
  2
*D103
 10
80211.28153089348
 20
55636.45062825345
 30
0.0
 11
78982.48153089348
 21
55886.45062825345
 31
0.0
 70
    32
  1
32
 71
     5
 42
2457.600000000006
  3
Standard
100
AcDbAlignedDimension
 13
77753.68153089347
 23
54750.72878773773
 33
0.0
 14
80211.28153089348
 24
55022.05062628763
 34
0.0
100
AcDbRotatedDimension
1001
ACAD
1000
DSTYLE
1002
{
1070
    41
1040
500.0
1070
    73
1070
     0
1070
    77
1070
     1
1070
   140
1040
400.0
1070
   147
1040
50.0
1070
   173
1070
     1
1070
   343
1005
FF
1070
   344
1005
FF
1002
}
  0
LINE
  5
51A9
330
1F
100
AcDbEntity
  8
電気錠制御盤　（株）アート
  6
Continuous
 62
     7
370
    13
100
AcDbLine
 10
78444.88153089347
 20
44646.50080216417
 30
0.0
 11
77866.87101381409
 21
44656.59001255073
 31
0.0
  0
LINE
  5
51AA
330
1F
100
AcDbEntity
  8
電気錠制御盤　（株）アート
  6
Continuous
 62
     7
370
    13
100
AcDbLine
 10
78444.88153089347
 20
44646.50080216417
 30
0.0
 11
78444.88153089347
 21
44569.01882865095
 31
0.0
  0
ARC
  5
51AB
330
1F
100
AcDbEntity
  8
電気錠制御盤　（株）アート
  6
Continuous
 62
     7
370
    13
100
AcDbCircle
 10
78483.28153089348
 20
44569.01882865095
 30
0.0
 40
38.39999999999999
100
AcDbArc
 50
180.0
 51
269.0000000468458
  0
LINE
  5
51AC
330
1F
100
AcDbEntity
  8
電気錠制御盤　（株）アート
  6
Continuous
 62
     7
370
    13
100
AcDbLine
 10
78482.61135851656
 20
44530.6246771563
 30
0.0
 11
80211.28153395343
 21
44500.45062843226
 31
0.0
  0
ARC
  5
51AD
330
1F
100
AcDbEntity
  8
電気錠制御盤　（株）アート
  6
Continuous
 62
     7
370
    13
100
AcDbCircle
 10
77868.88153089347
 20
44771.77246703582
 30
0.0
 40
115.1999999999999
100
AcDbArc
 50
180.0
 51
269.0000000718625
  0
LINE
  5
51AE
330
1F
100
AcDbEntity
  8
電気錠制御盤　（株）アート
  6
Continuous
 62
     7
370
    13
100
AcDbLine
 10
80211.28153089348
 20
54868.45062825346
 30
0.0
 11
80211.28153089348
 21
44500.45062825346
 31
0.0
  0
LINE
  5
51AF
330
1F
100
AcDbEntity
  8
電気錠制御盤　（株）アート
  6
Continuous
 62
     7
370
    13
100
AcDbLine
 10
80211.28153089348
 20
54868.45062629098
 30
0.0
 11
80211.28153089348
 21
54714.85062629096
 31
0.0
  0
LINE
  5
51B0
330
1F
100
AcDbEntity
  8
電気錠制御盤　（株）アート
  6
Continuous
 62
     7
370
    13
100
AcDbLine
 10
68508.08107431268
 20
51807.296316975
 30
0.0
 11
68514.17510570548
 21
51820.36293700376
 31
0.0
  0
LINE
  5
51B1
330
1F
100
AcDbEntity
  8
電気錠制御盤　（株）アート
  6
Continuous
 62
     7
370
    13
100
AcDbLine
 10
68486.29532984979
 20
51760.58419988418
 30
0.0
 11
68492.37065577169
 21
51773.61066731328
 31
0.0
  0
ARC
  5
51B2
330
1F
100
AcDbEntity
  8
電気錠制御盤　（株）アート
  6
Continuous
 62
     7
370
    13
100
AcDbCircle
 10
68442.16815633886
 20
51742.14058906699
 30
0.0
 40
59.25079555611147
100
AcDbArc
 50
32.08206812490318
 51
148.9902909702336
  0
ARC
  5
51B3
330
1F
100
AcDbEntity
  8
電気錠制御盤　（株）アート
  6
Continuous
 62
     7
370
    13
100
AcDbCircle
 10
68442.02728844693
 20
51747.85882286691
 30
0.0
 40
102.2846718804304
100
AcDbArc
 50
45.14112681463056
 51
135.2675472961197
  0
LINE
  5
51B4
330
1F
100
AcDbEntity
  8
電気錠制御盤　（株）アート
  6
Continuous
 62
     7
370
    13
100
AcDbLine
 10
68397.03641629033
 20
51760.55843681172
 30
0.0
 11
68391.38548372129
 21
51772.66561053919
 31
0.0
  0
ARC
  5
51B5
330
1F
100
AcDbEntity
  8
電気錠制御盤　（株）アート
  6
Continuous
 62
     7
370
    13
100
AcDbCircle
 10
68441.67368281
 20
51733.51364186705
 30
0.0
 40
52.19105762423787
100
AcDbArc
 50
31.2438788119349
 51
148.7891960980938
  0
LINE
  5
51B6
330
1F
100
AcDbEntity
  8
電気錠制御盤　（株）アート
  6
Continuous
 62
     7
370
    13
100
AcDbLine
 10
68375.23603456356
 20
51807.2659068715
 30
0.0
 11
68369.36416011416
 21
51819.84648766147
 31
0.0
  0
ARC
  5
51B7
330
1F
100
AcDbEntity
  8
電気錠制御盤　（株）アート
  6
Continuous
 62
     7
370
    13
100
AcDbCircle
 10
68441.67368281
 20
51741.1935602434
 30
0.0
 40
93.6990719999987
100
AcDbArc
 50
44.86827985522756
 51
135.1579517683494
  0
INSERT
  5
51B8
330
1F
100
AcDbEntity
  8
電気錠制御盤　（株）アート
  6
Continuous
 62
     7
370
    13
100
AcDbBlockReference
  2
*G22
 10
65842.26875839345
 20
36765.11065970847
 30
0.0
 41
76.79999999999927
 42
76.79999999999927
 43
76.79999999999927
  0
ARC
  5
51B9
330
1F
100
AcDbEntity
  8
電気錠制御盤　（株）アート
  6
Continuous
 62
     7
370
    13
100
AcDbCircle
 10
68446.67429595553
 20
51987.11008083188
 30
0.0
 40
268.8
100
AcDbArc
 50
51.47258163365425
 51
226.5218663894474
  0
ARC
  5
51BA
330
1F
100
AcDbEntity
  8
電気錠制御盤　（株）アート
  6
Continuous
 62
     7
370
    13
100
AcDbCircle
 10
68446.67429595553
 20
51987.11008083188
 30
0.0
 40
268.8
100
AcDbArc
 50
229.7966998258579
 51
48.19774819809673
  0
LINE
  5
51BB
330
1F
100
AcDbEntity
  8
電気錠制御盤　（株）アート
  6
Continuous
 62
     7
370
    13
100
AcDbLine
 10
68625.84609918259
 20
52187.48698800469
 30
0.0
 11
68273.16344424225
 21
51781.81170203203
 31
0.0
  0
LINE
  5
51BC
330
1F
100
AcDbEntity
  8
電気錠制御盤　（株）アート
  6
Continuous
 62
     7
370
    13
100
AcDbLine
 10
68614.10687938369
 20
52197.39505415821
 30
0.0
 11
68261.71901198366
 21
51792.05884927736
 31
0.0
  0
LINE
  5
51BD
330
1F
100
AcDbEntity
  8
電気錠制御盤　（株）アート
  6
Continuous
 62
     7
370
    13
100
AcDbLine
 10
69430.26513731964
 20
44645.16025474146
 30
0.0
 11
74742.63925693517
 21
44645.16025474146
 31
0.0
  0
ARC
  5
51BE
330
1F
100
AcDbEntity
  8
電気錠制御盤　（株）アート
  6
Continuous
 62
     7
370
    13
100
AcDbCircle
 10
74613.06388665923
 20
44886.950080831
 30
0.0
 40
76.79999999999998
100
AcDbArc
 50
270.0
 51
0.0
  0
ARC
  5
51BF
330
1F
100
AcDbEntity
  8
電気錠制御盤　（株）アート
  6
Continuous
 62
     7
370
    13
100
AcDbCircle
 10
74624.58388665877
 20
44875.43008083033
 30
0.0
 40
76.79999999999998
100
AcDbArc
 50
270.0
 51
0.0
  0
LINE
  5
51C0
330
1F
100
AcDbEntity
  8
電気錠制御盤　（株）アート
  6
Continuous
 62
     7
370
    13
100
AcDbLine
 10
72109.22655269019
 20
44810.15008083099
 30
0.0
 11
74613.06388665923
 21
44810.15008083099
 31
0.0
  0
ARC
  5
51C1
330
1F
100
AcDbEntity
  8
電気錠制御盤　（株）アート
  6
Continuous
 62
     7
370
    13
100
AcDbCircle
 10
72109.22655269019
 20
44963.75008083099
 30
0.0
 40
153.6
100
AcDbArc
 50
175.7635970253946
 51
270.0
  0
LINE
  5
51C2
330
1F
100
AcDbEntity
  8
電気錠制御盤　（株）アート
  6
Continuous
 62
     7
370
    13
100
AcDbLine
 10
74689.86388665922
 20
47495.13050468938
 30
0.0
 11
74689.86388665922
 21
44886.950080831
 31
0.0
  0
ARC
  5
51C3
330
1F
100
AcDbEntity
  8
電気錠制御盤　（株）アート
  6
Continuous
 62
     7
370
    13
100
AcDbCircle
 10
74854.98388665878
 20
44760.36025474148
 30
0.0
 40
2906.879999999999
100
AcDbArc
 50
96.6474690504161
 51
175.7635970253946
  0
ARC
  5
51C4
330
1F
100
AcDbEntity
  8
電気錠制御盤　（株）アート
  6
Continuous
 62
     7
370
    13
100
AcDbCircle
 10
74536.26388665923
 20
47495.13050468938
 30
0.0
 40
153.6
100
AcDbArc
 50
0.0
 51
96.6474690504161
  0
LINE
  5
51C5
330
1F
100
AcDbEntity
  8
電気錠制御盤　（株）アート
  6
Continuous
 62
     7
370
    13
100
AcDbLine
 10
74701.38388665877
 20
47508.04058549369
 30
0.0
 11
74701.38388665877
 21
44875.43008083033
 31
0.0
  0
ARC
  5
51C6
330
1F
100
AcDbEntity
  8
電気錠制御盤　（株）アート
  6
Continuous
 62
     7
370
    13
100
AcDbCircle
 10
74547.78388665879
 20
47508.04058549369
 30
0.0
 40
153.6
100
AcDbArc
 50
0.0
 51
96.37937020922166
  0
LINE
  5
51C7
330
1F
100
AcDbEntity
  8
電気錠制御盤　（株）アート
  6
Continuous
 62
     7
370
    13
100
AcDbLine
 10
72096.84955167063
 20
44798.63008083031
 30
0.0
 11
74624.58388665877
 21
44798.63008083031
 31
0.0
  0
ARC
  5
51C8
330
1F
100
AcDbEntity
  8
電気錠制御盤　（株）アート
  6
Continuous
 62
     7
370
    13
100
AcDbCircle
 10
74854.98388665878
 20
44760.36025474148
 30
0.0
 40
2918.399999999971
100
AcDbArc
 50
96.37937020922166
 51
176.0206255796235
  0
ARC
  5
51C9
330
1F
100
AcDbEntity
  8
電気錠制御盤　（株）アート
  6
Continuous
 62
     7
370
    13
100
AcDbCircle
 10
72096.84955167063
 20
44952.23008083033
 30
0.0
 40
153.6
100
AcDbArc
 50
176.0206255796235
 51
270.0
  0
ARC
  5
51CA
330
1F
100
AcDbEntity
  8
電気錠制御盤　（株）アート
  6
Continuous
 62
     7
370
    13
100
AcDbCircle
 10
71936.83652917408
 20
44798.76025474148
 30
0.0
 40
153.6
100
AcDbArc
 50
179.2460864092201
 51
270.0
  0
ARC
  5
51CB
330
1F
100
AcDbEntity
  8
電気錠制御盤　（株）アート
  6
Continuous
 62
     7
370
    13
100
AcDbCircle
 10
74854.98388665878
 20
44760.36025474148
 30
0.0
 40
3072.000000000008
100
AcDbArc
 50
93.01696131063964
 51
179.2460864092201
  0
ARC
  5
51CC
330
1F
100
AcDbEntity
  8
電気錠制御盤　（株）アート
  6
Continuous
 62
     7
370
    13
100
AcDbCircle
 10
74701.38388665877
 20
47674.71534635316
 30
0.0
 40
153.6
100
AcDbArc
 50
0.0
 51
93.01696131063964
  0
LINE
  5
51CD
330
1F
100
AcDbEntity
  8
電気錠制御盤　（株）アート
  6
Continuous
 62
     7
370
    13
100
AcDbLine
 10
68715.47512814439
 20
51219.11008083078
 30
0.0
 11
69126.35512814262
 21
51219.11008083078
 31
0.0
  0
LINE
  5
51CE
330
1F
100
AcDbEntity
  8
電気錠制御盤　（株）アート
  6
Continuous
 62
     7
370
    13
100
AcDbLine
 10
69587.15512814262
 20
51219.11008083078
 30
0.0
 11
70591.22378331609
 21
51219.11008083078
 31
0.0
  0
LINE
  5
51CF
330
1F
100
AcDbEntity
  8
電気錠制御盤　（株）アート
  6
Continuous
 62
     7
370
    13
100
AcDbLine
 10
68715.47512814439
 20
51219.11008083078
 30
0.0
 11
69126.35512814262
 21
51219.11008083078
 31
0.0
  0
LINE
  5
51D0
330
1F
100
AcDbEntity
  8
電気錠制御盤　（株）アート
  6
Continuous
 62
     7
370
    13
100
AcDbLine
 10
67793.8751281444
 20
51219.11008083078
 30
0.0
 11
68177.87512814438
 21
51219.11008083078
 31
0.0
  0
ARC
  5
51D1
330
1F
100
AcDbEntity
  8
電気錠制御盤　（株）アート
  6
Continuous
 62
     7
370
    13
100
AcDbCircle
 10
69164.75512814261
 20
51265.19008083122
 30
0.0
 40
38.39999999999999
100
AcDbArc
 50
90.0
 51
180.0
  0
LINE
  5
51D2
330
1F
100
AcDbEntity
  8
電気錠制御盤　（株）アート
  6
Continuous
 62
     7
370
    13
100
AcDbLine
 10
69126.35512814262
 20
51265.19008083122
 30
0.0
 11
69126.35512814262
 21
51173.03008083033
 31
0.0
  0
ARC
  5
51D3
330
1F
100
AcDbEntity
  8
電気錠制御盤　（株）アート
  6
Continuous
 62
     7
370
    13
100
AcDbCircle
 10
69164.75512814261
 20
51173.03008083033
 30
0.0
 40
38.39999999999999
100
AcDbArc
 50
180.0
 51
270.0
  0
LINE
  5
51D4
330
1F
100
AcDbEntity
  8
電気錠制御盤　（株）アート
  6
Continuous
 62
     7
370
    13
100
AcDbLine
 10
69548.75512814261
 20
51303.59008083122
 30
0.0
 11
69164.75512814261
 21
51303.59008083122
 31
0.0
  0
ARC
  5
51D5
330
1F
100
AcDbEntity
  8
電気錠制御盤　（株）アート
  6
Continuous
 62
     7
370
    13
100
AcDbCircle
 10
69548.75512814261
 20
51265.19008083122
 30
0.0
 40
38.39999999999999
100
AcDbArc
 50
0.0
 51
90.0
  0
LINE
  5
51D6
330
1F
100
AcDbEntity
  8
電気錠制御盤　（株）アート
  6
Continuous
 62
     7
370
    13
100
AcDbLine
 10
69587.15512814262
 20
51173.03008083033
 30
0.0
 11
69587.15512814262
 21
51265.19008083122
 31
0.0
  0
LINE
  5
51D7
330
1F
100
AcDbEntity
  8
電気錠制御盤　（株）アート
  6
Continuous
 62
     7
370
    13
100
AcDbLine
 10
69164.75512814261
 20
51134.63008083034
 30
0.0
 11
69548.75512814261
 21
51134.63008083034
 31
0.0
  0
ARC
  5
51D8
330
1F
100
AcDbEntity
  8
電気錠制御盤　（株）アート
  6
Continuous
 62
     7
370
    13
100
AcDbCircle
 10
69548.75512814261
 20
51173.03008083033
 30
0.0
 40
38.39999999999999
100
AcDbArc
 50
270.0
 51
0.0
  0
CIRCLE
  5
51D9
330
1F
100
AcDbEntity
  8
電気錠制御盤　（株）アート
  6
Continuous
 62
     7
370
    13
100
AcDbCircle
 10
68446.6751281444
 20
51219.11008083078
 30
0.0
 40
268.8
  0
LINE
  5
51DA
330
1F
100
AcDbEntity
  8
電気錠制御盤　（株）アート
  6
Continuous
 62
     7
370
    13
100
AcDbLine
 10
67793.8751281444
 20
51219.11008083078
 30
0.0
 11
68177.87512814438
 21
51219.11008083078
 31
0.0
  0
LINE
  5
51DB
330
1F
100
AcDbEntity
  8
電気錠制御盤　（株）アート
  6
Continuous
 62
     7
370
    13
100
AcDbLine
 10
68471.07542891241
 20
51194.66152372288
 30
0.0
 11
68418.09485294334
 21
51212.1973445412
 31
0.0
  0
LINE
  5
51DC
330
1F
100
AcDbEntity
  8
電気錠制御盤　（株）アート
  6
Continuous
 62
     7
370
    13
100
AcDbLine
 10
68264.9046144437
 20
51311.43962355071
 30
0.0
 11
68477.34724605492
 21
51241.1241182361
 31
0.0
  0
POLYLINE
  5
51DD
330
1F
100
AcDbEntity
  8
電気錠制御盤　（株）アート
  6
Continuous
 62
     7
370
    13
100
AcDb2dPolyline
 66
     1
 10
0.0
 20
0.0
 30
0.0
 70
     2
  0
VERTEX
  5
51DE
330
51DD
100
AcDbEntity
  8
電気錠制御盤　（株）アート
  6
Continuous
 62
     7
370
    13
100
AcDbVertex
100
AcDb2dVertex
 10
68477.34724333696
 20
51241.12411122659
 30
0.0
  0
VERTEX
  5
51DF
330
51DD
100
AcDbEntity
  8
電気錠制御盤　（株）アート
  6
Continuous
 62
     7
370
    13
100
AcDbVertex
100
AcDb2dVertex
 10
68477.39682889245
 20
51241.25915125834
 30
0.0
  0
VERTEX
  5
51E0
330
51DD
100
AcDbEntity
  8
電気錠制御盤　（株）アート
  6
Continuous
 62
     7
370
    13
100
AcDbVertex
100
AcDb2dVertex
 10
68477.54421930872
 20
51241.66054889113
 30
0.0
  0
VERTEX
  5
51E1
330
51DD
100
AcDbEntity
  8
電気錠制御盤　（株）アート
  6
Continuous
 62
     7
370
    13
100
AcDbVertex
100
AcDb2dVertex
 10
68477.78527609147
 20
51242.31701921785
 30
0.0
  0
VERTEX
  5
51E2
330
51DD
100
AcDbEntity
  8
電気錠制御盤　（株）アート
  6
Continuous
 62
     7
370
    13
100
AcDbVertex
100
AcDb2dVertex
 10
68478.11299761348
 20
51243.20944308938
 30
0.0
  0
VERTEX
  5
51E3
330
51DD
100
AcDbEntity
  8
電気錠制御盤　（株）アート
  6
Continuous
 62
     7
370
    13
100
AcDbVertex
100
AcDb2dVertex
 10
68478.51745383849
 20
51244.31065975876
 30
0.0
  0
VERTEX
  5
51E4
330
51DD
100
AcDbEntity
  8
電気錠制御盤　（株）アート
  6
Continuous
 62
     7
370
    13
100
AcDbVertex
100
AcDb2dVertex
 10
68478.98584914544
 20
51245.585615965
 30
0.0
  0
VERTEX
  5
51E5
330
51DD
100
AcDbEntity
  8
電気錠制御盤　（株）アート
  6
Continuous
 62
     7
370
    13
100
AcDbVertex
100
AcDb2dVertex
 10
68479.50281006433
 20
51246.99214779812
 30
0.0
  0
VERTEX
  5
51E6
330
51DD
100
AcDbEntity
  8
電気錠制御盤　（株）アート
  6
Continuous
 62
     7
370
    13
100
AcDbVertex
100
AcDb2dVertex
 10
68480.05095759295
 20
51248.48256589362
 30
0.0
  0
VERTEX
  5
51E7
330
51DD
100
AcDbEntity
  8
電気錠制御盤　（株）アート
  6
Continuous
 62
     7
370
    13
100
AcDbVertex
100
AcDb2dVertex
 10
68480.61176284365
 20
51250.00604165644
 30
0.0
  0
VERTEX
  5
51E8
330
51DD
100
AcDbEntity
  8
電気錠制御盤　（株）アート
  6
Continuous
 62
     7
370
    13
100
AcDbVertex
100
AcDb2dVertex
 10
68481.1666149605
 20
51251.51159370171
 30
0.0
  0
VERTEX
  5
51E9
330
51DD
100
AcDbEntity
  8
電気錠制御盤　（株）アート
  6
Continuous
 62
     7
370
    13
100
AcDbVertex
100
AcDb2dVertex
 10
68481.69796908683
 20
51252.95129974523
 30
0.0
  0
VERTEX
  5
51EA
330
51DD
100
AcDbEntity
  8
電気錠制御盤　（株）アート
  6
Continuous
 62
     7
370
    13
100
AcDbVertex
100
AcDb2dVertex
 10
68482.19040585122
 20
51254.28325614968
 30
0.0
  0
VERTEX
  5
51EB
330
51DD
100
AcDbEntity
  8
電気錠制御盤　（株）アート
  6
Continuous
 62
     7
370
    13
100
AcDbVertex
100
AcDb2dVertex
 10
68482.63143349327
 20
51255.47380610371
 30
0.0
  0
VERTEX
  5
51EC
330
51DD
100
AcDbEntity
  8
電気錠制御盤　（株）アート
  6
Continuous
 62
     7
370
    13
100
AcDbVertex
100
AcDb2dVertex
 10
68483.01190155856
 20
51256.49866523223
 30
0.0
  0
VERTEX
  5
51ED
330
51DD
100
AcDbEntity
  8
電気錠制御盤　（株）アート
  6
Continuous
 62
     7
370
    13
100
AcDbVertex
100
AcDb2dVertex
 10
68483.32596486098
 20
51257.34277152012
 30
0.0
  0
VERTEX
  5
51EE
330
51DD
100
AcDbEntity
  8
電気錠制御盤　（株）アート
  6
Continuous
 62
     7
370
    13
100
AcDbVertex
100
AcDb2dVertex
 10
68483.57062325142
 20
51257.99893361071
 30
0.0
  0
VERTEX
  5
51EF
330
51DD
100
AcDbEntity
  8
電気錠制御盤　（株）アート
  6
Continuous
 62
     7
370
    13
100
AcDbVertex
100
AcDb2dVertex
 10
68483.74494787417
 20
51258.46559338422
 30
0.0
  0
VERTEX
  5
51F0
330
51DD
100
AcDbEntity
  8
電気錠制御盤　（株）アート
  6
Continuous
 62
     7
370
    13
100
AcDbVertex
100
AcDb2dVertex
 10
68483.84916856549
 20
51258.74420061037
 30
0.0
  0
VERTEX
  5
51F1
330
51DD
100
AcDbEntity
  8
電気錠制御盤　（株）アート
  6
Continuous
 62
     7
370
    13
100
AcDbVertex
100
AcDb2dVertex
 10
68483.88382494337
 20
51258.83677662874
 30
0.0
  0
VERTEX
  5
51F2
330
51DD
100
AcDbEntity
  8
電気錠制御盤　（株）アート
  6
Continuous
 62
     7
370
    13
100
AcDbVertex
100
AcDb2dVertex
 10
68483.91827748902
 20
51258.92877171414
 30
0.0
  0
VERTEX
  5
51F3
330
51DD
100
AcDbEntity
  8
電気錠制御盤　（株）アート
  6
Continuous
 62
     7
370
    13
100
AcDbVertex
100
AcDb2dVertex
 10
68484.01954031848
 20
51259.19889441917
 30
0.0
  0
VERTEX
  5
51F4
330
51DD
100
AcDbEntity
  8
電気錠制御盤　（株）アート
  6
Continuous
 62
     7
370
    13
100
AcDbVertex
100
AcDb2dVertex
 10
68484.18183000347
 20
51259.63059759178
 30
0.0
  0
VERTEX
  5
51F5
330
51DD
100
AcDbEntity
  8
電気錠制御盤　（株）アート
  6
Continuous
 62
     7
370
    13
100
AcDbVertex
100
AcDb2dVertex
 10
68484.39703885873
 20
51260.19952250162
 30
0.0
  0
VERTEX
  5
51F6
330
51DD
100
AcDbEntity
  8
電気錠制御盤　（株）アート
  6
Continuous
 62
     7
370
    13
100
AcDbVertex
100
AcDb2dVertex
 10
68484.6565827649
 20
51260.87751960867
 30
0.0
  0
VERTEX
  5
51F7
330
51DD
100
AcDbEntity
  8
電気錠制御盤　（株）アート
  6
Continuous
 62
     7
370
    13
100
AcDbVertex
100
AcDb2dVertex
 10
68484.95320986025
 20
51261.63686334082
 30
0.0
  0
VERTEX
  5
51F8
330
51DD
100
AcDbEntity
  8
電気錠制御盤　（株）アート
  6
Continuous
 62
     7
370
    13
100
AcDbVertex
100
AcDb2dVertex
 10
68485.2822414089
 20
51262.45367141629
 30
0.0
  0
VERTEX
  5
51F9
330
51DD
100
AcDbEntity
  8
電気錠制御盤　（株）アート
  6
Continuous
 62
     7
370
    13
100
AcDbVertex
100
AcDb2dVertex
 10
68485.64185109697
 20
51263.30974608289
 30
0.0
  0
VERTEX
  5
51FA
330
51DD
100
AcDbEntity
  8
電気錠制御盤　（株）アート
  6
Continuous
 62
     7
370
    13
100
AcDbVertex
100
AcDb2dVertex
 10
68486.03223296218
 20
51264.19245409818
 30
0.0
  0
VERTEX
  5
51FB
330
51DD
100
AcDbEntity
  8
電気錠制御盤　（株）アート
  6
Continuous
 62
     7
370
    13
100
AcDbVertex
100
AcDb2dVertex
 10
68486.45380208083
 20
51265.0927574672
 30
0.0
  0
VERTEX
  5
51FC
330
51DD
100
AcDbEntity
  8
電気錠制御盤　（株）アート
  6
Continuous
 62
     7
370
    13
100
AcDbVertex
100
AcDb2dVertex
 10
68486.9048426371
 20
51266.00197717177
 30
0.0
  0
VERTEX
  5
51FD
330
51DD
100
AcDbEntity
  8
電気錠制御盤　（株）アート
  6
Continuous
 62
     7
370
    13
100
AcDbVertex
100
AcDb2dVertex
 10
68487.37919639758
 20
51266.90820226484
 30
0.0
  0
VERTEX
  5
51FE
330
51DD
100
AcDbEntity
  8
電気錠制御盤　（株）アート
  6
Continuous
 62
     7
370
    13
100
AcDbVertex
100
AcDb2dVertex
 10
68487.86462309696
 20
51267.7933649283
 30
0.0
  0
VERTEX
  5
51FF
330
51DD
100
AcDbEntity
  8
電気錠制御盤　（株）アート
  6
Continuous
 62
     7
370
    13
100
AcDbVertex
100
AcDb2dVertex
 10
68488.34234858192
 20
51268.63186012768
 30
0.0
  0
VERTEX
  5
5200
330
51DD
100
AcDbEntity
  8
電気錠制御盤　（株）アート
  6
Continuous
 62
     7
370
    13
100
AcDbVertex
100
AcDb2dVertex
 10
68488.78806929625
 20
51269.39122829253
 30
0.0
  0
VERTEX
  5
5201
330
51DD
100
AcDbEntity
  8
電気錠制御盤　（株）アート
  6
Continuous
 62
     7
370
    13
100
AcDbVertex
100
AcDb2dVertex
 10
68489.17435822897
 20
51270.03492603378
 30
0.0
  0
VERTEX
  5
5202
330
51DD
100
AcDbEntity
  8
電気錠制御盤　（株）アート
  6
Continuous
 62
     7
370
    13
100
AcDbVertex
100
AcDb2dVertex
 10
68489.47409208678
 20
51270.52670101451
 30
0.0
  0
VERTEX
  5
5203
330
51DD
100
AcDbEntity
  8
電気錠制御盤　（株）アート
  6
Continuous
 62
     7
370
    13
100
AcDbVertex
100
AcDb2dVertex
 10
68489.66426896937
 20
51270.83568479308
 30
0.0
  0
VERTEX
  5
5204
330
51DD
100
AcDbEntity
  8
電気錠制御盤　（株）アート
  6
Continuous
 62
     7
370
    13
100
AcDbVertex
100
AcDb2dVertex
 10
68489.72947022952
 20
51270.94111901523
 30
0.0
  0
VERTEX
  5
5205
330
51DD
100
AcDbEntity
  8
電気錠制御盤　（株）アート
  6
Continuous
 62
     7
370
    13
100
AcDbVertex
100
AcDb2dVertex
 10
68489.79529625438
 20
51271.04731720539
 30
0.0
  0
VERTEX
  5
5206
330
51DD
100
AcDbEntity
  8
電気錠制御盤　（株）アート
  6
Continuous
 62
     7
370
    13
100
AcDbVertex
100
AcDb2dVertex
 10
68489.99459126628
 20
51271.36742006802
 30
0.0
  0
VERTEX
  5
5207
330
51DD
100
AcDbEntity
  8
電気錠制御盤　（株）アート
  6
Continuous
 62
     7
370
    13
100
AcDbVertex
100
AcDb2dVertex
 10
68490.33184055572
 20
51271.9046998244
 30
0.0
  0
VERTEX
  5
5208
330
51DD
100
AcDbEntity
  8
電気錠制御盤　（株）アート
  6
Continuous
 62
     7
370
    13
100
AcDbVertex
100
AcDb2dVertex
 10
68490.81155319326
 20
51272.66077707858
 30
0.0
  0
VERTEX
  5
5209
330
51DD
100
AcDbEntity
  8
電気錠制御盤　（株）アート
  6
Continuous
 62
     7
370
    13
100
AcDbVertex
100
AcDb2dVertex
 10
68491.43463269657
 20
51273.63098423929
 30
0.0
  0
VERTEX
  5
520A
330
51DD
100
AcDbEntity
  8
電気錠制御盤　（株）アート
  6
Continuous
 62
     7
370
    13
100
AcDbVertex
100
AcDb2dVertex
 10
68492.19472903422
 20
51274.79981390724
 30
0.0
  0
VERTEX
  5
520B
330
51DD
100
AcDbEntity
  8
電気錠制御盤　（株）アート
  6
Continuous
 62
     7
370
    13
100
AcDbVertex
100
AcDb2dVertex
 10
68493.07557211853
 20
51276.1377944559
 30
0.0
  0
VERTEX
  5
520C
330
51DD
100
AcDbEntity
  8
電気錠制御盤　（株）アート
  6
Continuous
 62
     7
370
    13
100
AcDbVertex
100
AcDb2dVertex
 10
68494.05007367469
 20
51277.60083134809
 30
0.0
  0
VERTEX
  5
520D
330
51DD
100
AcDbEntity
  8
電気錠制御盤　（株）アート
  6
Continuous
 62
     7
370
    13
100
AcDbVertex
100
AcDb2dVertex
 10
68495.08157430477
 20
51279.13248023764
 30
0.0
  0
VERTEX
  5
520E
330
51DD
100
AcDbEntity
  8
電気錠制御盤　（株）アート
  6
Continuous
 62
     7
370
    13
100
AcDbVertex
100
AcDb2dVertex
 10
68496.12710412405
 20
51280.66891432778
 30
0.0
  0
VERTEX
  5
520F
330
51DD
100
AcDbEntity
  8
電気錠制御盤　（株）アート
  6
Continuous
 62
     7
370
    13
100
AcDbVertex
100
AcDb2dVertex
 10
68497.14204134009
 20
51282.14568475933
 30
0.0
  0
VERTEX
  5
5210
330
51DD
100
AcDbEntity
  8
電気錠制御盤　（株）アート
  6
Continuous
 62
     7
370
    13
100
AcDbVertex
100
AcDb2dVertex
 10
68498.08521097338
 20
51283.50491166563
 30
0.0
  0
VERTEX
  5
5211
330
51DD
100
AcDbEntity
  8
電気錠制御盤　（株）アート
  6
Continuous
 62
     7
370
    13
100
AcDbVertex
100
AcDb2dVertex
 10
68498.92334892263
 20
51284.70140012653
 30
0.0
  0
VERTEX
  5
5212
330
51DD
100
AcDbEntity
  8
電気錠制御盤　（株）アート
  6
Continuous
 62
     7
370
    13
100
AcDbVertex
100
AcDb2dVertex
 10
68499.63399468026
 20
51285.70638846719
 30
0.0
  0
VERTEX
  5
5213
330
51DD
100
AcDbEntity
  8
電気錠制御盤　（株）アート
  6
Continuous
 62
     7
370
    13
100
AcDbVertex
100
AcDb2dVertex
 10
68500.20623689481
 20
51286.50815980956
 30
0.0
  0
VERTEX
  5
5214
330
51DD
100
AcDbEntity
  8
電気錠制御盤　（株）アート
  6
Continuous
 62
     7
370
    13
100
AcDbVertex
100
AcDb2dVertex
 10
68500.63923454173
 20
51287.1094593879
 30
0.0
  0
VERTEX
  5
5215
330
51DD
100
AcDbEntity
  8
電気錠制御盤　（株）アート
  6
Continuous
 62
     7
370
    13
100
AcDbVertex
100
AcDb2dVertex
 10
68500.93895343952
 20
51287.52239217909
 30
0.0
  0
VERTEX
  5
5216
330
51DD
100
AcDbEntity
  8
電気錠制御盤　（株）アート
  6
Continuous
 62
     7
370
    13
100
AcDbVertex
100
AcDb2dVertex
 10
68501.11396964974
 20
51287.76205370464
 30
0.0
  0
VERTEX
  5
5217
330
51DD
100
AcDbEntity
  8
電気錠制御盤　（株）アート
  6
Continuous
 62
     7
370
    13
100
AcDbVertex
100
AcDb2dVertex
 10
68501.17139945512
 20
51287.84043325449
 30
0.0
  0
VERTEX
  5
5218
330
51DD
100
AcDbEntity
  8
電気錠制御盤　（株）アート
  6
Continuous
 62
     7
370
    13
100
AcDbVertex
100
AcDb2dVertex
 10
68501.22808951176
 20
51287.91766707638
 30
0.0
  0
VERTEX
  5
5219
330
51DD
100
AcDbEntity
  8
電気錠制御盤　（株）アート
  6
Continuous
 62
     7
370
    13
100
AcDbVertex
100
AcDb2dVertex
 10
68501.39230269826
 20
51288.14057802784
 30
0.0
  0
VERTEX
  5
521A
330
51DD
100
AcDbEntity
  8
電気錠制御盤　（株）アート
  6
Continuous
 62
     7
370
    13
100
AcDbVertex
100
AcDb2dVertex
 10
68501.64752020352
 20
51288.48436133826
 30
0.0
  0
VERTEX
  5
521B
330
51DD
100
AcDbEntity
  8
電気錠制御盤　（株）アート
  6
Continuous
 62
     7
370
    13
100
AcDbVertex
100
AcDb2dVertex
 10
68501.96948999651
 20
51288.912566508
 30
0.0
  0
VERTEX
  5
521C
330
51DD
100
AcDbEntity
  8
電気錠制御盤　（株）アート
  6
Continuous
 62
     7
370
    13
100
AcDbVertex
100
AcDb2dVertex
 10
68502.33040055148
 20
51289.38334748896
 30
0.0
  0
VERTEX
  5
521D
330
51DD
100
AcDbEntity
  8
電気錠制御盤　（株）アート
  6
Continuous
 62
     7
370
    13
100
AcDbVertex
100
AcDb2dVertex
 10
68502.70341035463
 20
51289.85629474151
 30
0.0
  0
VERTEX
  5
521E
330
51DD
100
AcDbEntity
  8
電気錠制御盤　（株）アート
  6
Continuous
 62
     7
370
    13
100
AcDbVertex
100
AcDb2dVertex
 10
68503.06658904589
 20
51290.29846237266
 30
0.0
  0
VERTEX
  5
521F
330
51DD
100
AcDbEntity
  8
電気錠制御盤　（株）アート
  6
Continuous
 62
     7
370
    13
100
AcDbVertex
100
AcDb2dVertex
 10
68503.40548542178
 20
51290.68842524329
 30
0.0
  0
VERTEX
  5
5220
330
51DD
100
AcDbEntity
  8
電気錠制御盤　（株）アート
  6
Continuous
 62
     7
370
    13
100
AcDbVertex
100
AcDb2dVertex
 10
68503.71387104652
 20
51291.01767537632
 30
0.0
  0
VERTEX
  5
5221
330
51DD
100
AcDbEntity
  8
電気錠制御盤　（株）アート
  6
Continuous
 62
     7
370
    13
100
AcDbVertex
100
AcDb2dVertex
 10
68503.99263581
 20
51291.28928044886
 30
0.0
  0
VERTEX
  5
5222
330
51DD
100
AcDbEntity
  8
電気錠制御盤　（株）アート
  6
Continuous
 62
     7
370
    13
100
AcDbVertex
100
AcDb2dVertex
 10
68504.24723205527
 20
51291.5143352017
 30
0.0
  0
VERTEX
  5
5223
330
51DD
100
AcDbEntity
  8
電気錠制御盤　（株）アート
  6
Continuous
 62
     7
370
    13
100
AcDbVertex
100
AcDb2dVertex
 10
68504.48437858633
 20
51291.70719849766
 30
0.0
  0
VERTEX
  5
5224
330
51DD
100
AcDbEntity
  8
電気錠制御盤　（株）アート
  6
Continuous
 62
     7
370
    13
100
AcDbVertex
100
AcDb2dVertex
 10
68504.70887314192
 20
51291.88072115558
 30
0.0
  0
VERTEX
  5
5225
330
51DD
100
AcDbEntity
  8
電気錠制御盤　（株）アート
  6
Continuous
 62
     7
370
    13
100
AcDbVertex
100
AcDb2dVertex
 10
68504.92129309661
 20
51292.04258989023
 30
0.0
  0
VERTEX
  5
5226
330
51DD
100
AcDbEntity
  8
電気錠制御盤　（株）アート
  6
Continuous
 62
     7
370
    13
100
AcDbVertex
100
AcDb2dVertex
 10
68505.11711049266
 20
51292.19356899151
 30
0.0
  0
VERTEX
  5
5227
330
51DD
100
AcDbEntity
  8
電気錠制御盤　（株）アート
  6
Continuous
 62
     7
370
    13
100
AcDbVertex
100
AcDb2dVertex
 10
68505.28737421965
 20
51292.32790441478
 30
0.0
  0
VERTEX
  5
5228
330
51DD
100
AcDbEntity
  8
電気錠制御盤　（株）アート
  6
Continuous
 62
     7
370
    13
100
AcDbVertex
100
AcDb2dVertex
 10
68505.42071246018
 20
51292.43559546212
 30
0.0
  0
VERTEX
  5
5229
330
51DD
100
AcDbEntity
  8
電気錠制御盤　（株）アート
  6
Continuous
 62
     7
370
    13
100
AcDbVertex
100
AcDb2dVertex
 10
68505.50608069112
 20
51292.50577588903
 30
0.0
  0
VERTEX
  5
522A
330
51DD
100
AcDbEntity
  8
電気錠制御盤　（株）アート
  6
Continuous
 62
     7
370
    13
100
AcDbVertex
100
AcDb2dVertex
 10
68505.53550417981
 20
51292.53019165211
 30
0.0
  0
VERTEX
  5
522B
330
51DD
100
AcDbEntity
  8
電気錠制御盤　（株）アート
  6
Continuous
 62
     7
370
    13
100
AcDbVertex
100
AcDb2dVertex
 10
68505.56529418341
 20
51292.55502940381
 30
0.0
  0
VERTEX
  5
522C
330
51DD
100
AcDbEntity
  8
電気錠制御盤　（株）アート
  6
Continuous
 62
     7
370
    13
100
AcDbVertex
100
AcDb2dVertex
 10
68505.65600467063
 20
51292.6313356966
 30
0.0
  0
VERTEX
  5
522D
330
51DD
100
AcDbEntity
  8
電気錠制御盤　（株）アート
  6
Continuous
 62
     7
370
    13
100
AcDbVertex
100
AcDb2dVertex
 10
68505.81126840747
 20
51292.76397006961
 30
0.0
  0
VERTEX
  5
522E
330
51DD
100
AcDbEntity
  8
電気錠制御盤　（株）アート
  6
Continuous
 62
     7
370
    13
100
AcDbVertex
100
AcDb2dVertex
 10
68506.03592187501
 20
51292.95941391998
 30
0.0
  0
VERTEX
  5
522F
330
51DD
100
AcDbEntity
  8
電気錠制御盤　（株）アート
  6
Continuous
 62
     7
370
    13
100
AcDbVertex
100
AcDb2dVertex
 10
68506.33443266562
 20
51293.22371737361
 30
0.0
  0
VERTEX
  5
5230
330
51DD
100
AcDbEntity
  8
電気錠制御盤　（株）アート
  6
Continuous
 62
     7
370
    13
100
AcDbVertex
100
AcDb2dVertex
 10
68506.70915218479
 20
51293.56028546468
 30
0.0
  0
VERTEX
  5
5231
330
51DD
100
AcDbEntity
  8
電気錠制御盤　（株）アート
  6
Continuous
 62
     7
370
    13
100
AcDbVertex
100
AcDb2dVertex
 10
68507.15873253085
 20
51293.96798261181
 30
0.0
  0
VERTEX
  5
5232
330
51DD
100
AcDbEntity
  8
電気錠制御盤　（株）アート
  6
Continuous
 62
     7
370
    13
100
AcDbVertex
100
AcDb2dVertex
 10
68507.67700731196
 20
51294.43995969259
 30
0.0
  0
VERTEX
  5
5233
330
51DD
100
AcDbEntity
  8
電気錠制御盤　（株）アート
  6
Continuous
 62
     7
370
    13
100
AcDbVertex
100
AcDb2dVertex
 10
68508.25253911056
 20
51294.96344622262
 30
0.0
  0
VERTEX
  5
5234
330
51DD
100
AcDbEntity
  8
電気錠制御盤　（株）アート
  6
Continuous
 62
     7
370
    13
100
AcDbVertex
100
AcDb2dVertex
 10
68508.86890353597
 20
51295.52053962352
 30
0.0
  0
VERTEX
  5
5235
330
51DD
100
AcDbEntity
  8
電気錠制御盤　（株）アート
  6
Continuous
 62
     7
370
    13
100
AcDbVertex
100
AcDb2dVertex
 10
68509.50564135946
 20
51296.08981326521
 30
0.0
  0
VERTEX
  5
5236
330
51DD
100
AcDbEntity
  8
電気錠制御盤　（株）アート
  6
Continuous
 62
     7
370
    13
100
AcDbVertex
100
AcDb2dVertex
 10
68510.1396955613
 20
51296.64840282353
 30
0.0
  0
VERTEX
  5
5237
330
51DD
100
AcDbEntity
  8
電気錠制御盤　（株）アート
  6
Continuous
 62
     7
370
    13
100
AcDbVertex
100
AcDb2dVertex
 10
68510.74708223305
 20
51297.17415201032
 30
0.0
  0
VERTEX
  5
5238
330
51DD
100
AcDbEntity
  8
電気錠制御盤　（株）アート
  6
Continuous
 62
     7
370
    13
100
AcDbVertex
100
AcDb2dVertex
 10
68511.30453421733
 20
51297.64741893188
 30
0.0
  0
VERTEX
  5
5239
330
51DD
100
AcDbEntity
  8
電気錠制御盤　（株）アート
  6
Continuous
 62
     7
370
    13
100
AcDbVertex
100
AcDb2dVertex
 10
68511.79090171268
 20
51298.05225456768
 30
0.0
  0
VERTEX
  5
523A
330
51DD
100
AcDbEntity
  8
電気錠制御盤　（株）アート
  6
Continuous
 62
     7
370
    13
100
AcDbVertex
100
AcDb2dVertex
 10
68512.18817893824
 20
51298.37683510894
 30
0.0
  0
VERTEX
  5
523B
330
51DD
100
AcDbEntity
  8
電気錠制御盤　（株）アート
  6
Continuous
 62
     7
370
    13
100
AcDbVertex
100
AcDb2dVertex
 10
68512.48212702534
 20
51298.61321671755
 30
0.0
  0
VERTEX
  5
523C
330
51DD
100
AcDbEntity
  8
電気錠制御盤　（株）アート
  6
Continuous
 62
     7
370
    13
100
AcDbVertex
100
AcDb2dVertex
 10
68512.66255384794
 20
51298.75663816856
 30
0.0
  0
VERTEX
  5
523D
330
51DD
100
AcDbEntity
  8
電気錠制御盤　（株）アート
  6
Continuous
 62
     7
370
    13
100
AcDbVertex
100
AcDb2dVertex
 10
68512.72337001822
 20
51298.8046860315
 30
0.0
  0
VERTEX
  5
523E
330
51DD
100
AcDbEntity
  8
電気錠制御盤　（株）アート
  6
Continuous
 62
     7
370
    13
100
AcDbVertex
100
AcDb2dVertex
 10
68512.7842443589
 20
51298.85262891837
 30
0.0
  0
VERTEX
  5
523F
330
51DD
100
AcDbEntity
  8
電気錠制御盤　（株）アート
  6
Continuous
 62
     7
370
    13
100
AcDbVertex
100
AcDb2dVertex
 10
68512.96554222442
 20
51298.99453024641
 30
0.0
  0
VERTEX
  5
5240
330
51DD
100
AcDbEntity
  8
電気錠制御盤　（株）アート
  6
Continuous
 62
     7
370
    13
100
AcDbVertex
100
AcDb2dVertex
 10
68513.26324925532
 20
51299.22475231961
 30
0.0
  0
VERTEX
  5
5241
330
51DD
100
AcDbEntity
  8
電気錠制御盤　（株）アート
  6
Continuous
 62
     7
370
    13
100
AcDbVertex
100
AcDb2dVertex
 10
68513.67056376521
 20
51299.53436017336
 30
0.0
  0
VERTEX
  5
5242
330
51DD
100
AcDbEntity
  8
電気錠制御盤　（株）アート
  6
Continuous
 62
     7
370
    13
100
AcDbVertex
100
AcDb2dVertex
 10
68514.17779026814
 20
51299.91174775289
 30
0.0
  0
VERTEX
  5
5243
330
51DD
100
AcDbEntity
  8
電気錠制御盤　（株）アート
  6
Continuous
 62
     7
370
    13
100
AcDbVertex
100
AcDb2dVertex
 10
68514.77229514159
 20
51300.3433957983
 30
0.0
  0
VERTEX
  5
5244
330
51DD
100
AcDbEntity
  8
電気錠制御盤　（株）アート
  6
Continuous
 62
     7
370
    13
100
AcDbVertex
100
AcDb2dVertex
 10
68515.43859659247
 20
51300.81466914566
 30
0.0
  0
VERTEX
  5
5245
330
51DD
100
AcDbEntity
  8
電気錠制御盤　（株）アート
  6
Continuous
 62
     7
370
    13
100
AcDbVertex
100
AcDb2dVertex
 10
68516.15864402242
 20
51301.31056619324
 30
0.0
  0
VERTEX
  5
5246
330
51DD
100
AcDbEntity
  8
電気錠制御盤　（株）アート
  6
Continuous
 62
     7
370
    13
100
AcDbVertex
100
AcDb2dVertex
 10
68516.91230994276
 20
51301.81635244266
 30
0.0
  0
VERTEX
  5
5247
330
51DD
100
AcDbEntity
  8
電気錠制御盤　（株）アート
  6
Continuous
 62
     7
370
    13
100
AcDbVertex
100
AcDb2dVertex
 10
68517.67807791866
 20
51302.31803851315
 30
0.0
  0
VERTEX
  5
5248
330
51DD
100
AcDbEntity
  8
電気錠制御盤　（株）アート
  6
Continuous
 62
     7
370
    13
100
AcDbVertex
100
AcDb2dVertex
 10
68518.43387195504
 20
51302.80269454571
 30
0.0
  0
VERTEX
  5
5249
330
51DD
100
AcDbEntity
  8
電気錠制御盤　（株）アート
  6
Continuous
 62
     7
370
    13
100
AcDbVertex
100
AcDb2dVertex
 10
68519.15794500522
 20
51303.25862094576
 30
0.0
  0
VERTEX
  5
524A
330
51DD
100
AcDbEntity
  8
電気錠制御盤　（株）アート
  6
Continuous
 62
     7
370
    13
100
AcDbVertex
100
AcDb2dVertex
 10
68519.82973333933
 20
51303.67541465275
 30
0.0
  0
VERTEX
  5
524B
330
51DD
100
AcDbEntity
  8
電気錠制御盤　（株）アート
  6
Continuous
 62
     7
370
    13
100
AcDbVertex
100
AcDb2dVertex
 10
68520.43059177137
 20
51304.04397778252
 30
0.0
  0
VERTEX
  5
524C
330
51DD
100
AcDbEntity
  8
電気錠制御盤　（株）アート
  6
Continuous
 62
     7
370
    13
100
AcDbVertex
100
AcDb2dVertex
 10
68520.94435000307
 20
51304.35651139992
 30
0.0
  0
VERTEX
  5
524D
330
51DD
100
AcDbEntity
  8
電気錠制御盤　（株）アート
  6
Continuous
 62
     7
370
    13
100
AcDbVertex
100
AcDb2dVertex
 10
68521.35766659491
 20
51304.60652417803
 30
0.0
  0
VERTEX
  5
524E
330
51DD
100
AcDbEntity
  8
電気錠制御盤　（株）アート
  6
Continuous
 62
     7
370
    13
100
AcDbVertex
100
AcDb2dVertex
 10
68521.6601956453
 20
51304.78886811175
 30
0.0
  0
VERTEX
  5
524F
330
51DD
100
AcDbEntity
  8
電気錠制御盤　（株）アート
  6
Continuous
 62
     7
370
    13
100
AcDbVertex
100
AcDb2dVertex
 10
68521.84461292214
 20
51304.89979657755
 30
0.0
  0
VERTEX
  5
5250
330
51DD
100
AcDbEntity
  8
電気錠制御盤　（株）アート
  6
Continuous
 62
     7
370
    13
100
AcDbVertex
100
AcDb2dVertex
 10
68521.90656603388
 20
51304.93702826838
 30
0.0
  0
VERTEX
  5
5251
330
51DD
100
AcDbEntity
  8
電気錠制御盤　（株）アート
  6
Continuous
 62
     7
370
    13
100
AcDbVertex
100
AcDb2dVertex
 10
68521.96847671531
 20
51304.97421840953
 30
0.0
  0
VERTEX
  5
5252
330
51DD
100
AcDbEntity
  8
電気錠制御盤　（株）アート
  6
Continuous
 62
     7
370
    13
100
AcDbVertex
100
AcDb2dVertex
 10
68522.15229900441
 20
51305.08452740463
 30
0.0
  0
VERTEX
  5
5253
330
51DD
100
AcDbEntity
  8
電気錠制御盤　（株）アート
  6
Continuous
 62
     7
370
    13
100
AcDbVertex
100
AcDb2dVertex
 10
68522.45257247127
 20
51305.26421902703
 30
0.0
  0
VERTEX
  5
5254
330
51DD
100
AcDbEntity
  8
電気錠制御盤　（株）アート
  6
Continuous
 62
     7
370
    13
100
AcDbVertex
100
AcDb2dVertex
 10
68522.86101524792
 20
51305.50722677263
 30
0.0
  0
VERTEX
  5
5255
330
51DD
100
AcDbEntity
  8
電気錠制御盤　（株）アート
  6
Continuous
 62
     7
370
    13
100
AcDbVertex
100
AcDb2dVertex
 10
68523.36750265918
 20
51305.80539503956
 30
0.0
  0
VERTEX
  5
5256
330
51DD
100
AcDbEntity
  8
電気錠制御盤　（株）アート
  6
Continuous
 62
     7
370
    13
100
AcDbVertex
100
AcDb2dVertex
 10
68523.96100790238
 20
51306.14881433958
 30
0.0
  0
VERTEX
  5
5257
330
51DD
100
AcDbEntity
  8
電気錠制御盤　（株）アート
  6
Continuous
 62
     7
370
    13
100
AcDbVertex
100
AcDb2dVertex
 10
68524.63022041058
 20
51306.52624191196
 30
0.0
  0
VERTEX
  5
5258
330
51DD
100
AcDbEntity
  8
電気錠制御盤　（株）アート
  6
Continuous
 62
     7
370
    13
100
AcDbVertex
100
AcDb2dVertex
 10
68525.36364116706
 20
51306.92559013255
 30
0.0
  0
VERTEX
  5
5259
330
51DD
100
AcDbEntity
  8
電気錠制御盤　（株）アート
  6
Continuous
 62
     7
370
    13
100
AcDbVertex
100
AcDb2dVertex
 10
68526.14909947403
 20
51307.33445487657
 30
0.0
  0
VERTEX
  5
525A
330
51DD
100
AcDbEntity
  8
電気錠制御盤　（株）アート
  6
Continuous
 62
     7
370
    13
100
AcDbVertex
100
AcDb2dVertex
 10
68526.9728063073
 20
51307.74064683953
 30
0.0
  0
VERTEX
  5
525B
330
51DD
100
AcDbEntity
  8
電気錠制御盤　（株）アート
  6
Continuous
 62
     7
370
    13
100
AcDbVertex
100
AcDb2dVertex
 10
68527.8182122182
 20
51308.13268335836
 30
0.0
  0
VERTEX
  5
525C
330
51DD
100
AcDbEntity
  8
電気錠制御盤　（株）アート
  6
Continuous
 62
     7
370
    13
100
AcDbVertex
100
AcDb2dVertex
 10
68528.66503192596
 20
51308.50019872785
 30
0.0
  0
VERTEX
  5
525D
330
51DD
100
AcDbEntity
  8
電気錠制御盤　（株）アート
  6
Continuous
 62
     7
370
    13
100
AcDbVertex
100
AcDb2dVertex
 10
68529.48880620115
 20
51308.83423840666
 30
0.0
  0
VERTEX
  5
525E
330
51DD
100
AcDbEntity
  8
電気錠制御盤　（株）アート
  6
Continuous
 62
     7
370
    13
100
AcDbVertex
100
AcDb2dVertex
 10
68530.26128685884
 20
51309.12741652097
 30
0.0
  0
VERTEX
  5
525F
330
51DD
100
AcDbEntity
  8
電気錠制御盤　（株）アート
  6
Continuous
 62
     7
370
    13
100
AcDbVertex
100
AcDb2dVertex
 10
68530.95176856928
 20
51309.37393472271
 30
0.0
  0
VERTEX
  5
5260
330
51DD
100
AcDbEntity
  8
電気錠制御盤　（株）アート
  6
Continuous
 62
     7
370
    13
100
AcDbVertex
100
AcDb2dVertex
 10
68531.52928589321
 20
51309.56948061103
 30
0.0
  0
VERTEX
  5
5261
330
51DD
100
AcDbEntity
  8
電気錠制御盤　（株）アート
  6
Continuous
 62
     7
370
    13
100
AcDbVertex
100
AcDb2dVertex
 10
68531.96539230307
 20
51309.7110418115
 30
0.0
  0
VERTEX
  5
5262
330
51DD
100
AcDbEntity
  8
電気錠制御盤　（株）アート
  6
Continuous
 62
     7
370
    13
100
AcDbVertex
100
AcDb2dVertex
 10
68532.23708632549
 20
51309.79668384344
 30
0.0
  0
VERTEX
  5
5263
330
51DD
100
AcDbEntity
  8
電気錠制御盤　（株）アート
  6
Continuous
 62
     7
370
    13
100
AcDbVertex
100
AcDb2dVertex
 10
68532.32938526607
 20
51309.82534352728
 30
0.0
  0
VERTEX
  5
5264
330
51DD
100
AcDbEntity
  8
電気錠制御盤　（株）アート
  6
Continuous
 62
     7
370
    13
100
AcDbVertex
100
AcDb2dVertex
 10
68532.4221428778
 20
51309.85392739848
 30
0.0
  0
VERTEX
  5
5265
330
51DD
100
AcDbEntity
  8
電気錠制御盤　（株）アート
  6
Continuous
 62
     7
370
    13
100
AcDbVertex
100
AcDb2dVertex
 10
68532.70053529031
 20
51309.93844367604
 30
0.0
  0
VERTEX
  5
5266
330
51DD
100
AcDbEntity
  8
電気錠制御盤　（株）アート
  6
Continuous
 62
     7
370
    13
100
AcDbVertex
100
AcDb2dVertex
 10
68533.1642351646
 20
51310.07522001008
 30
0.0
  0
VERTEX
  5
5267
330
51DD
100
AcDbEntity
  8
電気錠制御盤　（株）アート
  6
Continuous
 62
     7
370
    13
100
AcDbVertex
100
AcDb2dVertex
 10
68533.81059815995
 20
51310.25825901033
 30
0.0
  0
VERTEX
  5
5268
330
51DD
100
AcDbEntity
  8
電気錠制御盤　（株）アート
  6
Continuous
 62
     7
370
    13
100
AcDbVertex
100
AcDb2dVertex
 10
68534.63212654108
 20
51310.47945707181
 30
0.0
  0
VERTEX
  5
5269
330
51DD
100
AcDbEntity
  8
電気錠制御盤　（株）アート
  6
Continuous
 62
     7
370
    13
100
AcDbVertex
100
AcDb2dVertex
 10
68535.61398586593
 20
51310.72896396855
 30
0.0
  0
VERTEX
  5
526A
330
51DD
100
AcDbEntity
  8
電気錠制御盤　（株）アート
  6
Continuous
 62
     7
370
    13
100
AcDbVertex
100
AcDb2dVertex
 10
68536.7323168952
 20
51310.99570628443
 30
0.0
  0
VERTEX
  5
526B
330
51DD
100
AcDbEntity
  8
電気錠制御盤　（株）アート
  6
Continuous
 62
     7
370
    13
100
AcDbVertex
100
AcDb2dVertex
 10
68537.95392221174
 20
51311.26807105804
 30
0.0
  0
VERTEX
  5
526C
330
51DD
100
AcDbEntity
  8
電気錠制御盤　（株）アート
  6
Continuous
 62
     7
370
    13
100
AcDbVertex
100
AcDb2dVertex
 10
68539.23759660311
 20
51311.53470914886
 30
0.0
  0
VERTEX
  5
526D
330
51DD
100
AcDbEntity
  8
電気錠制御盤　（株）アート
  6
Continuous
 62
     7
370
    13
100
AcDbVertex
100
AcDb2dVertex
 10
68540.53698680362
 20
51311.78537967393
 30
0.0
  0
VERTEX
  5
526E
330
51DD
100
AcDbEntity
  8
電気錠制御盤　（株）アート
  6
Continuous
 62
     7
370
    13
100
AcDbVertex
100
AcDb2dVertex
 10
68541.80450200774
 20
51312.0117279757
 30
0.0
  0
VERTEX
  5
526F
330
51DD
100
AcDbEntity
  8
電気錠制御盤　（株）アート
  6
Continuous
 62
     7
370
    13
100
AcDbVertex
100
AcDb2dVertex
 10
68542.99554005003
 20
51312.20787919388
 30
0.0
  0
VERTEX
  5
5270
330
51DD
100
AcDbEntity
  8
電気錠制御盤　（株）アート
  6
Continuous
 62
     7
370
    13
100
AcDbVertex
100
AcDb2dVertex
 10
68544.07220815455
 20
51312.37074310967
 30
0.0
  0
VERTEX
  5
5271
330
51DD
100
AcDbEntity
  8
電気錠制御盤　（株）アート
  6
Continuous
 62
     7
370
    13
100
AcDbVertex
100
AcDb2dVertex
 10
68545.00582372806
 20
51312.49996359946
 30
0.0
  0
VERTEX
  5
5272
330
51DD
100
AcDbEntity
  8
電気錠制御盤　（株）アート
  6
Continuous
 62
     7
370
    13
100
AcDbVertex
100
AcDb2dVertex
 10
68545.77775549404
 20
51312.5975021437
 30
0.0
  0
VERTEX
  5
5273
330
51DD
100
AcDbEntity
  8
電気錠制御盤　（株）アート
  6
Continuous
 62
     7
370
    13
100
AcDbVertex
100
AcDb2dVertex
 10
68546.37854356951
 20
51312.66690894665
 30
0.0
  0
VERTEX
  5
5274
330
51DD
100
AcDbEntity
  8
電気錠制御盤　（株）アート
  6
Continuous
 62
     7
370
    13
100
AcDbVertex
100
AcDb2dVertex
 10
68546.80562897063
 20
51312.71239421256
 30
0.0
  0
VERTEX
  5
5275
330
51DD
100
AcDbEntity
  8
電気錠制御盤　（株）アート
  6
Continuous
 62
     7
370
    13
100
AcDbVertex
100
AcDb2dVertex
 10
68547.06033510156
 20
51312.73785335498
 30
0.0
  0
VERTEX
  5
5276
330
51DD
100
AcDbEntity
  8
電気錠制御盤　（株）アート
  6
Continuous
 62
     7
370
    13
100
AcDbVertex
100
AcDb2dVertex
 10
68547.14490140117
 20
51312.74601378256
 30
0.0
  0
VERTEX
  5
5277
330
51DD
100
AcDbEntity
  8
電気錠制御盤　（株）アート
  6
Continuous
 62
     7
370
    13
100
AcDbVertex
100
AcDb2dVertex
 10
68547.22889671437
 20
51312.75396981576
 30
0.0
  0
VERTEX
  5
5278
330
51DD
100
AcDbEntity
  8
電気錠制御盤　（株）アート
  6
Continuous
 62
     7
370
    13
100
AcDbVertex
100
AcDb2dVertex
 10
68547.47525227928
 20
51312.77642450409
 30
0.0
  0
VERTEX
  5
5279
330
51DD
100
AcDbEntity
  8
電気錠制御盤　（株）アート
  6
Continuous
 62
     7
370
    13
100
AcDbVertex
100
AcDb2dVertex
 10
68547.8678433504
 20
51312.80937854873
 30
0.0
  0
VERTEX
  5
527A
330
51DD
100
AcDbEntity
  8
電気錠制御盤　（株）アート
  6
Continuous
 62
     7
370
    13
100
AcDbVertex
100
AcDb2dVertex
 10
68548.38220216668
 20
51312.84692352267
 30
0.0
  0
VERTEX
  5
527B
330
51DD
100
AcDbEntity
  8
電気錠制御盤　（株）アート
  6
Continuous
 62
     7
370
    13
100
AcDbVertex
100
AcDb2dVertex
 10
68548.9886432346
 20
51312.8822261274
 30
0.0
  0
VERTEX
  5
527C
330
51DD
100
AcDbEntity
  8
電気錠制御盤　（株）アート
  6
Continuous
 62
     7
370
    13
100
AcDbVertex
100
AcDb2dVertex
 10
68549.65577785335
 20
51312.90863632637
 30
0.0
  0
VERTEX
  5
527D
330
51DD
100
AcDbEntity
  8
電気錠制御盤　（株）アート
  6
Continuous
 62
     7
370
    13
100
AcDbVertex
100
AcDb2dVertex
 10
68550.35378588477
 20
51312.92071882973
 30
0.0
  0
VERTEX
  5
527E
330
51DD
100
AcDbEntity
  8
電気錠制御盤　（株）アート
  6
Continuous
 62
     7
370
    13
100
AcDbVertex
100
AcDb2dVertex
 10
68551.05689927749
 20
51312.91503130273
 30
0.0
  0
VERTEX
  5
527F
330
51DD
100
AcDbEntity
  8
電気錠制御盤　（株）アート
  6
Continuous
 62
     7
370
    13
100
AcDbVertex
100
AcDb2dVertex
 10
68551.74474963582
 20
51312.89053110482
 30
0.0
  0
VERTEX
  5
5280
330
51DD
100
AcDbEntity
  8
電気錠制御盤　（株）アート
  6
Continuous
 62
     7
370
    13
100
AcDbVertex
100
AcDb2dVertex
 10
68552.40249357707
 20
51312.84857148641
 30
0.0
  0
VERTEX
  5
5281
330
51DD
100
AcDbEntity
  8
電気錠制御盤　（株）アート
  6
Continuous
 62
     7
370
    13
100
AcDbVertex
100
AcDb2dVertex
 10
68553.01989384925
 20
51312.79252988401
 30
0.0
  0
VERTEX
  5
5282
330
51DD
100
AcDbEntity
  8
電気錠制御盤　（株）アート
  6
Continuous
 62
     7
370
    13
100
AcDbVertex
100
AcDb2dVertex
 10
68553.58974142559
 20
51312.72717754955
 30
0.0
  0
VERTEX
  5
5283
330
51DD
100
AcDbEntity
  8
電気錠制御盤　（株）アート
  6
Continuous
 62
     7
370
    13
100
AcDbVertex
100
AcDb2dVertex
 10
68554.1061093349
 20
51312.65793745146
 30
0.0
  0
VERTEX
  5
5284
330
51DD
100
AcDbEntity
  8
電気錠制御盤　（株）アート
  6
Continuous
 62
     7
370
    13
100
AcDbVertex
100
AcDb2dVertex
 10
68554.56291304864
 20
51312.59017981702
 30
0.0
  0
VERTEX
  5
5285
330
51DD
100
AcDbEntity
  8
電気錠制御盤　（株）アート
  6
Continuous
 62
     7
370
    13
100
AcDbVertex
100
AcDb2dVertex
 10
68554.95312504508
 20
51312.52867390553
 30
0.0
  0
VERTEX
  5
5286
330
51DD
100
AcDbEntity
  8
電気錠制御盤　（株）アート
  6
Continuous
 62
     7
370
    13
100
AcDbVertex
100
AcDb2dVertex
 10
68555.2687884014
 20
51312.47726038436
 30
0.0
  0
VERTEX
  5
5287
330
51DD
100
AcDbEntity
  8
電気錠制御盤　（株）アート
  6
Continuous
 62
     7
370
    13
100
AcDbVertex
100
AcDb2dVertex
 10
68555.50174935648
 20
51312.43874598744
 30
0.0
  0
VERTEX
  5
5288
330
51DD
100
AcDbEntity
  8
電気錠制御盤　（株）アート
  6
Continuous
 62
     7
370
    13
100
AcDbVertex
100
AcDb2dVertex
 10
68555.64483855106
 20
51312.41496700312
 30
0.0
  0
VERTEX
  5
5289
330
51DD
100
AcDbEntity
  8
電気錠制御盤　（株）アート
  6
Continuous
 62
     7
370
    13
100
AcDbVertex
100
AcDb2dVertex
 10
68555.6931217555
 20
51312.40693426878
 30
0.0
  0
VERTEX
  5
528A
330
51DD
100
AcDbEntity
  8
電気錠制御盤　（株）アート
  6
Continuous
 62
     7
370
    13
100
AcDbVertex
100
AcDb2dVertex
 10
68555.74148668236
 20
51312.39888646493
 30
0.0
  0
VERTEX
  5
528B
330
51DD
100
AcDbEntity
  8
電気錠制御盤　（株）アート
  6
Continuous
 62
     7
370
    13
100
AcDbVertex
100
AcDb2dVertex
 10
68555.8857478056
 20
51312.3748724118
 30
0.0
  0
VERTEX
  5
528C
330
51DD
100
AcDbEntity
  8
電気錠制御盤　（株）アート
  6
Continuous
 62
     7
370
    13
100
AcDbVertex
100
AcDb2dVertex
 10
68556.12336557395
 20
51312.33527072335
 30
0.0
  0
VERTEX
  5
528D
330
51DD
100
AcDbEntity
  8
電気錠制御盤　（株）アート
  6
Continuous
 62
     7
370
    13
100
AcDbVertex
100
AcDb2dVertex
 10
68556.44998864866
 20
51312.28068558947
 30
0.0
  0
VERTEX
  5
528E
330
51DD
100
AcDbEntity
  8
電気錠制御盤　（株）アート
  6
Continuous
 62
     7
370
    13
100
AcDbVertex
100
AcDb2dVertex
 10
68556.85930830202
 20
51312.21192139911
 30
0.0
  0
VERTEX
  5
528F
330
51DD
100
AcDbEntity
  8
電気錠制御盤　（株）アート
  6
Continuous
 62
     7
370
    13
100
AcDbVertex
100
AcDb2dVertex
 10
68557.34291378371
 20
51312.1299719017
 30
0.0
  0
VERTEX
  5
5290
330
51DD
100
AcDbEntity
  8
電気錠制御盤　（株）アート
  6
Continuous
 62
     7
370
    13
100
AcDbVertex
100
AcDb2dVertex
 10
68557.89019536563
 20
51312.03603821398
 30
0.0
  0
VERTEX
  5
5291
330
51DD
100
AcDbEntity
  8
電気錠制御盤　（株）アート
  6
Continuous
 62
     7
370
    13
100
AcDbVertex
100
AcDb2dVertex
 10
68558.48833975977
 20
51311.93158244603
 30
0.0
  0
VERTEX
  5
5292
330
51DD
100
AcDbEntity
  8
電気錠制御盤　（株）アート
  6
Continuous
 62
     7
370
    13
100
AcDbVertex
100
AcDb2dVertex
 10
68559.12245335018
 20
51311.818412314
 30
0.0
  0
VERTEX
  5
5293
330
51DD
100
AcDbEntity
  8
電気錠制御盤　（株）アート
  6
Continuous
 62
     7
370
    13
100
AcDbVertex
100
AcDb2dVertex
 10
68559.77583366819
 20
51311.69877968209
 30
0.0
  0
VERTEX
  5
5294
330
51DD
100
AcDbEntity
  8
電気錠制御盤　（株）アート
  6
Continuous
 62
     7
370
    13
100
AcDbVertex
100
AcDb2dVertex
 10
68560.43039167933
 20
51311.57546587363
 30
0.0
  0
VERTEX
  5
5295
330
51DD
100
AcDbEntity
  8
電気錠制御盤　（株）アート
  6
Continuous
 62
     7
370
    13
100
AcDbVertex
100
AcDb2dVertex
 10
68561.06720944606
 20
51311.45182197691
 30
0.0
  0
VERTEX
  5
5296
330
51DD
100
AcDbEntity
  8
電気錠制御盤　（株）アート
  6
Continuous
 62
     7
370
    13
100
AcDbVertex
100
AcDb2dVertex
 10
68561.66720249242
 20
51311.33173504251
 30
0.0
  0
VERTEX
  5
5297
330
51DD
100
AcDbEntity
  8
電気錠制御盤　（株）アート
  6
Continuous
 62
     7
370
    13
100
AcDbVertex
100
AcDb2dVertex
 10
68562.21184542661
 20
51311.21950128751
 30
0.0
  0
VERTEX
  5
5298
330
51DD
100
AcDbEntity
  8
電気錠制御盤　（株）アート
  6
Continuous
 62
     7
370
    13
100
AcDbVertex
100
AcDb2dVertex
 10
68562.68391416183
 20
51311.11960359851
 30
0.0
  0
VERTEX
  5
5299
330
51DD
100
AcDbEntity
  8
電気錠制御盤　（株）アート
  6
Continuous
 62
     7
370
    13
100
AcDbVertex
100
AcDb2dVertex
 10
68563.06819811425
 20
51311.03640952373
 30
0.0
  0
VERTEX
  5
529A
330
51DD
100
AcDbEntity
  8
電気錠制御盤　（株）アート
  6
Continuous
 62
     7
370
    13
100
AcDbVertex
100
AcDb2dVertex
 10
68563.3521401044
 20
51310.97382367329
 30
0.0
  0
VERTEX
  5
529B
330
51DD
100
AcDbEntity
  8
電気錠制御盤　（株）アート
  6
Continuous
 62
     7
370
    13
100
AcDbVertex
100
AcDb2dVertex
 10
68563.52636884265
 20
51310.93494092861
 30
0.0
  0
VERTEX
  5
529C
330
51DD
100
AcDbEntity
  8
電気錠制御盤　（株）アート
  6
Continuous
 62
     7
370
    13
100
AcDbVertex
100
AcDb2dVertex
 10
68563.58509732671
 20
51310.92175115683
 30
0.0
  0
VERTEX
  5
529D
330
51DD
100
AcDbEntity
  8
電気錠制御盤　（株）アート
  6
Continuous
 62
     7
370
    13
100
AcDbVertex
100
AcDb2dVertex
 10
68563.64388570674
 20
51310.90850543976
 30
0.0
  0
VERTEX
  5
529E
330
51DD
100
AcDbEntity
  8
電気錠制御盤　（株）アート
  6
Continuous
 62
     7
370
    13
100
AcDbVertex
100
AcDb2dVertex
 10
68563.81900342515
 20
51310.86878907346
 30
0.0
  0
VERTEX
  5
529F
330
51DD
100
AcDbEntity
  8
電気錠制御盤　（株）アート
  6
Continuous
 62
     7
370
    13
100
AcDbVertex
100
AcDb2dVertex
 10
68564.10672043226
 20
51310.80263763518
 30
0.0
  0
VERTEX
  5
52A0
330
51DD
100
AcDbEntity
  8
電気錠制御盤　（株）アート
  6
Continuous
 62
     7
370
    13
100
AcDbVertex
100
AcDb2dVertex
 10
68564.50085873565
 20
51310.71003995689
 30
0.0
  0
VERTEX
  5
52A1
330
51DD
100
AcDbEntity
  8
電気錠制御盤　（株）アート
  6
Continuous
 62
     7
370
    13
100
AcDbVertex
100
AcDb2dVertex
 10
68564.99284464081
 20
51310.59089202136
 30
0.0
  0
VERTEX
  5
52A2
330
51DD
100
AcDbEntity
  8
電気錠制御盤　（株）アート
  6
Continuous
 62
     7
370
    13
100
AcDbVertex
100
AcDb2dVertex
 10
68565.57177418805
 20
51310.44503121973
 30
0.0
  0
VERTEX
  5
52A3
330
51DD
100
AcDbEntity
  8
電気錠制御盤　（株）アート
  6
Continuous
 62
     7
370
    13
100
AcDbVertex
100
AcDb2dVertex
 10
68566.22449191772
 20
51310.27240772324
 30
0.0
  0
VERTEX
  5
52A4
330
51DD
100
AcDbEntity
  8
電気錠制御盤　（株）アート
  6
Continuous
 62
     7
370
    13
100
AcDbVertex
100
AcDb2dVertex
 10
68566.93569152914
 20
51310.07341912912
 30
0.0
  0
VERTEX
  5
52A5
330
51DD
100
AcDbEntity
  8
電気錠制御盤　（株）アート
  6
Continuous
 62
     7
370
    13
100
AcDbVertex
100
AcDb2dVertex
 10
68567.68805704302
 20
51309.84938802349
 30
0.0
  0
VERTEX
  5
52A6
330
51DD
100
AcDbEntity
  8
電気錠制御盤　（株）アート
  6
Continuous
 62
     7
370
    13
100
AcDbVertex
100
AcDb2dVertex
 10
68568.46247189307
 20
51309.60311138818
 30
0.0
  0
VERTEX
  5
52A7
330
51DD
100
AcDbEntity
  8
電気錠制御盤　（株）アート
  6
Continuous
 62
     7
370
    13
100
AcDbVertex
100
AcDb2dVertex
 10
68569.2383278381
 20
51309.3393695187
 30
0.0
  0
VERTEX
  5
52A8
330
51DD
100
AcDbEntity
  8
電気錠制御盤　（株）アート
  6
Continuous
 62
     7
370
    13
100
AcDbVertex
100
AcDb2dVertex
 10
68569.99396275691
 20
51309.06526267382
 30
0.0
  0
VERTEX
  5
52A9
330
51DD
100
AcDbEntity
  8
電気錠制御盤　（株）アート
  6
Continuous
 62
     7
370
    13
100
AcDbVertex
100
AcDb2dVertex
 10
68570.70724541656
 20
51308.79025366792
 30
0.0
  0
VERTEX
  5
52AA
330
51DD
100
AcDbEntity
  8
電気錠制御盤　（株）アート
  6
Continuous
 62
     7
370
    13
100
AcDbVertex
100
AcDb2dVertex
 10
68571.35630636997
 20
51308.52583515757
 30
0.0
  0
VERTEX
  5
52AB
330
51DD
100
AcDbEntity
  8
電気錠制御盤　（株）アート
  6
Continuous
 62
     7
370
    13
100
AcDbVertex
100
AcDb2dVertex
 10
68571.92039032615
 20
51308.28480488063
 30
0.0
  0
VERTEX
  5
52AC
330
51DD
100
AcDbEntity
  8
電気錠制御盤　（株）アート
  6
Continuous
 62
     7
370
    13
100
AcDbVertex
100
AcDb2dVertex
 10
68572.38078038356
 20
51308.08020807021
 30
0.0
  0
VERTEX
  5
52AD
330
51DD
100
AcDbEntity
  8
電気錠制御盤　（株）アート
  6
Continuous
 62
     7
370
    13
100
AcDbVertex
100
AcDb2dVertex
 10
68572.72172344588
 20
51307.92407755405
 30
0.0
  0
VERTEX
  5
52AE
330
51DD
100
AcDbEntity
  8
電気錠制御盤　（株）アート
  6
Continuous
 62
     7
370
    13
100
AcDbVertex
100
AcDb2dVertex
 10
68572.93127364479
 20
51307.82615279408
 30
0.0
  0
VERTEX
  5
52AF
330
51DD
100
AcDbEntity
  8
電気錠制御盤　（株）アート
  6
Continuous
 62
     7
370
    13
100
AcDbVertex
100
AcDb2dVertex
 10
68573.00196964702
 20
51307.79277714864
 30
0.0
  0
VERTEX
  5
52B0
330
51DD
100
AcDbEntity
  8
電気錠制御盤　（株）アート
  6
Continuous
 62
     7
370
    13
100
AcDbVertex
100
AcDb2dVertex
 10
68573.07276865728
 20
51307.75918163249
 30
0.0
  0
VERTEX
  5
52B1
330
51DD
100
AcDbEntity
  8
電気錠制御盤　（株）アート
  6
Continuous
 62
     7
370
    13
100
AcDbVertex
100
AcDb2dVertex
 10
68573.2838093508
 20
51307.65804201143
 30
0.0
  0
VERTEX
  5
52B2
330
51DD
100
AcDbEntity
  8
電気錠制御盤　（株）アート
  6
Continuous
 62
     7
370
    13
100
AcDbVertex
100
AcDb2dVertex
 10
68573.63078255765
 20
51307.48863733561
 30
0.0
  0
VERTEX
  5
52B3
330
51DD
100
AcDbEntity
  8
電気錠制御盤　（株）アート
  6
Continuous
 62
     7
370
    13
100
AcDbVertex
100
AcDb2dVertex
 10
68574.10579419024
 20
51307.25080265925
 30
0.0
  0
VERTEX
  5
52B4
330
51DD
100
AcDbEntity
  8
電気錠制御盤　（株）アート
  6
Continuous
 62
     7
370
    13
100
AcDbVertex
100
AcDb2dVertex
 10
68574.69658259711
 20
51306.94618830869
 30
0.0
  0
VERTEX
  5
52B5
330
51DD
100
AcDbEntity
  8
電気錠制御盤　（株）アート
  6
Continuous
 62
     7
370
    13
100
AcDbVertex
100
AcDb2dVertex
 10
68575.38591437973
 20
51306.57950673291
 30
0.0
  0
VERTEX
  5
52B6
330
51DD
100
AcDbEntity
  8
電気錠制御盤　（株）アート
  6
Continuous
 62
     7
370
    13
100
AcDbVertex
100
AcDb2dVertex
 10
68576.15148498304
 20
51306.15940791743
 30
0.0
  0
VERTEX
  5
52B7
330
51DD
100
AcDbEntity
  8
電気錠制御盤　（株）アート
  6
Continuous
 62
     7
370
    13
100
AcDbVertex
100
AcDb2dVertex
 10
68576.9665549647
 20
51305.69870259429
 30
0.0
  0
VERTEX
  5
52B8
330
51DD
100
AcDbEntity
  8
電気錠制御盤　（株）アート
  6
Continuous
 62
     7
370
    13
100
AcDbVertex
100
AcDb2dVertex
 10
68577.80138630456
 20
51305.21380207391
 30
0.0
  0
VERTEX
  5
52B9
330
51DD
100
AcDbEntity
  8
電気錠制御盤　（株）アート
  6
Continuous
 62
     7
370
    13
100
AcDbVertex
100
AcDb2dVertex
 10
68578.62534557395
 20
51304.72342827918
 30
0.0
  0
VERTEX
  5
52BA
330
51DD
100
AcDbEntity
  8
電気錠制御盤　（株）アート
  6
Continuous
 62
     7
370
    13
100
AcDbVertex
100
AcDb2dVertex
 10
68579.40936118327
 20
51304.24682308251
 30
0.0
  0
VERTEX
  5
52BB
330
51DD
100
AcDbEntity
  8
電気錠制御盤　（株）アート
  6
Continuous
 62
     7
370
    13
100
AcDbVertex
100
AcDb2dVertex
 10
68580.12830637282
 20
51303.80180948118
 30
0.0
  0
VERTEX
  5
52BC
330
51DD
100
AcDbEntity
  8
電気錠制御盤　（株）アート
  6
Continuous
 62
     7
370
    13
100
AcDbVertex
100
AcDb2dVertex
 10
68580.76285974048
 20
51303.40309834108
 30
0.0
  0
VERTEX
  5
52BD
330
51DD
100
AcDbEntity
  8
電気錠制御盤　（株）アート
  6
Continuous
 62
     7
370
    13
100
AcDbVertex
100
AcDb2dVertex
 10
68581.30047959202
 20
51303.06118271091
 30
0.0
  0
VERTEX
  5
52BE
330
51DD
100
AcDbEntity
  8
電気錠制御盤　（株）アート
  6
Continuous
 62
     7
370
    13
100
AcDbVertex
100
AcDb2dVertex
 10
68581.73530171103
 20
51302.78202879915
 30
0.0
  0
VERTEX
  5
52BF
330
51DD
100
AcDbEntity
  8
電気錠制御盤　（株）アート
  6
Continuous
 62
     7
370
    13
100
AcDbVertex
100
AcDb2dVertex
 10
68582.06699407137
 20
51302.56759002397
 30
0.0
  0
VERTEX
  5
52C0
330
51DD
100
AcDbEntity
  8
電気錠制御盤　（株）アート
  6
Continuous
 62
     7
370
    13
100
AcDbVertex
100
AcDb2dVertex
 10
68582.29882588572
 20
51302.41698139945
 30
0.0
  0
VERTEX
  5
52C1
330
51DD
100
AcDbEntity
  8
電気錠制御盤　（株）アート
  6
Continuous
 62
     7
370
    13
100
AcDbVertex
100
AcDb2dVertex
 10
68582.43538042566
 20
51302.32800113933
 30
0.0
  0
VERTEX
  5
52C2
330
51DD
100
AcDbEntity
  8
電気錠制御盤　（株）アート
  6
Continuous
 62
     7
370
    13
100
AcDbVertex
100
AcDb2dVertex
 10
68582.48042024932
 20
51302.29861063511
 30
0.0
  0
VERTEX
  5
52C3
330
51DD
100
AcDbEntity
  8
電気錠制御盤　（株）アート
  6
Continuous
 62
     7
370
    13
100
AcDbVertex
100
AcDb2dVertex
 10
68582.52500442824
 20
51302.26949697063
 30
0.0
  0
VERTEX
  5
52C4
330
51DD
100
AcDbEntity
  8
電気錠制御盤　（株）アート
  6
Continuous
 62
     7
370
    13
100
AcDbVertex
100
AcDb2dVertex
 10
68582.65490737371
 20
51302.18453721554
 30
0.0
  0
VERTEX
  5
52C5
330
51DD
100
AcDbEntity
  8
電気錠制御盤　（株）アート
  6
Continuous
 62
     7
370
    13
100
AcDbVertex
100
AcDb2dVertex
 10
68582.85935864411
 20
51302.05031313077
 30
0.0
  0
VERTEX
  5
52C6
330
51DD
100
AcDbEntity
  8
電気錠制御盤　（株）アート
  6
Continuous
 62
     7
370
    13
100
AcDbVertex
100
AcDb2dVertex
 10
68583.12281432858
 20
51301.87606865915
 30
0.0
  0
VERTEX
  5
52C7
330
51DD
100
AcDbEntity
  8
電気錠制御盤　（株）アート
  6
Continuous
 62
     7
370
    13
100
AcDbVertex
100
AcDb2dVertex
 10
68583.42795592881
 20
51301.67160056794
 30
0.0
  0
VERTEX
  5
52C8
330
51DD
100
AcDbEntity
  8
電気錠制御盤　（株）アート
  6
Continuous
 62
     7
370
    13
100
AcDbVertex
100
AcDb2dVertex
 10
68583.75881963632
 20
51301.44513871709
 30
0.0
  0
VERTEX
  5
52C9
330
51DD
100
AcDbEntity
  8
電気錠制御盤　（株）アート
  6
Continuous
 62
     7
370
    13
100
AcDbVertex
100
AcDb2dVertex
 10
68584.10330692267
 20
51301.20178933071
 30
0.0
  0
VERTEX
  5
52CA
330
51DD
100
AcDbEntity
  8
電気錠制御盤　（株）アート
  6
Continuous
 62
     7
370
    13
100
AcDbVertex
100
AcDb2dVertex
 10
68584.45448247826
 20
51300.9429799419
 30
0.0
  0
VERTEX
  5
52CB
330
51DD
100
AcDbEntity
  8
電気錠制御盤　（株）アート
  6
Continuous
 62
     7
370
    13
100
AcDbVertex
100
AcDb2dVertex
 10
68584.81036613323
 20
51300.66709441358
 30
0.0
  0
VERTEX
  5
52CC
330
51DD
100
AcDbEntity
  8
電気錠制御盤　（株）アート
  6
Continuous
 62
     7
370
    13
100
AcDbVertex
100
AcDb2dVertex
 10
68585.17229899428
 20
51300.37118132563
 30
0.0
  0
VERTEX
  5
52CD
330
51DD
100
AcDbEntity
  8
電気錠制御盤　（株）アート
  6
Continuous
 62
     7
370
    13
100
AcDbVertex
100
AcDb2dVertex
 10
68585.54231958946
 20
51300.05333421641
 30
0.0
  0
VERTEX
  5
52CE
330
51DD
100
AcDbEntity
  8
電気錠制御盤　（株）アート
  6
Continuous
 62
     7
370
    13
100
AcDbVertex
100
AcDb2dVertex
 10
68585.92023706176
 20
51299.71514885502
 30
0.0
  0
VERTEX
  5
52CF
330
51DD
100
AcDbEntity
  8
電気錠制御盤　（株）アート
  6
Continuous
 62
     7
370
    13
100
AcDbVertex
100
AcDb2dVertex
 10
68586.30117334686
 20
51299.36361072178
 30
0.0
  0
VERTEX
  5
52D0
330
51DD
100
AcDbEntity
  8
電気錠制御盤　（株）アート
  6
Continuous
 62
     7
370
    13
100
AcDbVertex
100
AcDb2dVertex
 10
68586.67424331866
 20
51299.0118712798
 30
0.0
  0
VERTEX
  5
52D1
330
51DD
100
AcDbEntity
  8
電気錠制御盤　（株）アート
  6
Continuous
 62
     7
370
    13
100
AcDbVertex
100
AcDb2dVertex
 10
68587.02277474366
 20
51298.6786125228
 30
0.0
  0
VERTEX
  5
52D2
330
51DD
100
AcDbEntity
  8
電気錠制御盤　（株）アート
  6
Continuous
 62
     7
370
    13
100
AcDbVertex
100
AcDb2dVertex
 10
68587.32610185183
 20
51298.38602078074
 30
0.0
  0
VERTEX
  5
52D3
330
51DD
100
AcDbEntity
  8
電気錠制御盤　（株）アート
  6
Continuous
 62
     7
370
    13
100
AcDbVertex
100
AcDb2dVertex
 10
68587.56258546152
 20
51298.15671758095
 30
0.0
  0
VERTEX
  5
52D4
330
51DD
100
AcDbEntity
  8
電気錠制御盤　（株）アート
  6
Continuous
 62
     7
370
    13
100
AcDbVertex
100
AcDb2dVertex
 10
68587.71321045421
 20
51298.01025016422
 30
0.0
  0
VERTEX
  5
52D5
330
51DD
100
AcDbEntity
  8
電気錠制御盤　（株）アート
  6
Continuous
 62
     7
370
    13
100
AcDbVertex
100
AcDb2dVertex
 10
68587.76496084295
 20
51297.95986560211
 30
0.0
  0
VERTEX
  5
52D6
330
51DD
100
AcDbEntity
  8
電気錠制御盤　（株）アート
  6
Continuous
 62
     7
370
    13
100
AcDbVertex
100
AcDb2dVertex
 10
68587.8172647614
 20
51297.90891265758
 30
0.0
  0
VERTEX
  5
52D7
330
51DD
100
AcDbEntity
  8
電気錠制御盤　（株）アート
  6
Continuous
 62
     7
370
    13
100
AcDbVertex
100
AcDb2dVertex
 10
68587.97596401907
 20
51297.75414108262
 30
0.0
  0
VERTEX
  5
52D8
330
51DD
100
AcDbEntity
  8
電気錠制御盤　（株）アート
  6
Continuous
 62
     7
370
    13
100
AcDbVertex
100
AcDb2dVertex
 10
68588.24563414267
 20
51297.49060112425
 30
0.0
  0
VERTEX
  5
52D9
330
51DD
100
AcDbEntity
  8
電気錠制御盤　（株）アート
  6
Continuous
 62
     7
370
    13
100
AcDbVertex
100
AcDb2dVertex
 10
68588.63147318624
 20
51297.11247891898
 30
0.0
  0
VERTEX
  5
52DA
330
51DD
100
AcDbEntity
  8
電気錠制御盤　（株）アート
  6
Continuous
 62
     7
370
    13
100
AcDbVertex
100
AcDb2dVertex
 10
68589.13629727473
 20
51296.61612205246
 30
0.0
  0
VERTEX
  5
52DB
330
51DD
100
AcDbEntity
  8
電気錠制御盤　（株）アート
  6
Continuous
 62
     7
370
    13
100
AcDbVertex
100
AcDb2dVertex
 10
68589.75745143032
 20
51296.00317312853
 30
0.0
  0
VERTEX
  5
52DC
330
51DD
100
AcDbEntity
  8
電気錠制御盤　（株）アート
  6
Continuous
 62
     7
370
    13
100
AcDbVertex
100
AcDb2dVertex
 10
68590.48442406021
 20
51295.28303059752
 30
0.0
  0
VERTEX
  5
52DD
330
51DD
100
AcDbEntity
  8
電気錠制御盤　（株）アート
  6
Continuous
 62
     7
370
    13
100
AcDbVertex
100
AcDb2dVertex
 10
68591.2977986779
 20
51294.47400494704
 30
0.0
  0
VERTEX
  5
52DE
330
51DD
100
AcDbEntity
  8
電気錠制御盤　（株）アート
  6
Continuous
 62
     7
370
    13
100
AcDbVertex
100
AcDb2dVertex
 10
68592.16986988818
 20
51293.60283642077
 30
0.0
  0
VERTEX
  5
52DF
330
51DD
100
AcDbEntity
  8
電気錠制御盤　（株）アート
  6
Continuous
 62
     7
370
    13
100
AcDbVertex
100
AcDb2dVertex
 10
68593.06686588563
 20
51292.70261620695
 30
0.0
  0
VERTEX
  5
52E0
330
51DD
100
AcDbEntity
  8
電気錠制御盤　（株）アート
  6
Continuous
 62
     7
370
    13
100
AcDbVertex
100
AcDb2dVertex
 10
68593.95234846957
 20
51291.80951728711
 30
0.0
  0
VERTEX
  5
52E1
330
51DD
100
AcDbEntity
  8
電気錠制御盤　（株）アート
  6
Continuous
 62
     7
370
    13
100
AcDbVertex
100
AcDb2dVertex
 10
68594.79109250642
 20
51290.95900735038
 30
0.0
  0
VERTEX
  5
52E2
330
51DD
100
AcDbEntity
  8
電気錠制御盤　（株）アート
  6
Continuous
 62
     7
370
    13
100
AcDbVertex
100
AcDb2dVertex
 10
68595.55264342835
 20
51290.18232210317
 30
0.0
  0
VERTEX
  5
52E3
330
51DD
100
AcDbEntity
  8
電気錠制御盤　（株）アート
  6
Continuous
 62
     7
370
    13
100
AcDbVertex
100
AcDb2dVertex
 10
68596.21383765376
 20
51289.50389931613
 30
0.0
  0
VERTEX
  5
52E4
330
51DD
100
AcDbEntity
  8
電気錠制御盤　（株）アート
  6
Continuous
 62
     7
370
    13
100
AcDbVertex
100
AcDb2dVertex
 10
68596.75982462949
 20
51288.94023254738
 30
0.0
  0
VERTEX
  5
52E5
330
51DD
100
AcDbEntity
  8
電気錠制御盤　（株）アート
  6
Continuous
 62
     7
370
    13
100
AcDbVertex
100
AcDb2dVertex
 10
68597.18348873891
 20
51288.50025847481
 30
0.0
  0
VERTEX
  5
52E6
330
51DD
100
AcDbEntity
  8
電気錠制御盤　（株）アート
  6
Continuous
 62
     7
370
    13
100
AcDbVertex
100
AcDb2dVertex
 10
68597.48354717082
 20
51288.18702729085
 30
0.0
  0
VERTEX
  5
52E7
330
51DD
100
AcDbEntity
  8
電気錠制御盤　（株）アート
  6
Continuous
 62
     7
370
    13
100
AcDbVertex
100
AcDb2dVertex
 10
68597.66190494188
 20
51288.00010995046
 30
0.0
  0
VERTEX
  5
52E8
330
51DD
100
AcDbEntity
  8
電気錠制御盤　（株）アート
  6
Continuous
 62
     7
370
    13
100
AcDbVertex
100
AcDb2dVertex
 10
68597.72100726999
 20
51287.93804019059
 30
0.0
  0
VERTEX
  5
52E9
330
51DD
100
AcDbEntity
  8
電気錠制御盤　（株）アート
  6
Continuous
 62
     7
370
    13
100
AcDbVertex
100
AcDb2dVertex
 10
68597.77964901141
 20
51287.87638635301
 30
0.0
  0
VERTEX
  5
52EA
330
51DD
100
AcDbEntity
  8
電気錠制御盤　（株）アート
  6
Continuous
 62
     7
370
    13
100
AcDbVertex
100
AcDb2dVertex
 10
68597.95128705761
 20
51287.69552883917
 30
0.0
  0
VERTEX
  5
52EB
330
51DD
100
AcDbEntity
  8
電気錠制御盤　（株）アート
  6
Continuous
 62
     7
370
    13
100
AcDbVertex
100
AcDb2dVertex
 10
68598.22371665798
 20
51287.40714771824
 30
0.0
  0
VERTEX
  5
52EC
330
51DD
100
AcDbEntity
  8
電気錠制御盤　（株）アート
  6
Continuous
 62
     7
370
    13
100
AcDbVertex
100
AcDb2dVertex
 10
68598.5786494676
 20
51287.02873901839
 30
0.0
  0
VERTEX
  5
52ED
330
51DD
100
AcDbEntity
  8
電気錠制御盤　（株）アート
  6
Continuous
 62
     7
370
    13
100
AcDbVertex
100
AcDb2dVertex
 10
68598.99434672557
 20
51286.58110188472
 30
0.0
  0
VERTEX
  5
52EE
330
51DD
100
AcDbEntity
  8
電気錠制御盤　（株）アート
  6
Continuous
 62
     7
370
    13
100
AcDbVertex
100
AcDb2dVertex
 10
68599.44851763659
 20
51286.08560127766
 30
0.0
  0
VERTEX
  5
52EF
330
51DD
100
AcDbEntity
  8
電気錠制御盤　（株）アート
  6
Continuous
 62
     7
370
    13
100
AcDbVertex
100
AcDb2dVertex
 10
68599.92091330401
 20
51285.56176543014
 30
0.0
  0
VERTEX
  5
52F0
330
51DD
100
AcDbEntity
  8
電気錠制御盤　（株）アート
  6
Continuous
 62
     7
370
    13
100
AcDbVertex
100
AcDb2dVertex
 10
68600.39513763002
 20
51285.02568030173
 30
0.0
  0
VERTEX
  5
52F1
330
51DD
100
AcDbEntity
  8
電気錠制御盤　（株）アート
  6
Continuous
 62
     7
370
    13
100
AcDbVertex
100
AcDb2dVertex
 10
68600.859391338
 20
51284.48944267856
 30
0.0
  0
VERTEX
  5
52F2
330
51DD
100
AcDbEntity
  8
電気錠制御盤　（株）アート
  6
Continuous
 62
     7
370
    13
100
AcDbVertex
100
AcDb2dVertex
 10
68601.30611682124
 20
51283.9616776474
 30
0.0
  0
VERTEX
  5
52F3
330
51DD
100
AcDbEntity
  8
電気錠制御盤　（株）アート
  6
Continuous
 62
     7
370
    13
100
AcDbVertex
100
AcDb2dVertex
 10
68601.73076039068
 20
51283.44887622001
 30
0.0
  0
VERTEX
  5
52F4
330
51DD
100
AcDbEntity
  8
電気錠制御盤　（株）アート
  6
Continuous
 62
     7
370
    13
100
AcDbVertex
100
AcDb2dVertex
 10
68602.13005680777
 20
51282.95712380559
 30
0.0
  0
VERTEX
  5
52F5
330
51DD
100
AcDbEntity
  8
電気錠制御盤　（株）アート
  6
Continuous
 62
     7
370
    13
100
AcDbVertex
100
AcDb2dVertex
 10
68602.50032640362
 20
51282.49371305446
 30
0.0
  0
VERTEX
  5
52F6
330
51DD
100
AcDbEntity
  8
電気錠制御盤　（株）アート
  6
Continuous
 62
     7
370
    13
100
AcDbVertex
100
AcDb2dVertex
 10
68602.83624001779
 20
51282.06818192863
 30
0.0
  0
VERTEX
  5
52F7
330
51DD
100
AcDbEntity
  8
電気錠制御盤　（株）アート
  6
Continuous
 62
     7
370
    13
100
AcDbVertex
100
AcDb2dVertex
 10
68603.13036377393
 20
51281.6924763825
 30
0.0
  0
VERTEX
  5
52F8
330
51DD
100
AcDbEntity
  8
電気錠制御盤　（株）アート
  6
Continuous
 62
     7
370
    13
100
AcDbVertex
100
AcDb2dVertex
 10
68603.37358125039
 20
51281.38016647363
 30
0.0
  0
VERTEX
  5
52F9
330
51DD
100
AcDbEntity
  8
電気錠制御盤　（株）アート
  6
Continuous
 62
     7
370
    13
100
AcDbVertex
100
AcDb2dVertex
 10
68603.55625977182
 20
51281.1448885169
 30
0.0
  0
VERTEX
  5
52FA
330
51DD
100
AcDbEntity
  8
電気錠制御盤　（株）アート
  6
Continuous
 62
     7
370
    13
100
AcDbVertex
100
AcDb2dVertex
 10
68603.66983692014
 20
51280.99838398623
 30
0.0
  0
VERTEX
  5
52FB
330
51DD
100
AcDbEntity
  8
電気錠制御盤　（株）アート
  6
Continuous
 62
     7
370
    13
100
AcDbVertex
100
AcDb2dVertex
 10
68603.70839973874
 20
51280.94861027601
 30
0.0
  0
VERTEX
  5
52FC
330
51DD
100
AcDbEntity
  8
電気錠制御盤　（株）アート
  6
Continuous
 62
     7
370
    13
100
AcDbVertex
100
AcDb2dVertex
 10
68603.7471481774
 20
51280.89858299868
 30
0.0
  0
VERTEX
  5
52FD
330
51DD
100
AcDbEntity
  8
電気錠制御盤　（株）アート
  6
Continuous
 62
     7
370
    13
100
AcDbVertex
100
AcDb2dVertex
 10
68603.86341600603
 20
51280.74838176594
 30
0.0
  0
VERTEX
  5
52FE
330
51DD
100
AcDbEntity
  8
電気錠制御盤　（株）アート
  6
Continuous
 62
     7
370
    13
100
AcDbVertex
100
AcDb2dVertex
 10
68604.05701962522
 20
51280.49792590031
 30
0.0
  0
VERTEX
  5
52FF
330
51DD
100
AcDbEntity
  8
電気錠制御盤　（株）アート
  6
Continuous
 62
     7
370
    13
100
AcDbVertex
100
AcDb2dVertex
 10
68604.32688208558
 20
51280.14794137293
 30
0.0
  0
VERTEX
  5
5300
330
51DD
100
AcDbEntity
  8
電気錠制御盤　（株）アート
  6
Continuous
 62
     7
370
    13
100
AcDbVertex
100
AcDb2dVertex
 10
68604.67009231857
 20
51279.70103975684
 30
0.0
  0
VERTEX
  5
5301
330
51DD
100
AcDbEntity
  8
電気錠制御盤　（株）アート
  6
Continuous
 62
     7
370
    13
100
AcDbVertex
100
AcDb2dVertex
 10
68605.08096570409
 20
51279.16285436044
 30
0.0
  0
VERTEX
  5
5302
330
51DD
100
AcDbEntity
  8
電気錠制御盤　（株）アート
  6
Continuous
 62
     7
370
    13
100
AcDbVertex
100
AcDb2dVertex
 10
68605.5503713075
 20
51278.54296180421
 30
0.0
  0
VERTEX
  5
5303
330
51DD
100
AcDbEntity
  8
電気錠制御盤　（株）アート
  6
Continuous
 62
     7
370
    13
100
AcDbVertex
100
AcDb2dVertex
 10
68606.06553739495
 20
51277.85535950327
 30
0.0
  0
VERTEX
  5
5304
330
51DD
100
AcDbEntity
  8
電気錠制御盤　（株）アート
  6
Continuous
 62
     7
370
    13
100
AcDbVertex
100
AcDb2dVertex
 10
68606.61044121197
 20
51277.11836120525
 30
0.0
  0
VERTEX
  5
5305
330
51DD
100
AcDbEntity
  8
電気錠制御盤　（株）アート
  6
Continuous
 62
     7
370
    13
100
AcDbVertex
100
AcDb2dVertex
 10
68607.16675712205
 20
51276.35389260651
 30
0.0
  0
VERTEX
  5
5306
330
51DD
100
AcDbEntity
  8
電気錠制御盤　（株）アート
  6
Continuous
 62
     7
370
    13
100
AcDbVertex
100
AcDb2dVertex
 10
68607.71521012745
 20
51275.58628935146
 30
0.0
  0
VERTEX
  5
5307
330
51DD
100
AcDbEntity
  8
電気錠制御盤　（株）アート
  6
Continuous
 62
     7
370
    13
100
AcDbVertex
100
AcDb2dVertex
 10
68608.23708998299
 20
51274.84079365768
 30
0.0
  0
VERTEX
  5
5308
330
51DD
100
AcDbEntity
  8
電気錠制御盤　（株）アート
  6
Continuous
 62
     7
370
    13
100
AcDbVertex
100
AcDb2dVertex
 10
68608.7156463962
 20
51274.14199292067
 30
0.0
  0
VERTEX
  5
5309
330
51DD
100
AcDbEntity
  8
電気錠制御盤　（株）アート
  6
Continuous
 62
     7
370
    13
100
AcDbVertex
100
AcDb2dVertex
 10
68609.13711599373
 20
51273.51243548133
 30
0.0
  0
VERTEX
  5
530A
330
51DD
100
AcDbEntity
  8
電気錠制御盤　（株）アート
  6
Continuous
 62
     7
370
    13
100
AcDbVertex
100
AcDb2dVertex
 10
68609.49121958277
 20
51272.9715995405
 30
0.0
  0
VERTEX
  5
530B
330
51DD
100
AcDbEntity
  8
電気錠制御盤　（株）アート
  6
Continuous
 62
     7
370
    13
100
AcDbVertex
100
AcDb2dVertex
 10
68609.77109207847
 20
51272.53529764453
 30
0.0
  0
VERTEX
  5
530C
330
51DD
100
AcDbEntity
  8
電気錠制御盤　（株）アート
  6
Continuous
 62
     7
370
    13
100
AcDbVertex
100
AcDb2dVertex
 10
68609.97273766883
 20
51272.21549519488
 30
0.0
  0
VERTEX
  5
530D
330
51DD
100
AcDbEntity
  8
電気錠制御盤　（株）アート
  6
Continuous
 62
     7
370
    13
100
AcDbVertex
100
AcDb2dVertex
 10
68610.09420793019
 20
51272.02043294238
 30
0.0
  0
VERTEX
  5
530E
330
51DD
100
AcDbEntity
  8
電気錠制御盤　（株）アート
  6
Continuous
 62
     7
370
    13
100
AcDbVertex
100
AcDb2dVertex
 10
68610.13475550077
 20
51271.95489159378
 30
0.0
  0
VERTEX
  5
530F
330
51DD
100
AcDbEntity
  8
電気錠制御盤　（株）アート
  6
Continuous
 62
     7
370
    13
100
AcDbVertex
100
AcDb2dVertex
 10
68610.17514157109
 20
51271.88939143606
 30
0.0
  0
VERTEX
  5
5310
330
51DD
100
AcDbEntity
  8
電気錠制御盤　（株）アート
  6
Continuous
 62
     7
370
    13
100
AcDbVertex
100
AcDb2dVertex
 10
68610.29425012508
 20
51271.69491771499
 30
0.0
  0
VERTEX
  5
5311
330
51DD
100
AcDbEntity
  8
電気錠制御盤　（株）アート
  6
Continuous
 62
     7
370
    13
100
AcDbVertex
100
AcDb2dVertex
 10
68610.48614149577
 20
51271.37743666695
 30
0.0
  0
VERTEX
  5
5312
330
51DD
100
AcDbEntity
  8
電気錠制御盤　（株）アート
  6
Continuous
 62
     7
370
    13
100
AcDbVertex
100
AcDb2dVertex
 10
68610.74157938696
 20
51270.94652931245
 30
0.0
  0
VERTEX
  5
5313
330
51DD
100
AcDbEntity
  8
電気錠制御盤　（株）アート
  6
Continuous
 62
     7
370
    13
100
AcDbVertex
100
AcDb2dVertex
 10
68611.04891172161
 20
51270.41490424054
 30
0.0
  0
VERTEX
  5
5314
330
51DD
100
AcDbEntity
  8
電気錠制御盤　（株）アート
  6
Continuous
 62
     7
370
    13
100
AcDbVertex
100
AcDb2dVertex
 10
68611.39509966259
 20
51269.79781603666
 30
0.0
  0
VERTEX
  5
5315
330
51DD
100
AcDbEntity
  8
電気錠制御盤　（株）アート
  6
Continuous
 62
     7
370
    13
100
AcDbVertex
100
AcDb2dVertex
 10
68611.76674068532
 20
51269.11246237346
 30
0.0
  0
VERTEX
  5
5316
330
51DD
100
AcDbEntity
  8
電気錠制御盤　（株）アート
  6
Continuous
 62
     7
370
    13
100
AcDbVertex
100
AcDb2dVertex
 10
68612.15094611161
 20
51268.37742178851
 30
0.0
  0
VERTEX
  5
5317
330
51DD
100
AcDbEntity
  8
電気錠制御盤　（株）アート
  6
Continuous
 62
     7
370
    13
100
AcDbVertex
100
AcDb2dVertex
 10
68612.53597380257
 20
51267.61217050666
 30
0.0
  0
VERTEX
  5
5318
330
51DD
100
AcDbEntity
  8
電気錠制御盤　（株）アート
  6
Continuous
 62
     7
370
    13
100
AcDbVertex
100
AcDb2dVertex
 10
68612.91157230397
 20
51266.83668625655
 30
0.0
  0
VERTEX
  5
5319
330
51DD
100
AcDbEntity
  8
電気錠制御盤　（株）アート
  6
Continuous
 62
     7
370
    13
100
AcDbVertex
100
AcDb2dVertex
 10
68613.26905176603
 20
51266.07111768501
 30
0.0
  0
VERTEX
  5
531A
330
51DD
100
AcDbEntity
  8
電気錠制御盤　（株）アート
  6
Continuous
 62
     7
370
    13
100
AcDbVertex
100
AcDb2dVertex
 10
68613.60114601963
 20
51265.33547690215
 30
0.0
  0
VERTEX
  5
531B
330
51DD
100
AcDbEntity
  8
電気錠制御盤　（株）アート
  6
Continuous
 62
     7
370
    13
100
AcDbVertex
100
AcDb2dVertex
 10
68613.90175997057
 20
51264.64930517415
 30
0.0
  0
VERTEX
  5
531C
330
51DD
100
AcDbEntity
  8
電気錠制御盤　（株）アート
  6
Continuous
 62
     7
370
    13
100
AcDbVertex
100
AcDb2dVertex
 10
68614.16570183449
 20
51264.03126969115
 30
0.0
  0
VERTEX
  5
531D
330
51DD
100
AcDbEntity
  8
電気錠制御盤　（株）アート
  6
Continuous
 62
     7
370
    13
100
AcDbVertex
100
AcDb2dVertex
 10
68614.38848171868
 20
51263.49867077508
 30
0.0
  0
VERTEX
  5
531E
330
51DD
100
AcDbEntity
  8
電気錠制御盤　（株）アート
  6
Continuous
 62
     7
370
    13
100
AcDbVertex
100
AcDb2dVertex
 10
68614.56622336173
 20
51263.06686854403
 30
0.0
  0
VERTEX
  5
531F
330
51DD
100
AcDbEntity
  8
電気錠制御盤　（株）アート
  6
Continuous
 62
     7
370
    13
100
AcDbVertex
100
AcDb2dVertex
 10
68614.69569427258
 20
51262.74866856003
 30
0.0
  0
VERTEX
  5
5320
330
51DD
100
AcDbEntity
  8
電気錠制御盤　（株）アート
  6
Continuous
 62
     7
370
    13
100
AcDbVertex
100
AcDb2dVertex
 10
68614.77442238888
 20
51262.55372975172
 30
0.0
  0
VERTEX
  5
5321
330
51DD
100
AcDbEntity
  8
電気錠制御盤　（株）アート
  6
Continuous
 62
     7
370
    13
100
AcDbVertex
100
AcDb2dVertex
 10
68614.80084388889
 20
51262.48806875536
 30
0.0
  0
VERTEX
  5
5322
330
51DD
100
AcDbEntity
  8
電気錠制御盤　（株）アート
  6
Continuous
 62
     7
370
    13
100
AcDbVertex
100
AcDb2dVertex
 10
68614.82723552249
 20
51262.42236406469
 30
0.0
  0
VERTEX
  5
5323
330
51DD
100
AcDbEntity
  8
電気錠制御盤　（株）アート
  6
Continuous
 62
     7
370
    13
100
AcDbVertex
100
AcDb2dVertex
 10
68614.90551528074
 20
51262.22678591275
 30
0.0
  0
VERTEX
  5
5324
330
51DD
100
AcDbEntity
  8
電気錠制御盤　（株）アート
  6
Continuous
 62
     7
370
    13
100
AcDbVertex
100
AcDb2dVertex
 10
68615.03304260036
 20
51261.90594221392
 30
0.0
  0
VERTEX
  5
5325
330
51DD
100
AcDbEntity
  8
電気錠制御盤　（株）アート
  6
Continuous
 62
     7
370
    13
100
AcDbVertex
100
AcDb2dVertex
 10
68615.20556226633
 20
51261.46750537008
 30
0.0
  0
VERTEX
  5
5326
330
51DD
100
AcDbEntity
  8
電気錠制御盤　（株）アート
  6
Continuous
 62
     7
370
    13
100
AcDbVertex
100
AcDb2dVertex
 10
68615.41741020865
 20
51260.92217498014
 30
0.0
  0
VERTEX
  5
5327
330
51DD
100
AcDbEntity
  8
電気錠制御盤　（株）アート
  6
Continuous
 62
     7
370
    13
100
AcDbVertex
100
AcDb2dVertex
 10
68615.66177764647
 20
51260.28357989119
 30
0.0
  0
VERTEX
  5
5328
330
51DD
100
AcDbEntity
  8
電気錠制御盤　（株）アート
  6
Continuous
 62
     7
370
    13
100
AcDbVertex
100
AcDb2dVertex
 10
68615.93101309128
 20
51259.56808741094
 30
0.0
  0
VERTEX
  5
5329
330
51DD
100
AcDbEntity
  8
電気錠制御盤　（株）アート
  6
Continuous
 62
     7
370
    13
100
AcDbVertex
100
AcDb2dVertex
 10
68616.21694025138
 20
51258.79449420871
 30
0.0
  0
VERTEX
  5
532A
330
51DD
100
AcDbEntity
  8
電気錠制御盤　（株）アート
  6
Continuous
 62
     7
370
    13
100
AcDbVertex
100
AcDb2dVertex
 10
68616.51117075941
 20
51257.98358682321
 30
0.0
  0
VERTEX
  5
532B
330
51DD
100
AcDbEntity
  8
電気錠制御盤　（株）アート
  6
Continuous
 62
     7
370
    13
100
AcDbVertex
100
AcDb2dVertex
 10
68616.80539359189
 20
51257.15757698158
 30
0.0
  0
VERTEX
  5
532C
330
51DD
100
AcDbEntity
  8
電気錠制御盤　（株）アート
  6
Continuous
 62
     7
370
    13
100
AcDbVertex
100
AcDb2dVertex
 10
68617.09162750281
 20
51256.33943455183
 30
0.0
  0
VERTEX
  5
532D
330
51DD
100
AcDbEntity
  8
電気錠制御盤　（株）アート
  6
Continuous
 62
     7
370
    13
100
AcDbVertex
100
AcDb2dVertex
 10
68617.36242802328
 20
51255.5521552887
 30
0.0
  0
VERTEX
  5
532E
330
51DD
100
AcDbEntity
  8
電気錠制御盤　（株）アート
  6
Continuous
 62
     7
370
    13
100
AcDbVertex
100
AcDb2dVertex
 10
68617.61104599126
 20
51254.81800882706
 30
0.0
  0
VERTEX
  5
532F
330
51DD
100
AcDbEntity
  8
電気錠制御盤　（株）アート
  6
Continuous
 62
     7
370
    13
100
AcDbVertex
100
AcDb2dVertex
 10
68617.83153934144
 20
51254.15781328753
 30
0.0
  0
VERTEX
  5
5330
330
51DD
100
AcDbEntity
  8
電気錠制御盤　（株）アート
  6
Continuous
 62
     7
370
    13
100
AcDbVertex
100
AcDb2dVertex
 10
68618.01884371004
 20
51253.59027672039
 30
0.0
  0
VERTEX
  5
5331
330
51DD
100
AcDbEntity
  8
電気錠制御盤　（株）アート
  6
Continuous
 62
     7
370
    13
100
AcDbVertex
100
AcDb2dVertex
 10
68618.16880999468
 20
51253.13143435568
 30
0.0
  0
VERTEX
  5
5332
330
51DD
100
AcDbEntity
  8
電気錠制御盤　（株）アート
  6
Continuous
 62
     7
370
    13
100
AcDbVertex
100
AcDb2dVertex
 10
68618.27821813634
 20
51252.79419704789
 30
0.0
  0
VERTEX
  5
5333
330
51DD
100
AcDbEntity
  8
電気錠制御盤　（株）アート
  6
Continuous
 62
     7
370
    13
100
AcDbVertex
100
AcDb2dVertex
 10
68618.34477641097
 20
51252.5880137019
 30
0.0
  0
VERTEX
  5
5334
330
51DD
100
AcDbEntity
  8
電気錠制御盤　（株）アート
  6
Continuous
 62
     7
370
    13
100
AcDbVertex
100
AcDb2dVertex
 10
68618.36711446008
 20
51252.51864146926
 30
0.0
  0
VERTEX
  5
5335
330
51DD
100
AcDbEntity
  8
電気錠制御盤　（株）アート
  6
Continuous
 62
     7
370
    13
100
AcDbVertex
100
AcDb2dVertex
 10
68618.38942659683
 20
51252.44926259035
 30
0.0
  0
VERTEX
  5
5336
330
51DD
100
AcDbEntity
  8
電気錠制御盤　（株）アート
  6
Continuous
 62
     7
370
    13
100
AcDbVertex
100
AcDb2dVertex
 10
68618.45560339205
 20
51252.24297566528
 30
0.0
  0
VERTEX
  5
5337
330
51DD
100
AcDbEntity
  8
電気錠制御盤　（株）アート
  6
Continuous
 62
     7
370
    13
100
AcDbVertex
100
AcDb2dVertex
 10
68618.56341573782
 20
51251.90525993744
 30
0.0
  0
VERTEX
  5
5338
330
51DD
100
AcDbEntity
  8
電気錠制御盤　（株）アート
  6
Continuous
 62
     7
370
    13
100
AcDbVertex
100
AcDb2dVertex
 10
68618.7093066629
 20
51251.44502432608
 30
0.0
  0
VERTEX
  5
5339
330
51DD
100
AcDbEntity
  8
電気錠制御盤　（株）アート
  6
Continuous
 62
     7
370
    13
100
AcDbVertex
100
AcDb2dVertex
 10
68618.88860385977
 20
51250.8743045334
 30
0.0
  0
VERTEX
  5
533A
330
51DD
100
AcDbEntity
  8
電気錠制御盤　（株）アート
  6
Continuous
 62
     7
370
    13
100
AcDbVertex
100
AcDb2dVertex
 10
68619.0957730215
 20
51250.20789420159
 30
0.0
  0
VERTEX
  5
533B
330
51DD
100
AcDbEntity
  8
電気錠制御盤　（株）アート
  6
Continuous
 62
     7
370
    13
100
AcDbVertex
100
AcDb2dVertex
 10
68619.32467918731
 20
51249.46294789801
 30
0.0
  0
VERTEX
  5
533C
330
51DD
100
AcDbEntity
  8
電気錠制御盤　（株）アート
  6
Continuous
 62
     7
370
    13
100
AcDbVertex
100
AcDb2dVertex
 10
68619.56882723383
 20
51248.65858470016
 30
0.0
  0
VERTEX
  5
533D
330
51DD
100
AcDbEntity
  8
電気錠制御盤　（株）アート
  6
Continuous
 62
     7
370
    13
100
AcDbVertex
100
AcDb2dVertex
 10
68619.82156199701
 20
51247.81550493056
 30
0.0
  0
VERTEX
  5
533E
330
51DD
100
AcDbEntity
  8
電気錠制御盤　（株）アート
  6
Continuous
 62
     7
370
    13
100
AcDbVertex
100
AcDb2dVertex
 10
68620.07622114902
 20
51246.95561357105
 30
0.0
  0
VERTEX
  5
533F
330
51DD
100
AcDbEntity
  8
電気錠制御盤　（株）アート
  6
Continuous
 62
     7
370
    13
100
AcDbVertex
100
AcDb2dVertex
 10
68620.32624651231
 20
51246.10162731485
 30
0.0
  0
VERTEX
  5
5340
330
51DD
100
AcDbEntity
  8
電気錠制御盤　（株）アート
  6
Continuous
 62
     7
370
    13
100
AcDbVertex
100
AcDb2dVertex
 10
68620.56526935807
 20
51245.2766330302
 30
0.0
  0
VERTEX
  5
5341
330
51DD
100
AcDbEntity
  8
電気錠制御盤　（株）アート
  6
Continuous
 62
     7
370
    13
100
AcDbVertex
100
AcDb2dVertex
 10
68620.78718992509
 20
51244.50356674009
 30
0.0
  0
VERTEX
  5
5342
330
51DD
100
AcDbEntity
  8
電気錠制御盤　（株）アート
  6
Continuous
 62
     7
370
    13
100
AcDbVertex
100
AcDb2dVertex
 10
68620.98627008311
 20
51243.80459475631
 30
0.0
  0
VERTEX
  5
5343
330
51DD
100
AcDbEntity
  8
電気錠制御盤　（株）アート
  6
Continuous
 62
     7
370
    13
100
AcDbVertex
100
AcDb2dVertex
 10
68621.15725144185
 20
51243.20040020831
 30
0.0
  0
VERTEX
  5
5344
330
51DD
100
AcDbEntity
  8
電気錠制御盤　（株）アート
  6
Continuous
 62
     7
370
    13
100
AcDbVertex
100
AcDb2dVertex
 10
68621.29550084508
 20
51242.70940424726
 30
0.0
  0
VERTEX
  5
5345
330
51DD
100
AcDbEntity
  8
電気錠制御盤　（株）アート
  6
Continuous
 62
     7
370
    13
100
AcDbVertex
100
AcDb2dVertex
 10
68621.39717405923
 20
51242.34697593415
 30
0.0
  0
VERTEX
  5
5346
330
51DD
100
AcDbEntity
  8
電気錠制御盤　（株）アート
  6
Continuous
 62
     7
370
    13
100
AcDbVertex
100
AcDb2dVertex
 10
68621.45937939025
 20
51242.12470218392
 30
0.0
  0
VERTEX
  5
5347
330
51DD
100
AcDbEntity
  8
電気錠制御盤　（株）アート
  6
Continuous
 62
     7
370
    13
100
AcDbVertex
100
AcDb2dVertex
 10
68621.48031809293
 20
51242.04979465867
 30
0.0
  0
VERTEX
  5
5348
330
51DD
100
AcDbEntity
  8
電気錠制御盤　（株）アート
  6
Continuous
 62
     7
370
    13
100
AcDbVertex
100
AcDb2dVertex
 10
68621.50126392803
 20
51241.97481732108
 30
0.0
  0
VERTEX
  5
5349
330
51DD
100
AcDbEntity
  8
電気錠制御盤　（株）アート
  6
Continuous
 62
     7
370
    13
100
AcDbVertex
100
AcDb2dVertex
 10
68621.56357684247
 20
51241.75149173255
 30
0.0
  0
VERTEX
  5
534A
330
51DD
100
AcDbEntity
  8
電気錠制御盤　（株）アート
  6
Continuous
 62
     7
370
    13
100
AcDbVertex
100
AcDb2dVertex
 10
68621.66572058312
 20
51241.38447439673
 30
0.0
  0
VERTEX
  5
534B
330
51DD
100
AcDbEntity
  8
電気錠制御盤　（株）アート
  6
Continuous
 62
     7
370
    13
100
AcDbVertex
100
AcDb2dVertex
 10
68621.80524939335
 20
51240.88104105928
 30
0.0
  0
VERTEX
  5
534C
330
51DD
100
AcDbEntity
  8
電気錠制御盤　（株）アート
  6
Continuous
 62
     7
370
    13
100
AcDbVertex
100
AcDb2dVertex
 10
68621.97894675024
 20
51240.25054319838
 30
0.0
  0
VERTEX
  5
534D
330
51DD
100
AcDbEntity
  8
電気錠制御盤　（株）アート
  6
Continuous
 62
     7
370
    13
100
AcDbVertex
100
AcDb2dVertex
 10
68622.18296278975
 20
51239.50395869762
 30
0.0
  0
VERTEX
  5
534E
330
51DD
100
AcDbEntity
  8
電気錠制御盤　（株）アート
  6
Continuous
 62
     7
370
    13
100
AcDbVertex
100
AcDb2dVertex
 10
68622.41291393972
 20
51238.65373126345
 30
0.0
  0
VERTEX
  5
534F
330
51DD
100
AcDbEntity
  8
電気錠制御盤　（株）アート
  6
Continuous
 62
     7
370
    13
100
AcDbVertex
100
AcDb2dVertex
 10
68622.66392071657
 20
51237.71401693226
 30
0.0
  0
VERTEX
  5
5350
330
51DD
100
AcDbEntity
  8
電気錠制御盤　（株）アート
  6
Continuous
 62
     7
370
    13
100
AcDbVertex
100
AcDb2dVertex
 10
68622.9305803623
 20
51236.70133312495
 30
0.0
  0
VERTEX
  5
5351
330
51DD
100
AcDbEntity
  8
電気錠制御盤　（株）アート
  6
Continuous
 62
     7
370
    13
100
AcDbVertex
100
AcDb2dVertex
 10
68623.20689476468
 20
51235.63546685951
 30
0.0
  0
VERTEX
  5
5352
330
51DD
100
AcDbEntity
  8
電気錠制御盤　（株）アート
  6
Continuous
 62
     7
370
    13
100
AcDbVertex
100
AcDb2dVertex
 10
68623.48619455508
 20
51234.54038068952
 30
0.0
  0
VERTEX
  5
5353
330
51DD
100
AcDbEntity
  8
電気錠制御盤　（株）アート
  6
Continuous
 62
     7
370
    13
100
AcDbVertex
100
AcDb2dVertex
 10
68623.76111186184
 20
51233.4447912086
 30
0.0
  0
VERTEX
  5
5354
330
51DD
100
AcDbEntity
  8
電気錠制御盤　（株）アート
  6
Continuous
 62
     7
370
    13
100
AcDbVertex
100
AcDb2dVertex
 10
68624.0236528527
 20
51232.38210732827
 30
0.0
  0
VERTEX
  5
5355
330
51DD
100
AcDbEntity
  8
電気錠制御盤　（株）アート
  6
Continuous
 62
     7
370
    13
100
AcDbVertex
100
AcDb2dVertex
 10
68624.26540642863
 20
51231.3895080384
 30
0.0
  0
VERTEX
  5
5356
330
51DD
100
AcDbEntity
  8
電気錠制御盤　（株）アート
  6
Continuous
 62
     7
370
    13
100
AcDbVertex
100
AcDb2dVertex
 10
68624.47789957188
 20
51230.50609656238
 30
0.0
  0
VERTEX
  5
5357
330
51DD
100
AcDbEntity
  8
電気錠制御盤　（株）アート
  6
Continuous
 62
     7
370
    13
100
AcDbVertex
100
AcDb2dVertex
 10
68624.65307829045
 20
51229.77025790178
 30
0.0
  0
VERTEX
  5
5358
330
51DD
100
AcDbEntity
  8
電気錠制御盤　（株）アート
  6
Continuous
 62
     7
370
    13
100
AcDbVertex
100
AcDb2dVertex
 10
68624.78386283778
 20
51229.21652825588
 30
0.0
  0
VERTEX
  5
5359
330
51DD
100
AcDbEntity
  8
電気錠制御盤　（株）アート
  6
Continuous
 62
     7
370
    13
100
AcDbVertex
100
AcDb2dVertex
 10
68624.86470378821
 20
51228.87241654584
 30
0.0
  0
VERTEX
  5
535A
330
51DD
100
AcDbEntity
  8
電気錠制御盤　（株）アート
  6
Continuous
 62
     7
370
    13
100
AcDbVertex
100
AcDb2dVertex
 10
68624.89205708317
 20
51228.75566832686
 30
0.0
  0
VERTEX
  5
535B
330
51DD
100
AcDbEntity
  8
電気錠制御盤　（株）アート
  6
Continuous
 62
     7
370
    13
100
AcDbVertex
100
AcDb2dVertex
 10
68624.91949081085
 20
51228.63841729538
 30
0.0
  0
VERTEX
  5
535C
330
51DD
100
AcDbEntity
  8
電気錠制御盤　（株）アート
  6
Continuous
 62
     7
370
    13
100
AcDbVertex
100
AcDb2dVertex
 10
68625.00149845294
 20
51228.28693888598
 30
0.0
  0
VERTEX
  5
535D
330
51DD
100
AcDbEntity
  8
電気錠制御盤　（株）アート
  6
Continuous
 62
     7
370
    13
100
AcDbVertex
100
AcDb2dVertex
 10
68625.13702646232
 20
51227.70267492683
 30
0.0
  0
VERTEX
  5
535E
330
51DD
100
AcDbEntity
  8
電気錠制御盤　（株）アート
  6
Continuous
 62
     7
370
    13
100
AcDbVertex
100
AcDb2dVertex
 10
68625.32379852869
 20
51226.88992872723
 30
0.0
  0
VERTEX
  5
535F
330
51DD
100
AcDbEntity
  8
電気錠制御盤　（株）アート
  6
Continuous
 62
     7
370
    13
100
AcDbVertex
100
AcDb2dVertex
 10
68625.55771644003
 20
51225.85819678233
 30
0.0
  0
VERTEX
  5
5360
330
51DD
100
AcDbEntity
  8
電気錠制御盤　（株）アート
  6
Continuous
 62
     7
370
    13
100
AcDbVertex
100
AcDb2dVertex
 10
68625.8323348727
 20
51224.62452237906
 30
0.0
  0
VERTEX
  5
5361
330
51DD
100
AcDbEntity
  8
電気錠制御盤　（株）アート
  6
Continuous
 62
     7
370
    13
100
AcDbVertex
100
AcDb2dVertex
 10
68626.13862096258
 20
51223.21522503535
 30
0.0
  0
VERTEX
  5
5362
330
51DD
100
AcDbEntity
  8
電気錠制御盤　（株）アート
  6
Continuous
 62
     7
370
    13
100
AcDbVertex
100
AcDb2dVertex
 10
68626.46515234596
 20
51221.66648181306
 30
0.0
  0
VERTEX
  5
5363
330
51DD
100
AcDbEntity
  8
電気錠制御盤　（株）アート
  6
Continuous
 62
     7
370
    13
100
AcDbVertex
100
AcDb2dVertex
 10
68626.79880545027
 20
51220.02348217407
 30
0.0
  0
VERTEX
  5
5364
330
51DD
100
AcDbEntity
  8
電気錠制御盤　（株）アート
  6
Continuous
 62
     7
370
    13
100
AcDbVertex
100
AcDb2dVertex
 10
68627.12586377151
 20
51218.33818911913
 30
0.0
  0
VERTEX
  5
5365
330
51DD
100
AcDbEntity
  8
電気錠制御盤　（株）アート
  6
Continuous
 62
     7
370
    13
100
AcDbVertex
100
AcDb2dVertex
 10
68627.43336385152
 20
51216.66604234391
 30
0.0
  0
VERTEX
  5
5366
330
51DD
100
AcDbEntity
  8
電気錠制御盤　（株）アート
  6
Continuous
 62
     7
370
    13
100
AcDbVertex
100
AcDb2dVertex
 10
68627.71042327098
 20
51215.06216339172
 30
0.0
  0
VERTEX
  5
5367
330
51DD
100
AcDbEntity
  8
電気錠制御盤　（株）アート
  6
Continuous
 62
     7
370
    13
100
AcDbVertex
100
AcDb2dVertex
 10
68627.94927951581
 20
51213.57771654056
 30
0.0
  0
VERTEX
  5
5368
330
51DD
100
AcDbEntity
  8
電気錠制御盤　（株）アート
  6
Continuous
 62
     7
370
    13
100
AcDbVertex
100
AcDb2dVertex
 10
68628.14581728837
 20
51212.25702246356
 30
0.0
  0
VERTEX
  5
5369
330
51DD
100
AcDbEntity
  8
電気錠制御盤　（株）アート
  6
Continuous
 62
     7
370
    13
100
AcDbVertex
100
AcDb2dVertex
 10
68628.29946497862
 20
51211.1358306125
 30
0.0
  0
VERTEX
  5
536A
330
51DD
100
AcDbEntity
  8
電気錠制御盤　（株）アート
  6
Continuous
 62
     7
370
    13
100
AcDbVertex
100
AcDb2dVertex
 10
68628.412475783
 20
51210.24087864273
 30
0.0
  0
VERTEX
  5
536B
330
51DD
100
AcDbEntity
  8
電気錠制御盤　（株）アート
  6
Continuous
 62
     7
370
    13
100
AcDbVertex
100
AcDb2dVertex
 10
68628.48874467125
 20
51209.59057131933
 30
0.0
  0
VERTEX
  5
536C
330
51DD
100
AcDbEntity
  8
電気錠制御盤　（株）アート
  6
Continuous
 62
     7
370
    13
100
AcDbVertex
100
AcDb2dVertex
 10
68628.53241697735
 20
51209.19636877703
 30
0.0
  0
VERTEX
  5
536D
330
51DD
100
AcDbEntity
  8
電気錠制御盤　（株）アート
  6
Continuous
 62
     7
370
    13
100
AcDbVertex
100
AcDb2dVertex
 10
68628.54659337736
 20
51209.06434266419
 30
0.0
  0
VERTEX
  5
536E
330
51DD
100
AcDbEntity
  8
電気錠制御盤　（株）アート
  6
Continuous
 62
     7
370
    13
100
AcDbVertex
100
AcDb2dVertex
 10
68628.56050754673
 20
51208.93261691408
 30
0.0
  0
VERTEX
  5
536F
330
51DD
100
AcDbEntity
  8
電気錠制御盤　（株）アート
  6
Continuous
 62
     7
370
    13
100
AcDbVertex
100
AcDb2dVertex
 10
68628.60033748558
 20
51208.54280929976
 30
0.0
  0
VERTEX
  5
5370
330
51DD
100
AcDbEntity
  8
電気錠制御盤　（株）アート
  6
Continuous
 62
     7
370
    13
100
AcDbVertex
100
AcDb2dVertex
 10
68628.66067695803
 20
51207.91067368203
 30
0.0
  0
VERTEX
  5
5371
330
51DD
100
AcDbEntity
  8
電気錠制御盤　（株）アート
  6
Continuous
 62
     7
370
    13
100
AcDbVertex
100
AcDb2dVertex
 10
68628.7335538242
 20
51207.06131918283
 30
0.0
  0
VERTEX
  5
5372
330
51DD
100
AcDbEntity
  8
電気錠制御盤　（株）アート
  6
Continuous
 62
     7
370
    13
100
AcDbVertex
100
AcDb2dVertex
 10
68628.80976903027
 20
51206.02761096286
 30
0.0
  0
VERTEX
  5
5373
330
51DD
100
AcDbEntity
  8
電気錠制御盤　（株）アート
  6
Continuous
 62
     7
370
    13
100
AcDbVertex
100
AcDb2dVertex
 10
68628.8803836476
 20
51204.84815840276
 30
0.0
  0
VERTEX
  5
5374
330
51DD
100
AcDbEntity
  8
電気錠制御盤　（株）アート
  6
Continuous
 62
     7
370
    13
100
AcDbVertex
100
AcDb2dVertex
 10
68628.93806983643
 20
51203.56508193836
 30
0.0
  0
VERTEX
  5
5375
330
51DD
100
AcDbEntity
  8
電気錠制御盤　（株）アート
  6
Continuous
 62
     7
370
    13
100
AcDbVertex
100
AcDb2dVertex
 10
68628.97808124906
 20
51202.22175981963
 30
0.0
  0
VERTEX
  5
5376
330
51DD
100
AcDbEntity
  8
電気錠制御盤　（株）アート
  6
Continuous
 62
     7
370
    13
100
AcDbVertex
100
AcDb2dVertex
 10
68628.99868826082
 20
51200.86074224937
 30
0.0
  0
VERTEX
  5
5377
330
51DD
100
AcDbEntity
  8
電気錠制御盤　（株）アート
  6
Continuous
 62
     7
370
    13
100
AcDbVertex
100
AcDb2dVertex
 10
68629.00104218757
 20
51199.5219862953
 30
0.0
  0
VERTEX
  5
5378
330
51DD
100
AcDbEntity
  8
電気錠制御盤　（株）アート
  6
Continuous
 62
     7
370
    13
100
AcDbVertex
100
AcDb2dVertex
 10
68628.98855281435
 20
51198.24151661286
 30
0.0
  0
VERTEX
  5
5379
330
51DD
100
AcDbEntity
  8
電気錠制御盤　（株）アート
  6
Continuous
 62
     7
370
    13
100
AcDbVertex
100
AcDb2dVertex
 10
68628.96595796606
 20
51197.05056165645
 30
0.0
  0
VERTEX
  5
537A
330
51DD
100
AcDbEntity
  8
電気錠制御盤　（株）アート
  6
Continuous
 62
     7
370
    13
100
AcDbVertex
100
AcDb2dVertex
 10
68628.93831237293
 20
51195.97516028211
 30
0.0
  0
VERTEX
  5
537B
330
51DD
100
AcDbEntity
  8
電気錠制御盤　（株）アート
  6
Continuous
 62
     7
370
    13
100
AcDbVertex
100
AcDb2dVertex
 10
68628.91011671461
 20
51195.03618592323
 30
0.0
  0
VERTEX
  5
537C
330
51DD
100
AcDbEntity
  8
電気錠制御盤　（株）アート
  6
Continuous
 62
     7
370
    13
100
AcDbVertex
100
AcDb2dVertex
 10
68628.88475077785
 20
51194.24969946967
 30
0.0
  0
VERTEX
  5
537D
330
51DD
100
AcDbEntity
  8
電気錠制御盤　（株）アート
  6
Continuous
 62
     7
370
    13
100
AcDbVertex
100
AcDb2dVertex
 10
68628.86428352481
 20
51193.62751998605
 30
0.0
  0
VERTEX
  5
537E
330
51DD
100
AcDbEntity
  8
電気錠制御盤　（株）アート
  6
Continuous
 62
     7
370
    13
100
AcDbVertex
100
AcDb2dVertex
 10
68628.84963118471
 20
51193.17789469848
 30
0.0
  0
VERTEX
  5
537F
330
51DD
100
AcDbEntity
  8
電気錠制御盤　（株）アート
  6
Continuous
 62
     7
370
    13
100
AcDbVertex
100
AcDb2dVertex
 10
68628.8409481477
 20
51192.90615490081
 30
0.0
  0
VERTEX
  5
5380
330
51DD
100
AcDbEntity
  8
電気錠制御盤　（株）アート
  6
Continuous
 62
     7
370
    13
100
AcDbVertex
100
AcDb2dVertex
 10
68628.83808530755
 20
51192.81525997372
 30
0.0
  0
VERTEX
  5
5381
330
51DD
100
AcDbEntity
  8
電気錠制御盤　（株）アート
  6
Continuous
 62
     7
370
    13
100
AcDbVertex
100
AcDb2dVertex
 10
68628.83525448181
 20
51192.72462343948
 30
0.0
  0
VERTEX
  5
5382
330
51DD
100
AcDbEntity
  8
電気錠制御盤　（株）アート
  6
Continuous
 62
     7
370
    13
100
AcDbVertex
100
AcDb2dVertex
 10
68628.82701862491
 20
51192.45665711762
 30
0.0
  0
VERTEX
  5
5383
330
51DD
100
AcDbEntity
  8
電気錠制御盤　（株）アート
  6
Continuous
 62
     7
370
    13
100
AcDbVertex
100
AcDb2dVertex
 10
68628.81404696367
 20
51192.0225760326
 30
0.0
  0
VERTEX
  5
5384
330
51DD
100
AcDbEntity
  8
電気錠制御盤　（株）アート
  6
Continuous
 62
     7
370
    13
100
AcDbVertex
100
AcDb2dVertex
 10
68628.79715023376
 20
51191.43917805256
 30
0.0
  0
VERTEX
  5
5385
330
51DD
100
AcDbEntity
  8
電気錠制御盤　（株）アート
  6
Continuous
 62
     7
370
    13
100
AcDbVertex
100
AcDb2dVertex
 10
68628.77692321947
 20
51190.72650823073
 30
0.0
  0
VERTEX
  5
5386
330
51DD
100
AcDbEntity
  8
電気錠制御盤　（株）アート
  6
Continuous
 62
     7
370
    13
100
AcDbVertex
100
AcDb2dVertex
 10
68628.7534159597
 20
51189.90546659233
 30
0.0
  0
VERTEX
  5
5387
330
51DD
100
AcDbEntity
  8
電気錠制御盤　（株）アート
  6
Continuous
 62
     7
370
    13
100
AcDbVertex
100
AcDb2dVertex
 10
68628.72594826184
 20
51188.99596154767
 30
0.0
  0
VERTEX
  5
5388
330
51DD
100
AcDbEntity
  8
電気錠制御盤　（株）アート
  6
Continuous
 62
     7
370
    13
100
AcDbVertex
100
AcDb2dVertex
 10
68628.69315007142
 20
51188.01606717447
 30
0.0
  0
VERTEX
  5
5389
330
51DD
100
AcDbEntity
  8
電気錠制御盤　（株）アート
  6
Continuous
 62
     7
370
    13
100
AcDbVertex
100
AcDb2dVertex
 10
68628.65325344167
 20
51186.98237705157
 30
0.0
  0
VERTEX
  5
538A
330
51DD
100
AcDbEntity
  8
電気錠制御盤　（株）アート
  6
Continuous
 62
     7
370
    13
100
AcDbVertex
100
AcDb2dVertex
 10
68628.60459459388
 20
51185.9114250049
 30
0.0
  0
VERTEX
  5
538B
330
51DD
100
AcDbEntity
  8
電気錠制御盤　（株）アート
  6
Continuous
 62
     7
370
    13
100
AcDbVertex
100
AcDb2dVertex
 10
68628.54622329732
 20
51184.82174418123
 30
0.0
  0
VERTEX
  5
538C
330
51DD
100
AcDbEntity
  8
電気錠制御盤　（株）アート
  6
Continuous
 62
     7
370
    13
100
AcDbVertex
100
AcDb2dVertex
 10
68628.47847778536
 20
51183.73593586833
 30
0.0
  0
VERTEX
  5
538D
330
51DD
100
AcDbEntity
  8
電気錠制御盤　（株）アート
  6
Continuous
 62
     7
370
    13
100
AcDbVertex
100
AcDb2dVertex
 10
68628.40337720474
 20
51182.68207106331
 30
0.0
  0
VERTEX
  5
538E
330
51DD
100
AcDbEntity
  8
電気錠制御盤　（株）アート
  6
Continuous
 62
     7
370
    13
100
AcDbVertex
100
AcDb2dVertex
 10
68628.32471325807
 20
51181.69386746363
 30
0.0
  0
VERTEX
  5
538F
330
51DD
100
AcDbEntity
  8
電気錠制御盤　（株）アート
  6
Continuous
 62
     7
370
    13
100
AcDbVertex
100
AcDb2dVertex
 10
68628.24778283424
 20
51180.80934807212
 30
0.0
  0
VERTEX
  5
5390
330
51DD
100
AcDbEntity
  8
電気錠制御盤　（株）アート
  6
Continuous
 62
     7
370
    13
100
AcDbVertex
100
AcDb2dVertex
 10
68628.17878066488
 20
51180.06803548227
 30
0.0
  0
VERTEX
  5
5391
330
51DD
100
AcDbEntity
  8
電気錠制御盤　（株）アート
  6
Continuous
 62
     7
370
    13
100
AcDbVertex
100
AcDb2dVertex
 10
68628.12394797093
 20
51179.50708724412
 30
0.0
  0
VERTEX
  5
5392
330
51DD
100
AcDbEntity
  8
電気錠制御盤　（株）アート
  6
Continuous
 62
     7
370
    13
100
AcDbVertex
100
AcDb2dVertex
 10
68628.08863178082
 20
51179.15704925247
 30
0.0
  0
VERTEX
  5
5393
330
51DD
100
AcDbEntity
  8
電気錠制御盤　（株）アート
  6
Continuous
 62
     7
370
    13
100
AcDbVertex
100
AcDb2dVertex
 10
68628.07643589714
 20
51179.03803026751
 30
0.0
  0
VERTEX
  5
5394
330
51DD
100
AcDbEntity
  8
電気錠制御盤　（株）アート
  6
Continuous
 62
     7
370
    13
100
AcDbVertex
100
AcDb2dVertex
 10
68628.06407911665
 20
51178.91836414041
 30
0.0
  0
VERTEX
  5
5395
330
51DD
100
AcDbEntity
  8
電気錠制御盤　（株）アート
  6
Continuous
 62
     7
370
    13
100
AcDbVertex
100
AcDb2dVertex
 10
68628.02639770097
 20
51178.55885324591
 30
0.0
  0
VERTEX
  5
5396
330
51DD
100
AcDbEntity
  8
電気錠制御盤　（株）アート
  6
Continuous
 62
     7
370
    13
100
AcDbVertex
100
AcDb2dVertex
 10
68627.96169843858
 20
51177.95870670566
 30
0.0
  0
VERTEX
  5
5397
330
51DD
100
AcDbEntity
  8
電気錠制御盤　（株）アート
  6
Continuous
 62
     7
370
    13
100
AcDbVertex
100
AcDb2dVertex
 10
68627.86760388202
 20
51177.11891755389
 30
0.0
  0
VERTEX
  5
5398
330
51DD
100
AcDbEntity
  8
電気錠制御盤　（株）アート
  6
Continuous
 62
     7
370
    13
100
AcDbVertex
100
AcDb2dVertex
 10
68627.74164545125
 20
51176.04514812716
 30
0.0
  0
VERTEX
  5
5399
330
51DD
100
AcDbEntity
  8
電気錠制御盤　（株）アート
  6
Continuous
 62
     7
370
    13
100
AcDbVertex
100
AcDb2dVertex
 10
68627.58195919655
 20
51174.75074388722
 30
0.0
  0
VERTEX
  5
539A
330
51DD
100
AcDbEntity
  8
電気錠制御盤　（株）アート
  6
Continuous
 62
     7
370
    13
100
AcDbVertex
100
AcDb2dVertex
 10
68627.38797717804
 20
51173.25913686791
 30
0.0
  0
VERTEX
  5
539B
330
51DD
100
AcDbEntity
  8
電気錠制御盤　（株）アート
  6
Continuous
 62
     7
370
    13
100
AcDbVertex
100
AcDb2dVertex
 10
68627.16101024486
 20
51171.60502268004
 30
0.0
  0
VERTEX
  5
539C
330
51DD
100
AcDbEntity
  8
電気錠制御盤　（株）アート
  6
Continuous
 62
     7
370
    13
100
AcDbVertex
100
AcDb2dVertex
 10
68626.90463668517
 20
51169.83395458684
 30
0.0
  0
VERTEX
  5
539D
330
51DD
100
AcDbEntity
  8
電気錠制御盤　（株）アート
  6
Continuous
 62
     7
370
    13
100
AcDbVertex
100
AcDb2dVertex
 10
68626.62484185732
 20
51168.00033337401
 30
0.0
  0
VERTEX
  5
539E
330
51DD
100
AcDbEntity
  8
電気錠制御盤　（株）アート
  6
Continuous
 62
     7
370
    13
100
AcDbVertex
100
AcDb2dVertex
 10
68626.32989033348
 20
51166.1641047232
 30
0.0
  0
VERTEX
  5
539F
330
51DD
100
AcDbEntity
  8
電気錠制御盤　（株）アート
  6
Continuous
 62
     7
370
    13
100
AcDbVertex
100
AcDb2dVertex
 10
68626.0299479898
 20
51164.38673057782
 30
0.0
  0
VERTEX
  5
53A0
330
51DD
100
AcDbEntity
  8
電気錠制御盤　（株）アート
  6
Continuous
 62
     7
370
    13
100
AcDbVertex
100
AcDb2dVertex
 10
68625.73650113827
 20
51162.72712132933
 30
0.0
  0
VERTEX
  5
53A1
330
51DD
100
AcDbEntity
  8
電気錠制御盤　（株）アート
  6
Continuous
 62
     7
370
    13
100
AcDbVertex
100
AcDb2dVertex
 10
68625.46163917891
 20
51161.23817823753
 30
0.0
  0
VERTEX
  5
53A2
330
51DD
100
AcDbEntity
  8
電気錠制御盤　（株）アート
  6
Continuous
 62
     7
370
    13
100
AcDbVertex
100
AcDb2dVertex
 10
68625.21727525479
 20
51159.96441463978
 30
0.0
  0
VERTEX
  5
53A3
330
51DD
100
AcDbEntity
  8
電気錠制御盤　（株）アート
  6
Continuous
 62
     7
370
    13
100
AcDbVertex
100
AcDb2dVertex
 10
68625.01437648274
 20
51158.94084846789
 30
0.0
  0
VERTEX
  5
53A4
330
51DD
100
AcDbEntity
  8
電気錠制御盤　（株）アート
  6
Continuous
 62
     7
370
    13
100
AcDbVertex
100
AcDb2dVertex
 10
68624.86226490921
 20
51158.19305715302
 30
0.0
  0
VERTEX
  5
53A5
330
51DD
100
AcDbEntity
  8
電気錠制御盤　（株）アート
  6
Continuous
 62
     7
370
    13
100
AcDbVertex
100
AcDb2dVertex
 10
68624.76803556494
 20
51157.73803332858
 30
0.0
  0
VERTEX
  5
53A6
330
51DD
100
AcDbEntity
  8
電気錠制御盤　（株）アート
  6
Continuous
 62
     7
370
    13
100
AcDbVertex
100
AcDb2dVertex
 10
68624.73612308911
 20
51157.58533642666
 30
0.0
  0
VERTEX
  5
53A7
330
51DD
100
AcDbEntity
  8
電気錠制御盤　（株）アート
  6
Continuous
 62
     7
370
    13
100
AcDbVertex
100
AcDb2dVertex
 10
68624.70410319304
 20
51157.43283407429
 30
0.0
  0
VERTEX
  5
53A8
330
51DD
100
AcDbEntity
  8
電気錠制御盤　（株）アート
  6
Continuous
 62
     7
370
    13
100
AcDbVertex
100
AcDb2dVertex
 10
68624.6082836587
 20
51156.98063953558
 30
0.0
  0
VERTEX
  5
53A9
330
51DD
100
AcDbEntity
  8
電気錠制御盤　（株）アート
  6
Continuous
 62
     7
370
    13
100
AcDbVertex
100
AcDb2dVertex
 10
68624.44945123827
 20
51156.24440894948
 30
0.0
  0
VERTEX
  5
53AA
330
51DD
100
AcDbEntity
  8
電気錠制御盤　（株）アート
  6
Continuous
 62
     7
370
    13
100
AcDbVertex
100
AcDb2dVertex
 10
68624.22912749535
 20
51155.24932311106
 30
0.0
  0
VERTEX
  5
53AB
330
51DD
100
AcDbEntity
  8
電気錠制御盤　（株）アート
  6
Continuous
 62
     7
370
    13
100
AcDbVertex
100
AcDb2dVertex
 10
68623.94984821491
 20
51154.02880345881
 30
0.0
  0
VERTEX
  5
53AC
330
51DD
100
AcDbEntity
  8
電気錠制御盤　（株）アート
  6
Continuous
 62
     7
370
    13
100
AcDbVertex
100
AcDb2dVertex
 10
68623.61548770704
 20
51152.62287352572
 30
0.0
  0
VERTEX
  5
53AD
330
51DD
100
AcDbEntity
  8
電気錠制御盤　（株）アート
  6
Continuous
 62
     7
370
    13
100
AcDbVertex
100
AcDb2dVertex
 10
68623.23157243542
 20
51151.07630053461
 30
0.0
  0
VERTEX
  5
53AE
330
51DD
100
AcDbEntity
  8
電気錠制御盤　（株）アート
  6
Continuous
 62
     7
370
    13
100
AcDbVertex
100
AcDb2dVertex
 10
68622.80552665405
 20
51149.4366599098
 30
0.0
  0
VERTEX
  5
53AF
330
51DD
100
AcDbEntity
  8
電気錠制御盤　（株）アート
  6
Continuous
 62
     7
370
    13
100
AcDbVertex
100
AcDb2dVertex
 10
68622.34679877049
 20
51147.75245745891
 30
0.0
  0
VERTEX
  5
53B0
330
51DD
100
AcDbEntity
  8
電気錠制御盤　（株）アート
  6
Continuous
 62
     7
370
    13
100
AcDbVertex
100
AcDb2dVertex
 10
68621.86682965345
 20
51146.07142239959
 30
0.0
  0
VERTEX
  5
53B1
330
51DD
100
AcDbEntity
  8
電気錠制御盤　（株）アート
  6
Continuous
 62
     7
370
    13
100
AcDbVertex
100
AcDb2dVertex
 10
68621.37884157411
 20
51144.43905313166
 30
0.0
  0
VERTEX
  5
53B2
330
51DD
100
AcDbEntity
  8
電気錠制御盤　（株）アート
  6
Continuous
 62
     7
370
    13
100
AcDbVertex
100
AcDb2dVertex
 10
68620.8974462036
 20
51142.89746193924
 30
0.0
  0
VERTEX
  5
53B3
330
51DD
100
AcDbEntity
  8
電気錠制御盤　（株）アート
  6
Continuous
 62
     7
370
    13
100
AcDbVertex
100
AcDb2dVertex
 10
68620.43808992767
 20
51141.48452945689
 30
0.0
  0
VERTEX
  5
53B4
330
51DD
100
AcDbEntity
  8
電気錠制御盤　（株）アート
  6
Continuous
 62
     7
370
    13
100
AcDbVertex
100
AcDb2dVertex
 10
68620.01637221014
 20
51140.23334908337
 30
0.0
  0
VERTEX
  5
53B5
330
51DD
100
AcDbEntity
  8
電気錠制御盤　（株）アート
  6
Continuous
 62
     7
370
    13
100
AcDbVertex
100
AcDb2dVertex
 10
68619.64728601836
 20
51139.17191852667
 30
0.0
  0
VERTEX
  5
53B6
330
51DD
100
AcDbEntity
  8
電気錠制御盤　（株）アート
  6
Continuous
 62
     7
370
    13
100
AcDbVertex
100
AcDb2dVertex
 10
68619.34443763978
 20
51138.32302154752
 30
0.0
  0
VERTEX
  5
53B7
330
51DD
100
AcDbEntity
  8
電気錠制御盤　（株）アート
  6
Continuous
 62
     7
370
    13
100
AcDbVertex
100
AcDb2dVertex
 10
68619.11930568402
 20
51137.70423775392
 30
0.0
  0
VERTEX
  5
53B8
330
51DD
100
AcDbEntity
  8
電気錠制御盤　（株）アート
  6
Continuous
 62
     7
370
    13
100
AcDbVertex
100
AcDb2dVertex
 10
68618.98059629313
 20
51137.32802075745
 30
0.0
  0
VERTEX
  5
53B9
330
51DD
100
AcDbEntity
  8
電気錠制御盤　（株）アート
  6
Continuous
 62
     7
370
    13
100
AcDbVertex
100
AcDb2dVertex
 10
68618.93374400698
 20
51137.20179335254
 30
0.0
  0
VERTEX
  5
53BA
330
51DD
100
AcDbEntity
  8
電気錠制御盤　（株）アート
  6
Continuous
 62
     7
370
    13
100
AcDbVertex
100
AcDb2dVertex
 10
68618.88679546527
 20
51137.07573123315
 30
0.0
  0
VERTEX
  5
53BB
330
51DD
100
AcDbEntity
  8
電気錠制御盤　（株）アート
  6
Continuous
 62
     7
370
    13
100
AcDbVertex
100
AcDb2dVertex
 10
68618.74666603244
 20
51136.70195826554
 30
0.0
  0
VERTEX
  5
53BC
330
51DD
100
AcDbEntity
  8
電気錠制御盤　（株）アート
  6
Continuous
 62
     7
370
    13
100
AcDbVertex
100
AcDb2dVertex
 10
68618.51557043083
 20
51136.09348186702
 30
0.0
  0
VERTEX
  5
53BD
330
51DD
100
AcDbEntity
  8
電気錠制御盤　（株）アート
  6
Continuous
 62
     7
370
    13
100
AcDbVertex
100
AcDb2dVertex
 10
68618.19740340895
 20
51135.27122539469
 30
0.0
  0
VERTEX
  5
53BE
330
51DD
100
AcDbEntity
  8
電気錠制御盤　（株）アート
  6
Continuous
 62
     7
370
    13
100
AcDbVertex
100
AcDb2dVertex
 10
68617.79798907302
 20
51134.2629627228
 30
0.0
  0
VERTEX
  5
53BF
330
51DD
100
AcDbEntity
  8
電気錠制御盤　（株）アート
  6
Continuous
 62
     7
370
    13
100
AcDbVertex
100
AcDb2dVertex
 10
68617.3253299389
 20
51133.10195439199
 30
0.0
  0
VERTEX
  5
53C0
330
51DD
100
AcDbEntity
  8
電気錠制御盤　（株）アート
  6
Continuous
 62
     7
370
    13
100
AcDbVertex
100
AcDb2dVertex
 10
68616.78978094719
 20
51131.82539476792
 30
0.0
  0
VERTEX
  5
53C1
330
51DD
100
AcDbEntity
  8
電気錠制御盤　（株）アート
  6
Continuous
 62
     7
370
    13
100
AcDbVertex
100
AcDb2dVertex
 10
68616.20408219061
 20
51130.47278773451
 30
0.0
  0
VERTEX
  5
53C2
330
51DD
100
AcDbEntity
  8
電気錠制御盤　（株）アート
  6
Continuous
 62
     7
370
    13
100
AcDbVertex
100
AcDb2dVertex
 10
68615.58320559673
 20
51129.08436395379
 30
0.0
  0
VERTEX
  5
53C3
330
51DD
100
AcDbEntity
  8
電気錠制御盤　（株）アート
  6
Continuous
 62
     7
370
    13
100
AcDbVertex
100
AcDb2dVertex
 10
68614.94400071315
 20
51127.69963707291
 30
0.0
  0
VERTEX
  5
53C4
330
51DD
100
AcDbEntity
  8
電気錠制御盤　（株）アート
  6
Continuous
 62
     7
370
    13
100
AcDbVertex
100
AcDb2dVertex
 10
68614.30465656928
 20
51126.35617217124
 30
0.0
  0
VERTEX
  5
53C5
330
51DD
100
AcDbEntity
  8
電気錠制御盤　（株）アート
  6
Continuous
 62
     7
370
    13
100
AcDbVertex
100
AcDb2dVertex
 10
68613.68402395807
 20
51125.08861090133
 30
0.0
  0
VERTEX
  5
53C6
330
51DD
100
AcDbEntity
  8
電気錠制御盤　（株）アート
  6
Continuous
 62
     7
370
    13
100
AcDbVertex
100
AcDb2dVertex
 10
68613.10086043215
 20
51123.92796789856
 30
0.0
  0
VERTEX
  5
53C7
330
51DD
100
AcDbEntity
  8
電気錠制御盤　（株）アート
  6
Continuous
 62
     7
370
    13
100
AcDbVertex
100
AcDb2dVertex
 10
68612.57306585422
 20
51122.90118568205
 30
0.0
  0
VERTEX
  5
53C8
330
51DD
100
AcDbEntity
  8
電気錠制御盤　（株）アート
  6
Continuous
 62
     7
370
    13
100
AcDbVertex
100
AcDb2dVertex
 10
68612.11696995535
 20
51122.03091313543
 30
0.0
  0
VERTEX
  5
53C9
330
51DD
100
AcDbEntity
  8
電気錠制御盤　（株）アート
  6
Continuous
 62
     7
370
    13
100
AcDbVertex
100
AcDb2dVertex
 10
68611.74671757034
 20
51121.33545742931
 30
0.0
  0
VERTEX
  5
53CA
330
51DD
100
AcDbEntity
  8
電気錠制御盤　（株）アート
  6
Continuous
 62
     7
370
    13
100
AcDbVertex
100
AcDb2dVertex
 10
68611.47377706281
 20
51120.82885160409
 30
0.0
  0
VERTEX
  5
53CB
330
51DD
100
AcDbEntity
  8
電気錠制御盤　（株）アート
  6
Continuous
 62
     7
370
    13
100
AcDbVertex
100
AcDb2dVertex
 10
68611.30657772831
 20
51120.52097976321
 30
0.0
  0
VERTEX
  5
53CC
330
51DD
100
AcDbEntity
  8
電気錠制御盤　（株）アート
  6
Continuous
 62
     7
370
    13
100
AcDbVertex
100
AcDb2dVertex
 10
68611.25026773401
 20
51120.41770791226
 30
0.0
  0
VERTEX
  5
53CD
330
51DD
100
AcDbEntity
  8
電気錠制御盤　（株）アート
  6
Continuous
 62
     7
370
    13
100
AcDbVertex
100
AcDb2dVertex
 10
68611.19392532073
 20
51120.31458360629
 30
0.0
  0
VERTEX
  5
53CE
330
51DD
100
AcDbEntity
  8
電気錠制御盤　（株）アート
  6
Continuous
 62
     7
370
    13
100
AcDbVertex
100
AcDb2dVertex
 10
68611.0262383271
 20
51120.00888589586
 30
0.0
  0
VERTEX
  5
53CF
330
51DD
100
AcDbEntity
  8
電気錠制御盤　（株）アート
  6
Continuous
 62
     7
370
    13
100
AcDbVertex
100
AcDb2dVertex
 10
68610.75117638891
 20
51119.5113901712
 30
0.0
  0
VERTEX
  5
53D0
330
51DD
100
AcDbEntity
  8
電気錠制御盤　（株）アート
  6
Continuous
 62
     7
370
    13
100
AcDbVertex
100
AcDb2dVertex
 10
68610.37519685512
 20
51118.83925799356
 30
0.0
  0
VERTEX
  5
53D1
330
51DD
100
AcDbEntity
  8
電気錠制御盤　（株）アート
  6
Continuous
 62
     7
370
    13
100
AcDbVertex
100
AcDb2dVertex
 10
68609.90704383216
 20
51118.0149619382
 30
0.0
  0
VERTEX
  5
53D2
330
51DD
100
AcDbEntity
  8
電気錠制御盤　（株）アート
  6
Continuous
 62
     7
370
    13
100
AcDbVertex
100
AcDb2dVertex
 10
68609.35752944312
 20
51117.0649968982
 30
0.0
  0
VERTEX
  5
53D3
330
51DD
100
AcDbEntity
  8
電気錠制御盤　（株）アート
  6
Continuous
 62
     7
370
    13
100
AcDbVertex
100
AcDb2dVertex
 10
68608.73933582269
 20
51116.01854101383
 30
0.0
  0
VERTEX
  5
53D4
330
51DD
100
AcDbEntity
  8
電気錠制御盤　（株）アート
  6
Continuous
 62
     7
370
    13
100
AcDbVertex
100
AcDb2dVertex
 10
68608.06686055473
 20
51114.90621335843
 30
0.0
  0
VERTEX
  5
53D5
330
51DD
100
AcDbEntity
  8
電気錠制御盤　（株）アート
  6
Continuous
 62
     7
370
    13
100
AcDbVertex
100
AcDb2dVertex
 10
68607.35610312335
 20
51113.75903294833
 30
0.0
  0
VERTEX
  5
53D6
330
51DD
100
AcDbEntity
  8
電気錠制御盤　（株）アート
  6
Continuous
 62
     7
370
    13
100
AcDbVertex
100
AcDb2dVertex
 10
68606.62456236519
 20
51112.60762519465
 30
0.0
  0
VERTEX
  5
53D7
330
51DD
100
AcDbEntity
  8
電気錠制御盤　（株）アート
  6
Continuous
 62
     7
370
    13
100
AcDbVertex
100
AcDb2dVertex
 10
68605.89109224938
 20
51111.48166136183
 30
0.0
  0
VERTEX
  5
53D8
330
51DD
100
AcDbEntity
  8
電気錠制御盤　（株）アート
  6
Continuous
 62
     7
370
    13
100
AcDbVertex
100
AcDb2dVertex
 10
68605.17565288134
 20
51110.40946771391
 30
0.0
  0
VERTEX
  5
53D9
330
51DD
100
AcDbEntity
  8
電気錠制御盤　（株）アート
  6
Continuous
 62
     7
370
    13
100
AcDbVertex
100
AcDb2dVertex
 10
68604.49889957719
 20
51109.41771412679
 30
0.0
  0
VERTEX
  5
53DA
330
51DD
100
AcDbEntity
  8
電気錠制御盤　（株）アート
  6
Continuous
 62
     7
370
    13
100
AcDbVertex
100
AcDb2dVertex
 10
68603.88157576359
 20
51108.53109182978
 30
0.0
  0
VERTEX
  5
53DB
330
51DD
100
AcDbEntity
  8
電気錠制御盤　（株）アート
  6
Continuous
 62
     7
370
    13
100
AcDbVertex
100
AcDb2dVertex
 10
68603.34371178411
 20
51107.77191479468
 30
0.0
  0
VERTEX
  5
53DC
330
51DD
100
AcDbEntity
  8
電気錠制御盤　（株）アート
  6
Continuous
 62
     7
370
    13
100
AcDbVertex
100
AcDb2dVertex
 10
68602.90367402471
 20
51107.15962125847
 30
0.0
  0
VERTEX
  5
53DD
330
51DD
100
AcDbEntity
  8
電気錠制御盤　（株）アート
  6
Continuous
 62
     7
370
    13
100
AcDbVertex
100
AcDb2dVertex
 10
68602.5771482963
 20
51106.7101993505
 30
0.0
  0
VERTEX
  5
53DE
330
51DD
100
AcDbEntity
  8
電気錠制御盤　（株）アート
  6
Continuous
 62
     7
370
    13
100
AcDbVertex
100
AcDb2dVertex
 10
68602.37616884148
 20
51106.43560108804
 30
0.0
  0
VERTEX
  5
53DF
330
51DD
100
AcDbEntity
  8
電気錠制御盤　（株）アート
  6
Continuous
 62
     7
370
    13
100
AcDbVertex
100
AcDb2dVertex
 10
68602.30831305941
 20
51106.34323175403
 30
0.0
  0
VERTEX
  5
53E0
330
51DD
100
AcDbEntity
  8
電気錠制御盤　（株）アート
  6
Continuous
 62
     7
370
    13
100
AcDbVertex
100
AcDb2dVertex
 10
68602.24033146836
 20
51106.25086279662
 30
0.0
  0
VERTEX
  5
53E1
330
51DD
100
AcDbEntity
  8
電気錠制御盤　（株）アート
  6
Continuous
 62
     7
370
    13
100
AcDbVertex
100
AcDb2dVertex
 10
68602.03749499284
 20
51105.97628779784
 30
0.0
  0
VERTEX
  5
53E2
330
51DD
100
AcDbEntity
  8
電気錠制御盤　（株）アート
  6
Continuous
 62
     7
370
    13
100
AcDbVertex
100
AcDb2dVertex
 10
68601.70316280236
 20
51105.52710251662
 30
0.0
  0
VERTEX
  5
53E3
330
51DD
100
AcDbEntity
  8
電気錠制御盤　（株）アート
  6
Continuous
 62
     7
370
    13
100
AcDbVertex
100
AcDb2dVertex
 10
68601.24304381125
 20
51104.91594248751
 30
0.0
  0
VERTEX
  5
53E4
330
51DD
100
AcDbEntity
  8
電気錠制御盤　（株）アート
  6
Continuous
 62
     7
370
    13
100
AcDbVertex
100
AcDb2dVertex
 10
68600.66534764207
 20
51104.16036860125
 30
0.0
  0
VERTEX
  5
53E5
330
51DD
100
AcDbEntity
  8
電気錠制御盤　（株）アート
  6
Continuous
 62
     7
370
    13
100
AcDbVertex
100
AcDb2dVertex
 10
68599.9809655141
 20
51103.2825750176
 30
0.0
  0
VERTEX
  5
53E6
330
51DD
100
AcDbEntity
  8
電気錠制御盤　（株）アート
  6
Continuous
 62
     7
370
    13
100
AcDbVertex
100
AcDb2dVertex
 10
68599.20364805347
 20
51102.30883882644
 30
0.0
  0
VERTEX
  5
53E7
330
51DD
100
AcDbEntity
  8
電気錠制御盤　（株）アート
  6
Continuous
 62
     7
370
    13
100
AcDbVertex
100
AcDb2dVertex
 10
68598.35013637505
 20
51101.26866585465
 30
0.0
  0
VERTEX
  5
53E8
330
51DD
100
AcDbEntity
  8
電気錠制御盤　（株）アート
  6
Continuous
 62
     7
370
    13
100
AcDbVertex
100
AcDb2dVertex
 10
68597.44019447452
 20
51100.1936429769
 30
0.0
  0
VERTEX
  5
53E9
330
51DD
100
AcDbEntity
  8
電気錠制御盤　（株）アート
  6
Continuous
 62
     7
370
    13
100
AcDbVertex
100
AcDb2dVertex
 10
68596.49648766852
 20
51099.11607111769
 30
0.0
  0
VERTEX
  5
53EA
330
51DD
100
AcDbEntity
  8
電気錠制御盤　（株）アート
  6
Continuous
 62
     7
370
    13
100
AcDbVertex
100
AcDb2dVertex
 10
68595.54425644911
 20
51098.06750887894
 30
0.0
  0
VERTEX
  5
53EB
330
51DD
100
AcDbEntity
  8
電気錠制御盤　（株）アート
  6
Continuous
 62
     7
370
    13
100
AcDbVertex
100
AcDb2dVertex
 10
68594.61074884124
 20
51097.07738976628
 30
0.0
  0
VERTEX
  5
53EC
330
51DD
100
AcDbEntity
  8
電気錠制御盤　（株）アート
  6
Continuous
 62
     7
370
    13
100
AcDbVertex
100
AcDb2dVertex
 10
68593.72439763507
 20
51096.17187654043
 30
0.0
  0
VERTEX
  5
53ED
330
51DD
100
AcDbEntity
  8
電気錠制御盤　（株）アート
  6
Continuous
 62
     7
370
    13
100
AcDbVertex
100
AcDb2dVertex
 10
68592.91375944949
 20
51095.37308201196
 30
0.0
  0
VERTEX
  5
53EE
330
51DD
100
AcDbEntity
  8
電気錠制御盤　（株）アート
  6
Continuous
 62
     7
370
    13
100
AcDbVertex
100
AcDb2dVertex
 10
68592.20626671127
 20
51094.69872249665
 30
0.0
  0
VERTEX
  5
53EF
330
51DD
100
AcDbEntity
  8
電気錠制御盤　（株）アート
  6
Continuous
 62
     7
370
    13
100
AcDbVertex
100
AcDb2dVertex
 10
68591.6268761102
 20
51094.16219131911
 30
0.0
  0
VERTEX
  5
53F0
330
51DD
100
AcDbEntity
  8
電気錠制御盤　（株）アート
  6
Continuous
 62
     7
370
    13
100
AcDbVertex
100
AcDb2dVertex
 10
68591.19672219939
 20
51093.77296217235
 30
0.0
  0
VERTEX
  5
53F1
330
51DD
100
AcDbEntity
  8
電気錠制御盤　（株）アート
  6
Continuous
 62
     7
370
    13
100
AcDbVertex
100
AcDb2dVertex
 10
68590.93189766294
 20
51093.53717341686
 30
0.0
  0
VERTEX
  5
53F2
330
51DD
100
AcDbEntity
  8
電気錠制御盤　（株）アート
  6
Continuous
 62
     7
370
    13
100
AcDbVertex
100
AcDb2dVertex
 10
68590.84247903934
 20
51093.45821771846
 30
0.0
  0
VERTEX
  5
53F3
330
51DD
100
AcDbEntity
  8
電気錠制御盤　（株）アート
  6
Continuous
 62
     7
370
    13
100
AcDbVertex
100
AcDb2dVertex
 10
68590.75289222338
 20
51093.37944596263
 30
0.0
  0
VERTEX
  5
53F4
330
51DD
100
AcDbEntity
  8
電気錠制御盤　（株）アート
  6
Continuous
 62
     7
370
    13
100
AcDbVertex
100
AcDb2dVertex
 10
68590.48559637554
 20
51093.1463644054
 30
0.0
  0
VERTEX
  5
53F5
330
51DD
100
AcDbEntity
  8
電気錠制御盤　（株）アート
  6
Continuous
 62
     7
370
    13
100
AcDbVertex
100
AcDb2dVertex
 10
68590.0451431375
 20
51092.76845327878
 30
0.0
  0
VERTEX
  5
53F6
330
51DD
100
AcDbEntity
  8
電気錠制御盤　（株）アート
  6
Continuous
 62
     7
370
    13
100
AcDbVertex
100
AcDb2dVertex
 10
68589.43959682322
 20
51092.26080066116
 30
0.0
  0
VERTEX
  5
53F7
330
51DD
100
AcDbEntity
  8
電気錠制御盤　（株）アート
  6
Continuous
 62
     7
370
    13
100
AcDbVertex
100
AcDb2dVertex
 10
68588.68109570479
 20
51091.64311470689
 30
0.0
  0
VERTEX
  5
53F8
330
51DD
100
AcDbEntity
  8
電気錠制御盤　（株）アート
  6
Continuous
 62
     7
370
    13
100
AcDbVertex
100
AcDb2dVertex
 10
68587.78636385612
 20
51090.938490209
 30
0.0
  0
VERTEX
  5
53F9
330
51DD
100
AcDbEntity
  8
電気錠制御盤　（株）アート
  6
Continuous
 62
     7
370
    13
100
AcDbVertex
100
AcDb2dVertex
 10
68586.776979414
 20
51090.17205317953
 30
0.0
  0
VERTEX
  5
53FA
330
51DD
100
AcDbEntity
  8
電気錠制御盤　（株）アート
  6
Continuous
 62
     7
370
    13
100
AcDbVertex
100
AcDb2dVertex
 10
68585.67924244143
 20
51089.36961076186
 30
0.0
  0
VERTEX
  5
53FB
330
51DD
100
AcDbEntity
  8
電気錠制御盤　（株）アート
  6
Continuous
 62
     7
370
    13
100
AcDbVertex
100
AcDb2dVertex
 10
68584.52356033287
 20
51088.55642129706
 30
0.0
  0
VERTEX
  5
53FC
330
51DD
100
AcDbEntity
  8
電気錠制御盤　（株）アート
  6
Continuous
 62
     7
370
    13
100
AcDbVertex
100
AcDb2dVertex
 10
68583.34336385093
 20
51087.75617385955
 30
0.0
  0
VERTEX
  5
53FD
330
51DD
100
AcDbEntity
  8
電気錠制御盤　（株）アート
  6
Continuous
 62
     7
370
    13
100
AcDbVertex
100
AcDb2dVertex
 10
68582.17366015501
 20
51086.99023290018
 30
0.0
  0
VERTEX
  5
53FE
330
51DD
100
AcDbEntity
  8
電気錠制御盤　（株）アート
  6
Continuous
 62
     7
370
    13
100
AcDbVertex
100
AcDb2dVertex
 10
68581.04939946346
 20
51086.27716738323
 30
0.0
  0
VERTEX
  5
53FF
330
51DD
100
AcDbEntity
  8
電気錠制御盤　（株）アート
  6
Continuous
 62
     7
370
    13
100
AcDbVertex
100
AcDb2dVertex
 10
68580.00386342593
 20
51085.63255027683
 30
0.0
  0
VERTEX
  5
5400
330
51DD
100
AcDbEntity
  8
電気錠制御盤　（株）アート
  6
Continuous
 62
     7
370
    13
100
AcDbVertex
100
AcDb2dVertex
 10
68579.06726969518
 20
51085.06898764487
 30
0.0
  0
VERTEX
  5
5401
330
51DD
100
AcDbEntity
  8
電気錠制御盤　（株）アート
  6
Continuous
 62
     7
370
    13
100
AcDbVertex
100
AcDb2dVertex
 10
68578.26573279014
 20
51084.59631925823
 30
0.0
  0
VERTEX
  5
5402
330
51DD
100
AcDbEntity
  8
電気錠制御盤　（株）アート
  6
Continuous
 62
     7
370
    13
100
AcDbVertex
100
AcDb2dVertex
 10
68577.62064037957
 20
51084.22192500608
 30
0.0
  0
VERTEX
  5
5403
330
51DD
100
AcDbEntity
  8
電気錠制御盤　（株）アート
  6
Continuous
 62
     7
370
    13
100
AcDbVertex
100
AcDb2dVertex
 10
68577.14841617234
 20
51083.95107243064
 30
0.0
  0
VERTEX
  5
5404
330
51DD
100
AcDbEntity
  8
電気錠制御盤　（株）アート
  6
Continuous
 62
     7
370
    13
100
AcDbVertex
100
AcDb2dVertex
 10
68576.86056735477
 20
51083.78724815548
 30
0.0
  0
VERTEX
  5
5405
330
51DD
100
AcDbEntity
  8
電気錠制御盤　（株）アート
  6
Continuous
 62
     7
370
    13
100
AcDbVertex
100
AcDb2dVertex
 10
68576.76387280338
 20
51083.73242731021
 30
0.0
  0
VERTEX
  5
5406
330
51DD
100
AcDbEntity
  8
電気錠制御盤　（株）アート
  6
Continuous
 62
     7
370
    13
100
AcDbVertex
100
AcDb2dVertex
 10
68576.66724841185
 20
51083.67775131205
 30
0.0
  0
VERTEX
  5
5407
330
51DD
100
AcDbEntity
  8
電気錠制御盤　（株）アート
  6
Continuous
 62
     7
370
    13
100
AcDbVertex
100
AcDb2dVertex
 10
68576.38040157594
 20
51083.51607484037
 30
0.0
  0
VERTEX
  5
5408
330
51DD
100
AcDbEntity
  8
電気錠制御盤　（株）アート
  6
Continuous
 62
     7
370
    13
100
AcDbVertex
100
AcDb2dVertex
 10
68575.91212556473
 20
51083.25432741458
 30
0.0
  0
VERTEX
  5
5409
330
51DD
100
AcDbEntity
  8
電気錠制御盤　（株）アート
  6
Continuous
 62
     7
370
    13
100
AcDbVertex
100
AcDb2dVertex
 10
68575.27619192116
 20
51082.90364361853
 30
0.0
  0
VERTEX
  5
540A
330
51DD
100
AcDbEntity
  8
電気錠制御盤　（株）アート
  6
Continuous
 62
     7
370
    13
100
AcDbVertex
100
AcDb2dVertex
 10
68574.49024688937
 20
51082.47875092552
 30
0.0
  0
VERTEX
  5
540B
330
51DD
100
AcDbEntity
  8
電気錠制御盤　（株）アート
  6
Continuous
 62
     7
370
    13
100
AcDbVertex
100
AcDb2dVertex
 10
68573.57465124763
 20
51081.99713838438
 30
0.0
  0
VERTEX
  5
540C
330
51DD
100
AcDbEntity
  8
電気錠制御盤　（株）アート
  6
Continuous
 62
     7
370
    13
100
AcDbVertex
100
AcDb2dVertex
 10
68572.55152462162
 20
51081.47804413588
 30
0.0
  0
VERTEX
  5
540D
330
51DD
100
AcDbEntity
  8
電気錠制御盤　（株）アート
  6
Continuous
 62
     7
370
    13
100
AcDbVertex
100
AcDb2dVertex
 10
68571.44418833143
 20
51080.94132235499
 30
0.0
  0
VERTEX
  5
540E
330
51DD
100
AcDbEntity
  8
電気錠制御盤　（株）アート
  6
Continuous
 62
     7
370
    13
100
AcDbVertex
100
AcDb2dVertex
 10
68570.27708040588
 20
51080.40627371708
 30
0.0
  0
VERTEX
  5
540F
330
51DD
100
AcDbEntity
  8
電気錠制御盤　（株）アート
  6
Continuous
 62
     7
370
    13
100
AcDbVertex
100
AcDb2dVertex
 10
68569.0760723602
 20
51079.89054194615
 30
0.0
  0
VERTEX
  5
5410
330
51DD
100
AcDbEntity
  8
電気錠制御盤　（株）アート
  6
Continuous
 62
     7
370
    13
100
AcDbVertex
100
AcDb2dVertex
 10
68567.86898608691
 20
51079.40918642434
 30
0.0
  0
VERTEX
  5
5411
330
51DD
100
AcDbEntity
  8
電気錠制御盤　（株）アート
  6
Continuous
 62
     7
370
    13
100
AcDbVertex
100
AcDb2dVertex
 10
68566.68602537624
 20
51078.97403239311
 30
0.0
  0
VERTEX
  5
5412
330
51DD
100
AcDbEntity
  8
電気錠制御盤　（株）アート
  6
Continuous
 62
     7
370
    13
100
AcDbVertex
100
AcDb2dVertex
 10
68565.55982333756
 20
51078.59337408656
 30
0.0
  0
VERTEX
  5
5413
330
51DD
100
AcDbEntity
  8
電気錠制御盤　（株）アート
  6
Continuous
 62
     7
370
    13
100
AcDbVertex
100
AcDb2dVertex
 10
68564.52487110681
 20
51078.27206399629
 30
0.0
  0
VERTEX
  5
5414
330
51DD
100
AcDbEntity
  8
電気錠制御盤　（株）アート
  6
Continuous
 62
     7
370
    13
100
AcDbVertex
100
AcDb2dVertex
 10
68563.61622245349
 20
51078.01196900571
 30
0.0
  0
VERTEX
  5
5415
330
51DD
100
AcDbEntity
  8
電気錠制御盤　（株）アート
  6
Continuous
 62
     7
370
    13
100
AcDbVertex
100
AcDb2dVertex
 10
68562.8675349947
 20
51077.81271977686
 30
0.0
  0
VERTEX
  5
5416
330
51DD
100
AcDbEntity
  8
電気錠制御盤　（株）アート
  6
Continuous
 62
     7
370
    13
100
AcDbVertex
100
AcDb2dVertex
 10
68562.30867359675
 20
51077.67263349519
 30
0.0
  0
VERTEX
  5
5417
330
51DD
100
AcDbEntity
  8
電気錠制御盤　（株）アート
  6
Continuous
 62
     7
370
    13
100
AcDbVertex
100
AcDb2dVertex
 10
68561.96322614215
 20
51077.58966087476
 30
0.0
  0
VERTEX
  5
5418
330
51DD
100
AcDbEntity
  8
電気錠制御盤　（株）アート
  6
Continuous
 62
     7
370
    13
100
AcDbVertex
100
AcDb2dVertex
 10
68561.8463361796
 20
51077.56220264957
 30
0.0
  0
VERTEX
  5
5419
330
51DD
100
AcDbEntity
  8
電気錠制御盤　（株）アート
  6
Continuous
 62
     7
370
    13
100
AcDbVertex
100
AcDb2dVertex
 10
68561.72909754775
 20
51077.53497380913
 30
0.0
  0
VERTEX
  5
541A
330
51DD
100
AcDbEntity
  8
電気錠制御盤　（株）アート
  6
Continuous
 62
     7
370
    13
100
AcDbVertex
100
AcDb2dVertex
 10
68561.37852086239
 20
51077.45540739523
 30
0.0
  0
VERTEX
  5
541B
330
51DD
100
AcDbEntity
  8
電気錠制御盤　（株）アート
  6
Continuous
 62
     7
370
    13
100
AcDbVertex
100
AcDb2dVertex
 10
68560.7982344795
 20
51077.32979899386
 30
0.0
  0
VERTEX
  5
541C
330
51DD
100
AcDbEntity
  8
電気錠制御盤　（株）アート
  6
Continuous
 62
     7
370
    13
100
AcDbVertex
100
AcDb2dVertex
 10
68559.99495161511
 20
51077.16839362311
 30
0.0
  0
VERTEX
  5
541D
330
51DD
100
AcDbEntity
  8
電気錠制御盤　（株）アート
  6
Continuous
 62
     7
370
    13
100
AcDbVertex
100
AcDb2dVertex
 10
68558.97934709451
 20
51076.98491580451
 30
0.0
  0
VERTEX
  5
541E
330
51DD
100
AcDbEntity
  8
電気錠制御盤　（株）アート
  6
Continuous
 62
     7
370
    13
100
AcDbVertex
100
AcDb2dVertex
 10
68557.76705897189
 20
51076.79575697335
 30
0.0
  0
VERTEX
  5
541F
330
51DD
100
AcDbEntity
  8
電気錠制御盤　（株）アート
  6
Continuous
 62
     7
370
    13
100
AcDbVertex
100
AcDb2dVertex
 10
68556.37962952068
 20
51076.61875202472
 30
0.0
  0
VERTEX
  5
5420
330
51DD
100
AcDbEntity
  8
電気錠制御盤　（株）アート
  6
Continuous
 62
     7
370
    13
100
AcDbVertex
100
AcDb2dVertex
 10
68554.84519721455
 20
51076.47155220957
 30
0.0
  0
VERTEX
  5
5421
330
51DD
100
AcDbEntity
  8
電気錠制御盤　（株）アート
  6
Continuous
 62
     7
370
    13
100
AcDbVertex
100
AcDb2dVertex
 10
68553.19877479412
 20
51076.36970619188
 30
0.0
  0
VERTEX
  5
5422
330
51DD
100
AcDbEntity
  8
電気錠制御盤　（株）アート
  6
Continuous
 62
     7
370
    13
100
AcDbVertex
100
AcDb2dVertex
 10
68551.48199403918
 20
51076.3246689465
 30
0.0
  0
VERTEX
  5
5423
330
51DD
100
AcDbEntity
  8
電気錠制御盤　（株）アート
  6
Continuous
 62
     7
370
    13
100
AcDbVertex
100
AcDb2dVertex
 10
68549.74225842542
 20
51076.34203905726
 30
0.0
  0
VERTEX
  5
5424
330
51DD
100
AcDbEntity
  8
電気錠制御盤　（株）アート
  6
Continuous
 62
     7
370
    13
100
AcDbVertex
100
AcDb2dVertex
 10
68548.03131166732
 20
51076.4203525834
 30
0.0
  0
VERTEX
  5
5425
330
51DD
100
AcDbEntity
  8
電気錠制御盤　（株）アート
  6
Continuous
 62
     7
370
    13
100
AcDbVertex
100
AcDb2dVertex
 10
68546.40329458304
 20
51076.55072031768
 30
0.0
  0
VERTEX
  5
5426
330
51DD
100
AcDbEntity
  8
電気錠制御盤　（株）アート
  6
Continuous
 62
     7
370
    13
100
AcDbVertex
100
AcDb2dVertex
 10
68544.91241705082
 20
51076.71748490968
 30
0.0
  0
VERTEX
  5
5427
330
51DD
100
AcDbEntity
  8
電気錠制御盤　（株）アート
  6
Continuous
 62
     7
370
    13
100
AcDbVertex
100
AcDb2dVertex
 10
68543.61041082702
 20
51076.89991143422
 30
0.0
  0
VERTEX
  5
5428
330
51DD
100
AcDbEntity
  8
電気錠制御盤　（株）アート
  6
Continuous
 62
     7
370
    13
100
AcDbVertex
100
AcDb2dVertex
 10
68542.54395003652
 20
51077.07473990882
 30
0.0
  0
VERTEX
  5
5429
330
51DD
100
AcDbEntity
  8
電気錠制御盤　（株）アート
  6
Continuous
 62
     7
370
    13
100
AcDbVertex
100
AcDb2dVertex
 10
68541.75222891681
 20
51077.2192587007
 30
0.0
  0
VERTEX
  5
542A
330
51DD
100
AcDbEntity
  8
電気錠制御盤　（株）アート
  6
Continuous
 62
     7
370
    13
100
AcDbVertex
100
AcDb2dVertex
 10
68541.2648729179
 20
51077.31444035882
 30
0.0
  0
VERTEX
  5
542B
330
51DD
100
AcDbEntity
  8
電気錠制御盤　（株）アート
  6
Continuous
 62
     7
370
    13
100
AcDbVertex
100
AcDb2dVertex
 10
68541.10033255555
 20
51077.34764379972
 30
0.0
  0
VERTEX
  5
542C
330
51DD
100
AcDbEntity
  8
電気錠制御盤　（株）アート
  6
Continuous
 62
     7
370
    13
100
AcDbVertex
100
AcDb2dVertex
 10
68540.93549279608
 20
51077.38144716472
 30
0.0
  0
VERTEX
  5
542D
330
51DD
100
AcDbEntity
  8
電気錠制御盤　（株）アート
  6
Continuous
 62
     7
370
    13
100
AcDbVertex
100
AcDb2dVertex
 10
68540.44375607482
 20
51077.48545521052
 30
0.0
  0
VERTEX
  5
542E
330
51DD
100
AcDbEntity
  8
電気錠制御盤　（株）アート
  6
Continuous
 62
     7
370
    13
100
AcDbVertex
100
AcDb2dVertex
 10
68539.63392268157
 20
51077.66685024128
 30
0.0
  0
VERTEX
  5
542F
330
51DD
100
AcDbEntity
  8
電気錠制御盤　（株）アート
  6
Continuous
 62
     7
370
    13
100
AcDbVertex
100
AcDb2dVertex
 10
68538.52201618887
 20
51077.93567792328
 30
0.0
  0
VERTEX
  5
5430
330
51DD
100
AcDbEntity
  8
電気錠制御盤　（株）アート
  6
Continuous
 62
     7
370
    13
100
AcDbVertex
100
AcDb2dVertex
 10
68537.13282449953
 20
51078.30233496467
 30
0.0
  0
VERTEX
  5
5431
330
51DD
100
AcDbEntity
  8
電気錠制御盤　（株）アート
  6
Continuous
 62
     7
370
    13
100
AcDbVertex
100
AcDb2dVertex
 10
68535.50120156072
 20
51078.77472443507
 30
0.0
  0
VERTEX
  5
5432
330
51DD
100
AcDbEntity
  8
電気錠制御盤　（株）アート
  6
Continuous
 62
     7
370
    13
100
AcDbVertex
100
AcDb2dVertex
 10
68533.67254794648
 20
51079.35558807517
 30
0.0
  0
VERTEX
  5
5433
330
51DD
100
AcDbEntity
  8
電気錠制御盤　（株）アート
  6
Continuous
 62
     7
370
    13
100
AcDbVertex
100
AcDb2dVertex
 10
68531.70203647054
 20
51080.04047749603
 30
0.0
  0
VERTEX
  5
5434
330
51DD
100
AcDbEntity
  8
電気錠制御盤　（株）アート
  6
Continuous
 62
     7
370
    13
100
AcDbVertex
100
AcDb2dVertex
 10
68529.65241844318
 20
51080.81669413562
 30
0.0
  0
VERTEX
  5
5435
330
51DD
100
AcDbEntity
  8
電気錠制御盤　（株）アート
  6
Continuous
 62
     7
370
    13
100
AcDbVertex
100
AcDb2dVertex
 10
68527.59057285523
 20
51081.66334203223
 30
0.0
  0
VERTEX
  5
5436
330
51DD
100
AcDbEntity
  8
電気錠制御盤　（株）アート
  6
Continuous
 62
     7
370
    13
100
AcDbVertex
100
AcDb2dVertex
 10
68525.58326518201
 20
51082.55243824348
 30
0.0
  0
VERTEX
  5
5437
330
51DD
100
AcDbEntity
  8
電気錠制御盤　（株）アート
  6
Continuous
 62
     7
370
    13
100
AcDbVertex
100
AcDb2dVertex
 10
68523.69278942608
 20
51083.4508545533
 30
0.0
  0
VERTEX
  5
5438
330
51DD
100
AcDbEntity
  8
電気錠制御盤　（株）アート
  6
Continuous
 62
     7
370
    13
100
AcDbVertex
100
AcDb2dVertex
 10
68521.97322378716
 20
51084.32275344955
 30
0.0
  0
VERTEX
  5
5439
330
51DD
100
AcDbEntity
  8
電気錠制御盤　（株）アート
  6
Continuous
 62
     7
370
    13
100
AcDbVertex
100
AcDb2dVertex
 10
68520.46791970543
 20
51085.13214835637
 30
0.0
  0
VERTEX
  5
543A
330
51DD
100
AcDbEntity
  8
電気錠制御盤　（株）アート
  6
Continuous
 62
     7
370
    13
100
AcDbVertex
100
AcDb2dVertex
 10
68519.20858914814
 20
51085.84526124785
 30
0.0
  0
VERTEX
  5
543B
330
51DD
100
AcDbEntity
  8
電気錠制御盤　（株）アート
  6
Continuous
 62
     7
370
    13
100
AcDbVertex
100
AcDb2dVertex
 10
68518.21601359135
 20
51086.43245132379
 30
0.0
  0
VERTEX
  5
543C
330
51DD
100
AcDbEntity
  8
電気錠制御盤　（株）アート
  6
Continuous
 62
     7
370
    13
100
AcDbVertex
100
AcDb2dVertex
 10
68517.5020495791
 20
51086.86961578915
 30
0.0
  0
VERTEX
  5
543D
330
51DD
100
AcDbEntity
  8
電気錠制御盤　（株）アート
  6
Continuous
 62
     7
370
    13
100
AcDbVertex
100
AcDb2dVertex
 10
68517.07233175076
 20
51087.13908372227
 30
0.0
  0
VERTEX
  5
543E
330
51DD
100
AcDbEntity
  8
電気錠制御盤　（株）アート
  6
Continuous
 62
     7
370
    13
100
AcDbVertex
100
AcDb2dVertex
 10
68516.92893968559
 20
51087.23010728136
 30
0.0
  0
VERTEX
  5
543F
330
51DD
100
AcDbEntity
  8
電気錠制御盤　（株）アート
  6
Continuous
 62
     7
370
    13
100
AcDbVertex
100
AcDb2dVertex
 10
68516.78614084459
 20
51087.32131632084
 30
0.0
  0
VERTEX
  5
5440
330
51DD
100
AcDbEntity
  8
電気錠制御盤　（株）アート
  6
Continuous
 62
     7
370
    13
100
AcDbVertex
100
AcDb2dVertex
 10
68516.36511427647
 20
51087.59355101623
 30
0.0
  0
VERTEX
  5
5441
330
51DD
100
AcDbEntity
  8
電気錠制御盤　（株）アート
  6
Continuous
 62
     7
370
    13
100
AcDbVertex
100
AcDb2dVertex
 10
68515.68717447928
 20
51088.04257300572
 30
0.0
  0
VERTEX
  5
5442
330
51DD
100
AcDbEntity
  8
電気錠制御盤　（株）アート
  6
Continuous
 62
     7
370
    13
100
AcDbVertex
100
AcDb2dVertex
 10
68514.78533294386
 20
51088.66112234408
 30
0.0
  0
VERTEX
  5
5443
330
51DD
100
AcDbEntity
  8
電気錠制御盤　（株）アート
  6
Continuous
 62
     7
370
    13
100
AcDbVertex
100
AcDb2dVertex
 10
68513.7009851586
 20
51089.43865063527
 30
0.0
  0
VERTEX
  5
5444
330
51DD
100
AcDbEntity
  8
電気錠制御盤　（株）アート
  6
Continuous
 62
     7
370
    13
100
AcDbVertex
100
AcDb2dVertex
 10
68512.48008624426
 20
51090.36100234466
 30
0.0
  0
VERTEX
  5
5445
330
51DD
100
AcDbEntity
  8
電気錠制御盤　（株）アート
  6
Continuous
 62
     7
370
    13
100
AcDbVertex
100
AcDb2dVertex
 10
68511.16942258514
 20
51091.41009968745
 30
0.0
  0
VERTEX
  5
5446
330
51DD
100
AcDbEntity
  8
電気錠制御盤　（株）アート
  6
Continuous
 62
     7
370
    13
100
AcDbVertex
100
AcDb2dVertex
 10
68509.81351805739
 20
51092.56370047892
 30
0.0
  0
VERTEX
  5
5447
330
51DD
100
AcDbEntity
  8
電気錠制御盤　（株）アート
  6
Continuous
 62
     7
370
    13
100
AcDbVertex
100
AcDb2dVertex
 10
68508.45254219882
 20
51093.79530746119
 30
0.0
  0
VERTEX
  5
5448
330
51DD
100
AcDbEntity
  8
電気錠制御盤　（株）アート
  6
Continuous
 62
     7
370
    13
100
AcDbVertex
100
AcDb2dVertex
 10
68507.12135470772
 20
51095.07430876718
 30
0.0
  0
VERTEX
  5
5449
330
51DD
100
AcDbEntity
  8
電気錠制御盤　（株）アート
  6
Continuous
 62
     7
370
    13
100
AcDbVertex
100
AcDb2dVertex
 10
68505.84958023167
 20
51096.36641932168
 30
0.0
  0
VERTEX
  5
544A
330
51DD
100
AcDbEntity
  8
電気錠制御盤　（株）アート
  6
Continuous
 62
     7
370
    13
100
AcDbVertex
100
AcDb2dVertex
 10
68504.66241211406
 20
51097.63447075861
 30
0.0
  0
VERTEX
  5
544B
330
51DD
100
AcDbEntity
  8
電気錠制御盤　（株）アート
  6
Continuous
 62
     7
370
    13
100
AcDbVertex
100
AcDb2dVertex
 10
68503.5817346815
 20
51098.83956331686
 30
0.0
  0
VERTEX
  5
544C
330
51DD
100
AcDbEntity
  8
電気錠制御盤　（株）アート
  6
Continuous
 62
     7
370
    13
100
AcDbVertex
100
AcDb2dVertex
 10
68502.62714924252
 20
51099.94255030679
 30
0.0
  0
VERTEX
  5
544D
330
51DD
100
AcDbEntity
  8
電気錠制御盤　（株）アート
  6
Continuous
 62
     7
370
    13
100
AcDbVertex
100
AcDb2dVertex
 10
68501.81658297366
 20
51100.9057793107
 30
0.0
  0
VERTEX
  5
544E
330
51DD
100
AcDbEntity
  8
電気錠制御盤　（株）アート
  6
Continuous
 62
     7
370
    13
100
AcDbVertex
100
AcDb2dVertex
 10
68501.16632252746
 20
51101.69497124033
 30
0.0
  0
VERTEX
  5
544F
330
51DD
100
AcDbEntity
  8
電気錠制御盤　（株）アート
  6
Continuous
 62
     7
370
    13
100
AcDbVertex
100
AcDb2dVertex
 10
68500.69050067551
 20
51102.28108592369
 30
0.0
  0
VERTEX
  5
5450
330
51DD
100
AcDbEntity
  8
電気錠制御盤　（株）アート
  6
Continuous
 62
     7
370
    13
100
AcDbVertex
100
AcDb2dVertex
 10
68500.40022629388
 20
51102.64200730028
 30
0.0
  0
VERTEX
  5
5451
330
51DD
100
AcDbEntity
  8
電気錠制御盤　（株）アート
  6
Continuous
 62
     7
370
    13
100
AcDbVertex
100
AcDb2dVertex
 10
68500.30264484769
 20
51102.76388642528
 30
0.0
  0
VERTEX
  5
5452
330
51DD
100
AcDbEntity
  8
電気錠制御盤　（株）アート
  6
Continuous
 62
     7
370
    13
100
AcDbVertex
100
AcDb2dVertex
 10
68500.20509019009
 20
51102.88600202726
 30
0.0
  0
VERTEX
  5
5453
330
51DD
100
AcDbEntity
  8
電気錠制御盤　（株）アート
  6
Continuous
 62
     7
370
    13
100
AcDbVertex
100
AcDb2dVertex
 10
68499.9152461756
 20
51103.2504309442
 30
0.0
  0
VERTEX
  5
5454
330
51DD
100
AcDbEntity
  8
電気錠制御盤　（株）アート
  6
Continuous
 62
     7
370
    13
100
AcDbVertex
100
AcDb2dVertex
 10
68499.44150768034
 20
51103.85142328555
 30
0.0
  0
VERTEX
  5
5455
330
51DD
100
AcDbEntity
  8
電気錠制御盤　（株）アート
  6
Continuous
 62
     7
370
    13
100
AcDbVertex
100
AcDb2dVertex
 10
68498.79764290562
 20
51104.67938839273
 30
0.0
  0
VERTEX
  5
5456
330
51DD
100
AcDbEntity
  8
電気錠制御盤　（株）アート
  6
Continuous
 62
     7
370
    13
100
AcDbVertex
100
AcDb2dVertex
 10
68498.00243841222
 20
51105.72082220504
 30
0.0
  0
VERTEX
  5
5457
330
51DD
100
AcDbEntity
  8
電気錠制御盤　（株）アート
  6
Continuous
 62
     7
370
    13
100
AcDbVertex
100
AcDb2dVertex
 10
68497.07917110285
 20
51106.95811179132
 30
0.0
  0
VERTEX
  5
5458
330
51DD
100
AcDbEntity
  8
電気錠制御盤　（株）アート
  6
Continuous
 62
     7
370
    13
100
AcDbVertex
100
AcDb2dVertex
 10
68496.05489510558
 20
51108.36918220932
 30
0.0
  0
VERTEX
  5
5459
330
51DD
100
AcDbEntity
  8
電気錠制御盤　（株）アート
  6
Continuous
 62
     7
370
    13
100
AcDbVertex
100
AcDb2dVertex
 10
68494.95954883956
 20
51109.92700460965
 30
0.0
  0
VERTEX
  5
545A
330
51DD
100
AcDbEntity
  8
電気錠制御盤　（株）アート
  6
Continuous
 62
     7
370
    13
100
AcDbVertex
100
AcDb2dVertex
 10
68493.82491197771
 20
51111.59905630166
 30
0.0
  0
VERTEX
  5
545B
330
51DD
100
AcDbEntity
  8
電気錠制御盤　（株）アート
  6
Continuous
 62
     7
370
    13
100
AcDbVertex
100
AcDb2dVertex
 10
68492.68346761129
 20
51113.34689439948
 30
0.0
  0
VERTEX
  5
545C
330
51DD
100
AcDbEntity
  8
電気錠制御盤　（株）アート
  6
Continuous
 62
     7
370
    13
100
AcDbVertex
100
AcDb2dVertex
 10
68491.5672457058
 20
51115.12605318391
 30
0.0
  0
VERTEX
  5
545D
330
51DD
100
AcDbEntity
  8
電気錠制御盤　（株）アート
  6
Continuous
 62
     7
370
    13
100
AcDbVertex
100
AcDb2dVertex
 10
68490.50673380456
 20
51116.88648305612
 30
0.0
  0
VERTEX
  5
545E
330
51DD
100
AcDbEntity
  8
電気錠制御盤　（株）アート
  6
Continuous
 62
     7
370
    13
100
AcDbVertex
100
AcDb2dVertex
 10
68489.52993673793
 20
51118.57370565981
 30
0.0
  0
VERTEX
  5
545F
330
51DD
100
AcDbEntity
  8
電気錠制御盤　（株）アート
  6
Continuous
 62
     7
370
    13
100
AcDbVertex
100
AcDb2dVertex
 10
68488.66164784692
 20
51120.13076677101
 30
0.0
  0
VERTEX
  5
5460
330
51DD
100
AcDbEntity
  8
電気錠制御盤　（株）アート
  6
Continuous
 62
     7
370
    13
100
AcDbVertex
100
AcDb2dVertex
 10
68487.92296348997
 20
51121.50093924255
 30
0.0
  0
VERTEX
  5
5461
330
51DD
100
AcDbEntity
  8
電気錠制御盤　（株）アート
  6
Continuous
 62
     7
370
    13
100
AcDbVertex
100
AcDb2dVertex
 10
68487.33103574553
 20
51122.63098620887
 30
0.0
  0
VERTEX
  5
5462
330
51DD
100
AcDbEntity
  8
電気錠制御盤　（株）アート
  6
Continuous
 62
     7
370
    13
100
AcDbVertex
100
AcDb2dVertex
 10
68486.89902298113
 20
51123.47466835008
 30
0.0
  0
VERTEX
  5
5463
330
51DD
100
AcDbEntity
  8
電気錠制御盤　（株）アート
  6
Continuous
 62
     7
370
    13
100
AcDbVertex
100
AcDb2dVertex
 10
68486.63617177494
 20
51123.99609580526
 30
0.0
  0
VERTEX
  5
5464
330
51DD
100
AcDbEntity
  8
電気錠制御盤　（株）アート
  6
Continuous
 62
     7
370
    13
100
AcDbVertex
100
AcDb2dVertex
 10
68486.54795190878
 20
51124.17250545325
 30
0.0
  0
VERTEX
  5
5465
330
51DD
100
AcDbEntity
  8
電気錠制御盤　（株）アート
  6
Continuous
 62
     7
370
    13
100
AcDbVertex
100
AcDb2dVertex
 10
68486.45983444266
 20
51124.34942340778
 30
0.0
  0
VERTEX
  5
5466
330
51DD
100
AcDbEntity
  8
電気錠制御盤　（株）アート
  6
Continuous
 62
     7
370
    13
100
AcDbVertex
100
AcDb2dVertex
 10
68486.19850949607
 20
51124.87831545958
 30
0.0
  0
VERTEX
  5
5467
330
51DD
100
AcDbEntity
  8
電気錠制御盤　（株）アート
  6
Continuous
 62
     7
370
    13
100
AcDbVertex
100
AcDb2dVertex
 10
68485.77302818782
 20
51125.75307521561
 30
0.0
  0
VERTEX
  5
5468
330
51DD
100
AcDbEntity
  8
電気錠制御盤　（株）アート
  6
Continuous
 62
     7
370
    13
100
AcDbVertex
100
AcDb2dVertex
 10
68485.19833827876
 20
51126.96192537883
 30
0.0
  0
VERTEX
  5
5469
330
51DD
100
AcDbEntity
  8
電気錠制御盤　（株）アート
  6
Continuous
 62
     7
370
    13
100
AcDbVertex
100
AcDb2dVertex
 10
68484.49497264438
 20
51128.48546422163
 30
0.0
  0
VERTEX
  5
546A
330
51DD
100
AcDbEntity
  8
電気錠制御盤　（株）アート
  6
Continuous
 62
     7
370
    13
100
AcDbVertex
100
AcDb2dVertex
 10
68483.68844089398
 20
51130.29471732528
 30
0.0
  0
VERTEX
  5
546B
330
51DD
100
AcDbEntity
  8
電気錠制御盤　（株）アート
  6
Continuous
 62
     7
370
    13
100
AcDbVertex
100
AcDb2dVertex
 10
68482.80823069253
 20
51132.34975887986
 30
0.0
  0
VERTEX
  5
546C
330
51DD
100
AcDbEntity
  8
電気錠制御盤　（株）アート
  6
Continuous
 62
     7
370
    13
100
AcDbVertex
100
AcDb2dVertex
 10
68481.88638668619
 20
51134.59936933593
 30
0.0
  0
VERTEX
  5
546D
330
51DD
100
AcDbEntity
  8
電気錠制御盤　（株）アート
  6
Continuous
 62
     7
370
    13
100
AcDbVertex
100
AcDb2dVertex
 10
68480.95572569108
 20
51136.98199270071
 30
0.0
  0
VERTEX
  5
546E
330
51DD
100
AcDbEntity
  8
電気錠制御盤　（株）アート
  6
Continuous
 62
     7
370
    13
100
AcDbVertex
100
AcDb2dVertex
 10
68480.04784517549
 20
51139.42799470426
 30
0.0
  0
VERTEX
  5
546F
330
51DD
100
AcDbEntity
  8
電気錠制御盤　（株）アート
  6
Continuous
 62
     7
370
    13
100
AcDbVertex
100
AcDb2dVertex
 10
68479.19116205089
 20
51141.86296292918
 30
0.0
  0
VERTEX
  5
5470
330
51DD
100
AcDbEntity
  8
電気錠制御盤　（株）アート
  6
Continuous
 62
     7
370
    13
100
AcDbVertex
100
AcDb2dVertex
 10
68478.40925713889
 20
51144.21159072744
 30
0.0
  0
VERTEX
  5
5471
330
51DD
100
AcDbEntity
  8
電気錠制御盤　（株）アート
  6
Continuous
 62
     7
370
    13
100
AcDbVertex
100
AcDb2dVertex
 10
68477.71978268062
 20
51146.4015920397
 30
0.0
  0
VERTEX
  5
5472
330
51DD
100
AcDbEntity
  8
電気錠制御盤　（株）アート
  6
Continuous
 62
     7
370
    13
100
AcDbVertex
100
AcDb2dVertex
 10
68477.13411414808
 20
51148.36712233501
 30
0.0
  0
VERTEX
  5
5473
330
51DD
100
AcDbEntity
  8
電気錠制御盤　（株）アート
  6
Continuous
 62
     7
370
    13
100
AcDbVertex
100
AcDb2dVertex
 10
68476.65780524723
 20
51150.05132074358
 30
0.0
  0
VERTEX
  5
5474
330
51DD
100
AcDbEntity
  8
電気錠制御盤　（株）アート
  6
Continuous
 62
     7
370
    13
100
AcDbVertex
100
AcDb2dVertex
 10
68476.29176046361
 20
51151.40780288951
 30
0.0
  0
VERTEX
  5
5475
330
51DD
100
AcDbEntity
  8
電気錠制御盤　（株）アート
  6
Continuous
 62
     7
370
    13
100
AcDbVertex
100
AcDb2dVertex
 10
68476.03390274383
 20
51152.40116882847
 30
0.0
  0
VERTEX
  5
5476
330
51DD
100
AcDbEntity
  8
電気錠制御盤　（株）アート
  6
Continuous
 62
     7
370
    13
100
AcDbVertex
100
AcDb2dVertex
 10
68475.88101522513
 20
51153.00678844528
 30
0.0
  0
VERTEX
  5
5477
330
51DD
100
AcDbEntity
  8
電気錠制御盤　（株）アート
  6
Continuous
 62
     7
370
    13
100
AcDbVertex
100
AcDb2dVertex
 10
68475.83039815238
 20
51153.21024072359
 30
0.0
  0
VERTEX
  5
5478
330
51DD
100
AcDbEntity
  8
電気錠制御盤　（株）アート
  6
Continuous
 62
     7
370
    13
100
AcDbVertex
100
AcDb2dVertex
 10
68475.78019323012
 20
51153.41354810336
 30
0.0
  0
VERTEX
  5
5479
330
51DD
100
AcDbEntity
  8
電気錠制御盤　（株）アート
  6
Continuous
 62
     7
370
    13
100
AcDbVertex
100
AcDb2dVertex
 10
68475.63336628116
 20
51154.01702970006
 30
0.0
  0
VERTEX
  5
547A
330
51DD
100
AcDbEntity
  8
電気錠制御盤　（株）アート
  6
Continuous
 62
     7
370
    13
100
AcDbVertex
100
AcDb2dVertex
 10
68475.40080415271
 20
51155.00141430349
 30
0.0
  0
VERTEX
  5
547B
330
51DD
100
AcDbEntity
  8
電気錠制御盤　（株）アート
  6
Continuous
 62
     7
370
    13
100
AcDbVertex
100
AcDb2dVertex
 10
68475.09914319031
 20
51156.33481704334
 30
0.0
  0
VERTEX
  5
547C
330
51DD
100
AcDbEntity
  8
電気錠制御盤　（株）アート
  6
Continuous
 62
     7
370
    13
100
AcDbVertex
100
AcDb2dVertex
 10
68474.74877160005
 20
51157.97329832913
 30
0.0
  0
VERTEX
  5
547D
330
51DD
100
AcDbEntity
  8
電気錠制御盤　（株）アート
  6
Continuous
 62
     7
370
    13
100
AcDbVertex
100
AcDb2dVertex
 10
68474.37150877676
 20
51159.86198954659
 30
0.0
  0
VERTEX
  5
547E
330
51DD
100
AcDbEntity
  8
電気錠制御盤　（株）アート
  6
Continuous
 62
     7
370
    13
100
AcDbVertex
100
AcDb2dVertex
 10
68473.98832383714
 20
51161.93697795535
 30
0.0
  0
VERTEX
  5
547F
330
51DD
100
AcDbEntity
  8
電気錠制御盤　（株）アート
  6
Continuous
 62
     7
370
    13
100
AcDbVertex
100
AcDb2dVertex
 10
68473.61742449662
 20
51164.12802950555
 30
0.0
  0
VERTEX
  5
5480
330
51DD
100
AcDbEntity
  8
電気錠制御盤　（株）アート
  6
Continuous
 62
     7
370
    13
100
AcDbVertex
100
AcDb2dVertex
 10
68473.2729573939
 20
51166.36205683241
 30
0.0
  0
VERTEX
  5
5481
330
51DD
100
AcDbEntity
  8
電気錠制御盤　（株）アート
  6
Continuous
 62
     7
370
    13
100
AcDbVertex
100
AcDb2dVertex
 10
68472.96443333363
 20
51168.56705159248
 30
0.0
  0
VERTEX
  5
5482
330
51DD
100
AcDbEntity
  8
電気錠制御盤　（株）アート
  6
Continuous
 62
     7
370
    13
100
AcDbVertex
100
AcDb2dVertex
 10
68472.69685385116
 20
51170.67604445592
 30
0.0
  0
VERTEX
  5
5483
330
51DD
100
AcDbEntity
  8
電気錠制御盤　（株）アート
  6
Continuous
 62
     7
370
    13
100
AcDbVertex
100
AcDb2dVertex
 10
68472.47139778175
 20
51172.63057650403
 30
0.0
  0
VERTEX
  5
5484
330
51DD
100
AcDbEntity
  8
電気錠制御盤　（株）アート
  6
Continuous
 62
     7
370
    13
100
AcDbVertex
100
AcDb2dVertex
 10
68472.28645073062
 20
51174.38319093102
 30
0.0
  0
VERTEX
  5
5485
330
51DD
100
AcDbEntity
  8
電気錠制御盤　（株）アート
  6
Continuous
 62
     7
370
    13
100
AcDbVertex
100
AcDb2dVertex
 10
68472.13873826152
 20
51175.89858790712
 30
0.0
  0
VERTEX
  5
5486
330
51DD
100
AcDbEntity
  8
電気錠制御盤　（株）アート
  6
Continuous
 62
     7
370
    13
100
AcDbVertex
100
AcDb2dVertex
 10
68472.02435414827
 20
51177.15330691787
 30
0.0
  0
VERTEX
  5
5487
330
51DD
100
AcDbEntity
  8
電気錠制御盤　（株）アート
  6
Continuous
 62
     7
370
    13
100
AcDbVertex
100
AcDb2dVertex
 10
68471.93954488076
 20
51178.13406594582
 30
0.0
  0
VERTEX
  5
5488
330
51DD
100
AcDbEntity
  8
電気錠制御盤　（株）アート
  6
Continuous
 62
     7
370
    13
100
AcDbVertex
100
AcDb2dVertex
 10
68471.88119942062
 20
51178.83513981702
 30
0.0
  0
VERTEX
  5
5489
330
51DD
100
AcDbEntity
  8
電気錠制御盤　（株）アート
  6
Continuous
 62
     7
370
    13
100
AcDbVertex
100
AcDb2dVertex
 10
68471.84707502983
 20
51179.25534477757
 30
0.0
  0
VERTEX
  5
548A
330
51DD
100
AcDbEntity
  8
電気錠制御盤　（株）アート
  6
Continuous
 62
     7
370
    13
100
AcDbVertex
100
AcDb2dVertex
 10
68471.8358454924
 20
51179.39527048322
 30
0.0
  0
VERTEX
  5
548B
330
51DD
100
AcDbEntity
  8
電気錠制御盤　（株）アート
  6
Continuous
 62
     7
370
    13
100
AcDbVertex
100
AcDb2dVertex
 10
68471.82473853418
 20
51179.53447227518
 30
0.0
  0
VERTEX
  5
548C
330
51DD
100
AcDbEntity
  8
電気錠制御盤　（株）アート
  6
Continuous
 62
     7
370
    13
100
AcDbVertex
100
AcDb2dVertex
 10
68471.79243515544
 20
51179.94404561298
 30
0.0
  0
VERTEX
  5
548D
330
51DD
100
AcDbEntity
  8
電気錠制御盤　（株）アート
  6
Continuous
 62
     7
370
    13
100
AcDbVertex
100
AcDb2dVertex
 10
68471.74183580764
 20
51180.60085014628
 30
0.0
  0
VERTEX
  5
548E
330
51DD
100
AcDbEntity
  8
電気錠制御盤　（株）アート
  6
Continuous
 62
     7
370
    13
100
AcDbVertex
100
AcDb2dVertex
 10
68471.67729665301
 20
51181.46933167132
 30
0.0
  0
VERTEX
  5
548F
330
51DD
100
AcDbEntity
  8
電気錠制御盤　（株）アート
  6
Continuous
 62
     7
370
    13
100
AcDbVertex
100
AcDb2dVertex
 10
68471.60400771238
 20
51182.50547347184
 30
0.0
  0
VERTEX
  5
5490
330
51DD
100
AcDbEntity
  8
電気錠制御盤　（株）アート
  6
Continuous
 62
     7
370
    13
100
AcDbVertex
100
AcDb2dVertex
 10
68471.52729134448
 20
51183.66131570155
 30
0.0
  0
VERTEX
  5
5491
330
51DD
100
AcDbEntity
  8
電気錠制御盤　（株）アート
  6
Continuous
 62
     7
370
    13
100
AcDbVertex
100
AcDb2dVertex
 10
68471.4519462984
 20
51184.88929090688
 30
0.0
  0
VERTEX
  5
5492
330
51DD
100
AcDbEntity
  8
電気錠制御盤　（株）アート
  6
Continuous
 62
     7
370
    13
100
AcDbVertex
100
AcDb2dVertex
 10
68471.38174689375
 20
51186.145714115
 30
0.0
  0
VERTEX
  5
5493
330
51DD
100
AcDbEntity
  8
電気錠制御盤　（株）アート
  6
Continuous
 62
     7
370
    13
100
AcDbVertex
100
AcDb2dVertex
 10
68471.31916952914
 20
51187.39298514874
 30
0.0
  0
VERTEX
  5
5494
330
51DD
100
AcDbEntity
  8
電気錠制御盤　（株）アート
  6
Continuous
 62
     7
370
    13
100
AcDbVertex
100
AcDb2dVertex
 10
68471.26536868997
 20
51188.6003560938
 30
0.0
  0
VERTEX
  5
5495
330
51DD
100
AcDbEntity
  8
電気錠制御盤　（株）アート
  6
Continuous
 62
     7
370
    13
100
AcDbVertex
100
AcDb2dVertex
 10
68471.22037322557
 20
51189.74342012108
 30
0.0
  0
VERTEX
  5
5496
330
51DD
100
AcDbEntity
  8
電気錠制御盤　（株）アート
  6
Continuous
 62
     7
370
    13
100
AcDbVertex
100
AcDb2dVertex
 10
68471.1834323544
 20
51190.80272176156
 30
0.0
  0
VERTEX
  5
5497
330
51DD
100
AcDbEntity
  8
電気錠制御盤　（株）アート
  6
Continuous
 62
     7
370
    13
100
AcDbVertex
100
AcDb2dVertex
 10
68471.15341839529
 20
51191.76202201995
 30
0.0
  0
VERTEX
  5
5498
330
51DD
100
AcDbEntity
  8
電気錠制御盤　（株）アート
  6
Continuous
 62
     7
370
    13
100
AcDbVertex
100
AcDb2dVertex
 10
68471.12919333611
 20
51192.60675102175
 30
0.0
  0
VERTEX
  5
5499
330
51DD
100
AcDbEntity
  8
電気錠制御盤　（株）アート
  6
Continuous
 62
     7
370
    13
100
AcDbVertex
100
AcDb2dVertex
 10
68471.1098676849
 20
51193.32305525803
 30
0.0
  0
VERTEX
  5
549A
330
51DD
100
AcDbEntity
  8
電気錠制御盤　（株）アート
  6
Continuous
 62
     7
370
    13
100
AcDbVertex
100
AcDb2dVertex
 10
68471.09491603709
 20
51193.89763424883
 30
0.0
  0
VERTEX
  5
549B
330
51DD
100
AcDbEntity
  8
電気錠制御盤　（株）アート
  6
Continuous
 62
     7
370
    13
100
AcDbVertex
100
AcDb2dVertex
 10
68471.08415483795
 20
51194.31832017528
 30
0.0
  0
VERTEX
  5
549C
330
51DD
100
AcDbEntity
  8
電気錠制御盤　（株）アート
  6
Continuous
 62
     7
370
    13
100
AcDbVertex
100
AcDb2dVertex
 10
68471.07762317173
 20
51194.57514594758
 30
0.0
  0
VERTEX
  5
549D
330
51DD
100
AcDbEntity
  8
電気錠制御盤　（株）アート
  6
Continuous
 62
     7
370
    13
100
AcDbVertex
100
AcDb2dVertex
 10
68471.07542871794
 20
51194.66152378659
 30
0.0
  0
SEQEND
  5
549E
330
51DD
100
AcDbEntity
  8
電気錠制御盤　（株）アート
  6
Continuous
 62
     7
370
    13
  0
LINE
  5
549F
330
1F
100
AcDbEntity
  8
電気錠制御盤　（株）アート
  6
Continuous
 62
     7
370
    13
100
AcDbLine
 10
68418.09485294334
 20
51117.96597566755
 30
0.0
 11
68418.09485294334
 21
51212.1973445412
 31
0.0
  0
LINE
  5
54A0
330
1F
100
AcDbEntity
  8
電気錠制御盤　（株）アート
  6
Continuous
 62
     7
370
    13
100
AcDbLine
 10
68372.0148529429
 20
51227.44917237684
 30
0.0
 11
68372.0148529429
 21
51133.21781210863
 31
0.0
  0
LINE
  5
54A1
330
1F
100
AcDbEntity
  8
電気錠制御盤　（株）アート
  6
Continuous
 62
     7
370
    13
100
AcDbLine
 10
68372.0148529429
 20
51227.44917237684
 30
0.0
 11
68343.00611054264
 21
51237.05065555463
 31
0.0
  0
LINE
  5
54A2
330
1F
100
AcDbEntity
  8
電気錠制御盤　（株）アート
  6
Continuous
 62
     7
370
    13
100
AcDbLine
 10
68343.00611054264
 20
51142.81928338745
 30
0.0
 11
68343.00611054264
 21
51237.05065555463
 31
0.0
  0
LINE
  5
54A3
330
1F
100
AcDbEntity
  8
電気錠制御盤　（株）アート
  6
Continuous
 62
     7
370
    13
100
AcDbLine
 10
68296.92611054442
 20
51252.30248339028
 30
0.0
 11
68296.92611054442
 21
51158.07111982853
 31
0.0
  0
LINE
  5
54A4
330
1F
100
AcDbEntity
  8
電気錠制御盤　（株）アート
  6
Continuous
 62
     7
370
    13
100
AcDbLine
 10
68296.92611054442
 20
51252.30248339028
 30
0.0
 11
68250.42530073634
 21
51267.69359331652
 31
0.0
  0
LINE
  5
54A5
330
1F
100
AcDbEntity
  8
電気錠制御盤　（株）アート
  6
Continuous
 62
     7
370
    13
100
AcDbLine
 10
68250.42530073634
 20
51267.69359331652
 30
0.0
 11
68264.9046144437
 21
51311.43962355071
 31
0.0
  0
LINE
  5
54A6
330
1F
100
AcDbEntity
  8
電気錠制御盤　（株）アート
  6
Continuous
 62
     7
370
    13
100
AcDbLine
 10
68372.0148529429
 20
51133.21781210863
 30
0.0
 11
68418.09485294334
 21
51117.96597566755
 31
0.0
  0
LINE
  5
54A7
330
1F
100
AcDbEntity
  8
電気錠制御盤　（株）アート
  6
Continuous
 62
     7
370
    13
100
AcDbLine
 10
68296.92611054442
 20
51158.07111982853
 30
0.0
 11
68343.00611054264
 21
51142.81928338745
 31
0.0
  0
ARC
  5
54A8
330
1F
100
AcDbEntity
  8
電気錠制御盤　（株）アート
  6
Continuous
 62
     7
370
    13
100
AcDbCircle
 10
74732.23406130482
 20
54598.31008083077
 30
0.0
 40
268.8
100
AcDbArc
 50
0.0
 51
90.0
  0
LINE
  5
54A9
330
1F
100
AcDbEntity
  8
電気錠制御盤　（株）アート
  6
Continuous
 62
     7
370
    13
100
AcDbLine
 10
67743.43406130485
 20
54867.11008083077
 30
0.0
 11
74732.23406130482
 21
54867.11008083077
 31
0.0
  0
LINE
  5
54AA
330
1F
100
AcDbEntity
  8
電気錠制御盤　（株）アート
  6
Continuous
 62
     7
370
    13
100
AcDbLine
 10
75001.03406130483
 20
54598.31008083077
 30
0.0
 11
75001.03406130483
 21
44767.91008083076
 31
0.0
  0
LINE
  5
54AB
330
1F
100
AcDbEntity
  8
電気錠制御盤　（株）アート
  6
Continuous
 62
     7
370
    13
100
AcDbLine
 10
74854.98388665878
 20
44757.50218661206
 30
0.0
 11
74854.98388665878
 21
54608.71797406267
 31
0.0
  0
LINE
  5
54AC
330
1F
100
AcDbEntity
  8
電気錠制御盤　（株）アート
  6
Continuous
 62
     7
370
    13
100
AcDbLine
 10
74742.63925693517
 20
54721.05990518667
 30
0.0
 11
69420.10975541509
 21
54721.05990518667
 31
0.0
  0
ARC
  5
54AD
330
1F
100
AcDbEntity
  8
電気錠制御盤　（株）アート
  6
Continuous
 62
     7
370
    13
100
AcDbCircle
 10
74739.78388665878
 20
54605.85990518669
 30
0.0
 40
115.1999999999999
100
AcDbArc
 50
0.0
 51
90.0
  0
DIMENSION
  5
54AE
330
1F
100
AcDbEntity
  8
電気錠制御盤　（株）アート
  6
Continuous
 62
     7
370
    13
100
AcDbDimension
  2
*D83
 10
76088.38659171622
 20
44499.11008083077
 30
0.0
 11
76088.3865917162
 21
49683.11008083078
 31
0.0
 70
   160
  1
135
 71
     5
 42
10368.0
  3
Standard
100
AcDbAlignedDimension
 13
74885.83406130485
 23
54867.11008083077
 33
0.0
 14
74885.83406130485
 24
44499.11008083077
 34
0.0
 50
90.0
100
AcDbRotatedDimension
1001
ACAD
1000
DSTYLE
1002
{
1070
    41
1040
500.0
1070
    73
1070
     0
1070
    77
1070
     1
1070
   140
1040
400.0
1070
   147
1040
50.0
1070
   173
1070
     1
1070
   343
1005
FF
1070
   344
1005
FF
1002
}
  0
DIMENSION
  5
54AF
330
1F
100
AcDbEntity
  8
電気錠制御盤　（株）アート
  6
Continuous
 62
     7
370
    13
100
AcDbDimension
  2
*D84
 10
75001.03406130483
 20
55635.11008083077
 30
0.0
 11
71237.8340615507
 21
55885.11008083077
 31
0.0
 70
    32
  1
98
 71
     5
 42
7526.399999508242
  3
Standard
100
AcDbAlignedDimension
 13
67474.63406179659
 23
54751.91008083077
 33
0.0
 14
75001.03406130483
 24
54751.91008083077
 34
0.0
100
AcDbRotatedDimension
1001
ACAD
1000
DSTYLE
1002
{
1070
    41
1040
500.0
1070
    73
1070
     0
1070
    77
1070
     1
1070
   140
1040
400.0
1070
   147
1040
50.0
1070
   173
1070
     1
1070
   343
1005
FF
1070
   344
1005
FF
1002
}
  0
ARC
  5
54B0
330
1F
100
AcDbEntity
  8
電気錠制御盤　（株）アート
  6
Continuous
 62
     7
370
    13
100
AcDbCircle
 10
61207.75406130438
 20
49683.11008083078
 30
0.0
 40
9676.8
100
AcDbArc
 50
329.489173637362
 51
30.51082636263796
  0
ARC
  5
54B1
330
1F
100
AcDbEntity
  8
電気錠制御盤　（株）アート
  6
Continuous
 62
     7
370
    13
100
AcDbCircle
 10
61207.75406130438
 20
49683.11008083078
 30
0.0
 40
9523.2
100
AcDbArc
 50
329.1425936123407
 51
30.85740638765932
  0
ARC
  5
54B2
330
1F
100
AcDbEntity
  8
電気錠制御盤　（株）アート
  6
Continuous
 62
     7
370
    13
100
AcDbCircle
 10
61208.27512814439
 20
49683.11008083078
 30
0.0
 40
9507.839999999999
100
AcDbArc
 50
329.1681551269649
 51
30.83184487303506
  0
ARC
  5
54B3
330
1F
100
AcDbEntity
  8
電気錠制御盤　（株）アート
  6
Continuous
 62
     7
370
    13
100
AcDbCircle
 10
69164.75512814261
 20
53569.19008083122
 30
0.0
 40
38.39999999999999
100
AcDbArc
 50
90.0
 51
180.0
  0
LINE
  5
54B4
330
1F
100
AcDbEntity
  8
電気錠制御盤　（株）アート
  6
Continuous
 62
     7
370
    13
100
AcDbLine
 10
69126.35512814262
 20
53569.19008083122
 30
0.0
 11
69126.35512814262
 21
53477.03008083033
 31
0.0
  0
ARC
  5
54B5
330
1F
100
AcDbEntity
  8
電気錠制御盤　（株）アート
  6
Continuous
 62
     7
370
    13
100
AcDbCircle
 10
69164.75512814261
 20
53477.03008083033
 30
0.0
 40
38.39999999999999
100
AcDbArc
 50
180.0
 51
270.0
  0
LINE
  5
54B6
330
1F
100
AcDbEntity
  8
電気錠制御盤　（株）アート
  6
Continuous
 62
     7
370
    13
100
AcDbLine
 10
69548.75512814261
 20
53607.59008083122
 30
0.0
 11
69164.75512814261
 21
53607.59008083122
 31
0.0
  0
ARC
  5
54B7
330
1F
100
AcDbEntity
  8
電気錠制御盤　（株）アート
  6
Continuous
 62
     7
370
    13
100
AcDbCircle
 10
69548.75512814261
 20
53569.19008083122
 30
0.0
 40
38.39999999999999
100
AcDbArc
 50
0.0
 51
90.0
  0
LINE
  5
54B8
330
1F
100
AcDbEntity
  8
電気錠制御盤　（株）アート
  6
Continuous
 62
     7
370
    13
100
AcDbLine
 10
69587.15512814262
 20
53477.03008083033
 30
0.0
 11
69587.15512814262
 21
53569.19008083122
 31
0.0
  0
LINE
  5
54B9
330
1F
100
AcDbEntity
  8
電気錠制御盤　（株）アート
  6
Continuous
 62
     7
370
    13
100
AcDbLine
 10
69164.75512814261
 20
53438.63008083032
 30
0.0
 11
69548.75512814261
 21
53438.63008083032
 31
0.0
  0
ARC
  5
54BA
330
1F
100
AcDbEntity
  8
電気錠制御盤　（株）アート
  6
Continuous
 62
     7
370
    13
100
AcDbCircle
 10
69548.75512814261
 20
53477.03008083033
 30
0.0
 40
38.39999999999999
100
AcDbArc
 50
270.0
 51
0.0
  0
ARC
  5
54BB
330
1F
100
AcDbEntity
  8
電気錠制御盤　（株）アート
  6
Continuous
 62
     7
370
    13
100
AcDbCircle
 10
69164.75512814261
 20
52801.19008083122
 30
0.0
 40
38.39999999999999
100
AcDbArc
 50
90.0
 51
180.0
  0
LINE
  5
54BC
330
1F
100
AcDbEntity
  8
電気錠制御盤　（株）アート
  6
Continuous
 62
     7
370
    13
100
AcDbLine
 10
69126.35512814262
 20
52801.19008083122
 30
0.0
 11
69126.35512814262
 21
52709.03008083033
 31
0.0
  0
ARC
  5
54BD
330
1F
100
AcDbEntity
  8
電気錠制御盤　（株）アート
  6
Continuous
 62
     7
370
    13
100
AcDbCircle
 10
69164.75512814261
 20
52709.03008083033
 30
0.0
 40
38.39999999999999
100
AcDbArc
 50
180.0
 51
270.0
  0
LINE
  5
54BE
330
1F
100
AcDbEntity
  8
電気錠制御盤　（株）アート
  6
Continuous
 62
     7
370
    13
100
AcDbLine
 10
69548.75512814261
 20
52839.59008083122
 30
0.0
 11
69164.75512814261
 21
52839.59008083122
 31
0.0
  0
ARC
  5
54BF
330
1F
100
AcDbEntity
  8
電気錠制御盤　（株）アート
  6
Continuous
 62
     7
370
    13
100
AcDbCircle
 10
69548.75512814261
 20
52801.19008083122
 30
0.0
 40
38.39999999999999
100
AcDbArc
 50
0.0
 51
90.0
  0
LINE
  5
54C0
330
1F
100
AcDbEntity
  8
電気錠制御盤　（株）アート
  6
Continuous
 62
     7
370
    13
100
AcDbLine
 10
69587.15512814262
 20
52709.03008083033
 30
0.0
 11
69587.15512814262
 21
52801.19008083122
 31
0.0
  0
LINE
  5
54C1
330
1F
100
AcDbEntity
  8
電気錠制御盤　（株）アート
  6
Continuous
 62
     7
370
    13
100
AcDbLine
 10
69164.75512814261
 20
52670.63008083034
 30
0.0
 11
69548.75512814261
 21
52670.63008083034
 31
0.0
  0
ARC
  5
54C2
330
1F
100
AcDbEntity
  8
電気錠制御盤　（株）アート
  6
Continuous
 62
     7
370
    13
100
AcDbCircle
 10
69548.75512814261
 20
52709.03008083033
 30
0.0
 40
38.39999999999999
100
AcDbArc
 50
270.0
 51
0.0
  0
ARC
  5
54C3
330
1F
100
AcDbEntity
  8
電気錠制御盤　（株）アート
  6
Continuous
 62
     7
370
    13
100
AcDbCircle
 10
69164.75512814261
 20
52033.19008083122
 30
0.0
 40
38.39999999999999
100
AcDbArc
 50
90.0
 51
180.0
  0
LINE
  5
54C4
330
1F
100
AcDbEntity
  8
電気錠制御盤　（株）アート
  6
Continuous
 62
     7
370
    13
100
AcDbLine
 10
69126.35512814262
 20
52033.19008083122
 30
0.0
 11
69126.35512814262
 21
51941.03008083033
 31
0.0
  0
ARC
  5
54C5
330
1F
100
AcDbEntity
  8
電気錠制御盤　（株）アート
  6
Continuous
 62
     7
370
    13
100
AcDbCircle
 10
69164.75512814261
 20
51941.03008083033
 30
0.0
 40
38.39999999999999
100
AcDbArc
 50
180.0
 51
270.0
  0
LINE
  5
54C6
330
1F
100
AcDbEntity
  8
電気錠制御盤　（株）アート
  6
Continuous
 62
     7
370
    13
100
AcDbLine
 10
69548.75512814261
 20
52071.59008083122
 30
0.0
 11
69164.75512814261
 21
52071.59008083122
 31
0.0
  0
ARC
  5
54C7
330
1F
100
AcDbEntity
  8
電気錠制御盤　（株）アート
  6
Continuous
 62
     7
370
    13
100
AcDbCircle
 10
69548.75512814261
 20
52033.19008083122
 30
0.0
 40
38.39999999999999
100
AcDbArc
 50
0.0
 51
90.0
  0
LINE
  5
54C8
330
1F
100
AcDbEntity
  8
電気錠制御盤　（株）アート
  6
Continuous
 62
     7
370
    13
100
AcDbLine
 10
69587.15512814262
 20
51941.03008083033
 30
0.0
 11
69587.15512814262
 21
52033.19008083122
 31
0.0
  0
LINE
  5
54C9
330
1F
100
AcDbEntity
  8
電気錠制御盤　（株）アート
  6
Continuous
 62
     7
370
    13
100
AcDbLine
 10
69164.75512814261
 20
51902.63008083031
 30
0.0
 11
69548.75512814261
 21
51902.63008083031
 31
0.0
  0
ARC
  5
54CA
330
1F
100
AcDbEntity
  8
電気錠制御盤　（株）アート
  6
Continuous
 62
     7
370
    13
100
AcDbCircle
 10
69548.75512814261
 20
51941.03008083033
 30
0.0
 40
38.39999999999999
100
AcDbArc
 50
270.0
 51
0.0
  0
CIRCLE
  5
54CB
330
1F
100
AcDbEntity
  8
電気錠制御盤　（株）アート
  6
Continuous
 62
     7
370
    13
100
AcDbCircle
 10
68446.6751281444
 20
52755.11008083078
 30
0.0
 40
268.8
  0
LINE
  5
54CC
330
1F
100
AcDbEntity
  8
電気錠制御盤　（株）アート
  6
Continuous
 62
     7
370
    13
100
AcDbLine
 10
67793.8751281444
 20
51603.11008083077
 30
0.0
 11
70520.23633218593
 21
51603.11008083077
 31
0.0
  0
LINE
  5
54CD
330
1F
100
AcDbEntity
  8
電気錠制御盤　（株）アート
  6
Continuous
 62
     7
370
    13
100
AcDbLine
 10
69587.15512814262
 20
51987.11008083077
 30
0.0
 11
70432.73204796351
 21
51987.11008083077
 31
0.0
  0
LINE
  5
54CE
330
1F
100
AcDbEntity
  8
電気錠制御盤　（株）アート
  6
Continuous
 62
     7
370
    13
100
AcDbLine
 10
68715.47512814439
 20
51987.11008083077
 30
0.0
 11
69126.35512814262
 21
51987.11008083077
 31
0.0
  0
LINE
  5
54CF
330
1F
100
AcDbEntity
  8
電気錠制御盤　（株）アート
  6
Continuous
 62
     7
370
    13
100
AcDbLine
 10
67793.8751281444
 20
51987.11008083077
 30
0.0
 11
68177.87512814438
 21
51987.11008083077
 31
0.0
  0
LINE
  5
54D0
330
1F
100
AcDbEntity
  8
電気錠制御盤　（株）アート
  6
Continuous
 62
     7
370
    13
100
AcDbLine
 10
67782.3551281426
 20
52371.11008083077
 30
0.0
 11
70328.23551542646
 21
52371.11008083077
 31
0.0
  0
LINE
  5
54D1
330
1F
100
AcDbEntity
  8
電気錠制御盤　（株）アート
  6
Continuous
 62
     7
370
    13
100
AcDbLine
 10
69587.15512814262
 20
52755.11008083078
 30
0.0
 11
70206.1547375623
 21
52755.11008083078
 31
0.0
  0
LINE
  5
54D2
330
1F
100
AcDbEntity
  8
電気錠制御盤　（株）アート
  6
Continuous
 62
     7
370
    13
100
AcDbLine
 10
68715.47512814439
 20
52755.11008083078
 30
0.0
 11
69126.35512814262
 21
52755.11008083078
 31
0.0
  0
LINE
  5
54D3
330
1F
100
AcDbEntity
  8
電気錠制御盤　（株）アート
  6
Continuous
 62
     7
370
    13
100
AcDbLine
 10
67793.8751281444
 20
52755.11008083078
 30
0.0
 11
68177.87512814438
 21
52755.11008083078
 31
0.0
  0
LINE
  5
54D4
330
1F
100
AcDbEntity
  8
電気錠制御盤　（株）アート
  6
Continuous
 62
     7
370
    13
100
AcDbLine
 10
67793.8751281444
 20
53139.11008083077
 30
0.0
 11
70065.76266500093
 21
53139.11008083077
 31
0.0
  0
LINE
  5
54D5
330
1F
100
AcDbEntity
  8
電気錠制御盤　（株）アート
  6
Continuous
 62
     7
370
    13
100
AcDbLine
 10
69587.15512814262
 20
53523.11008083077
 30
0.0
 11
69906.17265947943
 21
53523.11008083077
 31
0.0
  0
LINE
  5
54D6
330
1F
100
AcDbEntity
  8
電気錠制御盤　（株）アート
  6
Continuous
 62
     7
370
    13
100
AcDbLine
 10
68715.47512814439
 20
53523.11008083077
 30
0.0
 11
69126.35512814262
 21
53523.11008083077
 31
0.0
  0
LINE
  5
54D7
330
1F
100
AcDbEntity
  8
電気錠制御盤　（株）アート
  6
Continuous
 62
     7
370
    13
100
AcDbLine
 10
67793.8751281444
 20
53523.11008083077
 30
0.0
 11
68177.87512814438
 21
53523.11008083077
 31
0.0
  0
LINE
  5
54D8
330
1F
100
AcDbEntity
  8
電気錠制御盤　（株）アート
  6
Continuous
 62
     7
370
    13
100
AcDbLine
 10
67793.8751281444
 20
50835.11008083077
 30
0.0
 11
70646.06710855923
 21
50835.11008083077
 31
0.0
  0
LINE
  5
54D9
330
1F
100
AcDbEntity
  8
電気錠制御盤　（株）アート
  6
Continuous
 62
     7
370
    13
100
AcDbLine
 10
67793.8751281444
 20
50451.11008083077
 30
0.0
 11
70685.0465966139
 21
50451.11008083077
 31
0.0
  0
LINE
  5
54DA
330
1F
100
AcDbEntity
  8
電気錠制御盤　（株）アート
  6
Continuous
 62
     7
370
    13
100
AcDbLine
 10
67793.8751281444
 20
50067.11008083077
 30
0.0
 11
70708.3575207118
 21
50067.11008083077
 31
0.0
  0
LINE
  5
54DB
330
1F
100
AcDbEntity
  8
電気錠制御盤　（株）アート
  6
Continuous
 62
     7
370
    13
100
AcDbLine
 10
67793.8751281444
 20
49683.11008083078
 30
0.0
 11
70716.1151281435
 21
49683.11008083078
 31
0.0
  0
LINE
  5
54DC
330
1F
100
AcDbEntity
  8
電気錠制御盤　（株）アート
  6
Continuous
 62
     7
370
    13
100
AcDbLine
 10
67793.8751281444
 20
49299.11008083077
 30
0.0
 11
70708.3575207118
 21
49299.11008083077
 31
0.0
  0
INSERT
  5
54DD
330
1F
100
AcDbEntity
  8
電気錠制御盤　（株）アート
  6
Continuous
 62
     7
370
    13
100
AcDbBlockReference
  2
*G22
 10
65842.26875839345
 20
36765.11065970847
 30
0.0
 41
76.79999999999927
 42
76.79999999999927
 43
76.79999999999927
  0
LINE
  5
54DE
330
1F
100
AcDbEntity
  8
電気錠制御盤　（株）アート
  6
Continuous
 62
     7
370
    13
100
AcDbLine
 10
68535.60581666862
 20
52896.04123955929
 30
0.0
 11
68535.60581666862
 21
52766.19858567196
 31
0.0
  0
LINE
  5
54DF
330
1F
100
AcDbEntity
  8
電気錠制御盤　（株）アート
  6
Continuous
 62
     7
370
    13
100
AcDbLine
 10
68502.47665850107
 20
52896.04123955929
 30
0.0
 11
68502.47665850107
 21
52766.19858567196
 31
0.0
  0
LINE
  5
54E0
330
1F
100
AcDbEntity
  8
電気錠制御盤　（株）アート
  6
Continuous
 62
     7
370
    13
100
AcDbLine
 10
68374.52478650919
 20
52830.69762578981
 30
0.0
 11
68374.52478650919
 21
52896.04123955929
 31
0.0
  0
LINE
  5
54E1
330
1F
100
AcDbEntity
  8
電気錠制御盤　（株）アート
  6
Continuous
 62
     7
370
    13
100
AcDbLine
 10
68341.39562834166
 20
52830.69762578981
 30
0.0
 11
68374.52478650919
 21
52830.69762578981
 31
0.0
  0
LINE
  5
54E2
330
1F
100
AcDbEntity
  8
電気錠制御盤　（株）アート
  6
Continuous
 62
     7
370
    13
100
AcDbLine
 10
68341.39562834166
 20
52896.04123955929
 30
0.0
 11
68341.39562834166
 21
52830.69762578981
 31
0.0
  0
ARC
  5
54E3
330
1F
100
AcDbEntity
  8
電気錠制御盤　（株）アート
  6
Continuous
 62
     7
370
    13
100
AcDbCircle
 10
68438.50072250627
 20
52896.04047155903
 30
0.0
 40
63.97593600000035
100
AcDbArc
 50
0.0006878080209959
 51
179.9993121919789
  0
ARC
  5
54E4
330
1F
100
AcDbEntity
  8
電気錠制御盤　（株）アート
  6
Continuous
 62
     7
370
    13
100
AcDbCircle
 10
68438.50072250627
 20
52895.93525555918
 30
0.0
 40
97.10515199999935
100
AcDbArc
 50
359.9736933996216
 51
180.0
  0
LINE
  5
54E5
330
1F
100
AcDbEntity
  8
電気錠制御盤　（株）アート
  6
Continuous
 62
     7
370
    13
100
AcDbLine
 10
68425.78653272129
 20
53520.38220179045
 30
0.0
 11
68474.93853272013
 21
53520.38220179045
 31
0.0
  0
LINE
  5
54E6
330
1F
100
AcDbEntity
  8
電気錠制御盤　（株）アート
  6
Continuous
 62
     7
370
    13
100
AcDbLine
 10
68425.78653272129
 20
53722.69336979092
 30
0.0
 11
68425.78653272129
 21
53520.38220179045
 31
0.0
  0
LINE
  5
54E7
330
1F
100
AcDbEntity
  8
電気錠制御盤　（株）アート
  6
Continuous
 62
     7
370
    13
100
AcDbLine
 10
68474.93853272013
 20
53520.38220179045
 30
0.0
 11
68474.93853272013
 21
53722.69336979092
 31
0.0
  0
LINE
  5
54E8
330
1F
100
AcDbEntity
  8
電気錠制御盤　（株）アート
  6
Continuous
 62
     7
370
    13
100
AcDbLine
 10
68474.93853272013
 20
53722.69336979092
 30
0.0
 11
68425.78653272129
 21
53722.69336979092
 31
0.0
  0
ARC
  5
54E9
330
1F
100
AcDbEntity
  8
電気錠制御盤　（株）アート
  6
Continuous
 62
     7
370
    13
100
AcDbCircle
 10
68450.36253271959
 20
53520.38220179045
 30
0.0
 40
171.0427836494462
100
AcDbArc
 50
109.1689098788119
 51
70.76075729693908
  0
ARC
  5
54EA
330
1F
100
AcDbEntity
  8
電気錠制御盤　（株）アート
  6
Continuous
 62
     7
370
    13
100
AcDbCircle
 10
68450.36253271959
 20
53520.38220179045
 30
0.0
 40
121.5090140952094
100
AcDbArc
 50
109.1689098788119
 51
70.76075792217555
  0
LINE
  5
54EB
330
1F
100
AcDbEntity
  8
電気錠制御盤　（株）アート
  6
Continuous
 62
     7
370
    13
100
AcDbLine
 10
68490.40137819237
 20
53635.10504763948
 30
0.0
 11
68506.72341959661
 21
53681.87240046862
 31
0.0
  0
LINE
  5
54EC
330
1F
100
AcDbEntity
  8
電気錠制御盤　（株）アート
  6
Continuous
 62
     7
370
    13
100
AcDbLine
 10
68410.46454293467
 20
53635.15411001446
 30
0.0
 11
68394.19992383231
 21
53681.94146398679
 31
0.0
  0
CIRCLE
  5
54ED
330
1F
100
AcDbEntity
  8
電気錠制御盤　（株）アート
  6
Continuous
 62
     7
370
    13
100
AcDbCircle
 10
68446.6751281444
 20
53523.11008083077
 30
0.0
 40
268.8
  0
LINE
  5
54EE
330
1F
100
AcDbEntity
  8
電気錠制御盤　（株）アート
  6
Continuous
 62
     7
370
    13
100
AcDbLine
 10
67793.8751281444
 20
45843.11008083077
 30
0.0
 11
69906.17265947943
 21
45843.11008083077
 31
0.0
  0
LINE
  5
54EF
330
1F
100
AcDbEntity
  8
電気錠制御盤　（株）アート
  6
Continuous
 62
     7
370
    13
100
AcDbLine
 10
67793.8751281444
 20
46227.11008083077
 30
0.0
 11
70065.76266500093
 21
46227.11008083077
 31
0.0
  0
LINE
  5
54F0
330
1F
100
AcDbEntity
  8
電気錠制御盤　（株）アート
  6
Continuous
 62
     7
370
    13
100
AcDbLine
 10
67793.8751281444
 20
46611.11008083077
 30
0.0
 11
70206.1547375623
 21
46611.11008083077
 31
0.0
  0
LINE
  5
54F1
330
1F
100
AcDbEntity
  8
電気錠制御盤　（株）アート
  6
Continuous
 62
     7
370
    13
100
AcDbLine
 10
70328.23551542646
 20
46995.11008083077
 30
0.0
 11
67793.8751281444
 21
46995.11008083077
 31
0.0
  0
LINE
  5
54F2
330
1F
100
AcDbEntity
  8
電気錠制御盤　（株）アート
  6
Continuous
 62
     7
370
    13
100
AcDbLine
 10
67793.8751281444
 20
47379.11008083077
 30
0.0
 11
70432.73204796351
 21
47379.11008083077
 31
0.0
  0
LINE
  5
54F3
330
1F
100
AcDbEntity
  8
電気錠制御盤　（株）アート
  6
Continuous
 62
     7
370
    13
100
AcDbLine
 10
70520.23633218593
 20
47763.11008083077
 30
0.0
 11
67793.8751281444
 21
47763.11008083077
 31
0.0
  0
LINE
  5
54F4
330
1F
100
AcDbEntity
  8
電気錠制御盤　（株）アート
  6
Continuous
 62
     7
370
    13
100
AcDbLine
 10
67793.8751281444
 20
48147.11008083077
 30
0.0
 11
70591.22378331609
 21
48147.11008083077
 31
0.0
  0
LINE
  5
54F5
330
1F
100
AcDbEntity
  8
電気錠制御盤　（株）アート
  6
Continuous
 62
     7
370
    13
100
AcDbLine
 10
67793.8751281444
 20
48531.11008083077
 30
0.0
 11
70646.06710855923
 21
48531.11008083077
 31
0.0
  0
LINE
  5
54F6
330
1F
100
AcDbEntity
  8
電気錠制御盤　（株）アート
  6
Continuous
 62
     7
370
    13
100
AcDbLine
 10
67793.8751281444
 20
48915.11008083077
 30
0.0
 11
70685.0465966139
 21
48915.11008083077
 31
0.0
  0
ARC
  5
54F7
330
1F
100
AcDbEntity
  8
電気錠制御盤　（株）アート
  6
Continuous
 62
     7
370
    13
100
AcDbCircle
 10
67909.07512814438
 20
54440.87008083054
 30
0.0
 40
115.1999999999999
100
AcDbArc
 50
90.0
 51
180.0
  0
LINE
  5
54F8
330
1F
100
AcDbEntity
  8
電気錠制御盤　（株）アート
  6
Continuous
 62
     7
370
    13
100
AcDbLine
 10
67793.8751281444
 20
54440.87008083054
 30
0.0
 11
67793.8751281444
 21
44925.35008083098
 31
0.0
  0
LINE
  5
54F9
330
1F
100
AcDbEntity
  8
電気錠制御盤　（株）アート
  6
Continuous
 62
     7
370
    13
100
AcDbLine
 10
69372.42127480319
 20
54556.07008083053
 30
0.0
 11
67909.07512814438
 21
54556.07008083053
 31
0.0
  0
ARC
  5
54FA
330
1F
100
AcDbEntity
  8
電気錠制御盤　（株）アート
  6
Continuous
 62
     7
370
    13
100
AcDbCircle
 10
67909.07512814438
 20
44925.35008083098
 30
0.0
 40
115.1999999999999
100
AcDbArc
 50
180.0
 51
270.0
  0
LINE
  5
54FB
330
1F
100
AcDbEntity
  8
電気錠制御盤　（株）アート
  6
Continuous
 62
     7
370
    13
100
AcDbLine
 10
67909.07512814438
 20
44810.15008083099
 30
0.0
 11
69372.42127480319
 21
44810.15008083099
 31
0.0
  0
ARC
  5
54FC
330
1F
100
AcDbEntity
  8
電気錠制御盤　（株）アート
  6
Continuous
 62
     7
370
    13
100
AcDbCircle
 10
67897.03406130485
 20
44913.83008083032
 30
0.0
 40
115.1999999999999
100
AcDbArc
 50
180.0
 51
270.0
  0
LINE
  5
54FD
330
1F
100
AcDbEntity
  8
電気錠制御盤　（株）アート
  6
Continuous
 62
     7
370
    13
100
AcDbLine
 10
67781.83406130485
 20
54452.39008083121
 30
0.0
 11
67781.83406130485
 21
44913.83008083032
 31
0.0
  0
LINE
  5
54FE
330
1F
100
AcDbEntity
  8
電気錠制御盤　（株）アート
  6
Continuous
 62
     7
370
    13
100
AcDbLine
 10
67897.03406130485
 20
44798.63008083031
 30
0.0
 11
69382.91114662103
 21
44798.63008083031
 31
0.0
  0
ARC
  5
54FF
330
1F
100
AcDbEntity
  8
電気錠制御盤　（株）アート
  6
Continuous
 62
     7
370
    13
100
AcDbCircle
 10
67897.03406130485
 20
54452.39008083121
 30
0.0
 40
115.1999999999999
100
AcDbArc
 50
90.0
 51
180.0
  0
LINE
  5
5500
330
1F
100
AcDbEntity
  8
電気錠制御盤　（株）アート
  6
Continuous
 62
     7
370
    13
100
AcDbLine
 10
67897.03406130485
 20
54567.59008083122
 30
0.0
 11
69382.91114662103
 21
54567.59008083122
 31
0.0
  0
ARC
  5
5501
330
1F
100
AcDbEntity
  8
電気錠制御盤　（株）アート
  6
Continuous
 62
     7
370
    13
100
AcDbCircle
 10
67743.43406179659
 20
44767.91008083076
 30
0.0
 40
268.8
100
AcDbArc
 50
180.0
 51
270.0
  0
LINE
  5
5502
330
1F
100
AcDbEntity
  8
電気錠制御盤　（株）アート
  6
Continuous
 62
     7
370
    13
100
AcDbLine
 10
67474.63406179659
 20
44767.91008083076
 30
0.0
 11
67474.63406179659
 21
54598.31008083077
 31
0.0
  0
ARC
  5
5503
330
1F
100
AcDbEntity
  8
電気錠制御盤　（株）アート
  6
Continuous
 62
     7
370
    13
100
AcDbCircle
 10
67743.43406179659
 20
54598.31008083077
 30
0.0
 40
268.8
100
AcDbArc
 50
90.0
 51
180.0
  0
ARC
  5
5504
330
1F
100
AcDbEntity
  8
電気錠制御盤　（株）アート
  6
Continuous
 62
     7
370
    13
100
AcDbCircle
 10
69343.49505606405
 20
44888.72146686206
 30
0.0
 40
233.4719999999999
100
AcDbArc
 50
270.0
 51
329.489173637362
  0
ARC
  5
5505
330
1F
100
AcDbEntity
  8
電気錠制御盤　（株）アート
  6
Continuous
 62
     7
370
    13
100
AcDbCircle
 10
69343.49505606405
 20
54477.49869479949
 30
0.0
 40
233.4719999999999
100
AcDbArc
 50
30.51082636263796
 51
90.0
  0
LINE
  5
5506
330
1F
100
AcDbEntity
  8
電気錠制御盤　（株）アート
  6
Continuous
 62
     7
370
    13
100
AcDbLine
 10
69343.49505606405
 20
54710.97069480012
 30
0.0
 11
69341.58541508652
 21
54710.97069480012
 31
0.0
  0
ARC
  5
5507
330
1F
100
AcDbEntity
  8
電気錠制御盤　（株）アート
  6
Continuous
 62
     7
370
    13
100
AcDbCircle
 10
67735.88423693887
 20
54605.85990518669
 30
0.0
 40
115.1999999999999
100
AcDbArc
 50
90.0
 51
180.0
  0
LINE
  5
5508
330
1F
100
AcDbEntity
  8
電気錠制御盤　（株）アート
  6
Continuous
 62
     7
370
    13
100
AcDbLine
 10
69430.26513731964
 20
54721.05990518667
 30
0.0
 11
67733.0288668368
 21
54721.05990518667
 31
0.0
  0
ARC
  5
5509
330
1F
100
AcDbEntity
  8
電気錠制御盤　（株）アート
  6
Continuous
 62
     7
370
    13
100
AcDbCircle
 10
74739.78388665878
 20
44760.36025474148
 30
0.0
 40
115.1999999999999
100
AcDbArc
 50
270.0
 51
0.0
  0
ARC
  5
550A
330
1F
100
AcDbEntity
  8
電気錠制御盤　（株）アート
  6
Continuous
 62
     7
370
    13
100
AcDbCircle
 10
67735.88423693887
 20
44760.36025474148
 30
0.0
 40
115.1999999999999
100
AcDbArc
 50
180.0
 51
270.0
  0
LINE
  5
550B
330
1F
100
AcDbEntity
  8
電気錠制御盤　（株）アート
  6
Continuous
 62
     7
370
    13
100
AcDbLine
 10
69430.26513731964
 20
44645.16025474146
 30
0.0
 11
67733.0288668368
 21
44645.16025474146
 31
0.0
  0
LINE
  5
550C
330
1F
100
AcDbEntity
  8
電気錠制御盤　（株）アート
  6
Continuous
 62
     7
370
    13
100
AcDbLine
 10
67620.68423693888
 20
54608.71797406267
 30
0.0
 11
67620.68423693888
 21
44757.50218661206
 31
0.0
  0
ARC
  5
550D
330
1F
100
AcDbEntity
  8
電気錠制御盤　（株）アート
  6
Continuous
 62
     7
370
    13
100
AcDbCircle
 10
74732.23406130482
 20
44767.91008083076
 30
0.0
 40
268.8
100
AcDbArc
 50
270.0
 51
0.0
  0
LINE
  5
550E
330
1F
100
AcDbEntity
  8
電気錠制御盤　（株）アート
  6
Continuous
 62
     7
370
    13
100
AcDbLine
 10
74732.23406130482
 20
44499.11008083077
 30
0.0
 11
67743.43406130485
 21
44499.11008083077
 31
0.0
  0
TEXT
  5
550F
330
1F
100
AcDbEntity
  8
電気錠制御盤　（株）アート
  6
Continuous
 62
     7
370
    13
100
AcDbText
 10
64353.03022031504
 20
41255.9024311234
 30
0.0
 40
447.9946116360424
  1
材　質
 41
0.944444
  7
KANJI
100
AcDbText
  0
TEXT
  5
5510
330
1F
100
AcDbEntity
  8
電気錠制御盤　（株）アート
  6
Continuous
 62
     7
370
    13
100
AcDbText
 10
64759.94356443137
 20
41917.65170341881
 30
0.0
 40
447.9946116360424
  1
項　目
 41
0.944444
  7
KANJI
100
AcDbText
  0
LINE
  5
5511
330
1F
100
AcDbEntity
  8
電気錠制御盤　（株）アート
  6
Continuous
 62
     7
370
    13
100
AcDbLine
 10
64028.68326122956
 20
42428.7057249246
 30
0.0
 11
83094.05612983823
 21
42428.7057249246
 31
0.0
  0
LINE
  5
5512
330
1F
100
AcDbEntity
  8
電気錠制御盤　（株）アート
  6
Continuous
 62
     7
370
    13
100
AcDbLine
 10
64028.68326122956
 20
41787.67893518223
 30
0.0
 11
83094.05612983823
 21
41787.67893518223
 31
0.0
  0
TEXT
  5
5513
330
1F
100
AcDbEntity
  8
電気錠制御盤　（株）アート
  6
Continuous
 62
     7
370
    13
100
AcDbText
 10
73844.27327363724
 20
41917.65170341881
 30
0.0
 40
447.9946116360424
  1
内　容
 41
0.944444
  7
KANJI
100
AcDbText
  0
TEXT
  5
5514
330
1F
100
AcDbEntity
  8
電気錠制御盤　（株）アート
  6
Continuous
 62
     7
370
    13
100
AcDbText
 10
64353.03022031504
 20
40624.61793082128
 30
0.0
 40
447.9946116360424
  1
仕　上
 41
0.944444
  7
KANJI
100
AcDbText
  0
TEXT
  5
5515
330
1F
100
AcDbEntity
  8
電気錠制御盤　（株）アート
  6
Continuous
 62
     7
370
    13
100
AcDbText
 10
64353.03022031504
 20
40004.73253421009
 30
0.0
 40
447.9946116360424
  1
彩　色
 41
0.944444
  7
KANJI
100
AcDbText
  0
TEXT
  5
5516
330
1F
100
AcDbEntity
  8
電気錠制御盤　（株）アート
  6
Continuous
 62
     7
370
    13
100
AcDbText
 10
67048.91704867177
 20
41255.9024311234
 30
0.0
 40
447.9946116360424
  1
樹　脂
 41
0.944444
  7
KANJI
100
AcDbText
  0
TEXT
  5
5517
330
1F
100
AcDbEntity
  8
電気錠制御盤　（株）アート
  6
Continuous
 62
     7
370
    13
100
AcDbText
 10
67041.22988006457
 20
40624.61793082128
 30
0.0
 40
447.9946116360424
  1
塗　装
 41
0.944444
  7
KANJI
100
AcDbText
  0
TEXT
  5
5518
330
1F
100
AcDbEntity
  8
電気錠制御盤　（株）アート
  6
Continuous
 62
     7
370
    13
100
AcDbText
 10
67041.22988006457
 20
40004.73253421009
 30
0.0
 40
447.9946116360424
  1
クリームナチュラル
 41
0.944444
  7
KANJI
100
AcDbText
  0
TEXT
  5
5519
330
1F
100
AcDbEntity
  8
電気錠制御盤　（株）アート
  6
Continuous
 62
     7
370
    13
100
AcDbText
 10
64353.03022031504
 20
38675.11648135148
 30
0.0
 40
447.9946116360424
  1
入力電源
 41
0.944444
  7
KANJI
100
AcDbText
  0
TEXT
  5
551A
330
1F
100
AcDbEntity
  8
電気錠制御盤　（株）アート
  6
Continuous
 62
     7
370
    13
100
AcDbText
 10
64353.03022031504
 20
39344.21361064705
 30
0.0
 40
447.9946116360424
  1
重　量
 41
0.944444
  7
KANJI
100
AcDbText
  0
TEXT
  5
551B
330
1F
100
AcDbEntity
  8
電気錠制御盤　（株）アート
  6
Continuous
 62
     7
370
    13
100
AcDbText
 10
67041.22988006457
 20
39344.21361064705
 30
0.0
 40
447.9946116360424
  1
約３００ｇ
 41
0.944444
  7
KANJI
100
AcDbText
  0
TEXT
  5
551C
330
1F
100
AcDbEntity
  8
電気錠制御盤　（株）アート
  6
Continuous
 62
     7
370
    13
100
AcDbText
 10
67041.22988006457
 20
38675.11648135148
 30
0.0
 40
447.9946116360424
  1
ＤＣ２４Ｖ%%P１０％
 41
0.8872049999999999
  7
KANJI
100
AcDbText
  0
LINE
  5
551D
330
1F
100
AcDbEntity
  8
電気錠制御盤　（株）アート
  6
Continuous
 62
     7
370
    13
100
AcDbLine
 10
66836.74429198199
 20
42428.7057249246
 30
0.0
 11
66836.74429198199
 21
36679.9947931046
 31
0.0
  0
LINE
  5
551E
330
1F
100
AcDbEntity
  8
電気錠制御盤　（株）アート
  6
Continuous
 62
     7
370
    13
100
AcDbLine
 10
83094.05612983827
 20
42428.7057249246
 30
0.0
 11
83094.05612983821
 21
36679.9947931046
 31
0.0
  0
LINE
  5
551F
330
1F
100
AcDbEntity
  8
電気錠制御盤　（株）アート
  6
Continuous
 62
     7
370
    13
100
AcDbLine
 10
64028.68326122956
 20
42428.7057249246
 30
0.0
 11
64028.68326122956
 21
36679.9947931046
 31
0.0
  0
TEXT
  5
5520
330
1F
100
AcDbEntity
  8
電気錠制御盤　（株）アート
  6
Continuous
 62
     7
370
    13
100
AcDbText
 10
64353.03022031504
 20
38051.60945031873
 30
0.0
 40
447.9946116360424
  1
消費電力
 41
0.944444
  7
KANJI
100
AcDbText
  0
TEXT
  5
5521
330
1F
100
AcDbEntity
  8
電気錠制御盤　（株）アート
  6
Continuous
 62
     7
370
    13
100
AcDbText
 10
67041.22988006457
 20
38051.60945031873
 30
0.0
 40
447.9946116360424
  1
２．９Ｗ
 41
0.8872049999999999
  7
KANJI
100
AcDbText
  0
LINE
  5
5522
330
1F
100
AcDbEntity
  8
電気錠制御盤　（株）アート
  6
Continuous
 62
     7
370
    13
100
AcDbLine
 10
64028.68326122956
 20
41146.65214543983
 30
0.0
 11
83094.05612983823
 21
41146.65214543983
 31
0.0
  0
LINE
  5
5523
330
1F
100
AcDbEntity
  8
電気錠制御盤　（株）アート
  6
Continuous
 62
     7
370
    13
100
AcDbLine
 10
64028.68326122956
 20
40505.62535569746
 30
0.0
 11
83094.05612983823
 21
40505.62535569388
 31
0.0
  0
LINE
  5
5524
330
1F
100
AcDbEntity
  8
電気錠制御盤　（株）アート
  6
Continuous
 62
     7
370
    13
100
AcDbLine
 10
64028.68326122956
 20
39864.59856595149
 30
0.0
 11
83094.05612983823
 21
39864.59856595149
 31
0.0
  0
LINE
  5
5525
330
1F
100
AcDbEntity
  8
電気錠制御盤　（株）アート
  6
Continuous
 62
     7
370
    13
100
AcDbLine
 10
64028.68326122956
 20
38582.54498646672
 30
0.0
 11
83094.05612983823
 21
38582.54498646672
 31
0.0
  0
LINE
  5
5526
330
1F
100
AcDbEntity
  8
電気錠制御盤　（株）アート
  6
Continuous
 62
     7
370
    13
100
AcDbLine
 10
64028.68326122956
 20
37941.51819672436
 30
0.0
 11
83094.05612983823
 21
37941.51819672436
 31
0.0
  0
TEXT
  5
5527
330
1F
100
AcDbEntity
  8
電気錠制御盤　（株）アート
  6
Continuous
 62
     7
370
    13
100
AcDbText
 10
64353.03022031504
 20
37420.84774850884
 30
0.0
 40
447.9946116360424
  1
制御方式
 41
0.944444
  7
KANJI
100
AcDbText
  0
TEXT
  5
5528
330
1F
100
AcDbEntity
  8
電気錠制御盤　（株）アート
  6
Continuous
 62
     7
370
    13
100
AcDbText
 10
67041.22988006457
 20
37420.84774850884
 30
0.0
 40
447.9946116360424
  1
１６ビットマイクロプロセッサ
 41
0.8872049999999999
  7
KANJI
100
AcDbText
  0
LINE
  5
5529
330
1F
100
AcDbEntity
  8
電気錠制御盤　（株）アート
  6
Continuous
 62
     7
370
    13
100
AcDbLine
 10
64028.68326122956
 20
37310.75649491448
 30
0.0
 11
83094.05612983823
 21
37310.75649491448
 31
0.0
  0
LINE
  5
55D9
330
1F
100
AcDbEntity
  8
電気錠制御盤　（株）アート
  6
Continuous
 62
     7
370
    13
100
AcDbLine
 10
64028.68326122956
 20
39223.57177620551
 30
0.0
 11
83094.05612983823
 21
39223.57177620551
 31
0.0
  0
TEXT
  5
BC60
330
1F
100
AcDbEntity
  8
電気錠制御盤　（株）アート
  6
Continuous
 62
     7
370
    13
100
AcDbText
 10
67041.22988006457
 20
36790.08604669895
 30
0.0
 40
447.9946116360424
  1
ＳＹＮＣＨＲＯ社の手の甲認証装置ＶＰ-ＩＩＸ専用インターフェース
 41
0.8872049999999999
  7
KANJI
100
AcDbText
  0
LINE
  5
BC61
330
1F
100
AcDbEntity
  8
電気錠制御盤　（株）アート
  6
Continuous
 62
     7
370
    13
100
AcDbLine
 10
64028.68326122956
 20
36679.9947931046
 30
0.0
 11
83094.05612983823
 21
36679.9947931046
 31
0.0
  0
ENDSEC
  0
SECTION
  2
OBJECTS
  0
DICTIONARY
  5
C
330
0
100
AcDbDictionary
281
     1
  3
ACAD_CIP_PREVIOUS_PRODUCT_INFO
350
9E22
  3
ACAD_COLOR
350
6B
  3
ACAD_DETAILVIEWSTYLE
350
9E1F
  3
ACAD_GROUP
350
D
  3
ACAD_LAYOUT
350
1A
  3
ACAD_MATERIAL
350
6A
  3
ACAD_MLEADERSTYLE
350
9E1B
  3
ACAD_MLINESTYLE
350
17
  3
ACAD_PLOTSETTINGS
350
19
  3
ACAD_PLOTSTYLENAME
350
E
  3
ACAD_SCALELIST
350
9E09
  3
ACAD_SECTIONVIEWSTYLE
350
9E1D
  3
ACAD_TABLESTYLE
350
7E
  3
ACAD_VISUALSTYLE
350
9DF0
  3
ACDB_RECOMPOSE_DATA
350
BD06
  3
AcDbVariableDictionary
350
5E
  3
DWGPROPS
350
BD07
  0
DICTIONARY
  5
616
330
2
100
AcDbDictionary
280
     1
281
     1
  3
ACAD_LAYERSTATES
360
617
  0
DICTIONARY
  5
BC68
330
10
100
AcDbDictionary
280
     1
281
     1
  3
ADSK_XREC_LAYER_RECONCILED
360
BC69
  0
DICTIONARY
  5
BC6A
330
60F
100
AcDbDictionary
280
     1
281
     1
  3
ADSK_XREC_LAYER_RECONCILED
360
BC6B
  0
DICTIONARY
  5
BC6C
330
613
100
AcDbDictionary
280
     1
281
     1
  3
ADSK_XREC_LAYER_RECONCILED
360
BC6D
  0
DICTIONARY
  5
9EC6
330
9EC5
100
AcDbDictionary
280
     1
281
     1
  3
ADSK_XREC_LAYER_RECONCILED
360
BC6E
  0
XRECORD
  5
9E22
102
{ACAD_REACTORS
330
C
102
}
330
C
100
AcDbXrecord
280
     1
300
ACDLT
300
2015
300
ACDLT_F_S
  0
DICTIONARY
  5
6B
102
{ACAD_REACTORS
330
C
102
}
330
C
100
AcDbDictionary
281
     1
  0
DICTIONARY
  5
9E1F
102
{ACAD_REACTORS
330
C
102
}
330
C
100
AcDbDictionary
281
     1
  3
Imperial24
350
9EC9
  3
Metric50
350
9E20
  0
DICTIONARY
  5
D
102
{ACAD_REACTORS
330
C
102
}
330
C
100
AcDbDictionary
281
     1
  0
DICTIONARY
  5
1A
102
{ACAD_REACTORS
330
C
102
}
330
C
100
AcDbDictionary
281
     1
  3
Model
350
22
  3
レイアウト1
350
D3
  3
レイアウト2
350
D7
  0
DICTIONARY
  5
6A
102
{ACAD_REACTORS
330
C
102
}
330
C
100
AcDbDictionary
281
     1
  3
ByBlock
350
9DE0
  3
ByLayer
350
9DD8
  3
Global
350
9DE8
  0
DICTIONARY
  5
9E1B
102
{ACAD_REACTORS
330
C
102
}
330
C
100
AcDbDictionary
281
     1
  3
Standard
350
9E1C
  0
DICTIONARY
  5
17
102
{ACAD_REACTORS
330
C
102
}
330
C
100
AcDbDictionary
281
     1
  3
Standard
350
18
  0
DICTIONARY
  5
19
102
{ACAD_REACTORS
330
C
102
}
330
C
100
AcDbDictionary
281
     1
  0
ACDBDICTIONARYWDFLT
  5
E
102
{ACAD_REACTORS
330
C
102
}
330
C
100
AcDbDictionary
281
     1
  3
Normal
350
F
100
AcDbDictionaryWithDefault
340
F
  0
DICTIONARY
  5
9E09
102
{ACAD_REACTORS
330
C
102
}
330
C
100
AcDbDictionary
281
     1
  3
A0
350
9E0A
  3
A1
350
9E0B
  3
A2
350
9E0C
  3
A3
350
9E0D
  3
A4
350
9E0E
  3
A5
350
9E0F
  3
A6
350
9E10
  3
A7
350
9E11
  3
A8
350
9E12
  3
A9
350
9E13
  3
B0
350
9E14
  3
B1
350
9E15
  3
B2
350
9E16
  3
B3
350
9E17
  3
B4
350
9E18
  3
B5
350
9E19
  3
B6
350
9E1A
  0
DICTIONARY
  5
9E1D
102
{ACAD_REACTORS
330
C
102
}
330
C
100
AcDbDictionary
281
     1
  3
Imperial24
350
9EC8
  3
Metric50
350
9E1E
  0
DICTIONARY
  5
7E
102
{ACAD_REACTORS
330
C
102
}
330
C
100
AcDbDictionary
281
     1
  3
Standard
350
7F
  0
DICTIONARY
  5
9DF0
102
{ACAD_REACTORS
330
C
102
}
330
C
100
AcDbDictionary
281
     1
  3
2dWireframe
350
9DF6
  3
Basic
350
9DF5
  3
Brighten
350
9DFC
  3
ColorChange
350
9E00
  3
Conceptual
350
9DF9
  3
Dim
350
9DFB
  3
EdgeColorOff
350
9E08
  3
Facepattern
350
9DFF
  3
Flat
350
9DF1
  3
FlatWithEdges
350
9DF2
  3
Gouraud
350
9DF3
  3
GouraudWithEdges
350
9DF4
  3
Hidden
350
9DF8
  3
JitterOff
350
9E06
  3
Linepattern
350
9DFE
  3
OverhangOff
350
9E07
  3
Realistic
350
9DFA
  3
Shaded
350
9E05
  3
Shaded with edges
350
9E04
  3
Shades of Gray
350
9E01
  3
Sketchy
350
9E02
  3
Thicken
350
9DFD
  3
Wireframe
350
9DF7
  3
X-Ray
350
9E03
  0
XRECORD
  5
BD06
102
{ACAD_REACTORS
330
C
102
}
330
C
100
AcDbXrecord
280
     1
 90
        1
330
7F
  0
DICTIONARY
  5
5E
102
{ACAD_REACTORS
330
C
102
}
330
C
100
AcDbDictionary
281
     1
  3
CANNOSCALE
350
BC72
  3
CMLEADERSTYLE
350
BC6F
  3
CTABLESTYLE
350
84
  3
CVIEWDETAILSTYLE
350
BC70
  3
CVIEWSECTIONSTYLE
350
BC71
  3
DIMASSOC
350
5F
  3
HIDETEXT
350
63
  3
INDEXCTL
350
BC74
  3
PROJECTNAME
350
66AB
  3
SORTENTS
350
BC73
  3
XCLIPFRAME
350
BC75
  0
XRECORD
  5
BD07
102
{ACAD_REACTORS
330
C
102
}
330
C
100
AcDbXrecord
280
     1
  1
DWGPROPS COOKIE
  2

  3

  4

  6

  7

  8
nagahama
  9

300
=
301
=
302
=
303
=
304
=
305
=
306
=
307
=
308
=
309
=
 40
0.0582074189814815
 41
2455257.708088461
 42
2458395.578192269
  1

 90
        0
  0
DICTIONARY
  5
617
102
{ACAD_REACTORS
330
616
102
}
330
616
100
AcDbDictionary
281
     1
  0
XRECORD
  5
BC69
102
{ACAD_REACTORS
330
BC68
102
}
330
BC68
100
AcDbXrecord
280
     1
290
     1
  0
XRECORD
  5
BC6B
102
{ACAD_REACTORS
330
BC6A
102
}
330
BC6A
100
AcDbXrecord
280
     1
290
     1
  0
XRECORD
  5
BC6D
102
{ACAD_REACTORS
330
BC6C
102
}
330
BC6C
100
AcDbXrecord
280
     1
290
     1
  0
XRECORD
  5
BC6E
102
{ACAD_REACTORS
330
9EC6
102
}
330
9EC6
100
AcDbXrecord
280
     1
290
     1
  0
ACDBDETAILVIEWSTYLE
  5
9EC9
102
{ACAD_XDICTIONARY
360
BD49
102
}
102
{ACAD_REACTORS
330
9E1F
102
}
330
9E1F
100
AcDbModelDocViewStyle
 70
     0
  3
Imperial24
290
     0
100
AcDbDetailViewStyle
 70
     0
 71
     0
 90
        3
 71
     1
340
11
 40
0.24
340
0
 40
0.24
300

 40
0.36
280
     3
 71
     2
340
16
 90
       25
 71
     3
340
11
 40
0.24
 90
        1
 40
0.75
 90
        1
300
%<\AcVar ViewType \f "%tc1">% %<\AcVar ViewDetailId>%\PSCALE %<\AcVar ViewScale \f "%sn">%
 71
     4
340
16
 90
       25
340
16
 90
       25
280
     0
  0
ACDBDETAILVIEWSTYLE
  5
9E20
102
{ACAD_XDICTIONARY
360
BD45
102
}
102
{ACAD_REACTORS
330
9E1F
102
}
330
9E1F
100
AcDbModelDocViewStyle
 70
     0
  3
Metric50
290
     0
100
AcDbDetailViewStyle
 70
     0
 71
     0
 90
        3
 71
     1
340
11
 40
5.0
340
0
 40
5.0
300

 40
0.0
280
     1
 71
     2
340
16
 90
       25
 71
     3
340
11
 40
5.0
 90
        0
 40
15.0
 90
        1
300
%<\AcVar ViewDetailId>% (%<\AcVar ViewScale \f "%sn">%)
 71
     4
340
16
 90
       25
340
16
 90
       25
280
     0
  0
LAYOUT
  5
22
102
{ACAD_XDICTIONARY
360
BD08
102
}
102
{ACAD_REACTORS
330
1A
102
}
330
1A
100
AcDbPlotSettings
  1

  2
none_device
  4
ISO_A4_(210.00_x_297.00_MM)
  6

 40
7.5
 41
20.0
 42
7.5
 43
20.0
 44
210.0
 45
297.0
 46
11.54999923706053
 47
-13.65000009536743
 48
0.0
 49
0.0
140
0.0
141
0.0
142
1.0
143
8.704084754739808
 70
 11952
 72
     1
 73
     0
 74
     0
  7

 75
     0
147
0.1148885871608098
148
0.0
149
0.0
100
AcDbLayout
  1
Model
 70
     1
 71
     0
 10
0.0
 20
0.0
 11
12.0
 21
9.0
 12
0.0
 22
0.0
 32
0.0
 14
0.0
 24
0.0
 34
0.0
 15
0.0
 25
0.0
 35
0.0
146
0.0
 13
0.0
 23
0.0
 33
0.0
 16
1.0
 26
0.0
 36
0.0
 17
0.0
 27
1.0
 37
0.0
 76
     0
330
1F
331
9DD2
1001
ACAD_PSEXT
1000
None
1000
None
1000
Not applicable
1000
The layout will not be plotted unless a new plotter configuration name is selected.
1070
     0
  0
LAYOUT
  5
D3
102
{ACAD_XDICTIONARY
360
BD0B
102
}
102
{ACAD_REACTORS
330
1A
102
}
330
1A
100
AcDbPlotSettings
  1

  2
C:\Documents and Settings\basas\Application Data\Autodesk\AutoCAD 2005\R16.1\enu\plotters\Default Windows System Printer.pc3
  4

  6

 40
0.0
 41
0.0
 42
0.0
 43
0.0
 44
0.0
 45
0.0
 46
0.0
 47
0.0
 48
0.0
 49
0.0
140
0.0
141
0.0
142
1.0
143
1.0
 70
   688
 72
     0
 73
     0
 74
     5
  7

 75
    16
147
1.0
148
0.0
149
0.0
100
AcDbLayout
  1
レイアウト1
 70
     1
 71
     1
 10
0.0
 20
0.0
 11
12.0
 21
9.0
 12
0.0
 22
0.0
 32
0.0
 14
0.0
 24
0.0
 34
0.0
 15
0.0
 25
0.0
 35
0.0
146
0.0
 13
0.0
 23
0.0
 33
0.0
 16
1.0
 26
0.0
 36
0.0
 17
0.0
 27
1.0
 37
0.0
 76
     0
330
D2
  0
LAYOUT
  5
D7
102
{ACAD_XDICTIONARY
360
BD0D
102
}
102
{ACAD_REACTORS
330
1A
102
}
330
1A
100
AcDbPlotSettings
  1

  2
C:\Documents and Settings\basas\Application Data\Autodesk\AutoCAD 2005\R16.1\enu\plotters\Default Windows System Printer.pc3
  4

  6

 40
0.0
 41
0.0
 42
0.0
 43
0.0
 44
0.0
 45
0.0
 46
0.0
 47
0.0
 48
0.0
 49
0.0
140
0.0
141
0.0
142
1.0
143
1.0
 70
   688
 72
     0
 73
     0
 74
     5
  7

 75
    16
147
1.0
148
0.0
149
0.0
100
AcDbLayout
  1
レイアウト2
 70
     1
 71
     2
 10
0.0
 20
0.0
 11
12.0
 21
9.0
 12
0.0
 22
0.0
 32
0.0
 14
0.0
 24
0.0
 34
0.0
 15
0.0
 25
0.0
 35
0.0
146
0.0
 13
0.0
 23
0.0
 33
0.0
 16
1.0
 26
0.0
 36
0.0
 17
0.0
 27
1.0
 37
0.0
 76
     0
330
D6
  0
MATERIAL
  5
9DE0
102
{ACAD_XDICTIONARY
360
9DE1
102
}
102
{ACAD_REACTORS
330
6A
102
}
330
6A
100
AcDbMaterial
  1
ByBlock
 72
     0
 43
0.0008202099737533
 43
0.0
 43
0.0
 43
0.0
 43
0.0
 43
0.0008202099737533
 43
0.0
 43
0.0
 43
0.0
 43
0.0
 43
1.0
 43
0.0
 43
0.0
 43
0.0
 43
0.0
 43
1.0
 77
     0
 47
0.0008202099737533
 47
0.0
 47
0.0
 47
0.0
 47
0.0
 47
0.0008202099737533
 47
0.0
 47
0.0
 47
0.0
 47
0.0
 47
1.0
 47
0.0
 47
0.0
 47
0.0
 47
0.0
 47
1.0
171
     0
 49
0.0008202099737533
 49
0.0
 49
0.0
 49
0.0
 49
0.0
 49
0.0008202099737533
 49
0.0
 49
0.0
 49
0.0
 49
0.0
 49
1.0
 49
0.0
 49
0.0
 49
0.0
 49
0.0
 49
1.0
175
     0
142
0.0008202099737533
142
0.0
142
0.0
142
0.0
142
0.0
142
0.0008202099737533
142
0.0
142
0.0
142
0.0
142
0.0
142
1.0
142
0.0
142
0.0
142
0.0
142
0.0
142
1.0
179
     0
144
0.0008202099737533
144
0.0
144
0.0
144
0.0
144
0.0
144
0.0008202099737533
144
0.0
144
0.0
144
0.0
144
0.0
144
1.0
144
0.0
144
0.0
144
0.0
144
0.0
144
1.0
147
0.0008202099737533
147
0.0
147
0.0
147
0.0
147
0.0
147
0.0008202099737533
147
0.0
147
0.0
147
0.0
147
0.0
147
1.0
147
0.0
147
0.0
147
0.0
147
0.0
147
1.0
  0
MATERIAL
  5
9DD8
102
{ACAD_XDICTIONARY
360
9DD9
102
}
102
{ACAD_REACTORS
330
6A
102
}
330
6A
100
AcDbMaterial
  1
ByLayer
 72
     0
 43
0.0008202099737533
 43
0.0
 43
0.0
 43
0.0
 43
0.0
 43
0.0008202099737533
 43
0.0
 43
0.0
 43
0.0
 43
0.0
 43
1.0
 43
0.0
 43
0.0
 43
0.0
 43
0.0
 43
1.0
 77
     0
 47
0.0008202099737533
 47
0.0
 47
0.0
 47
0.0
 47
0.0
 47
0.0008202099737533
 47
0.0
 47
0.0
 47
0.0
 47
0.0
 47
1.0
 47
0.0
 47
0.0
 47
0.0
 47
0.0
 47
1.0
171
     0
 49
0.0008202099737533
 49
0.0
 49
0.0
 49
0.0
 49
0.0
 49
0.0008202099737533
 49
0.0
 49
0.0
 49
0.0
 49
0.0
 49
1.0
 49
0.0
 49
0.0
 49
0.0
 49
0.0
 49
1.0
175
     0
142
0.0008202099737533
142
0.0
142
0.0
142
0.0
142
0.0
142
0.0008202099737533
142
0.0
142
0.0
142
0.0
142
0.0
142
1.0
142
0.0
142
0.0
142
0.0
142
0.0
142
1.0
179
     0
144
0.0008202099737533
144
0.0
144
0.0
144
0.0
144
0.0
144
0.0008202099737533
144
0.0
144
0.0
144
0.0
144
0.0
144
1.0
144
0.0
144
0.0
144
0.0
144
0.0
144
1.0
147
0.0008202099737533
147
0.0
147
0.0
147
0.0
147
0.0
147
0.0008202099737533
147
0.0
147
0.0
147
0.0
147
0.0
147
1.0
147
0.0
147
0.0
147
0.0
147
0.0
147
1.0
  0
MATERIAL
  5
9DE8
102
{ACAD_XDICTIONARY
360
9DE9
102
}
102
{ACAD_REACTORS
330
6A
102
}
330
6A
100
AcDbMaterial
  1
Global
 72
     0
 43
0.0008202099737533
 43
0.0
 43
0.0
 43
0.0
 43
0.0
 43
0.0008202099737533
 43
0.0
 43
0.0
 43
0.0
 43
0.0
 43
1.0
 43
0.0
 43
0.0
 43
0.0
 43
0.0
 43
1.0
 77
     0
 47
0.0008202099737533
 47
0.0
 47
0.0
 47
0.0
 47
0.0
 47
0.0008202099737533
 47
0.0
 47
0.0
 47
0.0
 47
0.0
 47
1.0
 47
0.0
 47
0.0
 47
0.0
 47
0.0
 47
1.0
171
     0
 49
0.0008202099737533
 49
0.0
 49
0.0
 49
0.0
 49
0.0
 49
0.0008202099737533
 49
0.0
 49
0.0
 49
0.0
 49
0.0
 49
1.0
 49
0.0
 49
0.0
 49
0.0
 49
0.0
 49
1.0
175
     0
142
0.0008202099737533
142
0.0
142
0.0
142
0.0
142
0.0
142
0.0008202099737533
142
0.0
142
0.0
142
0.0
142
0.0
142
1.0
142
0.0
142
0.0
142
0.0
142
0.0
142
1.0
179
     0
144
0.0008202099737533
144
0.0
144
0.0
144
0.0
144
0.0
144
0.0008202099737533
144
0.0
144
0.0
144
0.0
144
0.0
144
1.0
144
0.0
144
0.0
144
0.0
144
0.0
144
1.0
147
0.0008202099737533
147
0.0
147
0.0
147
0.0
147
0.0
147
0.0008202099737533
147
0.0
147
0.0
147
0.0
147
0.0
147
1.0
147
0.0
147
0.0
147
0.0
147
0.0
147
1.0
  0
MLEADERSTYLE
  5
9E1C
102
{ACAD_REACTORS
330
9E1B
102
}
330
9E1B
100
AcDbMLeaderStyle
170
     2
171
     1
172
     0
 90
        2
 40
0.0
 41
0.0
173
     1
 91
-1056964608
340
14
 92
       -2
290
     1
 42
2.0
291
     1
 43
0.36
  3
Standard
 44
4.0
300

342
11
174
     1
178
     6
175
     1
176
     0
 93
-1056964608
 45
4.0
292
     0
297
     0
 46
4.0
 94
-1056964608
 47
1.0
 49
1.0
140
1.0
293
     1
141
0.0
294
     1
177
     0
142
1.0
295
     0
296
     0
143
0.125
1001
ACAD_MLEADERVER
1070
     2
  0
MLINESTYLE
  5
18
102
{ACAD_REACTORS
330
17
102
}
330
17
100
AcDbMlineStyle
  2
STANDARD
 70
     0
  3

 62
   256
 51
90.0
 52
90.0
 71
     2
 49
0.5
 62
   256
  6
BYLAYER
 49
-0.5
 62
   256
  6
BYLAYER
  0
ACDBPLACEHOLDER
  5
F
102
{ACAD_REACTORS
330
E
102
}
330
E
  0
SCALE
  5
9E0A
102
{ACAD_REACTORS
330
9E09
102
}
330
9E09
100
AcDbScale
 70
     0
300
1:1
140
1.0
141
1.0
290
     1
  0
SCALE
  5
9E0B
102
{ACAD_REACTORS
330
9E09
102
}
330
9E09
100
AcDbScale
 70
     0
300
1:2
140
1.0
141
2.0
290
     0
  0
SCALE
  5
9E0C
102
{ACAD_REACTORS
330
9E09
102
}
330
9E09
100
AcDbScale
 70
     0
300
1:4
140
1.0
141
4.0
290
     0
  0
SCALE
  5
9E0D
102
{ACAD_REACTORS
330
9E09
102
}
330
9E09
100
AcDbScale
 70
     0
300
1:5
140
1.0
141
5.0
290
     0
  0
SCALE
  5
9E0E
102
{ACAD_REACTORS
330
9E09
102
}
330
9E09
100
AcDbScale
 70
     0
300
1:8
140
1.0
141
8.0
290
     0
  0
SCALE
  5
9E0F
102
{ACAD_REACTORS
330
9E09
102
}
330
9E09
100
AcDbScale
 70
     0
300
1:10
140
1.0
141
10.0
290
     0
  0
SCALE
  5
9E10
102
{ACAD_REACTORS
330
9E09
102
}
330
9E09
100
AcDbScale
 70
     0
300
1:16
140
1.0
141
16.0
290
     0
  0
SCALE
  5
9E11
102
{ACAD_REACTORS
330
9E09
102
}
330
9E09
100
AcDbScale
 70
     0
300
1:20
140
1.0
141
20.0
290
     0
  0
SCALE
  5
9E12
102
{ACAD_REACTORS
330
9E09
102
}
330
9E09
100
AcDbScale
 70
     0
300
1:30
140
1.0
141
30.0
290
     0
  0
SCALE
  5
9E13
102
{ACAD_REACTORS
330
9E09
102
}
330
9E09
100
AcDbScale
 70
     0
300
1:40
140
1.0
141
40.0
290
     0
  0
SCALE
  5
9E14
102
{ACAD_REACTORS
330
9E09
102
}
330
9E09
100
AcDbScale
 70
     0
300
1:50
140
1.0
141
50.0
290
     0
  0
SCALE
  5
9E15
102
{ACAD_REACTORS
330
9E09
102
}
330
9E09
100
AcDbScale
 70
     0
300
1:100
140
1.0
141
100.0
290
     0
  0
SCALE
  5
9E16
102
{ACAD_REACTORS
330
9E09
102
}
330
9E09
100
AcDbScale
 70
     0
300
2:1
140
2.0
141
1.0
290
     0
  0
SCALE
  5
9E17
102
{ACAD_REACTORS
330
9E09
102
}
330
9E09
100
AcDbScale
 70
     0
300
4:1
140
4.0
141
1.0
290
     0
  0
SCALE
  5
9E18
102
{ACAD_REACTORS
330
9E09
102
}
330
9E09
100
AcDbScale
 70
     0
300
8:1
140
8.0
141
1.0
290
     0
  0
SCALE
  5
9E19
102
{ACAD_REACTORS
330
9E09
102
}
330
9E09
100
AcDbScale
 70
     0
300
10:1
140
10.0
141
1.0
290
     0
  0
SCALE
  5
9E1A
102
{ACAD_REACTORS
330
9E09
102
}
330
9E09
100
AcDbScale
 70
     0
300
100:1
140
100.0
141
1.0
290
     0
  0
ACDBSECTIONVIEWSTYLE
  5
9EC8
102
{ACAD_XDICTIONARY
360
BD47
102
}
102
{ACAD_REACTORS
330
9E1D
102
}
330
9E1D
100
AcDbModelDocViewStyle
 70
     0
  3
Imperial24
290
     0
100
AcDbSectionViewStyle
 70
     0
 71
     0
 90
       78
 71
     1
340
11
 40
0.24
340
0
340
0
 40
0.24
300
I, O, Q, S, X, Z
 40
0.48
 90
        3
 40
0.18
 90
        1
 71
     2
340
16
 90
       25
340
16
 90
       50
 40
0.24
 40
0.0
 40
0.24
 71
     3
340
11
 40
0.24
 90
        1
 40
0.75
 90
        1
300
%<\AcVar ViewType \f "%tc1">% %<\AcVar ViewSectionStartId>%-%<\AcVar ViewSectionEndId>%\PSCALE %<\AcVar ViewScale \f "%sn">%
 71
     4
300
ANSI31
 40
1.0
 90
        0
290
     0
290
     0
 90
        6
 40
0.0
 40
1.570796326794896
 40
0.2617993877991494
 40
1.308996938995747
 40
-0.2617993877991494
 40
1.832595714594046
  0
ACDBSECTIONVIEWSTYLE
  5
9E1E
102
{ACAD_XDICTIONARY
360
BD43
102
}
102
{ACAD_REACTORS
330
9E1D
102
}
330
9E1D
100
AcDbModelDocViewStyle
 70
     0
  3
Metric50
290
     0
100
AcDbSectionViewStyle
 70
     0
 71
     0
 90
      102
 71
     1
340
11
 40
5.0
340
0
340
0
 40
5.0
300
I, O, Q, S, X, Z
 40
10.0
 90
        0
 40
2.5
 90
        0
 71
     2
340
16
 90
       25
340
16
 90
       50
 40
5.0
 40
2.5
 40
5.0
 71
     3
340
11
 40
5.0
 90
        0
 40
15.0
 90
        1
300
%<\AcVar ViewSectionStartId>%-%<\AcVar ViewSectionEndId>% (%<\AcVar ViewScale \f "%sn">%)
 71
     4
300
ANSI31
 40
1.0
 90
        0
290
     0
290
     0
 90
        6
 40
0.0
 40
1.570796326794896
 40
0.2617993877991494
 40
1.308996938995747
 40
-0.2617993877991494
 40
1.832595714594046
  0
TABLESTYLE
  5
7F
102
{ACAD_XDICTIONARY
360
BD04
102
}
102
{ACAD_REACTORS
330
7E
102
}
330
7E
100
AcDbTableStyle
  3
Standard
 70
     0
 71
     0
 40
1.5
 41
1.5
280
     0
281
     0
  7
Standard
140
4.5
170
     2
 62
     0
 63
     7
283
     0
274
    -2
284
     1
 64
     0
275
    -2
285
     1
 65
     0
276
    -2
286
     1
 66
     0
277
    -2
287
     1
 67
     0
278
    -2
288
     1
 68
     0
279
    -2
289
     1
 69
     0
  7
Standard
140
6.0
170
     5
 62
     0
 63
     7
283
     0
274
    -2
284
     1
 64
     0
275
    -2
285
     1
 65
     0
276
    -2
286
     1
 66
     0
277
    -2
287
     1
 67
     0
278
    -2
288
     1
 68
     0
279
    -2
289
     1
 69
     0
  7
Standard
140
4.5
170
     5
 62
     0
 63
     7
283
     0
274
    -2
284
     1
 64
     0
275
    -2
285
     1
 65
     0
276
    -2
286
     1
 66
     0
277
    -2
287
     1
 67
     0
278
    -2
288
     1
 68
     0
279
    -2
289
     1
 69
     0
  0
VISUALSTYLE
  5
9DF6
102
{ACAD_XDICTIONARY
360
BD1C
102
}
102
{ACAD_REACTORS
330
9DF0
102
}
330
9DF0
100
AcDbVisualStyle
  2
2dWireframe
 70
     4
 71
     0
 72
     2
 73
     0
 90
        0
 40
-0.6
 41
-30.0
 62
     5
 63
     7
 74
     1
 91
        4
 64
     7
 65
   257
 75
     1
175
     1
 42
1.0
 92
        0
 66
   257
 43
1.0
 76
     1
 77
     6
 78
     2
 67
     7
 79
     5
170
     0
171
     0
290
     0
174
     0
 93
        1
 44
0.0
173
     0
291
     0
 45
0.0
1001
ACAD
1000
AcDbSavedByObjectVersion
1070
     0
  0
VISUALSTYLE
  5
9DF5
102
{ACAD_XDICTIONARY
360
BD1A
102
}
102
{ACAD_REACTORS
330
9DF0
102
}
330
9DF0
100
AcDbVisualStyle
  2
Basic
 70
     7
 71
     1
 72
     0
 73
     1
 90
        0
 40
-0.6
 41
-30.0
 62
     5
 63
     7
 74
     0
 91
        4
 64
     7
 65
   257
 75
     1
175
     1
 42
1.0
 92
        8
 66
     7
 43
1.0
 76
     1
 77
     6
 78
     2
 67
     7
 79
     5
170
     0
171
     0
290
     0
174
     0
 93
        1
 44
0.0
173
     0
291
     1
 45
0.0
1001
ACAD
1000
AcDbSavedByObjectVersion
1070
     0
  0
VISUALSTYLE
  5
9DFC
102
{ACAD_XDICTIONARY
360
BD28
102
}
102
{ACAD_REACTORS
330
9DF0
102
}
330
9DF0
100
AcDbVisualStyle
  2
Brighten
 70
    12
 71
     2
 72
     2
 73
     0
 90
        0
 40
-0.6
 41
-30.0
 62
     5
 63
     7
 74
     1
 91
        4
 64
     7
 65
   257
 75
     1
175
     1
 42
1.0
 92
        8
 66
     7
 43
1.0
 76
     1
 77
     6
 78
     2
 67
     7
 79
     5
170
     0
171
     0
290
     0
174
     0
 93
        1
 44
50.0
173
     0
291
     1
 45
0.0
1001
ACAD
1000
AcDbSavedByObjectVersion
1070
     0
  0
VISUALSTYLE
  5
9E00
102
{ACAD_XDICTIONARY
360
BD30
102
}
102
{ACAD_REACTORS
330
9DF0
102
}
330
9DF0
100
AcDbVisualStyle
  2
ColorChange
 70
    16
 71
     2
 72
     2
 73
     3
 90
        0
 40
-0.6
 41
-30.0
 62
     5
 63
     8
 74
     1
 91
        4
 64
     7
 65
   257
 75
     1
175
     1
 42
1.0
 92
        8
 66
     8
 43
1.0
 76
     1
 77
     6
 78
     2
 67
     7
 79
     5
170
     0
171
     0
290
     0
174
     0
 93
        1
 44
0.0
173
     0
291
     1
 45
0.0
1001
ACAD
1000
AcDbSavedByObjectVersion
1070
     0
  0
VISUALSTYLE
  5
9DF9
102
{ACAD_XDICTIONARY
360
BD22
102
}
102
{ACAD_REACTORS
330
9DF0
102
}
330
9DF0
100
AcDbVisualStyle
  2
Conceptual
 70
     9
 71
     3
 72
     2
 73
     0
 90
        0
 40
-0.6
 41
-30.0
 62
     5
 63
     7
 74
     2
 91
        2
 64
     7
 65
   257
 75
     1
175
     1
 42
179.0
 92
        8
 66
     7
 43
1.0
 76
     1
 77
     6
 78
     2
 67
     7
 79
     3
170
     0
171
     0
290
     0
174
     0
 93
        1
 44
0.0
173
     0
291
     0
 45
0.0
1001
ACAD
1000
AcDbSavedByObjectVersion
1070
     0
  0
VISUALSTYLE
  5
9DFB
102
{ACAD_XDICTIONARY
360
BD26
102
}
102
{ACAD_REACTORS
330
9DF0
102
}
330
9DF0
100
AcDbVisualStyle
  2
Dim
 70
    11
 71
     2
 72
     2
 73
     0
 90
        0
 40
-0.6
 41
-30.0
 62
     5
 63
     7
 74
     1
 91
        4
 64
     7
 65
   257
 75
     1
175
     1
 42
1.0
 92
        8
 66
     7
 43
1.0
 76
     1
 77
     6
 78
     2
 67
     7
 79
     5
170
     0
171
     0
290
     0
174
     0
 93
        1
 44
-50.0
173
     0
291
     1
 45
0.0
1001
ACAD
1000
AcDbSavedByObjectVersion
1070
     0
  0
VISUALSTYLE
  5
9E08
102
{ACAD_XDICTIONARY
360
BD40
102
}
102
{ACAD_REACTORS
330
9DF0
102
}
330
9DF0
100
AcDbVisualStyle
  2
EdgeColorOff
 70
    22
 71
     2
 72
     2
 73
     0
 90
        0
 40
-0.6
 41
-30.0
 62
     5
 63
     7
 74
     1
 91
        4
 64
     7
 65
   257
 75
     1
175
     1
 42
1.0
 92
        8
 66
     7
 43
1.0
 76
     1
 77
     6
 78
     2
 67
     7
 79
     5
170
     0
171
     0
290
     0
174
     0
 93
        1
 44
0.0
173
     0
291
     1
 45
0.0
1001
ACAD
1000
AcDbSavedByObjectVersion
1070
     0
  0
VISUALSTYLE
  5
9DFF
102
{ACAD_XDICTIONARY
360
BD2E
102
}
102
{ACAD_REACTORS
330
9DF0
102
}
330
9DF0
100
AcDbVisualStyle
  2
Facepattern
 70
    15
 71
     2
 72
     2
 73
     0
 90
        0
 40
-0.6
 41
-30.0
 62
     5
 63
     7
 74
     1
 91
        4
 64
     7
 65
   257
 75
     1
175
     1
 42
1.0
 92
        8
 66
     7
 43
1.0
 76
     1
 77
     6
 78
     2
 67
     7
 79
     5
170
     0
171
     0
290
     0
174
     0
 93
        1
 44
0.0
173
     0
291
     1
 45
0.0
1001
ACAD
1000
AcDbSavedByObjectVersion
1070
     0
  0
VISUALSTYLE
  5
9DF1
102
{ACAD_XDICTIONARY
360
BD12
102
}
102
{ACAD_REACTORS
330
9DF0
102
}
330
9DF0
100
AcDbVisualStyle
  2
Flat
 70
     0
 71
     2
 72
     1
 73
     1
 90
        2
 40
-0.6
 41
30.0
 62
     5
 63
     7
 74
     0
 91
        0
 64
     7
 65
   257
 75
     1
175
     1
 42
1.0
 92
        8
 66
     7
 43
1.0
 76
     1
 77
     6
 78
     2
 67
     7
 79
     5
170
     0
171
     0
290
     0
174
     0
 93
       13
 44
0.0
173
     0
291
     1
 45
0.0
1001
ACAD
1000
AcDbSavedByObjectVersion
1070
     0
  0
VISUALSTYLE
  5
9DF2
102
{ACAD_XDICTIONARY
360
BD14
102
}
102
{ACAD_REACTORS
330
9DF0
102
}
330
9DF0
100
AcDbVisualStyle
  2
FlatWithEdges
 70
     1
 71
     2
 72
     1
 73
     1
 90
        2
 40
-0.6
 41
30.0
 62
     5
 63
     7
 74
     1
 91
        0
 64
     7
 65
   257
 75
     1
175
     1
 42
1.0
 92
        0
 66
   257
 43
1.0
 76
     1
 77
     6
 78
     2
 67
     7
 79
     5
170
     0
171
     0
290
     0
174
     0
 93
       13
 44
0.0
173
     0
291
     1
 45
0.0
1001
ACAD
1000
AcDbSavedByObjectVersion
1070
     0
  0
VISUALSTYLE
  5
9DF3
102
{ACAD_XDICTIONARY
360
BD16
102
}
102
{ACAD_REACTORS
330
9DF0
102
}
330
9DF0
100
AcDbVisualStyle
  2
Gouraud
 70
     2
 71
     2
 72
     2
 73
     1
 90
        2
 40
-0.6
 41
30.0
 62
     5
 63
     7
 74
     0
 91
        0
 64
     7
 65
   257
 75
     1
175
     1
 42
1.0
 92
        0
 66
     7
 43
1.0
 76
     1
 77
     6
 78
     2
 67
     7
 79
     5
170
     0
171
     0
290
     0
174
     0
 93
       13
 44
0.0
173
     0
291
     1
 45
0.0
1001
ACAD
1000
AcDbSavedByObjectVersion
1070
     0
  0
VISUALSTYLE
  5
9DF4
102
{ACAD_XDICTIONARY
360
BD18
102
}
102
{ACAD_REACTORS
330
9DF0
102
}
330
9DF0
100
AcDbVisualStyle
  2
GouraudWithEdges
 70
     3
 71
     2
 72
     2
 73
     1
 90
        2
 40
-0.6
 41
30.0
 62
     5
 63
     7
 74
     1
 91
        0
 64
     7
 65
   257
 75
     1
175
     1
 42
1.0
 92
        0
 66
   257
 43
1.0
 76
     1
 77
     6
 78
     2
 67
     7
 79
     5
170
     0
171
     0
290
     0
174
     0
 93
       13
 44
0.0
173
     0
291
     1
 45
0.0
1001
ACAD
1000
AcDbSavedByObjectVersion
1070
     0
  0
VISUALSTYLE
  5
9DF8
102
{ACAD_XDICTIONARY
360
BD20
102
}
102
{ACAD_REACTORS
330
9DF0
102
}
330
9DF0
100
AcDbVisualStyle
  2
Hidden
 70
     6
 71
     1
 72
     2
 73
     2
 90
        0
 40
-0.6
 41
-30.0
 62
     5
 63
     7
 74
     2
 91
        2
 64
     7
 65
   257
 75
     2
175
     1
 42
40.0
 92
        0
 66
   257
 43
1.0
 76
     1
 77
     6
 78
     2
 67
     7
 79
     3
170
     0
171
     0
290
     0
174
     0
 93
        1
 44
0.0
173
     0
291
     0
 45
0.0
1001
ACAD
1000
AcDbSavedByObjectVersion
1070
     0
  0
VISUALSTYLE
  5
9E06
102
{ACAD_XDICTIONARY
360
BD3C
102
}
102
{ACAD_REACTORS
330
9DF0
102
}
330
9DF0
100
AcDbVisualStyle
  2
JitterOff
 70
    20
 71
     2
 72
     2
 73
     0
 90
        0
 40
-0.6
 41
-30.0
 62
     5
 63
     7
 74
     1
 91
        4
 64
     7
 65
   257
 75
     1
175
     1
 42
1.0
 92
       10
 66
     7
 43
1.0
 76
     1
 77
     6
 78
     2
 67
     7
 79
     5
170
     0
171
     0
290
     0
174
     0
 93
        1
 44
0.0
173
     0
291
     1
 45
0.0
1001
ACAD
1000
AcDbSavedByObjectVersion
1070
     0
  0
VISUALSTYLE
  5
9DFE
102
{ACAD_XDICTIONARY
360
BD2C
102
}
102
{ACAD_REACTORS
330
9DF0
102
}
330
9DF0
100
AcDbVisualStyle
  2
Linepattern
 70
    14
 71
     2
 72
     2
 73
     0
 90
        0
 40
-0.6
 41
-30.0
 62
     5
 63
     7
 74
     1
 91
        4
 64
     7
 65
   257
 75
     7
175
     7
 42
1.0
 92
        8
 66
     7
 43
1.0
 76
     1
 77
     6
 78
     2
 67
     7
 79
     5
170
     0
171
     0
290
     0
174
     0
 93
        1
 44
0.0
173
     0
291
     1
 45
0.0
1001
ACAD
1000
AcDbSavedByObjectVersion
1070
     0
  0
VISUALSTYLE
  5
9E07
102
{ACAD_XDICTIONARY
360
BD3E
102
}
102
{ACAD_REACTORS
330
9DF0
102
}
330
9DF0
100
AcDbVisualStyle
  2
OverhangOff
 70
    21
 71
     2
 72
     2
 73
     0
 90
        0
 40
-0.6
 41
-30.0
 62
     5
 63
     7
 74
     1
 91
        4
 64
     7
 65
   257
 75
     1
175
     1
 42
1.0
 92
        9
 66
     7
 43
1.0
 76
     1
 77
     6
 78
     2
 67
     7
 79
     5
170
     0
171
     0
290
     0
174
     0
 93
        1
 44
0.0
173
     0
291
     1
 45
0.0
1001
ACAD
1000
AcDbSavedByObjectVersion
1070
     0
  0
VISUALSTYLE
  5
9DFA
102
{ACAD_XDICTIONARY
360
BD24
102
}
102
{ACAD_REACTORS
330
9DF0
102
}
330
9DF0
100
AcDbVisualStyle
  2
Realistic
 70
     8
 71
     2
 72
     3
 73
     0
 90
        2
 40
-0.6
 41
30.0
 62
     5
 63
     7
 74
     0
 91
        0
 64
     7
 65
   257
 75
     1
175
     1
 42
1.0
 92
        8
 66
   257
 43
1.0
 76
     1
 77
     6
 78
     2
 67
     7
 79
     3
170
     0
171
     0
290
     0
174
     0
 93
       13
 44
0.0
173
     0
291
     0
 45
0.0
1001
ACAD
1000
AcDbSavedByObjectVersion
1070
     0
  0
VISUALSTYLE
  5
9E05
102
{ACAD_XDICTIONARY
360
BD3A
102
}
102
{ACAD_REACTORS
330
9DF0
102
}
330
9DF0
100
AcDbVisualStyle
  2
Shaded
 70
    27
 71
     2
 72
     2
 73
     1
 90
        2
 40
-0.6
 41
30.0
 62
     5
 63
     7
 74
     0
 91
        4
 64
     7
 65
   257
 75
     1
175
     1
 42
1.0
 92
        8
 66
   257
 43
1.0
 76
     1
 77
     6
 78
     2
 67
     8
 79
     3
170
     0
171
     0
290
     0
174
     0
 93
        5
 44
0.0
173
     0
291
     0
 45
0.0
1001
ACAD
1000
AcDbSavedByObjectVersion
1070
     0
  0
VISUALSTYLE
  5
9E04
102
{ACAD_XDICTIONARY
360
BD38
102
}
102
{ACAD_REACTORS
330
9DF0
102
}
330
9DF0
100
AcDbVisualStyle
  2
Shaded with edges
 70
    26
 71
     2
 72
     2
 73
     1
 90
        2
 40
-0.6
 41
30.0
 62
     5
 63
     7
 74
     1
 91
       10
 64
     7
 65
   257
 75
     2
175
     1
 42
1.0
 92
        8
 66
   257
 43
1.0
 76
     1
 77
     6
 78
     2
 67
     7
 79
     3
170
     0
171
     0
290
     0
174
     0
 93
        5
 44
0.0
173
     0
291
     0
 45
0.0
1001
ACAD
1000
AcDbSavedByObjectVersion
1070
     0
  0
VISUALSTYLE
  5
9E01
102
{ACAD_XDICTIONARY
360
BD32
102
}
102
{ACAD_REACTORS
330
9DF0
102
}
330
9DF0
100
AcDbVisualStyle
  2
Shades of Gray
 70
    23
 71
     2
 72
     2
 73
     3
 90
        0
 40
-0.6
 41
-30.0
 62
     5
 63
     7
 74
     2
 91
        2
 64
     7
 65
     7
 75
     1
175
     1
 42
40.0
 92
        8
 66
     7
 43
1.0
 76
     1
 77
     6
 78
     2
 67
     7
 79
     3
170
     0
171
     0
290
     0
174
     0
 93
        1
 44
0.0
173
     0
291
     0
 45
0.0
1001
ACAD
1000
AcDbSavedByObjectVersion
1070
     0
  0
VISUALSTYLE
  5
9E02
102
{ACAD_XDICTIONARY
360
BD34
102
}
102
{ACAD_REACTORS
330
9DF0
102
}
330
9DF0
100
AcDbVisualStyle
  2
Sketchy
 70
    24
 71
     1
 72
     2
 73
     2
 90
        0
 40
-0.6
 41
-30.0
 62
     5
 63
     7
 74
     2
 91
        2
 64
     7
 65
     7
 75
     1
175
     1
 42
40.0
 92
       11
 66
     7
 43
1.0
 76
     1
 77
     6
 78
     2
 67
     7
 79
     6
170
     0
171
     0
290
     0
174
     0
 93
        1
 44
0.0
173
     0
291
     0
 45
0.0
1001
ACAD
1000
AcDbSavedByObjectVersion
1070
     0
  0
VISUALSTYLE
  5
9DFD
102
{ACAD_XDICTIONARY
360
BD2A
102
}
102
{ACAD_REACTORS
330
9DF0
102
}
330
9DF0
100
AcDbVisualStyle
  2
Thicken
 70
    13
 71
     2
 72
     2
 73
     0
 90
        0
 40
-0.6
 41
-30.0
 62
     5
 63
     7
 74
     1
 91
        4
 64
     7
 65
   257
 75
     1
175
     1
 42
1.0
 92
       12
 66
     7
 43
1.0
 76
     1
 77
     6
 78
     2
 67
     7
 79
     5
170
     0
171
     0
290
     0
174
     0
 93
        1
 44
0.0
173
     0
291
     1
 45
0.0
1001
ACAD
1000
AcDbSavedByObjectVersion
1070
     0
  0
VISUALSTYLE
  5
9DF7
102
{ACAD_XDICTIONARY
360
BD1E
102
}
102
{ACAD_REACTORS
330
9DF0
102
}
330
9DF0
100
AcDbVisualStyle
  2
Wireframe
 70
     5
 71
     0
 72
     2
 73
     0
 90
        0
 40
-0.6
 41
-30.0
 62
     5
 63
     7
 74
     1
 91
        4
 64
     7
 65
   257
 75
     1
175
     1
 42
1.0
 92
        0
 66
   257
 43
1.0
 76
     1
 77
     6
 78
     2
 67
     7
 79
     3
170
     0
171
     0
290
     0
174
     0
 93
        1
 44
0.0
173
     0
291
     0
 45
0.0
1001
ACAD
1000
AcDbSavedByObjectVersion
1070
     0
  0
VISUALSTYLE
  5
9E03
102
{ACAD_XDICTIONARY
360
BD36
102
}
102
{ACAD_REACTORS
330
9DF0
102
}
330
9DF0
100
AcDbVisualStyle
  2
X-Ray
 70
    25
 71
     2
 72
     2
 73
     1
 90
        1
 40
0.5
 41
-30.0
 62
     5
 63
     7
 74
     1
 91
        0
 64
     7
 65
   257
 75
     1
175
     1
 42
1.0
 92
        8
 66
     7
 43
1.0
 76
     1
 77
     6
 78
     2
 67
     7
 79
     3
170
     0
171
     0
290
     0
174
     0
 93
       13
 44
0.0
173
     0
291
     0
 45
0.0
1001
ACAD
1000
AcDbSavedByObjectVersion
1070
     0
  0
DICTIONARYVAR
  5
BC72
102
{ACAD_REACTORS
330
5E
102
}
330
5E
100
DictionaryVariables
280
     0
  1
1:1
  0
DICTIONARYVAR
  5
BC6F
102
{ACAD_REACTORS
330
5E
102
}
330
5E
100
DictionaryVariables
280
     0
  1
STANDARD
  0
DICTIONARYVAR
  5
84
102
{ACAD_REACTORS
330
5E
102
}
330
5E
100
DictionaryVariables
280
     0
  1
STANDARD
  0
DICTIONARYVAR
  5
BC70
102
{ACAD_REACTORS
330
5E
102
}
330
5E
100
DictionaryVariables
280
     0
  1
Metric50
  0
DICTIONARYVAR
  5
BC71
102
{ACAD_REACTORS
330
5E
102
}
330
5E
100
DictionaryVariables
280
     0
  1
Metric50
  0
DICTIONARYVAR
  5
5F
102
{ACAD_REACTORS
330
5E
102
}
330
5E
100
DictionaryVariables
280
     0
  1
2
  0
DICTIONARYVAR
  5
63
102
{ACAD_REACTORS
330
5E
102
}
330
5E
100
DictionaryVariables
280
     0
  1
1
  0
DICTIONARYVAR
  5
BC74
102
{ACAD_REACTORS
330
5E
102
}
330
5E
100
DictionaryVariables
280
     0
  1
0
  0
DICTIONARYVAR
  5
66AB
102
{ACAD_REACTORS
330
5E
102
}
330
5E
100
DictionaryVariables
280
     0
  1

  0
DICTIONARYVAR
  5
BC73
102
{ACAD_REACTORS
330
5E
102
}
330
5E
100
DictionaryVariables
280
     0
  1
127
  0
DICTIONARYVAR
  5
BC75
102
{ACAD_REACTORS
330
5E
102
}
330
5E
100
DictionaryVariables
280
     0
  1
2
  0
DICTIONARY
  5
BD49
330
9EC9
100
AcDbDictionary
280
     1
281
     1
  3
ACAD_XREC_ROUNDTRIP
360
BD4A
  0
DICTIONARY
  5
BD45
330
9E20
100
AcDbDictionary
280
     1
281
     1
  3
ACAD_XREC_ROUNDTRIP
360
BD46
  0
DICTIONARY
  5
BD08
330
22
100
AcDbDictionary
280
     1
281
     1
  3
ACAD_XREC_ROUNDTRIP
360
BD09
  0
DICTIONARY
  5
BD0B
330
D3
100
AcDbDictionary
280
     1
281
     1
  3
ACAD_XREC_ROUNDTRIP
360
BD0C
  0
DICTIONARY
  5
BD0D
330
D7
100
AcDbDictionary
280
     1
281
     1
  3
ACAD_XREC_ROUNDTRIP
360
BD0E
  0
DICTIONARY
  5
9DE1
330
9DE0
100
AcDbDictionary
280
     1
281
     1
  3
ACAD_XREC_ROUNDTRIP
360
BD10
  3
BUMPTILE
360
9DE3
  3
DIFFUSETILE
360
9DE2
  3
OPACITYTILE
360
9DE6
  3
REFLECTIONTILE
360
9DE5
  3
REFRACTIONTILE
360
9DE7
  3
SPECULARTILE
360
9DE4
  0
DICTIONARY
  5
9DD9
330
9DD8
100
AcDbDictionary
280
     1
281
     1
  3
ACAD_XREC_ROUNDTRIP
360
BD0F
  3
BUMPTILE
360
9DDB
  3
DIFFUSETILE
360
9DDA
  3
OPACITYTILE
360
9DDE
  3
REFLECTIONTILE
360
9DDD
  3
REFRACTIONTILE
360
9DDF
  3
SPECULARTILE
360
9DDC
  0
DICTIONARY
  5
9DE9
330
9DE8
100
AcDbDictionary
280
     1
281
     1
  3
ACAD_XREC_ROUNDTRIP
360
BD11
  3
BUMPTILE
360
9DEB
  3
DIFFUSETILE
360
9DEA
  3
OPACITYTILE
360
9DEE
  3
REFLECTIONTILE
360
9DED
  3
REFRACTIONTILE
360
9DEF
  3
SPECULARTILE
360
9DEC
  0
DICTIONARY
  5
BD47
330
9EC8
100
AcDbDictionary
280
     1
281
     1
  3
ACAD_XREC_ROUNDTRIP
360
BD48
  0
DICTIONARY
  5
BD43
330
9E1E
100
AcDbDictionary
280
     1
281
     1
  3
ACAD_XREC_ROUNDTRIP
360
BD44
  0
DICTIONARY
  5
BD04
330
7F
100
AcDbDictionary
280
     1
281
     1
  3
ACAD_ROUNDTRIP_2008_TABLESTYLE_CELLSTYLEMAP
360
BD05
  3
ACAD_XREC_ROUNDTRIP
360
BD0A
  0
DICTIONARY
  5
BD1C
330
9DF6
100
AcDbDictionary
280
     1
281
     1
  3
ACAD_XREC_ROUNDTRIP
360
BD1D
  0
DICTIONARY
  5
BD1A
330
9DF5
100
AcDbDictionary
280
     1
281
     1
  3
ACAD_XREC_ROUNDTRIP
360
BD1B
  0
DICTIONARY
  5
BD28
330
9DFC
100
AcDbDictionary
280
     1
281
     1
  3
ACAD_XREC_ROUNDTRIP
360
BD29
  0
DICTIONARY
  5
BD30
330
9E00
100
AcDbDictionary
280
     1
281
     1
  3
ACAD_XREC_ROUNDTRIP
360
BD31
  0
DICTIONARY
  5
BD22
330
9DF9
100
AcDbDictionary
280
     1
281
     1
  3
ACAD_XREC_ROUNDTRIP
360
BD23
  0
DICTIONARY
  5
BD26
330
9DFB
100
AcDbDictionary
280
     1
281
     1
  3
ACAD_XREC_ROUNDTRIP
360
BD27
  0
DICTIONARY
  5
BD40
330
9E08
100
AcDbDictionary
280
     1
281
     1
  3
ACAD_XREC_ROUNDTRIP
360
BD41
  0
DICTIONARY
  5
BD2E
330
9DFF
100
AcDbDictionary
280
     1
281
     1
  3
ACAD_XREC_ROUNDTRIP
360
BD2F
  0
DICTIONARY
  5
BD12
330
9DF1
100
AcDbDictionary
280
     1
281
     1
  3
ACAD_XREC_ROUNDTRIP
360
BD13
  0
DICTIONARY
  5
BD14
330
9DF2
100
AcDbDictionary
280
     1
281
     1
  3
ACAD_XREC_ROUNDTRIP
360
BD15
  0
DICTIONARY
  5
BD16
330
9DF3
100
AcDbDictionary
280
     1
281
     1
  3
ACAD_XREC_ROUNDTRIP
360
BD17
  0
DICTIONARY
  5
BD18
330
9DF4
100
AcDbDictionary
280
     1
281
     1
  3
ACAD_XREC_ROUNDTRIP
360
BD19
  0
DICTIONARY
  5
BD20
330
9DF8
100
AcDbDictionary
280
     1
281
     1
  3
ACAD_XREC_ROUNDTRIP
360
BD21
  0
DICTIONARY
  5
BD3C
330
9E06
100
AcDbDictionary
280
     1
281
     1
  3
ACAD_XREC_ROUNDTRIP
360
BD3D
  0
DICTIONARY
  5
BD2C
330
9DFE
100
AcDbDictionary
280
     1
281
     1
  3
ACAD_XREC_ROUNDTRIP
360
BD2D
  0
DICTIONARY
  5
BD3E
330
9E07
100
AcDbDictionary
280
     1
281
     1
  3
ACAD_XREC_ROUNDTRIP
360
BD3F
  0
DICTIONARY
  5
BD24
330
9DFA
100
AcDbDictionary
280
     1
281
     1
  3
ACAD_XREC_ROUNDTRIP
360
BD25
  0
DICTIONARY
  5
BD3A
330
9E05
100
AcDbDictionary
280
     1
281
     1
  3
ACAD_XREC_ROUNDTRIP
360
BD3B
  0
DICTIONARY
  5
BD38
330
9E04
100
AcDbDictionary
280
     1
281
     1
  3
ACAD_XREC_ROUNDTRIP
360
BD39
  0
DICTIONARY
  5
BD32
330
9E01
100
AcDbDictionary
280
     1
281
     1
  3
ACAD_XREC_ROUNDTRIP
360
BD33
  0
DICTIONARY
  5
BD34
330
9E02
100
AcDbDictionary
280
     1
281
     1
  3
ACAD_XREC_ROUNDTRIP
360
BD35
  0
DICTIONARY
  5
BD2A
330
9DFD
100
AcDbDictionary
280
     1
281
     1
  3
ACAD_XREC_ROUNDTRIP
360
BD2B
  0
DICTIONARY
  5
BD1E
330
9DF7
100
AcDbDictionary
280
     1
281
     1
  3
ACAD_XREC_ROUNDTRIP
360
BD1F
  0
DICTIONARY
  5
BD36
330
9E03
100
AcDbDictionary
280
     1
281
     1
  3
ACAD_XREC_ROUNDTRIP
360
BD37
  0
XRECORD
  5
BD4A
102
{ACAD_REACTORS
330
BD49
102
}
330
BD49
100
AcDbXrecord
280
     1
102
DISPLAYNAME
  1
Imperial24
102
FLAGS
 90
        0
  0
XRECORD
  5
BD46
102
{ACAD_REACTORS
330
BD45
102
}
330
BD45
100
AcDbXrecord
280
     1
102
DISPLAYNAME
  1
Metric50
102
FLAGS
 90
        0
  0
XRECORD
  5
BD09
102
{ACAD_REACTORS
330
BD08
102
}
330
BD08
100
AcDbXrecord
280
     1
102
SHADEPLOT
 70
     0
102
SHADEPLOTRESLEVEL
 70
     2
102
SHADEPLOTCUSTOMDPI
 70
   300
  0
XRECORD
  5
BD0C
102
{ACAD_REACTORS
330
BD0B
102
}
330
BD0B
100
AcDbXrecord
280
     1
102
SHADEPLOT
 70
     0
102
SHADEPLOTRESLEVEL
 70
     2
102
SHADEPLOTCUSTOMDPI
 70
   300
  0
XRECORD
  5
BD0E
102
{ACAD_REACTORS
330
BD0D
102
}
330
BD0D
100
AcDbXrecord
280
     1
102
SHADEPLOT
 70
     0
102
SHADEPLOTRESLEVEL
 70
     2
102
SHADEPLOTCUSTOMDPI
 70
   300
  0
XRECORD
  5
BD10
102
{ACAD_REACTORS
330
9DE1
102
}
330
9DE1
100
AcDbXrecord
280
     1
102
MATERIAL
148
0.0
149
0.0
149
0.0
 93
        0
 94
      127
282
     0
 72
     0
 77
     0
171
     0
175
     0
179
     0
273
     0
  0
XRECORD
  5
9DE3
102
{ACAD_REACTORS
330
9DE1
102
}
330
9DE1
100
AcDbXrecord
280
     1
270
     1
271
     1
  0
XRECORD
  5
9DE2
102
{ACAD_REACTORS
330
9DE1
102
}
330
9DE1
100
AcDbXrecord
280
     1
270
     1
271
     1
  0
XRECORD
  5
9DE6
102
{ACAD_REACTORS
330
9DE1
102
}
330
9DE1
100
AcDbXrecord
280
     1
270
     1
271
     1
  0
XRECORD
  5
9DE5
102
{ACAD_REACTORS
330
9DE1
102
}
330
9DE1
100
AcDbXrecord
280
     1
270
     1
271
     1
  0
XRECORD
  5
9DE7
102
{ACAD_REACTORS
330
9DE1
102
}
330
9DE1
100
AcDbXrecord
280
     1
270
     1
271
     1
  0
XRECORD
  5
9DE4
102
{ACAD_REACTORS
330
9DE1
102
}
330
9DE1
100
AcDbXrecord
280
     1
270
     1
271
     1
  0
XRECORD
  5
BD0F
102
{ACAD_REACTORS
330
9DD9
102
}
330
9DD9
100
AcDbXrecord
280
     1
102
MATERIAL
148
0.0
149
0.0
149
0.0
 93
        0
 94
      127
282
     0
 72
     0
 77
     0
171
     0
175
     0
179
     0
273
     0
  0
XRECORD
  5
9DDB
102
{ACAD_REACTORS
330
9DD9
102
}
330
9DD9
100
AcDbXrecord
280
     1
270
     1
271
     1
  0
XRECORD
  5
9DDA
102
{ACAD_REACTORS
330
9DD9
102
}
330
9DD9
100
AcDbXrecord
280
     1
270
     1
271
     1
  0
XRECORD
  5
9DDE
102
{ACAD_REACTORS
330
9DD9
102
}
330
9DD9
100
AcDbXrecord
280
     1
270
     1
271
     1
  0
XRECORD
  5
9DDD
102
{ACAD_REACTORS
330
9DD9
102
}
330
9DD9
100
AcDbXrecord
280
     1
270
     1
271
     1
  0
XRECORD
  5
9DDF
102
{ACAD_REACTORS
330
9DD9
102
}
330
9DD9
100
AcDbXrecord
280
     1
270
     1
271
     1
  0
XRECORD
  5
9DDC
102
{ACAD_REACTORS
330
9DD9
102
}
330
9DD9
100
AcDbXrecord
280
     1
270
     1
271
     1
  0
XRECORD
  5
BD11
102
{ACAD_REACTORS
330
9DE9
102
}
330
9DE9
100
AcDbXrecord
280
     1
102
MATERIAL
148
0.0
149
0.0
149
0.0
 93
        0
 94
      127
282
     0
 72
     0
 77
     0
171
     0
175
     0
179
     0
273
     0
  0
XRECORD
  5
9DEB
102
{ACAD_REACTORS
330
9DE9
102
}
330
9DE9
100
AcDbXrecord
280
     1
270
     1
271
     1
  0
XRECORD
  5
9DEA
102
{ACAD_REACTORS
330
9DE9
102
}
330
9DE9
100
AcDbXrecord
280
     1
270
     1
271
     1
  0
XRECORD
  5
9DEE
102
{ACAD_REACTORS
330
9DE9
102
}
330
9DE9
100
AcDbXrecord
280
     1
270
     1
271
     1
  0
XRECORD
  5
9DED
102
{ACAD_REACTORS
330
9DE9
102
}
330
9DE9
100
AcDbXrecord
280
     1
270
     1
271
     1
  0
XRECORD
  5
9DEF
102
{ACAD_REACTORS
330
9DE9
102
}
330
9DE9
100
AcDbXrecord
280
     1
270
     1
271
     1
  0
XRECORD
  5
9DEC
102
{ACAD_REACTORS
330
9DE9
102
}
330
9DE9
100
AcDbXrecord
280
     1
270
     1
271
     1
  0
XRECORD
  5
BD48
102
{ACAD_REACTORS
330
BD47
102
}
330
BD47
100
AcDbXrecord
280
     1
102
DISPLAYNAME
  1
Imperial24
102
FLAGS
 90
        0
  0
XRECORD
  5
BD44
102
{ACAD_REACTORS
330
BD43
102
}
330
BD43
100
AcDbXrecord
280
     1
102
DISPLAYNAME
  1
Metric50
102
FLAGS
 90
        0
  0
CELLSTYLEMAP
  5
BD05
102
{ACAD_REACTORS
330
BD04
102
}
330
BD04
100
AcDbCellStyleMap
 90
        3
300
CELLSTYLE
  1
TABLEFORMAT_BEGIN
 90
        5
170
     1
 91
        0
 92
    32768
 62
   257
 93
        1
300
CONTENTFORMAT
  1
CONTENTFORMAT_BEGIN
 90
        0
 91
        0
 92
        4
 93
        0
300

 40
0.0
140
1.0
 94
        5
 62
     0
340
11
144
6.0
309
CONTENTFORMAT_END
171
     1
301
MARGIN
  1
CELLMARGIN_BEGIN
 40
1.5
 40
1.5
 40
1.5
 40
1.5
 40
0.18
 40
0.18
309
CELLMARGIN_END
 94
        6
 95
        1
302
GRIDFORMAT
  1
GRIDFORMAT_BEGIN
 90
        0
 91
        1
 62
     0
 92
       -2
340
0
 93
        0
 40
0.045
309
GRIDFORMAT_END
 95
        2
302
GRIDFORMAT
  1
GRIDFORMAT_BEGIN
 90
        0
 91
        1
 62
     0
 92
       -2
340
0
 93
        0
 40
0.045
309
GRIDFORMAT_END
 95
        4
302
GRIDFORMAT
  1
GRIDFORMAT_BEGIN
 90
        0
 91
        1
 62
     0
 92
       -2
340
0
 93
        0
 40
0.045
309
GRIDFORMAT_END
 95
        8
302
GRIDFORMAT
  1
GRIDFORMAT_BEGIN
 90
        0
 91
        1
 62
     0
 92
       -2
340
0
 93
        0
 40
0.045
309
GRIDFORMAT_END
 95
       16
302
GRIDFORMAT
  1
GRIDFORMAT_BEGIN
 90
        0
 91
        1
 62
     0
 92
       -2
340
0
 93
        0
 40
0.045
309
GRIDFORMAT_END
 95
       32
302
GRIDFORMAT
  1
GRIDFORMAT_BEGIN
 90
        0
 91
        1
 62
     0
 92
       -2
340
0
 93
        0
 40
0.045
309
GRIDFORMAT_END
309
TABLEFORMAT_END
  1
CELLSTYLE_BEGIN
 90
        1
 91
        1
300
_TITLE
309
CELLSTYLE_END
300
CELLSTYLE
  1
TABLEFORMAT_BEGIN
 90
        5
170
     1
 91
        0
 92
        0
 62
   257
 93
        1
300
CONTENTFORMAT
  1
CONTENTFORMAT_BEGIN
 90
        0
 91
        0
 92
        4
 93
        0
300

 40
0.0
140
1.0
 94
        5
 62
     0
340
11
144
4.5
309
CONTENTFORMAT_END
171
     1
301
MARGIN
  1
CELLMARGIN_BEGIN
 40
1.5
 40
1.5
 40
1.5
 40
1.5
 40
0.18
 40
0.18
309
CELLMARGIN_END
 94
        6
 95
        1
302
GRIDFORMAT
  1
GRIDFORMAT_BEGIN
 90
        0
 91
        1
 62
     0
 92
       -2
340
0
 93
        0
 40
0.045
309
GRIDFORMAT_END
 95
        2
302
GRIDFORMAT
  1
GRIDFORMAT_BEGIN
 90
        0
 91
        1
 62
     0
 92
       -2
340
0
 93
        0
 40
0.045
309
GRIDFORMAT_END
 95
        4
302
GRIDFORMAT
  1
GRIDFORMAT_BEGIN
 90
        0
 91
        1
 62
     0
 92
       -2
340
0
 93
        0
 40
0.045
309
GRIDFORMAT_END
 95
        8
302
GRIDFORMAT
  1
GRIDFORMAT_BEGIN
 90
        0
 91
        1
 62
     0
 92
       -2
340
0
 93
        0
 40
0.045
309
GRIDFORMAT_END
 95
       16
302
GRIDFORMAT
  1
GRIDFORMAT_BEGIN
 90
        0
 91
        1
 62
     0
 92
       -2
340
0
 93
        0
 40
0.045
309
GRIDFORMAT_END
 95
       32
302
GRIDFORMAT
  1
GRIDFORMAT_BEGIN
 90
        0
 91
        1
 62
     0
 92
       -2
340
0
 93
        0
 40
0.045
309
GRIDFORMAT_END
309
TABLEFORMAT_END
  1
CELLSTYLE_BEGIN
 90
        2
 91
        1
300
_HEADER
309
CELLSTYLE_END
300
CELLSTYLE
  1
TABLEFORMAT_BEGIN
 90
        5
170
     1
 91
        0
 92
        0
 62
   257
 93
        1
300
CONTENTFORMAT
  1
CONTENTFORMAT_BEGIN
 90
        0
 91
        0
 92
        4
 93
        0
300

 40
0.0
140
1.0
 94
        2
 62
     0
340
11
144
4.5
309
CONTENTFORMAT_END
171
     1
301
MARGIN
  1
CELLMARGIN_BEGIN
 40
1.5
 40
1.5
 40
1.5
 40
1.5
 40
0.18
 40
0.18
309
CELLMARGIN_END
 94
        6
 95
        1
302
GRIDFORMAT
  1
GRIDFORMAT_BEGIN
 90
        0
 91
        1
 62
     0
 92
       -2
340
0
 93
        0
 40
0.045
309
GRIDFORMAT_END
 95
        2
302
GRIDFORMAT
  1
GRIDFORMAT_BEGIN
 90
        0
 91
        1
 62
     0
 92
       -2
340
0
 93
        0
 40
0.045
309
GRIDFORMAT_END
 95
        4
302
GRIDFORMAT
  1
GRIDFORMAT_BEGIN
 90
        0
 91
        1
 62
     0
 92
       -2
340
0
 93
        0
 40
0.045
309
GRIDFORMAT_END
 95
        8
302
GRIDFORMAT
  1
GRIDFORMAT_BEGIN
 90
        0
 91
        1
 62
     0
 92
       -2
340
0
 93
        0
 40
0.045
309
GRIDFORMAT_END
 95
       16
302
GRIDFORMAT
  1
GRIDFORMAT_BEGIN
 90
        0
 91
        1
 62
     0
 92
       -2
340
0
 93
        0
 40
0.045
309
GRIDFORMAT_END
 95
       32
302
GRIDFORMAT
  1
GRIDFORMAT_BEGIN
 90
        0
 91
        1
 62
     0
 92
       -2
340
0
 93
        0
 40
0.045
309
GRIDFORMAT_END
309
TABLEFORMAT_END
  1
CELLSTYLE_BEGIN
 90
        3
 91
        2
300
_DATA
309
CELLSTYLE_END
  0
XRECORD
  5
BD0A
102
{ACAD_REACTORS
330
BD04
102
}
330
BD04
100
AcDbXrecord
280
     1
102
ACAD_ROUNDTRIP_PRE2007_TABLESTYLE
 90
        4
 91
        0
  1

 92
        4
 93
        0
  2

 94
        4
 95
        0
  3

  0
XRECORD
  5
BD1D
102
{ACAD_REACTORS
330
BD1C
102
}
330
BD1C
100
AcDbXrecord
280
     1
102
RTVSPost2010Prop28
280
     1
102
RTVSPost2010PropOp28
 70
     1
102
RTVSPost2010Prop29
280
     1
102
RTVSPost2010PropOp29
 70
     1
102
RTVSPost2010Prop30
280
     0
102
RTVSPost2010PropOp30
 70
     1
102
RTVSPost2010Prop31
280
     0
102
RTVSPost2010PropOp31
 70
     1
102
RTVSPost2010Prop32
280
     0
102
RTVSPost2010PropOp32
 70
     1
102
RTVSPost2010Prop33
280
     0
102
RTVSPost2010PropOp33
 70
     1
102
RTVSPost2010Prop34
280
     0
102
RTVSPost2010PropOp34
 70
     1
102
RTVSPost2010Prop35
280
     0
102
RTVSPost2010PropOp35
 70
     1
102
RTVSPost2010Prop36
280
     0
102
RTVSPost2010PropOp36
 70
     1
102
RTVSPost2010Prop37
 90
       50
102
RTVSPost2010PropOp37
 70
     1
102
RTVSPost2010Prop38
140
0.0
102
RTVSPost2010PropOp38
 70
     1
102
RTVSPost2010Prop39
140
1.0
102
RTVSPost2010PropOp39
 70
     1
102
RTVSPost2010Prop40
 90
        0
102
RTVSPost2010PropOp40
 70
     1
102
RTVSPost2010Prop41ColorIndex
 90
       18
102
RTVSPost2010Prop41ColorRGB
 90
        0
102
RTVSPost2010PropOp41
 70
     1
102
RTVSPost2010Prop42
 90
       50
102
RTVSPost2010PropOp42
 70
     1
102
RTVSPost2010Prop43
 90
        3
102
RTVSPost2010PropOp43
 70
     1
102
RTVSPost2010Prop44ColorIndex
 90
        5
102
RTVSPost2010Prop44ColorRGB
 90
      255
102
RTVSPost2010PropOp44
 70
     1
102
RTVSPost2010Prop45
280
     0
102
RTVSPost2010PropOp45
 70
     1
102
RTVSPost2010Prop46
 90
       50
102
RTVSPost2010PropOp46
 70
     1
102
RTVSPost2010Prop47
 90
       50
102
RTVSPost2010PropOp47
 70
     1
102
RTVSPost2010Prop48
 90
       50
102
RTVSPost2010PropOp48
 70
     1
102
RTVSPost2010Prop49
280
     0
102
RTVSPost2010PropOp49
 70
     1
102
RTVSPost2010Prop50
 90
       50
102
RTVSPost2010PropOp50
 70
     1
102
RTVSPost2010Prop51ColorIndex
 90
      256
102
RTVSPost2010Prop51ColorRGB
 90
-16777216
102
RTVSPost2010PropOp51
 70
     0
102
RTVSPost2010Prop52
140
1.0
102
RTVSPost2010PropOp52
 70
     0
102
RTVSPost2010Prop53
 90
        2
102
RTVSPost2010PropOp53
 70
     1
102
RTVSPost2010Prop54
  1
strokes_ogs.tif
102
RTVSPost2010PropOp54
 70
     1
102
RTVSPost2010Prop55
280
     0
102
RTVSPost2010PropOp55
 70
     1
102
RTVSPost2010Prop56
140
1.0
102
RTVSPost2010PropOp56
 70
     1
102
RTVSPost2010Prop57
140
1.0
102
RTVSPost2010PropOp57
 70
     1
102
RTVSPropertyOp0
 70
     1
102
RTVSPropertyOp1
 70
     1
102
RTVSPropertyOp2
 70
     1
102
RTVSPropertyOp3
 70
     1
102
RTVSPropertyOp4
 70
     1
102
RTVSPropertyOp5
 70
     1
102
RTVSPropertyOp6
 70
     1
102
RTVSPropertyOp7
 70
     1
102
RTVSPropertyOp8
 70
     1
102
RTVSPropertyOp9
 70
     1
102
RTVSPropertyOp10
 70
     1
102
RTVSPropertyOp11
 70
     1
102
RTVSPropertyOp12
 70
     1
102
RTVSPropertyOp13
 70
     1
102
RTVSPropertyOp14
 70
     1
102
RTVSPropertyOp15
 70
     1
102
RTVSPropertyOp16
 70
     1
102
RTVSPropertyOp17
 70
     1
102
RTVSPropertyOp18
 70
     1
102
RTVSPropertyOp19
 70
     1
102
RTVSPropertyOp20
 70
     1
102
RTVSPropertyOp21
 70
     1
102
RTVSPropertyOp22
 70
     1
102
RTVSPropertyOp23
 70
     1
102
RTVSPropertyOp24
 70
     1
102
RTVSPropertyOp25
 70
     1
102
RTVSPropertyOp26
 70
     1
102
RTVSPropertyOp27
 70
     1
102
RTVSPropertyOp28
 70
     1
102
RTVSPropertyOp29
 70
     1
102
RTVSPropertyOp30
 70
     1
102
RTVSPropertyOp31
 70
     1
102
RTVSPropertyOp32
 70
     1
102
RTVSPropertyOp33
 70
     1
102
RTVSPropertyOp34
 70
     1
102
RTVSPropertyOp35
 70
     1
102
RTVSPropertyOp36
 70
     1
102
RTVSPropertyOp37
 70
     1
102
RTVSPropertyOp38
 70
     1
102
RTVSPropertyOp39
 70
     1
102
RTVSPropertyOp40
 70
     1
102
RTVSPropertyOp41
 70
     1
102
RTVSPropertyOp42
 70
     1
102
RTVSPropertyOp43
 70
     1
102
RTVSPropertyOp44
 70
     1
102
RTVSPropertyOp45
 70
     1
102
RTVSPropertyOp46
 70
     1
102
RTVSPropertyOp47
 70
     1
102
RTVSPropertyOp48
 70
     1
102
RTVSPropertyOp49
 70
     1
102
RTVSPropertyOp50
 70
     1
102
RTVSPropertyOp51
 70
     0
102
RTVSPropertyOp52
 70
     0
102
RTVSPropertyOp53
 70
     1
102
RTVSPropertyOp54
 70
     1
102
RTVSPropertyOp55
 70
     1
102
RTVSPropertyOp56
 70
     1
102
RTVSPropertyOp57
 70
     1
102
RTVSPropertyOp58
 70
     1
102
RTVSPropertyOp59
 70
     1
102
RTVSPropertyOp60
 70
     1
102
RTVSPropertyOp61
 70
     1
102
RTVSPropertyOp62
 70
     1
  0
XRECORD
  5
BD1B
102
{ACAD_REACTORS
330
BD1A
102
}
330
BD1A
100
AcDbXrecord
280
     1
102
RTVSPost2010Prop28
280
     0
102
RTVSPost2010PropOp28
 70
     1
102
RTVSPost2010Prop29
280
     1
102
RTVSPost2010PropOp29
 70
     1
102
RTVSPost2010Prop30
280
     1
102
RTVSPost2010PropOp30
 70
     1
102
RTVSPost2010Prop31
280
     0
102
RTVSPost2010PropOp31
 70
     1
102
RTVSPost2010Prop32
280
     0
102
RTVSPost2010PropOp32
 70
     1
102
RTVSPost2010Prop33
280
     0
102
RTVSPost2010PropOp33
 70
     1
102
RTVSPost2010Prop34
280
     0
102
RTVSPost2010PropOp34
 70
     1
102
RTVSPost2010Prop35
280
     0
102
RTVSPost2010PropOp35
 70
     1
102
RTVSPost2010Prop36
280
     0
102
RTVSPost2010PropOp36
 70
     1
102
RTVSPost2010Prop37
 90
       50
102
RTVSPost2010PropOp37
 70
     1
102
RTVSPost2010Prop38
140
0.0
102
RTVSPost2010PropOp38
 70
     1
102
RTVSPost2010Prop39
140
1.0
102
RTVSPost2010PropOp39
 70
     1
102
RTVSPost2010Prop40
 90
        0
102
RTVSPost2010PropOp40
 70
     1
102
RTVSPost2010Prop41ColorIndex
 90
       18
102
RTVSPost2010Prop41ColorRGB
 90
        0
102
RTVSPost2010PropOp41
 70
     1
102
RTVSPost2010Prop42
 90
       50
102
RTVSPost2010PropOp42
 70
     1
102
RTVSPost2010Prop43
 90
        3
102
RTVSPost2010PropOp43
 70
     1
102
RTVSPost2010Prop44ColorIndex
 90
        5
102
RTVSPost2010Prop44ColorRGB
 90
      255
102
RTVSPost2010PropOp44
 70
     1
102
RTVSPost2010Prop45
280
     0
102
RTVSPost2010PropOp45
 70
     1
102
RTVSPost2010Prop46
 90
       50
102
RTVSPost2010PropOp46
 70
     1
102
RTVSPost2010Prop47
 90
       50
102
RTVSPost2010PropOp47
 70
     1
102
RTVSPost2010Prop48
 90
       50
102
RTVSPost2010PropOp48
 70
     1
102
RTVSPost2010Prop49
280
     0
102
RTVSPost2010PropOp49
 70
     1
102
RTVSPost2010Prop50
 90
       50
102
RTVSPost2010PropOp50
 70
     1
102
RTVSPost2010Prop51ColorIndex
 90
      256
102
RTVSPost2010Prop51ColorRGB
 90
-16777216
102
RTVSPost2010PropOp51
 70
     0
102
RTVSPost2010Prop52
140
1.0
102
RTVSPost2010PropOp52
 70
     0
102
RTVSPost2010Prop53
 90
        2
102
RTVSPost2010PropOp53
 70
     1
102
RTVSPost2010Prop54
  1
strokes_ogs.tif
102
RTVSPost2010PropOp54
 70
     1
102
RTVSPost2010Prop55
280
     0
102
RTVSPost2010PropOp55
 70
     1
102
RTVSPost2010Prop56
140
1.0
102
RTVSPost2010PropOp56
 70
     1
102
RTVSPost2010Prop57
140
1.0
102
RTVSPost2010PropOp57
 70
     1
102
RTVSPropertyOp0
 70
     1
102
RTVSPropertyOp1
 70
     1
102
RTVSPropertyOp2
 70
     1
102
RTVSPropertyOp3
 70
     1
102
RTVSPropertyOp4
 70
     1
102
RTVSPropertyOp5
 70
     1
102
RTVSPropertyOp6
 70
     1
102
RTVSPropertyOp7
 70
     1
102
RTVSPropertyOp8
 70
     1
102
RTVSPropertyOp9
 70
     1
102
RTVSPropertyOp10
 70
     1
102
RTVSPropertyOp11
 70
     1
102
RTVSPropertyOp12
 70
     1
102
RTVSPropertyOp13
 70
     1
102
RTVSPropertyOp14
 70
     1
102
RTVSPropertyOp15
 70
     1
102
RTVSPropertyOp16
 70
     1
102
RTVSPropertyOp17
 70
     1
102
RTVSPropertyOp18
 70
     1
102
RTVSPropertyOp19
 70
     1
102
RTVSPropertyOp20
 70
     1
102
RTVSPropertyOp21
 70
     1
102
RTVSPropertyOp22
 70
     1
102
RTVSPropertyOp23
 70
     1
102
RTVSPropertyOp24
 70
     1
102
RTVSPropertyOp25
 70
     1
102
RTVSPropertyOp26
 70
     1
102
RTVSPropertyOp27
 70
     1
102
RTVSPropertyOp28
 70
     1
102
RTVSPropertyOp29
 70
     1
102
RTVSPropertyOp30
 70
     1
102
RTVSPropertyOp31
 70
     1
102
RTVSPropertyOp32
 70
     1
102
RTVSPropertyOp33
 70
     1
102
RTVSPropertyOp34
 70
     1
102
RTVSPropertyOp35
 70
     1
102
RTVSPropertyOp36
 70
     1
102
RTVSPropertyOp37
 70
     1
102
RTVSPropertyOp38
 70
     1
102
RTVSPropertyOp39
 70
     1
102
RTVSPropertyOp40
 70
     1
102
RTVSPropertyOp41
 70
     1
102
RTVSPropertyOp42
 70
     1
102
RTVSPropertyOp43
 70
     1
102
RTVSPropertyOp44
 70
     1
102
RTVSPropertyOp45
 70
     1
102
RTVSPropertyOp46
 70
     1
102
RTVSPropertyOp47
 70
     1
102
RTVSPropertyOp48
 70
     1
102
RTVSPropertyOp49
 70
     1
102
RTVSPropertyOp50
 70
     1
102
RTVSPropertyOp51
 70
     0
102
RTVSPropertyOp52
 70
     0
102
RTVSPropertyOp53
 70
     1
102
RTVSPropertyOp54
 70
     1
102
RTVSPropertyOp55
 70
     1
102
RTVSPropertyOp56
 70
     1
102
RTVSPropertyOp57
 70
     1
102
RTVSPropertyOp58
 70
     1
102
RTVSPropertyOp59
 70
     1
102
RTVSPropertyOp60
 70
     1
102
RTVSPropertyOp61
 70
     1
102
RTVSPropertyOp62
 70
     1
  0
XRECORD
  5
BD29
102
{ACAD_REACTORS
330
BD28
102
}
330
BD28
100
AcDbXrecord
280
     1
102
RTVSPost2010Prop28
280
     0
102
RTVSPost2010PropOp28
 70
     1
102
RTVSPost2010Prop29
280
     1
102
RTVSPost2010PropOp29
 70
     1
102
RTVSPost2010Prop30
280
     1
102
RTVSPost2010PropOp30
 70
     1
102
RTVSPost2010Prop31
280
     0
102
RTVSPost2010PropOp31
 70
     1
102
RTVSPost2010Prop32
280
     0
102
RTVSPost2010PropOp32
 70
     1
102
RTVSPost2010Prop33
280
     0
102
RTVSPost2010PropOp33
 70
     1
102
RTVSPost2010Prop34
280
     0
102
RTVSPost2010PropOp34
 70
     1
102
RTVSPost2010Prop35
280
     0
102
RTVSPost2010PropOp35
 70
     1
102
RTVSPost2010Prop36
280
     0
102
RTVSPost2010PropOp36
 70
     1
102
RTVSPost2010Prop37
 90
       50
102
RTVSPost2010PropOp37
 70
     1
102
RTVSPost2010Prop38
140
0.0
102
RTVSPost2010PropOp38
 70
     1
102
RTVSPost2010Prop39
140
1.0
102
RTVSPost2010PropOp39
 70
     1
102
RTVSPost2010Prop40
 90
        0
102
RTVSPost2010PropOp40
 70
     1
102
RTVSPost2010Prop41ColorIndex
 90
       18
102
RTVSPost2010Prop41ColorRGB
 90
        0
102
RTVSPost2010PropOp41
 70
     1
102
RTVSPost2010Prop42
 90
       50
102
RTVSPost2010PropOp42
 70
     1
102
RTVSPost2010Prop43
 90
        3
102
RTVSPost2010PropOp43
 70
     1
102
RTVSPost2010Prop44ColorIndex
 90
        5
102
RTVSPost2010Prop44ColorRGB
 90
      255
102
RTVSPost2010PropOp44
 70
     1
102
RTVSPost2010Prop45
280
     0
102
RTVSPost2010PropOp45
 70
     1
102
RTVSPost2010Prop46
 90
       50
102
RTVSPost2010PropOp46
 70
     1
102
RTVSPost2010Prop47
 90
       50
102
RTVSPost2010PropOp47
 70
     1
102
RTVSPost2010Prop48
 90
       50
102
RTVSPost2010PropOp48
 70
     1
102
RTVSPost2010Prop49
280
     0
102
RTVSPost2010PropOp49
 70
     1
102
RTVSPost2010Prop50
 90
       50
102
RTVSPost2010PropOp50
 70
     1
102
RTVSPost2010Prop51ColorIndex
 90
      256
102
RTVSPost2010Prop51ColorRGB
 90
-16777216
102
RTVSPost2010PropOp51
 70
     0
102
RTVSPost2010Prop52
140
1.0
102
RTVSPost2010PropOp52
 70
     0
102
RTVSPost2010Prop53
 90
        2
102
RTVSPost2010PropOp53
 70
     1
102
RTVSPost2010Prop54
  1
strokes_ogs.tif
102
RTVSPost2010PropOp54
 70
     1
102
RTVSPost2010Prop55
280
     0
102
RTVSPost2010PropOp55
 70
     1
102
RTVSPost2010Prop56
140
1.0
102
RTVSPost2010PropOp56
 70
     1
102
RTVSPost2010Prop57
140
1.0
102
RTVSPost2010PropOp57
 70
     1
102
RTVSPropertyOp0
 70
     1
102
RTVSPropertyOp1
 70
     1
102
RTVSPropertyOp2
 70
     1
102
RTVSPropertyOp3
 70
     1
102
RTVSPropertyOp4
 70
     1
102
RTVSPropertyOp5
 70
     1
102
RTVSPropertyOp6
 70
     1
102
RTVSPropertyOp7
 70
     1
102
RTVSPropertyOp8
 70
     1
102
RTVSPropertyOp9
 70
     1
102
RTVSPropertyOp10
 70
     1
102
RTVSPropertyOp11
 70
     1
102
RTVSPropertyOp12
 70
     1
102
RTVSPropertyOp13
 70
     1
102
RTVSPropertyOp14
 70
     1
102
RTVSPropertyOp15
 70
     1
102
RTVSPropertyOp16
 70
     1
102
RTVSPropertyOp17
 70
     1
102
RTVSPropertyOp18
 70
     1
102
RTVSPropertyOp19
 70
     1
102
RTVSPropertyOp20
 70
     1
102
RTVSPropertyOp21
 70
     1
102
RTVSPropertyOp22
 70
     1
102
RTVSPropertyOp23
 70
     1
102
RTVSPropertyOp24
 70
     1
102
RTVSPropertyOp25
 70
     1
102
RTVSPropertyOp26
 70
     1
102
RTVSPropertyOp27
 70
     1
102
RTVSPropertyOp28
 70
     1
102
RTVSPropertyOp29
 70
     1
102
RTVSPropertyOp30
 70
     1
102
RTVSPropertyOp31
 70
     1
102
RTVSPropertyOp32
 70
     1
102
RTVSPropertyOp33
 70
     1
102
RTVSPropertyOp34
 70
     1
102
RTVSPropertyOp35
 70
     1
102
RTVSPropertyOp36
 70
     1
102
RTVSPropertyOp37
 70
     1
102
RTVSPropertyOp38
 70
     1
102
RTVSPropertyOp39
 70
     1
102
RTVSPropertyOp40
 70
     1
102
RTVSPropertyOp41
 70
     1
102
RTVSPropertyOp42
 70
     1
102
RTVSPropertyOp43
 70
     1
102
RTVSPropertyOp44
 70
     1
102
RTVSPropertyOp45
 70
     1
102
RTVSPropertyOp46
 70
     1
102
RTVSPropertyOp47
 70
     1
102
RTVSPropertyOp48
 70
     1
102
RTVSPropertyOp49
 70
     1
102
RTVSPropertyOp50
 70
     1
102
RTVSPropertyOp51
 70
     0
102
RTVSPropertyOp52
 70
     0
102
RTVSPropertyOp53
 70
     1
102
RTVSPropertyOp54
 70
     1
102
RTVSPropertyOp55
 70
     1
102
RTVSPropertyOp56
 70
     1
102
RTVSPropertyOp57
 70
     1
102
RTVSPropertyOp58
 70
     1
102
RTVSPropertyOp59
 70
     1
102
RTVSPropertyOp60
 70
     1
102
RTVSPropertyOp61
 70
     1
102
RTVSPropertyOp62
 70
     1
  0
XRECORD
  5
BD31
102
{ACAD_REACTORS
330
BD30
102
}
330
BD30
100
AcDbXrecord
280
     1
102
RTVSPost2010Prop28
280
     0
102
RTVSPost2010PropOp28
 70
     1
102
RTVSPost2010Prop29
280
     1
102
RTVSPost2010PropOp29
 70
     1
102
RTVSPost2010Prop30
280
     1
102
RTVSPost2010PropOp30
 70
     1
102
RTVSPost2010Prop31
280
     0
102
RTVSPost2010PropOp31
 70
     1
102
RTVSPost2010Prop32
280
     0
102
RTVSPost2010PropOp32
 70
     1
102
RTVSPost2010Prop33
280
     0
102
RTVSPost2010PropOp33
 70
     1
102
RTVSPost2010Prop34
280
     0
102
RTVSPost2010PropOp34
 70
     1
102
RTVSPost2010Prop35
280
     0
102
RTVSPost2010PropOp35
 70
     1
102
RTVSPost2010Prop36
280
     0
102
RTVSPost2010PropOp36
 70
     1
102
RTVSPost2010Prop37
 90
       50
102
RTVSPost2010PropOp37
 70
     1
102
RTVSPost2010Prop38
140
0.0
102
RTVSPost2010PropOp38
 70
     1
102
RTVSPost2010Prop39
140
1.0
102
RTVSPost2010PropOp39
 70
     1
102
RTVSPost2010Prop40
 90
        0
102
RTVSPost2010PropOp40
 70
     1
102
RTVSPost2010Prop41ColorIndex
 90
       18
102
RTVSPost2010Prop41ColorRGB
 90
        0
102
RTVSPost2010PropOp41
 70
     1
102
RTVSPost2010Prop42
 90
       50
102
RTVSPost2010PropOp42
 70
     1
102
RTVSPost2010Prop43
 90
        3
102
RTVSPost2010PropOp43
 70
     1
102
RTVSPost2010Prop44ColorIndex
 90
        5
102
RTVSPost2010Prop44ColorRGB
 90
      255
102
RTVSPost2010PropOp44
 70
     1
102
RTVSPost2010Prop45
280
     0
102
RTVSPost2010PropOp45
 70
     1
102
RTVSPost2010Prop46
 90
       50
102
RTVSPost2010PropOp46
 70
     1
102
RTVSPost2010Prop47
 90
       50
102
RTVSPost2010PropOp47
 70
     1
102
RTVSPost2010Prop48
 90
       50
102
RTVSPost2010PropOp48
 70
     1
102
RTVSPost2010Prop49
280
     0
102
RTVSPost2010PropOp49
 70
     1
102
RTVSPost2010Prop50
 90
       50
102
RTVSPost2010PropOp50
 70
     1
102
RTVSPost2010Prop51ColorIndex
 90
      256
102
RTVSPost2010Prop51ColorRGB
 90
-16777216
102
RTVSPost2010PropOp51
 70
     0
102
RTVSPost2010Prop52
140
1.0
102
RTVSPost2010PropOp52
 70
     0
102
RTVSPost2010Prop53
 90
        2
102
RTVSPost2010PropOp53
 70
     1
102
RTVSPost2010Prop54
  1
strokes_ogs.tif
102
RTVSPost2010PropOp54
 70
     1
102
RTVSPost2010Prop55
280
     0
102
RTVSPost2010PropOp55
 70
     1
102
RTVSPost2010Prop56
140
1.0
102
RTVSPost2010PropOp56
 70
     1
102
RTVSPost2010Prop57
140
1.0
102
RTVSPost2010PropOp57
 70
     1
102
RTVSPropertyOp0
 70
     1
102
RTVSPropertyOp1
 70
     1
102
RTVSPropertyOp2
 70
     1
102
RTVSPropertyOp3
 70
     1
102
RTVSPropertyOp4
 70
     1
102
RTVSPropertyOp5
 70
     1
102
RTVSPropertyOp6
 70
     1
102
RTVSPropertyOp7
 70
     1
102
RTVSPropertyOp8
 70
     1
102
RTVSPropertyOp9
 70
     1
102
RTVSPropertyOp10
 70
     1
102
RTVSPropertyOp11
 70
     1
102
RTVSPropertyOp12
 70
     1
102
RTVSPropertyOp13
 70
     1
102
RTVSPropertyOp14
 70
     1
102
RTVSPropertyOp15
 70
     1
102
RTVSPropertyOp16
 70
     1
102
RTVSPropertyOp17
 70
     1
102
RTVSPropertyOp18
 70
     1
102
RTVSPropertyOp19
 70
     1
102
RTVSPropertyOp20
 70
     1
102
RTVSPropertyOp21
 70
     1
102
RTVSPropertyOp22
 70
     1
102
RTVSPropertyOp23
 70
     1
102
RTVSPropertyOp24
 70
     1
102
RTVSPropertyOp25
 70
     1
102
RTVSPropertyOp26
 70
     1
102
RTVSPropertyOp27
 70
     1
102
RTVSPropertyOp28
 70
     1
102
RTVSPropertyOp29
 70
     1
102
RTVSPropertyOp30
 70
     1
102
RTVSPropertyOp31
 70
     1
102
RTVSPropertyOp32
 70
     1
102
RTVSPropertyOp33
 70
     1
102
RTVSPropertyOp34
 70
     1
102
RTVSPropertyOp35
 70
     1
102
RTVSPropertyOp36
 70
     1
102
RTVSPropertyOp37
 70
     1
102
RTVSPropertyOp38
 70
     1
102
RTVSPropertyOp39
 70
     1
102
RTVSPropertyOp40
 70
     1
102
RTVSPropertyOp41
 70
     1
102
RTVSPropertyOp42
 70
     1
102
RTVSPropertyOp43
 70
     1
102
RTVSPropertyOp44
 70
     1
102
RTVSPropertyOp45
 70
     1
102
RTVSPropertyOp46
 70
     1
102
RTVSPropertyOp47
 70
     1
102
RTVSPropertyOp48
 70
     1
102
RTVSPropertyOp49
 70
     1
102
RTVSPropertyOp50
 70
     1
102
RTVSPropertyOp51
 70
     0
102
RTVSPropertyOp52
 70
     0
102
RTVSPropertyOp53
 70
     1
102
RTVSPropertyOp54
 70
     1
102
RTVSPropertyOp55
 70
     1
102
RTVSPropertyOp56
 70
     1
102
RTVSPropertyOp57
 70
     1
102
RTVSPropertyOp58
 70
     1
102
RTVSPropertyOp59
 70
     1
102
RTVSPropertyOp60
 70
     1
102
RTVSPropertyOp61
 70
     1
102
RTVSPropertyOp62
 70
     1
  0
XRECORD
  5
BD23
102
{ACAD_REACTORS
330
BD22
102
}
330
BD22
100
AcDbXrecord
280
     1
102
RTVSPost2010Prop28
280
     0
102
RTVSPost2010PropOp28
 70
     1
102
RTVSPost2010Prop29
280
     1
102
RTVSPost2010PropOp29
 70
     1
102
RTVSPost2010Prop30
280
     1
102
RTVSPost2010PropOp30
 70
     1
102
RTVSPost2010Prop31
280
     0
102
RTVSPost2010PropOp31
 70
     1
102
RTVSPost2010Prop32
280
     0
102
RTVSPost2010PropOp32
 70
     1
102
RTVSPost2010Prop33
280
     0
102
RTVSPost2010PropOp33
 70
     1
102
RTVSPost2010Prop34
280
     0
102
RTVSPost2010PropOp34
 70
     1
102
RTVSPost2010Prop35
280
     0
102
RTVSPost2010PropOp35
 70
     1
102
RTVSPost2010Prop36
280
     0
102
RTVSPost2010PropOp36
 70
     1
102
RTVSPost2010Prop37
 90
       50
102
RTVSPost2010PropOp37
 70
     1
102
RTVSPost2010Prop38
140
0.0
102
RTVSPost2010PropOp38
 70
     1
102
RTVSPost2010Prop39
140
1.0
102
RTVSPost2010PropOp39
 70
     1
102
RTVSPost2010Prop40
 90
        0
102
RTVSPost2010PropOp40
 70
     1
102
RTVSPost2010Prop41ColorIndex
 90
       18
102
RTVSPost2010Prop41ColorRGB
 90
        0
102
RTVSPost2010PropOp41
 70
     1
102
RTVSPost2010Prop42
 90
       50
102
RTVSPost2010PropOp42
 70
     1
102
RTVSPost2010Prop43
 90
        3
102
RTVSPost2010PropOp43
 70
     1
102
RTVSPost2010Prop44ColorIndex
 90
        5
102
RTVSPost2010Prop44ColorRGB
 90
      255
102
RTVSPost2010PropOp44
 70
     1
102
RTVSPost2010Prop45
280
     0
102
RTVSPost2010PropOp45
 70
     1
102
RTVSPost2010Prop46
 90
       50
102
RTVSPost2010PropOp46
 70
     1
102
RTVSPost2010Prop47
 90
       50
102
RTVSPost2010PropOp47
 70
     1
102
RTVSPost2010Prop48
 90
       50
102
RTVSPost2010PropOp48
 70
     1
102
RTVSPost2010Prop49
280
     0
102
RTVSPost2010PropOp49
 70
     1
102
RTVSPost2010Prop50
 90
       50
102
RTVSPost2010PropOp50
 70
     1
102
RTVSPost2010Prop51ColorIndex
 90
      256
102
RTVSPost2010Prop51ColorRGB
 90
-16777216
102
RTVSPost2010PropOp51
 70
     0
102
RTVSPost2010Prop52
140
1.0
102
RTVSPost2010PropOp52
 70
     0
102
RTVSPost2010Prop53
 90
        2
102
RTVSPost2010PropOp53
 70
     1
102
RTVSPost2010Prop54
  1
strokes_ogs.tif
102
RTVSPost2010PropOp54
 70
     1
102
RTVSPost2010Prop55
280
     0
102
RTVSPost2010PropOp55
 70
     1
102
RTVSPost2010Prop56
140
1.0
102
RTVSPost2010PropOp56
 70
     1
102
RTVSPost2010Prop57
140
1.0
102
RTVSPost2010PropOp57
 70
     1
102
RTVSPropertyOp0
 70
     1
102
RTVSPropertyOp1
 70
     1
102
RTVSPropertyOp2
 70
     1
102
RTVSPropertyOp3
 70
     1
102
RTVSPropertyOp4
 70
     1
102
RTVSPropertyOp5
 70
     1
102
RTVSPropertyOp6
 70
     1
102
RTVSPropertyOp7
 70
     1
102
RTVSPropertyOp8
 70
     1
102
RTVSPropertyOp9
 70
     1
102
RTVSPropertyOp10
 70
     1
102
RTVSPropertyOp11
 70
     1
102
RTVSPropertyOp12
 70
     1
102
RTVSPropertyOp13
 70
     1
102
RTVSPropertyOp14
 70
     1
102
RTVSPropertyOp15
 70
     1
102
RTVSPropertyOp16
 70
     1
102
RTVSPropertyOp17
 70
     1
102
RTVSPropertyOp18
 70
     1
102
RTVSPropertyOp19
 70
     1
102
RTVSPropertyOp20
 70
     1
102
RTVSPropertyOp21
 70
     1
102
RTVSPropertyOp22
 70
     1
102
RTVSPropertyOp23
 70
     1
102
RTVSPropertyOp24
 70
     1
102
RTVSPropertyOp25
 70
     1
102
RTVSPropertyOp26
 70
     1
102
RTVSPropertyOp27
 70
     1
102
RTVSPropertyOp28
 70
     1
102
RTVSPropertyOp29
 70
     1
102
RTVSPropertyOp30
 70
     1
102
RTVSPropertyOp31
 70
     1
102
RTVSPropertyOp32
 70
     1
102
RTVSPropertyOp33
 70
     1
102
RTVSPropertyOp34
 70
     1
102
RTVSPropertyOp35
 70
     1
102
RTVSPropertyOp36
 70
     1
102
RTVSPropertyOp37
 70
     1
102
RTVSPropertyOp38
 70
     1
102
RTVSPropertyOp39
 70
     1
102
RTVSPropertyOp40
 70
     1
102
RTVSPropertyOp41
 70
     1
102
RTVSPropertyOp42
 70
     1
102
RTVSPropertyOp43
 70
     1
102
RTVSPropertyOp44
 70
     1
102
RTVSPropertyOp45
 70
     1
102
RTVSPropertyOp46
 70
     1
102
RTVSPropertyOp47
 70
     1
102
RTVSPropertyOp48
 70
     1
102
RTVSPropertyOp49
 70
     1
102
RTVSPropertyOp50
 70
     1
102
RTVSPropertyOp51
 70
     0
102
RTVSPropertyOp52
 70
     0
102
RTVSPropertyOp53
 70
     1
102
RTVSPropertyOp54
 70
     1
102
RTVSPropertyOp55
 70
     1
102
RTVSPropertyOp56
 70
     1
102
RTVSPropertyOp57
 70
     1
102
RTVSPropertyOp58
 70
     1
102
RTVSPropertyOp59
 70
     1
102
RTVSPropertyOp60
 70
     1
102
RTVSPropertyOp61
 70
     1
102
RTVSPropertyOp62
 70
     1
  0
XRECORD
  5
BD27
102
{ACAD_REACTORS
330
BD26
102
}
330
BD26
100
AcDbXrecord
280
     1
102
RTVSPost2010Prop28
280
     0
102
RTVSPost2010PropOp28
 70
     1
102
RTVSPost2010Prop29
280
     1
102
RTVSPost2010PropOp29
 70
     1
102
RTVSPost2010Prop30
280
     1
102
RTVSPost2010PropOp30
 70
     1
102
RTVSPost2010Prop31
280
     0
102
RTVSPost2010PropOp31
 70
     1
102
RTVSPost2010Prop32
280
     0
102
RTVSPost2010PropOp32
 70
     1
102
RTVSPost2010Prop33
280
     0
102
RTVSPost2010PropOp33
 70
     1
102
RTVSPost2010Prop34
280
     0
102
RTVSPost2010PropOp34
 70
     1
102
RTVSPost2010Prop35
280
     0
102
RTVSPost2010PropOp35
 70
     1
102
RTVSPost2010Prop36
280
     0
102
RTVSPost2010PropOp36
 70
     1
102
RTVSPost2010Prop37
 90
       50
102
RTVSPost2010PropOp37
 70
     1
102
RTVSPost2010Prop38
140
0.0
102
RTVSPost2010PropOp38
 70
     1
102
RTVSPost2010Prop39
140
1.0
102
RTVSPost2010PropOp39
 70
     1
102
RTVSPost2010Prop40
 90
        0
102
RTVSPost2010PropOp40
 70
     1
102
RTVSPost2010Prop41ColorIndex
 90
       18
102
RTVSPost2010Prop41ColorRGB
 90
        0
102
RTVSPost2010PropOp41
 70
     1
102
RTVSPost2010Prop42
 90
       50
102
RTVSPost2010PropOp42
 70
     1
102
RTVSPost2010Prop43
 90
        3
102
RTVSPost2010PropOp43
 70
     1
102
RTVSPost2010Prop44ColorIndex
 90
        5
102
RTVSPost2010Prop44ColorRGB
 90
      255
102
RTVSPost2010PropOp44
 70
     1
102
RTVSPost2010Prop45
280
     0
102
RTVSPost2010PropOp45
 70
     1
102
RTVSPost2010Prop46
 90
       50
102
RTVSPost2010PropOp46
 70
     1
102
RTVSPost2010Prop47
 90
       50
102
RTVSPost2010PropOp47
 70
     1
102
RTVSPost2010Prop48
 90
       50
102
RTVSPost2010PropOp48
 70
     1
102
RTVSPost2010Prop49
280
     0
102
RTVSPost2010PropOp49
 70
     1
102
RTVSPost2010Prop50
 90
       50
102
RTVSPost2010PropOp50
 70
     1
102
RTVSPost2010Prop51ColorIndex
 90
      256
102
RTVSPost2010Prop51ColorRGB
 90
-16777216
102
RTVSPost2010PropOp51
 70
     0
102
RTVSPost2010Prop52
140
1.0
102
RTVSPost2010PropOp52
 70
     0
102
RTVSPost2010Prop53
 90
        2
102
RTVSPost2010PropOp53
 70
     1
102
RTVSPost2010Prop54
  1
strokes_ogs.tif
102
RTVSPost2010PropOp54
 70
     1
102
RTVSPost2010Prop55
280
     0
102
RTVSPost2010PropOp55
 70
     1
102
RTVSPost2010Prop56
140
1.0
102
RTVSPost2010PropOp56
 70
     1
102
RTVSPost2010Prop57
140
1.0
102
RTVSPost2010PropOp57
 70
     1
102
RTVSPropertyOp0
 70
     1
102
RTVSPropertyOp1
 70
     1
102
RTVSPropertyOp2
 70
     1
102
RTVSPropertyOp3
 70
     1
102
RTVSPropertyOp4
 70
     1
102
RTVSPropertyOp5
 70
     1
102
RTVSPropertyOp6
 70
     1
102
RTVSPropertyOp7
 70
     1
102
RTVSPropertyOp8
 70
     1
102
RTVSPropertyOp9
 70
     1
102
RTVSPropertyOp10
 70
     1
102
RTVSPropertyOp11
 70
     1
102
RTVSPropertyOp12
 70
     1
102
RTVSPropertyOp13
 70
     1
102
RTVSPropertyOp14
 70
     1
102
RTVSPropertyOp15
 70
     1
102
RTVSPropertyOp16
 70
     1
102
RTVSPropertyOp17
 70
     1
102
RTVSPropertyOp18
 70
     1
102
RTVSPropertyOp19
 70
     1
102
RTVSPropertyOp20
 70
     1
102
RTVSPropertyOp21
 70
     1
102
RTVSPropertyOp22
 70
     1
102
RTVSPropertyOp23
 70
     1
102
RTVSPropertyOp24
 70
     1
102
RTVSPropertyOp25
 70
     1
102
RTVSPropertyOp26
 70
     1
102
RTVSPropertyOp27
 70
     1
102
RTVSPropertyOp28
 70
     1
102
RTVSPropertyOp29
 70
     1
102
RTVSPropertyOp30
 70
     1
102
RTVSPropertyOp31
 70
     1
102
RTVSPropertyOp32
 70
     1
102
RTVSPropertyOp33
 70
     1
102
RTVSPropertyOp34
 70
     1
102
RTVSPropertyOp35
 70
     1
102
RTVSPropertyOp36
 70
     1
102
RTVSPropertyOp37
 70
     1
102
RTVSPropertyOp38
 70
     1
102
RTVSPropertyOp39
 70
     1
102
RTVSPropertyOp40
 70
     1
102
RTVSPropertyOp41
 70
     1
102
RTVSPropertyOp42
 70
     1
102
RTVSPropertyOp43
 70
     1
102
RTVSPropertyOp44
 70
     1
102
RTVSPropertyOp45
 70
     1
102
RTVSPropertyOp46
 70
     1
102
RTVSPropertyOp47
 70
     1
102
RTVSPropertyOp48
 70
     1
102
RTVSPropertyOp49
 70
     1
102
RTVSPropertyOp50
 70
     1
102
RTVSPropertyOp51
 70
     0
102
RTVSPropertyOp52
 70
     0
102
RTVSPropertyOp53
 70
     1
102
RTVSPropertyOp54
 70
     1
102
RTVSPropertyOp55
 70
     1
102
RTVSPropertyOp56
 70
     1
102
RTVSPropertyOp57
 70
     1
102
RTVSPropertyOp58
 70
     1
102
RTVSPropertyOp59
 70
     1
102
RTVSPropertyOp60
 70
     1
102
RTVSPropertyOp61
 70
     1
102
RTVSPropertyOp62
 70
     1
  0
XRECORD
  5
BD41
102
{ACAD_REACTORS
330
BD40
102
}
330
BD40
100
AcDbXrecord
280
     1
102
RTVSPost2010Prop28
280
     0
102
RTVSPost2010PropOp28
 70
     1
102
RTVSPost2010Prop29
280
     1
102
RTVSPost2010PropOp29
 70
     1
102
RTVSPost2010Prop30
280
     1
102
RTVSPost2010PropOp30
 70
     1
102
RTVSPost2010Prop31
280
     0
102
RTVSPost2010PropOp31
 70
     1
102
RTVSPost2010Prop32
280
     0
102
RTVSPost2010PropOp32
 70
     1
102
RTVSPost2010Prop33
280
     0
102
RTVSPost2010PropOp33
 70
     1
102
RTVSPost2010Prop34
280
     0
102
RTVSPost2010PropOp34
 70
     1
102
RTVSPost2010Prop35
280
     0
102
RTVSPost2010PropOp35
 70
     1
102
RTVSPost2010Prop36
280
     0
102
RTVSPost2010PropOp36
 70
     1
102
RTVSPost2010Prop37
 90
       50
102
RTVSPost2010PropOp37
 70
     0
102
RTVSPost2010Prop38
140
0.0
102
RTVSPost2010PropOp38
 70
     0
102
RTVSPost2010Prop39
140
1.0
102
RTVSPost2010PropOp39
 70
     0
102
RTVSPost2010Prop40
 90
        0
102
RTVSPost2010PropOp40
 70
     0
102
RTVSPost2010Prop41ColorIndex
 90
       18
102
RTVSPost2010Prop41ColorRGB
 90
        0
102
RTVSPost2010PropOp41
 70
     0
102
RTVSPost2010Prop42
 90
       50
102
RTVSPost2010PropOp42
 70
     0
102
RTVSPost2010Prop43
 90
        3
102
RTVSPost2010PropOp43
 70
     0
102
RTVSPost2010Prop44ColorIndex
 90
        5
102
RTVSPost2010Prop44ColorRGB
 90
      255
102
RTVSPost2010PropOp44
 70
     0
102
RTVSPost2010Prop45
280
     0
102
RTVSPost2010PropOp45
 70
     1
102
RTVSPost2010Prop46
 90
       50
102
RTVSPost2010PropOp46
 70
     0
102
RTVSPost2010Prop47
 90
       50
102
RTVSPost2010PropOp47
 70
     0
102
RTVSPost2010Prop48
 90
       50
102
RTVSPost2010PropOp48
 70
     0
102
RTVSPost2010Prop49
280
     0
102
RTVSPost2010PropOp49
 70
     1
102
RTVSPost2010Prop50
 90
       50
102
RTVSPost2010PropOp50
 70
     0
102
RTVSPost2010Prop51ColorIndex
 90
      256
102
RTVSPost2010Prop51ColorRGB
 90
-16777216
102
RTVSPost2010PropOp51
 70
     0
102
RTVSPost2010Prop52
140
1.0
102
RTVSPost2010PropOp52
 70
     0
102
RTVSPost2010Prop53
 90
        2
102
RTVSPost2010PropOp53
 70
     0
102
RTVSPost2010Prop54
  1
strokes_ogs.tif
102
RTVSPost2010PropOp54
 70
     0
102
RTVSPost2010Prop55
280
     0
102
RTVSPost2010PropOp55
 70
     1
102
RTVSPost2010Prop56
140
1.0
102
RTVSPost2010PropOp56
 70
     0
102
RTVSPost2010Prop57
140
1.0
102
RTVSPost2010PropOp57
 70
     0
102
RTVSPropertyOp0
 70
     0
102
RTVSPropertyOp1
 70
     0
102
RTVSPropertyOp2
 70
     0
102
RTVSPropertyOp3
 70
     0
102
RTVSPropertyOp4
 70
     0
102
RTVSPropertyOp5
 70
     0
102
RTVSPropertyOp6
 70
     0
102
RTVSPropertyOp7
 70
     0
102
RTVSPropertyOp8
 70
     0
102
RTVSPropertyOp9
 70
     0
102
RTVSPropertyOp10
 70
     0
102
RTVSPropertyOp11
 70
     0
102
RTVSPropertyOp12
 70
     0
102
RTVSPropertyOp13
 70
     0
102
RTVSPropertyOp14
 70
     2
102
RTVSPropertyOp15
 70
     0
102
RTVSPropertyOp16
 70
     0
102
RTVSPropertyOp17
 70
     0
102
RTVSPropertyOp18
 70
     0
102
RTVSPropertyOp19
 70
     0
102
RTVSPropertyOp20
 70
     0
102
RTVSPropertyOp21
 70
     0
102
RTVSPropertyOp22
 70
     0
102
RTVSPropertyOp23
 70
     0
102
RTVSPropertyOp24
 70
     0
102
RTVSPropertyOp25
 70
     0
102
RTVSPropertyOp26
 70
     0
102
RTVSPropertyOp27
 70
     0
102
RTVSPropertyOp28
 70
     1
102
RTVSPropertyOp29
 70
     1
102
RTVSPropertyOp30
 70
     1
102
RTVSPropertyOp31
 70
     1
102
RTVSPropertyOp32
 70
     1
102
RTVSPropertyOp33
 70
     1
102
RTVSPropertyOp34
 70
     1
102
RTVSPropertyOp35
 70
     1
102
RTVSPropertyOp36
 70
     1
102
RTVSPropertyOp37
 70
     0
102
RTVSPropertyOp38
 70
     0
102
RTVSPropertyOp39
 70
     0
102
RTVSPropertyOp40
 70
     0
102
RTVSPropertyOp41
 70
     0
102
RTVSPropertyOp42
 70
     0
102
RTVSPropertyOp43
 70
     0
102
RTVSPropertyOp44
 70
     0
102
RTVSPropertyOp45
 70
     1
102
RTVSPropertyOp46
 70
     0
102
RTVSPropertyOp47
 70
     0
102
RTVSPropertyOp48
 70
     0
102
RTVSPropertyOp49
 70
     1
102
RTVSPropertyOp50
 70
     0
102
RTVSPropertyOp51
 70
     0
102
RTVSPropertyOp52
 70
     0
102
RTVSPropertyOp53
 70
     0
102
RTVSPropertyOp54
 70
     0
102
RTVSPropertyOp55
 70
     1
102
RTVSPropertyOp56
 70
     0
102
RTVSPropertyOp57
 70
     0
102
RTVSPropertyOp58
 70
     0
102
RTVSPropertyOp59
 70
     0
102
RTVSPropertyOp60
 70
     0
102
RTVSPropertyOp61
 70
     0
102
RTVSPropertyOp62
 70
     0
  0
XRECORD
  5
BD2F
102
{ACAD_REACTORS
330
BD2E
102
}
330
BD2E
100
AcDbXrecord
280
     1
102
RTVSPost2010Prop28
280
     0
102
RTVSPost2010PropOp28
 70
     1
102
RTVSPost2010Prop29
280
     1
102
RTVSPost2010PropOp29
 70
     1
102
RTVSPost2010Prop30
280
     1
102
RTVSPost2010PropOp30
 70
     1
102
RTVSPost2010Prop31
280
     0
102
RTVSPost2010PropOp31
 70
     1
102
RTVSPost2010Prop32
280
     0
102
RTVSPost2010PropOp32
 70
     1
102
RTVSPost2010Prop33
280
     0
102
RTVSPost2010PropOp33
 70
     1
102
RTVSPost2010Prop34
280
     0
102
RTVSPost2010PropOp34
 70
     1
102
RTVSPost2010Prop35
280
     0
102
RTVSPost2010PropOp35
 70
     1
102
RTVSPost2010Prop36
280
     0
102
RTVSPost2010PropOp36
 70
     1
102
RTVSPost2010Prop37
 90
       50
102
RTVSPost2010PropOp37
 70
     1
102
RTVSPost2010Prop38
140
0.0
102
RTVSPost2010PropOp38
 70
     1
102
RTVSPost2010Prop39
140
1.0
102
RTVSPost2010PropOp39
 70
     1
102
RTVSPost2010Prop40
 90
        0
102
RTVSPost2010PropOp40
 70
     1
102
RTVSPost2010Prop41ColorIndex
 90
       18
102
RTVSPost2010Prop41ColorRGB
 90
        0
102
RTVSPost2010PropOp41
 70
     1
102
RTVSPost2010Prop42
 90
       50
102
RTVSPost2010PropOp42
 70
     1
102
RTVSPost2010Prop43
 90
        3
102
RTVSPost2010PropOp43
 70
     1
102
RTVSPost2010Prop44ColorIndex
 90
        5
102
RTVSPost2010Prop44ColorRGB
 90
      255
102
RTVSPost2010PropOp44
 70
     1
102
RTVSPost2010Prop45
280
     0
102
RTVSPost2010PropOp45
 70
     1
102
RTVSPost2010Prop46
 90
       50
102
RTVSPost2010PropOp46
 70
     1
102
RTVSPost2010Prop47
 90
       50
102
RTVSPost2010PropOp47
 70
     1
102
RTVSPost2010Prop48
 90
       50
102
RTVSPost2010PropOp48
 70
     1
102
RTVSPost2010Prop49
280
     0
102
RTVSPost2010PropOp49
 70
     1
102
RTVSPost2010Prop50
 90
       50
102
RTVSPost2010PropOp50
 70
     1
102
RTVSPost2010Prop51ColorIndex
 90
      256
102
RTVSPost2010Prop51ColorRGB
 90
-16777216
102
RTVSPost2010PropOp51
 70
     0
102
RTVSPost2010Prop52
140
1.0
102
RTVSPost2010PropOp52
 70
     0
102
RTVSPost2010Prop53
 90
        2
102
RTVSPost2010PropOp53
 70
     1
102
RTVSPost2010Prop54
  1
strokes_ogs.tif
102
RTVSPost2010PropOp54
 70
     1
102
RTVSPost2010Prop55
280
     0
102
RTVSPost2010PropOp55
 70
     1
102
RTVSPost2010Prop56
140
1.0
102
RTVSPost2010PropOp56
 70
     1
102
RTVSPost2010Prop57
140
1.0
102
RTVSPost2010PropOp57
 70
     1
102
RTVSPropertyOp0
 70
     1
102
RTVSPropertyOp1
 70
     1
102
RTVSPropertyOp2
 70
     1
102
RTVSPropertyOp3
 70
     1
102
RTVSPropertyOp4
 70
     1
102
RTVSPropertyOp5
 70
     1
102
RTVSPropertyOp6
 70
     1
102
RTVSPropertyOp7
 70
     1
102
RTVSPropertyOp8
 70
     1
102
RTVSPropertyOp9
 70
     1
102
RTVSPropertyOp10
 70
     1
102
RTVSPropertyOp11
 70
     1
102
RTVSPropertyOp12
 70
     1
102
RTVSPropertyOp13
 70
     1
102
RTVSPropertyOp14
 70
     1
102
RTVSPropertyOp15
 70
     1
102
RTVSPropertyOp16
 70
     1
102
RTVSPropertyOp17
 70
     1
102
RTVSPropertyOp18
 70
     1
102
RTVSPropertyOp19
 70
     1
102
RTVSPropertyOp20
 70
     1
102
RTVSPropertyOp21
 70
     1
102
RTVSPropertyOp22
 70
     1
102
RTVSPropertyOp23
 70
     1
102
RTVSPropertyOp24
 70
     1
102
RTVSPropertyOp25
 70
     1
102
RTVSPropertyOp26
 70
     1
102
RTVSPropertyOp27
 70
     1
102
RTVSPropertyOp28
 70
     1
102
RTVSPropertyOp29
 70
     1
102
RTVSPropertyOp30
 70
     1
102
RTVSPropertyOp31
 70
     1
102
RTVSPropertyOp32
 70
     1
102
RTVSPropertyOp33
 70
     1
102
RTVSPropertyOp34
 70
     1
102
RTVSPropertyOp35
 70
     1
102
RTVSPropertyOp36
 70
     1
102
RTVSPropertyOp37
 70
     1
102
RTVSPropertyOp38
 70
     1
102
RTVSPropertyOp39
 70
     1
102
RTVSPropertyOp40
 70
     1
102
RTVSPropertyOp41
 70
     1
102
RTVSPropertyOp42
 70
     1
102
RTVSPropertyOp43
 70
     1
102
RTVSPropertyOp44
 70
     1
102
RTVSPropertyOp45
 70
     1
102
RTVSPropertyOp46
 70
     1
102
RTVSPropertyOp47
 70
     1
102
RTVSPropertyOp48
 70
     1
102
RTVSPropertyOp49
 70
     1
102
RTVSPropertyOp50
 70
     1
102
RTVSPropertyOp51
 70
     0
102
RTVSPropertyOp52
 70
     0
102
RTVSPropertyOp53
 70
     1
102
RTVSPropertyOp54
 70
     1
102
RTVSPropertyOp55
 70
     1
102
RTVSPropertyOp56
 70
     1
102
RTVSPropertyOp57
 70
     1
102
RTVSPropertyOp58
 70
     1
102
RTVSPropertyOp59
 70
     1
102
RTVSPropertyOp60
 70
     1
102
RTVSPropertyOp61
 70
     1
102
RTVSPropertyOp62
 70
     1
  0
XRECORD
  5
BD13
102
{ACAD_REACTORS
330
BD12
102
}
330
BD12
100
AcDbXrecord
280
     1
102
RTVSPost2010Prop28
280
     0
102
RTVSPost2010PropOp28
 70
     1
102
RTVSPost2010Prop29
280
     1
102
RTVSPost2010PropOp29
 70
     1
102
RTVSPost2010Prop30
280
     1
102
RTVSPost2010PropOp30
 70
     1
102
RTVSPost2010Prop31
280
     0
102
RTVSPost2010PropOp31
 70
     1
102
RTVSPost2010Prop32
280
     0
102
RTVSPost2010PropOp32
 70
     1
102
RTVSPost2010Prop33
280
     0
102
RTVSPost2010PropOp33
 70
     1
102
RTVSPost2010Prop34
280
     0
102
RTVSPost2010PropOp34
 70
     1
102
RTVSPost2010Prop35
280
     0
102
RTVSPost2010PropOp35
 70
     1
102
RTVSPost2010Prop36
280
     0
102
RTVSPost2010PropOp36
 70
     1
102
RTVSPost2010Prop37
 90
       50
102
RTVSPost2010PropOp37
 70
     1
102
RTVSPost2010Prop38
140
0.0
102
RTVSPost2010PropOp38
 70
     1
102
RTVSPost2010Prop39
140
1.0
102
RTVSPost2010PropOp39
 70
     1
102
RTVSPost2010Prop40
 90
        0
102
RTVSPost2010PropOp40
 70
     1
102
RTVSPost2010Prop41ColorIndex
 90
       18
102
RTVSPost2010Prop41ColorRGB
 90
        0
102
RTVSPost2010PropOp41
 70
     1
102
RTVSPost2010Prop42
 90
       50
102
RTVSPost2010PropOp42
 70
     1
102
RTVSPost2010Prop43
 90
        3
102
RTVSPost2010PropOp43
 70
     1
102
RTVSPost2010Prop44ColorIndex
 90
        5
102
RTVSPost2010Prop44ColorRGB
 90
      255
102
RTVSPost2010PropOp44
 70
     1
102
RTVSPost2010Prop45
280
     0
102
RTVSPost2010PropOp45
 70
     1
102
RTVSPost2010Prop46
 90
       50
102
RTVSPost2010PropOp46
 70
     1
102
RTVSPost2010Prop47
 90
       50
102
RTVSPost2010PropOp47
 70
     1
102
RTVSPost2010Prop48
 90
       50
102
RTVSPost2010PropOp48
 70
     1
102
RTVSPost2010Prop49
280
     0
102
RTVSPost2010PropOp49
 70
     1
102
RTVSPost2010Prop50
 90
       50
102
RTVSPost2010PropOp50
 70
     1
102
RTVSPost2010Prop51ColorIndex
 90
      256
102
RTVSPost2010Prop51ColorRGB
 90
-16777216
102
RTVSPost2010PropOp51
 70
     0
102
RTVSPost2010Prop52
140
1.0
102
RTVSPost2010PropOp52
 70
     0
102
RTVSPost2010Prop53
 90
        2
102
RTVSPost2010PropOp53
 70
     1
102
RTVSPost2010Prop54
  1
strokes_ogs.tif
102
RTVSPost2010PropOp54
 70
     1
102
RTVSPost2010Prop55
280
     0
102
RTVSPost2010PropOp55
 70
     1
102
RTVSPost2010Prop56
140
1.0
102
RTVSPost2010PropOp56
 70
     1
102
RTVSPost2010Prop57
140
1.0
102
RTVSPost2010PropOp57
 70
     1
102
RTVSPropertyOp0
 70
     1
102
RTVSPropertyOp1
 70
     1
102
RTVSPropertyOp2
 70
     1
102
RTVSPropertyOp3
 70
     1
102
RTVSPropertyOp4
 70
     1
102
RTVSPropertyOp5
 70
     1
102
RTVSPropertyOp6
 70
     1
102
RTVSPropertyOp7
 70
     1
102
RTVSPropertyOp8
 70
     1
102
RTVSPropertyOp9
 70
     1
102
RTVSPropertyOp10
 70
     1
102
RTVSPropertyOp11
 70
     1
102
RTVSPropertyOp12
 70
     1
102
RTVSPropertyOp13
 70
     1
102
RTVSPropertyOp14
 70
     1
102
RTVSPropertyOp15
 70
     1
102
RTVSPropertyOp16
 70
     1
102
RTVSPropertyOp17
 70
     1
102
RTVSPropertyOp18
 70
     1
102
RTVSPropertyOp19
 70
     1
102
RTVSPropertyOp20
 70
     1
102
RTVSPropertyOp21
 70
     1
102
RTVSPropertyOp22
 70
     1
102
RTVSPropertyOp23
 70
     1
102
RTVSPropertyOp24
 70
     1
102
RTVSPropertyOp25
 70
     1
102
RTVSPropertyOp26
 70
     1
102
RTVSPropertyOp27
 70
     1
102
RTVSPropertyOp28
 70
     1
102
RTVSPropertyOp29
 70
     1
102
RTVSPropertyOp30
 70
     1
102
RTVSPropertyOp31
 70
     1
102
RTVSPropertyOp32
 70
     1
102
RTVSPropertyOp33
 70
     1
102
RTVSPropertyOp34
 70
     1
102
RTVSPropertyOp35
 70
     1
102
RTVSPropertyOp36
 70
     1
102
RTVSPropertyOp37
 70
     1
102
RTVSPropertyOp38
 70
     1
102
RTVSPropertyOp39
 70
     1
102
RTVSPropertyOp40
 70
     1
102
RTVSPropertyOp41
 70
     1
102
RTVSPropertyOp42
 70
     1
102
RTVSPropertyOp43
 70
     1
102
RTVSPropertyOp44
 70
     1
102
RTVSPropertyOp45
 70
     1
102
RTVSPropertyOp46
 70
     1
102
RTVSPropertyOp47
 70
     1
102
RTVSPropertyOp48
 70
     1
102
RTVSPropertyOp49
 70
     1
102
RTVSPropertyOp50
 70
     1
102
RTVSPropertyOp51
 70
     0
102
RTVSPropertyOp52
 70
     0
102
RTVSPropertyOp53
 70
     1
102
RTVSPropertyOp54
 70
     1
102
RTVSPropertyOp55
 70
     1
102
RTVSPropertyOp56
 70
     1
102
RTVSPropertyOp57
 70
     1
102
RTVSPropertyOp58
 70
     1
102
RTVSPropertyOp59
 70
     1
102
RTVSPropertyOp60
 70
     1
102
RTVSPropertyOp61
 70
     1
102
RTVSPropertyOp62
 70
     1
  0
XRECORD
  5
BD15
102
{ACAD_REACTORS
330
BD14
102
}
330
BD14
100
AcDbXrecord
280
     1
102
RTVSPost2010Prop28
280
     0
102
RTVSPost2010PropOp28
 70
     1
102
RTVSPost2010Prop29
280
     1
102
RTVSPost2010PropOp29
 70
     1
102
RTVSPost2010Prop30
280
     1
102
RTVSPost2010PropOp30
 70
     1
102
RTVSPost2010Prop31
280
     0
102
RTVSPost2010PropOp31
 70
     1
102
RTVSPost2010Prop32
280
     0
102
RTVSPost2010PropOp32
 70
     1
102
RTVSPost2010Prop33
280
     0
102
RTVSPost2010PropOp33
 70
     1
102
RTVSPost2010Prop34
280
     0
102
RTVSPost2010PropOp34
 70
     1
102
RTVSPost2010Prop35
280
     0
102
RTVSPost2010PropOp35
 70
     1
102
RTVSPost2010Prop36
280
     0
102
RTVSPost2010PropOp36
 70
     1
102
RTVSPost2010Prop37
 90
       50
102
RTVSPost2010PropOp37
 70
     1
102
RTVSPost2010Prop38
140
0.0
102
RTVSPost2010PropOp38
 70
     1
102
RTVSPost2010Prop39
140
1.0
102
RTVSPost2010PropOp39
 70
     1
102
RTVSPost2010Prop40
 90
        0
102
RTVSPost2010PropOp40
 70
     1
102
RTVSPost2010Prop41ColorIndex
 90
       18
102
RTVSPost2010Prop41ColorRGB
 90
        0
102
RTVSPost2010PropOp41
 70
     1
102
RTVSPost2010Prop42
 90
       50
102
RTVSPost2010PropOp42
 70
     1
102
RTVSPost2010Prop43
 90
        3
102
RTVSPost2010PropOp43
 70
     1
102
RTVSPost2010Prop44ColorIndex
 90
        5
102
RTVSPost2010Prop44ColorRGB
 90
      255
102
RTVSPost2010PropOp44
 70
     1
102
RTVSPost2010Prop45
280
     0
102
RTVSPost2010PropOp45
 70
     1
102
RTVSPost2010Prop46
 90
       50
102
RTVSPost2010PropOp46
 70
     1
102
RTVSPost2010Prop47
 90
       50
102
RTVSPost2010PropOp47
 70
     1
102
RTVSPost2010Prop48
 90
       50
102
RTVSPost2010PropOp48
 70
     1
102
RTVSPost2010Prop49
280
     0
102
RTVSPost2010PropOp49
 70
     1
102
RTVSPost2010Prop50
 90
       50
102
RTVSPost2010PropOp50
 70
     1
102
RTVSPost2010Prop51ColorIndex
 90
      256
102
RTVSPost2010Prop51ColorRGB
 90
-16777216
102
RTVSPost2010PropOp51
 70
     0
102
RTVSPost2010Prop52
140
1.0
102
RTVSPost2010PropOp52
 70
     0
102
RTVSPost2010Prop53
 90
        2
102
RTVSPost2010PropOp53
 70
     1
102
RTVSPost2010Prop54
  1
strokes_ogs.tif
102
RTVSPost2010PropOp54
 70
     1
102
RTVSPost2010Prop55
280
     0
102
RTVSPost2010PropOp55
 70
     1
102
RTVSPost2010Prop56
140
1.0
102
RTVSPost2010PropOp56
 70
     1
102
RTVSPost2010Prop57
140
1.0
102
RTVSPost2010PropOp57
 70
     1
102
RTVSPropertyOp0
 70
     1
102
RTVSPropertyOp1
 70
     1
102
RTVSPropertyOp2
 70
     1
102
RTVSPropertyOp3
 70
     1
102
RTVSPropertyOp4
 70
     1
102
RTVSPropertyOp5
 70
     1
102
RTVSPropertyOp6
 70
     1
102
RTVSPropertyOp7
 70
     1
102
RTVSPropertyOp8
 70
     1
102
RTVSPropertyOp9
 70
     1
102
RTVSPropertyOp10
 70
     1
102
RTVSPropertyOp11
 70
     1
102
RTVSPropertyOp12
 70
     1
102
RTVSPropertyOp13
 70
     1
102
RTVSPropertyOp14
 70
     1
102
RTVSPropertyOp15
 70
     1
102
RTVSPropertyOp16
 70
     1
102
RTVSPropertyOp17
 70
     1
102
RTVSPropertyOp18
 70
     1
102
RTVSPropertyOp19
 70
     1
102
RTVSPropertyOp20
 70
     1
102
RTVSPropertyOp21
 70
     1
102
RTVSPropertyOp22
 70
     1
102
RTVSPropertyOp23
 70
     1
102
RTVSPropertyOp24
 70
     1
102
RTVSPropertyOp25
 70
     1
102
RTVSPropertyOp26
 70
     1
102
RTVSPropertyOp27
 70
     1
102
RTVSPropertyOp28
 70
     1
102
RTVSPropertyOp29
 70
     1
102
RTVSPropertyOp30
 70
     1
102
RTVSPropertyOp31
 70
     1
102
RTVSPropertyOp32
 70
     1
102
RTVSPropertyOp33
 70
     1
102
RTVSPropertyOp34
 70
     1
102
RTVSPropertyOp35
 70
     1
102
RTVSPropertyOp36
 70
     1
102
RTVSPropertyOp37
 70
     1
102
RTVSPropertyOp38
 70
     1
102
RTVSPropertyOp39
 70
     1
102
RTVSPropertyOp40
 70
     1
102
RTVSPropertyOp41
 70
     1
102
RTVSPropertyOp42
 70
     1
102
RTVSPropertyOp43
 70
     1
102
RTVSPropertyOp44
 70
     1
102
RTVSPropertyOp45
 70
     1
102
RTVSPropertyOp46
 70
     1
102
RTVSPropertyOp47
 70
     1
102
RTVSPropertyOp48
 70
     1
102
RTVSPropertyOp49
 70
     1
102
RTVSPropertyOp50
 70
     1
102
RTVSPropertyOp51
 70
     0
102
RTVSPropertyOp52
 70
     0
102
RTVSPropertyOp53
 70
     1
102
RTVSPropertyOp54
 70
     1
102
RTVSPropertyOp55
 70
     1
102
RTVSPropertyOp56
 70
     1
102
RTVSPropertyOp57
 70
     1
102
RTVSPropertyOp58
 70
     1
102
RTVSPropertyOp59
 70
     1
102
RTVSPropertyOp60
 70
     1
102
RTVSPropertyOp61
 70
     1
102
RTVSPropertyOp62
 70
     1
  0
XRECORD
  5
BD17
102
{ACAD_REACTORS
330
BD16
102
}
330
BD16
100
AcDbXrecord
280
     1
102
RTVSPost2010Prop28
280
     0
102
RTVSPost2010PropOp28
 70
     1
102
RTVSPost2010Prop29
280
     1
102
RTVSPost2010PropOp29
 70
     1
102
RTVSPost2010Prop30
280
     1
102
RTVSPost2010PropOp30
 70
     1
102
RTVSPost2010Prop31
280
     0
102
RTVSPost2010PropOp31
 70
     1
102
RTVSPost2010Prop32
280
     0
102
RTVSPost2010PropOp32
 70
     1
102
RTVSPost2010Prop33
280
     0
102
RTVSPost2010PropOp33
 70
     1
102
RTVSPost2010Prop34
280
     0
102
RTVSPost2010PropOp34
 70
     1
102
RTVSPost2010Prop35
280
     0
102
RTVSPost2010PropOp35
 70
     1
102
RTVSPost2010Prop36
280
     0
102
RTVSPost2010PropOp36
 70
     1
102
RTVSPost2010Prop37
 90
       50
102
RTVSPost2010PropOp37
 70
     1
102
RTVSPost2010Prop38
140
0.0
102
RTVSPost2010PropOp38
 70
     1
102
RTVSPost2010Prop39
140
1.0
102
RTVSPost2010PropOp39
 70
     1
102
RTVSPost2010Prop40
 90
        0
102
RTVSPost2010PropOp40
 70
     1
102
RTVSPost2010Prop41ColorIndex
 90
       18
102
RTVSPost2010Prop41ColorRGB
 90
        0
102
RTVSPost2010PropOp41
 70
     1
102
RTVSPost2010Prop42
 90
       50
102
RTVSPost2010PropOp42
 70
     1
102
RTVSPost2010Prop43
 90
        3
102
RTVSPost2010PropOp43
 70
     1
102
RTVSPost2010Prop44ColorIndex
 90
        5
102
RTVSPost2010Prop44ColorRGB
 90
      255
102
RTVSPost2010PropOp44
 70
     1
102
RTVSPost2010Prop45
280
     0
102
RTVSPost2010PropOp45
 70
     1
102
RTVSPost2010Prop46
 90
       50
102
RTVSPost2010PropOp46
 70
     1
102
RTVSPost2010Prop47
 90
       50
102
RTVSPost2010PropOp47
 70
     1
102
RTVSPost2010Prop48
 90
       50
102
RTVSPost2010PropOp48
 70
     1
102
RTVSPost2010Prop49
280
     0
102
RTVSPost2010PropOp49
 70
     1
102
RTVSPost2010Prop50
 90
       50
102
RTVSPost2010PropOp50
 70
     1
102
RTVSPost2010Prop51ColorIndex
 90
      256
102
RTVSPost2010Prop51ColorRGB
 90
-16777216
102
RTVSPost2010PropOp51
 70
     0
102
RTVSPost2010Prop52
140
1.0
102
RTVSPost2010PropOp52
 70
     0
102
RTVSPost2010Prop53
 90
        2
102
RTVSPost2010PropOp53
 70
     1
102
RTVSPost2010Prop54
  1
strokes_ogs.tif
102
RTVSPost2010PropOp54
 70
     1
102
RTVSPost2010Prop55
280
     0
102
RTVSPost2010PropOp55
 70
     1
102
RTVSPost2010Prop56
140
1.0
102
RTVSPost2010PropOp56
 70
     1
102
RTVSPost2010Prop57
140
1.0
102
RTVSPost2010PropOp57
 70
     1
102
RTVSPropertyOp0
 70
     1
102
RTVSPropertyOp1
 70
     1
102
RTVSPropertyOp2
 70
     1
102
RTVSPropertyOp3
 70
     1
102
RTVSPropertyOp4
 70
     1
102
RTVSPropertyOp5
 70
     1
102
RTVSPropertyOp6
 70
     1
102
RTVSPropertyOp7
 70
     1
102
RTVSPropertyOp8
 70
     1
102
RTVSPropertyOp9
 70
     1
102
RTVSPropertyOp10
 70
     1
102
RTVSPropertyOp11
 70
     1
102
RTVSPropertyOp12
 70
     1
102
RTVSPropertyOp13
 70
     1
102
RTVSPropertyOp14
 70
     1
102
RTVSPropertyOp15
 70
     1
102
RTVSPropertyOp16
 70
     1
102
RTVSPropertyOp17
 70
     1
102
RTVSPropertyOp18
 70
     1
102
RTVSPropertyOp19
 70
     1
102
RTVSPropertyOp20
 70
     1
102
RTVSPropertyOp21
 70
     1
102
RTVSPropertyOp22
 70
     1
102
RTVSPropertyOp23
 70
     1
102
RTVSPropertyOp24
 70
     1
102
RTVSPropertyOp25
 70
     1
102
RTVSPropertyOp26
 70
     1
102
RTVSPropertyOp27
 70
     1
102
RTVSPropertyOp28
 70
     1
102
RTVSPropertyOp29
 70
     1
102
RTVSPropertyOp30
 70
     1
102
RTVSPropertyOp31
 70
     1
102
RTVSPropertyOp32
 70
     1
102
RTVSPropertyOp33
 70
     1
102
RTVSPropertyOp34
 70
     1
102
RTVSPropertyOp35
 70
     1
102
RTVSPropertyOp36
 70
     1
102
RTVSPropertyOp37
 70
     1
102
RTVSPropertyOp38
 70
     1
102
RTVSPropertyOp39
 70
     1
102
RTVSPropertyOp40
 70
     1
102
RTVSPropertyOp41
 70
     1
102
RTVSPropertyOp42
 70
     1
102
RTVSPropertyOp43
 70
     1
102
RTVSPropertyOp44
 70
     1
102
RTVSPropertyOp45
 70
     1
102
RTVSPropertyOp46
 70
     1
102
RTVSPropertyOp47
 70
     1
102
RTVSPropertyOp48
 70
     1
102
RTVSPropertyOp49
 70
     1
102
RTVSPropertyOp50
 70
     1
102
RTVSPropertyOp51
 70
     0
102
RTVSPropertyOp52
 70
     0
102
RTVSPropertyOp53
 70
     1
102
RTVSPropertyOp54
 70
     1
102
RTVSPropertyOp55
 70
     1
102
RTVSPropertyOp56
 70
     1
102
RTVSPropertyOp57
 70
     1
102
RTVSPropertyOp58
 70
     1
102
RTVSPropertyOp59
 70
     1
102
RTVSPropertyOp60
 70
     1
102
RTVSPropertyOp61
 70
     1
102
RTVSPropertyOp62
 70
     1
  0
XRECORD
  5
BD19
102
{ACAD_REACTORS
330
BD18
102
}
330
BD18
100
AcDbXrecord
280
     1
102
RTVSPost2010Prop28
280
     0
102
RTVSPost2010PropOp28
 70
     1
102
RTVSPost2010Prop29
280
     1
102
RTVSPost2010PropOp29
 70
     1
102
RTVSPost2010Prop30
280
     1
102
RTVSPost2010PropOp30
 70
     1
102
RTVSPost2010Prop31
280
     0
102
RTVSPost2010PropOp31
 70
     1
102
RTVSPost2010Prop32
280
     0
102
RTVSPost2010PropOp32
 70
     1
102
RTVSPost2010Prop33
280
     0
102
RTVSPost2010PropOp33
 70
     1
102
RTVSPost2010Prop34
280
     0
102
RTVSPost2010PropOp34
 70
     1
102
RTVSPost2010Prop35
280
     0
102
RTVSPost2010PropOp35
 70
     1
102
RTVSPost2010Prop36
280
     0
102
RTVSPost2010PropOp36
 70
     1
102
RTVSPost2010Prop37
 90
       50
102
RTVSPost2010PropOp37
 70
     1
102
RTVSPost2010Prop38
140
0.0
102
RTVSPost2010PropOp38
 70
     1
102
RTVSPost2010Prop39
140
1.0
102
RTVSPost2010PropOp39
 70
     1
102
RTVSPost2010Prop40
 90
        0
102
RTVSPost2010PropOp40
 70
     1
102
RTVSPost2010Prop41ColorIndex
 90
       18
102
RTVSPost2010Prop41ColorRGB
 90
        0
102
RTVSPost2010PropOp41
 70
     1
102
RTVSPost2010Prop42
 90
       50
102
RTVSPost2010PropOp42
 70
     1
102
RTVSPost2010Prop43
 90
        3
102
RTVSPost2010PropOp43
 70
     1
102
RTVSPost2010Prop44ColorIndex
 90
        5
102
RTVSPost2010Prop44ColorRGB
 90
      255
102
RTVSPost2010PropOp44
 70
     1
102
RTVSPost2010Prop45
280
     0
102
RTVSPost2010PropOp45
 70
     1
102
RTVSPost2010Prop46
 90
       50
102
RTVSPost2010PropOp46
 70
     1
102
RTVSPost2010Prop47
 90
       50
102
RTVSPost2010PropOp47
 70
     1
102
RTVSPost2010Prop48
 90
       50
102
RTVSPost2010PropOp48
 70
     1
102
RTVSPost2010Prop49
280
     0
102
RTVSPost2010PropOp49
 70
     1
102
RTVSPost2010Prop50
 90
       50
102
RTVSPost2010PropOp50
 70
     1
102
RTVSPost2010Prop51ColorIndex
 90
      256
102
RTVSPost2010Prop51ColorRGB
 90
-16777216
102
RTVSPost2010PropOp51
 70
     0
102
RTVSPost2010Prop52
140
1.0
102
RTVSPost2010PropOp52
 70
     0
102
RTVSPost2010Prop53
 90
        2
102
RTVSPost2010PropOp53
 70
     1
102
RTVSPost2010Prop54
  1
strokes_ogs.tif
102
RTVSPost2010PropOp54
 70
     1
102
RTVSPost2010Prop55
280
     0
102
RTVSPost2010PropOp55
 70
     1
102
RTVSPost2010Prop56
140
1.0
102
RTVSPost2010PropOp56
 70
     1
102
RTVSPost2010Prop57
140
1.0
102
RTVSPost2010PropOp57
 70
     1
102
RTVSPropertyOp0
 70
     1
102
RTVSPropertyOp1
 70
     1
102
RTVSPropertyOp2
 70
     1
102
RTVSPropertyOp3
 70
     1
102
RTVSPropertyOp4
 70
     1
102
RTVSPropertyOp5
 70
     1
102
RTVSPropertyOp6
 70
     1
102
RTVSPropertyOp7
 70
     1
102
RTVSPropertyOp8
 70
     1
102
RTVSPropertyOp9
 70
     1
102
RTVSPropertyOp10
 70
     1
102
RTVSPropertyOp11
 70
     1
102
RTVSPropertyOp12
 70
     1
102
RTVSPropertyOp13
 70
     1
102
RTVSPropertyOp14
 70
     1
102
RTVSPropertyOp15
 70
     1
102
RTVSPropertyOp16
 70
     1
102
RTVSPropertyOp17
 70
     1
102
RTVSPropertyOp18
 70
     1
102
RTVSPropertyOp19
 70
     1
102
RTVSPropertyOp20
 70
     1
102
RTVSPropertyOp21
 70
     1
102
RTVSPropertyOp22
 70
     1
102
RTVSPropertyOp23
 70
     1
102
RTVSPropertyOp24
 70
     1
102
RTVSPropertyOp25
 70
     1
102
RTVSPropertyOp26
 70
     1
102
RTVSPropertyOp27
 70
     1
102
RTVSPropertyOp28
 70
     1
102
RTVSPropertyOp29
 70
     1
102
RTVSPropertyOp30
 70
     1
102
RTVSPropertyOp31
 70
     1
102
RTVSPropertyOp32
 70
     1
102
RTVSPropertyOp33
 70
     1
102
RTVSPropertyOp34
 70
     1
102
RTVSPropertyOp35
 70
     1
102
RTVSPropertyOp36
 70
     1
102
RTVSPropertyOp37
 70
     1
102
RTVSPropertyOp38
 70
     1
102
RTVSPropertyOp39
 70
     1
102
RTVSPropertyOp40
 70
     1
102
RTVSPropertyOp41
 70
     1
102
RTVSPropertyOp42
 70
     1
102
RTVSPropertyOp43
 70
     1
102
RTVSPropertyOp44
 70
     1
102
RTVSPropertyOp45
 70
     1
102
RTVSPropertyOp46
 70
     1
102
RTVSPropertyOp47
 70
     1
102
RTVSPropertyOp48
 70
     1
102
RTVSPropertyOp49
 70
     1
102
RTVSPropertyOp50
 70
     1
102
RTVSPropertyOp51
 70
     0
102
RTVSPropertyOp52
 70
     0
102
RTVSPropertyOp53
 70
     1
102
RTVSPropertyOp54
 70
     1
102
RTVSPropertyOp55
 70
     1
102
RTVSPropertyOp56
 70
     1
102
RTVSPropertyOp57
 70
     1
102
RTVSPropertyOp58
 70
     1
102
RTVSPropertyOp59
 70
     1
102
RTVSPropertyOp60
 70
     1
102
RTVSPropertyOp61
 70
     1
102
RTVSPropertyOp62
 70
     1
  0
XRECORD
  5
BD21
102
{ACAD_REACTORS
330
BD20
102
}
330
BD20
100
AcDbXrecord
280
     1
102
RTVSPost2010Prop28
280
     0
102
RTVSPost2010PropOp28
 70
     1
102
RTVSPost2010Prop29
280
     1
102
RTVSPost2010PropOp29
 70
     1
102
RTVSPost2010Prop30
280
     1
102
RTVSPost2010PropOp30
 70
     1
102
RTVSPost2010Prop31
280
     0
102
RTVSPost2010PropOp31
 70
     1
102
RTVSPost2010Prop32
280
     0
102
RTVSPost2010PropOp32
 70
     1
102
RTVSPost2010Prop33
280
     0
102
RTVSPost2010PropOp33
 70
     1
102
RTVSPost2010Prop34
280
     0
102
RTVSPost2010PropOp34
 70
     1
102
RTVSPost2010Prop35
280
     0
102
RTVSPost2010PropOp35
 70
     1
102
RTVSPost2010Prop36
280
     0
102
RTVSPost2010PropOp36
 70
     1
102
RTVSPost2010Prop37
 90
       50
102
RTVSPost2010PropOp37
 70
     1
102
RTVSPost2010Prop38
140
0.0
102
RTVSPost2010PropOp38
 70
     1
102
RTVSPost2010Prop39
140
1.0
102
RTVSPost2010PropOp39
 70
     1
102
RTVSPost2010Prop40
 90
        0
102
RTVSPost2010PropOp40
 70
     1
102
RTVSPost2010Prop41ColorIndex
 90
       18
102
RTVSPost2010Prop41ColorRGB
 90
        0
102
RTVSPost2010PropOp41
 70
     1
102
RTVSPost2010Prop42
 90
       50
102
RTVSPost2010PropOp42
 70
     1
102
RTVSPost2010Prop43
 90
        3
102
RTVSPost2010PropOp43
 70
     1
102
RTVSPost2010Prop44ColorIndex
 90
        5
102
RTVSPost2010Prop44ColorRGB
 90
      255
102
RTVSPost2010PropOp44
 70
     1
102
RTVSPost2010Prop45
280
     0
102
RTVSPost2010PropOp45
 70
     1
102
RTVSPost2010Prop46
 90
       50
102
RTVSPost2010PropOp46
 70
     1
102
RTVSPost2010Prop47
 90
       50
102
RTVSPost2010PropOp47
 70
     1
102
RTVSPost2010Prop48
 90
       50
102
RTVSPost2010PropOp48
 70
     1
102
RTVSPost2010Prop49
280
     0
102
RTVSPost2010PropOp49
 70
     1
102
RTVSPost2010Prop50
 90
       50
102
RTVSPost2010PropOp50
 70
     1
102
RTVSPost2010Prop51ColorIndex
 90
      256
102
RTVSPost2010Prop51ColorRGB
 90
-16777216
102
RTVSPost2010PropOp51
 70
     0
102
RTVSPost2010Prop52
140
1.0
102
RTVSPost2010PropOp52
 70
     0
102
RTVSPost2010Prop53
 90
        2
102
RTVSPost2010PropOp53
 70
     1
102
RTVSPost2010Prop54
  1
strokes_ogs.tif
102
RTVSPost2010PropOp54
 70
     1
102
RTVSPost2010Prop55
280
     0
102
RTVSPost2010PropOp55
 70
     1
102
RTVSPost2010Prop56
140
1.0
102
RTVSPost2010PropOp56
 70
     1
102
RTVSPost2010Prop57
140
1.0
102
RTVSPost2010PropOp57
 70
     1
102
RTVSPropertyOp0
 70
     1
102
RTVSPropertyOp1
 70
     1
102
RTVSPropertyOp2
 70
     1
102
RTVSPropertyOp3
 70
     1
102
RTVSPropertyOp4
 70
     1
102
RTVSPropertyOp5
 70
     1
102
RTVSPropertyOp6
 70
     1
102
RTVSPropertyOp7
 70
     1
102
RTVSPropertyOp8
 70
     1
102
RTVSPropertyOp9
 70
     1
102
RTVSPropertyOp10
 70
     1
102
RTVSPropertyOp11
 70
     1
102
RTVSPropertyOp12
 70
     1
102
RTVSPropertyOp13
 70
     1
102
RTVSPropertyOp14
 70
     1
102
RTVSPropertyOp15
 70
     1
102
RTVSPropertyOp16
 70
     1
102
RTVSPropertyOp17
 70
     1
102
RTVSPropertyOp18
 70
     1
102
RTVSPropertyOp19
 70
     1
102
RTVSPropertyOp20
 70
     1
102
RTVSPropertyOp21
 70
     1
102
RTVSPropertyOp22
 70
     1
102
RTVSPropertyOp23
 70
     1
102
RTVSPropertyOp24
 70
     1
102
RTVSPropertyOp25
 70
     1
102
RTVSPropertyOp26
 70
     1
102
RTVSPropertyOp27
 70
     1
102
RTVSPropertyOp28
 70
     1
102
RTVSPropertyOp29
 70
     1
102
RTVSPropertyOp30
 70
     1
102
RTVSPropertyOp31
 70
     1
102
RTVSPropertyOp32
 70
     1
102
RTVSPropertyOp33
 70
     1
102
RTVSPropertyOp34
 70
     1
102
RTVSPropertyOp35
 70
     1
102
RTVSPropertyOp36
 70
     1
102
RTVSPropertyOp37
 70
     1
102
RTVSPropertyOp38
 70
     1
102
RTVSPropertyOp39
 70
     1
102
RTVSPropertyOp40
 70
     1
102
RTVSPropertyOp41
 70
     1
102
RTVSPropertyOp42
 70
     1
102
RTVSPropertyOp43
 70
     1
102
RTVSPropertyOp44
 70
     1
102
RTVSPropertyOp45
 70
     1
102
RTVSPropertyOp46
 70
     1
102
RTVSPropertyOp47
 70
     1
102
RTVSPropertyOp48
 70
     1
102
RTVSPropertyOp49
 70
     1
102
RTVSPropertyOp50
 70
     1
102
RTVSPropertyOp51
 70
     0
102
RTVSPropertyOp52
 70
     0
102
RTVSPropertyOp53
 70
     1
102
RTVSPropertyOp54
 70
     1
102
RTVSPropertyOp55
 70
     1
102
RTVSPropertyOp56
 70
     1
102
RTVSPropertyOp57
 70
     1
102
RTVSPropertyOp58
 70
     1
102
RTVSPropertyOp59
 70
     1
102
RTVSPropertyOp60
 70
     1
102
RTVSPropertyOp61
 70
     1
102
RTVSPropertyOp62
 70
     1
  0
XRECORD
  5
BD3D
102
{ACAD_REACTORS
330
BD3C
102
}
330
BD3C
100
AcDbXrecord
280
     1
102
RTVSPost2010Prop28
280
     0
102
RTVSPost2010PropOp28
 70
     1
102
RTVSPost2010Prop29
280
     1
102
RTVSPost2010PropOp29
 70
     1
102
RTVSPost2010Prop30
280
     1
102
RTVSPost2010PropOp30
 70
     1
102
RTVSPost2010Prop31
280
     0
102
RTVSPost2010PropOp31
 70
     1
102
RTVSPost2010Prop32
280
     0
102
RTVSPost2010PropOp32
 70
     1
102
RTVSPost2010Prop33
280
     0
102
RTVSPost2010PropOp33
 70
     1
102
RTVSPost2010Prop34
280
     0
102
RTVSPost2010PropOp34
 70
     1
102
RTVSPost2010Prop35
280
     0
102
RTVSPost2010PropOp35
 70
     1
102
RTVSPost2010Prop36
280
     0
102
RTVSPost2010PropOp36
 70
     1
102
RTVSPost2010Prop37
 90
       50
102
RTVSPost2010PropOp37
 70
     0
102
RTVSPost2010Prop38
140
0.0
102
RTVSPost2010PropOp38
 70
     0
102
RTVSPost2010Prop39
140
1.0
102
RTVSPost2010PropOp39
 70
     0
102
RTVSPost2010Prop40
 90
        0
102
RTVSPost2010PropOp40
 70
     0
102
RTVSPost2010Prop41ColorIndex
 90
       18
102
RTVSPost2010Prop41ColorRGB
 90
        0
102
RTVSPost2010PropOp41
 70
     0
102
RTVSPost2010Prop42
 90
       50
102
RTVSPost2010PropOp42
 70
     0
102
RTVSPost2010Prop43
 90
        3
102
RTVSPost2010PropOp43
 70
     0
102
RTVSPost2010Prop44ColorIndex
 90
        5
102
RTVSPost2010Prop44ColorRGB
 90
      255
102
RTVSPost2010PropOp44
 70
     0
102
RTVSPost2010Prop45
280
     0
102
RTVSPost2010PropOp45
 70
     1
102
RTVSPost2010Prop46
 90
       50
102
RTVSPost2010PropOp46
 70
     0
102
RTVSPost2010Prop47
 90
       50
102
RTVSPost2010PropOp47
 70
     0
102
RTVSPost2010Prop48
 90
       50
102
RTVSPost2010PropOp48
 70
     0
102
RTVSPost2010Prop49
280
     0
102
RTVSPost2010PropOp49
 70
     1
102
RTVSPost2010Prop50
 90
       50
102
RTVSPost2010PropOp50
 70
     0
102
RTVSPost2010Prop51ColorIndex
 90
      256
102
RTVSPost2010Prop51ColorRGB
 90
-16777216
102
RTVSPost2010PropOp51
 70
     0
102
RTVSPost2010Prop52
140
1.0
102
RTVSPost2010PropOp52
 70
     0
102
RTVSPost2010Prop53
 90
        2
102
RTVSPost2010PropOp53
 70
     0
102
RTVSPost2010Prop54
  1
strokes_ogs.tif
102
RTVSPost2010PropOp54
 70
     0
102
RTVSPost2010Prop55
280
     0
102
RTVSPost2010PropOp55
 70
     1
102
RTVSPost2010Prop56
140
1.0
102
RTVSPost2010PropOp56
 70
     0
102
RTVSPost2010Prop57
140
1.0
102
RTVSPost2010PropOp57
 70
     0
102
RTVSPropertyOp0
 70
     0
102
RTVSPropertyOp1
 70
     0
102
RTVSPropertyOp2
 70
     0
102
RTVSPropertyOp3
 70
     0
102
RTVSPropertyOp4
 70
     0
102
RTVSPropertyOp5
 70
     0
102
RTVSPropertyOp6
 70
     0
102
RTVSPropertyOp7
 70
     0
102
RTVSPropertyOp8
 70
     0
102
RTVSPropertyOp9
 70
     0
102
RTVSPropertyOp10
 70
     0
102
RTVSPropertyOp11
 70
     0
102
RTVSPropertyOp12
 70
     0
102
RTVSPropertyOp13
 70
     0
102
RTVSPropertyOp14
 70
     2
102
RTVSPropertyOp15
 70
     0
102
RTVSPropertyOp16
 70
     0
102
RTVSPropertyOp17
 70
     0
102
RTVSPropertyOp18
 70
     0
102
RTVSPropertyOp19
 70
     0
102
RTVSPropertyOp20
 70
     0
102
RTVSPropertyOp21
 70
     0
102
RTVSPropertyOp22
 70
     0
102
RTVSPropertyOp23
 70
     0
102
RTVSPropertyOp24
 70
     0
102
RTVSPropertyOp25
 70
     0
102
RTVSPropertyOp26
 70
     0
102
RTVSPropertyOp27
 70
     0
102
RTVSPropertyOp28
 70
     1
102
RTVSPropertyOp29
 70
     1
102
RTVSPropertyOp30
 70
     1
102
RTVSPropertyOp31
 70
     1
102
RTVSPropertyOp32
 70
     1
102
RTVSPropertyOp33
 70
     1
102
RTVSPropertyOp34
 70
     1
102
RTVSPropertyOp35
 70
     1
102
RTVSPropertyOp36
 70
     1
102
RTVSPropertyOp37
 70
     0
102
RTVSPropertyOp38
 70
     0
102
RTVSPropertyOp39
 70
     0
102
RTVSPropertyOp40
 70
     0
102
RTVSPropertyOp41
 70
     0
102
RTVSPropertyOp42
 70
     0
102
RTVSPropertyOp43
 70
     0
102
RTVSPropertyOp44
 70
     0
102
RTVSPropertyOp45
 70
     1
102
RTVSPropertyOp46
 70
     0
102
RTVSPropertyOp47
 70
     0
102
RTVSPropertyOp48
 70
     0
102
RTVSPropertyOp49
 70
     1
102
RTVSPropertyOp50
 70
     0
102
RTVSPropertyOp51
 70
     0
102
RTVSPropertyOp52
 70
     0
102
RTVSPropertyOp53
 70
     0
102
RTVSPropertyOp54
 70
     0
102
RTVSPropertyOp55
 70
     1
102
RTVSPropertyOp56
 70
     0
102
RTVSPropertyOp57
 70
     0
102
RTVSPropertyOp58
 70
     0
102
RTVSPropertyOp59
 70
     0
102
RTVSPropertyOp60
 70
     0
102
RTVSPropertyOp61
 70
     0
102
RTVSPropertyOp62
 70
     0
  0
XRECORD
  5
BD2D
102
{ACAD_REACTORS
330
BD2C
102
}
330
BD2C
100
AcDbXrecord
280
     1
102
RTVSPost2010Prop28
280
     0
102
RTVSPost2010PropOp28
 70
     1
102
RTVSPost2010Prop29
280
     1
102
RTVSPost2010PropOp29
 70
     1
102
RTVSPost2010Prop30
280
     1
102
RTVSPost2010PropOp30
 70
     1
102
RTVSPost2010Prop31
280
     0
102
RTVSPost2010PropOp31
 70
     1
102
RTVSPost2010Prop32
280
     0
102
RTVSPost2010PropOp32
 70
     1
102
RTVSPost2010Prop33
280
     0
102
RTVSPost2010PropOp33
 70
     1
102
RTVSPost2010Prop34
280
     0
102
RTVSPost2010PropOp34
 70
     1
102
RTVSPost2010Prop35
280
     0
102
RTVSPost2010PropOp35
 70
     1
102
RTVSPost2010Prop36
280
     0
102
RTVSPost2010PropOp36
 70
     1
102
RTVSPost2010Prop37
 90
       50
102
RTVSPost2010PropOp37
 70
     1
102
RTVSPost2010Prop38
140
0.0
102
RTVSPost2010PropOp38
 70
     1
102
RTVSPost2010Prop39
140
1.0
102
RTVSPost2010PropOp39
 70
     1
102
RTVSPost2010Prop40
 90
        0
102
RTVSPost2010PropOp40
 70
     1
102
RTVSPost2010Prop41ColorIndex
 90
       18
102
RTVSPost2010Prop41ColorRGB
 90
        0
102
RTVSPost2010PropOp41
 70
     1
102
RTVSPost2010Prop42
 90
       50
102
RTVSPost2010PropOp42
 70
     1
102
RTVSPost2010Prop43
 90
        3
102
RTVSPost2010PropOp43
 70
     1
102
RTVSPost2010Prop44ColorIndex
 90
        5
102
RTVSPost2010Prop44ColorRGB
 90
      255
102
RTVSPost2010PropOp44
 70
     1
102
RTVSPost2010Prop45
280
     0
102
RTVSPost2010PropOp45
 70
     1
102
RTVSPost2010Prop46
 90
       50
102
RTVSPost2010PropOp46
 70
     1
102
RTVSPost2010Prop47
 90
       50
102
RTVSPost2010PropOp47
 70
     1
102
RTVSPost2010Prop48
 90
       50
102
RTVSPost2010PropOp48
 70
     1
102
RTVSPost2010Prop49
280
     0
102
RTVSPost2010PropOp49
 70
     1
102
RTVSPost2010Prop50
 90
       50
102
RTVSPost2010PropOp50
 70
     1
102
RTVSPost2010Prop51ColorIndex
 90
      256
102
RTVSPost2010Prop51ColorRGB
 90
-16777216
102
RTVSPost2010PropOp51
 70
     0
102
RTVSPost2010Prop52
140
1.0
102
RTVSPost2010PropOp52
 70
     0
102
RTVSPost2010Prop53
 90
        2
102
RTVSPost2010PropOp53
 70
     1
102
RTVSPost2010Prop54
  1
strokes_ogs.tif
102
RTVSPost2010PropOp54
 70
     1
102
RTVSPost2010Prop55
280
     0
102
RTVSPost2010PropOp55
 70
     1
102
RTVSPost2010Prop56
140
1.0
102
RTVSPost2010PropOp56
 70
     1
102
RTVSPost2010Prop57
140
1.0
102
RTVSPost2010PropOp57
 70
     1
102
RTVSPropertyOp0
 70
     1
102
RTVSPropertyOp1
 70
     1
102
RTVSPropertyOp2
 70
     1
102
RTVSPropertyOp3
 70
     1
102
RTVSPropertyOp4
 70
     1
102
RTVSPropertyOp5
 70
     1
102
RTVSPropertyOp6
 70
     1
102
RTVSPropertyOp7
 70
     1
102
RTVSPropertyOp8
 70
     1
102
RTVSPropertyOp9
 70
     1
102
RTVSPropertyOp10
 70
     1
102
RTVSPropertyOp11
 70
     1
102
RTVSPropertyOp12
 70
     1
102
RTVSPropertyOp13
 70
     1
102
RTVSPropertyOp14
 70
     1
102
RTVSPropertyOp15
 70
     1
102
RTVSPropertyOp16
 70
     1
102
RTVSPropertyOp17
 70
     1
102
RTVSPropertyOp18
 70
     1
102
RTVSPropertyOp19
 70
     1
102
RTVSPropertyOp20
 70
     1
102
RTVSPropertyOp21
 70
     1
102
RTVSPropertyOp22
 70
     1
102
RTVSPropertyOp23
 70
     1
102
RTVSPropertyOp24
 70
     1
102
RTVSPropertyOp25
 70
     1
102
RTVSPropertyOp26
 70
     1
102
RTVSPropertyOp27
 70
     1
102
RTVSPropertyOp28
 70
     1
102
RTVSPropertyOp29
 70
     1
102
RTVSPropertyOp30
 70
     1
102
RTVSPropertyOp31
 70
     1
102
RTVSPropertyOp32
 70
     1
102
RTVSPropertyOp33
 70
     1
102
RTVSPropertyOp34
 70
     1
102
RTVSPropertyOp35
 70
     1
102
RTVSPropertyOp36
 70
     1
102
RTVSPropertyOp37
 70
     1
102
RTVSPropertyOp38
 70
     1
102
RTVSPropertyOp39
 70
     1
102
RTVSPropertyOp40
 70
     1
102
RTVSPropertyOp41
 70
     1
102
RTVSPropertyOp42
 70
     1
102
RTVSPropertyOp43
 70
     1
102
RTVSPropertyOp44
 70
     1
102
RTVSPropertyOp45
 70
     1
102
RTVSPropertyOp46
 70
     1
102
RTVSPropertyOp47
 70
     1
102
RTVSPropertyOp48
 70
     1
102
RTVSPropertyOp49
 70
     1
102
RTVSPropertyOp50
 70
     1
102
RTVSPropertyOp51
 70
     0
102
RTVSPropertyOp52
 70
     0
102
RTVSPropertyOp53
 70
     1
102
RTVSPropertyOp54
 70
     1
102
RTVSPropertyOp55
 70
     1
102
RTVSPropertyOp56
 70
     1
102
RTVSPropertyOp57
 70
     1
102
RTVSPropertyOp58
 70
     1
102
RTVSPropertyOp59
 70
     1
102
RTVSPropertyOp60
 70
     1
102
RTVSPropertyOp61
 70
     1
102
RTVSPropertyOp62
 70
     1
  0
XRECORD
  5
BD3F
102
{ACAD_REACTORS
330
BD3E
102
}
330
BD3E
100
AcDbXrecord
280
     1
102
RTVSPost2010Prop28
280
     0
102
RTVSPost2010PropOp28
 70
     1
102
RTVSPost2010Prop29
280
     1
102
RTVSPost2010PropOp29
 70
     1
102
RTVSPost2010Prop30
280
     1
102
RTVSPost2010PropOp30
 70
     1
102
RTVSPost2010Prop31
280
     0
102
RTVSPost2010PropOp31
 70
     1
102
RTVSPost2010Prop32
280
     0
102
RTVSPost2010PropOp32
 70
     1
102
RTVSPost2010Prop33
280
     0
102
RTVSPost2010PropOp33
 70
     1
102
RTVSPost2010Prop34
280
     0
102
RTVSPost2010PropOp34
 70
     1
102
RTVSPost2010Prop35
280
     0
102
RTVSPost2010PropOp35
 70
     1
102
RTVSPost2010Prop36
280
     0
102
RTVSPost2010PropOp36
 70
     1
102
RTVSPost2010Prop37
 90
       50
102
RTVSPost2010PropOp37
 70
     0
102
RTVSPost2010Prop38
140
0.0
102
RTVSPost2010PropOp38
 70
     0
102
RTVSPost2010Prop39
140
1.0
102
RTVSPost2010PropOp39
 70
     0
102
RTVSPost2010Prop40
 90
        0
102
RTVSPost2010PropOp40
 70
     0
102
RTVSPost2010Prop41ColorIndex
 90
       18
102
RTVSPost2010Prop41ColorRGB
 90
        0
102
RTVSPost2010PropOp41
 70
     0
102
RTVSPost2010Prop42
 90
       50
102
RTVSPost2010PropOp42
 70
     0
102
RTVSPost2010Prop43
 90
        3
102
RTVSPost2010PropOp43
 70
     0
102
RTVSPost2010Prop44ColorIndex
 90
        5
102
RTVSPost2010Prop44ColorRGB
 90
      255
102
RTVSPost2010PropOp44
 70
     0
102
RTVSPost2010Prop45
280
     0
102
RTVSPost2010PropOp45
 70
     1
102
RTVSPost2010Prop46
 90
       50
102
RTVSPost2010PropOp46
 70
     0
102
RTVSPost2010Prop47
 90
       50
102
RTVSPost2010PropOp47
 70
     0
102
RTVSPost2010Prop48
 90
       50
102
RTVSPost2010PropOp48
 70
     0
102
RTVSPost2010Prop49
280
     0
102
RTVSPost2010PropOp49
 70
     1
102
RTVSPost2010Prop50
 90
       50
102
RTVSPost2010PropOp50
 70
     0
102
RTVSPost2010Prop51ColorIndex
 90
      256
102
RTVSPost2010Prop51ColorRGB
 90
-16777216
102
RTVSPost2010PropOp51
 70
     0
102
RTVSPost2010Prop52
140
1.0
102
RTVSPost2010PropOp52
 70
     0
102
RTVSPost2010Prop53
 90
        2
102
RTVSPost2010PropOp53
 70
     0
102
RTVSPost2010Prop54
  1
strokes_ogs.tif
102
RTVSPost2010PropOp54
 70
     0
102
RTVSPost2010Prop55
280
     0
102
RTVSPost2010PropOp55
 70
     1
102
RTVSPost2010Prop56
140
1.0
102
RTVSPost2010PropOp56
 70
     0
102
RTVSPost2010Prop57
140
1.0
102
RTVSPost2010PropOp57
 70
     0
102
RTVSPropertyOp0
 70
     0
102
RTVSPropertyOp1
 70
     0
102
RTVSPropertyOp2
 70
     0
102
RTVSPropertyOp3
 70
     0
102
RTVSPropertyOp4
 70
     0
102
RTVSPropertyOp5
 70
     0
102
RTVSPropertyOp6
 70
     0
102
RTVSPropertyOp7
 70
     0
102
RTVSPropertyOp8
 70
     0
102
RTVSPropertyOp9
 70
     0
102
RTVSPropertyOp10
 70
     0
102
RTVSPropertyOp11
 70
     0
102
RTVSPropertyOp12
 70
     0
102
RTVSPropertyOp13
 70
     0
102
RTVSPropertyOp14
 70
     2
102
RTVSPropertyOp15
 70
     0
102
RTVSPropertyOp16
 70
     0
102
RTVSPropertyOp17
 70
     0
102
RTVSPropertyOp18
 70
     0
102
RTVSPropertyOp19
 70
     0
102
RTVSPropertyOp20
 70
     0
102
RTVSPropertyOp21
 70
     0
102
RTVSPropertyOp22
 70
     0
102
RTVSPropertyOp23
 70
     0
102
RTVSPropertyOp24
 70
     0
102
RTVSPropertyOp25
 70
     0
102
RTVSPropertyOp26
 70
     0
102
RTVSPropertyOp27
 70
     0
102
RTVSPropertyOp28
 70
     1
102
RTVSPropertyOp29
 70
     1
102
RTVSPropertyOp30
 70
     1
102
RTVSPropertyOp31
 70
     1
102
RTVSPropertyOp32
 70
     1
102
RTVSPropertyOp33
 70
     1
102
RTVSPropertyOp34
 70
     1
102
RTVSPropertyOp35
 70
     1
102
RTVSPropertyOp36
 70
     1
102
RTVSPropertyOp37
 70
     0
102
RTVSPropertyOp38
 70
     0
102
RTVSPropertyOp39
 70
     0
102
RTVSPropertyOp40
 70
     0
102
RTVSPropertyOp41
 70
     0
102
RTVSPropertyOp42
 70
     0
102
RTVSPropertyOp43
 70
     0
102
RTVSPropertyOp44
 70
     0
102
RTVSPropertyOp45
 70
     1
102
RTVSPropertyOp46
 70
     0
102
RTVSPropertyOp47
 70
     0
102
RTVSPropertyOp48
 70
     0
102
RTVSPropertyOp49
 70
     1
102
RTVSPropertyOp50
 70
     0
102
RTVSPropertyOp51
 70
     0
102
RTVSPropertyOp52
 70
     0
102
RTVSPropertyOp53
 70
     0
102
RTVSPropertyOp54
 70
     0
102
RTVSPropertyOp55
 70
     1
102
RTVSPropertyOp56
 70
     0
102
RTVSPropertyOp57
 70
     0
102
RTVSPropertyOp58
 70
     0
102
RTVSPropertyOp59
 70
     0
102
RTVSPropertyOp60
 70
     0
102
RTVSPropertyOp61
 70
     0
102
RTVSPropertyOp62
 70
     0
  0
XRECORD
  5
BD25
102
{ACAD_REACTORS
330
BD24
102
}
330
BD24
100
AcDbXrecord
280
     1
102
RTVSPost2010Prop28
280
     0
102
RTVSPost2010PropOp28
 70
     1
102
RTVSPost2010Prop29
280
     1
102
RTVSPost2010PropOp29
 70
     1
102
RTVSPost2010Prop30
280
     1
102
RTVSPost2010PropOp30
 70
     1
102
RTVSPost2010Prop31
280
     0
102
RTVSPost2010PropOp31
 70
     1
102
RTVSPost2010Prop32
280
     0
102
RTVSPost2010PropOp32
 70
     1
102
RTVSPost2010Prop33
280
     0
102
RTVSPost2010PropOp33
 70
     1
102
RTVSPost2010Prop34
280
     0
102
RTVSPost2010PropOp34
 70
     1
102
RTVSPost2010Prop35
280
     0
102
RTVSPost2010PropOp35
 70
     1
102
RTVSPost2010Prop36
280
     0
102
RTVSPost2010PropOp36
 70
     1
102
RTVSPost2010Prop37
 90
       50
102
RTVSPost2010PropOp37
 70
     1
102
RTVSPost2010Prop38
140
0.0
102
RTVSPost2010PropOp38
 70
     1
102
RTVSPost2010Prop39
140
1.0
102
RTVSPost2010PropOp39
 70
     1
102
RTVSPost2010Prop40
 90
        0
102
RTVSPost2010PropOp40
 70
     1
102
RTVSPost2010Prop41ColorIndex
 90
       18
102
RTVSPost2010Prop41ColorRGB
 90
        0
102
RTVSPost2010PropOp41
 70
     1
102
RTVSPost2010Prop42
 90
       50
102
RTVSPost2010PropOp42
 70
     1
102
RTVSPost2010Prop43
 90
        3
102
RTVSPost2010PropOp43
 70
     1
102
RTVSPost2010Prop44ColorIndex
 90
        5
102
RTVSPost2010Prop44ColorRGB
 90
      255
102
RTVSPost2010PropOp44
 70
     1
102
RTVSPost2010Prop45
280
     0
102
RTVSPost2010PropOp45
 70
     1
102
RTVSPost2010Prop46
 90
       50
102
RTVSPost2010PropOp46
 70
     1
102
RTVSPost2010Prop47
 90
       50
102
RTVSPost2010PropOp47
 70
     1
102
RTVSPost2010Prop48
 90
       50
102
RTVSPost2010PropOp48
 70
     1
102
RTVSPost2010Prop49
280
     0
102
RTVSPost2010PropOp49
 70
     1
102
RTVSPost2010Prop50
 90
       50
102
RTVSPost2010PropOp50
 70
     1
102
RTVSPost2010Prop51ColorIndex
 90
      256
102
RTVSPost2010Prop51ColorRGB
 90
-16777216
102
RTVSPost2010PropOp51
 70
     0
102
RTVSPost2010Prop52
140
1.0
102
RTVSPost2010PropOp52
 70
     0
102
RTVSPost2010Prop53
 90
        2
102
RTVSPost2010PropOp53
 70
     1
102
RTVSPost2010Prop54
  1
strokes_ogs.tif
102
RTVSPost2010PropOp54
 70
     1
102
RTVSPost2010Prop55
280
     0
102
RTVSPost2010PropOp55
 70
     1
102
RTVSPost2010Prop56
140
1.0
102
RTVSPost2010PropOp56
 70
     1
102
RTVSPost2010Prop57
140
1.0
102
RTVSPost2010PropOp57
 70
     1
102
RTVSPropertyOp0
 70
     1
102
RTVSPropertyOp1
 70
     1
102
RTVSPropertyOp2
 70
     1
102
RTVSPropertyOp3
 70
     1
102
RTVSPropertyOp4
 70
     1
102
RTVSPropertyOp5
 70
     1
102
RTVSPropertyOp6
 70
     1
102
RTVSPropertyOp7
 70
     1
102
RTVSPropertyOp8
 70
     1
102
RTVSPropertyOp9
 70
     1
102
RTVSPropertyOp10
 70
     1
102
RTVSPropertyOp11
 70
     1
102
RTVSPropertyOp12
 70
     1
102
RTVSPropertyOp13
 70
     1
102
RTVSPropertyOp14
 70
     1
102
RTVSPropertyOp15
 70
     1
102
RTVSPropertyOp16
 70
     1
102
RTVSPropertyOp17
 70
     1
102
RTVSPropertyOp18
 70
     1
102
RTVSPropertyOp19
 70
     1
102
RTVSPropertyOp20
 70
     1
102
RTVSPropertyOp21
 70
     1
102
RTVSPropertyOp22
 70
     1
102
RTVSPropertyOp23
 70
     1
102
RTVSPropertyOp24
 70
     1
102
RTVSPropertyOp25
 70
     1
102
RTVSPropertyOp26
 70
     1
102
RTVSPropertyOp27
 70
     1
102
RTVSPropertyOp28
 70
     1
102
RTVSPropertyOp29
 70
     1
102
RTVSPropertyOp30
 70
     1
102
RTVSPropertyOp31
 70
     1
102
RTVSPropertyOp32
 70
     1
102
RTVSPropertyOp33
 70
     1
102
RTVSPropertyOp34
 70
     1
102
RTVSPropertyOp35
 70
     1
102
RTVSPropertyOp36
 70
     1
102
RTVSPropertyOp37
 70
     1
102
RTVSPropertyOp38
 70
     1
102
RTVSPropertyOp39
 70
     1
102
RTVSPropertyOp40
 70
     1
102
RTVSPropertyOp41
 70
     1
102
RTVSPropertyOp42
 70
     1
102
RTVSPropertyOp43
 70
     1
102
RTVSPropertyOp44
 70
     1
102
RTVSPropertyOp45
 70
     1
102
RTVSPropertyOp46
 70
     1
102
RTVSPropertyOp47
 70
     1
102
RTVSPropertyOp48
 70
     1
102
RTVSPropertyOp49
 70
     1
102
RTVSPropertyOp50
 70
     1
102
RTVSPropertyOp51
 70
     0
102
RTVSPropertyOp52
 70
     0
102
RTVSPropertyOp53
 70
     1
102
RTVSPropertyOp54
 70
     1
102
RTVSPropertyOp55
 70
     1
102
RTVSPropertyOp56
 70
     1
102
RTVSPropertyOp57
 70
     1
102
RTVSPropertyOp58
 70
     1
102
RTVSPropertyOp59
 70
     1
102
RTVSPropertyOp60
 70
     1
102
RTVSPropertyOp61
 70
     1
102
RTVSPropertyOp62
 70
     1
  0
XRECORD
  5
BD3B
102
{ACAD_REACTORS
330
BD3A
102
}
330
BD3A
100
AcDbXrecord
280
     1
102
RTVSPost2010Prop28
280
     0
102
RTVSPost2010PropOp28
 70
     1
102
RTVSPost2010Prop29
280
     1
102
RTVSPost2010PropOp29
 70
     1
102
RTVSPost2010Prop30
280
     1
102
RTVSPost2010PropOp30
 70
     1
102
RTVSPost2010Prop31
280
     0
102
RTVSPost2010PropOp31
 70
     1
102
RTVSPost2010Prop32
280
     0
102
RTVSPost2010PropOp32
 70
     1
102
RTVSPost2010Prop33
280
     0
102
RTVSPost2010PropOp33
 70
     1
102
RTVSPost2010Prop34
280
     0
102
RTVSPost2010PropOp34
 70
     1
102
RTVSPost2010Prop35
280
     0
102
RTVSPost2010PropOp35
 70
     1
102
RTVSPost2010Prop36
280
     0
102
RTVSPost2010PropOp36
 70
     1
102
RTVSPost2010Prop37
 90
       50
102
RTVSPost2010PropOp37
 70
     1
102
RTVSPost2010Prop38
140
0.0
102
RTVSPost2010PropOp38
 70
     1
102
RTVSPost2010Prop39
140
1.0
102
RTVSPost2010PropOp39
 70
     1
102
RTVSPost2010Prop40
 90
        0
102
RTVSPost2010PropOp40
 70
     1
102
RTVSPost2010Prop41ColorIndex
 90
       18
102
RTVSPost2010Prop41ColorRGB
 90
        0
102
RTVSPost2010PropOp41
 70
     1
102
RTVSPost2010Prop42
 90
       50
102
RTVSPost2010PropOp42
 70
     1
102
RTVSPost2010Prop43
 90
        3
102
RTVSPost2010PropOp43
 70
     1
102
RTVSPost2010Prop44ColorIndex
 90
        5
102
RTVSPost2010Prop44ColorRGB
 90
      255
102
RTVSPost2010PropOp44
 70
     1
102
RTVSPost2010Prop45
280
     0
102
RTVSPost2010PropOp45
 70
     1
102
RTVSPost2010Prop46
 90
       50
102
RTVSPost2010PropOp46
 70
     1
102
RTVSPost2010Prop47
 90
       50
102
RTVSPost2010PropOp47
 70
     1
102
RTVSPost2010Prop48
 90
       50
102
RTVSPost2010PropOp48
 70
     1
102
RTVSPost2010Prop49
280
     0
102
RTVSPost2010PropOp49
 70
     1
102
RTVSPost2010Prop50
 90
       50
102
RTVSPost2010PropOp50
 70
     1
102
RTVSPost2010Prop51ColorIndex
 90
      256
102
RTVSPost2010Prop51ColorRGB
 90
-16777216
102
RTVSPost2010PropOp51
 70
     0
102
RTVSPost2010Prop52
140
1.0
102
RTVSPost2010PropOp52
 70
     0
102
RTVSPost2010Prop53
 90
        2
102
RTVSPost2010PropOp53
 70
     1
102
RTVSPost2010Prop54
  1
strokes_ogs.tif
102
RTVSPost2010PropOp54
 70
     1
102
RTVSPost2010Prop55
280
     0
102
RTVSPost2010PropOp55
 70
     1
102
RTVSPost2010Prop56
140
1.0
102
RTVSPost2010PropOp56
 70
     1
102
RTVSPost2010Prop57
140
1.0
102
RTVSPost2010PropOp57
 70
     1
102
RTVSPropertyOp0
 70
     1
102
RTVSPropertyOp1
 70
     1
102
RTVSPropertyOp2
 70
     1
102
RTVSPropertyOp3
 70
     1
102
RTVSPropertyOp4
 70
     1
102
RTVSPropertyOp5
 70
     1
102
RTVSPropertyOp6
 70
     1
102
RTVSPropertyOp7
 70
     1
102
RTVSPropertyOp8
 70
     1
102
RTVSPropertyOp9
 70
     1
102
RTVSPropertyOp10
 70
     1
102
RTVSPropertyOp11
 70
     1
102
RTVSPropertyOp12
 70
     1
102
RTVSPropertyOp13
 70
     1
102
RTVSPropertyOp14
 70
     1
102
RTVSPropertyOp15
 70
     1
102
RTVSPropertyOp16
 70
     1
102
RTVSPropertyOp17
 70
     1
102
RTVSPropertyOp18
 70
     1
102
RTVSPropertyOp19
 70
     1
102
RTVSPropertyOp20
 70
     1
102
RTVSPropertyOp21
 70
     1
102
RTVSPropertyOp22
 70
     1
102
RTVSPropertyOp23
 70
     1
102
RTVSPropertyOp24
 70
     1
102
RTVSPropertyOp25
 70
     1
102
RTVSPropertyOp26
 70
     1
102
RTVSPropertyOp27
 70
     1
102
RTVSPropertyOp28
 70
     1
102
RTVSPropertyOp29
 70
     1
102
RTVSPropertyOp30
 70
     1
102
RTVSPropertyOp31
 70
     1
102
RTVSPropertyOp32
 70
     1
102
RTVSPropertyOp33
 70
     1
102
RTVSPropertyOp34
 70
     1
102
RTVSPropertyOp35
 70
     1
102
RTVSPropertyOp36
 70
     1
102
RTVSPropertyOp37
 70
     1
102
RTVSPropertyOp38
 70
     1
102
RTVSPropertyOp39
 70
     1
102
RTVSPropertyOp40
 70
     1
102
RTVSPropertyOp41
 70
     1
102
RTVSPropertyOp42
 70
     1
102
RTVSPropertyOp43
 70
     1
102
RTVSPropertyOp44
 70
     1
102
RTVSPropertyOp45
 70
     1
102
RTVSPropertyOp46
 70
     1
102
RTVSPropertyOp47
 70
     1
102
RTVSPropertyOp48
 70
     1
102
RTVSPropertyOp49
 70
     1
102
RTVSPropertyOp50
 70
     1
102
RTVSPropertyOp51
 70
     0
102
RTVSPropertyOp52
 70
     0
102
RTVSPropertyOp53
 70
     1
102
RTVSPropertyOp54
 70
     1
102
RTVSPropertyOp55
 70
     1
102
RTVSPropertyOp56
 70
     1
102
RTVSPropertyOp57
 70
     1
102
RTVSPropertyOp58
 70
     1
102
RTVSPropertyOp59
 70
     1
102
RTVSPropertyOp60
 70
     1
102
RTVSPropertyOp61
 70
     1
102
RTVSPropertyOp62
 70
     1
  0
XRECORD
  5
BD39
102
{ACAD_REACTORS
330
BD38
102
}
330
BD38
100
AcDbXrecord
280
     1
102
RTVSPost2010Prop28
280
     0
102
RTVSPost2010PropOp28
 70
     1
102
RTVSPost2010Prop29
280
     1
102
RTVSPost2010PropOp29
 70
     1
102
RTVSPost2010Prop30
280
     1
102
RTVSPost2010PropOp30
 70
     1
102
RTVSPost2010Prop31
280
     0
102
RTVSPost2010PropOp31
 70
     1
102
RTVSPost2010Prop32
280
     0
102
RTVSPost2010PropOp32
 70
     1
102
RTVSPost2010Prop33
280
     0
102
RTVSPost2010PropOp33
 70
     1
102
RTVSPost2010Prop34
280
     0
102
RTVSPost2010PropOp34
 70
     1
102
RTVSPost2010Prop35
280
     0
102
RTVSPost2010PropOp35
 70
     1
102
RTVSPost2010Prop36
280
     0
102
RTVSPost2010PropOp36
 70
     1
102
RTVSPost2010Prop37
 90
       50
102
RTVSPost2010PropOp37
 70
     1
102
RTVSPost2010Prop38
140
0.0
102
RTVSPost2010PropOp38
 70
     1
102
RTVSPost2010Prop39
140
1.0
102
RTVSPost2010PropOp39
 70
     1
102
RTVSPost2010Prop40
 90
        0
102
RTVSPost2010PropOp40
 70
     1
102
RTVSPost2010Prop41ColorIndex
 90
       18
102
RTVSPost2010Prop41ColorRGB
 90
        0
102
RTVSPost2010PropOp41
 70
     1
102
RTVSPost2010Prop42
 90
       50
102
RTVSPost2010PropOp42
 70
     1
102
RTVSPost2010Prop43
 90
        3
102
RTVSPost2010PropOp43
 70
     1
102
RTVSPost2010Prop44ColorIndex
 90
        5
102
RTVSPost2010Prop44ColorRGB
 90
      255
102
RTVSPost2010PropOp44
 70
     1
102
RTVSPost2010Prop45
280
     0
102
RTVSPost2010PropOp45
 70
     1
102
RTVSPost2010Prop46
 90
       50
102
RTVSPost2010PropOp46
 70
     1
102
RTVSPost2010Prop47
 90
       50
102
RTVSPost2010PropOp47
 70
     1
102
RTVSPost2010Prop48
 90
       50
102
RTVSPost2010PropOp48
 70
     1
102
RTVSPost2010Prop49
280
     0
102
RTVSPost2010PropOp49
 70
     1
102
RTVSPost2010Prop50
 90
       50
102
RTVSPost2010PropOp50
 70
     1
102
RTVSPost2010Prop51ColorIndex
 90
      256
102
RTVSPost2010Prop51ColorRGB
 90
-16777216
102
RTVSPost2010PropOp51
 70
     0
102
RTVSPost2010Prop52
140
1.0
102
RTVSPost2010PropOp52
 70
     0
102
RTVSPost2010Prop53
 90
        2
102
RTVSPost2010PropOp53
 70
     1
102
RTVSPost2010Prop54
  1
strokes_ogs.tif
102
RTVSPost2010PropOp54
 70
     1
102
RTVSPost2010Prop55
280
     0
102
RTVSPost2010PropOp55
 70
     1
102
RTVSPost2010Prop56
140
1.0
102
RTVSPost2010PropOp56
 70
     1
102
RTVSPost2010Prop57
140
1.0
102
RTVSPost2010PropOp57
 70
     1
102
RTVSPropertyOp0
 70
     1
102
RTVSPropertyOp1
 70
     1
102
RTVSPropertyOp2
 70
     1
102
RTVSPropertyOp3
 70
     1
102
RTVSPropertyOp4
 70
     1
102
RTVSPropertyOp5
 70
     1
102
RTVSPropertyOp6
 70
     1
102
RTVSPropertyOp7
 70
     1
102
RTVSPropertyOp8
 70
     1
102
RTVSPropertyOp9
 70
     1
102
RTVSPropertyOp10
 70
     1
102
RTVSPropertyOp11
 70
     1
102
RTVSPropertyOp12
 70
     1
102
RTVSPropertyOp13
 70
     1
102
RTVSPropertyOp14
 70
     1
102
RTVSPropertyOp15
 70
     1
102
RTVSPropertyOp16
 70
     1
102
RTVSPropertyOp17
 70
     1
102
RTVSPropertyOp18
 70
     1
102
RTVSPropertyOp19
 70
     1
102
RTVSPropertyOp20
 70
     1
102
RTVSPropertyOp21
 70
     1
102
RTVSPropertyOp22
 70
     1
102
RTVSPropertyOp23
 70
     1
102
RTVSPropertyOp24
 70
     1
102
RTVSPropertyOp25
 70
     1
102
RTVSPropertyOp26
 70
     1
102
RTVSPropertyOp27
 70
     1
102
RTVSPropertyOp28
 70
     1
102
RTVSPropertyOp29
 70
     1
102
RTVSPropertyOp30
 70
     1
102
RTVSPropertyOp31
 70
     1
102
RTVSPropertyOp32
 70
     1
102
RTVSPropertyOp33
 70
     1
102
RTVSPropertyOp34
 70
     1
102
RTVSPropertyOp35
 70
     1
102
RTVSPropertyOp36
 70
     1
102
RTVSPropertyOp37
 70
     1
102
RTVSPropertyOp38
 70
     1
102
RTVSPropertyOp39
 70
     1
102
RTVSPropertyOp40
 70
     1
102
RTVSPropertyOp41
 70
     1
102
RTVSPropertyOp42
 70
     1
102
RTVSPropertyOp43
 70
     1
102
RTVSPropertyOp44
 70
     1
102
RTVSPropertyOp45
 70
     1
102
RTVSPropertyOp46
 70
     1
102
RTVSPropertyOp47
 70
     1
102
RTVSPropertyOp48
 70
     1
102
RTVSPropertyOp49
 70
     1
102
RTVSPropertyOp50
 70
     1
102
RTVSPropertyOp51
 70
     0
102
RTVSPropertyOp52
 70
     0
102
RTVSPropertyOp53
 70
     1
102
RTVSPropertyOp54
 70
     1
102
RTVSPropertyOp55
 70
     1
102
RTVSPropertyOp56
 70
     1
102
RTVSPropertyOp57
 70
     1
102
RTVSPropertyOp58
 70
     1
102
RTVSPropertyOp59
 70
     1
102
RTVSPropertyOp60
 70
     1
102
RTVSPropertyOp61
 70
     1
102
RTVSPropertyOp62
 70
     1
  0
XRECORD
  5
BD33
102
{ACAD_REACTORS
330
BD32
102
}
330
BD32
100
AcDbXrecord
280
     1
102
RTVSPost2010Prop28
280
     0
102
RTVSPost2010PropOp28
 70
     1
102
RTVSPost2010Prop29
280
     1
102
RTVSPost2010PropOp29
 70
     1
102
RTVSPost2010Prop30
280
     1
102
RTVSPost2010PropOp30
 70
     1
102
RTVSPost2010Prop31
280
     0
102
RTVSPost2010PropOp31
 70
     1
102
RTVSPost2010Prop32
280
     0
102
RTVSPost2010PropOp32
 70
     1
102
RTVSPost2010Prop33
280
     0
102
RTVSPost2010PropOp33
 70
     1
102
RTVSPost2010Prop34
280
     0
102
RTVSPost2010PropOp34
 70
     1
102
RTVSPost2010Prop35
280
     0
102
RTVSPost2010PropOp35
 70
     1
102
RTVSPost2010Prop36
280
     0
102
RTVSPost2010PropOp36
 70
     1
102
RTVSPost2010Prop37
 90
       50
102
RTVSPost2010PropOp37
 70
     1
102
RTVSPost2010Prop38
140
0.0
102
RTVSPost2010PropOp38
 70
     1
102
RTVSPost2010Prop39
140
1.0
102
RTVSPost2010PropOp39
 70
     1
102
RTVSPost2010Prop40
 90
        0
102
RTVSPost2010PropOp40
 70
     1
102
RTVSPost2010Prop41ColorIndex
 90
       18
102
RTVSPost2010Prop41ColorRGB
 90
        0
102
RTVSPost2010PropOp41
 70
     1
102
RTVSPost2010Prop42
 90
       50
102
RTVSPost2010PropOp42
 70
     1
102
RTVSPost2010Prop43
 90
        3
102
RTVSPost2010PropOp43
 70
     1
102
RTVSPost2010Prop44ColorIndex
 90
        5
102
RTVSPost2010Prop44ColorRGB
 90
      255
102
RTVSPost2010PropOp44
 70
     1
102
RTVSPost2010Prop45
280
     0
102
RTVSPost2010PropOp45
 70
     1
102
RTVSPost2010Prop46
 90
       50
102
RTVSPost2010PropOp46
 70
     1
102
RTVSPost2010Prop47
 90
       50
102
RTVSPost2010PropOp47
 70
     1
102
RTVSPost2010Prop48
 90
       50
102
RTVSPost2010PropOp48
 70
     1
102
RTVSPost2010Prop49
280
     0
102
RTVSPost2010PropOp49
 70
     1
102
RTVSPost2010Prop50
 90
       50
102
RTVSPost2010PropOp50
 70
     1
102
RTVSPost2010Prop51ColorIndex
 90
      256
102
RTVSPost2010Prop51ColorRGB
 90
-16777216
102
RTVSPost2010PropOp51
 70
     0
102
RTVSPost2010Prop52
140
1.0
102
RTVSPost2010PropOp52
 70
     0
102
RTVSPost2010Prop53
 90
        2
102
RTVSPost2010PropOp53
 70
     1
102
RTVSPost2010Prop54
  1
strokes_ogs.tif
102
RTVSPost2010PropOp54
 70
     1
102
RTVSPost2010Prop55
280
     0
102
RTVSPost2010PropOp55
 70
     1
102
RTVSPost2010Prop56
140
1.0
102
RTVSPost2010PropOp56
 70
     1
102
RTVSPost2010Prop57
140
1.0
102
RTVSPost2010PropOp57
 70
     1
102
RTVSPropertyOp0
 70
     1
102
RTVSPropertyOp1
 70
     1
102
RTVSPropertyOp2
 70
     1
102
RTVSPropertyOp3
 70
     1
102
RTVSPropertyOp4
 70
     1
102
RTVSPropertyOp5
 70
     1
102
RTVSPropertyOp6
 70
     1
102
RTVSPropertyOp7
 70
     1
102
RTVSPropertyOp8
 70
     1
102
RTVSPropertyOp9
 70
     1
102
RTVSPropertyOp10
 70
     1
102
RTVSPropertyOp11
 70
     1
102
RTVSPropertyOp12
 70
     1
102
RTVSPropertyOp13
 70
     1
102
RTVSPropertyOp14
 70
     1
102
RTVSPropertyOp15
 70
     1
102
RTVSPropertyOp16
 70
     1
102
RTVSPropertyOp17
 70
     1
102
RTVSPropertyOp18
 70
     1
102
RTVSPropertyOp19
 70
     1
102
RTVSPropertyOp20
 70
     1
102
RTVSPropertyOp21
 70
     1
102
RTVSPropertyOp22
 70
     1
102
RTVSPropertyOp23
 70
     1
102
RTVSPropertyOp24
 70
     1
102
RTVSPropertyOp25
 70
     1
102
RTVSPropertyOp26
 70
     1
102
RTVSPropertyOp27
 70
     1
102
RTVSPropertyOp28
 70
     1
102
RTVSPropertyOp29
 70
     1
102
RTVSPropertyOp30
 70
     1
102
RTVSPropertyOp31
 70
     1
102
RTVSPropertyOp32
 70
     1
102
RTVSPropertyOp33
 70
     1
102
RTVSPropertyOp34
 70
     1
102
RTVSPropertyOp35
 70
     1
102
RTVSPropertyOp36
 70
     1
102
RTVSPropertyOp37
 70
     1
102
RTVSPropertyOp38
 70
     1
102
RTVSPropertyOp39
 70
     1
102
RTVSPropertyOp40
 70
     1
102
RTVSPropertyOp41
 70
     1
102
RTVSPropertyOp42
 70
     1
102
RTVSPropertyOp43
 70
     1
102
RTVSPropertyOp44
 70
     1
102
RTVSPropertyOp45
 70
     1
102
RTVSPropertyOp46
 70
     1
102
RTVSPropertyOp47
 70
     1
102
RTVSPropertyOp48
 70
     1
102
RTVSPropertyOp49
 70
     1
102
RTVSPropertyOp50
 70
     1
102
RTVSPropertyOp51
 70
     0
102
RTVSPropertyOp52
 70
     0
102
RTVSPropertyOp53
 70
     1
102
RTVSPropertyOp54
 70
     1
102
RTVSPropertyOp55
 70
     1
102
RTVSPropertyOp56
 70
     1
102
RTVSPropertyOp57
 70
     1
102
RTVSPropertyOp58
 70
     1
102
RTVSPropertyOp59
 70
     1
102
RTVSPropertyOp60
 70
     1
102
RTVSPropertyOp61
 70
     1
102
RTVSPropertyOp62
 70
     1
  0
XRECORD
  5
BD35
102
{ACAD_REACTORS
330
BD34
102
}
330
BD34
100
AcDbXrecord
280
     1
102
RTVSPost2010Prop28
280
     0
102
RTVSPost2010PropOp28
 70
     1
102
RTVSPost2010Prop29
280
     1
102
RTVSPost2010PropOp29
 70
     1
102
RTVSPost2010Prop30
280
     1
102
RTVSPost2010PropOp30
 70
     1
102
RTVSPost2010Prop31
280
     0
102
RTVSPost2010PropOp31
 70
     1
102
RTVSPost2010Prop32
280
     0
102
RTVSPost2010PropOp32
 70
     1
102
RTVSPost2010Prop33
280
     0
102
RTVSPost2010PropOp33
 70
     1
102
RTVSPost2010Prop34
280
     0
102
RTVSPost2010PropOp34
 70
     1
102
RTVSPost2010Prop35
280
     0
102
RTVSPost2010PropOp35
 70
     1
102
RTVSPost2010Prop36
280
     0
102
RTVSPost2010PropOp36
 70
     1
102
RTVSPost2010Prop37
 90
       50
102
RTVSPost2010PropOp37
 70
     1
102
RTVSPost2010Prop38
140
0.0
102
RTVSPost2010PropOp38
 70
     1
102
RTVSPost2010Prop39
140
1.0
102
RTVSPost2010PropOp39
 70
     1
102
RTVSPost2010Prop40
 90
        0
102
RTVSPost2010PropOp40
 70
     1
102
RTVSPost2010Prop41ColorIndex
 90
       18
102
RTVSPost2010Prop41ColorRGB
 90
        0
102
RTVSPost2010PropOp41
 70
     1
102
RTVSPost2010Prop42
 90
       50
102
RTVSPost2010PropOp42
 70
     1
102
RTVSPost2010Prop43
 90
        3
102
RTVSPost2010PropOp43
 70
     1
102
RTVSPost2010Prop44ColorIndex
 90
        5
102
RTVSPost2010Prop44ColorRGB
 90
      255
102
RTVSPost2010PropOp44
 70
     1
102
RTVSPost2010Prop45
280
     0
102
RTVSPost2010PropOp45
 70
     1
102
RTVSPost2010Prop46
 90
       50
102
RTVSPost2010PropOp46
 70
     1
102
RTVSPost2010Prop47
 90
       50
102
RTVSPost2010PropOp47
 70
     1
102
RTVSPost2010Prop48
 90
       50
102
RTVSPost2010PropOp48
 70
     1
102
RTVSPost2010Prop49
280
     0
102
RTVSPost2010PropOp49
 70
     1
102
RTVSPost2010Prop50
 90
       50
102
RTVSPost2010PropOp50
 70
     1
102
RTVSPost2010Prop51ColorIndex
 90
      256
102
RTVSPost2010Prop51ColorRGB
 90
-16777216
102
RTVSPost2010PropOp51
 70
     0
102
RTVSPost2010Prop52
140
1.0
102
RTVSPost2010PropOp52
 70
     0
102
RTVSPost2010Prop53
 90
        2
102
RTVSPost2010PropOp53
 70
     1
102
RTVSPost2010Prop54
  1
strokes_ogs.tif
102
RTVSPost2010PropOp54
 70
     1
102
RTVSPost2010Prop55
280
     0
102
RTVSPost2010PropOp55
 70
     1
102
RTVSPost2010Prop56
140
1.0
102
RTVSPost2010PropOp56
 70
     1
102
RTVSPost2010Prop57
140
1.0
102
RTVSPost2010PropOp57
 70
     1
102
RTVSPropertyOp0
 70
     1
102
RTVSPropertyOp1
 70
     1
102
RTVSPropertyOp2
 70
     1
102
RTVSPropertyOp3
 70
     1
102
RTVSPropertyOp4
 70
     1
102
RTVSPropertyOp5
 70
     1
102
RTVSPropertyOp6
 70
     1
102
RTVSPropertyOp7
 70
     1
102
RTVSPropertyOp8
 70
     1
102
RTVSPropertyOp9
 70
     1
102
RTVSPropertyOp10
 70
     1
102
RTVSPropertyOp11
 70
     1
102
RTVSPropertyOp12
 70
     1
102
RTVSPropertyOp13
 70
     1
102
RTVSPropertyOp14
 70
     1
102
RTVSPropertyOp15
 70
     1
102
RTVSPropertyOp16
 70
     1
102
RTVSPropertyOp17
 70
     1
102
RTVSPropertyOp18
 70
     1
102
RTVSPropertyOp19
 70
     1
102
RTVSPropertyOp20
 70
     1
102
RTVSPropertyOp21
 70
     1
102
RTVSPropertyOp22
 70
     1
102
RTVSPropertyOp23
 70
     1
102
RTVSPropertyOp24
 70
     1
102
RTVSPropertyOp25
 70
     1
102
RTVSPropertyOp26
 70
     1
102
RTVSPropertyOp27
 70
     1
102
RTVSPropertyOp28
 70
     1
102
RTVSPropertyOp29
 70
     1
102
RTVSPropertyOp30
 70
     1
102
RTVSPropertyOp31
 70
     1
102
RTVSPropertyOp32
 70
     1
102
RTVSPropertyOp33
 70
     1
102
RTVSPropertyOp34
 70
     1
102
RTVSPropertyOp35
 70
     1
102
RTVSPropertyOp36
 70
     1
102
RTVSPropertyOp37
 70
     1
102
RTVSPropertyOp38
 70
     1
102
RTVSPropertyOp39
 70
     1
102
RTVSPropertyOp40
 70
     1
102
RTVSPropertyOp41
 70
     1
102
RTVSPropertyOp42
 70
     1
102
RTVSPropertyOp43
 70
     1
102
RTVSPropertyOp44
 70
     1
102
RTVSPropertyOp45
 70
     1
102
RTVSPropertyOp46
 70
     1
102
RTVSPropertyOp47
 70
     1
102
RTVSPropertyOp48
 70
     1
102
RTVSPropertyOp49
 70
     1
102
RTVSPropertyOp50
 70
     1
102
RTVSPropertyOp51
 70
     0
102
RTVSPropertyOp52
 70
     0
102
RTVSPropertyOp53
 70
     1
102
RTVSPropertyOp54
 70
     1
102
RTVSPropertyOp55
 70
     1
102
RTVSPropertyOp56
 70
     1
102
RTVSPropertyOp57
 70
     1
102
RTVSPropertyOp58
 70
     1
102
RTVSPropertyOp59
 70
     1
102
RTVSPropertyOp60
 70
     1
102
RTVSPropertyOp61
 70
     1
102
RTVSPropertyOp62
 70
     1
  0
XRECORD
  5
BD2B
102
{ACAD_REACTORS
330
BD2A
102
}
330
BD2A
100
AcDbXrecord
280
     1
102
RTVSPost2010Prop28
280
     0
102
RTVSPost2010PropOp28
 70
     1
102
RTVSPost2010Prop29
280
     1
102
RTVSPost2010PropOp29
 70
     1
102
RTVSPost2010Prop30
280
     1
102
RTVSPost2010PropOp30
 70
     1
102
RTVSPost2010Prop31
280
     0
102
RTVSPost2010PropOp31
 70
     1
102
RTVSPost2010Prop32
280
     0
102
RTVSPost2010PropOp32
 70
     1
102
RTVSPost2010Prop33
280
     0
102
RTVSPost2010PropOp33
 70
     1
102
RTVSPost2010Prop34
280
     0
102
RTVSPost2010PropOp34
 70
     1
102
RTVSPost2010Prop35
280
     0
102
RTVSPost2010PropOp35
 70
     1
102
RTVSPost2010Prop36
280
     0
102
RTVSPost2010PropOp36
 70
     1
102
RTVSPost2010Prop37
 90
       50
102
RTVSPost2010PropOp37
 70
     1
102
RTVSPost2010Prop38
140
0.0
102
RTVSPost2010PropOp38
 70
     1
102
RTVSPost2010Prop39
140
1.0
102
RTVSPost2010PropOp39
 70
     1
102
RTVSPost2010Prop40
 90
        0
102
RTVSPost2010PropOp40
 70
     1
102
RTVSPost2010Prop41ColorIndex
 90
       18
102
RTVSPost2010Prop41ColorRGB
 90
        0
102
RTVSPost2010PropOp41
 70
     1
102
RTVSPost2010Prop42
 90
       50
102
RTVSPost2010PropOp42
 70
     1
102
RTVSPost2010Prop43
 90
        3
102
RTVSPost2010PropOp43
 70
     1
102
RTVSPost2010Prop44ColorIndex
 90
        5
102
RTVSPost2010Prop44ColorRGB
 90
      255
102
RTVSPost2010PropOp44
 70
     1
102
RTVSPost2010Prop45
280
     0
102
RTVSPost2010PropOp45
 70
     1
102
RTVSPost2010Prop46
 90
       50
102
RTVSPost2010PropOp46
 70
     1
102
RTVSPost2010Prop47
 90
       50
102
RTVSPost2010PropOp47
 70
     1
102
RTVSPost2010Prop48
 90
       50
102
RTVSPost2010PropOp48
 70
     1
102
RTVSPost2010Prop49
280
     0
102
RTVSPost2010PropOp49
 70
     1
102
RTVSPost2010Prop50
 90
       50
102
RTVSPost2010PropOp50
 70
     1
102
RTVSPost2010Prop51ColorIndex
 90
      256
102
RTVSPost2010Prop51ColorRGB
 90
-16777216
102
RTVSPost2010PropOp51
 70
     0
102
RTVSPost2010Prop52
140
1.0
102
RTVSPost2010PropOp52
 70
     0
102
RTVSPost2010Prop53
 90
        2
102
RTVSPost2010PropOp53
 70
     1
102
RTVSPost2010Prop54
  1
strokes_ogs.tif
102
RTVSPost2010PropOp54
 70
     1
102
RTVSPost2010Prop55
280
     0
102
RTVSPost2010PropOp55
 70
     1
102
RTVSPost2010Prop56
140
1.0
102
RTVSPost2010PropOp56
 70
     1
102
RTVSPost2010Prop57
140
1.0
102
RTVSPost2010PropOp57
 70
     1
102
RTVSPropertyOp0
 70
     1
102
RTVSPropertyOp1
 70
     1
102
RTVSPropertyOp2
 70
     1
102
RTVSPropertyOp3
 70
     1
102
RTVSPropertyOp4
 70
     1
102
RTVSPropertyOp5
 70
     1
102
RTVSPropertyOp6
 70
     1
102
RTVSPropertyOp7
 70
     1
102
RTVSPropertyOp8
 70
     1
102
RTVSPropertyOp9
 70
     1
102
RTVSPropertyOp10
 70
     1
102
RTVSPropertyOp11
 70
     1
102
RTVSPropertyOp12
 70
     1
102
RTVSPropertyOp13
 70
     1
102
RTVSPropertyOp14
 70
     1
102
RTVSPropertyOp15
 70
     1
102
RTVSPropertyOp16
 70
     1
102
RTVSPropertyOp17
 70
     1
102
RTVSPropertyOp18
 70
     1
102
RTVSPropertyOp19
 70
     1
102
RTVSPropertyOp20
 70
     1
102
RTVSPropertyOp21
 70
     1
102
RTVSPropertyOp22
 70
     1
102
RTVSPropertyOp23
 70
     1
102
RTVSPropertyOp24
 70
     1
102
RTVSPropertyOp25
 70
     1
102
RTVSPropertyOp26
 70
     1
102
RTVSPropertyOp27
 70
     1
102
RTVSPropertyOp28
 70
     1
102
RTVSPropertyOp29
 70
     1
102
RTVSPropertyOp30
 70
     1
102
RTVSPropertyOp31
 70
     1
102
RTVSPropertyOp32
 70
     1
102
RTVSPropertyOp33
 70
     1
102
RTVSPropertyOp34
 70
     1
102
RTVSPropertyOp35
 70
     1
102
RTVSPropertyOp36
 70
     1
102
RTVSPropertyOp37
 70
     1
102
RTVSPropertyOp38
 70
     1
102
RTVSPropertyOp39
 70
     1
102
RTVSPropertyOp40
 70
     1
102
RTVSPropertyOp41
 70
     1
102
RTVSPropertyOp42
 70
     1
102
RTVSPropertyOp43
 70
     1
102
RTVSPropertyOp44
 70
     1
102
RTVSPropertyOp45
 70
     1
102
RTVSPropertyOp46
 70
     1
102
RTVSPropertyOp47
 70
     1
102
RTVSPropertyOp48
 70
     1
102
RTVSPropertyOp49
 70
     1
102
RTVSPropertyOp50
 70
     1
102
RTVSPropertyOp51
 70
     0
102
RTVSPropertyOp52
 70
     0
102
RTVSPropertyOp53
 70
     1
102
RTVSPropertyOp54
 70
     1
102
RTVSPropertyOp55
 70
     1
102
RTVSPropertyOp56
 70
     1
102
RTVSPropertyOp57
 70
     1
102
RTVSPropertyOp58
 70
     1
102
RTVSPropertyOp59
 70
     1
102
RTVSPropertyOp60
 70
     1
102
RTVSPropertyOp61
 70
     1
102
RTVSPropertyOp62
 70
     1
  0
XRECORD
  5
BD1F
102
{ACAD_REACTORS
330
BD1E
102
}
330
BD1E
100
AcDbXrecord
280
     1
102
RTVSPost2010Prop28
280
     0
102
RTVSPost2010PropOp28
 70
     1
102
RTVSPost2010Prop29
280
     1
102
RTVSPost2010PropOp29
 70
     1
102
RTVSPost2010Prop30
280
     1
102
RTVSPost2010PropOp30
 70
     1
102
RTVSPost2010Prop31
280
     0
102
RTVSPost2010PropOp31
 70
     1
102
RTVSPost2010Prop32
280
     0
102
RTVSPost2010PropOp32
 70
     1
102
RTVSPost2010Prop33
280
     0
102
RTVSPost2010PropOp33
 70
     1
102
RTVSPost2010Prop34
280
     0
102
RTVSPost2010PropOp34
 70
     1
102
RTVSPost2010Prop35
280
     0
102
RTVSPost2010PropOp35
 70
     1
102
RTVSPost2010Prop36
280
     0
102
RTVSPost2010PropOp36
 70
     1
102
RTVSPost2010Prop37
 90
       50
102
RTVSPost2010PropOp37
 70
     1
102
RTVSPost2010Prop38
140
0.0
102
RTVSPost2010PropOp38
 70
     1
102
RTVSPost2010Prop39
140
1.0
102
RTVSPost2010PropOp39
 70
     1
102
RTVSPost2010Prop40
 90
        0
102
RTVSPost2010PropOp40
 70
     1
102
RTVSPost2010Prop41ColorIndex
 90
       18
102
RTVSPost2010Prop41ColorRGB
 90
        0
102
RTVSPost2010PropOp41
 70
     1
102
RTVSPost2010Prop42
 90
       50
102
RTVSPost2010PropOp42
 70
     1
102
RTVSPost2010Prop43
 90
        3
102
RTVSPost2010PropOp43
 70
     1
102
RTVSPost2010Prop44ColorIndex
 90
        5
102
RTVSPost2010Prop44ColorRGB
 90
      255
102
RTVSPost2010PropOp44
 70
     1
102
RTVSPost2010Prop45
280
     0
102
RTVSPost2010PropOp45
 70
     1
102
RTVSPost2010Prop46
 90
       50
102
RTVSPost2010PropOp46
 70
     1
102
RTVSPost2010Prop47
 90
       50
102
RTVSPost2010PropOp47
 70
     1
102
RTVSPost2010Prop48
 90
       50
102
RTVSPost2010PropOp48
 70
     1
102
RTVSPost2010Prop49
280
     0
102
RTVSPost2010PropOp49
 70
     1
102
RTVSPost2010Prop50
 90
       50
102
RTVSPost2010PropOp50
 70
     1
102
RTVSPost2010Prop51ColorIndex
 90
      256
102
RTVSPost2010Prop51ColorRGB
 90
-16777216
102
RTVSPost2010PropOp51
 70
     0
102
RTVSPost2010Prop52
140
1.0
102
RTVSPost2010PropOp52
 70
     0
102
RTVSPost2010Prop53
 90
        2
102
RTVSPost2010PropOp53
 70
     1
102
RTVSPost2010Prop54
  1
strokes_ogs.tif
102
RTVSPost2010PropOp54
 70
     1
102
RTVSPost2010Prop55
280
     0
102
RTVSPost2010PropOp55
 70
     1
102
RTVSPost2010Prop56
140
1.0
102
RTVSPost2010PropOp56
 70
     1
102
RTVSPost2010Prop57
140
1.0
102
RTVSPost2010PropOp57
 70
     1
102
RTVSPropertyOp0
 70
     1
102
RTVSPropertyOp1
 70
     1
102
RTVSPropertyOp2
 70
     1
102
RTVSPropertyOp3
 70
     1
102
RTVSPropertyOp4
 70
     1
102
RTVSPropertyOp5
 70
     1
102
RTVSPropertyOp6
 70
     1
102
RTVSPropertyOp7
 70
     1
102
RTVSPropertyOp8
 70
     1
102
RTVSPropertyOp9
 70
     1
102
RTVSPropertyOp10
 70
     1
102
RTVSPropertyOp11
 70
     1
102
RTVSPropertyOp12
 70
     1
102
RTVSPropertyOp13
 70
     1
102
RTVSPropertyOp14
 70
     1
102
RTVSPropertyOp15
 70
     1
102
RTVSPropertyOp16
 70
     1
102
RTVSPropertyOp17
 70
     1
102
RTVSPropertyOp18
 70
     1
102
RTVSPropertyOp19
 70
     1
102
RTVSPropertyOp20
 70
     1
102
RTVSPropertyOp21
 70
     1
102
RTVSPropertyOp22
 70
     1
102
RTVSPropertyOp23
 70
     1
102
RTVSPropertyOp24
 70
     1
102
RTVSPropertyOp25
 70
     1
102
RTVSPropertyOp26
 70
     1
102
RTVSPropertyOp27
 70
     1
102
RTVSPropertyOp28
 70
     1
102
RTVSPropertyOp29
 70
     1
102
RTVSPropertyOp30
 70
     1
102
RTVSPropertyOp31
 70
     1
102
RTVSPropertyOp32
 70
     1
102
RTVSPropertyOp33
 70
     1
102
RTVSPropertyOp34
 70
     1
102
RTVSPropertyOp35
 70
     1
102
RTVSPropertyOp36
 70
     1
102
RTVSPropertyOp37
 70
     1
102
RTVSPropertyOp38
 70
     1
102
RTVSPropertyOp39
 70
     1
102
RTVSPropertyOp40
 70
     1
102
RTVSPropertyOp41
 70
     1
102
RTVSPropertyOp42
 70
     1
102
RTVSPropertyOp43
 70
     1
102
RTVSPropertyOp44
 70
     1
102
RTVSPropertyOp45
 70
     1
102
RTVSPropertyOp46
 70
     1
102
RTVSPropertyOp47
 70
     1
102
RTVSPropertyOp48
 70
     1
102
RTVSPropertyOp49
 70
     1
102
RTVSPropertyOp50
 70
     1
102
RTVSPropertyOp51
 70
     0
102
RTVSPropertyOp52
 70
     0
102
RTVSPropertyOp53
 70
     1
102
RTVSPropertyOp54
 70
     1
102
RTVSPropertyOp55
 70
     1
102
RTVSPropertyOp56
 70
     1
102
RTVSPropertyOp57
 70
     1
102
RTVSPropertyOp58
 70
     1
102
RTVSPropertyOp59
 70
     1
102
RTVSPropertyOp60
 70
     1
102
RTVSPropertyOp61
 70
     1
102
RTVSPropertyOp62
 70
     1
  0
XRECORD
  5
BD37
102
{ACAD_REACTORS
330
BD36
102
}
330
BD36
100
AcDbXrecord
280
     1
102
RTVSPost2010Prop28
280
     0
102
RTVSPost2010PropOp28
 70
     1
102
RTVSPost2010Prop29
280
     1
102
RTVSPost2010PropOp29
 70
     1
102
RTVSPost2010Prop30
280
     1
102
RTVSPost2010PropOp30
 70
     1
102
RTVSPost2010Prop31
280
     0
102
RTVSPost2010PropOp31
 70
     1
102
RTVSPost2010Prop32
280
     0
102
RTVSPost2010PropOp32
 70
     1
102
RTVSPost2010Prop33
280
     0
102
RTVSPost2010PropOp33
 70
     1
102
RTVSPost2010Prop34
280
     0
102
RTVSPost2010PropOp34
 70
     1
102
RTVSPost2010Prop35
280
     0
102
RTVSPost2010PropOp35
 70
     1
102
RTVSPost2010Prop36
280
     0
102
RTVSPost2010PropOp36
 70
     1
102
RTVSPost2010Prop37
 90
       50
102
RTVSPost2010PropOp37
 70
     1
102
RTVSPost2010Prop38
140
0.0
102
RTVSPost2010PropOp38
 70
     1
102
RTVSPost2010Prop39
140
1.0
102
RTVSPost2010PropOp39
 70
     1
102
RTVSPost2010Prop40
 90
        0
102
RTVSPost2010PropOp40
 70
     1
102
RTVSPost2010Prop41ColorIndex
 90
       18
102
RTVSPost2010Prop41ColorRGB
 90
        0
102
RTVSPost2010PropOp41
 70
     1
102
RTVSPost2010Prop42
 90
       50
102
RTVSPost2010PropOp42
 70
     1
102
RTVSPost2010Prop43
 90
        3
102
RTVSPost2010PropOp43
 70
     1
102
RTVSPost2010Prop44ColorIndex
 90
        5
102
RTVSPost2010Prop44ColorRGB
 90
      255
102
RTVSPost2010PropOp44
 70
     1
102
RTVSPost2010Prop45
280
     0
102
RTVSPost2010PropOp45
 70
     1
102
RTVSPost2010Prop46
 90
       50
102
RTVSPost2010PropOp46
 70
     1
102
RTVSPost2010Prop47
 90
       50
102
RTVSPost2010PropOp47
 70
     1
102
RTVSPost2010Prop48
 90
       50
102
RTVSPost2010PropOp48
 70
     1
102
RTVSPost2010Prop49
280
     0
102
RTVSPost2010PropOp49
 70
     1
102
RTVSPost2010Prop50
 90
       50
102
RTVSPost2010PropOp50
 70
     1
102
RTVSPost2010Prop51ColorIndex
 90
      256
102
RTVSPost2010Prop51ColorRGB
 90
-16777216
102
RTVSPost2010PropOp51
 70
     0
102
RTVSPost2010Prop52
140
1.0
102
RTVSPost2010PropOp52
 70
     0
102
RTVSPost2010Prop53
 90
        2
102
RTVSPost2010PropOp53
 70
     1
102
RTVSPost2010Prop54
  1
strokes_ogs.tif
102
RTVSPost2010PropOp54
 70
     1
102
RTVSPost2010Prop55
280
     0
102
RTVSPost2010PropOp55
 70
     1
102
RTVSPost2010Prop56
140
1.0
102
RTVSPost2010PropOp56
 70
     1
102
RTVSPost2010Prop57
140
1.0
102
RTVSPost2010PropOp57
 70
     1
102
RTVSPropertyOp0
 70
     1
102
RTVSPropertyOp1
 70
     1
102
RTVSPropertyOp2
 70
     1
102
RTVSPropertyOp3
 70
     1
102
RTVSPropertyOp4
 70
     1
102
RTVSPropertyOp5
 70
     1
102
RTVSPropertyOp6
 70
     1
102
RTVSPropertyOp7
 70
     1
102
RTVSPropertyOp8
 70
     1
102
RTVSPropertyOp9
 70
     1
102
RTVSPropertyOp10
 70
     1
102
RTVSPropertyOp11
 70
     1
102
RTVSPropertyOp12
 70
     1
102
RTVSPropertyOp13
 70
     1
102
RTVSPropertyOp14
 70
     1
102
RTVSPropertyOp15
 70
     1
102
RTVSPropertyOp16
 70
     1
102
RTVSPropertyOp17
 70
     1
102
RTVSPropertyOp18
 70
     1
102
RTVSPropertyOp19
 70
     1
102
RTVSPropertyOp20
 70
     1
102
RTVSPropertyOp21
 70
     1
102
RTVSPropertyOp22
 70
     1
102
RTVSPropertyOp23
 70
     1
102
RTVSPropertyOp24
 70
     1
102
RTVSPropertyOp25
 70
     1
102
RTVSPropertyOp26
 70
     1
102
RTVSPropertyOp27
 70
     1
102
RTVSPropertyOp28
 70
     1
102
RTVSPropertyOp29
 70
     1
102
RTVSPropertyOp30
 70
     1
102
RTVSPropertyOp31
 70
     1
102
RTVSPropertyOp32
 70
     1
102
RTVSPropertyOp33
 70
     1
102
RTVSPropertyOp34
 70
     1
102
RTVSPropertyOp35
 70
     1
102
RTVSPropertyOp36
 70
     1
102
RTVSPropertyOp37
 70
     1
102
RTVSPropertyOp38
 70
     1
102
RTVSPropertyOp39
 70
     1
102
RTVSPropertyOp40
 70
     1
102
RTVSPropertyOp41
 70
     1
102
RTVSPropertyOp42
 70
     1
102
RTVSPropertyOp43
 70
     1
102
RTVSPropertyOp44
 70
     1
102
RTVSPropertyOp45
 70
     1
102
RTVSPropertyOp46
 70
     1
102
RTVSPropertyOp47
 70
     1
102
RTVSPropertyOp48
 70
     1
102
RTVSPropertyOp49
 70
     1
102
RTVSPropertyOp50
 70
     1
102
RTVSPropertyOp51
 70
     0
102
RTVSPropertyOp52
 70
     0
102
RTVSPropertyOp53
 70
     1
102
RTVSPropertyOp54
 70
     1
102
RTVSPropertyOp55
 70
     1
102
RTVSPropertyOp56
 70
     1
102
RTVSPropertyOp57
 70
     1
102
RTVSPropertyOp58
 70
     1
102
RTVSPropertyOp59
 70
     1
102
RTVSPropertyOp60
 70
     1
102
RTVSPropertyOp61
 70
     1
102
RTVSPropertyOp62
 70
     1
  0
ENDSEC
  0
EOF
