  0
SECTION
  2
HEADER
  9
$ACADVER
  1
AC1015
  9
$ACADMAINTVER
 70
    13
  9
$DWGCODEPAGE
  3
ANSI_932
  9
$INSBASE
 10
0.0
 20
0.0
 30
0.0
  9
$EXTMIN
 10
87.29894479087329
 20
157.8848256947339
 30
0.0
  9
$EXTMAX
 10
22667.75661683556
 20
25237.84085048484
 30
0.0
  9
$LIMMIN
 10
0.0
 20
0.0
  9
$LIMMAX
 10
420.0
 20
297.0
  9
$ORTHOMODE
 70
     0
  9
$REGENMODE
 70
     1
  9
$FILLMODE
 70
     1
  9
$QTEXTMODE
 70
     0
  9
$MIRRTEXT
 70
     1
  9
$LTSCALE
 40
0.25
  9
$ATTMODE
 70
     1
  9
$TEXTSIZE
 40
0.2
  9
$TRACEWID
 40
0.05
  9
$TEXTSTYLE
  7
STANDARD
  9
$CLAYER
  8
0
  9
$CELTYPE
  6
ByLayer
  9
$CECOLOR
 62
   256
  9
$CELTSCALE
 40
1.0
  9
$DISPSILH
 70
     0
  9
$DIMSCALE
 40
1.0
  9
$DIMASZ
 40
1.0
  9
$DIMEXO
 40
0.0
  9
$DIMDLI
 40
0.5
  9
$DIMRND
 40
0.0
  9
$DIMDLE
 40
0.0
  9
$DIMEXE
 40
0.0
  9
$DIMTP
 40
0.0
  9
$DIMTM
 40
0.0
  9
$DIMTXT
 40
0.18
  9
$DIMCEN
 40
0.0
  9
$DIMTSZ
 40
0.0
  9
$DIMTOL
 70
     0
  9
$DIMLIM
 70
     0
  9
$DIMTIH
 70
     1
  9
$DIMTOH
 70
     1
  9
$DIMSE1
 70
     0
  9
$DIMSE2
 70
     0
  9
$DIMTAD
 70
     0
  9
$DIMZIN
 70
     0
  9
$DIMBLK
  1

  9
$DIMASO
 70
     0
  9
$DIMSHO
 70
     0
  9
$DIMPOST
  1

  9
$DIMAPOST
  1

  9
$DIMALT
 70
     0
  9
$DIMALTD
 70
     0
  9
$DIMALTF
 40
25.4
  9
$DIMLFAC
 40
1.0
  9
$DIMTOFL
 70
     0
  9
$DIMTVP
 40
0.0
  9
$DIMTIX
 70
     0
  9
$DIMSOXD
 70
     0
  9
$DIMSAH
 70
     0
  9
$DIMBLK1
  1

  9
$DIMBLK2
  1

  9
$DIMSTYLE
  2
Standard
  9
$DIMCLRD
 70
     0
  9
$DIMCLRE
 70
     0
  9
$DIMCLRT
 70
     0
  9
$DIMTFAC
 40
1.0
  9
$DIMGAP
 40
0.09
  9
$DIMJUST
 70
     0
  9
$DIMSD1
 70
     0
  9
$DIMSD2
 70
     0
  9
$DIMTOLJ
 70
     1
  9
$DIMTZIN
 70
     0
  9
$DIMALTZ
 70
     0
  9
$DIMALTTZ
 70
     0
  9
$DIMUPT
 70
     0
  9
$DIMDEC
 70
     4
  9
$DIMTDEC
 70
     4
  9
$DIMALTU
 70
     2
  9
$DIMALTTD
 70
     2
  9
$DIMTXSTY
  7
STANDARD
  9
$DIMAUNIT
 70
     0
  9
$DIMADEC
 70
     0
  9
$DIMALTRND
 40
0.0
  9
$DIMAZIN
 70
     0
  9
$DIMDSEP
 70
    46
  9
$DIMATFIT
 70
     3
  9
$DIMFRAC
 70
     0
  9
$DIMLDRBLK
  1

  9
$DIMLUNIT
 70
     2
  9
$DIMLWD
 70
    -2
  9
$DIMLWE
 70
    -2
  9
$DIMTMOVE
 70
     0
  9
$LUNITS
 70
     2
  9
$LUPREC
 70
     2
  9
$SKETCHINC
 40
0.0
  9
$FILLETRAD
 40
0.0
  9
$AUNITS
 70
     1
  9
$AUPREC
 70
     2
  9
$MENU
  1
ACAD
  9
$ELEVATION
 40
0.0
  9
$PELEVATION
 40
0.0
  9
$THICKNESS
 40
0.0
  9
$LIMCHECK
 70
     1
  9
$CHAMFERA
 40
0.0
  9
$CHAMFERB
 40
0.0
  9
$CHAMFERC
 40
0.0
  9
$CHAMFERD
 40
0.0
  9
$SKPOLY
 70
     0
  9
$TDCREATE
 40
2312275.042624317
  9
$TDUCREATE
 40
2312274.667624317
  9
$TDUPDATE
 40
2455448.487888101
  9
$TDUUPDATE
 40
2455448.112888102
  9
$TDINDWG
 40
0.0017248958
  9
$TDUSRTIMER
 40
0.0017247222
  9
$USRTIMER
 70
     1
  9
$ANGBASE
 50
0.0
  9
$ANGDIR
 70
     0
  9
$PDMODE
 70
     0
  9
$PDSIZE
 40
0.0
  9
$PLINEWID
 40
0.0
  9
$SPLFRAME
 70
     0
  9
$SPLINETYPE
 70
     6
  9
$SPLINESEGS
 70
     8
  9
$HANDSEED
  5
93B
  9
$SURFTAB1
 70
     6
  9
$SURFTAB2
 70
     6
  9
$SURFTYPE
 70
     6
  9
$SURFU
 70
     6
  9
$SURFV
 70
     6
  9
$UCSBASE
  2

  9
$UCSNAME
  2

  9
$UCSORG
 10
0.0
 20
0.0
 30
0.0
  9
$UCSXDIR
 10
1.0
 20
0.0
 30
0.0
  9
$UCSYDIR
 10
0.0
 20
1.0
 30
0.0
  9
$UCSORTHOREF
  2

  9
$UCSORTHOVIEW
 70
     0
  9
$UCSORGTOP
 10
0.0
 20
0.0
 30
0.0
  9
$UCSORGBOTTOM
 10
0.0
 20
0.0
 30
0.0
  9
$UCSORGLEFT
 10
0.0
 20
0.0
 30
0.0
  9
$UCSORGRIGHT
 10
0.0
 20
0.0
 30
0.0
  9
$UCSORGFRONT
 10
0.0
 20
0.0
 30
0.0
  9
$UCSORGBACK
 10
0.0
 20
0.0
 30
0.0
  9
$PUCSBASE
  2

  9
$PUCSNAME
  2

  9
$PUCSORG
 10
0.0
 20
0.0
 30
0.0
  9
$PUCSXDIR
 10
1.0
 20
0.0
 30
0.0
  9
$PUCSYDIR
 10
0.0
 20
1.0
 30
0.0
  9
$PUCSORTHOREF
  2

  9
$PUCSORTHOVIEW
 70
     0
  9
$PUCSORGTOP
 10
0.0
 20
0.0
 30
0.0
  9
$PUCSORGBOTTOM
 10
0.0
 20
0.0
 30
0.0
  9
$PUCSORGLEFT
 10
0.0
 20
0.0
 30
0.0
  9
$PUCSORGRIGHT
 10
0.0
 20
0.0
 30
0.0
  9
$PUCSORGFRONT
 10
0.0
 20
0.0
 30
0.0
  9
$PUCSORGBACK
 10
0.0
 20
0.0
 30
0.0
  9
$USERI1
 70
     0
  9
$USERI2
 70
     0
  9
$USERI3
 70
     0
  9
$USERI4
 70
     0
  9
$USERI5
 70
     0
  9
$USERR1
 40
0.0
  9
$USERR2
 40
0.0
  9
$USERR3
 40
0.0
  9
$USERR4
 40
0.0
  9
$USERR5
 40
0.0
  9
$WORLDVIEW
 70
     1
  9
$SHADEDGE
 70
     3
  9
$SHADEDIF
 70
    70
  9
$TILEMODE
 70
     1
  9
$MAXACTVP
 70
    64
  9
$PINSBASE
 10
0.0
 20
0.0
 30
0.0
  9
$PLIMCHECK
 70
     0
  9
$PEXTMIN
 10
0.0
 20
0.0
 30
0.0
  9
$PEXTMAX
 10
420.0
 20
297.0
 30
0.0
  9
$PLIMMIN
 10
0.0
 20
0.0
  9
$PLIMMAX
 10
12.0
 20
9.0
  9
$UNITMODE
 70
     0
  9
$VISRETAIN
 70
     1
  9
$PLINEGEN
 70
     0
  9
$PSLTSCALE
 70
     1
  9
$TREEDEPTH
 70
  3020
  9
$CMLSTYLE
  2
Standard
  9
$CMLJUST
 70
     0
  9
$CMLSCALE
 40
1.0
  9
$PROXYGRAPHICS
 70
     1
  9
$MEASUREMENT
 70
     0
  9
$CELWEIGHT
370
    -1
  9
$ENDCAPS
280
     0
  9
$JOINSTYLE
280
     0
  9
$LWDISPLAY
290
     0
  9
$INSUNITS
 70
     0
  9
$HYPERLINKBASE
  1

  9
$STYLESHEET
  1

  9
$XEDIT
290
     1
  9
$CEPSNTYPE
380
     0
  9
$PSTYLEMODE
290
     1
  9
$FINGERPRINTGUID
  2
{C895CF98-4879-425C-8BEC-F84EC56EBACE}
  9
$VERSIONGUID
  2
{1CA38549-7B58-49FA-ABEF-3BF4596E9D3E}
  9
$EXTNAMES
290
     1
  9
$PSVPSCALE
 40
0.0
  9
$OLESTARTUP
290
     0
  0
ENDSEC
  0
SECTION
  2
CLASSES
  0
CLASS
  1
ACDBDICTIONARYWDFLT
  2
AcDbDictionaryWithDefault
  3
AutoCAD 2000
 90
        0
280
     0
281
     0
  0
CLASS
  1
ACDBPLACEHOLDER
  2
AcDbPlaceHolder
  3
AutoCAD 2000
 90
        0
280
     0
281
     0
  0
CLASS
  1
LAYOUT
  2
AcDbLayout
  3
AutoCAD 2000
 90
        0
280
     0
281
     0
  0
CLASS
  1
DICTIONARYVAR
  2
AcDbDictionaryVar
  3
AutoCAD 2000
 90
        0
280
     0
281
     0
  0
ENDSEC
  0
SECTION
  2
TABLES
  0
TABLE
  2
VPORT
  5
8
330
0
100
AcDbSymbolTable
 70
     2
  0
VPORT
  5
93A
330
8
100
AcDbSymbolTableRecord
100
AcDbViewportTableRecord
  2
*Active
 70
     0
 10
0.0
 20
0.0
 11
1.0
 21
1.0
 12
11377.52778081322
 22
12697.86283808978
 13
0.0
 23
0.0
 14
1.0
 24
1.0
 15
0.0
 25
0.0
 16
0.0
 26
0.0
 36
1.0
 17
0.0
 27
0.0
 37
0.0
 40
25289.53783001119
 41
1.732217573221757
 42
50.0
 43
0.0
 44
0.0
 50
0.0
 51
0.0
 71
     0
 72
   100
 73
     1
 74
     1
 75
     0
 76
     0
 77
     0
 78
     0
281
     0
 65
     1
110
0.0
120
0.0
130
0.0
111
1.0
121
0.0
131
0.0
112
0.0
122
1.0
132
0.0
 79
     0
146
0.0
  0
ENDTAB
  0
TABLE
  2
LTYPE
  5
5
330
0
100
AcDbSymbolTable
 70
     5
  0
LTYPE
  5
13
330
5
100
AcDbSymbolTableRecord
100
AcDbLinetypeTableRecord
  2
ByBlock
 70
     0
  3

 72
    65
 73
     0
 40
0.0
  0
LTYPE
  5
14
330
5
100
AcDbSymbolTableRecord
100
AcDbLinetypeTableRecord
  2
ByLayer
 70
     0
  3

 72
    65
 73
     0
 40
0.0
  0
LTYPE
  5
15
330
5
100
AcDbSymbolTableRecord
100
AcDbLinetypeTableRecord
  2
CONTINUOUS
 70
     0
  3
Solid line
 72
    65
 73
     0
 40
0.0
  0
LTYPE
  5
22
330
5
100
AcDbSymbolTableRecord
100
AcDbLinetypeTableRecord
  2
HIDDEN
 70
     0
  3
------------------------
 72
    65
 73
     2
 40
12.6
 49
8.4
 74
     0
 49
-4.2
 74
     0
  0
LTYPE
  5
23
330
5
100
AcDbSymbolTableRecord
100
AcDbLinetypeTableRecord
  2
DOT
 70
     0
  3
････････････････････････
 72
    65
 73
     2
 40
8.0
 49
6.0
 74
     0
 49
-2.0
 74
     0
  0
LTYPE
  5
24
330
5
100
AcDbSymbolTableRecord
100
AcDbLinetypeTableRecord
  2
DASHDOT
 70
     0
  3
--･--･--･--･--･--･--･--
 72
    65
 73
     4
 40
50.5
 49
30.0
 74
     0
 49
-9.0
 74
     0
 49
2.5
 74
     0
 49
-9.0
 74
     0
  0
LTYPE
  5
25
330
5
100
AcDbSymbolTableRecord
100
AcDbLinetypeTableRecord
  2
DIVIDE
 70
     0
  3
--･･--･･--･･--･･--･･--
 72
    65
 73
     6
 40
58.0
 49
30.0
 74
     0
 49
-9.0
 74
     0
 49
2.5
 74
     0
 49
-5.0
 74
     0
 49
2.5
 74
     0
 49
-9.0
 74
     0
  0
ENDTAB
  0
TABLE
  2
LAYER
  5
2
102
{ACAD_XDICTIONARY
360
385
102
}
330
0
100
AcDbSymbolTable
 70
     4
  0
LAYER
  5
10
330
2
100
AcDbSymbolTableRecord
100
AcDbLayerTableRecord
  2
0
 70
     0
 62
     7
  6
CONTINUOUS
370
    -3
390
F
  0
LAYER
  5
26
330
2
100
AcDbSymbolTableRecord
100
AcDbLayerTableRecord
  2
1
 70
     0
 62
     7
  6
CONTINUOUS
370
    -3
390
F
  0
LAYER
  5
27
330
2
100
AcDbSymbolTableRecord
100
AcDbLayerTableRecord
  2
15
 70
     0
 62
    96
  6
CONTINUOUS
370
    -3
390
F
  0
LAYER
  5
382
330
2
100
AcDbSymbolTableRecord
100
AcDbLayerTableRecord
  2
DEFPOINTS
 70
     0
 62
     7
  6
CONTINUOUS
290
     0
370
    -3
390
F
  0
ENDTAB
  0
TABLE
  2
STYLE
  5
3
330
0
100
AcDbSymbolTable
 70
     2
  0
STYLE
  5
11
330
3
100
AcDbSymbolTableRecord
100
AcDbTextStyleTableRecord
  2
STANDARD
 70
     0
 40
0.0
 41
1.0
 50
0.0
 71
     0
 42
0.2
  3
TXT
  4

  0
STYLE
  5
28
330
3
100
AcDbSymbolTableRecord
100
AcDbTextStyleTableRecord
  2
KANJI
 70
     0
 40
0.0
 41
1.0
 50
0.0
 71
     0
 42
0.2
  3
TXT
  4
BIGFONT
  0
ENDTAB
  0
TABLE
  2
VIEW
  5
6
330
0
100
AcDbSymbolTable
 70
     0
  0
ENDTAB
  0
TABLE
  2
UCS
  5
7
330
0
100
AcDbSymbolTable
 70
     0
  0
ENDTAB
  0
TABLE
  2
APPID
  5
9
330
0
100
AcDbSymbolTable
 70
     2
  0
APPID
  5
12
330
9
100
AcDbSymbolTableRecord
100
AcDbRegAppTableRecord
  2
ACAD
 70
     0
  0
APPID
  5
384
330
9
100
AcDbSymbolTableRecord
100
AcDbRegAppTableRecord
  2
ACAD_PSEXT
 70
     0
  0
ENDTAB
  0
TABLE
  2
DIMSTYLE
  5
A
330
0
100
AcDbSymbolTable
 70
     2
100
AcDbDimStyleTable
 71
     0
  0
DIMSTYLE
105
355
102
{ACAD_REACTORS
330
65B
330
674
330
678
102
}
330
A
100
AcDbSymbolTableRecord
100
AcDbDimStyleTableRecord
  2
Standard
 70
     0
340
11
  0
DIMSTYLE
105
383
330
A
100
AcDbSymbolTableRecord
100
AcDbDimStyleTableRecord
  2
ISO-25
 70
     0
 41
2.5
 42
0.625
 43
3.75
 44
1.25
 73
     0
 74
     0
 77
     1
 78
     8
140
2.5
141
2.5
143
0.03937007874016
147
0.625
171
     3
172
     1
271
     2
272
     2
274
     3
278
    44
283
     0
284
     8
340
11
  0
ENDTAB
  0
TABLE
  2
BLOCK_RECORD
  5
1
330
0
100
AcDbSymbolTable
 70
     8
  0
BLOCK_RECORD
  5
1E
330
1
100
AcDbSymbolTableRecord
100
AcDbBlockTableRecord
  2
*Model_Space
340
21
  0
BLOCK_RECORD
  5
1A
330
1
100
AcDbSymbolTableRecord
100
AcDbBlockTableRecord
  2
*Paper_Space
340
1D
  0
BLOCK_RECORD
  5
357
330
1
100
AcDbSymbolTableRecord
100
AcDbBlockTableRecord
  2
_OPEN30
340
0
102
{BLKREFS
331
37A
331
37B
331
36D
331
36E
331
361
331
362
331
8FB
331
8FC
331
907
331
908
331
914
331
915
331
91F
331
920
331
928
331
929
331
932
331
933
102
}
  0
BLOCK_RECORD
  5
35D
330
1
100
AcDbSymbolTableRecord
100
AcDbBlockTableRecord
  2
*D1
340
0
  0
BLOCK_RECORD
  5
369
330
1
100
AcDbSymbolTableRecord
100
AcDbBlockTableRecord
  2
*D2
340
0
  0
BLOCK_RECORD
  5
375
330
1
100
AcDbSymbolTableRecord
100
AcDbBlockTableRecord
  2
*D3
340
0
  0
BLOCK_RECORD
  5
8F7
330
1
100
AcDbSymbolTableRecord
100
AcDbBlockTableRecord
  2
*D5
340
0
  0
BLOCK_RECORD
  5
903
330
1
100
AcDbSymbolTableRecord
100
AcDbBlockTableRecord
  2
*D6
340
0
  0
BLOCK_RECORD
  5
90F
330
1
100
AcDbSymbolTableRecord
100
AcDbBlockTableRecord
  2
*D7
340
0
  0
ENDTAB
  0
ENDSEC
  0
SECTION
  2
BLOCKS
  0
BLOCK
  5
1F
330
1E
100
AcDbEntity
  8
0
100
AcDbBlockBegin
  2
*Model_Space
 70
     0
 10
0.0
 20
0.0
 30
0.0
  3
*Model_Space
  1

  0
ENDBLK
  5
20
330
1E
100
AcDbEntity
  8
0
100
AcDbBlockEnd
  0
BLOCK
  5
1B
330
1A
100
AcDbEntity
 67
     1
  8
0
100
AcDbBlockBegin
  2
*Paper_Space
 70
     0
 10
0.0
 20
0.0
 30
0.0
  3
*Paper_Space
  1

  0
ENDBLK
  5
1C
330
1A
100
AcDbEntity
 67
     1
  8
0
100
AcDbBlockEnd
  0
BLOCK
  5
35B
330
357
100
AcDbEntity
  8
0
 62
     0
100
AcDbBlockBegin
  2
_OPEN30
 70
     2
 10
0.0
 20
0.0
 30
0.0
  3
_OPEN30
  1

  0
LINE
  5
358
330
357
100
AcDbEntity
  8
0
  6
ByBlock
 62
     0
100
AcDbLine
 10
-1.0
 20
0.267949
 30
0.0
 11
0.0
 21
0.0
 31
0.0
  0
LINE
  5
359
330
357
100
AcDbEntity
  8
0
  6
ByBlock
 62
     0
100
AcDbLine
 10
0.0
 20
0.0
 30
0.0
 11
-1.0
 21
-0.267949
 31
0.0
  0
LINE
  5
35A
330
357
100
AcDbEntity
  8
0
  6
ByBlock
 62
     0
100
AcDbLine
 10
0.0
 20
0.0
 30
0.0
 11
-1.0
 21
0.0
 31
0.0
  0
ENDBLK
  5
35C
330
357
100
AcDbEntity
  8
0
 62
     0
100
AcDbBlockEnd
  0
BLOCK
  5
367
330
35D
100
AcDbEntity
  8
0
100
AcDbBlockBegin
  2
*D1
 70
     1
 10
0.0
 20
0.0
 30
0.0
  3
*D1
  1

  0
LINE
  5
35E
330
35D
100
AcDbEntity
  8
1
  6
Continuous
 62
     0
370
    13
100
AcDbLine
 10
98461.91995217862
 20
52873.35102045986
 30
0.0
 11
100489.807229045
 21
52873.35102045986
 31
0.0
  0
LINE
  5
35F
330
35D
100
AcDbEntity
  8
1
  6
Continuous
 62
     0
370
    13
100
AcDbLine
 10
98461.91995217862
 20
45730.95102045985
 30
0.0
 11
100489.807229045
 21
45730.95102045985
 31
0.0
  0
LINE
  5
360
330
35D
100
AcDbEntity
  8
1
  6
Continuous
 62
     0
370
    13
100
AcDbLine
 10
100489.627229045
 20
52373.35102045986
 30
0.0
 11
100489.627229045
 21
46230.95102045986
 31
0.0
  0
INSERT
  5
361
330
35D
100
AcDbEntity
  8
1
  6
Continuous
 62
     0
370
    13
100
AcDbBlockReference
  2
_OPEN30
 10
100489.627229045
 20
52873.35102045986
 30
0.0
 41
500.0
 42
500.0
 43
500.0
 50
90.0
  0
INSERT
  5
362
330
35D
100
AcDbEntity
  8
1
  6
Continuous
 62
     0
370
    13
100
AcDbBlockReference
  2
_OPEN30
 10
100489.627229045
 20
45730.95102045985
 30
0.0
 41
500.0
 42
500.0
 43
500.0
 50
270.0
  0
MTEXT
  5
363
330
35D
100
AcDbEntity
  8
1
  6
Continuous
 62
     0
370
    13
100
AcDbMText
 10
100239.627229045
 20
49302.15102045986
 30
0.0
 40
400.0
 41
0.0
 71
     5
 72
     1
  1
\A1;124
 11
0.0000000000000001
 21
1.0
 31
0.0
 73
     1
 44
1.0
  0
POINT
  5
364
330
35D
100
AcDbEntity
  8
DEFPOINTS
  6
Continuous
 62
     0
100
AcDbPoint
 10
98461.85745217862
 20
52873.35102045986
 30
0.0
  0
POINT
  5
365
330
35D
100
AcDbEntity
  8
DEFPOINTS
  6
Continuous
 62
     0
100
AcDbPoint
 10
98461.85745217862
 20
45730.95102045985
 30
0.0
  0
POINT
  5
366
330
35D
100
AcDbEntity
  8
DEFPOINTS
  6
Continuous
 62
     0
100
AcDbPoint
 10
100489.627229045
 20
45730.95102045985
 30
0.0
  0
ENDBLK
  5
368
330
35D
100
AcDbEntity
  8
0
100
AcDbBlockEnd
  0
BLOCK
  5
373
330
369
100
AcDbEntity
  8
0
100
AcDbBlockBegin
  2
*D2
 70
     1
 10
0.0
 20
0.0
 30
0.0
  3
*D2
  1

  0
LINE
  5
36A
330
369
100
AcDbEntity
  8
1
  6
Continuous
 62
     0
370
    13
100
AcDbLine
 10
94660.25745217864
 20
46460.48852045985
 30
0.0
 11
94660.25745217864
 21
44522.59152180888
 31
0.0
  0
LINE
  5
36B
330
369
100
AcDbEntity
  8
1
  6
Continuous
 62
     0
370
    13
100
AcDbLine
 10
99037.85745217865
 20
46306.88852045985
 30
0.0
 11
99037.85745217865
 21
44522.59152180888
 31
0.0
  0
LINE
  5
36C
330
369
100
AcDbEntity
  8
1
  6
Continuous
 62
     0
370
    13
100
AcDbLine
 10
95160.25745217865
 20
44522.77152180888
 30
0.0
 11
98537.85745217866
 21
44522.77152180888
 31
0.0
  0
INSERT
  5
36D
330
369
100
AcDbEntity
  8
1
  6
Continuous
 62
     0
370
    13
100
AcDbBlockReference
  2
_OPEN30
 10
94660.25745217864
 20
44522.77152180888
 30
0.0
 41
500.0
 42
500.0
 43
500.0
 50
180.0
  0
INSERT
  5
36E
330
369
100
AcDbEntity
  8
1
  6
Continuous
 62
     0
370
    13
100
AcDbBlockReference
  2
_OPEN30
 10
99037.85745217865
 20
44522.77152180888
 30
0.0
 41
500.0
 42
500.0
 43
500.0
  0
MTEXT
  5
36F
330
369
100
AcDbEntity
  8
1
  6
Continuous
 62
     0
370
    13
100
AcDbMText
 10
96849.05745217864
 20
44772.77152180888
 30
0.0
 40
400.0
 41
0.0
 71
     5
 72
     1
  1
\A1;76
 73
     1
 44
1.0
  0
POINT
  5
370
330
369
100
AcDbEntity
  8
DEFPOINTS
  6
Continuous
 62
     0
100
AcDbPoint
 10
94660.25745217864
 20
46460.55102045985
 30
0.0
  0
POINT
  5
371
330
369
100
AcDbEntity
  8
DEFPOINTS
  6
Continuous
 62
     0
100
AcDbPoint
 10
99037.85745217865
 20
46306.95102045986
 30
0.0
  0
POINT
  5
372
330
369
100
AcDbEntity
  8
DEFPOINTS
  6
Continuous
 62
     0
100
AcDbPoint
 10
99037.85745217865
 20
44522.77152180888
 30
0.0
  0
ENDBLK
  5
374
330
369
100
AcDbEntity
  8
0
100
AcDbBlockEnd
  0
BLOCK
  5
380
330
375
100
AcDbEntity
  8
0
100
AcDbBlockBegin
  2
*D3
 70
     1
 10
0.0
 20
0.0
 30
0.0
  3
*D3
  1

  0
LINE
  5
376
330
375
100
AcDbEntity
  8
1
  6
Continuous
 62
     0
370
    13
100
AcDbLine
 10
101572.2574521786
 20
46018.95102045985
 30
0.0
 11
101572.2574521786
 21
44522.41152180888
 31
0.0
  0
LINE
  5
377
330
375
100
AcDbEntity
  8
1
  6
Continuous
 62
     0
370
    13
100
AcDbLine
 10
102436.2574521786
 20
46018.88852045985
 30
0.0
 11
102436.2574521786
 21
44522.41152180888
 31
0.0
  0
LINE
  5
378
330
375
100
AcDbEntity
  8
1
  6
Continuous
 62
     0
370
    13
100
AcDbLine
 10
101072.2574521786
 20
44522.59152180888
 30
0.0
 11
100572.2574521786
 21
44522.59152180888
 31
0.0
  0
LINE
  5
379
330
375
100
AcDbEntity
  8
1
  6
Continuous
 62
     0
370
    13
100
AcDbLine
 10
102936.2574521786
 20
44522.59152180888
 30
0.0
 11
103436.2574521786
 21
44522.59152180888
 31
0.0
  0
INSERT
  5
37A
330
375
100
AcDbEntity
  8
1
  6
Continuous
 62
     0
370
    13
100
AcDbBlockReference
  2
_OPEN30
 10
101572.2574521786
 20
44522.59152180888
 30
0.0
 41
500.0
 42
500.0
 43
500.0
  0
INSERT
  5
37B
330
375
100
AcDbEntity
  8
1
  6
Continuous
 62
     0
370
    13
100
AcDbBlockReference
  2
_OPEN30
 10
102436.2574521786
 20
44522.59152180888
 30
0.0
 41
500.0
 42
500.0
 43
500.0
 50
180.0
  0
MTEXT
  5
37C
330
375
100
AcDbEntity
  8
1
  6
Continuous
 62
     0
370
    13
100
AcDbMText
 10
102004.2574521786
 20
44772.59152180888
 30
0.0
 40
400.0
 41
0.0
 71
     5
 72
     1
  1
\A1;15
 73
     1
 44
1.0
  0
POINT
  5
37D
330
375
100
AcDbEntity
  8
DEFPOINTS
  6
Continuous
 62
     0
100
AcDbPoint
 10
101572.2574521786
 20
46019.01352045985
 30
0.0
  0
POINT
  5
37E
330
375
100
AcDbEntity
  8
DEFPOINTS
  6
Continuous
 62
     0
100
AcDbPoint
 10
102436.2574521786
 20
46018.95102045985
 30
0.0
  0
POINT
  5
37F
330
375
100
AcDbEntity
  8
DEFPOINTS
  6
Continuous
 62
     0
100
AcDbPoint
 10
102436.2574521786
 20
44522.59152180888
 30
0.0
  0
ENDBLK
  5
381
330
375
100
AcDbEntity
  8
0
100
AcDbBlockEnd
  0
BLOCK
  5
901
330
8F7
100
AcDbEntity
  8
0
100
AcDbBlockBegin
  2
*D5
 70
     1
 10
0.0
 20
0.0
 30
0.0
  3
*D5
  1

  0
LINE
  5
91C
330
8F7
100
AcDbEntity
  8
1
  6
Continuous
 62
     0
370
    13
100
AcDbLine
 10
10022.33938785508
 20
18768.03474552221
 30
0.0
 11
12050.22666472147
 21
18768.03474552221
 31
0.0
  0
LINE
  5
91D
330
8F7
100
AcDbEntity
  8
1
  6
Continuous
 62
     0
370
    13
100
AcDbLine
 10
10022.33938785508
 20
11625.63474552219
 30
0.0
 11
12050.22666472147
 21
11625.63474552219
 31
0.0
  0
LINE
  5
91E
330
8F7
100
AcDbEntity
  8
1
  6
Continuous
 62
     0
370
    13
100
AcDbLine
 10
12050.04666472147
 20
18268.03474552221
 30
0.0
 11
12050.04666472147
 21
12125.6347455222
 31
0.0
  0
INSERT
  5
91F
330
8F7
100
AcDbEntity
  8
1
  6
Continuous
 62
     0
370
    13
100
AcDbBlockReference
  2
_OPEN30
 10
12050.04666472147
 20
18768.03474552221
 30
0.0
 41
500.0
 42
500.0
 43
500.0
 50
90.0
  0
INSERT
  5
920
330
8F7
100
AcDbEntity
  8
1
  6
Continuous
 62
     0
370
    13
100
AcDbBlockReference
  2
_OPEN30
 10
12050.04666472147
 20
11625.63474552219
 30
0.0
 41
500.0
 42
500.0
 43
500.0
 50
270.0
  0
MTEXT
  5
921
330
8F7
100
AcDbEntity
  8
1
  6
Continuous
 62
     0
370
    13
100
AcDbMText
 10
11800.04666472147
 20
15196.8347455222
 30
0.0
 40
400.0
 41
0.0
 71
     5
 72
     1
  1
\A1;124
 11
0.0000000000000001
 21
1.0
 31
0.0
 73
     1
 44
1.0
  0
POINT
  5
922
330
8F7
100
AcDbEntity
  8
DEFPOINTS
  6
Continuous
 62
     0
100
AcDbPoint
 10
10022.27688785508
 20
18768.03474552221
 30
0.0
  0
POINT
  5
923
330
8F7
100
AcDbEntity
  8
DEFPOINTS
  6
Continuous
 62
     0
100
AcDbPoint
 10
10022.27688785508
 20
11625.63474552219
 30
0.0
  0
POINT
  5
924
330
8F7
100
AcDbEntity
  8
DEFPOINTS
  6
Continuous
 62
     0
100
AcDbPoint
 10
12050.04666472147
 20
11625.63474552219
 30
0.0
  0
ENDBLK
  5
902
330
8F7
100
AcDbEntity
  8
0
100
AcDbBlockEnd
  0
BLOCK
  5
90D
330
903
100
AcDbEntity
  8
0
100
AcDbBlockBegin
  2
*D6
 70
     1
 10
0.0
 20
0.0
 30
0.0
  3
*D6
  1

  0
LINE
  5
925
330
903
100
AcDbEntity
  8
1
  6
Continuous
 62
     0
370
    13
100
AcDbLine
 10
6220.676887855105
 20
12355.17224552219
 30
0.0
 11
6220.676887855105
 21
10417.27524687122
 31
0.0
  0
LINE
  5
926
330
903
100
AcDbEntity
  8
1
  6
Continuous
 62
     0
370
    13
100
AcDbLine
 10
10598.27688785511
 20
12201.5722455222
 30
0.0
 11
10598.27688785511
 21
10417.27524687122
 31
0.0
  0
LINE
  5
927
330
903
100
AcDbEntity
  8
1
  6
Continuous
 62
     0
370
    13
100
AcDbLine
 10
6720.676887855105
 20
10417.45524687123
 30
0.0
 11
10098.27688785511
 21
10417.45524687123
 31
0.0
  0
INSERT
  5
928
330
903
100
AcDbEntity
  8
1
  6
Continuous
 62
     0
370
    13
100
AcDbBlockReference
  2
_OPEN30
 10
6220.676887855105
 20
10417.45524687123
 30
0.0
 41
500.0
 42
500.0
 43
500.0
 50
180.0
  0
INSERT
  5
929
330
903
100
AcDbEntity
  8
1
  6
Continuous
 62
     0
370
    13
100
AcDbBlockReference
  2
_OPEN30
 10
10598.27688785511
 20
10417.45524687123
 30
0.0
 41
500.0
 42
500.0
 43
500.0
  0
MTEXT
  5
92A
330
903
100
AcDbEntity
  8
1
  6
Continuous
 62
     0
370
    13
100
AcDbMText
 10
8409.476887855108
 20
10667.45524687123
 30
0.0
 40
400.0
 41
0.0
 71
     5
 72
     1
  1
\A1;76
 73
     1
 44
1.0
  0
POINT
  5
92B
330
903
100
AcDbEntity
  8
DEFPOINTS
  6
Continuous
 62
     0
100
AcDbPoint
 10
6220.676887855105
 20
12355.23474552219
 30
0.0
  0
POINT
  5
92C
330
903
100
AcDbEntity
  8
DEFPOINTS
  6
Continuous
 62
     0
100
AcDbPoint
 10
10598.27688785511
 20
12201.6347455222
 30
0.0
  0
POINT
  5
92D
330
903
100
AcDbEntity
  8
DEFPOINTS
  6
Continuous
 62
     0
100
AcDbPoint
 10
10598.27688785511
 20
10417.45524687123
 30
0.0
  0
ENDBLK
  5
90E
330
903
100
AcDbEntity
  8
0
100
AcDbBlockEnd
  0
BLOCK
  5
91A
330
90F
100
AcDbEntity
  8
0
100
AcDbBlockBegin
  2
*D7
 70
     1
 10
0.0
 20
0.0
 30
0.0
  3
*D7
  1

  0
LINE
  5
92E
330
90F
100
AcDbEntity
  8
1
  6
Continuous
 62
     0
370
    13
100
AcDbLine
 10
13132.6768878551
 20
11913.6347455222
 30
0.0
 11
13132.6768878551
 21
10417.09524687123
 31
0.0
  0
LINE
  5
92F
330
90F
100
AcDbEntity
  8
1
  6
Continuous
 62
     0
370
    13
100
AcDbLine
 10
13996.6768878551
 20
11913.5722455222
 30
0.0
 11
13996.6768878551
 21
10417.09524687123
 31
0.0
  0
LINE
  5
930
330
90F
100
AcDbEntity
  8
1
  6
Continuous
 62
     0
370
    13
100
AcDbLine
 10
12632.6768878551
 20
10417.27524687122
 30
0.0
 11
12132.6768878551
 21
10417.27524687122
 31
0.0
  0
LINE
  5
931
330
90F
100
AcDbEntity
  8
1
  6
Continuous
 62
     0
370
    13
100
AcDbLine
 10
14496.6768878551
 20
10417.27524687122
 30
0.0
 11
14996.6768878551
 21
10417.27524687122
 31
0.0
  0
INSERT
  5
932
330
90F
100
AcDbEntity
  8
1
  6
Continuous
 62
     0
370
    13
100
AcDbBlockReference
  2
_OPEN30
 10
13132.6768878551
 20
10417.27524687122
 30
0.0
 41
500.0
 42
500.0
 43
500.0
  0
INSERT
  5
933
330
90F
100
AcDbEntity
  8
1
  6
Continuous
 62
     0
370
    13
100
AcDbBlockReference
  2
_OPEN30
 10
13996.6768878551
 20
10417.27524687122
 30
0.0
 41
500.0
 42
500.0
 43
500.0
 50
180.0
  0
MTEXT
  5
934
330
90F
100
AcDbEntity
  8
1
  6
Continuous
 62
     0
370
    13
100
AcDbMText
 10
13564.6768878551
 20
10667.27524687123
 30
0.0
 40
400.0
 41
0.0
 71
     5
 72
     1
  1
\A1;15
 73
     1
 44
1.0
  0
POINT
  5
935
330
90F
100
AcDbEntity
  8
DEFPOINTS
  6
Continuous
 62
     0
100
AcDbPoint
 10
13132.6768878551
 20
11913.6972455222
 30
0.0
  0
POINT
  5
936
330
90F
100
AcDbEntity
  8
DEFPOINTS
  6
Continuous
 62
     0
100
AcDbPoint
 10
13996.6768878551
 20
11913.6347455222
 30
0.0
  0
POINT
  5
937
330
90F
100
AcDbEntity
  8
DEFPOINTS
  6
Continuous
 62
     0
100
AcDbPoint
 10
13996.6768878551
 20
10417.27524687122
 30
0.0
  0
ENDBLK
  5
91B
330
90F
100
AcDbEntity
  8
0
100
AcDbBlockEnd
  0
ENDSEC
  0
SECTION
  2
ENTITIES
  0
LINE
  5
641
330
1E
100
AcDbEntity
  8
1
  6
Continuous
 62
     7
370
    13
100
AcDbLine
 10
22667.75661683556
 20
25237.84085048484
 30
0.0
 11
22667.75661683556
 21
157.8848256947339
 31
0.0
  0
LINE
  5
642
330
1E
100
AcDbEntity
  8
1
  6
Continuous
 62
     7
370
    13
100
AcDbLine
 10
87.29894479087329
 20
25237.84085048484
 30
0.0
 11
87.29894479087329
 21
157.8848256947339
 31
0.0
  0
LINE
  5
643
330
1E
100
AcDbEntity
  8
1
  6
Continuous
 62
     7
370
    13
100
AcDbLine
 10
2072.646670221405
 20
4336.360293352739
 30
0.0
 11
20074.64442795241
 21
4336.360293352739
 31
0.0
  0
TEXT
  5
644
330
1E
100
AcDbEntity
  8
1
  6
Continuous
 62
     7
370
    13
100
AcDbText
 10
2468.039719006799
 20
4424.69737905115
 30
0.0
 40
423.007619611172
  1
入力電源
 41
0.8872049999999999
  7
KANJI
100
AcDbText
  0
LINE
  5
645
330
1E
100
AcDbEntity
  8
1
  6
Continuous
 62
     7
370
    13
100
AcDbLine
 10
2072.646670221405
 20
4941.633681450209
 30
0.0
 11
20074.64442795241
 21
4941.633681450209
 31
0.0
  0
TEXT
  5
646
330
1E
100
AcDbEntity
  8
1
  6
Continuous
 62
     7
370
    13
100
AcDbText
 10
2763.120778915526
 20
6880.177355983552
 30
0.0
 40
423.007619611172
  1
項　目
 41
0.944444
  7
KANJI
100
AcDbText
  0
LINE
  5
647
330
1E
100
AcDbEntity
  8
1
  6
Continuous
 62
     7
370
    13
100
AcDbLine
 10
2072.646670221405
 20
5546.907069547679
 30
0.0
 11
20074.64442795241
 21
5546.907069547679
 31
0.0
  0
LINE
  5
648
330
1E
100
AcDbEntity
  8
1
  6
Continuous
 62
     7
370
    13
100
AcDbLine
 10
2072.646670221405
 20
6152.180457645149
 30
0.0
 11
20074.64442795241
 21
6152.180457645149
 31
0.0
  0
LINE
  5
649
330
1E
100
AcDbEntity
  8
1
  6
Continuous
 62
     7
370
    13
100
AcDbLine
 10
2072.646670221405
 20
6757.453845749401
 30
0.0
 11
20074.64442795241
 21
6757.453845749401
 31
0.0
  0
LINE
  5
64A
330
1E
100
AcDbEntity
  8
1
  6
Continuous
 62
     7
370
    13
100
AcDbLine
 10
2072.646670221405
 20
7362.727233850248
 30
0.0
 11
20074.64442795241
 21
7362.727233850248
 31
0.0
  0
LINE
  5
64B
330
1E
100
AcDbEntity
  8
0
370
    13
100
AcDbLine
 10
87.29894479087329
 20
157.8848256947339
 30
0.0
 11
22667.75661683556
 21
157.8848256947339
 31
0.0
  0
TEXT
  5
64C
330
1E
100
AcDbEntity
  8
1
  6
Continuous
 62
     7
370
    13
100
AcDbText
 10
2468.039719006799
 20
5029.97076714862
 30
0.0
 40
423.007619611172
  1
重　量
 41
0.8872049999999999
  7
KANJI
100
AcDbText
  0
LINE
  5
64D
330
1E
100
AcDbEntity
  8
1
  6
Continuous
 62
     7
370
    13
100
AcDbLine
 10
2072.646670221405
 20
7362.727233850248
 30
0.0
 11
2072.646670221405
 21
4336.360293352739
 31
0.0
  0
TEXT
  5
64E
330
1E
100
AcDbEntity
  8
1
  6
Continuous
 62
     7
370
    13
100
AcDbText
 10
2468.039719006799
 20
5635.24415524609
 30
0.0
 40
423.007619611172
  1
彩　色
 41
0.8872049999999999
  7
KANJI
100
AcDbText
  0
TEXT
  5
64F
330
1E
100
AcDbEntity
  8
1
  6
Continuous
 62
     7
370
    13
100
AcDbText
 10
2468.039719006799
 20
6271.263984799089
 30
0.0
 40
423.007619611172
  1
材　質
 41
0.8872049999999999
  7
KANJI
100
AcDbText
  0
TEXT
  5
650
330
1E
100
AcDbEntity
  8
1
  6
Continuous
 62
     7
370
    13
100
AcDbText
 10
5013.516422297627
 20
5635.402269735521
 30
0.0
 40
423.007619611172
  1
本体：ライトグレー　パネル：ダークグレー
 41
0.8872049999999999
  7
KANJI
100
AcDbText
  0
TEXT
  5
651
330
1E
100
AcDbEntity
  8
1
  6
Continuous
 62
     7
370
    13
100
AcDbText
 10
5013.516422297627
 20
5030.12888163805
 30
0.0
 40
423.007619611172
  1
約１５０ｇ
 41
0.8872049999999999
  7
KANJI
100
AcDbText
  0
LINE
  5
652
330
1E
100
AcDbEntity
  8
1
  6
Continuous
 62
     7
370
    13
100
AcDbLine
 10
4724.087516793803
 20
7362.727233850248
 30
0.0
 11
4724.087516793832
 21
4336.360293352739
 31
0.0
  0
TEXT
  5
653
330
1E
100
AcDbEntity
  8
1
  6
Continuous
 62
     7
370
    13
100
AcDbText
 10
5013.516422297627
 20
4424.855493540579
 30
0.0
 40
423.007619611172
  1
出入管理装置より供給
 41
0.8872049999999999
  7
KANJI
100
AcDbText
  0
TEXT
  5
654
330
1E
100
AcDbEntity
  8
1
  6
Continuous
 62
     7
370
    13
100
AcDbText
 10
5013.516422297627
 20
6273.704620794447
 30
0.0
 40
423.007619611172
  1
樹　脂
 41
0.8872049999999999
  7
KANJI
100
AcDbText
  0
TEXT
  5
655
330
1E
100
AcDbEntity
  8
1
  6
Continuous
 62
     7
370
    13
100
AcDbText
 10
12345.77748135412
 20
6881.165553903873
 30
0.0
 40
423.007619611172
  1
内　容
 41
0.8872049999999999
  7
KANJI
100
AcDbText
  0
LINE
  5
656
330
1E
100
AcDbEntity
  8
1
  6
Continuous
 62
     7
370
    13
100
AcDbLine
 10
20074.64442795241
 20
7362.727233850248
 30
0.0
 11
20074.64442795241
 21
4336.360293352739
 31
0.0
  0
TEXT
  5
657
330
1E
100
AcDbEntity
  8
1
  6
Continuous
 62
     7
370
    13
100
AcDbText
 10
3426.607961447702
 20
23928.79360718547
 30
0.0
 40
735.5708998221611
  1
ハンディライタ　Ｗ－９２０１
 41
0.75
  7
KANJI
100
AcDbText
  0
LINE
  5
658
330
1E
100
AcDbEntity
  8
1
  6
Continuous
 62
     7
370
    13
100
AcDbLine
 10
87.29894479087329
 20
23400.70833210988
 30
0.0
 11
22667.75661683393
 21
23400.70833210988
 31
0.0
  0
LINE
  5
659
330
1E
100
AcDbEntity
  8
0
370
    13
100
AcDbLine
 10
87.29894479087329
 20
25237.84085048484
 30
0.0
 11
22667.75661683556
 21
25237.84085048484
 31
0.0
  0
LINE
  5
65A
330
1E
100
AcDbEntity
  8
1
  6
Continuous
 62
     7
370
    13
100
AcDbLine
 10
2842.997722353462
 20
25237.84085048484
 30
0.0
 11
2842.997722353462
 21
23400.70833210988
 31
0.0
  0
DIMENSION
  5
65B
330
1E
100
AcDbEntity
  8
1
  6
Continuous
 62
     7
370
    13
100
AcDbDimension
  2
*D5
 10
12050.04666472147
 20
11625.63474552219
 30
0.0
 11
12050.04666472147
 21
15196.8347455222
 31
0.0
 70
   160
  1
124
 71
     5
 42
7142.400000000012
  3
Standard
100
AcDbAlignedDimension
 13
10022.27688785508
 23
18768.03474552221
 33
0.0
 14
10022.27688785508
 24
11625.63474552219
 34
0.0
 50
90.0
100
AcDbRotatedDimension
1001
ACAD
1000
DSTYLE
1002
{
1070
   371
1070
    13
1070
   372
1070
    13
1070
    41
1040
500.0
1070
    73
1070
     0
1070
    77
1070
     1
1070
   140
1040
400.0
1070
   147
1040
50.0
1070
   173
1070
     1
1070
   343
1005
357
1070
   344
1005
357
1002
}
  0
LINE
  5
65C
330
1E
100
AcDbEntity
  8
1
  6
Continuous
 62
     7
370
    13
100
AcDbLine
 10
6220.676887855105
 20
18192.0347455222
 30
0.0
 11
6220.676887855105
 21
12201.6347455222
 31
0.0
  0
LINE
  5
65D
330
1E
100
AcDbEntity
  8
1
  6
Continuous
 62
     7
370
    13
100
AcDbLine
 10
10598.27688785508
 20
12201.6347455222
 30
0.0
 11
10598.27688785508
 21
18192.0347455222
 31
0.0
  0
LINE
  5
65E
330
1E
100
AcDbEntity
  8
1
  6
Continuous
 62
     7
370
    13
100
AcDbLine
 10
7549.859441455975
 20
17613.53023992216
 30
0.0
 11
6854.276887855082
 21
16924.8347455222
 31
0.0
  0
LINE
  5
65F
330
1E
100
AcDbEntity
  8
1
  6
Continuous
 62
     7
370
    13
100
AcDbLine
 10
7069.622782254938
 20
16924.8347455222
 30
0.0
 11
7405.233444655282
 21
17257.12240632286
 31
0.0
  0
LINE
  5
660
330
1E
100
AcDbEntity
  8
1
  6
Continuous
 62
     7
370
    13
100
AcDbLine
 10
7405.233444655282
 20
17257.12240632286
 30
0.0
 11
7405.233444655282
 21
17069.46074232289
 31
0.0
  0
LINE
  5
661
330
1E
100
AcDbEntity
  8
1
  6
Continuous
 62
     7
370
    13
100
AcDbLine
 10
7549.859441455975
 20
16924.8347455222
 30
0.0
 11
7549.859441455975
 21
17613.53023992216
 31
0.0
  0
ARC
  5
662
330
1E
100
AcDbEntity
  8
1
  6
Continuous
 62
     7
370
    13
100
AcDbCircle
 10
7715.146558255681
 20
17152.10430072274
 30
0.0
 40
34.4348352
100
AcDbArc
 50
270.0
 51
90.0
  0
ARC
  5
663
330
1E
100
AcDbEntity
  8
1
  6
Continuous
 62
     7
370
    13
100
AcDbCircle
 10
7728.19537745506
 20
17152.10430072274
 30
0.0
 40
117.8031167999999
100
AcDbArc
 50
283.944846999402
 51
83.64029599929819
  0
LINE
  5
664
330
1E
100
AcDbEntity
  8
1
  6
Continuous
 62
     7
370
    13
100
AcDbLine
 10
7935.529054256123
 20
17186.5391359222
 30
0.0
 11
7935.529054256123
 21
16924.8347455222
 31
0.0
  0
LINE
  5
665
330
1E
100
AcDbEntity
  8
1
  6
Continuous
 62
     7
370
    13
100
AcDbLine
 10
8031.94650065523
 20
16924.8347455222
 30
0.0
 11
8031.94650065523
 21
17186.5391359222
 31
0.0
  0
TEXT
  5
666
330
1E
100
AcDbEntity
  8
1
  6
Continuous
 62
     7
370
    13
100
AcDbText
 10
8275.039812654981
 20
17123.97246072263
 30
0.0
 40
172.8
  1
ＨＡＮＤＹ　ＷＲＩＴＥＲ
 41
0.416667
  7
KANJI
100
AcDbText
  0
LINE
  5
667
330
1E
100
AcDbEntity
  8
1
  6
Continuous
 62
     7
370
    13
100
AcDbLine
 10
13996.6768878551
 20
11913.6347455222
 30
0.0
 11
13996.6768878551
 21
18480.0347455222
 31
0.0
  0
LINE
  5
668
330
1E
100
AcDbEntity
  8
1
  6
Continuous
 62
     7
370
    13
100
AcDbLine
 10
13132.6768878551
 20
18480.0347455222
 30
0.0
 11
13132.6768878551
 21
11913.6347455222
 31
0.0
  0
LINE
  5
669
330
1E
100
AcDbEntity
  8
1
  6
Continuous
 62
     7
370
    13
100
AcDbLine
 10
13679.87688785508
 20
11625.63474552219
 30
0.0
 11
13679.87688785508
 21
18768.0347455222
 31
0.0
  0
LINE
  5
66A
330
1E
100
AcDbEntity
  8
1
  6
Continuous
 62
     7
370
    13
100
AcDbLine
 10
13449.47688785509
 20
18768.0347455222
 30
0.0
 11
13449.47688785509
 21
11625.63474552219
 31
0.0
  0
LINE
  5
66B
330
1E
100
AcDbEntity
  8
1
  6
Continuous
 62
     7
370
    13
100
AcDbLine
 10
16156.6768878551
 20
20841.6347455222
 30
0.0
 11
16156.6768878551
 21
15081.6347455222
 31
0.0
  0
LINE
  5
66C
330
1E
100
AcDbEntity
  8
1
  6
Continuous
 62
     7
370
    13
100
AcDbLine
 10
16732.6768878551
 20
15081.6347455222
 30
0.0
 11
16732.6768878551
 21
20841.6347455222
 31
0.0
  0
LINE
  5
66D
330
1E
100
AcDbEntity
  8
1
  6
Continuous
 62
     7
370
    13
100
AcDbLine
 10
19612.6768878551
 20
17385.6347455222
 30
0.0
 11
19612.6768878551
 21
15081.6347455222
 31
0.0
  0
LINE
  5
66E
330
1E
100
AcDbEntity
  8
1
  6
Continuous
 62
     7
370
    13
100
AcDbLine
 10
19036.6768878551
 20
15081.6347455222
 30
0.0
 11
19036.6768878551
 21
17385.6347455222
 31
0.0
  0
ARC
  5
66F
330
1E
100
AcDbEntity
  8
1
  6
Continuous
 62
     7
370
    13
100
AcDbCircle
 10
17884.6768878551
 20
15081.6347455222
 30
0.0
 40
1728.0
100
AcDbArc
 50
180.0
 51
270.0
  0
ARC
  5
670
330
1E
100
AcDbEntity
  8
1
  6
Continuous
 62
     7
370
    13
100
AcDbCircle
 10
17884.6768878551
 20
15081.6347455222
 30
0.0
 40
1152.0
100
AcDbArc
 50
180.0
 51
270.0
  0
ARC
  5
671
330
1E
100
AcDbEntity
  8
1
  6
Continuous
 62
     7
370
    13
100
AcDbCircle
 10
6969.476887855093
 20
12604.8347455222
 30
0.0
 40
288.0
100
AcDbArc
 50
180.0
 51
270.0
  0
ARC
  5
672
330
1E
100
AcDbEntity
  8
1
  6
Continuous
 62
     7
370
    13
100
AcDbCircle
 10
9849.476887855093
 20
12604.8347455222
 30
0.0
 40
288.0
100
AcDbArc
 50
270.0
 51
0.0
  0
ARC
  5
673
330
1E
100
AcDbEntity
  8
1
  6
Continuous
 62
     7
370
    13
100
AcDbCircle
 10
10022.27688785508
 20
12201.6347455222
 30
0.0
 40
576.0
100
AcDbArc
 50
270.0
 51
0.0
  0
DIMENSION
  5
674
330
1E
100
AcDbEntity
  8
1
  6
Continuous
 62
     7
370
    13
100
AcDbDimension
  2
*D6
 10
10598.27688785511
 20
10417.45524687123
 30
0.0
 11
8409.476887855108
 21
10667.45524687123
 31
0.0
 70
    32
  1
76
 71
     5
 42
4377.600000000006
  3
Standard
100
AcDbAlignedDimension
 13
6220.676887855105
 23
12355.23474552219
 33
0.0
 14
10598.27688785511
 24
12201.6347455222
 34
0.0
100
AcDbRotatedDimension
1001
ACAD
1000
DSTYLE
1002
{
1070
   371
1070
    13
1070
   372
1070
    13
1070
    41
1040
500.0
1070
    73
1070
     0
1070
    77
1070
     1
1070
   140
1040
400.0
1070
   147
1040
50.0
1070
   173
1070
     1
1070
   343
1005
357
1070
   344
1005
357
1002
}
  0
LINE
  5
675
330
1E
100
AcDbEntity
  8
1
  6
Continuous
 62
     7
370
    13
100
AcDbLine
 10
6796.676887855105
 20
11625.63474552219
 30
0.0
 11
10022.27688785508
 21
11625.63474552219
 31
0.0
  0
LINE
  5
676
330
1E
100
AcDbEntity
  8
1
  6
Continuous
 62
     7
370
    13
100
AcDbLine
 10
6969.476887855093
 20
12316.8347455222
 30
0.0
 11
9849.476887855093
 21
12316.8347455222
 31
0.0
  0
ARC
  5
677
330
1E
100
AcDbEntity
  8
1
  6
Continuous
 62
     7
370
    13
100
AcDbCircle
 10
6796.676887855105
 20
12201.6347455222
 30
0.0
 40
576.0
100
AcDbArc
 50
180.0
 51
270.0
  0
DIMENSION
  5
678
330
1E
100
AcDbEntity
  8
1
  6
Continuous
 62
     7
370
    13
100
AcDbDimension
  2
*D7
 10
13996.6768878551
 20
10417.27524687122
 30
0.0
 11
13564.6768878551
 21
10667.27524687123
 31
0.0
 70
    32
  1
15
 71
     5
 42
864.0
  3
Standard
100
AcDbAlignedDimension
 13
13132.6768878551
 23
11913.6972455222
 33
0.0
 14
13996.6768878551
 24
11913.6347455222
 34
0.0
100
AcDbRotatedDimension
1001
ACAD
1000
DSTYLE
1002
{
1070
   371
1070
    13
1070
   372
1070
    13
1070
    41
1040
500.0
1070
    73
1070
     0
1070
    77
1070
     1
1070
   140
1040
400.0
1070
   147
1040
50.0
1070
   173
1070
     1
1070
   343
1005
357
1070
   344
1005
357
1002
}
  0
ARC
  5
679
330
1E
100
AcDbEntity
  8
1
  6
Continuous
 62
     7
370
    13
100
AcDbCircle
 10
13708.6768878551
 20
11913.6347455222
 30
0.0
 40
288.0
100
AcDbArc
 50
270.0
 51
0.0
  0
LINE
  5
67A
330
1E
100
AcDbEntity
  8
1
  6
Continuous
 62
     7
370
    13
100
AcDbLine
 10
13420.6768878551
 20
11625.63474552219
 30
0.0
 11
13708.6768878551
 21
11625.63474552219
 31
0.0
  0
ARC
  5
67B
330
1E
100
AcDbEntity
  8
1
  6
Continuous
 62
     7
370
    13
100
AcDbCircle
 10
13420.6768878551
 20
11913.6347455222
 30
0.0
 40
288.0
100
AcDbArc
 50
180.0
 51
270.0
  0
LINE
  5
67C
330
1E
100
AcDbEntity
  8
1
  6
Continuous
 62
     7
370
    13
100
AcDbLine
 10
6681.476887855094
 20
16521.6347455222
 30
0.0
 11
6681.476887855094
 21
12604.8347455222
 31
0.0
  0
LINE
  5
67D
330
1E
100
AcDbEntity
  8
1
  6
Continuous
 62
     7
370
    13
100
AcDbLine
 10
10137.47688785509
 20
12604.8347455222
 30
0.0
 11
10137.47688785509
 21
16521.6347455222
 31
0.0
  0
CIRCLE
  5
67E
330
1E
100
AcDbEntity
  8
1
  6
Continuous
 62
     7
370
    13
100
AcDbCircle
 10
7084.676887855104
 20
14563.23474552219
 30
0.0
 40
230.4
  0
CIRCLE
  5
67F
330
1E
100
AcDbEntity
  8
1
  6
Continuous
 62
     7
370
    13
100
AcDbCircle
 10
7084.676887855104
 20
13728.0347455222
 30
0.0
 40
230.4
  0
CIRCLE
  5
680
330
1E
100
AcDbEntity
  8
1
  6
Continuous
 62
     7
370
    13
100
AcDbCircle
 10
7084.676887855104
 20
12892.8347455222
 30
0.0
 40
230.4
  0
LINE
  5
681
330
1E
100
AcDbEntity
  8
1
  6
Continuous
 62
     7
370
    13
100
AcDbLine
 10
9964.676887855105
 20
14145.6347455222
 30
0.0
 11
6854.276887855082
 21
14145.6347455222
 31
0.0
  0
LINE
  5
682
330
1E
100
AcDbEntity
  8
1
  6
Continuous
 62
     7
370
    13
100
AcDbLine
 10
9964.676887855105
 20
13310.4347455222
 30
0.0
 11
6854.276887855082
 21
13310.4347455222
 31
0.0
  0
TEXT
  5
683
330
1E
100
AcDbEntity
  8
1
  6
Continuous
 62
     7
370
    13
100
AcDbText
 10
6986.165508655798
 20
12789.30076152242
 30
0.0
 40
201.6
  1
０
 41
0.9285709999999999
  7
KANJI
100
AcDbText
  0
TEXT
  5
684
330
1E
100
AcDbEntity
  8
1
  6
Continuous
 62
     7
370
    13
100
AcDbText
 10
6986.165508655798
 20
13624.50076152243
 30
0.0
 40
201.6
  1
４
 41
0.9285709999999999
  7
KANJI
100
AcDbText
  0
TEXT
  5
685
330
1E
100
AcDbEntity
  8
1
  6
Continuous
 62
     7
370
    13
100
AcDbText
 10
6986.165508655798
 20
14459.70076152243
 30
0.0
 40
201.6
  1
８
 41
0.9285709999999999
  7
KANJI
100
AcDbText
  0
CIRCLE
  5
686
330
1E
100
AcDbEntity
  8
1
  6
Continuous
 62
     7
370
    13
100
AcDbCircle
 10
8409.476887855094
 20
14563.23474552219
 30
0.0
 40
230.4
  0
CIRCLE
  5
687
330
1E
100
AcDbEntity
  8
1
  6
Continuous
 62
     7
370
    13
100
AcDbCircle
 10
9071.876887855088
 20
14563.23474552219
 30
0.0
 40
230.4
  0
CIRCLE
  5
688
330
1E
100
AcDbEntity
  8
1
  6
Continuous
 62
     7
370
    13
100
AcDbCircle
 10
9734.276887855081
 20
14563.23474552219
 30
0.0
 40
230.4
  0
CIRCLE
  5
689
330
1E
100
AcDbEntity
  8
1
  6
Continuous
 62
     7
370
    13
100
AcDbCircle
 10
7747.076887855098
 20
14563.23474552219
 30
0.0
 40
230.4
  0
CIRCLE
  5
68A
330
1E
100
AcDbEntity
  8
1
  6
Continuous
 62
     7
370
    13
100
AcDbCircle
 10
8409.476887855094
 20
13728.0347455222
 30
0.0
 40
230.4
  0
CIRCLE
  5
68B
330
1E
100
AcDbEntity
  8
1
  6
Continuous
 62
     7
370
    13
100
AcDbCircle
 10
9071.876887855088
 20
13728.0347455222
 30
0.0
 40
230.4
  0
CIRCLE
  5
68C
330
1E
100
AcDbEntity
  8
1
  6
Continuous
 62
     7
370
    13
100
AcDbCircle
 10
9734.276887855081
 20
13728.0347455222
 30
0.0
 40
230.4
  0
CIRCLE
  5
68D
330
1E
100
AcDbEntity
  8
1
  6
Continuous
 62
     7
370
    13
100
AcDbCircle
 10
7747.076887855098
 20
13728.0347455222
 30
0.0
 40
230.4
  0
CIRCLE
  5
68E
330
1E
100
AcDbEntity
  8
1
  6
Continuous
 62
     7
370
    13
100
AcDbCircle
 10
8409.476887855094
 20
12892.8347455222
 30
0.0
 40
230.4
  0
CIRCLE
  5
68F
330
1E
100
AcDbEntity
  8
1
  6
Continuous
 62
     7
370
    13
100
AcDbCircle
 10
9071.876887855088
 20
12892.8347455222
 30
0.0
 40
230.4
  0
CIRCLE
  5
690
330
1E
100
AcDbEntity
  8
1
  6
Continuous
 62
     7
370
    13
100
AcDbCircle
 10
9734.276887855081
 20
12892.8347455222
 30
0.0
 40
230.4
  0
CIRCLE
  5
691
330
1E
100
AcDbEntity
  8
1
  6
Continuous
 62
     7
370
    13
100
AcDbCircle
 10
7747.076887855098
 20
12892.8347455222
 30
0.0
 40
230.4
  0
TEXT
  5
692
330
1E
100
AcDbEntity
  8
1
  6
Continuous
 62
     7
370
    13
100
AcDbText
 10
9529.470007856168
 20
12789.30076152242
 30
0.0
 40
201.6
  1
Ｅｎ
 41
0.9285709999999999
  7
KANJI
100
AcDbText
  0
TEXT
  5
693
330
1E
100
AcDbEntity
  8
1
  6
Continuous
 62
     7
370
    13
100
AcDbText
 10
7648.565508655792
 20
12789.30076152242
 30
0.0
 40
201.6
  1
１
 41
0.9285709999999999
  7
KANJI
100
AcDbText
  0
TEXT
  5
694
330
1E
100
AcDbEntity
  8
1
  6
Continuous
 62
     7
370
    13
100
AcDbText
 10
8973.36550865581
 20
12789.30076152242
 30
0.0
 40
201.6
  1
３
 41
0.9285709999999999
  7
KANJI
100
AcDbText
  0
TEXT
  5
695
330
1E
100
AcDbEntity
  8
1
  6
Continuous
 62
     7
370
    13
100
AcDbText
 10
7648.565508655792
 20
13624.50076152243
 30
0.0
 40
201.6
  1
５
 41
0.9285709999999999
  7
KANJI
100
AcDbText
  0
TEXT
  5
696
330
1E
100
AcDbEntity
  8
1
  6
Continuous
 62
     7
370
    13
100
AcDbText
 10
8310.965508655817
 20
13624.50076152243
 30
0.0
 40
201.6
  1
６
 41
0.9285709999999999
  7
KANJI
100
AcDbText
  0
TEXT
  5
697
330
1E
100
AcDbEntity
  8
1
  6
Continuous
 62
     7
370
    13
100
AcDbText
 10
8973.36550865581
 20
13624.50076152243
 30
0.0
 40
201.6
  1
７
 41
0.9285709999999999
  7
KANJI
100
AcDbText
  0
TEXT
  5
698
330
1E
100
AcDbEntity
  8
1
  6
Continuous
 62
     7
370
    13
100
AcDbText
 10
7648.565508655792
 20
14459.70076152243
 30
0.0
 40
201.6
  1
９
 41
0.9285709999999999
  7
KANJI
100
AcDbText
  0
TEXT
  5
699
330
1E
100
AcDbEntity
  8
1
  6
Continuous
 62
     7
370
    13
100
AcDbText
 10
8310.965508655817
 20
12789.30076152242
 30
0.0
 40
201.6
  1
２
 41
0.9285709999999999
  7
KANJI
100
AcDbText
  0
TEXT
  5
69A
330
1E
100
AcDbEntity
  8
1
  6
Continuous
 62
     7
370
    13
100
AcDbText
 10
8310.965508655817
 20
14459.70076152243
 30
0.0
 40
201.6
  1
Ａ
 41
0.9285709999999999
  7
KANJI
100
AcDbText
  0
TEXT
  5
69B
330
1E
100
AcDbEntity
  8
1
  6
Continuous
 62
     7
370
    13
100
AcDbText
 10
8973.36550865581
 20
14459.70076152243
 30
0.0
 40
201.6
  1
Ｂ
 41
0.9285709999999999
  7
KANJI
100
AcDbText
  0
LINE
  5
69C
330
1E
100
AcDbEntity
  8
1
  6
Continuous
 62
     7
370
    13
100
AcDbLine
 10
9619.076887855101
 20
14620.8347455222
 30
0.0
 11
9619.076887855101
 21
14505.6347455222
 31
0.0
  0
LINE
  5
69D
330
1E
100
AcDbEntity
  8
1
  6
Continuous
 62
     7
370
    13
100
AcDbLine
 10
9619.076887855101
 20
14505.6347455222
 30
0.0
 11
9849.476887855093
 21
14563.23474552219
 31
0.0
  0
LINE
  5
69E
330
1E
100
AcDbEntity
  8
1
  6
Continuous
 62
     7
370
    13
100
AcDbLine
 10
9849.476887855093
 20
14563.23474552219
 30
0.0
 11
9619.076887855101
 21
14620.8347455222
 31
0.0
  0
LINE
  5
69F
330
1E
100
AcDbEntity
  8
1
  6
Continuous
 62
     7
370
    13
100
AcDbLine
 10
9849.476887855093
 20
13785.6347455222
 30
0.0
 11
9849.476887855093
 21
13670.4347455222
 31
0.0
  0
LINE
  5
6A0
330
1E
100
AcDbEntity
  8
1
  6
Continuous
 62
     7
370
    13
100
AcDbLine
 10
9849.476887855093
 20
13670.4347455222
 30
0.0
 11
9619.076887855101
 21
13728.0347455222
 31
0.0
  0
LINE
  5
6A1
330
1E
100
AcDbEntity
  8
1
  6
Continuous
 62
     7
370
    13
100
AcDbLine
 10
9619.076887855101
 20
13728.0347455222
 30
0.0
 11
9849.476887855093
 21
13785.6347455222
 31
0.0
  0
LINE
  5
6A2
330
1E
100
AcDbEntity
  8
1
  6
Continuous
 62
     7
370
    13
100
AcDbLine
 10
9849.476887855093
 20
16809.6347455222
 30
0.0
 11
6969.476887855093
 21
16809.6347455222
 31
0.0
  0
CIRCLE
  5
6A3
330
1E
100
AcDbEntity
  8
1
  6
Continuous
 62
     7
370
    13
100
AcDbCircle
 10
7084.676887855104
 20
15398.4347455222
 30
0.0
 40
230.4
  0
CIRCLE
  5
6A4
330
1E
100
AcDbEntity
  8
1
  6
Continuous
 62
     7
370
    13
100
AcDbCircle
 10
7084.676887855104
 20
16233.6347455222
 30
0.0
 40
230.4
  0
LINE
  5
6A5
330
1E
100
AcDbEntity
  8
1
  6
Continuous
 62
     7
370
    13
100
AcDbLine
 10
6854.276887855082
 20
15816.0347455222
 30
0.0
 11
9964.676887855105
 21
15816.0347455222
 31
0.0
  0
LINE
  5
6A6
330
1E
100
AcDbEntity
  8
1
  6
Continuous
 62
     7
370
    13
100
AcDbLine
 10
9964.676887855105
 20
14980.8347455222
 30
0.0
 11
6854.276887855082
 21
14980.8347455222
 31
0.0
  0
LINE
  5
6A7
330
1E
100
AcDbEntity
  8
1
  6
Continuous
 62
     7
370
    13
100
AcDbLine
 10
7021.533003055836
 20
17090.43480312264
 30
0.0
 11
7236.878724656036
 21
17090.43480312264
 31
0.0
  0
LINE
  5
6A8
330
1E
100
AcDbEntity
  8
1
  6
Continuous
 62
     7
370
    13
100
AcDbLine
 10
7036.076887855099
 20
17104.8346879226
 30
0.0
 11
7251.422782254926
 21
17104.8346879226
 31
0.0
  0
LINE
  5
6A9
330
1E
100
AcDbEntity
  8
1
  6
Continuous
 62
     7
370
    13
100
AcDbLine
 10
7050.620830256459
 20
17119.23480312264
 30
0.0
 11
7265.966724656315
 21
17119.23480312264
 31
0.0
  0
LINE
  5
6AA
330
1E
100
AcDbEntity
  8
1
  6
Continuous
 62
     7
370
    13
100
AcDbLine
 10
7065.16488785535
 20
17133.6346879226
 30
0.0
 11
7280.510609455578
 21
17133.6346879226
 31
0.0
  0
LINE
  5
6AB
330
1E
100
AcDbEntity
  8
1
  6
Continuous
 62
     7
370
    13
100
AcDbLine
 10
7079.70883025505
 20
17148.0347455222
 30
0.0
 11
7295.054724654907
 21
17148.0347455222
 31
0.0
  0
LINE
  5
6AC
330
1E
100
AcDbEntity
  8
1
  6
Continuous
 62
     7
370
    13
100
AcDbLine
 10
7094.25288785563
 20
17162.4346879226
 30
0.0
 11
7309.598609455829
 21
17162.4346879226
 31
0.0
  0
ARC
  5
6AD
330
1E
100
AcDbEntity
  8
1
  6
Continuous
 62
     7
370
    13
100
AcDbCircle
 10
6969.476887855093
 20
16521.6347455222
 30
0.0
 40
288.0
100
AcDbArc
 50
90.0
 51
180.0
  0
TEXT
  5
6AE
330
1E
100
AcDbEntity
  8
1
  6
Continuous
 62
     7
370
    13
100
AcDbText
 10
6986.165508655798
 20
15294.90076152243
 30
0.0
 40
201.6
  1
Ｃ
 41
0.9285709999999999
  7
KANJI
100
AcDbText
  0
TEXT
  5
6AF
330
1E
100
AcDbEntity
  8
1
  6
Continuous
 62
     7
370
    13
100
AcDbText
 10
6879.870007856164
 20
16130.10076152243
 30
0.0
 40
201.6
  1
Ｆ１
 41
0.9285709999999999
  7
KANJI
100
AcDbText
  0
LINE
  5
6B0
330
1E
100
AcDbEntity
  8
1
  6
Continuous
 62
     7
370
    13
100
AcDbLine
 10
6861.548830256386
 20
16932.0346879226
 30
0.0
 11
7076.894724656241
 21
16932.0346879226
 31
0.0
  0
LINE
  5
6B1
330
1E
100
AcDbEntity
  8
1
  6
Continuous
 62
     7
370
    13
100
AcDbLine
 10
6876.092945455744
 20
16946.43480312264
 30
0.0
 11
7091.438667055943
 21
16946.43480312264
 31
0.0
  0
LINE
  5
6B2
330
1E
100
AcDbEntity
  8
1
  6
Continuous
 62
     7
370
    13
100
AcDbLine
 10
6890.636830254978
 20
16960.8346879226
 30
0.0
 11
7105.982724656522
 21
16960.8346879226
 31
0.0
  0
LINE
  5
6B3
330
1E
100
AcDbEntity
  8
1
  6
Continuous
 62
     7
370
    13
100
AcDbLine
 10
6905.180945455995
 20
16975.23480312264
 30
0.0
 11
7120.526667056194
 21
16975.23480312264
 31
0.0
  0
LINE
  5
6B4
330
1E
100
AcDbEntity
  8
1
  6
Continuous
 62
     7
370
    13
100
AcDbLine
 10
6919.724830255258
 20
16989.6346879226
 30
0.0
 11
7135.070782255552
 21
16989.6346879226
 31
0.0
  0
LINE
  5
6B5
330
1E
100
AcDbEntity
  8
1
  6
Continuous
 62
     7
370
    13
100
AcDbLine
 10
6934.268945456276
 20
17004.03480312264
 30
0.0
 11
7149.614667056474
 21
17004.03480312264
 31
0.0
  0
LINE
  5
6B6
330
1E
100
AcDbEntity
  8
1
  6
Continuous
 62
     7
370
    13
100
AcDbLine
 10
6948.812887855976
 20
17018.4346879226
 30
0.0
 11
7164.158782255803
 21
17018.4346879226
 31
0.0
  0
LINE
  5
6B7
330
1E
100
AcDbEntity
  8
1
  6
Continuous
 62
     7
370
    13
100
AcDbLine
 10
6963.356945456526
 20
17032.83480312264
 30
0.0
 11
7178.702667055066
 21
17032.83480312264
 31
0.0
  0
LINE
  5
6B8
330
1E
100
AcDbEntity
  8
1
  6
Continuous
 62
     7
370
    13
100
AcDbLine
 10
6977.900887856228
 20
17047.2346879226
 30
0.0
 11
7193.246609456426
 21
17047.2346879226
 31
0.0
  0
LINE
  5
6B9
330
1E
100
AcDbEntity
  8
1
  6
Continuous
 62
     7
370
    13
100
AcDbLine
 10
6992.444945455118
 20
17061.63480312264
 30
0.0
 11
7207.790667055346
 21
17061.63480312264
 31
0.0
  0
LINE
  5
6BA
330
1E
100
AcDbEntity
  8
1
  6
Continuous
 62
     7
370
    13
100
AcDbLine
 10
7006.988887856507
 20
17076.0346879226
 30
0.0
 11
7222.334782256334
 21
17076.0346879226
 31
0.0
  0
LINE
  5
6BB
330
1E
100
AcDbEntity
  8
1
  6
Continuous
 62
     7
370
    13
100
AcDbLine
 10
6854.276887855082
 20
16924.8347455222
 30
0.0
 11
7069.622782254938
 21
16924.8347455222
 31
0.0
  0
ARC
  5
6BC
330
1E
100
AcDbEntity
  8
1
  6
Continuous
 62
     7
370
    13
100
AcDbCircle
 10
9849.476887855093
 20
16521.6347455222
 30
0.0
 40
288.0
100
AcDbArc
 50
0.0
 51
90.0
  0
CIRCLE
  5
6BD
330
1E
100
AcDbEntity
  8
1
  6
Continuous
 62
     7
370
    13
100
AcDbCircle
 10
8409.476887855094
 20
15398.4347455222
 30
0.0
 40
230.4
  0
CIRCLE
  5
6BE
330
1E
100
AcDbEntity
  8
1
  6
Continuous
 62
     7
370
    13
100
AcDbCircle
 10
9071.876887855088
 20
15398.4347455222
 30
0.0
 40
230.4
  0
CIRCLE
  5
6BF
330
1E
100
AcDbEntity
  8
1
  6
Continuous
 62
     7
370
    13
100
AcDbCircle
 10
9734.276887855081
 20
15398.4347455222
 30
0.0
 40
230.4
  0
CIRCLE
  5
6C0
330
1E
100
AcDbEntity
  8
1
  6
Continuous
 62
     7
370
    13
100
AcDbCircle
 10
7747.076887855098
 20
15398.4347455222
 30
0.0
 40
230.4
  0
CIRCLE
  5
6C1
330
1E
100
AcDbEntity
  8
1
  6
Continuous
 62
     7
370
    13
100
AcDbCircle
 10
8409.476887855094
 20
16233.6347455222
 30
0.0
 40
230.4
  0
CIRCLE
  5
6C2
330
1E
100
AcDbEntity
  8
1
  6
Continuous
 62
     7
370
    13
100
AcDbCircle
 10
9071.876887855088
 20
16233.6347455222
 30
0.0
 40
230.4
  0
CIRCLE
  5
6C3
330
1E
100
AcDbEntity
  8
1
  6
Continuous
 62
     7
370
    13
100
AcDbCircle
 10
9734.276887855081
 20
16233.6347455222
 30
0.0
 40
230.4
  0
CIRCLE
  5
6C4
330
1E
100
AcDbEntity
  8
1
  6
Continuous
 62
     7
370
    13
100
AcDbCircle
 10
7747.076887855098
 20
16233.6347455222
 30
0.0
 40
230.4
  0
TEXT
  5
6C5
330
1E
100
AcDbEntity
  8
1
  6
Continuous
 62
     7
370
    13
100
AcDbText
 10
8310.965508655817
 20
15294.90076152243
 30
0.0
 40
201.6
  1
Ｅ
 41
0.9285709999999999
  7
KANJI
100
AcDbText
  0
TEXT
  5
6C6
330
1E
100
AcDbEntity
  8
1
  6
Continuous
 62
     7
370
    13
100
AcDbText
 10
8204.670007856151
 20
16130.10076152243
 30
0.0
 40
201.6
  1
Ｆ３
 41
0.9285709999999999
  7
KANJI
100
AcDbText
  0
TEXT
  5
6C7
330
1E
100
AcDbEntity
  8
1
  6
Continuous
 62
     7
370
    13
100
AcDbText
 10
7648.565508655792
 20
15294.90076152243
 30
0.0
 40
201.6
  1
Ｄ
 41
0.9285709999999999
  7
KANJI
100
AcDbText
  0
TEXT
  5
6C8
330
1E
100
AcDbEntity
  8
1
  6
Continuous
 62
     7
370
    13
100
AcDbText
 10
8973.36550865581
 20
15294.90076152243
 30
0.0
 40
201.6
  1
Ｆ
 41
0.9285709999999999
  7
KANJI
100
AcDbText
  0
TEXT
  5
6C9
330
1E
100
AcDbEntity
  8
1
  6
Continuous
 62
     7
370
    13
100
AcDbText
 10
9529.470007856168
 20
16130.10076152243
 30
0.0
 40
201.6
  1
Ｆ５
 41
0.9285709999999999
  7
KANJI
100
AcDbText
  0
TEXT
  5
6CA
330
1E
100
AcDbEntity
  8
1
  6
Continuous
 62
     7
370
    13
100
AcDbText
 10
8867.070007856176
 20
16130.10076152243
 30
0.0
 40
201.6
  1
Ｆ４
 41
0.9285709999999999
  7
KANJI
100
AcDbText
  0
TEXT
  5
6CB
330
1E
100
AcDbEntity
  8
1
  6
Continuous
 62
     7
370
    13
100
AcDbText
 10
7542.270007856157
 20
16130.10076152243
 30
0.0
 40
201.6
  1
Ｆ２
 41
0.9285709999999999
  7
KANJI
100
AcDbText
  0
TEXT
  5
6CC
330
1E
100
AcDbEntity
  8
1
  6
Continuous
 62
     7
370
    13
100
AcDbText
 10
9635.765508655804
 20
15294.90076152243
 30
0.0
 40
201.6
  1
Ｍ
 41
0.9285709999999999
  7
KANJI
100
AcDbText
  0
LINE
  5
6CD
330
1E
100
AcDbEntity
  8
1
  6
Continuous
 62
     7
370
    13
100
AcDbLine
 10
7405.233444655282
 20
17069.46074232289
 30
0.0
 11
7253.720388655344
 21
17069.46074232289
 31
0.0
  0
LINE
  5
6CE
330
1E
100
AcDbEntity
  8
1
  6
Continuous
 62
     7
370
    13
100
AcDbLine
 10
7253.720388655344
 20
17069.46074232289
 30
0.0
 11
7253.720388655344
 21
16924.8347455222
 31
0.0
  0
LINE
  5
6CF
330
1E
100
AcDbEntity
  8
1
  6
Continuous
 62
     7
370
    13
100
AcDbLine
 10
7253.720388655344
 20
16924.8347455222
 30
0.0
 11
7549.859441455975
 21
16924.8347455222
 31
0.0
  0
LINE
  5
6D0
330
1E
100
AcDbEntity
  8
1
  6
Continuous
 62
     7
370
    13
100
AcDbLine
 10
7549.859441455975
 20
17117.66946552245
 30
0.0
 11
7756.468222255989
 21
16924.8347455222
 31
0.0
  0
LINE
  5
6D1
330
1E
100
AcDbEntity
  8
1
  6
Continuous
 62
     7
370
    13
100
AcDbLine
 10
7549.859441455975
 20
17117.66946552245
 30
0.0
 11
7715.146558255681
 21
17117.66946552245
 31
0.0
  0
LINE
  5
6D2
330
1E
100
AcDbEntity
  8
1
  6
Continuous
 62
     7
370
    13
100
AcDbLine
 10
7756.468222255989
 20
17037.88148472288
 30
0.0
 11
7877.589790256108
 21
16924.8347455222
 31
0.0
  0
LINE
  5
6D3
330
1E
100
AcDbEntity
  8
1
  6
Continuous
 62
     7
370
    13
100
AcDbLine
 10
7877.589790256108
 20
16924.8347455222
 30
0.0
 11
7756.468222255989
 21
16924.8347455222
 31
0.0
  0
LINE
  5
6D4
330
1E
100
AcDbEntity
  8
1
  6
Continuous
 62
     7
370
    13
100
AcDbLine
 10
7935.529054256123
 20
16924.8347455222
 30
0.0
 11
8031.94650065523
 21
16924.8347455222
 31
0.0
  0
LINE
  5
6D5
330
1E
100
AcDbEntity
  8
1
  6
Continuous
 62
     7
370
    13
100
AcDbLine
 10
7935.529054256123
 20
16932.0346879226
 30
0.0
 11
8031.94650065523
 21
16932.0346879226
 31
0.0
  0
LINE
  5
6D6
330
1E
100
AcDbEntity
  8
1
  6
Continuous
 62
     7
370
    13
100
AcDbLine
 10
7253.720388655344
 20
16932.0346879226
 30
0.0
 11
7549.859441455975
 21
16932.0346879226
 31
0.0
  0
LINE
  5
6D7
330
1E
100
AcDbEntity
  8
1
  6
Continuous
 62
     7
370
    13
100
AcDbLine
 10
7748.75396945624
 20
16932.0346879226
 30
0.0
 11
7869.875537456358
 21
16932.0346879226
 31
0.0
  0
LINE
  5
6D8
330
1E
100
AcDbEntity
  8
1
  6
Continuous
 62
     7
370
    13
100
AcDbLine
 10
7935.529054256123
 20
16946.43480312264
 30
0.0
 11
8031.94650065523
 21
16946.43480312264
 31
0.0
  0
LINE
  5
6D9
330
1E
100
AcDbEntity
  8
1
  6
Continuous
 62
     7
370
    13
100
AcDbLine
 10
7253.720388655344
 20
16946.43480312264
 30
0.0
 11
7549.859441455975
 21
16946.43480312264
 31
0.0
  0
LINE
  5
6DA
330
1E
100
AcDbEntity
  8
1
  6
Continuous
 62
     7
370
    13
100
AcDbLine
 10
7733.325463855054
 20
16946.43480312264
 30
0.0
 11
7854.447031855172
 21
16946.43480312264
 31
0.0
  0
LINE
  5
6DB
330
1E
100
AcDbEntity
  8
1
  6
Continuous
 62
     7
370
    13
100
AcDbLine
 10
7935.529054256123
 20
16960.8346879226
 30
0.0
 11
8031.94650065523
 21
16960.8346879226
 31
0.0
  0
LINE
  5
6DC
330
1E
100
AcDbEntity
  8
1
  6
Continuous
 62
     7
370
    13
100
AcDbLine
 10
7253.720388655344
 20
16960.8346879226
 30
0.0
 11
7549.859441455975
 21
16960.8346879226
 31
0.0
  0
LINE
  5
6DD
330
1E
100
AcDbEntity
  8
1
  6
Continuous
 62
     7
370
    13
100
AcDbLine
 10
7717.896727855488
 20
16960.8346879226
 30
0.0
 11
7839.018295855606
 21
16960.8346879226
 31
0.0
  0
LINE
  5
6DE
330
1E
100
AcDbEntity
  8
1
  6
Continuous
 62
     7
370
    13
100
AcDbLine
 10
7935.529054256123
 20
16975.23480312264
 30
0.0
 11
8031.94650065523
 21
16975.23480312264
 31
0.0
  0
LINE
  5
6DF
330
1E
100
AcDbEntity
  8
1
  6
Continuous
 62
     7
370
    13
100
AcDbLine
 10
7253.720388655344
 20
16975.23480312264
 30
0.0
 11
7549.859441455975
 21
16975.23480312264
 31
0.0
  0
LINE
  5
6E0
330
1E
100
AcDbEntity
  8
1
  6
Continuous
 62
     7
370
    13
100
AcDbLine
 10
7702.468222255991
 20
16975.23480312264
 30
0.0
 11
7823.589790256107
 21
16975.23480312264
 31
0.0
  0
LINE
  5
6E1
330
1E
100
AcDbEntity
  8
1
  6
Continuous
 62
     7
370
    13
100
AcDbLine
 10
7935.529054256123
 20
16989.6346879226
 30
0.0
 11
8031.94650065523
 21
16989.6346879226
 31
0.0
  0
LINE
  5
6E2
330
1E
100
AcDbEntity
  8
1
  6
Continuous
 62
     7
370
    13
100
AcDbLine
 10
7253.720388655344
 20
16989.6346879226
 30
0.0
 11
7549.859441455975
 21
16989.6346879226
 31
0.0
  0
LINE
  5
6E3
330
1E
100
AcDbEntity
  8
1
  6
Continuous
 62
     7
370
    13
100
AcDbLine
 10
7687.039659056051
 20
16989.6346879226
 30
0.0
 11
7808.161284654921
 21
16989.6346879226
 31
0.0
  0
LINE
  5
6E4
330
1E
100
AcDbEntity
  8
1
  6
Continuous
 62
     7
370
    13
100
AcDbLine
 10
7935.529054256123
 20
17004.03480312264
 30
0.0
 11
8031.94650065523
 21
17004.03480312264
 31
0.0
  0
LINE
  5
6E5
330
1E
100
AcDbEntity
  8
1
  6
Continuous
 62
     7
370
    13
100
AcDbLine
 10
7253.720388655344
 20
17004.03480312264
 30
0.0
 11
7549.859441455975
 21
17004.03480312264
 31
0.0
  0
LINE
  5
6E6
330
1E
100
AcDbEntity
  8
1
  6
Continuous
 62
     7
370
    13
100
AcDbLine
 10
7671.611153456554
 20
17004.03480312264
 30
0.0
 11
7792.732721454985
 21
17004.03480312264
 31
0.0
  0
LINE
  5
6E7
330
1E
100
AcDbEntity
  8
1
  6
Continuous
 62
     7
370
    13
100
AcDbLine
 10
7935.529054256123
 20
17018.4346879226
 30
0.0
 11
8031.94650065523
 21
17018.4346879226
 31
0.0
  0
LINE
  5
6E8
330
1E
100
AcDbEntity
  8
1
  6
Continuous
 62
     7
370
    13
100
AcDbLine
 10
7253.720388655344
 20
17018.4346879226
 30
0.0
 11
7549.859441455975
 21
17018.4346879226
 31
0.0
  0
LINE
  5
6E9
330
1E
100
AcDbEntity
  8
1
  6
Continuous
 62
     7
370
    13
100
AcDbLine
 10
7656.182475055739
 20
17018.4346879226
 30
0.0
 11
7777.304043055858
 21
17018.4346879226
 31
0.0
  0
LINE
  5
6EA
330
1E
100
AcDbEntity
  8
1
  6
Continuous
 62
     7
370
    13
100
AcDbLine
 10
7935.529054256123
 20
17032.83480312264
 30
0.0
 11
8031.94650065523
 21
17032.83480312264
 31
0.0
  0
LINE
  5
6EB
330
1E
100
AcDbEntity
  8
1
  6
Continuous
 62
     7
370
    13
100
AcDbLine
 10
7253.720388655344
 20
17032.83480312264
 30
0.0
 11
7549.859441455975
 21
17032.83480312264
 31
0.0
  0
LINE
  5
6EC
330
1E
100
AcDbEntity
  8
1
  6
Continuous
 62
     7
370
    13
100
AcDbLine
 10
7640.753911855802
 20
17032.83480312264
 30
0.0
 11
7761.875479855921
 21
17032.83480312264
 31
0.0
  0
LINE
  5
6ED
330
1E
100
AcDbEntity
  8
1
  6
Continuous
 62
     7
370
    13
100
AcDbLine
 10
7935.529054256123
 20
17047.2346879226
 30
0.0
 11
8031.94650065523
 21
17047.2346879226
 31
0.0
  0
LINE
  5
6EE
330
1E
100
AcDbEntity
  8
1
  6
Continuous
 62
     7
370
    13
100
AcDbLine
 10
7253.720388655344
 20
17047.2346879226
 30
0.0
 11
7549.859441455975
 21
17047.2346879226
 31
0.0
  0
LINE
  5
6EF
330
1E
100
AcDbEntity
  8
1
  6
Continuous
 62
     7
370
    13
100
AcDbLine
 10
7625.325406256303
 20
17047.2346879226
 30
0.0
 11
7781.860606255733
 21
17047.2346879226
 31
0.0
  0
LINE
  5
6F0
330
1E
100
AcDbEntity
  8
1
  6
Continuous
 62
     7
370
    13
100
AcDbLine
 10
7935.529054256123
 20
17061.63480312264
 30
0.0
 11
8031.94650065523
 21
17061.63480312264
 31
0.0
  0
LINE
  5
6F1
330
1E
100
AcDbEntity
  8
1
  6
Continuous
 62
     7
370
    13
100
AcDbLine
 10
7253.720388655344
 20
17061.63480312264
 30
0.0
 11
7549.859441455975
 21
17061.63480312264
 31
0.0
  0
LINE
  5
6F2
330
1E
100
AcDbEntity
  8
1
  6
Continuous
 62
     7
370
    13
100
AcDbLine
 10
7609.896727855488
 20
17061.63480312264
 30
0.0
 11
7803.646366255326
 21
17061.63480312264
 31
0.0
  0
LINE
  5
6F3
330
1E
100
AcDbEntity
  8
1
  6
Continuous
 62
     7
370
    13
100
AcDbLine
 10
7935.529054256123
 20
17076.0346879226
 30
0.0
 11
8031.94650065523
 21
17076.0346879226
 31
0.0
  0
LINE
  5
6F4
330
1E
100
AcDbEntity
  8
1
  6
Continuous
 62
     7
370
    13
100
AcDbLine
 10
7405.233444655282
 20
17076.0346879226
 30
0.0
 11
7549.859441455975
 21
17076.0346879226
 31
0.0
  0
LINE
  5
6F5
330
1E
100
AcDbEntity
  8
1
  6
Continuous
 62
     7
370
    13
100
AcDbLine
 10
7594.468164655551
 20
17076.0346879226
 30
0.0
 11
7818.14549585577
 21
17076.0346879226
 31
0.0
  0
LINE
  5
6F6
330
1E
100
AcDbEntity
  8
1
  6
Continuous
 62
     7
370
    13
100
AcDbLine
 10
7935.529054256123
 20
17090.43480312264
 30
0.0
 11
8031.94650065523
 21
17090.43480312264
 31
0.0
  0
LINE
  5
6F7
330
1E
100
AcDbEntity
  8
1
  6
Continuous
 62
     7
370
    13
100
AcDbLine
 10
7405.233444655282
 20
17090.43480312264
 30
0.0
 11
7549.859441455975
 21
17090.43480312264
 31
0.0
  0
LINE
  5
6F8
330
1E
100
AcDbEntity
  8
1
  6
Continuous
 62
     7
370
    13
100
AcDbLine
 10
7579.039659056052
 20
17090.43480312264
 30
0.0
 11
7828.567006255467
 21
17090.43480312264
 31
0.0
  0
LINE
  5
6F9
330
1E
100
AcDbEntity
  8
1
  6
Continuous
 62
     7
370
    13
100
AcDbLine
 10
7935.529054256123
 20
17104.8346879226
 30
0.0
 11
8031.94650065523
 21
17104.8346879226
 31
0.0
  0
LINE
  5
6FA
330
1E
100
AcDbEntity
  8
1
  6
Continuous
 62
     7
370
    13
100
AcDbLine
 10
7405.233444655282
 20
17104.8346879226
 30
0.0
 11
7549.859441455975
 21
17104.8346879226
 31
0.0
  0
LINE
  5
6FB
330
1E
100
AcDbEntity
  8
1
  6
Continuous
 62
     7
370
    13
100
AcDbLine
 10
7563.611153456553
 20
17104.8346879226
 30
0.0
 11
7836.099012655552
 21
17104.8346879226
 31
0.0
  0
LINE
  5
6FC
330
1E
100
AcDbEntity
  8
1
  6
Continuous
 62
     7
370
    13
100
AcDbLine
 10
7935.529054256123
 20
17119.23480312264
 30
0.0
 11
8031.94650065523
 21
17119.23480312264
 31
0.0
  0
LINE
  5
6FD
330
1E
100
AcDbEntity
  8
1
  6
Continuous
 62
     7
370
    13
100
AcDbLine
 10
7405.233444655282
 20
17119.23480312264
 30
0.0
 11
7549.859441455975
 21
17119.23480312264
 31
0.0
  0
LINE
  5
6FE
330
1E
100
AcDbEntity
  8
1
  6
Continuous
 62
     7
370
    13
100
AcDbLine
 10
7725.41012945637
 20
17119.23480312264
 30
0.0
 11
7841.320049455736
 21
17119.23480312264
 31
0.0
  0
LINE
  5
6FF
330
1E
100
AcDbEntity
  8
1
  6
Continuous
 62
     7
370
    13
100
AcDbLine
 10
7935.529054256123
 20
17133.6346879226
 30
0.0
 11
8031.94650065523
 21
17133.6346879226
 31
0.0
  0
LINE
  5
700
330
1E
100
AcDbEntity
  8
1
  6
Continuous
 62
     7
370
    13
100
AcDbLine
 10
7405.233444655282
 20
17133.6346879226
 30
0.0
 11
7549.859441455975
 21
17133.6346879226
 31
0.0
  0
LINE
  5
701
330
1E
100
AcDbEntity
  8
1
  6
Continuous
 62
     7
370
    13
100
AcDbLine
 10
7744.208926255229
 20
17133.6346879226
 30
0.0
 11
7844.54161745586
 21
17133.6346879226
 31
0.0
  0
LINE
  5
702
330
1E
100
AcDbEntity
  8
1
  6
Continuous
 62
     7
370
    13
100
AcDbLine
 10
7935.529054256123
 20
17148.0347455222
 30
0.0
 11
8031.94650065523
 21
17148.0347455222
 31
0.0
  0
LINE
  5
703
330
1E
100
AcDbEntity
  8
1
  6
Continuous
 62
     7
370
    13
100
AcDbLine
 10
7405.233444655282
 20
17148.0347455222
 30
0.0
 11
7549.859441455975
 21
17148.0347455222
 31
0.0
  0
LINE
  5
704
330
1E
100
AcDbEntity
  8
1
  6
Continuous
 62
     7
370
    13
100
AcDbLine
 10
7749.339934255516
 20
17148.0347455222
 30
0.0
 11
7845.928279855082
 21
17148.0347455222
 31
0.0
  0
LINE
  5
705
330
1E
100
AcDbEntity
  8
1
  6
Continuous
 62
     7
370
    13
100
AcDbLine
 10
7935.529054256123
 20
17162.4346879226
 30
0.0
 11
8031.94650065523
 21
17162.4346879226
 31
0.0
  0
LINE
  5
706
330
1E
100
AcDbEntity
  8
1
  6
Continuous
 62
     7
370
    13
100
AcDbLine
 10
7405.233444655282
 20
17162.4346879226
 30
0.0
 11
7549.859441455975
 21
17162.4346879226
 31
0.0
  0
LINE
  5
707
330
1E
100
AcDbEntity
  8
1
  6
Continuous
 62
     7
370
    13
100
AcDbLine
 10
7747.995147054982
 20
17162.4346879226
 30
0.0
 11
7845.544779055166
 21
17162.4346879226
 31
0.0
  0
TEXT
  5
708
330
1E
100
AcDbEntity
  8
1
  6
Continuous
 62
     7
370
    13
100
AcDbText
 10
8310.903934256344
 20
16893.57246072263
 30
0.0
 40
201.6
  1
Ｗ－９２０１
 41
0.5952380000000001
  7
KANJI
100
AcDbText
  0
ARC
  5
709
330
1E
100
AcDbEntity
  8
1
  6
Continuous
 62
     7
370
    13
100
AcDbCircle
 10
17884.6768878551
 20
15081.6347455222
 30
0.0
 40
1728.0
100
AcDbArc
 50
270.0
 51
0.0
  0
ARC
  5
70A
330
1E
100
AcDbEntity
  8
1
  6
Continuous
 62
     7
370
    13
100
AcDbCircle
 10
17884.6768878551
 20
15081.6347455222
 30
0.0
 40
1152.0
100
AcDbArc
 50
270.0
 51
0.0
  0
ARC
  5
70B
330
1E
100
AcDbEntity
  8
1
  6
Continuous
 62
     7
370
    13
100
AcDbCircle
 10
15004.6768878551
 20
20841.6347455222
 30
0.0
 40
1152.0
100
AcDbArc
 50
0.0
 51
90.0
  0
ARC
  5
70C
330
1E
100
AcDbEntity
  8
1
  6
Continuous
 62
     7
370
    13
100
AcDbCircle
 10
15004.6768878551
 20
20841.6347455222
 30
0.0
 40
1152.0
100
AcDbArc
 50
90.0
 51
180.0
  0
ARC
  5
70D
330
1E
100
AcDbEntity
  8
1
  6
Continuous
 62
     7
370
    13
100
AcDbCircle
 10
15004.6768878551
 20
20841.6347455222
 30
0.0
 40
1728.0
100
AcDbArc
 50
90.0
 51
180.0
  0
ARC
  5
70E
330
1E
100
AcDbEntity
  8
1
  6
Continuous
 62
     7
370
    13
100
AcDbCircle
 10
15004.6768878551
 20
20841.6347455222
 30
0.0
 40
1728.0
100
AcDbArc
 50
0.0
 51
90.0
  0
ARC
  5
70F
330
1E
100
AcDbEntity
  8
1
  6
Continuous
 62
     7
370
    13
100
AcDbCircle
 10
10022.27688785508
 20
18192.0347455222
 30
0.0
 40
576.0
100
AcDbArc
 50
0.0
 51
90.0
  0
LINE
  5
710
330
1E
100
AcDbEntity
  8
1
  6
Continuous
 62
     7
370
    13
100
AcDbLine
 10
7977.476887855093
 20
18768.0347455222
 30
0.0
 11
8121.476887855093
 21
19804.8347455222
 31
0.0
  0
LINE
  5
711
330
1E
100
AcDbEntity
  8
1
  6
Continuous
 62
     7
370
    13
100
AcDbLine
 10
8697.476887855094
 20
19804.8347455222
 30
0.0
 11
8841.476887855092
 21
18768.0347455222
 31
0.0
  0
LINE
  5
712
330
1E
100
AcDbEntity
  8
1
  6
Continuous
 62
     7
370
    13
100
AcDbLine
 10
10022.27688785508
 20
18768.0347455222
 30
0.0
 11
6796.676887855105
 21
18768.0347455222
 31
0.0
  0
LINE
  5
713
330
1E
100
AcDbEntity
  8
1
  6
Continuous
 62
     7
370
    13
100
AcDbLine
 10
7108.797003054958
 20
17176.8347455222
 30
0.0
 11
7324.142724655158
 21
17176.8347455222
 31
0.0
  0
LINE
  5
714
330
1E
100
AcDbEntity
  8
1
  6
Continuous
 62
     7
370
    13
100
AcDbLine
 10
7123.340945456348
 20
17191.2346879226
 30
0.0
 11
7338.686839856174
 21
17191.2346879226
 31
0.0
  0
LINE
  5
715
330
1E
100
AcDbEntity
  8
1
  6
Continuous
 62
     7
370
    13
100
AcDbLine
 10
7137.884830255583
 20
17205.6347455222
 30
0.0
 11
7353.230724655438
 21
17205.6347455222
 31
0.0
  0
LINE
  5
716
330
1E
100
AcDbEntity
  8
1
  6
Continuous
 62
     7
370
    13
100
AcDbLine
 10
7152.42894545494
 20
17220.0346879226
 30
0.0
 11
7367.774667055138
 21
17220.0346879226
 31
0.0
  0
LINE
  5
717
330
1E
100
AcDbEntity
  8
1
  6
Continuous
 62
     7
370
    13
100
AcDbLine
 10
7166.972830255861
 20
17234.4347455222
 30
0.0
 11
7382.318724655717
 21
17234.4347455222
 31
0.0
  0
LINE
  5
718
330
1E
100
AcDbEntity
  8
1
  6
Continuous
 62
     7
370
    13
100
AcDbLine
 10
7181.51694545519
 20
17248.8346879226
 30
0.0
 11
7396.86266705539
 21
17248.8346879226
 31
0.0
  0
LINE
  5
719
330
1E
100
AcDbEntity
  8
1
  6
Continuous
 62
     7
370
    13
100
AcDbLine
 10
7196.060830256141
 20
17263.2347455222
 30
0.0
 11
7549.859441455975
 21
17263.2347455222
 31
0.0
  0
LINE
  5
71A
330
1E
100
AcDbEntity
  8
1
  6
Continuous
 62
     7
370
    13
100
AcDbLine
 10
7210.604945455471
 20
17277.6346879226
 30
0.0
 11
7549.859441455975
 21
17277.6346879226
 31
0.0
  0
ARC
  5
71B
330
1E
100
AcDbEntity
  8
1
  6
Continuous
 62
     7
370
    13
100
AcDbCircle
 10
6796.676887855105
 20
18192.0347455222
 30
0.0
 40
576.0
100
AcDbArc
 50
90.0
 51
180.0
  0
LINE
  5
71C
330
1E
100
AcDbEntity
  8
1
  6
Continuous
 62
     7
370
    13
100
AcDbLine
 10
7577.407390255827
 20
17186.5391359222
 30
0.0
 11
7715.146558255681
 21
17186.5391359222
 31
0.0
  0
LINE
  5
71D
330
1E
100
AcDbEntity
  8
1
  6
Continuous
 62
     7
370
    13
100
AcDbLine
 10
7577.407390255827
 20
17269.1825215224
 30
0.0
 11
7577.407390255827
 21
17186.5391359222
 31
0.0
  0
LINE
  5
71E
330
1E
100
AcDbEntity
  8
1
  6
Continuous
 62
     7
370
    13
100
AcDbLine
 10
7577.407390255827
 20
17269.1825215224
 30
0.0
 11
7741.244542255412
 21
17269.1825215224
 31
0.0
  0
LINE
  5
71F
330
1E
100
AcDbEntity
  8
1
  6
Continuous
 62
     7
370
    13
100
AcDbLine
 10
8121.476945455532
 20
17269.1825215224
 30
0.0
 11
7845.998667056261
 21
17269.1825215224
 31
0.0
  0
LINE
  5
720
330
1E
100
AcDbEntity
  8
1
  6
Continuous
 62
     7
370
    13
100
AcDbLine
 10
7845.998667056261
 20
17269.1825215224
 30
0.0
 11
7845.998667056261
 21
17186.5391359222
 31
0.0
  0
LINE
  5
721
330
1E
100
AcDbEntity
  8
1
  6
Continuous
 62
     7
370
    13
100
AcDbLine
 10
7845.998667056261
 20
17186.5391359222
 30
0.0
 11
7935.529054256123
 21
17186.5391359222
 31
0.0
  0
LINE
  5
722
330
1E
100
AcDbEntity
  8
1
  6
Continuous
 62
     7
370
    13
100
AcDbLine
 10
8031.94650065523
 20
17186.5391359222
 30
0.0
 11
8121.476945455532
 21
17186.5391359222
 31
0.0
  0
LINE
  5
723
330
1E
100
AcDbEntity
  8
1
  6
Continuous
 62
     7
370
    13
100
AcDbLine
 10
8121.476945455532
 20
17186.5391359222
 30
0.0
 11
8121.476945455532
 21
17269.1825215224
 31
0.0
  0
LINE
  5
724
330
1E
100
AcDbEntity
  8
1
  6
Continuous
 62
     7
370
    13
100
AcDbLine
 10
7935.529054256123
 20
17176.8347455222
 30
0.0
 11
8031.94650065523
 21
17176.8347455222
 31
0.0
  0
LINE
  5
725
330
1E
100
AcDbEntity
  8
1
  6
Continuous
 62
     7
370
    13
100
AcDbLine
 10
7405.233444655282
 20
17176.8347455222
 30
0.0
 11
7549.859441455975
 21
17176.8347455222
 31
0.0
  0
LINE
  5
726
330
1E
100
AcDbEntity
  8
1
  6
Continuous
 62
     7
370
    13
100
AcDbLine
 10
7739.108043056328
 20
17176.8347455222
 30
0.0
 11
7843.373489456045
 21
17176.8347455222
 31
0.0
  0
LINE
  5
727
330
1E
100
AcDbEntity
  8
1
  6
Continuous
 62
     7
370
    13
100
AcDbLine
 10
7845.998667056261
 20
17191.2346879226
 30
0.0
 11
8121.476945455532
 21
17191.2346879226
 31
0.0
  0
LINE
  5
728
330
1E
100
AcDbEntity
  8
1
  6
Continuous
 62
     7
370
    13
100
AcDbLine
 10
7405.233444655282
 20
17191.2346879226
 30
0.0
 11
7549.859441455975
 21
17191.2346879226
 31
0.0
  0
LINE
  5
729
330
1E
100
AcDbEntity
  8
1
  6
Continuous
 62
     7
370
    13
100
AcDbLine
 10
7577.407390255827
 20
17191.2346879226
 30
0.0
 11
7839.30975185538
 21
17191.2346879226
 31
0.0
  0
LINE
  5
72A
330
1E
100
AcDbEntity
  8
1
  6
Continuous
 62
     7
370
    13
100
AcDbLine
 10
7845.998667056261
 20
17205.6347455222
 30
0.0
 11
8121.476945455532
 21
17205.6347455222
 31
0.0
  0
LINE
  5
72B
330
1E
100
AcDbEntity
  8
1
  6
Continuous
 62
     7
370
    13
100
AcDbLine
 10
7405.233444655282
 20
17205.6347455222
 30
0.0
 11
7549.859441455975
 21
17205.6347455222
 31
0.0
  0
LINE
  5
72C
330
1E
100
AcDbEntity
  8
1
  6
Continuous
 62
     7
370
    13
100
AcDbLine
 10
7577.407390255827
 20
17205.6347455222
 30
0.0
 11
7833.133879855068
 21
17205.6347455222
 31
0.0
  0
LINE
  5
72D
330
1E
100
AcDbEntity
  8
1
  6
Continuous
 62
     7
370
    13
100
AcDbLine
 10
7845.998667056261
 20
17220.0346879226
 30
0.0
 11
8121.476945455532
 21
17220.0346879226
 31
0.0
  0
LINE
  5
72E
330
1E
100
AcDbEntity
  8
1
  6
Continuous
 62
     7
370
    13
100
AcDbLine
 10
7405.233444655282
 20
17220.0346879226
 30
0.0
 11
7549.859441455975
 21
17220.0346879226
 31
0.0
  0
LINE
  5
72F
330
1E
100
AcDbEntity
  8
1
  6
Continuous
 62
     7
370
    13
100
AcDbLine
 10
7577.407390255827
 20
17220.0346879226
 30
0.0
 11
7824.440311856536
 21
17220.0346879226
 31
0.0
  0
LINE
  5
730
330
1E
100
AcDbEntity
  8
1
  6
Continuous
 62
     7
370
    13
100
AcDbLine
 10
7845.998667056261
 20
17234.4347455222
 30
0.0
 11
8121.476945455532
 21
17234.4347455222
 31
0.0
  0
LINE
  5
731
330
1E
100
AcDbEntity
  8
1
  6
Continuous
 62
     7
370
    13
100
AcDbLine
 10
7405.233444655282
 20
17234.4347455222
 30
0.0
 11
7549.859441455975
 21
17234.4347455222
 31
0.0
  0
LINE
  5
732
330
1E
100
AcDbEntity
  8
1
  6
Continuous
 62
     7
370
    13
100
AcDbLine
 10
7577.407390255827
 20
17234.4347455222
 30
0.0
 11
7812.452772656422
 21
17234.4347455222
 31
0.0
  0
LINE
  5
733
330
1E
100
AcDbEntity
  8
1
  6
Continuous
 62
     7
370
    13
100
AcDbLine
 10
7845.998667056261
 20
17248.8346879226
 30
0.0
 11
8121.476945455532
 21
17248.8346879226
 31
0.0
  0
LINE
  5
734
330
1E
100
AcDbEntity
  8
1
  6
Continuous
 62
     7
370
    13
100
AcDbLine
 10
7405.233444655282
 20
17248.8346879226
 30
0.0
 11
7549.859441455975
 21
17248.8346879226
 31
0.0
  0
LINE
  5
735
330
1E
100
AcDbEntity
  8
1
  6
Continuous
 62
     7
370
    13
100
AcDbLine
 10
7577.407390255827
 20
17248.8346879226
 30
0.0
 11
7795.43237585571
 21
17248.8346879226
 31
0.0
  0
LINE
  5
736
330
1E
100
AcDbEntity
  8
1
  6
Continuous
 62
     7
370
    13
100
AcDbLine
 10
7845.998667056261
 20
17263.2347455222
 30
0.0
 11
8121.476945455532
 21
17263.2347455222
 31
0.0
  0
LINE
  5
737
330
1E
100
AcDbEntity
  8
1
  6
Continuous
 62
     7
370
    13
100
AcDbLine
 10
7577.407390255827
 20
17263.2347455222
 30
0.0
 11
7767.280260655444
 21
17263.2347455222
 31
0.0
  0
LINE
  5
738
330
1E
100
AcDbEntity
  8
1
  6
Continuous
 62
     7
370
    13
100
AcDbLine
 10
7225.148887855173
 20
17292.0347455222
 30
0.0
 11
7549.859441455975
 21
17292.0347455222
 31
0.0
  0
LINE
  5
739
330
1E
100
AcDbEntity
  8
1
  6
Continuous
 62
     7
370
    13
100
AcDbLine
 10
7239.692945455721
 20
17306.4346879226
 30
0.0
 11
7549.859441455975
 21
17306.4346879226
 31
0.0
  0
LINE
  5
73A
330
1E
100
AcDbEntity
  8
1
  6
Continuous
 62
     7
370
    13
100
AcDbLine
 10
7254.236887855423
 20
17320.8347455222
 30
0.0
 11
7549.859441455975
 21
17320.8347455222
 31
0.0
  0
LINE
  5
73B
330
1E
100
AcDbEntity
  8
1
  6
Continuous
 62
     7
370
    13
100
AcDbLine
 10
7268.780945456001
 20
17335.2346879226
 30
0.0
 11
7549.859441455975
 21
17335.2346879226
 31
0.0
  0
LINE
  5
73C
330
1E
100
AcDbEntity
  8
1
  6
Continuous
 62
     7
370
    13
100
AcDbLine
 10
7283.324887855703
 20
17349.6347455222
 30
0.0
 11
7549.859441455975
 21
17349.6347455222
 31
0.0
  0
LINE
  5
73D
330
1E
100
AcDbEntity
  8
1
  6
Continuous
 62
     7
370
    13
100
AcDbLine
 10
7297.869003055031
 20
17364.03463032216
 30
0.0
 11
7549.859441455975
 21
17364.03463032216
 31
0.0
  0
LINE
  5
73E
330
1E
100
AcDbEntity
  8
1
  6
Continuous
 62
     7
370
    13
100
AcDbLine
 10
7312.412887855953
 20
17378.4347455222
 30
0.0
 11
7549.859441455975
 21
17378.4347455222
 31
0.0
  0
LINE
  5
73F
330
1E
100
AcDbEntity
  8
1
  6
Continuous
 62
     7
370
    13
100
AcDbLine
 10
7326.956830255655
 20
17392.83463032216
 30
0.0
 11
7549.859441455975
 21
17392.83463032216
 31
0.0
  0
LINE
  5
740
330
1E
100
AcDbEntity
  8
1
  6
Continuous
 62
     7
370
    13
100
AcDbLine
 10
7341.500887856233
 20
17407.2347455222
 30
0.0
 11
7549.859441455975
 21
17407.2347455222
 31
0.0
  0
LINE
  5
741
330
1E
100
AcDbEntity
  8
1
  6
Continuous
 62
     7
370
    13
100
AcDbLine
 10
7356.045003055562
 20
17421.63463032216
 30
0.0
 11
7549.859441455975
 21
17421.63463032216
 31
0.0
  0
LINE
  5
742
330
1E
100
AcDbEntity
  8
1
  6
Continuous
 62
     7
370
    13
100
AcDbLine
 10
7370.588887856513
 20
17436.0347455222
 30
0.0
 11
7549.859441455975
 21
17436.0347455222
 31
0.0
  0
LINE
  5
743
330
1E
100
AcDbEntity
  8
1
  6
Continuous
 62
     7
370
    13
100
AcDbLine
 10
7385.133003055841
 20
17450.43463032216
 30
0.0
 11
7549.859441455975
 21
17450.43463032216
 31
0.0
  0
LINE
  5
744
330
1E
100
AcDbEntity
  8
1
  6
Continuous
 62
     7
370
    13
100
AcDbLine
 10
7399.676945455543
 20
17464.8347455222
 30
0.0
 11
7549.859441455975
 21
17464.8347455222
 31
0.0
  0
LINE
  5
745
330
1E
100
AcDbEntity
  8
1
  6
Continuous
 62
     7
370
    13
100
AcDbLine
 10
7414.220830256465
 20
17479.23463032216
 30
0.0
 11
7549.859441455975
 21
17479.23463032216
 31
0.0
  0
LINE
  5
746
330
1E
100
AcDbEntity
  8
1
  6
Continuous
 62
     7
370
    13
100
AcDbLine
 10
7428.764945455793
 20
17493.6347455222
 30
0.0
 11
7549.859441455975
 21
17493.6347455222
 31
0.0
  0
LINE
  5
747
330
1E
100
AcDbEntity
  8
1
  6
Continuous
 62
     7
370
    13
100
AcDbLine
 10
7443.308830255057
 20
17508.03463032216
 30
0.0
 11
7549.859441455975
 21
17508.03463032216
 31
0.0
  0
LINE
  5
748
330
1E
100
AcDbEntity
  8
1
  6
Continuous
 62
     7
370
    13
100
AcDbLine
 10
7457.852945456074
 20
17522.4347455222
 30
0.0
 11
7549.859441455975
 21
17522.4347455222
 31
0.0
  0
LINE
  5
749
330
1E
100
AcDbEntity
  8
1
  6
Continuous
 62
     7
370
    13
100
AcDbLine
 10
7472.396830255338
 20
17536.83463032216
 30
0.0
 11
7549.859441455975
 21
17536.83463032216
 31
0.0
  0
LINE
  5
74A
330
1E
100
AcDbEntity
  8
1
  6
Continuous
 62
     7
370
    13
100
AcDbLine
 10
7486.940945456325
 20
17551.2347455222
 30
0.0
 11
7549.859441455975
 21
17551.2347455222
 31
0.0
  0
LINE
  5
74B
330
1E
100
AcDbEntity
  8
1
  6
Continuous
 62
     7
370
    13
100
AcDbLine
 10
7501.484887856026
 20
17565.63463032216
 30
0.0
 11
7549.859441455975
 21
17565.63463032216
 31
0.0
  0
LINE
  5
74C
330
1E
100
AcDbEntity
  8
1
  6
Continuous
 62
     7
370
    13
100
AcDbLine
 10
7516.028945454917
 20
17580.0347455222
 30
0.0
 11
7549.859441455975
 21
17580.0347455222
 31
0.0
  0
LINE
  5
74D
330
1E
100
AcDbEntity
  8
1
  6
Continuous
 62
     7
370
    13
100
AcDbLine
 10
7530.572887856306
 20
17594.43463032216
 30
0.0
 11
7549.859441455975
 21
17594.43463032216
 31
0.0
  0
LINE
  5
74E
330
1E
100
AcDbEntity
  8
1
  6
Continuous
 62
     7
370
    13
100
AcDbLine
 10
7545.116945455196
 20
17608.8347455222
 30
0.0
 11
7549.859441455975
 21
17608.8347455222
 31
0.0
  0
LINE
  5
74F
330
1E
100
AcDbEntity
  8
1
  6
Continuous
 62
     7
370
    13
100
AcDbLine
 10
7993.476900656123
 20
18883.2347455222
 30
0.0
 11
8825.476875055754
 21
18883.2347455222
 31
0.0
  0
LINE
  5
750
330
1E
100
AcDbEntity
  8
1
  6
Continuous
 62
     7
370
    13
100
AcDbLine
 10
8817.476868656052
 20
18940.8347455222
 30
0.0
 11
8001.476907055792
 21
18940.8347455222
 31
0.0
  0
LINE
  5
751
330
1E
100
AcDbEntity
  8
1
  6
Continuous
 62
     7
370
    13
100
AcDbLine
 10
8017.476862256383
 20
19056.0347455222
 30
0.0
 11
8801.476855855025
 21
19056.0347455222
 31
0.0
  0
LINE
  5
752
330
1E
100
AcDbEntity
  8
1
  6
Continuous
 62
     7
370
    13
100
AcDbLine
 10
8025.476868656053
 20
19113.6347455222
 30
0.0
 11
8793.476907055792
 21
19113.6347455222
 31
0.0
  0
LINE
  5
753
330
1E
100
AcDbEntity
  8
1
  6
Continuous
 62
     7
370
    13
100
AcDbLine
 10
8777.476894256452
 20
19228.8347455222
 30
0.0
 11
8041.476881455421
 21
19228.8347455222
 31
0.0
  0
LINE
  5
754
330
1E
100
AcDbEntity
  8
1
  6
Continuous
 62
     7
370
    13
100
AcDbLine
 10
8049.476887855092
 20
19286.4347455222
 30
0.0
 11
8769.476887855093
 21
19286.4347455222
 31
0.0
  0
LINE
  5
755
330
1E
100
AcDbEntity
  8
1
  6
Continuous
 62
     7
370
    13
100
AcDbLine
 10
8771.771959856323
 20
20531.16268152286
 30
0.0
 11
8771.906974255074
 21
20531.35310712278
 31
0.0
  0
LINE
  5
756
330
1E
100
AcDbEntity
  8
1
  6
Continuous
 62
     7
370
    13
100
AcDbLine
 10
8771.369623855481
 20
20530.59647352228
 30
0.0
 11
8771.771959856323
 21
20531.16268152286
 31
0.0
  0
LINE
  5
757
330
1E
100
AcDbEntity
  8
1
  6
Continuous
 62
     7
370
    13
100
AcDbLine
 10
8770.702097455385
 20
20529.66871032294
 30
0.0
 11
8771.369623855481
 21
20530.59647352228
 31
0.0
  0
LINE
  5
758
330
1E
100
AcDbEntity
  8
1
  6
Continuous
 62
     7
370
    13
100
AcDbLine
 10
8769.755959856118
 20
20528.40047352275
 30
0.0
 11
8770.702097455385
 21
20529.66871032294
 31
0.0
  0
LINE
  5
759
330
1E
100
AcDbEntity
  8
1
  6
Continuous
 62
     7
370
    13
100
AcDbLine
 10
8768.483287856502
 20
20526.81630072247
 30
0.0
 11
8769.755959856118
 21
20528.40047352275
 31
0.0
  0
LINE
  5
75A
330
1E
100
AcDbEntity
  8
1
  6
Continuous
 62
     7
370
    13
100
AcDbLine
 10
8766.787774255844
 20
20524.94170872278
 30
0.0
 11
8768.483287856502
 21
20526.81630072247
 31
0.0
  0
LINE
  5
75B
330
1E
100
AcDbEntity
  8
1
  6
Continuous
 62
     7
370
    13
100
AcDbLine
 10
8764.522481455058
 20
20522.80169592294
 30
0.0
 11
8766.787774255844
 21
20524.94170872278
 31
0.0
  0
LINE
  5
75C
330
1E
100
AcDbEntity
  8
1
  6
Continuous
 62
     7
370
    13
100
AcDbLine
 10
8761.505566255912
 20
20520.42160632227
 30
0.0
 11
8764.522481455058
 21
20522.80169592294
 31
0.0
  0
LINE
  5
75D
330
1E
100
AcDbEntity
  8
1
  6
Continuous
 62
     7
370
    13
100
AcDbLine
 10
8757.553342256109
 20
20517.83047032225
 30
0.0
 11
8761.505566255912
 21
20520.42160632227
 31
0.0
  0
LINE
  5
75E
330
1E
100
AcDbEntity
  8
1
  6
Continuous
 62
     7
370
    13
100
AcDbLine
 10
8752.527166256095
 20
20515.06549752287
 30
0.0
 11
8757.553342256109
 21
20517.83047032225
 31
0.0
  0
LINE
  5
75F
330
1E
100
AcDbEntity
  8
1
  6
Continuous
 62
     7
370
    13
100
AcDbLine
 10
8746.385047856307
 20
20512.17795192226
 30
0.0
 11
8752.527166256095
 21
20515.06549752287
 31
0.0
  0
LINE
  5
760
330
1E
100
AcDbEntity
  8
1
  6
Continuous
 62
     7
370
    13
100
AcDbLine
 10
8739.225598254966
 20
20509.23724152249
 30
0.0
 11
8746.385047856307
 21
20512.17795192226
 31
0.0
  0
LINE
  5
761
330
1E
100
AcDbEntity
  8
1
  6
Continuous
 62
     7
370
    13
100
AcDbLine
 10
8731.314123055486
 20
20506.33299192291
 30
0.0
 11
8739.225598254966
 21
20509.23724152249
 31
0.0
  0
LINE
  5
762
330
1E
100
AcDbEntity
  8
1
  6
Continuous
 62
     7
370
    13
100
AcDbLine
 10
8723.080491055528
 20
20503.5735487229
 30
0.0
 11
8731.314123055486
 21
20506.33299192291
 31
0.0
  0
LINE
  5
763
330
1E
100
AcDbEntity
  8
1
  6
Continuous
 62
     7
370
    13
100
AcDbLine
 10
8715.086475056185
 20
20501.07964152227
 30
0.0
 11
8723.080491055528
 21
20503.5735487229
 31
0.0
  0
LINE
  5
764
330
1E
100
AcDbEntity
  8
1
  6
Continuous
 62
     7
370
    13
100
AcDbLine
 10
8707.963889455594
 20
20498.9754559228
 30
0.0
 11
8715.086475056185
 21
20501.07964152227
 31
0.0
  0
LINE
  5
765
330
1E
100
AcDbEntity
  8
1
  6
Continuous
 62
     7
370
    13
100
AcDbLine
 10
8702.334353456242
 20
20497.37607672241
 30
0.0
 11
8707.963889455594
 21
20498.9754559228
 31
0.0
  0
LINE
  5
766
330
1E
100
AcDbEntity
  8
1
  6
Continuous
 62
     7
370
    13
100
AcDbLine
 10
8698.721969455826
 20
20496.37544952229
 30
0.0
 11
8702.334353456242
 21
20497.37607672241
 31
0.0
  0
LINE
  5
767
330
1E
100
AcDbEntity
  8
1
  6
Continuous
 62
     7
370
    13
100
AcDbLine
 10
8697.476887855094
 20
20496.0347455222
 30
0.0
 11
8698.721969455826
 21
20496.37544952229
 31
0.0
  0
LINE
  5
768
330
1E
100
AcDbEntity
  8
1
  6
Continuous
 62
     7
370
    13
100
AcDbLine
 10
8696.216542255479
 20
20495.69202552269
 30
0.0
 11
8697.476887855094
 21
20496.0347455222
 31
0.0
  0
LINE
  5
769
330
1E
100
AcDbEntity
  8
1
  6
Continuous
 62
     7
370
    13
100
AcDbLine
 10
8692.381073456225
 20
20494.66167672256
 30
0.0
 11
8696.216542255479
 21
20495.69202552269
 31
0.0
  0
LINE
  5
76A
330
1E
100
AcDbEntity
  8
1
  6
Continuous
 62
     7
370
    13
100
AcDbLine
 10
8685.824350256062
 20
20492.94243192224
 30
0.0
 11
8692.381073456225
 21
20494.66167672256
 31
0.0
  0
LINE
  5
76B
330
1E
100
AcDbEntity
  8
1
  6
Continuous
 62
     7
370
    13
100
AcDbLine
 10
8676.357444656428
 20
20490.54742392281
 30
0.0
 11
8685.824350256062
 21
20492.94243192224
 31
0.0
  0
LINE
  5
76C
330
1E
100
AcDbEntity
  8
1
  6
Continuous
 62
     7
370
    13
100
AcDbLine
 10
8663.818097455598
 20
20487.52261752224
 30
0.0
 11
8676.357444656428
 21
20490.54742392281
 31
0.0
  0
LINE
  5
76D
330
1E
100
AcDbEntity
  8
1
  6
Continuous
 62
     7
370
    13
100
AcDbLine
 10
8648.146404655063
 20
20483.96287992287
 30
0.0
 11
8663.818097455598
 21
20487.52261752224
 31
0.0
  0
LINE
  5
76E
330
1E
100
AcDbEntity
  8
1
  6
Continuous
 62
     7
370
    13
100
AcDbLine
 10
8629.450251054917
 20
20480.02033272216
 30
0.0
 11
8648.146404655063
 21
20483.96287992287
 31
0.0
  0
LINE
  5
76F
330
1E
100
AcDbEntity
  8
1
  6
Continuous
 62
     7
370
    13
100
AcDbLine
 10
8608.047761455145
 20
20475.90060792266
 30
0.0
 11
8629.450251054917
 21
20480.02033272216
 31
0.0
  0
LINE
  5
770
330
1E
100
AcDbEntity
  8
1
  6
Continuous
 62
     7
370
    13
100
AcDbLine
 10
8584.476919855161
 20
20471.84539512235
 30
0.0
 11
8608.047761455145
 21
20475.90060792266
 31
0.0
  0
LINE
  5
771
330
1E
100
AcDbEntity
  8
1
  6
Continuous
 62
     7
370
    13
100
AcDbLine
 10
8559.471953454949
 20
20468.10295032233
 30
0.0
 11
8584.476919855161
 21
20471.84539512235
 31
0.0
  0
LINE
  5
772
330
1E
100
AcDbEntity
  8
1
  6
Continuous
 62
     7
370
    13
100
AcDbLine
 10
8533.910398256205
 20
20464.89313272283
 30
0.0
 11
8559.471953454949
 21
20468.10295032233
 31
0.0
  0
LINE
  5
773
330
1E
100
AcDbEntity
  8
1
  6
Continuous
 62
     7
370
    13
100
AcDbLine
 10
8508.74213585647
 20
20462.37272952244
 30
0.0
 11
8533.910398256205
 21
20464.89313272283
 31
0.0
  0
LINE
  5
774
330
1E
100
AcDbEntity
  8
1
  6
Continuous
 62
     7
370
    13
100
AcDbLine
 10
8484.913361455484
 20
20460.60993912246
 30
0.0
 11
8508.74213585647
 21
20462.37272952244
 31
0.0
  0
LINE
  5
775
330
1E
100
AcDbEntity
  8
1
  6
Continuous
 62
     7
370
    13
100
AcDbLine
 10
8463.298212655788
 20
20459.57423352263
 30
0.0
 11
8484.913361455484
 21
20460.60993912246
 31
0.0
  0
LINE
  5
776
330
1E
100
AcDbEntity
  8
1
  6
Continuous
 62
     7
370
    13
100
AcDbLine
 10
8444.648830256392
 20
20459.14430712292
 30
0.0
 11
8463.298212655788
 21
20459.57423352263
 31
0.0
  0
LINE
  5
777
330
1E
100
AcDbEntity
  8
1
  6
Continuous
 62
     7
370
    13
100
AcDbLine
 10
8429.567307055341
 20
20459.13370872268
 30
0.0
 11
8444.648830256392
 21
20459.14430712292
 31
0.0
  0
LINE
  5
778
330
1E
100
AcDbEntity
  8
1
  6
Continuous
 62
     7
370
    13
100
AcDbLine
 10
8418.499812655323
 20
20459.33006712252
 30
0.0
 11
8429.567307055341
 21
20459.13370872268
 31
0.0
  0
LINE
  5
779
330
1E
100
AcDbEntity
  8
1
  6
Continuous
 62
     7
370
    13
100
AcDbLine
 10
8411.746327855592
 20
20459.53898232243
 30
0.0
 11
8418.499812655323
 21
20459.33006712252
 31
0.0
  0
LINE
  5
77A
330
1E
100
AcDbEntity
  8
1
  6
Continuous
 62
     7
370
    13
100
AcDbLine
 10
8409.476887855094
 20
20459.62480632214
 30
0.0
 11
8411.746327855592
 21
20459.53898232243
 31
0.0
  0
LINE
  5
77B
330
1E
100
AcDbEntity
  8
1
  6
Continuous
 62
     7
370
    13
100
AcDbLine
 10
8407.208830255051
 20
20459.71857912288
 30
0.0
 11
8409.476887855094
 21
20459.62480632214
 31
0.0
  0
LINE
  5
77C
330
1E
100
AcDbEntity
  8
1
  6
Continuous
 62
     7
370
    13
100
AcDbLine
 10
8400.47521745579
 20
20460.04303992249
 30
0.0
 11
8407.208830255051
 21
20459.71857912288
 31
0.0
  0
LINE
  5
77D
330
1E
100
AcDbEntity
  8
1
  6
Continuous
 62
     7
370
    13
100
AcDbLine
 10
8389.488247855359
 20
20460.71517432247
 30
0.0
 11
8400.47521745579
 21
20460.04303992249
 31
0.0
  0
LINE
  5
77E
330
1E
100
AcDbEntity
  8
1
  6
Continuous
 62
     7
370
    13
100
AcDbLine
 10
8374.60141265651
 20
20461.89021432295
 30
0.0
 11
8389.488247855359
 21
20460.71517432247
 31
0.0
  0
LINE
  5
77F
330
1E
100
AcDbEntity
  8
1
  6
Continuous
 62
     7
370
    13
100
AcDbLine
 10
8356.306558256004
 20
20463.71342712285
 30
0.0
 11
8374.60141265651
 21
20461.89021432295
 31
0.0
  0
LINE
  5
780
330
1E
100
AcDbEntity
  8
1
  6
Continuous
 62
     7
370
    13
100
AcDbLine
 10
8335.223806255086
 20
20466.26994552247
 30
0.0
 11
8356.306558256004
 21
20463.71342712285
 31
0.0
  0
LINE
  5
781
330
1E
100
AcDbEntity
  8
1
  6
Continuous
 62
     7
370
    13
100
AcDbLine
 10
8312.081681455657
 20
20469.54657912281
 30
0.0
 11
8335.223806255086
 21
20466.26994552247
 31
0.0
  0
LINE
  5
782
330
1E
100
AcDbEntity
  8
1
  6
Continuous
 62
     7
370
    13
100
AcDbLine
 10
8287.685950255919
 20
20473.41511032235
 30
0.0
 11
8312.081681455657
 21
20469.54657912281
 31
0.0
  0
LINE
  5
783
330
1E
100
AcDbEntity
  8
1
  6
Continuous
 62
     7
370
    13
100
AcDbLine
 10
8262.877687856521
 20
20477.6422591226
 30
0.0
 11
8287.685950255919
 21
20473.41511032235
 31
0.0
  0
LINE
  5
784
330
1E
100
AcDbEntity
  8
1
  6
Continuous
 62
     7
370
    13
100
AcDbLine
 10
8238.48403025584
 20
20481.92470392229
 30
0.0
 11
8262.877687856521
 21
20477.6422591226
 31
0.0
  0
LINE
  5
785
330
1E
100
AcDbEntity
  8
1
  6
Continuous
 62
     7
370
    13
100
AcDbLine
 10
8215.26811985613
 20
20485.94155512217
 30
0.0
 11
8238.48403025584
 21
20481.92470392229
 31
0.0
  0
LINE
  5
786
330
1E
100
AcDbEntity
  8
1
  6
Continuous
 62
     7
370
    13
100
AcDbLine
 10
8193.884638255255
 20
20489.41235832244
 30
0.0
 11
8215.26811985613
 21
20485.94155512217
 31
0.0
  0
LINE
  5
787
330
1E
100
AcDbEntity
  8
1
  6
Continuous
 62
     7
370
    13
100
AcDbLine
 10
8174.848068656366
 20
20492.14686072281
 30
0.0
 11
8193.884638255255
 21
20489.41235832244
 31
0.0
  0
LINE
  5
788
330
1E
100
AcDbEntity
  8
1
  6
Continuous
 62
     7
370
    13
100
AcDbLine
 10
8158.519332655121
 20
20494.07565432283
 30
0.0
 11
8174.848068656366
 21
20492.14686072281
 31
0.0
  0
LINE
  5
789
330
1E
100
AcDbEntity
  8
1
  6
Continuous
 62
     7
370
    13
100
AcDbLine
 10
8145.111895855862
 20
20495.25357432261
 30
0.0
 11
8158.519332655121
 21
20494.07565432283
 31
0.0
  0
LINE
  5
78A
330
1E
100
AcDbEntity
  8
1
  6
Continuous
 62
     7
370
    13
100
AcDbLine
 10
8134.716132656086
 20
20495.83562232227
 30
0.0
 11
8145.111895855862
 21
20495.25357432261
 31
0.0
  0
LINE
  5
78B
330
1E
100
AcDbEntity
  8
1
  6
Continuous
 62
     7
370
    13
100
AcDbLine
 10
8127.337227055042
 20
20496.0312895227
 30
0.0
 11
8134.716132656086
 21
20495.83562232227
 31
0.0
  0
LINE
  5
78C
330
1E
100
AcDbEntity
  8
1
  6
Continuous
 62
     7
370
    13
100
AcDbLine
 10
8122.937739055949
 20
20496.04759032278
 30
0.0
 11
8127.337227055042
 21
20496.0312895227
 31
0.0
  0
LINE
  5
78D
330
1E
100
AcDbEntity
  8
1
  6
Continuous
 62
     7
370
    13
100
AcDbLine
 10
8121.476887855093
 20
20496.0347455222
 30
0.0
 11
8122.937739055949
 21
20496.04759032278
 31
0.0
  0
LINE
  5
78E
330
1E
100
AcDbEntity
  8
1
  6
Continuous
 62
     7
370
    13
100
AcDbLine
 10
8120.025655855391
 20
20496.01256952265
 30
0.0
 11
8121.476887855093
 21
20496.0347455222
 31
0.0
  0
LINE
  5
78F
330
1E
100
AcDbEntity
  8
1
  6
Continuous
 62
     7
370
    13
100
AcDbLine
 10
8115.768267055388
 20
20495.89155192234
 30
0.0
 11
8120.025655855391
 21
20496.01256952265
 31
0.0
  0
LINE
  5
790
330
1E
100
AcDbEntity
  8
1
  6
Continuous
 62
     7
370
    13
100
AcDbLine
 10
8108.980855855504
 20
20495.51985912266
 30
0.0
 11
8115.768267055388
 21
20495.89155192234
 31
0.0
  0
LINE
  5
791
330
1E
100
AcDbEntity
  8
1
  6
Continuous
 62
     7
370
    13
100
AcDbLine
 10
8100.084305455323
 20
20494.67866872287
 30
0.0
 11
8108.980855855504
 21
20495.51985912266
 31
0.0
  0
LINE
  5
792
330
1E
100
AcDbEntity
  8
1
  6
Continuous
 62
     7
370
    13
100
AcDbLine
 10
8089.593099056331
 20
20493.12727032237
 30
0.0
 11
8100.084305455323
 21
20494.67866872287
 31
0.0
  0
LINE
  5
793
330
1E
100
AcDbEntity
  8
1
  6
Continuous
 62
     7
370
    13
100
AcDbLine
 10
8078.056740655153
 20
20490.65231352269
 30
0.0
 11
8089.593099056331
 21
20493.12727032237
 31
0.0
  0
LINE
  5
794
330
1E
100
AcDbEntity
  8
1
  6
Continuous
 62
     7
370
    13
100
AcDbLine
 10
8066.004343855714
 20
20487.11331192281
 30
0.0
 11
8078.056740655153
 21
20490.65231352269
 31
0.0
  0
LINE
  5
795
330
1E
100
AcDbEntity
  8
1
  6
Continuous
 62
     7
370
    13
100
AcDbLine
 10
8053.900913454937
 20
20482.47449592276
 30
0.0
 11
8066.004343855714
 21
20487.11331192281
 31
0.0
  0
LINE
  5
796
330
1E
100
AcDbEntity
  8
1
  6
Continuous
 62
     7
370
    13
100
AcDbLine
 10
8042.121022255127
 20
20476.81927032227
 30
0.0
 11
8053.900913454937
 21
20482.47449592276
 31
0.0
  0
LINE
  5
797
330
1E
100
AcDbEntity
  8
1
  6
Continuous
 62
     7
370
    13
100
AcDbLine
 10
8030.942244655973
 20
20470.34433912215
 30
0.0
 11
8042.121022255127
 21
20476.81927032227
 31
0.0
  0
LINE
  5
798
330
1E
100
AcDbEntity
  8
1
  6
Continuous
 62
     7
370
    13
100
AcDbLine
 10
8020.555582255092
 20
20463.33706872284
 30
0.0
 11
8030.942244655973
 21
20470.34433912215
 31
0.0
  0
LINE
  5
799
330
1E
100
AcDbEntity
  8
1
  6
Continuous
 62
     7
370
    13
100
AcDbLine
 10
8011.087467056288
 20
20456.14058232278
 30
0.0
 11
8020.555582255092
 21
20463.33706872284
 31
0.0
  0
LINE
  5
79A
330
1E
100
AcDbEntity
  8
1
  6
Continuous
 62
     7
370
    13
100
AcDbLine
 10
8002.627121455004
 20
20449.1155135229
 30
0.0
 11
8011.087467056288
 21
20456.14058232278
 31
0.0
  0
LINE
  5
79B
330
1E
100
AcDbEntity
  8
1
  6
Continuous
 62
     7
370
    13
100
AcDbLine
 10
7995.250174255456
 20
20442.60389112251
 30
0.0
 11
8002.627121455004
 21
20449.1155135229
 31
0.0
  0
LINE
  5
79C
330
1E
100
AcDbEntity
  8
1
  6
Continuous
 62
     7
370
    13
100
AcDbLine
 10
7989.03501905611
 20
20436.90252792275
 30
0.0
 11
7995.250174255456
 21
20442.60389112251
 31
0.0
  0
LINE
  5
79D
330
1E
100
AcDbEntity
  8
1
  6
Continuous
 62
     7
370
    13
100
AcDbLine
 10
7984.067767855504
 20
20432.24798712282
 30
0.0
 11
7989.03501905611
 21
20436.90252792275
 31
0.0
  0
LINE
  5
79E
330
1E
100
AcDbEntity
  8
1
  6
Continuous
 62
     7
370
    13
100
AcDbLine
 10
7980.437124655171
 20
20428.81266552282
 30
0.0
 11
7984.067767855504
 21
20432.24798712282
 31
0.0
  0
LINE
  5
79F
330
1E
100
AcDbEntity
  8
1
  6
Continuous
 62
     7
370
    13
100
AcDbLine
 10
7978.221828656238
 20
20426.70974712295
 30
0.0
 11
7980.437124655171
 21
20428.81266552282
 31
0.0
  0
LINE
  5
7A0
330
1E
100
AcDbEntity
  8
1
  6
Continuous
 62
     7
370
    13
100
AcDbLine
 10
7977.476887855093
 20
20426.0021887223
 30
0.0
 11
7978.221828656238
 21
20426.70974712295
 31
0.0
  0
LINE
  5
7A1
330
1E
100
AcDbEntity
  8
1
  6
Continuous
 62
     7
370
    13
100
AcDbLine
 10
8121.476887855093
 20
19804.8347455222
 30
0.0
 11
8121.476887855093
 21
20496.0347455222
 31
0.0
  0
LINE
  5
7A2
330
1E
100
AcDbEntity
  8
1
  6
Continuous
 62
     7
370
    13
100
AcDbLine
 10
8697.476887855094
 20
20496.0347455222
 30
0.0
 11
8697.476887855094
 21
19804.8347455222
 31
0.0
  0
LINE
  5
7A3
330
1E
100
AcDbEntity
  8
1
  6
Continuous
 62
     7
370
    13
100
AcDbLine
 10
13132.6768878551
 20
18768.0347455222
 30
0.0
 11
13276.6768878551
 21
19804.8347455222
 31
0.0
  0
LINE
  5
7A4
330
1E
100
AcDbEntity
  8
1
  6
Continuous
 62
     7
370
    13
100
AcDbLine
 10
13852.6768878551
 20
19804.8347455222
 30
0.0
 11
13996.6768878551
 21
18768.0347455222
 31
0.0
  0
ARC
  5
7A5
330
1E
100
AcDbEntity
  8
1
  6
Continuous
 62
     7
370
    13
100
AcDbCircle
 10
13708.6768878551
 20
18480.0347455222
 30
0.0
 40
288.0
100
AcDbArc
 50
0.0
 51
90.0
  0
LINE
  5
7A6
330
1E
100
AcDbEntity
  8
1
  6
Continuous
 62
     7
370
    13
100
AcDbLine
 10
13708.6768878551
 20
18768.0347455222
 30
0.0
 11
13420.6768878551
 21
18768.0347455222
 31
0.0
  0
ARC
  5
7A7
330
1E
100
AcDbEntity
  8
1
  6
Continuous
 62
     7
370
    13
100
AcDbCircle
 10
13420.6768878551
 20
18480.0347455222
 30
0.0
 40
288.0
100
AcDbArc
 50
90.0
 51
180.0
  0
LINE
  5
7A8
330
1E
100
AcDbEntity
  8
1
  6
Continuous
 62
     7
370
    13
100
AcDbLine
 10
13996.6768878551
 20
18768.0347455222
 30
0.0
 11
13996.6768878551
 21
18537.6347455222
 31
0.0
  0
LINE
  5
7A9
330
1E
100
AcDbEntity
  8
1
  6
Continuous
 62
     7
370
    13
100
AcDbLine
 10
13132.6768878551
 20
18768.0347455222
 30
0.0
 11
13132.6768878551
 21
18537.6347455222
 31
0.0
  0
LINE
  5
7AA
330
1E
100
AcDbEntity
  8
1
  6
Continuous
 62
     7
370
    13
100
AcDbLine
 10
13132.6768878551
 20
18768.0347455222
 30
0.0
 11
13996.6768878551
 21
18768.0347455222
 31
0.0
  0
LINE
  5
7AB
330
1E
100
AcDbEntity
  8
1
  6
Continuous
 62
     7
370
    13
100
AcDbLine
 10
13148.67690065613
 20
18883.2347455222
 30
0.0
 11
13980.67687505573
 21
18883.2347455222
 31
0.0
  0
LINE
  5
7AC
330
1E
100
AcDbEntity
  8
1
  6
Continuous
 62
     7
370
    13
100
AcDbLine
 10
13972.67686865606
 20
18940.8347455222
 30
0.0
 11
13156.6769070558
 21
18940.8347455222
 31
0.0
  0
LINE
  5
7AD
330
1E
100
AcDbEntity
  8
1
  6
Continuous
 62
     7
370
    13
100
AcDbLine
 10
13172.67686225639
 20
19056.0347455222
 30
0.0
 11
13956.67685585503
 21
19056.0347455222
 31
0.0
  0
LINE
  5
7AE
330
1E
100
AcDbEntity
  8
1
  6
Continuous
 62
     7
370
    13
100
AcDbLine
 10
13948.6769070558
 20
19113.6347455222
 30
0.0
 11
13180.67686865606
 21
19113.6347455222
 31
0.0
  0
LINE
  5
7AF
330
1E
100
AcDbEntity
  8
1
  6
Continuous
 62
     7
370
    13
100
AcDbLine
 10
13196.6768814554
 20
19228.8347455222
 30
0.0
 11
13932.67689425643
 21
19228.8347455222
 31
0.0
  0
LINE
  5
7B0
330
1E
100
AcDbEntity
  8
1
  6
Continuous
 62
     7
370
    13
100
AcDbLine
 10
13924.6768878551
 20
19286.4347455222
 30
0.0
 11
13204.6768878551
 21
19286.4347455222
 31
0.0
  0
LINE
  5
7B1
330
1E
100
AcDbEntity
  8
1
  6
Continuous
 62
     7
370
    13
100
AcDbLine
 10
13955.77195985632
 20
20594.49992952262
 30
0.0
 11
13955.90697425507
 21
20594.69035512254
 31
0.0
  0
LINE
  5
7B2
330
1E
100
AcDbEntity
  8
1
  6
Continuous
 62
     7
370
    13
100
AcDbLine
 10
13955.36962385548
 20
20593.93372152288
 30
0.0
 11
13955.77195985632
 21
20594.49992952262
 31
0.0
  0
LINE
  5
7B3
330
1E
100
AcDbEntity
  8
1
  6
Continuous
 62
     7
370
    13
100
AcDbLine
 10
13954.70209745538
 20
20593.0059583227
 30
0.0
 11
13955.36962385548
 21
20593.93372152288
 31
0.0
  0
LINE
  5
7B4
330
1E
100
AcDbEntity
  8
1
  6
Continuous
 62
     7
370
    13
100
AcDbLine
 10
13953.75595985611
 20
20591.73766392291
 30
0.0
 11
13954.70209745538
 21
20593.0059583227
 31
0.0
  0
LINE
  5
7B5
330
1E
100
AcDbEntity
  8
1
  6
Continuous
 62
     7
370
    13
100
AcDbLine
 10
13952.4832878565
 20
20590.15354872224
 30
0.0
 11
13953.75595985611
 21
20591.73766392291
 31
0.0
  0
LINE
  5
7B6
330
1E
100
AcDbEntity
  8
1
  6
Continuous
 62
     7
370
    13
100
AcDbLine
 10
13950.78777425584
 20
20588.27895672255
 30
0.0
 11
13952.4832878565
 21
20590.15354872224
 31
0.0
  0
LINE
  5
7B7
330
1E
100
AcDbEntity
  8
1
  6
Continuous
 62
     7
370
    13
100
AcDbLine
 10
13948.52248145505
 20
20586.13894392269
 30
0.0
 11
13950.78777425584
 21
20588.27895672255
 31
0.0
  0
LINE
  5
7B8
330
1E
100
AcDbEntity
  8
1
  6
Continuous
 62
     7
370
    13
100
AcDbLine
 10
13945.50556625591
 20
20583.75885432286
 30
0.0
 11
13948.52248145505
 21
20586.13894392269
 31
0.0
  0
LINE
  5
7B9
330
1E
100
AcDbEntity
  8
1
  6
Continuous
 62
     7
370
    13
100
AcDbLine
 10
13941.55334225611
 20
20581.16771832284
 30
0.0
 11
13945.50556625591
 21
20583.75885432286
 31
0.0
  0
LINE
  5
7BA
330
1E
100
AcDbEntity
  8
1
  6
Continuous
 62
     7
370
    13
100
AcDbLine
 10
13936.52716625609
 20
20578.40274552264
 30
0.0
 11
13941.55334225611
 21
20581.16771832284
 31
0.0
  0
LINE
  5
7BB
330
1E
100
AcDbEntity
  8
1
  6
Continuous
 62
     7
370
    13
100
AcDbLine
 10
13930.3850478563
 20
20575.51519992285
 30
0.0
 11
13936.52716625609
 21
20578.40274552264
 31
0.0
  0
LINE
  5
7BC
330
1E
100
AcDbEntity
  8
1
  6
Continuous
 62
     7
370
    13
100
AcDbLine
 10
13923.22559825496
 20
20572.57443192265
 30
0.0
 11
13930.3850478563
 21
20575.51519992285
 31
0.0
  0
LINE
  5
7BD
330
1E
100
AcDbEntity
  8
1
  6
Continuous
 62
     7
370
    13
100
AcDbLine
 10
13915.31412305548
 20
20569.67023992267
 30
0.0
 11
13923.22559825496
 21
20572.57443192265
 31
0.0
  0
LINE
  5
7BE
330
1E
100
AcDbEntity
  8
1
  6
Continuous
 62
     7
370
    13
100
AcDbLine
 10
13907.08049105552
 20
20566.91073912222
 30
0.0
 11
13915.31412305548
 21
20569.67023992267
 31
0.0
  0
LINE
  5
7BF
330
1E
100
AcDbEntity
  8
1
  6
Continuous
 62
     7
370
    13
100
AcDbLine
 10
13899.08647505618
 20
20564.41688952286
 30
0.0
 11
13907.08049105552
 21
20566.91073912222
 31
0.0
  0
LINE
  5
7C0
330
1E
100
AcDbEntity
  8
1
  6
Continuous
 62
     7
370
    13
100
AcDbLine
 10
13891.96388945559
 20
20562.31264632296
 30
0.0
 11
13899.08647505618
 21
20564.41688952286
 31
0.0
  0
LINE
  5
7C1
330
1E
100
AcDbEntity
  8
1
  6
Continuous
 62
     7
370
    13
100
AcDbLine
 10
13886.33435345624
 20
20560.71332472217
 30
0.0
 11
13891.96388945559
 21
20562.31264632296
 31
0.0
  0
LINE
  5
7C2
330
1E
100
AcDbEntity
  8
1
  6
Continuous
 62
     7
370
    13
100
AcDbLine
 10
13882.72196945582
 20
20559.71263992244
 30
0.0
 11
13886.33435345624
 21
20560.71332472217
 31
0.0
  0
LINE
  5
7C3
330
1E
100
AcDbEntity
  8
1
  6
Continuous
 62
     7
370
    13
100
AcDbLine
 10
13881.47688785509
 20
20559.37199352279
 30
0.0
 11
13882.72196945582
 21
20559.71263992244
 31
0.0
  0
LINE
  5
7C4
330
1E
100
AcDbEntity
  8
1
  6
Continuous
 62
     7
370
    13
100
AcDbLine
 10
13880.21654225547
 20
20559.02927352244
 30
0.0
 11
13881.47688785509
 21
20559.37199352279
 31
0.0
  0
LINE
  5
7C5
330
1E
100
AcDbEntity
  8
1
  6
Continuous
 62
     7
370
    13
100
AcDbLine
 10
13876.38107345622
 20
20557.99892472232
 30
0.0
 11
13880.21654225547
 21
20559.02927352244
 31
0.0
  0
LINE
  5
7C6
330
1E
100
AcDbEntity
  8
1
  6
Continuous
 62
     7
370
    13
100
AcDbLine
 10
13869.82435025606
 20
20556.2796223224
 30
0.0
 11
13876.38107345622
 21
20557.99892472232
 31
0.0
  0
LINE
  5
7C7
330
1E
100
AcDbEntity
  8
1
  6
Continuous
 62
     7
370
    13
100
AcDbLine
 10
13860.35744465642
 20
20553.88461432297
 30
0.0
 11
13869.82435025606
 21
20556.2796223224
 31
0.0
  0
LINE
  5
7C8
330
1E
100
AcDbEntity
  8
1
  6
Continuous
 62
     7
370
    13
100
AcDbLine
 10
13847.81809745559
 20
20550.85980792239
 30
0.0
 11
13860.35744465642
 21
20553.88461432297
 31
0.0
  0
LINE
  5
7C9
330
1E
100
AcDbEntity
  8
1
  6
Continuous
 62
     7
370
    13
100
AcDbLine
 10
13832.14640465506
 20
20547.3000703222
 30
0.0
 11
13847.81809745559
 21
20550.85980792239
 31
0.0
  0
LINE
  5
7CA
330
1E
100
AcDbEntity
  8
1
  6
Continuous
 62
     7
370
    13
100
AcDbLine
 10
13813.45025105491
 20
20543.35758072276
 30
0.0
 11
13832.14640465506
 21
20547.3000703222
 31
0.0
  0
LINE
  5
7CB
330
1E
100
AcDbEntity
  8
1
  6
Continuous
 62
     7
370
    13
100
AcDbLine
 10
13792.04776145514
 20
20539.23785592242
 30
0.0
 11
13813.45025105491
 21
20543.35758072276
 31
0.0
  0
LINE
  5
7CC
330
1E
100
AcDbEntity
  8
1
  6
Continuous
 62
     7
370
    13
100
AcDbLine
 10
13768.47691985516
 20
20535.18264312296
 30
0.0
 11
13792.04776145514
 21
20539.23785592242
 31
0.0
  0
LINE
  5
7CD
330
1E
100
AcDbEntity
  8
1
  6
Continuous
 62
     7
370
    13
100
AcDbLine
 10
13743.47195345494
 20
20531.44019832293
 30
0.0
 11
13768.47691985516
 21
20535.18264312296
 31
0.0
  0
LINE
  5
7CE
330
1E
100
AcDbEntity
  8
1
  6
Continuous
 62
     7
370
    13
100
AcDbLine
 10
13717.9103982562
 20
20528.23038072258
 30
0.0
 11
13743.47195345494
 21
20531.44019832293
 31
0.0
  0
LINE
  5
7CF
330
1E
100
AcDbEntity
  8
1
  6
Continuous
 62
     7
370
    13
100
AcDbLine
 10
13692.74213585647
 20
20525.7099199226
 30
0.0
 11
13717.9103982562
 21
20528.23038072258
 31
0.0
  0
LINE
  5
7D0
330
1E
100
AcDbEntity
  8
1
  6
Continuous
 62
     7
370
    13
100
AcDbLine
 10
13668.91336145548
 20
20523.94718712222
 30
0.0
 11
13692.74213585647
 21
20525.7099199226
 31
0.0
  0
LINE
  5
7D1
330
1E
100
AcDbEntity
  8
1
  6
Continuous
 62
     7
370
    13
100
AcDbLine
 10
13647.29821265578
 20
20522.91148152238
 30
0.0
 11
13668.91336145548
 21
20523.94718712222
 31
0.0
  0
LINE
  5
7D2
330
1E
100
AcDbEntity
  8
1
  6
Continuous
 62
     7
370
    13
100
AcDbLine
 10
13628.64883025639
 20
20522.48155512268
 30
0.0
 11
13647.29821265578
 21
20522.91148152238
 31
0.0
  0
LINE
  5
7D3
330
1E
100
AcDbEntity
  8
1
  6
Continuous
 62
     7
370
    13
100
AcDbLine
 10
13613.56730705534
 20
20522.47095672244
 30
0.0
 11
13628.64883025639
 21
20522.48155512268
 31
0.0
  0
LINE
  5
7D4
330
1E
100
AcDbEntity
  8
1
  6
Continuous
 62
     7
370
    13
100
AcDbLine
 10
13602.49981265532
 20
20522.66731512228
 30
0.0
 11
13613.56730705534
 21
20522.47095672244
 31
0.0
  0
LINE
  5
7D5
330
1E
100
AcDbEntity
  8
1
  6
Continuous
 62
     7
370
    13
100
AcDbLine
 10
13595.74632785559
 20
20522.87623032218
 30
0.0
 11
13602.49981265532
 21
20522.66731512228
 31
0.0
  0
LINE
  5
7D6
330
1E
100
AcDbEntity
  8
1
  6
Continuous
 62
     7
370
    13
100
AcDbLine
 10
13593.47688785509
 20
20522.96205432273
 30
0.0
 11
13595.74632785559
 21
20522.87623032218
 31
0.0
  0
LINE
  5
7D7
330
1E
100
AcDbEntity
  8
1
  6
Continuous
 62
     7
370
    13
100
AcDbLine
 10
13591.20883025505
 20
20523.05582712263
 30
0.0
 11
13593.47688785509
 21
20522.96205432273
 31
0.0
  0
LINE
  5
7D8
330
1E
100
AcDbEntity
  8
1
  6
Continuous
 62
     7
370
    13
100
AcDbLine
 10
13584.47521745579
 20
20523.38028792225
 30
0.0
 11
13591.20883025505
 21
20523.05582712263
 31
0.0
  0
LINE
  5
7D9
330
1E
100
AcDbEntity
  8
1
  6
Continuous
 62
     7
370
    13
100
AcDbLine
 10
13573.48824785535
 20
20524.05236472262
 30
0.0
 11
13584.47521745579
 21
20523.38028792225
 31
0.0
  0
LINE
  5
7DA
330
1E
100
AcDbEntity
  8
1
  6
Continuous
 62
     7
370
    13
100
AcDbLine
 10
13558.60141265651
 20
20525.22746232271
 30
0.0
 11
13573.48824785535
 21
20524.05236472262
 31
0.0
  0
LINE
  5
7DB
330
1E
100
AcDbEntity
  8
1
  6
Continuous
 62
     7
370
    13
100
AcDbLine
 10
13540.306558256
 20
20527.05067512261
 30
0.0
 11
13558.60141265651
 21
20525.22746232271
 31
0.0
  0
LINE
  5
7DC
330
1E
100
AcDbEntity
  8
1
  6
Continuous
 62
     7
370
    13
100
AcDbLine
 10
13519.22380625508
 20
20529.60719352224
 30
0.0
 11
13540.306558256
 21
20527.05067512261
 31
0.0
  0
LINE
  5
7DD
330
1E
100
AcDbEntity
  8
1
  6
Continuous
 62
     7
370
    13
100
AcDbLine
 10
13496.08168145565
 20
20532.88382712256
 30
0.0
 11
13519.22380625508
 21
20529.60719352224
 31
0.0
  0
LINE
  5
7DE
330
1E
100
AcDbEntity
  8
1
  6
Continuous
 62
     7
370
    13
100
AcDbLine
 10
13471.68595025592
 20
20536.75235832295
 30
0.0
 11
13496.08168145565
 21
20532.88382712256
 31
0.0
  0
LINE
  5
7DF
330
1E
100
AcDbEntity
  8
1
  6
Continuous
 62
     7
370
    13
100
AcDbLine
 10
13446.87768785652
 20
20540.97950712236
 30
0.0
 11
13471.68595025592
 21
20536.75235832295
 31
0.0
  0
LINE
  5
7E0
330
1E
100
AcDbEntity
  8
1
  6
Continuous
 62
     7
370
    13
100
AcDbLine
 10
13422.48403025584
 20
20545.26195192289
 30
0.0
 11
13446.87768785652
 21
20540.97950712236
 31
0.0
  0
LINE
  5
7E1
330
1E
100
AcDbEntity
  8
1
  6
Continuous
 62
     7
370
    13
100
AcDbLine
 10
13399.26811985612
 20
20549.27880312277
 30
0.0
 11
13422.48403025584
 21
20545.26195192289
 31
0.0
  0
LINE
  5
7E2
330
1E
100
AcDbEntity
  8
1
  6
Continuous
 62
     7
370
    13
100
AcDbLine
 10
13377.88463825525
 20
20552.7496063222
 30
0.0
 11
13399.26811985612
 21
20549.27880312277
 31
0.0
  0
LINE
  5
7E3
330
1E
100
AcDbEntity
  8
1
  6
Continuous
 62
     7
370
    13
100
AcDbLine
 10
13358.84806865636
 20
20555.48410872257
 30
0.0
 11
13377.88463825525
 21
20552.7496063222
 31
0.0
  0
LINE
  5
7E4
330
1E
100
AcDbEntity
  8
1
  6
Continuous
 62
     7
370
    13
100
AcDbLine
 10
13342.51933265512
 20
20557.41290232258
 30
0.0
 11
13358.84806865636
 21
20555.48410872257
 31
0.0
  0
LINE
  5
7E5
330
1E
100
AcDbEntity
  8
1
  6
Continuous
 62
     7
370
    13
100
AcDbLine
 10
13329.11189585586
 20
20558.59082232237
 30
0.0
 11
13342.51933265512
 21
20557.41290232258
 31
0.0
  0
LINE
  5
7E6
330
1E
100
AcDbEntity
  8
1
  6
Continuous
 62
     7
370
    13
100
AcDbLine
 10
13318.71613265608
 20
20559.17287032286
 30
0.0
 11
13329.11189585586
 21
20558.59082232237
 31
0.0
  0
LINE
  5
7E7
330
1E
100
AcDbEntity
  8
1
  6
Continuous
 62
     7
370
    13
100
AcDbLine
 10
13311.33722705504
 20
20559.36853752247
 30
0.0
 11
13318.71613265608
 21
20559.17287032286
 31
0.0
  0
LINE
  5
7E8
330
1E
100
AcDbEntity
  8
1
  6
Continuous
 62
     7
370
    13
100
AcDbLine
 10
13306.93773905595
 20
20559.38483832254
 30
0.0
 11
13311.33722705504
 21
20559.36853752247
 31
0.0
  0
LINE
  5
7E9
330
1E
100
AcDbEntity
  8
1
  6
Continuous
 62
     7
370
    13
100
AcDbLine
 10
13305.47688785509
 20
20559.37199352279
 30
0.0
 11
13306.93773905595
 21
20559.38483832254
 31
0.0
  0
LINE
  5
7EA
330
1E
100
AcDbEntity
  8
1
  6
Continuous
 62
     7
370
    13
100
AcDbLine
 10
13304.02565585539
 20
20559.34975992281
 30
0.0
 11
13305.47688785509
 21
20559.37199352279
 31
0.0
  0
LINE
  5
7EB
330
1E
100
AcDbEntity
  8
1
  6
Continuous
 62
     7
370
    13
100
AcDbLine
 10
13299.76826705538
 20
20559.22879992294
 30
0.0
 11
13304.02565585539
 21
20559.34975992281
 31
0.0
  0
LINE
  5
7EC
330
1E
100
AcDbEntity
  8
1
  6
Continuous
 62
     7
370
    13
100
AcDbLine
 10
13292.9808558555
 20
20558.85710712241
 30
0.0
 11
13299.76826705538
 21
20559.22879992294
 31
0.0
  0
LINE
  5
7ED
330
1E
100
AcDbEntity
  8
1
  6
Continuous
 62
     7
370
    13
100
AcDbLine
 10
13284.08430545532
 20
20558.01591672262
 30
0.0
 11
13292.9808558555
 21
20558.85710712241
 31
0.0
  0
LINE
  5
7EE
330
1E
100
AcDbEntity
  8
1
  6
Continuous
 62
     7
370
    13
100
AcDbLine
 10
13273.59309905633
 20
20556.46451832297
 30
0.0
 11
13284.08430545532
 21
20558.01591672262
 31
0.0
  0
LINE
  5
7EF
330
1E
100
AcDbEntity
  8
1
  6
Continuous
 62
     7
370
    13
100
AcDbLine
 10
13262.05674065515
 20
20553.98956152246
 30
0.0
 11
13273.59309905633
 21
20556.46451832297
 31
0.0
  0
LINE
  5
7F0
330
1E
100
AcDbEntity
  8
1
  6
Continuous
 62
     7
370
    13
100
AcDbLine
 10
13250.00434385571
 20
20550.45050232297
 30
0.0
 11
13262.05674065515
 21
20553.98956152246
 31
0.0
  0
LINE
  5
7F1
330
1E
100
AcDbEntity
  8
1
  6
Continuous
 62
     7
370
    13
100
AcDbLine
 10
13237.90091345493
 20
20545.81174392251
 30
0.0
 11
13250.00434385571
 21
20550.45050232297
 31
0.0
  0
LINE
  5
7F2
330
1E
100
AcDbEntity
  8
1
  6
Continuous
 62
     7
370
    13
100
AcDbLine
 10
13226.12102225512
 20
20540.15651832286
 30
0.0
 11
13237.90091345493
 21
20545.81174392251
 31
0.0
  0
LINE
  5
7F3
330
1E
100
AcDbEntity
  8
1
  6
Continuous
 62
     7
370
    13
100
AcDbLine
 10
13214.94224465597
 20
20533.68158712274
 30
0.0
 11
13226.12102225512
 21
20540.15651832286
 31
0.0
  0
LINE
  5
7F4
330
1E
100
AcDbEntity
  8
1
  6
Continuous
 62
     7
370
    13
100
AcDbLine
 10
13204.55558225509
 20
20526.6743167226
 30
0.0
 11
13214.94224465597
 21
20533.68158712274
 31
0.0
  0
LINE
  5
7F5
330
1E
100
AcDbEntity
  8
1
  6
Continuous
 62
     7
370
    13
100
AcDbLine
 10
13195.08746705628
 20
20519.47783032254
 30
0.0
 11
13204.55558225509
 21
20526.6743167226
 31
0.0
  0
LINE
  5
7F6
330
1E
100
AcDbEntity
  8
1
  6
Continuous
 62
     7
370
    13
100
AcDbLine
 10
13186.627121455
 20
20512.45276152266
 30
0.0
 11
13195.08746705628
 21
20519.47783032254
 31
0.0
  0
LINE
  5
7F7
330
1E
100
AcDbEntity
  8
1
  6
Continuous
 62
     7
370
    13
100
AcDbLine
 10
13179.25017425545
 20
20505.94108152266
 30
0.0
 11
13186.627121455
 21
20512.45276152266
 31
0.0
  0
LINE
  5
7F8
330
1E
100
AcDbEntity
  8
1
  6
Continuous
 62
     7
370
    13
100
AcDbLine
 10
13173.03501905611
 20
20500.23977592251
 30
0.0
 11
13179.25017425545
 21
20505.94108152266
 31
0.0
  0
LINE
  5
7F9
330
1E
100
AcDbEntity
  8
1
  6
Continuous
 62
     7
370
    13
100
AcDbLine
 10
13168.0677678555
 20
20495.58523512258
 30
0.0
 11
13173.03501905611
 21
20500.23977592251
 31
0.0
  0
LINE
  5
7FA
330
1E
100
AcDbEntity
  8
1
  6
Continuous
 62
     7
370
    13
100
AcDbLine
 10
13164.43712465517
 20
20492.14985592215
 30
0.0
 11
13168.0677678555
 21
20495.58523512258
 31
0.0
  0
LINE
  5
7FB
330
1E
100
AcDbEntity
  8
1
  6
Continuous
 62
     7
370
    13
100
AcDbLine
 10
13162.22182865623
 20
20490.04699512271
 30
0.0
 11
13164.43712465517
 21
20492.14985592215
 31
0.0
  0
LINE
  5
7FC
330
1E
100
AcDbEntity
  8
1
  6
Continuous
 62
     7
370
    13
100
AcDbLine
 10
13161.47688785509
 20
20489.3394367229
 30
0.0
 11
13162.22182865623
 21
20490.04699512271
 31
0.0
  0
LINE
  5
7FD
330
1E
100
AcDbEntity
  8
1
  6
Continuous
 62
     7
370
    13
100
AcDbLine
 10
13955.77195985632
 20
20594.49992952262
 30
0.0
 11
13955.90697425507
 21
20594.69035512254
 31
0.0
  0
LINE
  5
7FE
330
1E
100
AcDbEntity
  8
1
  6
Continuous
 62
     7
370
    13
100
AcDbLine
 10
13955.36962385548
 20
20593.93372152288
 30
0.0
 11
13955.77195985632
 21
20594.49992952262
 31
0.0
  0
LINE
  5
7FF
330
1E
100
AcDbEntity
  8
1
  6
Continuous
 62
     7
370
    13
100
AcDbLine
 10
13954.70209745538
 20
20593.0059583227
 30
0.0
 11
13955.36962385548
 21
20593.93372152288
 31
0.0
  0
LINE
  5
800
330
1E
100
AcDbEntity
  8
1
  6
Continuous
 62
     7
370
    13
100
AcDbLine
 10
13953.75595985611
 20
20591.73766392291
 30
0.0
 11
13954.70209745538
 21
20593.0059583227
 31
0.0
  0
LINE
  5
801
330
1E
100
AcDbEntity
  8
1
  6
Continuous
 62
     7
370
    13
100
AcDbLine
 10
13952.4832878565
 20
20590.15354872224
 30
0.0
 11
13953.75595985611
 21
20591.73766392291
 31
0.0
  0
LINE
  5
802
330
1E
100
AcDbEntity
  8
1
  6
Continuous
 62
     7
370
    13
100
AcDbLine
 10
13950.78777425584
 20
20588.27895672255
 30
0.0
 11
13952.4832878565
 21
20590.15354872224
 31
0.0
  0
LINE
  5
803
330
1E
100
AcDbEntity
  8
1
  6
Continuous
 62
     7
370
    13
100
AcDbLine
 10
13948.52248145505
 20
20586.13894392269
 30
0.0
 11
13950.78777425584
 21
20588.27895672255
 31
0.0
  0
LINE
  5
804
330
1E
100
AcDbEntity
  8
1
  6
Continuous
 62
     7
370
    13
100
AcDbLine
 10
13945.50556625591
 20
20583.75885432286
 30
0.0
 11
13948.52248145505
 21
20586.13894392269
 31
0.0
  0
LINE
  5
805
330
1E
100
AcDbEntity
  8
1
  6
Continuous
 62
     7
370
    13
100
AcDbLine
 10
13941.55334225611
 20
20581.16771832284
 30
0.0
 11
13945.50556625591
 21
20583.75885432286
 31
0.0
  0
LINE
  5
806
330
1E
100
AcDbEntity
  8
1
  6
Continuous
 62
     7
370
    13
100
AcDbLine
 10
13936.52716625609
 20
20578.40274552264
 30
0.0
 11
13941.55334225611
 21
20581.16771832284
 31
0.0
  0
LINE
  5
807
330
1E
100
AcDbEntity
  8
1
  6
Continuous
 62
     7
370
    13
100
AcDbLine
 10
13930.3850478563
 20
20575.51519992285
 30
0.0
 11
13936.52716625609
 21
20578.40274552264
 31
0.0
  0
LINE
  5
808
330
1E
100
AcDbEntity
  8
1
  6
Continuous
 62
     7
370
    13
100
AcDbLine
 10
13923.22559825496
 20
20572.57443192265
 30
0.0
 11
13930.3850478563
 21
20575.51519992285
 31
0.0
  0
LINE
  5
809
330
1E
100
AcDbEntity
  8
1
  6
Continuous
 62
     7
370
    13
100
AcDbLine
 10
13915.31412305548
 20
20569.67023992267
 30
0.0
 11
13923.22559825496
 21
20572.57443192265
 31
0.0
  0
LINE
  5
80A
330
1E
100
AcDbEntity
  8
1
  6
Continuous
 62
     7
370
    13
100
AcDbLine
 10
13907.08049105552
 20
20566.91073912222
 30
0.0
 11
13915.31412305548
 21
20569.67023992267
 31
0.0
  0
LINE
  5
80B
330
1E
100
AcDbEntity
  8
1
  6
Continuous
 62
     7
370
    13
100
AcDbLine
 10
13899.08647505618
 20
20564.41688952286
 30
0.0
 11
13907.08049105552
 21
20566.91073912222
 31
0.0
  0
LINE
  5
80C
330
1E
100
AcDbEntity
  8
1
  6
Continuous
 62
     7
370
    13
100
AcDbLine
 10
13891.96388945559
 20
20562.31264632296
 30
0.0
 11
13899.08647505618
 21
20564.41688952286
 31
0.0
  0
LINE
  5
80D
330
1E
100
AcDbEntity
  8
1
  6
Continuous
 62
     7
370
    13
100
AcDbLine
 10
13886.33435345624
 20
20560.71332472217
 30
0.0
 11
13891.96388945559
 21
20562.31264632296
 31
0.0
  0
LINE
  5
80E
330
1E
100
AcDbEntity
  8
1
  6
Continuous
 62
     7
370
    13
100
AcDbLine
 10
13882.72196945582
 20
20559.71263992244
 30
0.0
 11
13886.33435345624
 21
20560.71332472217
 31
0.0
  0
LINE
  5
80F
330
1E
100
AcDbEntity
  8
1
  6
Continuous
 62
     7
370
    13
100
AcDbLine
 10
13881.47688785509
 20
20559.37199352279
 30
0.0
 11
13882.72196945582
 21
20559.71263992244
 31
0.0
  0
LINE
  5
810
330
1E
100
AcDbEntity
  8
1
  6
Continuous
 62
     7
370
    13
100
AcDbLine
 10
13880.21654225547
 20
20559.02927352244
 30
0.0
 11
13881.47688785509
 21
20559.37199352279
 31
0.0
  0
LINE
  5
811
330
1E
100
AcDbEntity
  8
1
  6
Continuous
 62
     7
370
    13
100
AcDbLine
 10
13876.38107345622
 20
20557.99892472232
 30
0.0
 11
13880.21654225547
 21
20559.02927352244
 31
0.0
  0
LINE
  5
812
330
1E
100
AcDbEntity
  8
1
  6
Continuous
 62
     7
370
    13
100
AcDbLine
 10
13869.82435025606
 20
20556.2796223224
 30
0.0
 11
13876.38107345622
 21
20557.99892472232
 31
0.0
  0
LINE
  5
813
330
1E
100
AcDbEntity
  8
1
  6
Continuous
 62
     7
370
    13
100
AcDbLine
 10
13860.35744465642
 20
20553.88461432297
 30
0.0
 11
13869.82435025606
 21
20556.2796223224
 31
0.0
  0
LINE
  5
814
330
1E
100
AcDbEntity
  8
1
  6
Continuous
 62
     7
370
    13
100
AcDbLine
 10
13847.81809745559
 20
20550.85980792239
 30
0.0
 11
13860.35744465642
 21
20553.88461432297
 31
0.0
  0
LINE
  5
815
330
1E
100
AcDbEntity
  8
1
  6
Continuous
 62
     7
370
    13
100
AcDbLine
 10
13832.14640465506
 20
20547.3000703222
 30
0.0
 11
13847.81809745559
 21
20550.85980792239
 31
0.0
  0
LINE
  5
816
330
1E
100
AcDbEntity
  8
1
  6
Continuous
 62
     7
370
    13
100
AcDbLine
 10
13813.45025105491
 20
20543.35758072276
 30
0.0
 11
13832.14640465506
 21
20547.3000703222
 31
0.0
  0
LINE
  5
817
330
1E
100
AcDbEntity
  8
1
  6
Continuous
 62
     7
370
    13
100
AcDbLine
 10
13792.04776145514
 20
20539.23785592242
 30
0.0
 11
13813.45025105491
 21
20543.35758072276
 31
0.0
  0
LINE
  5
818
330
1E
100
AcDbEntity
  8
1
  6
Continuous
 62
     7
370
    13
100
AcDbLine
 10
13768.47691985516
 20
20535.18264312296
 30
0.0
 11
13792.04776145514
 21
20539.23785592242
 31
0.0
  0
LINE
  5
819
330
1E
100
AcDbEntity
  8
1
  6
Continuous
 62
     7
370
    13
100
AcDbLine
 10
13743.47195345494
 20
20531.44019832293
 30
0.0
 11
13768.47691985516
 21
20535.18264312296
 31
0.0
  0
LINE
  5
81A
330
1E
100
AcDbEntity
  8
1
  6
Continuous
 62
     7
370
    13
100
AcDbLine
 10
13717.9103982562
 20
20528.23038072258
 30
0.0
 11
13743.47195345494
 21
20531.44019832293
 31
0.0
  0
LINE
  5
81B
330
1E
100
AcDbEntity
  8
1
  6
Continuous
 62
     7
370
    13
100
AcDbLine
 10
13692.74213585647
 20
20525.7099199226
 30
0.0
 11
13717.9103982562
 21
20528.23038072258
 31
0.0
  0
LINE
  5
81C
330
1E
100
AcDbEntity
  8
1
  6
Continuous
 62
     7
370
    13
100
AcDbLine
 10
13668.91336145548
 20
20523.94718712222
 30
0.0
 11
13692.74213585647
 21
20525.7099199226
 31
0.0
  0
LINE
  5
81D
330
1E
100
AcDbEntity
  8
1
  6
Continuous
 62
     7
370
    13
100
AcDbLine
 10
13647.29821265578
 20
20522.91148152238
 30
0.0
 11
13668.91336145548
 21
20523.94718712222
 31
0.0
  0
LINE
  5
81E
330
1E
100
AcDbEntity
  8
1
  6
Continuous
 62
     7
370
    13
100
AcDbLine
 10
13628.64883025639
 20
20522.48155512268
 30
0.0
 11
13647.29821265578
 21
20522.91148152238
 31
0.0
  0
LINE
  5
81F
330
1E
100
AcDbEntity
  8
1
  6
Continuous
 62
     7
370
    13
100
AcDbLine
 10
13613.56730705534
 20
20522.47095672244
 30
0.0
 11
13628.64883025639
 21
20522.48155512268
 31
0.0
  0
LINE
  5
820
330
1E
100
AcDbEntity
  8
1
  6
Continuous
 62
     7
370
    13
100
AcDbLine
 10
13602.49981265532
 20
20522.66731512228
 30
0.0
 11
13613.56730705534
 21
20522.47095672244
 31
0.0
  0
LINE
  5
821
330
1E
100
AcDbEntity
  8
1
  6
Continuous
 62
     7
370
    13
100
AcDbLine
 10
13595.74632785559
 20
20522.87623032218
 30
0.0
 11
13602.49981265532
 21
20522.66731512228
 31
0.0
  0
LINE
  5
822
330
1E
100
AcDbEntity
  8
1
  6
Continuous
 62
     7
370
    13
100
AcDbLine
 10
13593.47688785509
 20
20522.96205432273
 30
0.0
 11
13595.74632785559
 21
20522.87623032218
 31
0.0
  0
LINE
  5
823
330
1E
100
AcDbEntity
  8
1
  6
Continuous
 62
     7
370
    13
100
AcDbLine
 10
13591.20883025505
 20
20523.05582712263
 30
0.0
 11
13593.47688785509
 21
20522.96205432273
 31
0.0
  0
LINE
  5
824
330
1E
100
AcDbEntity
  8
1
  6
Continuous
 62
     7
370
    13
100
AcDbLine
 10
13584.47521745579
 20
20523.38028792225
 30
0.0
 11
13591.20883025505
 21
20523.05582712263
 31
0.0
  0
LINE
  5
825
330
1E
100
AcDbEntity
  8
1
  6
Continuous
 62
     7
370
    13
100
AcDbLine
 10
13573.48824785535
 20
20524.05236472262
 30
0.0
 11
13584.47521745579
 21
20523.38028792225
 31
0.0
  0
LINE
  5
826
330
1E
100
AcDbEntity
  8
1
  6
Continuous
 62
     7
370
    13
100
AcDbLine
 10
13558.60141265651
 20
20525.22746232271
 30
0.0
 11
13573.48824785535
 21
20524.05236472262
 31
0.0
  0
LINE
  5
827
330
1E
100
AcDbEntity
  8
1
  6
Continuous
 62
     7
370
    13
100
AcDbLine
 10
13540.306558256
 20
20527.05067512261
 30
0.0
 11
13558.60141265651
 21
20525.22746232271
 31
0.0
  0
LINE
  5
828
330
1E
100
AcDbEntity
  8
1
  6
Continuous
 62
     7
370
    13
100
AcDbLine
 10
13519.22380625508
 20
20529.60719352224
 30
0.0
 11
13540.306558256
 21
20527.05067512261
 31
0.0
  0
LINE
  5
829
330
1E
100
AcDbEntity
  8
1
  6
Continuous
 62
     7
370
    13
100
AcDbLine
 10
13496.08168145565
 20
20532.88382712256
 30
0.0
 11
13519.22380625508
 21
20529.60719352224
 31
0.0
  0
LINE
  5
82A
330
1E
100
AcDbEntity
  8
1
  6
Continuous
 62
     7
370
    13
100
AcDbLine
 10
13471.68595025592
 20
20536.75235832295
 30
0.0
 11
13496.08168145565
 21
20532.88382712256
 31
0.0
  0
LINE
  5
82B
330
1E
100
AcDbEntity
  8
1
  6
Continuous
 62
     7
370
    13
100
AcDbLine
 10
13446.87768785652
 20
20540.97950712236
 30
0.0
 11
13471.68595025592
 21
20536.75235832295
 31
0.0
  0
LINE
  5
82C
330
1E
100
AcDbEntity
  8
1
  6
Continuous
 62
     7
370
    13
100
AcDbLine
 10
13422.48403025584
 20
20545.26195192289
 30
0.0
 11
13446.87768785652
 21
20540.97950712236
 31
0.0
  0
LINE
  5
82D
330
1E
100
AcDbEntity
  8
1
  6
Continuous
 62
     7
370
    13
100
AcDbLine
 10
13399.26811985612
 20
20549.27880312277
 30
0.0
 11
13422.48403025584
 21
20545.26195192289
 31
0.0
  0
LINE
  5
82E
330
1E
100
AcDbEntity
  8
1
  6
Continuous
 62
     7
370
    13
100
AcDbLine
 10
13377.88463825525
 20
20552.7496063222
 30
0.0
 11
13399.26811985612
 21
20549.27880312277
 31
0.0
  0
LINE
  5
82F
330
1E
100
AcDbEntity
  8
1
  6
Continuous
 62
     7
370
    13
100
AcDbLine
 10
13358.84806865636
 20
20555.48410872257
 30
0.0
 11
13377.88463825525
 21
20552.7496063222
 31
0.0
  0
LINE
  5
830
330
1E
100
AcDbEntity
  8
1
  6
Continuous
 62
     7
370
    13
100
AcDbLine
 10
13342.51933265512
 20
20557.41290232258
 30
0.0
 11
13358.84806865636
 21
20555.48410872257
 31
0.0
  0
LINE
  5
831
330
1E
100
AcDbEntity
  8
1
  6
Continuous
 62
     7
370
    13
100
AcDbLine
 10
13329.11189585586
 20
20558.59082232237
 30
0.0
 11
13342.51933265512
 21
20557.41290232258
 31
0.0
  0
LINE
  5
832
330
1E
100
AcDbEntity
  8
1
  6
Continuous
 62
     7
370
    13
100
AcDbLine
 10
13318.71613265608
 20
20559.17287032286
 30
0.0
 11
13329.11189585586
 21
20558.59082232237
 31
0.0
  0
LINE
  5
833
330
1E
100
AcDbEntity
  8
1
  6
Continuous
 62
     7
370
    13
100
AcDbLine
 10
13311.33722705504
 20
20559.36853752247
 30
0.0
 11
13318.71613265608
 21
20559.17287032286
 31
0.0
  0
LINE
  5
834
330
1E
100
AcDbEntity
  8
1
  6
Continuous
 62
     7
370
    13
100
AcDbLine
 10
13306.93773905595
 20
20559.38483832254
 30
0.0
 11
13311.33722705504
 21
20559.36853752247
 31
0.0
  0
LINE
  5
835
330
1E
100
AcDbEntity
  8
1
  6
Continuous
 62
     7
370
    13
100
AcDbLine
 10
13305.47688785509
 20
20559.37199352279
 30
0.0
 11
13306.93773905595
 21
20559.38483832254
 31
0.0
  0
LINE
  5
836
330
1E
100
AcDbEntity
  8
1
  6
Continuous
 62
     7
370
    13
100
AcDbLine
 10
13304.02565585539
 20
20559.34975992281
 30
0.0
 11
13305.47688785509
 21
20559.37199352279
 31
0.0
  0
LINE
  5
837
330
1E
100
AcDbEntity
  8
1
  6
Continuous
 62
     7
370
    13
100
AcDbLine
 10
13299.76826705538
 20
20559.22879992294
 30
0.0
 11
13304.02565585539
 21
20559.34975992281
 31
0.0
  0
LINE
  5
838
330
1E
100
AcDbEntity
  8
1
  6
Continuous
 62
     7
370
    13
100
AcDbLine
 10
13292.9808558555
 20
20558.85710712241
 30
0.0
 11
13299.76826705538
 21
20559.22879992294
 31
0.0
  0
LINE
  5
839
330
1E
100
AcDbEntity
  8
1
  6
Continuous
 62
     7
370
    13
100
AcDbLine
 10
13284.08430545532
 20
20558.01591672262
 30
0.0
 11
13292.9808558555
 21
20558.85710712241
 31
0.0
  0
LINE
  5
83A
330
1E
100
AcDbEntity
  8
1
  6
Continuous
 62
     7
370
    13
100
AcDbLine
 10
13273.59309905633
 20
20556.46451832297
 30
0.0
 11
13284.08430545532
 21
20558.01591672262
 31
0.0
  0
LINE
  5
83B
330
1E
100
AcDbEntity
  8
1
  6
Continuous
 62
     7
370
    13
100
AcDbLine
 10
13262.05674065515
 20
20553.98956152246
 30
0.0
 11
13273.59309905633
 21
20556.46451832297
 31
0.0
  0
LINE
  5
83C
330
1E
100
AcDbEntity
  8
1
  6
Continuous
 62
     7
370
    13
100
AcDbLine
 10
13250.00434385571
 20
20550.45050232297
 30
0.0
 11
13262.05674065515
 21
20553.98956152246
 31
0.0
  0
LINE
  5
83D
330
1E
100
AcDbEntity
  8
1
  6
Continuous
 62
     7
370
    13
100
AcDbLine
 10
13237.90091345493
 20
20545.81174392251
 30
0.0
 11
13250.00434385571
 21
20550.45050232297
 31
0.0
  0
LINE
  5
83E
330
1E
100
AcDbEntity
  8
1
  6
Continuous
 62
     7
370
    13
100
AcDbLine
 10
13226.12102225512
 20
20540.15651832286
 30
0.0
 11
13237.90091345493
 21
20545.81174392251
 31
0.0
  0
LINE
  5
83F
330
1E
100
AcDbEntity
  8
1
  6
Continuous
 62
     7
370
    13
100
AcDbLine
 10
13214.94224465597
 20
20533.68158712274
 30
0.0
 11
13226.12102225512
 21
20540.15651832286
 31
0.0
  0
LINE
  5
840
330
1E
100
AcDbEntity
  8
1
  6
Continuous
 62
     7
370
    13
100
AcDbLine
 10
13204.55558225509
 20
20526.6743167226
 30
0.0
 11
13214.94224465597
 21
20533.68158712274
 31
0.0
  0
LINE
  5
841
330
1E
100
AcDbEntity
  8
1
  6
Continuous
 62
     7
370
    13
100
AcDbLine
 10
13195.08746705628
 20
20519.47783032254
 30
0.0
 11
13204.55558225509
 21
20526.6743167226
 31
0.0
  0
LINE
  5
842
330
1E
100
AcDbEntity
  8
1
  6
Continuous
 62
     7
370
    13
100
AcDbLine
 10
13186.627121455
 20
20512.45276152266
 30
0.0
 11
13195.08746705628
 21
20519.47783032254
 31
0.0
  0
LINE
  5
843
330
1E
100
AcDbEntity
  8
1
  6
Continuous
 62
     7
370
    13
100
AcDbLine
 10
13179.25017425545
 20
20505.94108152266
 30
0.0
 11
13186.627121455
 21
20512.45276152266
 31
0.0
  0
LINE
  5
844
330
1E
100
AcDbEntity
  8
1
  6
Continuous
 62
     7
370
    13
100
AcDbLine
 10
13173.03501905611
 20
20500.23977592251
 30
0.0
 11
13179.25017425545
 21
20505.94108152266
 31
0.0
  0
LINE
  5
845
330
1E
100
AcDbEntity
  8
1
  6
Continuous
 62
     7
370
    13
100
AcDbLine
 10
13168.0677678555
 20
20495.58523512258
 30
0.0
 11
13173.03501905611
 21
20500.23977592251
 31
0.0
  0
LINE
  5
846
330
1E
100
AcDbEntity
  8
1
  6
Continuous
 62
     7
370
    13
100
AcDbLine
 10
13164.43712465517
 20
20492.14985592215
 30
0.0
 11
13168.0677678555
 21
20495.58523512258
 31
0.0
  0
LINE
  5
847
330
1E
100
AcDbEntity
  8
1
  6
Continuous
 62
     7
370
    13
100
AcDbLine
 10
13162.22182865623
 20
20490.04699512271
 30
0.0
 11
13164.43712465517
 21
20492.14985592215
 31
0.0
  0
LINE
  5
848
330
1E
100
AcDbEntity
  8
1
  6
Continuous
 62
     7
370
    13
100
AcDbLine
 10
13161.47688785509
 20
20489.3394367229
 30
0.0
 11
13162.22182865623
 21
20490.04699512271
 31
0.0
  0
LINE
  5
849
330
1E
100
AcDbEntity
  8
1
  6
Continuous
 62
     7
370
    13
100
AcDbLine
 10
13955.77195985632
 20
20531.16268152286
 30
0.0
 11
13955.90697425507
 21
20531.35310712278
 31
0.0
  0
LINE
  5
84A
330
1E
100
AcDbEntity
  8
1
  6
Continuous
 62
     7
370
    13
100
AcDbLine
 10
13955.36962385548
 20
20530.59647352228
 30
0.0
 11
13955.77195985632
 21
20531.16268152286
 31
0.0
  0
LINE
  5
84B
330
1E
100
AcDbEntity
  8
1
  6
Continuous
 62
     7
370
    13
100
AcDbLine
 10
13954.70209745538
 20
20529.66871032294
 30
0.0
 11
13955.36962385548
 21
20530.59647352228
 31
0.0
  0
LINE
  5
84C
330
1E
100
AcDbEntity
  8
1
  6
Continuous
 62
     7
370
    13
100
AcDbLine
 10
13953.75595985611
 20
20528.40047352275
 30
0.0
 11
13954.70209745538
 21
20529.66871032294
 31
0.0
  0
LINE
  5
84D
330
1E
100
AcDbEntity
  8
1
  6
Continuous
 62
     7
370
    13
100
AcDbLine
 10
13952.4832878565
 20
20526.81630072247
 30
0.0
 11
13953.75595985611
 21
20528.40047352275
 31
0.0
  0
LINE
  5
84E
330
1E
100
AcDbEntity
  8
1
  6
Continuous
 62
     7
370
    13
100
AcDbLine
 10
13950.78777425584
 20
20524.94170872278
 30
0.0
 11
13952.4832878565
 21
20526.81630072247
 31
0.0
  0
LINE
  5
84F
330
1E
100
AcDbEntity
  8
1
  6
Continuous
 62
     7
370
    13
100
AcDbLine
 10
13948.52248145505
 20
20522.80169592294
 30
0.0
 11
13950.78777425584
 21
20524.94170872278
 31
0.0
  0
LINE
  5
850
330
1E
100
AcDbEntity
  8
1
  6
Continuous
 62
     7
370
    13
100
AcDbLine
 10
13945.50556625591
 20
20520.42160632227
 30
0.0
 11
13948.52248145505
 21
20522.80169592294
 31
0.0
  0
LINE
  5
851
330
1E
100
AcDbEntity
  8
1
  6
Continuous
 62
     7
370
    13
100
AcDbLine
 10
13941.55334225611
 20
20517.83047032225
 30
0.0
 11
13945.50556625591
 21
20520.42160632227
 31
0.0
  0
LINE
  5
852
330
1E
100
AcDbEntity
  8
1
  6
Continuous
 62
     7
370
    13
100
AcDbLine
 10
13936.52716625609
 20
20515.06549752287
 30
0.0
 11
13941.55334225611
 21
20517.83047032225
 31
0.0
  0
LINE
  5
853
330
1E
100
AcDbEntity
  8
1
  6
Continuous
 62
     7
370
    13
100
AcDbLine
 10
13930.3850478563
 20
20512.17795192226
 30
0.0
 11
13936.52716625609
 21
20515.06549752287
 31
0.0
  0
LINE
  5
854
330
1E
100
AcDbEntity
  8
1
  6
Continuous
 62
     7
370
    13
100
AcDbLine
 10
13923.22559825496
 20
20509.23724152249
 30
0.0
 11
13930.3850478563
 21
20512.17795192226
 31
0.0
  0
LINE
  5
855
330
1E
100
AcDbEntity
  8
1
  6
Continuous
 62
     7
370
    13
100
AcDbLine
 10
13915.31412305548
 20
20506.33299192291
 30
0.0
 11
13923.22559825496
 21
20509.23724152249
 31
0.0
  0
LINE
  5
856
330
1E
100
AcDbEntity
  8
1
  6
Continuous
 62
     7
370
    13
100
AcDbLine
 10
13907.08049105552
 20
20503.5735487229
 30
0.0
 11
13915.31412305548
 21
20506.33299192291
 31
0.0
  0
LINE
  5
857
330
1E
100
AcDbEntity
  8
1
  6
Continuous
 62
     7
370
    13
100
AcDbLine
 10
13899.08647505618
 20
20501.07964152227
 30
0.0
 11
13907.08049105552
 21
20503.5735487229
 31
0.0
  0
LINE
  5
858
330
1E
100
AcDbEntity
  8
1
  6
Continuous
 62
     7
370
    13
100
AcDbLine
 10
13891.96388945559
 20
20498.9754559228
 30
0.0
 11
13899.08647505618
 21
20501.07964152227
 31
0.0
  0
LINE
  5
859
330
1E
100
AcDbEntity
  8
1
  6
Continuous
 62
     7
370
    13
100
AcDbLine
 10
13886.33435345624
 20
20497.37607672241
 30
0.0
 11
13891.96388945559
 21
20498.9754559228
 31
0.0
  0
LINE
  5
85A
330
1E
100
AcDbEntity
  8
1
  6
Continuous
 62
     7
370
    13
100
AcDbLine
 10
13882.72196945582
 20
20496.37544952229
 30
0.0
 11
13886.33435345624
 21
20497.37607672241
 31
0.0
  0
LINE
  5
85B
330
1E
100
AcDbEntity
  8
1
  6
Continuous
 62
     7
370
    13
100
AcDbLine
 10
13881.47688785509
 20
20496.0347455222
 30
0.0
 11
13882.72196945582
 21
20496.37544952229
 31
0.0
  0
LINE
  5
85C
330
1E
100
AcDbEntity
  8
1
  6
Continuous
 62
     7
370
    13
100
AcDbLine
 10
13880.21654225547
 20
20495.69202552269
 30
0.0
 11
13881.47688785509
 21
20496.0347455222
 31
0.0
  0
LINE
  5
85D
330
1E
100
AcDbEntity
  8
1
  6
Continuous
 62
     7
370
    13
100
AcDbLine
 10
13876.38107345622
 20
20494.66167672256
 30
0.0
 11
13880.21654225547
 21
20495.69202552269
 31
0.0
  0
LINE
  5
85E
330
1E
100
AcDbEntity
  8
1
  6
Continuous
 62
     7
370
    13
100
AcDbLine
 10
13869.82435025606
 20
20492.94243192224
 30
0.0
 11
13876.38107345622
 21
20494.66167672256
 31
0.0
  0
LINE
  5
85F
330
1E
100
AcDbEntity
  8
1
  6
Continuous
 62
     7
370
    13
100
AcDbLine
 10
13860.35744465642
 20
20490.54742392281
 30
0.0
 11
13869.82435025606
 21
20492.94243192224
 31
0.0
  0
LINE
  5
860
330
1E
100
AcDbEntity
  8
1
  6
Continuous
 62
     7
370
    13
100
AcDbLine
 10
13847.81809745559
 20
20487.52261752224
 30
0.0
 11
13860.35744465642
 21
20490.54742392281
 31
0.0
  0
LINE
  5
861
330
1E
100
AcDbEntity
  8
1
  6
Continuous
 62
     7
370
    13
100
AcDbLine
 10
13832.14640465506
 20
20483.96287992287
 30
0.0
 11
13847.81809745559
 21
20487.52261752224
 31
0.0
  0
LINE
  5
862
330
1E
100
AcDbEntity
  8
1
  6
Continuous
 62
     7
370
    13
100
AcDbLine
 10
13813.45025105491
 20
20480.02033272216
 30
0.0
 11
13832.14640465506
 21
20483.96287992287
 31
0.0
  0
LINE
  5
863
330
1E
100
AcDbEntity
  8
1
  6
Continuous
 62
     7
370
    13
100
AcDbLine
 10
13792.04776145514
 20
20475.90060792266
 30
0.0
 11
13813.45025105491
 21
20480.02033272216
 31
0.0
  0
LINE
  5
864
330
1E
100
AcDbEntity
  8
1
  6
Continuous
 62
     7
370
    13
100
AcDbLine
 10
13768.47691985516
 20
20471.84539512235
 30
0.0
 11
13792.04776145514
 21
20475.90060792266
 31
0.0
  0
LINE
  5
865
330
1E
100
AcDbEntity
  8
1
  6
Continuous
 62
     7
370
    13
100
AcDbLine
 10
13743.47195345494
 20
20468.10295032233
 30
0.0
 11
13768.47691985516
 21
20471.84539512235
 31
0.0
  0
LINE
  5
866
330
1E
100
AcDbEntity
  8
1
  6
Continuous
 62
     7
370
    13
100
AcDbLine
 10
13717.9103982562
 20
20464.89313272283
 30
0.0
 11
13743.47195345494
 21
20468.10295032233
 31
0.0
  0
LINE
  5
867
330
1E
100
AcDbEntity
  8
1
  6
Continuous
 62
     7
370
    13
100
AcDbLine
 10
13692.74213585647
 20
20462.37272952244
 30
0.0
 11
13717.9103982562
 21
20464.89313272283
 31
0.0
  0
LINE
  5
868
330
1E
100
AcDbEntity
  8
1
  6
Continuous
 62
     7
370
    13
100
AcDbLine
 10
13668.91336145548
 20
20460.60993912246
 30
0.0
 11
13692.74213585647
 21
20462.37272952244
 31
0.0
  0
LINE
  5
869
330
1E
100
AcDbEntity
  8
1
  6
Continuous
 62
     7
370
    13
100
AcDbLine
 10
13647.29821265578
 20
20459.57423352263
 30
0.0
 11
13668.91336145548
 21
20460.60993912246
 31
0.0
  0
LINE
  5
86A
330
1E
100
AcDbEntity
  8
1
  6
Continuous
 62
     7
370
    13
100
AcDbLine
 10
13628.64883025639
 20
20459.14430712292
 30
0.0
 11
13647.29821265578
 21
20459.57423352263
 31
0.0
  0
LINE
  5
86B
330
1E
100
AcDbEntity
  8
1
  6
Continuous
 62
     7
370
    13
100
AcDbLine
 10
13613.56730705534
 20
20459.13370872268
 30
0.0
 11
13628.64883025639
 21
20459.14430712292
 31
0.0
  0
LINE
  5
86C
330
1E
100
AcDbEntity
  8
1
  6
Continuous
 62
     7
370
    13
100
AcDbLine
 10
13602.49981265532
 20
20459.33006712252
 30
0.0
 11
13613.56730705534
 21
20459.13370872268
 31
0.0
  0
LINE
  5
86D
330
1E
100
AcDbEntity
  8
1
  6
Continuous
 62
     7
370
    13
100
AcDbLine
 10
13595.74632785559
 20
20459.53898232243
 30
0.0
 11
13602.49981265532
 21
20459.33006712252
 31
0.0
  0
LINE
  5
86E
330
1E
100
AcDbEntity
  8
1
  6
Continuous
 62
     7
370
    13
100
AcDbLine
 10
13593.47688785509
 20
20459.62480632214
 30
0.0
 11
13595.74632785559
 21
20459.53898232243
 31
0.0
  0
LINE
  5
86F
330
1E
100
AcDbEntity
  8
1
  6
Continuous
 62
     7
370
    13
100
AcDbLine
 10
13591.20883025505
 20
20459.71857912288
 30
0.0
 11
13593.47688785509
 21
20459.62480632214
 31
0.0
  0
LINE
  5
870
330
1E
100
AcDbEntity
  8
1
  6
Continuous
 62
     7
370
    13
100
AcDbLine
 10
13584.47521745579
 20
20460.04303992249
 30
0.0
 11
13591.20883025505
 21
20459.71857912288
 31
0.0
  0
LINE
  5
871
330
1E
100
AcDbEntity
  8
1
  6
Continuous
 62
     7
370
    13
100
AcDbLine
 10
13573.48824785535
 20
20460.71517432247
 30
0.0
 11
13584.47521745579
 21
20460.04303992249
 31
0.0
  0
LINE
  5
872
330
1E
100
AcDbEntity
  8
1
  6
Continuous
 62
     7
370
    13
100
AcDbLine
 10
13558.60141265651
 20
20461.89021432295
 30
0.0
 11
13573.48824785535
 21
20460.71517432247
 31
0.0
  0
LINE
  5
873
330
1E
100
AcDbEntity
  8
1
  6
Continuous
 62
     7
370
    13
100
AcDbLine
 10
13540.306558256
 20
20463.71342712285
 30
0.0
 11
13558.60141265651
 21
20461.89021432295
 31
0.0
  0
LINE
  5
874
330
1E
100
AcDbEntity
  8
1
  6
Continuous
 62
     7
370
    13
100
AcDbLine
 10
13519.22380625508
 20
20466.26994552247
 30
0.0
 11
13540.306558256
 21
20463.71342712285
 31
0.0
  0
LINE
  5
875
330
1E
100
AcDbEntity
  8
1
  6
Continuous
 62
     7
370
    13
100
AcDbLine
 10
13496.08168145565
 20
20469.54657912281
 30
0.0
 11
13519.22380625508
 21
20466.26994552247
 31
0.0
  0
LINE
  5
876
330
1E
100
AcDbEntity
  8
1
  6
Continuous
 62
     7
370
    13
100
AcDbLine
 10
13471.68595025592
 20
20473.41511032235
 30
0.0
 11
13496.08168145565
 21
20469.54657912281
 31
0.0
  0
LINE
  5
877
330
1E
100
AcDbEntity
  8
1
  6
Continuous
 62
     7
370
    13
100
AcDbLine
 10
13446.87768785652
 20
20477.6422591226
 30
0.0
 11
13471.68595025592
 21
20473.41511032235
 31
0.0
  0
LINE
  5
878
330
1E
100
AcDbEntity
  8
1
  6
Continuous
 62
     7
370
    13
100
AcDbLine
 10
13422.48403025584
 20
20481.92470392229
 30
0.0
 11
13446.87768785652
 21
20477.6422591226
 31
0.0
  0
LINE
  5
879
330
1E
100
AcDbEntity
  8
1
  6
Continuous
 62
     7
370
    13
100
AcDbLine
 10
13399.26811985612
 20
20485.94155512217
 30
0.0
 11
13422.48403025584
 21
20481.92470392229
 31
0.0
  0
LINE
  5
87A
330
1E
100
AcDbEntity
  8
1
  6
Continuous
 62
     7
370
    13
100
AcDbLine
 10
13377.88463825525
 20
20489.41235832244
 30
0.0
 11
13399.26811985612
 21
20485.94155512217
 31
0.0
  0
LINE
  5
87B
330
1E
100
AcDbEntity
  8
1
  6
Continuous
 62
     7
370
    13
100
AcDbLine
 10
13358.84806865636
 20
20492.14686072281
 30
0.0
 11
13377.88463825525
 21
20489.41235832244
 31
0.0
  0
LINE
  5
87C
330
1E
100
AcDbEntity
  8
1
  6
Continuous
 62
     7
370
    13
100
AcDbLine
 10
13342.51933265512
 20
20494.07565432283
 30
0.0
 11
13358.84806865636
 21
20492.14686072281
 31
0.0
  0
LINE
  5
87D
330
1E
100
AcDbEntity
  8
1
  6
Continuous
 62
     7
370
    13
100
AcDbLine
 10
13329.11189585586
 20
20495.25357432261
 30
0.0
 11
13342.51933265512
 21
20494.07565432283
 31
0.0
  0
LINE
  5
87E
330
1E
100
AcDbEntity
  8
1
  6
Continuous
 62
     7
370
    13
100
AcDbLine
 10
13318.71613265608
 20
20495.83562232227
 30
0.0
 11
13329.11189585586
 21
20495.25357432261
 31
0.0
  0
LINE
  5
87F
330
1E
100
AcDbEntity
  8
1
  6
Continuous
 62
     7
370
    13
100
AcDbLine
 10
13311.33722705504
 20
20496.0312895227
 30
0.0
 11
13318.71613265608
 21
20495.83562232227
 31
0.0
  0
LINE
  5
880
330
1E
100
AcDbEntity
  8
1
  6
Continuous
 62
     7
370
    13
100
AcDbLine
 10
13306.93773905595
 20
20496.04759032278
 30
0.0
 11
13311.33722705504
 21
20496.0312895227
 31
0.0
  0
LINE
  5
881
330
1E
100
AcDbEntity
  8
1
  6
Continuous
 62
     7
370
    13
100
AcDbLine
 10
13305.47688785509
 20
20496.0347455222
 30
0.0
 11
13306.93773905595
 21
20496.04759032278
 31
0.0
  0
LINE
  5
882
330
1E
100
AcDbEntity
  8
1
  6
Continuous
 62
     7
370
    13
100
AcDbLine
 10
13304.02565585539
 20
20496.01256952265
 30
0.0
 11
13305.47688785509
 21
20496.0347455222
 31
0.0
  0
LINE
  5
883
330
1E
100
AcDbEntity
  8
1
  6
Continuous
 62
     7
370
    13
100
AcDbLine
 10
13299.76826705538
 20
20495.89155192234
 30
0.0
 11
13304.02565585539
 21
20496.01256952265
 31
0.0
  0
LINE
  5
884
330
1E
100
AcDbEntity
  8
1
  6
Continuous
 62
     7
370
    13
100
AcDbLine
 10
13292.9808558555
 20
20495.51985912266
 30
0.0
 11
13299.76826705538
 21
20495.89155192234
 31
0.0
  0
LINE
  5
885
330
1E
100
AcDbEntity
  8
1
  6
Continuous
 62
     7
370
    13
100
AcDbLine
 10
13284.08430545532
 20
20494.67866872287
 30
0.0
 11
13292.9808558555
 21
20495.51985912266
 31
0.0
  0
LINE
  5
886
330
1E
100
AcDbEntity
  8
1
  6
Continuous
 62
     7
370
    13
100
AcDbLine
 10
13273.59309905633
 20
20493.12727032237
 30
0.0
 11
13284.08430545532
 21
20494.67866872287
 31
0.0
  0
LINE
  5
887
330
1E
100
AcDbEntity
  8
1
  6
Continuous
 62
     7
370
    13
100
AcDbLine
 10
13262.05674065515
 20
20490.65231352269
 30
0.0
 11
13273.59309905633
 21
20493.12727032237
 31
0.0
  0
LINE
  5
888
330
1E
100
AcDbEntity
  8
1
  6
Continuous
 62
     7
370
    13
100
AcDbLine
 10
13250.00434385571
 20
20487.11331192281
 30
0.0
 11
13262.05674065515
 21
20490.65231352269
 31
0.0
  0
LINE
  5
889
330
1E
100
AcDbEntity
  8
1
  6
Continuous
 62
     7
370
    13
100
AcDbLine
 10
13237.90091345493
 20
20482.47449592276
 30
0.0
 11
13250.00434385571
 21
20487.11331192281
 31
0.0
  0
LINE
  5
88A
330
1E
100
AcDbEntity
  8
1
  6
Continuous
 62
     7
370
    13
100
AcDbLine
 10
13226.12102225512
 20
20476.81927032227
 30
0.0
 11
13237.90091345493
 21
20482.47449592276
 31
0.0
  0
LINE
  5
88B
330
1E
100
AcDbEntity
  8
1
  6
Continuous
 62
     7
370
    13
100
AcDbLine
 10
13214.94224465597
 20
20470.34433912215
 30
0.0
 11
13226.12102225512
 21
20476.81927032227
 31
0.0
  0
LINE
  5
88C
330
1E
100
AcDbEntity
  8
1
  6
Continuous
 62
     7
370
    13
100
AcDbLine
 10
13204.55558225509
 20
20463.33706872284
 30
0.0
 11
13214.94224465597
 21
20470.34433912215
 31
0.0
  0
LINE
  5
88D
330
1E
100
AcDbEntity
  8
1
  6
Continuous
 62
     7
370
    13
100
AcDbLine
 10
13195.08746705628
 20
20456.14058232278
 30
0.0
 11
13204.55558225509
 21
20463.33706872284
 31
0.0
  0
LINE
  5
88E
330
1E
100
AcDbEntity
  8
1
  6
Continuous
 62
     7
370
    13
100
AcDbLine
 10
13186.627121455
 20
20449.1155135229
 30
0.0
 11
13195.08746705628
 21
20456.14058232278
 31
0.0
  0
LINE
  5
88F
330
1E
100
AcDbEntity
  8
1
  6
Continuous
 62
     7
370
    13
100
AcDbLine
 10
13179.25017425545
 20
20442.60389112251
 30
0.0
 11
13186.627121455
 21
20449.1155135229
 31
0.0
  0
LINE
  5
890
330
1E
100
AcDbEntity
  8
1
  6
Continuous
 62
     7
370
    13
100
AcDbLine
 10
13173.03501905611
 20
20436.90252792275
 30
0.0
 11
13179.25017425545
 21
20442.60389112251
 31
0.0
  0
LINE
  5
891
330
1E
100
AcDbEntity
  8
1
  6
Continuous
 62
     7
370
    13
100
AcDbLine
 10
13168.0677678555
 20
20432.24798712282
 30
0.0
 11
13173.03501905611
 21
20436.90252792275
 31
0.0
  0
LINE
  5
892
330
1E
100
AcDbEntity
  8
1
  6
Continuous
 62
     7
370
    13
100
AcDbLine
 10
13164.43712465517
 20
20428.81266552282
 30
0.0
 11
13168.0677678555
 21
20432.24798712282
 31
0.0
  0
LINE
  5
893
330
1E
100
AcDbEntity
  8
1
  6
Continuous
 62
     7
370
    13
100
AcDbLine
 10
13162.22182865623
 20
20426.70974712295
 30
0.0
 11
13164.43712465517
 21
20428.81266552282
 31
0.0
  0
LINE
  5
894
330
1E
100
AcDbEntity
  8
1
  6
Continuous
 62
     7
370
    13
100
AcDbLine
 10
13161.47688785509
 20
20426.0021887223
 30
0.0
 11
13162.22182865623
 21
20426.70974712295
 31
0.0
  0
LINE
  5
895
330
1E
100
AcDbEntity
  8
1
  6
Continuous
 62
     7
370
    13
100
AcDbLine
 10
13955.77195985632
 20
20531.16268152286
 30
0.0
 11
13955.90697425507
 21
20531.35310712278
 31
0.0
  0
LINE
  5
896
330
1E
100
AcDbEntity
  8
1
  6
Continuous
 62
     7
370
    13
100
AcDbLine
 10
13955.36962385548
 20
20530.59647352228
 30
0.0
 11
13955.77195985632
 21
20531.16268152286
 31
0.0
  0
LINE
  5
897
330
1E
100
AcDbEntity
  8
1
  6
Continuous
 62
     7
370
    13
100
AcDbLine
 10
13954.70209745538
 20
20529.66871032294
 30
0.0
 11
13955.36962385548
 21
20530.59647352228
 31
0.0
  0
LINE
  5
898
330
1E
100
AcDbEntity
  8
1
  6
Continuous
 62
     7
370
    13
100
AcDbLine
 10
13953.75595985611
 20
20528.40047352275
 30
0.0
 11
13954.70209745538
 21
20529.66871032294
 31
0.0
  0
LINE
  5
899
330
1E
100
AcDbEntity
  8
1
  6
Continuous
 62
     7
370
    13
100
AcDbLine
 10
13952.4832878565
 20
20526.81630072247
 30
0.0
 11
13953.75595985611
 21
20528.40047352275
 31
0.0
  0
LINE
  5
89A
330
1E
100
AcDbEntity
  8
1
  6
Continuous
 62
     7
370
    13
100
AcDbLine
 10
13950.78777425584
 20
20524.94170872278
 30
0.0
 11
13952.4832878565
 21
20526.81630072247
 31
0.0
  0
LINE
  5
89B
330
1E
100
AcDbEntity
  8
1
  6
Continuous
 62
     7
370
    13
100
AcDbLine
 10
13948.52248145505
 20
20522.80169592294
 30
0.0
 11
13950.78777425584
 21
20524.94170872278
 31
0.0
  0
LINE
  5
89C
330
1E
100
AcDbEntity
  8
1
  6
Continuous
 62
     7
370
    13
100
AcDbLine
 10
13945.50556625591
 20
20520.42160632227
 30
0.0
 11
13948.52248145505
 21
20522.80169592294
 31
0.0
  0
LINE
  5
89D
330
1E
100
AcDbEntity
  8
1
  6
Continuous
 62
     7
370
    13
100
AcDbLine
 10
13941.55334225611
 20
20517.83047032225
 30
0.0
 11
13945.50556625591
 21
20520.42160632227
 31
0.0
  0
LINE
  5
89E
330
1E
100
AcDbEntity
  8
1
  6
Continuous
 62
     7
370
    13
100
AcDbLine
 10
13936.52716625609
 20
20515.06549752287
 30
0.0
 11
13941.55334225611
 21
20517.83047032225
 31
0.0
  0
LINE
  5
89F
330
1E
100
AcDbEntity
  8
1
  6
Continuous
 62
     7
370
    13
100
AcDbLine
 10
13930.3850478563
 20
20512.17795192226
 30
0.0
 11
13936.52716625609
 21
20515.06549752287
 31
0.0
  0
LINE
  5
8A0
330
1E
100
AcDbEntity
  8
1
  6
Continuous
 62
     7
370
    13
100
AcDbLine
 10
13923.22559825496
 20
20509.23724152249
 30
0.0
 11
13930.3850478563
 21
20512.17795192226
 31
0.0
  0
LINE
  5
8A1
330
1E
100
AcDbEntity
  8
1
  6
Continuous
 62
     7
370
    13
100
AcDbLine
 10
13915.31412305548
 20
20506.33299192291
 30
0.0
 11
13923.22559825496
 21
20509.23724152249
 31
0.0
  0
LINE
  5
8A2
330
1E
100
AcDbEntity
  8
1
  6
Continuous
 62
     7
370
    13
100
AcDbLine
 10
13907.08049105552
 20
20503.5735487229
 30
0.0
 11
13915.31412305548
 21
20506.33299192291
 31
0.0
  0
LINE
  5
8A3
330
1E
100
AcDbEntity
  8
1
  6
Continuous
 62
     7
370
    13
100
AcDbLine
 10
13899.08647505618
 20
20501.07964152227
 30
0.0
 11
13907.08049105552
 21
20503.5735487229
 31
0.0
  0
LINE
  5
8A4
330
1E
100
AcDbEntity
  8
1
  6
Continuous
 62
     7
370
    13
100
AcDbLine
 10
13891.96388945559
 20
20498.9754559228
 30
0.0
 11
13899.08647505618
 21
20501.07964152227
 31
0.0
  0
LINE
  5
8A5
330
1E
100
AcDbEntity
  8
1
  6
Continuous
 62
     7
370
    13
100
AcDbLine
 10
13886.33435345624
 20
20497.37607672241
 30
0.0
 11
13891.96388945559
 21
20498.9754559228
 31
0.0
  0
LINE
  5
8A6
330
1E
100
AcDbEntity
  8
1
  6
Continuous
 62
     7
370
    13
100
AcDbLine
 10
13882.72196945582
 20
20496.37544952229
 30
0.0
 11
13886.33435345624
 21
20497.37607672241
 31
0.0
  0
LINE
  5
8A7
330
1E
100
AcDbEntity
  8
1
  6
Continuous
 62
     7
370
    13
100
AcDbLine
 10
13881.47688785509
 20
20496.0347455222
 30
0.0
 11
13882.72196945582
 21
20496.37544952229
 31
0.0
  0
LINE
  5
8A8
330
1E
100
AcDbEntity
  8
1
  6
Continuous
 62
     7
370
    13
100
AcDbLine
 10
13880.21654225547
 20
20495.69202552269
 30
0.0
 11
13881.47688785509
 21
20496.0347455222
 31
0.0
  0
LINE
  5
8A9
330
1E
100
AcDbEntity
  8
1
  6
Continuous
 62
     7
370
    13
100
AcDbLine
 10
13876.38107345622
 20
20494.66167672256
 30
0.0
 11
13880.21654225547
 21
20495.69202552269
 31
0.0
  0
LINE
  5
8AA
330
1E
100
AcDbEntity
  8
1
  6
Continuous
 62
     7
370
    13
100
AcDbLine
 10
13869.82435025606
 20
20492.94243192224
 30
0.0
 11
13876.38107345622
 21
20494.66167672256
 31
0.0
  0
LINE
  5
8AB
330
1E
100
AcDbEntity
  8
1
  6
Continuous
 62
     7
370
    13
100
AcDbLine
 10
13860.35744465642
 20
20490.54742392281
 30
0.0
 11
13869.82435025606
 21
20492.94243192224
 31
0.0
  0
LINE
  5
8AC
330
1E
100
AcDbEntity
  8
1
  6
Continuous
 62
     7
370
    13
100
AcDbLine
 10
13847.81809745559
 20
20487.52261752224
 30
0.0
 11
13860.35744465642
 21
20490.54742392281
 31
0.0
  0
LINE
  5
8AD
330
1E
100
AcDbEntity
  8
1
  6
Continuous
 62
     7
370
    13
100
AcDbLine
 10
13832.14640465506
 20
20483.96287992287
 30
0.0
 11
13847.81809745559
 21
20487.52261752224
 31
0.0
  0
LINE
  5
8AE
330
1E
100
AcDbEntity
  8
1
  6
Continuous
 62
     7
370
    13
100
AcDbLine
 10
13813.45025105491
 20
20480.02033272216
 30
0.0
 11
13832.14640465506
 21
20483.96287992287
 31
0.0
  0
LINE
  5
8AF
330
1E
100
AcDbEntity
  8
1
  6
Continuous
 62
     7
370
    13
100
AcDbLine
 10
13792.04776145514
 20
20475.90060792266
 30
0.0
 11
13813.45025105491
 21
20480.02033272216
 31
0.0
  0
LINE
  5
8B0
330
1E
100
AcDbEntity
  8
1
  6
Continuous
 62
     7
370
    13
100
AcDbLine
 10
13768.47691985516
 20
20471.84539512235
 30
0.0
 11
13792.04776145514
 21
20475.90060792266
 31
0.0
  0
LINE
  5
8B1
330
1E
100
AcDbEntity
  8
1
  6
Continuous
 62
     7
370
    13
100
AcDbLine
 10
13743.47195345494
 20
20468.10295032233
 30
0.0
 11
13768.47691985516
 21
20471.84539512235
 31
0.0
  0
LINE
  5
8B2
330
1E
100
AcDbEntity
  8
1
  6
Continuous
 62
     7
370
    13
100
AcDbLine
 10
13717.9103982562
 20
20464.89313272283
 30
0.0
 11
13743.47195345494
 21
20468.10295032233
 31
0.0
  0
LINE
  5
8B3
330
1E
100
AcDbEntity
  8
1
  6
Continuous
 62
     7
370
    13
100
AcDbLine
 10
13692.74213585647
 20
20462.37272952244
 30
0.0
 11
13717.9103982562
 21
20464.89313272283
 31
0.0
  0
LINE
  5
8B4
330
1E
100
AcDbEntity
  8
1
  6
Continuous
 62
     7
370
    13
100
AcDbLine
 10
13668.91336145548
 20
20460.60993912246
 30
0.0
 11
13692.74213585647
 21
20462.37272952244
 31
0.0
  0
LINE
  5
8B5
330
1E
100
AcDbEntity
  8
1
  6
Continuous
 62
     7
370
    13
100
AcDbLine
 10
13647.29821265578
 20
20459.57423352263
 30
0.0
 11
13668.91336145548
 21
20460.60993912246
 31
0.0
  0
LINE
  5
8B6
330
1E
100
AcDbEntity
  8
1
  6
Continuous
 62
     7
370
    13
100
AcDbLine
 10
13628.64883025639
 20
20459.14430712292
 30
0.0
 11
13647.29821265578
 21
20459.57423352263
 31
0.0
  0
LINE
  5
8B7
330
1E
100
AcDbEntity
  8
1
  6
Continuous
 62
     7
370
    13
100
AcDbLine
 10
13613.56730705534
 20
20459.13370872268
 30
0.0
 11
13628.64883025639
 21
20459.14430712292
 31
0.0
  0
LINE
  5
8B8
330
1E
100
AcDbEntity
  8
1
  6
Continuous
 62
     7
370
    13
100
AcDbLine
 10
13602.49981265532
 20
20459.33006712252
 30
0.0
 11
13613.56730705534
 21
20459.13370872268
 31
0.0
  0
LINE
  5
8B9
330
1E
100
AcDbEntity
  8
1
  6
Continuous
 62
     7
370
    13
100
AcDbLine
 10
13595.74632785559
 20
20459.53898232243
 30
0.0
 11
13602.49981265532
 21
20459.33006712252
 31
0.0
  0
LINE
  5
8BA
330
1E
100
AcDbEntity
  8
1
  6
Continuous
 62
     7
370
    13
100
AcDbLine
 10
13593.47688785509
 20
20459.62480632214
 30
0.0
 11
13595.74632785559
 21
20459.53898232243
 31
0.0
  0
LINE
  5
8BB
330
1E
100
AcDbEntity
  8
1
  6
Continuous
 62
     7
370
    13
100
AcDbLine
 10
13591.20883025505
 20
20459.71857912288
 30
0.0
 11
13593.47688785509
 21
20459.62480632214
 31
0.0
  0
LINE
  5
8BC
330
1E
100
AcDbEntity
  8
1
  6
Continuous
 62
     7
370
    13
100
AcDbLine
 10
13584.47521745579
 20
20460.04303992249
 30
0.0
 11
13591.20883025505
 21
20459.71857912288
 31
0.0
  0
LINE
  5
8BD
330
1E
100
AcDbEntity
  8
1
  6
Continuous
 62
     7
370
    13
100
AcDbLine
 10
13573.48824785535
 20
20460.71517432247
 30
0.0
 11
13584.47521745579
 21
20460.04303992249
 31
0.0
  0
LINE
  5
8BE
330
1E
100
AcDbEntity
  8
1
  6
Continuous
 62
     7
370
    13
100
AcDbLine
 10
13558.60141265651
 20
20461.89021432295
 30
0.0
 11
13573.48824785535
 21
20460.71517432247
 31
0.0
  0
LINE
  5
8BF
330
1E
100
AcDbEntity
  8
1
  6
Continuous
 62
     7
370
    13
100
AcDbLine
 10
13540.306558256
 20
20463.71342712285
 30
0.0
 11
13558.60141265651
 21
20461.89021432295
 31
0.0
  0
LINE
  5
8C0
330
1E
100
AcDbEntity
  8
1
  6
Continuous
 62
     7
370
    13
100
AcDbLine
 10
13519.22380625508
 20
20466.26994552247
 30
0.0
 11
13540.306558256
 21
20463.71342712285
 31
0.0
  0
LINE
  5
8C1
330
1E
100
AcDbEntity
  8
1
  6
Continuous
 62
     7
370
    13
100
AcDbLine
 10
13496.08168145565
 20
20469.54657912281
 30
0.0
 11
13519.22380625508
 21
20466.26994552247
 31
0.0
  0
LINE
  5
8C2
330
1E
100
AcDbEntity
  8
1
  6
Continuous
 62
     7
370
    13
100
AcDbLine
 10
13471.68595025592
 20
20473.41511032235
 30
0.0
 11
13496.08168145565
 21
20469.54657912281
 31
0.0
  0
LINE
  5
8C3
330
1E
100
AcDbEntity
  8
1
  6
Continuous
 62
     7
370
    13
100
AcDbLine
 10
13446.87768785652
 20
20477.6422591226
 30
0.0
 11
13471.68595025592
 21
20473.41511032235
 31
0.0
  0
LINE
  5
8C4
330
1E
100
AcDbEntity
  8
1
  6
Continuous
 62
     7
370
    13
100
AcDbLine
 10
13422.48403025584
 20
20481.92470392229
 30
0.0
 11
13446.87768785652
 21
20477.6422591226
 31
0.0
  0
LINE
  5
8C5
330
1E
100
AcDbEntity
  8
1
  6
Continuous
 62
     7
370
    13
100
AcDbLine
 10
13399.26811985612
 20
20485.94155512217
 30
0.0
 11
13422.48403025584
 21
20481.92470392229
 31
0.0
  0
LINE
  5
8C6
330
1E
100
AcDbEntity
  8
1
  6
Continuous
 62
     7
370
    13
100
AcDbLine
 10
13377.88463825525
 20
20489.41235832244
 30
0.0
 11
13399.26811985612
 21
20485.94155512217
 31
0.0
  0
LINE
  5
8C7
330
1E
100
AcDbEntity
  8
1
  6
Continuous
 62
     7
370
    13
100
AcDbLine
 10
13358.84806865636
 20
20492.14686072281
 30
0.0
 11
13377.88463825525
 21
20489.41235832244
 31
0.0
  0
LINE
  5
8C8
330
1E
100
AcDbEntity
  8
1
  6
Continuous
 62
     7
370
    13
100
AcDbLine
 10
13342.51933265512
 20
20494.07565432283
 30
0.0
 11
13358.84806865636
 21
20492.14686072281
 31
0.0
  0
LINE
  5
8C9
330
1E
100
AcDbEntity
  8
1
  6
Continuous
 62
     7
370
    13
100
AcDbLine
 10
13329.11189585586
 20
20495.25357432261
 30
0.0
 11
13342.51933265512
 21
20494.07565432283
 31
0.0
  0
LINE
  5
8CA
330
1E
100
AcDbEntity
  8
1
  6
Continuous
 62
     7
370
    13
100
AcDbLine
 10
13318.71613265608
 20
20495.83562232227
 30
0.0
 11
13329.11189585586
 21
20495.25357432261
 31
0.0
  0
LINE
  5
8CB
330
1E
100
AcDbEntity
  8
1
  6
Continuous
 62
     7
370
    13
100
AcDbLine
 10
13311.33722705504
 20
20496.0312895227
 30
0.0
 11
13318.71613265608
 21
20495.83562232227
 31
0.0
  0
LINE
  5
8CC
330
1E
100
AcDbEntity
  8
1
  6
Continuous
 62
     7
370
    13
100
AcDbLine
 10
13306.93773905595
 20
20496.04759032278
 30
0.0
 11
13311.33722705504
 21
20496.0312895227
 31
0.0
  0
LINE
  5
8CD
330
1E
100
AcDbEntity
  8
1
  6
Continuous
 62
     7
370
    13
100
AcDbLine
 10
13305.47688785509
 20
20496.0347455222
 30
0.0
 11
13306.93773905595
 21
20496.04759032278
 31
0.0
  0
LINE
  5
8CE
330
1E
100
AcDbEntity
  8
1
  6
Continuous
 62
     7
370
    13
100
AcDbLine
 10
13304.02565585539
 20
20496.01256952265
 30
0.0
 11
13305.47688785509
 21
20496.0347455222
 31
0.0
  0
LINE
  5
8CF
330
1E
100
AcDbEntity
  8
1
  6
Continuous
 62
     7
370
    13
100
AcDbLine
 10
13299.76826705538
 20
20495.89155192234
 30
0.0
 11
13304.02565585539
 21
20496.01256952265
 31
0.0
  0
LINE
  5
8D0
330
1E
100
AcDbEntity
  8
1
  6
Continuous
 62
     7
370
    13
100
AcDbLine
 10
13292.9808558555
 20
20495.51985912266
 30
0.0
 11
13299.76826705538
 21
20495.89155192234
 31
0.0
  0
LINE
  5
8D1
330
1E
100
AcDbEntity
  8
1
  6
Continuous
 62
     7
370
    13
100
AcDbLine
 10
13284.08430545532
 20
20494.67866872287
 30
0.0
 11
13292.9808558555
 21
20495.51985912266
 31
0.0
  0
LINE
  5
8D2
330
1E
100
AcDbEntity
  8
1
  6
Continuous
 62
     7
370
    13
100
AcDbLine
 10
13273.59309905633
 20
20493.12727032237
 30
0.0
 11
13284.08430545532
 21
20494.67866872287
 31
0.0
  0
LINE
  5
8D3
330
1E
100
AcDbEntity
  8
1
  6
Continuous
 62
     7
370
    13
100
AcDbLine
 10
13262.05674065515
 20
20490.65231352269
 30
0.0
 11
13273.59309905633
 21
20493.12727032237
 31
0.0
  0
LINE
  5
8D4
330
1E
100
AcDbEntity
  8
1
  6
Continuous
 62
     7
370
    13
100
AcDbLine
 10
13250.00434385571
 20
20487.11331192281
 30
0.0
 11
13262.05674065515
 21
20490.65231352269
 31
0.0
  0
LINE
  5
8D5
330
1E
100
AcDbEntity
  8
1
  6
Continuous
 62
     7
370
    13
100
AcDbLine
 10
13237.90091345493
 20
20482.47449592276
 30
0.0
 11
13250.00434385571
 21
20487.11331192281
 31
0.0
  0
LINE
  5
8D6
330
1E
100
AcDbEntity
  8
1
  6
Continuous
 62
     7
370
    13
100
AcDbLine
 10
13226.12102225512
 20
20476.81927032227
 30
0.0
 11
13237.90091345493
 21
20482.47449592276
 31
0.0
  0
LINE
  5
8D7
330
1E
100
AcDbEntity
  8
1
  6
Continuous
 62
     7
370
    13
100
AcDbLine
 10
13214.94224465597
 20
20470.34433912215
 30
0.0
 11
13226.12102225512
 21
20476.81927032227
 31
0.0
  0
LINE
  5
8D8
330
1E
100
AcDbEntity
  8
1
  6
Continuous
 62
     7
370
    13
100
AcDbLine
 10
13204.55558225509
 20
20463.33706872284
 30
0.0
 11
13214.94224465597
 21
20470.34433912215
 31
0.0
  0
LINE
  5
8D9
330
1E
100
AcDbEntity
  8
1
  6
Continuous
 62
     7
370
    13
100
AcDbLine
 10
13195.08746705628
 20
20456.14058232278
 30
0.0
 11
13204.55558225509
 21
20463.33706872284
 31
0.0
  0
LINE
  5
8DA
330
1E
100
AcDbEntity
  8
1
  6
Continuous
 62
     7
370
    13
100
AcDbLine
 10
13186.627121455
 20
20449.1155135229
 30
0.0
 11
13195.08746705628
 21
20456.14058232278
 31
0.0
  0
LINE
  5
8DB
330
1E
100
AcDbEntity
  8
1
  6
Continuous
 62
     7
370
    13
100
AcDbLine
 10
13179.25017425545
 20
20442.60389112251
 30
0.0
 11
13186.627121455
 21
20449.1155135229
 31
0.0
  0
LINE
  5
8DC
330
1E
100
AcDbEntity
  8
1
  6
Continuous
 62
     7
370
    13
100
AcDbLine
 10
13173.03501905611
 20
20436.90252792275
 30
0.0
 11
13179.25017425545
 21
20442.60389112251
 31
0.0
  0
LINE
  5
8DD
330
1E
100
AcDbEntity
  8
1
  6
Continuous
 62
     7
370
    13
100
AcDbLine
 10
13168.0677678555
 20
20432.24798712282
 30
0.0
 11
13173.03501905611
 21
20436.90252792275
 31
0.0
  0
LINE
  5
8DE
330
1E
100
AcDbEntity
  8
1
  6
Continuous
 62
     7
370
    13
100
AcDbLine
 10
13164.43712465517
 20
20428.81266552282
 30
0.0
 11
13168.0677678555
 21
20432.24798712282
 31
0.0
  0
LINE
  5
8DF
330
1E
100
AcDbEntity
  8
1
  6
Continuous
 62
     7
370
    13
100
AcDbLine
 10
13162.22182865623
 20
20426.70974712295
 30
0.0
 11
13164.43712465517
 21
20428.81266552282
 31
0.0
  0
LINE
  5
8E0
330
1E
100
AcDbEntity
  8
1
  6
Continuous
 62
     7
370
    13
100
AcDbLine
 10
13161.47688785509
 20
20426.0021887223
 30
0.0
 11
13162.22182865623
 21
20426.70974712295
 31
0.0
  0
LINE
  5
8E1
330
1E
100
AcDbEntity
  8
1
  6
Continuous
 62
     7
370
    13
100
AcDbLine
 10
13276.6768878551
 20
19804.8347455222
 30
0.0
 11
13852.6768878551
 21
19804.8347455222
 31
0.0
  0
LINE
  5
8E2
330
1E
100
AcDbEntity
  8
1
  6
Continuous
 62
     7
370
    13
100
AcDbLine
 10
13276.6768878551
 20
19804.8347455222
 30
0.0
 11
13276.6768878551
 21
20494.67866872287
 31
0.0
  0
LINE
  5
8E3
330
1E
100
AcDbEntity
  8
1
  6
Continuous
 62
     7
370
    13
100
AcDbLine
 10
13276.6768878551
 20
20558.01591672262
 30
0.0
 11
13276.6768878551
 21
20841.6347455222
 31
0.0
  0
LINE
  5
8E4
330
1E
100
AcDbEntity
  8
1
  6
Continuous
 62
     7
370
    13
100
AcDbLine
 10
13852.6768878551
 20
19804.8347455222
 30
0.0
 11
13852.6768878551
 21
20487.52261752224
 31
0.0
  0
LINE
  5
8E5
330
1E
100
AcDbEntity
  8
1
  6
Continuous
 62
     7
370
    13
100
AcDbLine
 10
13852.6768878551
 20
20550.85980792239
 30
0.0
 11
13852.6768878551
 21
20841.6347455222
 31
0.0
  0
LINE
  5
8E6
330
1E
100
AcDbEntity
  8
1
  6
Continuous
 62
     7
370
    13
100
AcDbLine
 10
18604.6768878551
 20
19344.0347455222
 30
0.0
 11
20044.6768878551
 21
19344.0347455222
 31
0.0
  0
LINE
  5
8E7
330
1E
100
AcDbEntity
  8
1
  6
Continuous
 62
     7
370
    13
100
AcDbLine
 10
18604.6768878551
 20
19344.0347455222
 30
0.0
 11
18604.6768878551
 21
18825.6347455222
 31
0.0
  0
LINE
  5
8E8
330
1E
100
AcDbEntity
  8
1
  6
Continuous
 62
     7
370
    13
100
AcDbLine
 10
18604.6768878551
 20
18825.6347455222
 30
0.0
 11
18316.6768878551
 21
18825.6347455222
 31
0.0
  0
LINE
  5
8E9
330
1E
100
AcDbEntity
  8
1
  6
Continuous
 62
     7
370
    13
100
AcDbLine
 10
18316.6768878551
 20
18825.6347455222
 30
0.0
 11
18316.6768878551
 21
18710.4347455222
 31
0.0
  0
LINE
  5
8EA
330
1E
100
AcDbEntity
  8
1
  6
Continuous
 62
     7
370
    13
100
AcDbLine
 10
18316.6768878551
 20
18710.4347455222
 30
0.0
 11
18604.6768878551
 21
18710.4347455222
 31
0.0
  0
LINE
  5
8EB
330
1E
100
AcDbEntity
  8
1
  6
Continuous
 62
     7
370
    13
100
AcDbLine
 10
20044.6768878551
 20
18710.4347455222
 30
0.0
 11
20332.6768878551
 21
18710.4347455222
 31
0.0
  0
LINE
  5
8EC
330
1E
100
AcDbEntity
  8
1
  6
Continuous
 62
     7
370
    13
100
AcDbLine
 10
20332.6768878551
 20
18825.6347455222
 30
0.0
 11
20044.6768878551
 21
18825.6347455222
 31
0.0
  0
LINE
  5
8ED
330
1E
100
AcDbEntity
  8
1
  6
Continuous
 62
     7
370
    13
100
AcDbLine
 10
20044.6768878551
 20
18825.6347455222
 30
0.0
 11
20044.6768878551
 21
19344.0347455222
 31
0.0
  0
LINE
  5
8EE
330
1E
100
AcDbEntity
  8
1
  6
Continuous
 62
     7
370
    13
100
AcDbLine
 10
18604.6768878551
 20
18710.4347455222
 30
0.0
 11
18604.6768878551
 21
17673.6347455222
 31
0.0
  0
LINE
  5
8EF
330
1E
100
AcDbEntity
  8
1
  6
Continuous
 62
     7
370
    13
100
AcDbLine
 10
19036.6768878551
 20
17385.6347455222
 30
0.0
 11
18892.6768878551
 21
17385.6347455222
 31
0.0
  0
ARC
  5
8F0
330
1E
100
AcDbEntity
  8
1
  6
Continuous
 62
     7
370
    13
100
AcDbCircle
 10
18892.6768878551
 20
17673.6347455222
 30
0.0
 40
288.0
100
AcDbArc
 50
180.0
 51
270.0
  0
LINE
  5
8F1
330
1E
100
AcDbEntity
  8
1
  6
Continuous
 62
     7
370
    13
100
AcDbLine
 10
19612.6768878551
 20
17385.6347455222
 30
0.0
 11
19756.6768878551
 21
17385.6347455222
 31
0.0
  0
LINE
  5
8F2
330
1E
100
AcDbEntity
  8
1
  6
Continuous
 62
     7
370
    13
100
AcDbLine
 10
20044.6768878551
 20
17673.6347455222
 30
0.0
 11
20044.6768878551
 21
18710.4347455222
 31
0.0
  0
ARC
  5
8F3
330
1E
100
AcDbEntity
  8
1
  6
Continuous
 62
     7
370
    13
100
AcDbCircle
 10
19756.6768878551
 20
17673.6347455222
 30
0.0
 40
288.0
100
AcDbArc
 50
270.0
 51
0.0
  0
LINE
  5
8F4
330
1E
100
AcDbEntity
  8
1
  6
Continuous
 62
     7
370
    13
100
AcDbLine
 10
20044.6768878551
 20
18825.6347455222
 30
0.0
 11
18604.6768878551
 21
18825.6347455222
 31
0.0
  0
LINE
  5
8F5
330
1E
100
AcDbEntity
  8
1
  6
Continuous
 62
     7
370
    13
100
AcDbLine
 10
19036.6768878551
 20
17385.6347455222
 30
0.0
 11
19612.6768878551
 21
17385.6347455222
 31
0.0
  0
LINE
  5
8F6
330
1E
100
AcDbEntity
  8
1
  6
Continuous
 62
     7
370
    13
100
AcDbLine
 10
20332.6768878551
 20
18710.4347455222
 30
0.0
 11
20332.6768878551
 21
18825.6347455222
 31
0.0
  0
ENDSEC
  0
SECTION
  2
OBJECTS
  0
DICTIONARY
  5
C
330
0
100
AcDbDictionary
281
     1
  3
ACAD_GROUP
350
D
  3
ACAD_LAYOUT
350
19
  3
ACAD_MLINESTYLE
350
16
  3
ACAD_PLOTSETTINGS
350
18
  3
ACAD_PLOTSTYLENAME
350
E
  3
AcDbVariableDictionary
350
938
  0
DICTIONARY
  5
385
330
2
100
AcDbDictionary
280
     1
281
     1
  3
ACAD_LAYERSTATES
360
386
  0
DICTIONARY
  5
D
102
{ACAD_REACTORS
330
C
102
}
330
C
100
AcDbDictionary
281
     1
  0
DICTIONARY
  5
19
102
{ACAD_REACTORS
330
C
102
}
330
C
100
AcDbDictionary
281
     1
  3
Model
350
21
  3
ﾚｲｱｳﾄ1
350
1D
  0
DICTIONARY
  5
16
102
{ACAD_REACTORS
330
C
102
}
330
C
100
AcDbDictionary
281
     1
  3
Standard
350
17
  0
DICTIONARY
  5
18
102
{ACAD_REACTORS
330
C
102
}
330
C
100
AcDbDictionary
281
     1
  0
ACDBDICTIONARYWDFLT
  5
E
102
{ACAD_REACTORS
330
C
102
}
330
C
100
AcDbDictionary
281
     1
  3
Normal
350
F
100
AcDbDictionaryWithDefault
340
F
  0
DICTIONARY
  5
938
102
{ACAD_REACTORS
330
C
102
}
330
C
100
AcDbDictionary
281
     1
  3
DIMASSOC
350
939
  0
DICTIONARY
  5
386
102
{ACAD_REACTORS
330
385
102
}
330
385
100
AcDbDictionary
281
     1
  0
LAYOUT
  5
21
102
{ACAD_REACTORS
330
19
102
}
330
19
100
AcDbPlotSettings
  1

  2
NEC MultiWriter2360/2360N
  4

  6

 40
0.0
 41
0.0
 42
0.0
 43
0.0
 44
0.0
 45
0.0
 46
0.0
 47
0.0
 48
0.0
 49
0.0
140
0.0
141
0.0
142
1.0
143
1.0
 70
  1712
 72
     0
 73
     0
 74
     0
  7

 75
     0
147
1.0
148
0.0
149
0.0
100
AcDbLayout
  1
Model
 70
     1
 71
     0
 10
0.0
 20
0.0
 11
12.0
 21
9.0
 12
0.0
 22
0.0
 32
0.0
 14
0.0
 24
0.0
 34
0.0
 15
0.0
 25
0.0
 35
0.0
146
0.0
 13
0.0
 23
0.0
 33
0.0
 16
1.0
 26
0.0
 36
0.0
 17
0.0
 27
1.0
 37
0.0
 76
     0
330
1E
  0
LAYOUT
  5
1D
102
{ACAD_REACTORS
330
19
102
}
330
19
100
AcDbPlotSettings
  1

  2
NEC MultiWriter2360/2360N
  4

  6

 40
0.0
 41
0.0
 42
0.0
 43
0.0
 44
0.0
 45
0.0
 46
0.0
 47
0.0
 48
0.0
 49
0.0
140
0.0
141
0.0
142
1.0
143
1.0
 70
   688
 72
     0
 73
     0
 74
     5
  7

 75
    16
147
1.0
148
0.0
149
0.0
100
AcDbLayout
  1
ﾚｲｱｳﾄ1
 70
     1
 71
     1
 10
0.0
 20
0.0
 11
12.0
 21
9.0
 12
0.0
 22
0.0
 32
0.0
 14
0.0
 24
0.0
 34
0.0
 15
420.0
 25
297.0
 35
0.0
146
0.0
 13
0.0
 23
0.0
 33
0.0
 16
1.0
 26
0.0
 36
0.0
 17
0.0
 27
1.0
 37
0.0
 76
     0
330
1A
  0
MLINESTYLE
  5
17
102
{ACAD_REACTORS
330
16
102
}
330
16
100
AcDbMlineStyle
  2
STANDARD
 70
     0
  3

 62
   256
 51
90.0
 52
90.0
 71
     2
 49
0.5
 62
   256
  6
BYLAYER
 49
-0.5
 62
   256
  6
BYLAYER
  0
ACDBPLACEHOLDER
  5
F
102
{ACAD_REACTORS
330
E
102
}
330
E
  0
DICTIONARYVAR
  5
939
102
{ACAD_REACTORS
330
938
102
}
330
938
100
DictionaryVariables
280
     0
  1
0
  0
ENDSEC
  0
EOF
