  0
SECTION
  2
HEADER
  9
$ACADVER
  1
AC1015
  9
$ACADMAINTVER
 70
    13
  9
$DWGCODEPAGE
  3
ANSI_932
  9
$INSBASE
 10
0.0
 20
0.0
 30
0.0
  9
$EXTMIN
 10
1294.459968508133
 20
205.7268151161551
 30
0.0
  9
$EXTMAX
 10
23874.91764055282
 20
25285.68283990626
 30
0.0
  9
$LIMMIN
 10
0.0
 20
0.0
  9
$LIMMAX
 10
420.0
 20
297.0
  9
$ORTHOMODE
 70
     0
  9
$REGENMODE
 70
     1
  9
$FILLMODE
 70
     1
  9
$QTEXTMODE
 70
     0
  9
$MIRRTEXT
 70
     1
  9
$LTSCALE
 40
1.0
  9
$ATTMODE
 70
     1
  9
$TEXTSIZE
 40
2.5
  9
$TRACEWID
 40
1.0
  9
$TEXTSTYLE
  7
Standard
  9
$CLAYER
  8
0
  9
$CELTYPE
  6
ByLayer
  9
$CECOLOR
 62
   256
  9
$CELTSCALE
 40
1.0
  9
$DISPSILH
 70
     0
  9
$DIMSCALE
 40
1.0
  9
$DIMASZ
 40
2.5
  9
$DIMEXO
 40
0.625
  9
$DIMDLI
 40
3.75
  9
$DIMRND
 40
0.0
  9
$DIMDLE
 40
0.0
  9
$DIMEXE
 40
1.25
  9
$DIMTP
 40
0.0
  9
$DIMTM
 40
0.0
  9
$DIMTXT
 40
2.5
  9
$DIMCEN
 40
2.5
  9
$DIMTSZ
 40
0.0
  9
$DIMTOL
 70
     0
  9
$DIMLIM
 70
     0
  9
$DIMTIH
 70
     0
  9
$DIMTOH
 70
     0
  9
$DIMSE1
 70
     0
  9
$DIMSE2
 70
     0
  9
$DIMTAD
 70
     1
  9
$DIMZIN
 70
     8
  9
$DIMBLK
  1

  9
$DIMASO
 70
     1
  9
$DIMSHO
 70
     1
  9
$DIMPOST
  1

  9
$DIMAPOST
  1

  9
$DIMALT
 70
     0
  9
$DIMALTD
 70
     3
  9
$DIMALTF
 40
0.03937007874016
  9
$DIMLFAC
 40
1.0
  9
$DIMTOFL
 70
     1
  9
$DIMTVP
 40
0.0
  9
$DIMTIX
 70
     0
  9
$DIMSOXD
 70
     0
  9
$DIMSAH
 70
     0
  9
$DIMBLK1
  1

  9
$DIMBLK2
  1

  9
$DIMSTYLE
  2
ISO-25
  9
$DIMCLRD
 70
     0
  9
$DIMCLRE
 70
     0
  9
$DIMCLRT
 70
     0
  9
$DIMTFAC
 40
1.0
  9
$DIMGAP
 40
0.625
  9
$DIMJUST
 70
     0
  9
$DIMSD1
 70
     0
  9
$DIMSD2
 70
     0
  9
$DIMTOLJ
 70
     0
  9
$DIMTZIN
 70
     8
  9
$DIMALTZ
 70
     0
  9
$DIMALTTZ
 70
     0
  9
$DIMUPT
 70
     0
  9
$DIMDEC
 70
     2
  9
$DIMTDEC
 70
     2
  9
$DIMALTU
 70
     2
  9
$DIMALTTD
 70
     3
  9
$DIMTXSTY
  7
Standard
  9
$DIMAUNIT
 70
     0
  9
$DIMADEC
 70
     0
  9
$DIMALTRND
 40
0.0
  9
$DIMAZIN
 70
     0
  9
$DIMDSEP
 70
    46
  9
$DIMATFIT
 70
     3
  9
$DIMFRAC
 70
     0
  9
$DIMLDRBLK
  1

  9
$DIMLUNIT
 70
     2
  9
$DIMLWD
 70
    -2
  9
$DIMLWE
 70
    -2
  9
$DIMTMOVE
 70
     0
  9
$LUNITS
 70
     2
  9
$LUPREC
 70
     4
  9
$SKETCHINC
 40
1.0
  9
$FILLETRAD
 40
10.0
  9
$AUNITS
 70
     0
  9
$AUPREC
 70
     0
  9
$MENU
  1
.
  9
$ELEVATION
 40
0.0
  9
$PELEVATION
 40
0.0
  9
$THICKNESS
 40
0.0
  9
$LIMCHECK
 70
     0
  9
$CHAMFERA
 40
10.0
  9
$CHAMFERB
 40
10.0
  9
$CHAMFERC
 40
20.0
  9
$CHAMFERD
 40
0.0
  9
$SKPOLY
 70
     0
  9
$TDCREATE
 40
2455236.659162499
  9
$TDUCREATE
 40
2455236.284162499
  9
$TDUPDATE
 40
2455450.586034653
  9
$TDUUPDATE
 40
2455450.211034653
  9
$TDINDWG
 40
0.0094626505
  9
$TDUSRTIMER
 40
0.0094624653
  9
$USRTIMER
 70
     1
  9
$ANGBASE
 50
0.0
  9
$ANGDIR
 70
     0
  9
$PDMODE
 70
     0
  9
$PDSIZE
 40
0.0
  9
$PLINEWID
 40
0.0
  9
$SPLFRAME
 70
     0
  9
$SPLINETYPE
 70
     6
  9
$SPLINESEGS
 70
     8
  9
$HANDSEED
  5
6004
  9
$SURFTAB1
 70
     6
  9
$SURFTAB2
 70
     6
  9
$SURFTYPE
 70
     6
  9
$SURFU
 70
     6
  9
$SURFV
 70
     6
  9
$UCSBASE
  2

  9
$UCSNAME
  2

  9
$UCSORG
 10
0.0
 20
0.0
 30
0.0
  9
$UCSXDIR
 10
1.0
 20
0.0
 30
0.0
  9
$UCSYDIR
 10
0.0
 20
1.0
 30
0.0
  9
$UCSORTHOREF
  2

  9
$UCSORTHOVIEW
 70
     0
  9
$UCSORGTOP
 10
0.0
 20
0.0
 30
0.0
  9
$UCSORGBOTTOM
 10
0.0
 20
0.0
 30
0.0
  9
$UCSORGLEFT
 10
0.0
 20
0.0
 30
0.0
  9
$UCSORGRIGHT
 10
0.0
 20
0.0
 30
0.0
  9
$UCSORGFRONT
 10
0.0
 20
0.0
 30
0.0
  9
$UCSORGBACK
 10
0.0
 20
0.0
 30
0.0
  9
$PUCSBASE
  2

  9
$PUCSNAME
  2

  9
$PUCSORG
 10
0.0
 20
0.0
 30
0.0
  9
$PUCSXDIR
 10
1.0
 20
0.0
 30
0.0
  9
$PUCSYDIR
 10
0.0
 20
1.0
 30
0.0
  9
$PUCSORTHOREF
  2

  9
$PUCSORTHOVIEW
 70
     0
  9
$PUCSORGTOP
 10
0.0
 20
0.0
 30
0.0
  9
$PUCSORGBOTTOM
 10
0.0
 20
0.0
 30
0.0
  9
$PUCSORGLEFT
 10
0.0
 20
0.0
 30
0.0
  9
$PUCSORGRIGHT
 10
0.0
 20
0.0
 30
0.0
  9
$PUCSORGFRONT
 10
0.0
 20
0.0
 30
0.0
  9
$PUCSORGBACK
 10
0.0
 20
0.0
 30
0.0
  9
$USERI1
 70
     0
  9
$USERI2
 70
     0
  9
$USERI3
 70
     0
  9
$USERI4
 70
     0
  9
$USERI5
 70
     0
  9
$USERR1
 40
0.0
  9
$USERR2
 40
0.0
  9
$USERR3
 40
0.0
  9
$USERR4
 40
0.0
  9
$USERR5
 40
0.0
  9
$WORLDVIEW
 70
     1
  9
$SHADEDGE
 70
     3
  9
$SHADEDIF
 70
    70
  9
$TILEMODE
 70
     1
  9
$MAXACTVP
 70
    64
  9
$PINSBASE
 10
0.0
 20
0.0
 30
0.0
  9
$PLIMCHECK
 70
     0
  9
$PEXTMIN
 10
1.000000000000000E+20
 20
1.000000000000000E+20
 30
1.000000000000000E+20
  9
$PEXTMAX
 10
-1.000000000000000E+20
 20
-1.000000000000000E+20
 30
-1.000000000000000E+20
  9
$PLIMMIN
 10
0.0
 20
0.0
  9
$PLIMMAX
 10
420.0
 20
297.0
  9
$UNITMODE
 70
     0
  9
$VISRETAIN
 70
     1
  9
$PLINEGEN
 70
     0
  9
$PSLTSCALE
 70
     1
  9
$TREEDEPTH
 70
  3020
  9
$CMLSTYLE
  2
Standard
  9
$CMLJUST
 70
     0
  9
$CMLSCALE
 40
20.0
  9
$PROXYGRAPHICS
 70
     1
  9
$MEASUREMENT
 70
     1
  9
$CELWEIGHT
370
    -1
  9
$ENDCAPS
280
     0
  9
$JOINSTYLE
280
     0
  9
$LWDISPLAY
290
     0
  9
$INSUNITS
 70
     4
  9
$HYPERLINKBASE
  1

  9
$STYLESHEET
  1

  9
$XEDIT
290
     1
  9
$CEPSNTYPE
380
     0
  9
$PSTYLEMODE
290
     1
  9
$FINGERPRINTGUID
  2
{9F70917D-061E-40C1-9485-7AD4368FB371}
  9
$VERSIONGUID
  2
{8D98B97E-83F6-420E-85EB-07ADF24BB3FB}
  9
$EXTNAMES
290
     1
  9
$PSVPSCALE
 40
0.0
  9
$OLESTARTUP
290
     0
  0
ENDSEC
  0
SECTION
  2
CLASSES
  0
CLASS
  1
ACDBDICTIONARYWDFLT
  2
AcDbDictionaryWithDefault
  3
AutoCAD 2000
 90
        0
280
     0
281
     0
  0
CLASS
  1
ACDBPLACEHOLDER
  2
AcDbPlaceHolder
  3
AutoCAD 2000
 90
        0
280
     0
281
     0
  0
CLASS
  1
LAYOUT
  2
AcDbLayout
  3
AutoCAD 2000
 90
        0
280
     0
281
     0
  0
CLASS
  1
DICTIONARYVAR
  2
AcDbDictionaryVar
  3
AutoCAD 2000
 90
        0
280
     0
281
     0
  0
ENDSEC
  0
SECTION
  2
TABLES
  0
TABLE
  2
VPORT
  5
8
330
0
100
AcDbSymbolTable
 70
     2
  0
VPORT
  5
6003
330
8
100
AcDbSymbolTableRecord
100
AcDbViewportTableRecord
  2
*Active
 70
     0
 10
0.0
 20
0.0
 11
1.0
 21
1.0
 12
36654.99596690348
 22
12296.31763608285
 13
0.0
 23
0.0
 14
10.0
 24
10.0
 15
10.0
 25
10.0
 16
0.0
 26
0.0
 36
1.0
 17
0.0
 27
0.0
 37
0.0
 40
54769.99535782122
 41
1.663244353182751
 42
50.0
 43
0.0
 44
0.0
 50
0.0
 51
0.0
 71
     0
 72
   100
 73
     1
 74
     3
 75
     0
 76
     0
 77
     0
 78
     0
281
     0
 65
     1
110
0.0
120
0.0
130
0.0
111
1.0
121
0.0
131
0.0
112
0.0
122
1.0
132
0.0
 79
     0
146
0.0
  0
ENDTAB
  0
TABLE
  2
LTYPE
  5
5
330
0
100
AcDbSymbolTable
 70
     4
  0
LTYPE
  5
14
330
5
100
AcDbSymbolTableRecord
100
AcDbLinetypeTableRecord
  2
ByBlock
 70
     0
  3

 72
    65
 73
     0
 40
0.0
  0
LTYPE
  5
15
330
5
100
AcDbSymbolTableRecord
100
AcDbLinetypeTableRecord
  2
ByLayer
 70
     0
  3

 72
    65
 73
     0
 40
0.0
  0
LTYPE
  5
16
330
5
100
AcDbSymbolTableRecord
100
AcDbLinetypeTableRecord
  2
Continuous
 70
     0
  3
Solid line
 72
    65
 73
     0
 40
0.0
  0
LTYPE
  5
1294
330
5
100
AcDbSymbolTableRecord
100
AcDbLinetypeTableRecord
  2
HIDDEN
 70
     0
  3
------------------------
 72
    65
 73
     2
 40
12.6
 49
8.4
 74
     0
 49
-4.2
 74
     0
  0
LTYPE
  5
1878
330
5
100
AcDbSymbolTableRecord
100
AcDbLinetypeTableRecord
  2
DASHDOT
 70
     0
  3
--･--･--･--･--･--･--･--
 72
    65
 73
     4
 40
50.5
 49
30.0
 74
     0
 49
-9.0
 74
     0
 49
2.5
 74
     0
 49
-9.0
 74
     0
  0
LTYPE
  5
1B41
330
5
100
AcDbSymbolTableRecord
100
AcDbLinetypeTableRecord
  2
DIVIDE
 70
     0
  3
--･･--･･--･･--･･--･･--
 72
    65
 73
     6
 40
58.0
 49
30.0
 74
     0
 49
-9.0
 74
     0
 49
2.5
 74
     0
 49
-5.0
 74
     0
 49
2.5
 74
     0
 49
-9.0
 74
     0
  0
ENDTAB
  0
TABLE
  2
LAYER
  5
2
102
{ACAD_XDICTIONARY
360
5A
102
}
330
0
100
AcDbSymbolTable
 70
     3
  0
LAYER
  5
10
330
2
100
AcDbSymbolTableRecord
100
AcDbLayerTableRecord
  2
0
 70
     0
 62
     7
  6
Continuous
370
    -3
390
F
  0
LAYER
  5
55
330
2
100
AcDbSymbolTableRecord
100
AcDbLayerTableRecord
  2
1
 70
     0
 62
     7
  6
Continuous
370
    -3
390
F
  0
LAYER
  5
56
330
2
100
AcDbSymbolTableRecord
100
AcDbLayerTableRecord
  2
DEFPOINTS
 70
     0
 62
     7
  6
Continuous
290
     0
370
    -3
390
F
  0
ENDTAB
  0
TABLE
  2
STYLE
  5
3
330
0
100
AcDbSymbolTable
 70
     2
  0
STYLE
  5
11
330
3
100
AcDbSymbolTableRecord
100
AcDbTextStyleTableRecord
  2
Standard
 70
     0
 40
0.0
 41
1.0
 50
0.0
 71
     0
 42
2.5
  3
txt
  4

  0
STYLE
  5
57
330
3
100
AcDbSymbolTableRecord
100
AcDbTextStyleTableRecord
  2
KANJI
 70
     0
 40
0.0
 41
1.0
 50
0.0
 71
     0
 42
0.2
  3
TXT
  4
BIGFONT
  0
ENDTAB
  0
TABLE
  2
VIEW
  5
6
330
0
100
AcDbSymbolTable
 70
     0
  0
ENDTAB
  0
TABLE
  2
UCS
  5
7
330
0
100
AcDbSymbolTable
 70
     0
  0
ENDTAB
  0
TABLE
  2
APPID
  5
9
330
0
100
AcDbSymbolTable
 70
     2
  0
APPID
  5
12
330
9
100
AcDbSymbolTableRecord
100
AcDbRegAppTableRecord
  2
ACAD
 70
     0
  0
APPID
  5
59
330
9
100
AcDbSymbolTableRecord
100
AcDbRegAppTableRecord
  2
ACAD_PSEXT
 70
     0
  0
ENDTAB
  0
TABLE
  2
DIMSTYLE
  5
A
330
0
100
AcDbSymbolTable
 70
     2
100
AcDbDimStyleTable
 71
     0
  0
DIMSTYLE
105
27
330
A
100
AcDbSymbolTableRecord
100
AcDbDimStyleTableRecord
  2
ISO-25
 70
     0
 41
2.5
 42
0.625
 43
3.75
 44
1.25
 73
     0
 74
     0
 77
     1
 78
     8
140
2.5
141
2.5
143
0.03937007874016
147
0.625
171
     3
172
     1
271
     2
272
     2
274
     3
283
     0
284
     8
340
11
  0
DIMSTYLE
105
58
102
{ACAD_REACTORS
330
5F63
330
5F64
330
5F65
330
5F66
330
5F67
330
5F68
330
5F69
102
}
330
A
100
AcDbSymbolTableRecord
100
AcDbDimStyleTableRecord
  2
Standard
 70
     0
340
11
  0
ENDTAB
  0
TABLE
  2
BLOCK_RECORD
  5
1
330
0
100
AcDbSymbolTable
 70
   105
  0
BLOCK_RECORD
  5
1F
330
1
100
AcDbSymbolTableRecord
100
AcDbBlockTableRecord
  2
*Model_Space
340
22
  0
BLOCK_RECORD
  5
1B
330
1
100
AcDbSymbolTableRecord
100
AcDbBlockTableRecord
  2
*Paper_Space
340
1E
  0
BLOCK_RECORD
  5
23
330
1
100
AcDbSymbolTableRecord
100
AcDbBlockTableRecord
  2
*Paper_Space0
340
26
  0
BLOCK_RECORD
  5
2B
330
1
100
AcDbSymbolTableRecord
100
AcDbBlockTableRecord
  2
_OPEN30
340
0
102
{BLKREFS
331
1253
331
1254
331
125C
331
125D
331
1265
331
1266
331
1274
331
1275
331
1280
331
1281
331
128C
331
128D
331
1560
331
1561
331
1569
331
156A
331
1572
331
1573
331
157D
331
157E
331
1589
331
158A
331
1595
331
1596
331
1822
331
1823
331
182B
331
182C
331
1834
331
1835
331
183F
331
1840
331
184B
331
184C
331
1858
331
1859
331
1864
331
1865
331
1870
331
1871
331
1ABF
331
1AC0
331
1AC8
331
1AC9
331
1AD2
331
1AD3
331
1ADB
331
1ADC
331
1AE4
331
1AE5
331
1AEF
331
1AF0
331
1AFB
331
1AFC
331
1B07
331
1B08
331
1B13
331
1B14
331
1B1F
331
1B20
331
1B2C
331
1B2D
331
1B39
331
1B3A
331
2547
331
2548
331
2550
331
2551
331
2559
331
255A
331
2562
331
2563
331
256B
331
256C
331
2575
331
2576
331
257F
331
2580
331
258B
331
258C
331
2597
331
2598
331
25A3
331
25A4
331
25AF
331
25B0
331
25BB
331
25BC
331
25C7
331
25C8
331
2E6C
331
2E6D
331
2E75
331
2E76
331
2E7E
331
2E7F
331
2E87
331
2E88
331
2E90
331
2E91
331
2E99
331
2E9A
331
2EA4
331
2EA5
331
2EB0
331
2EB1
331
2EBC
331
2EBD
331
2EC8
331
2EC9
331
2EEF
331
2EF0
331
2ED5
331
2ED6
331
2EE2
331
2EE3
331
368F
331
3690
331
3698
331
3699
331
36A1
331
36A2
331
36AA
331
36AB
331
36B4
331
36B5
331
36BE
331
36BF
331
36C8
331
36C9
331
36D3
331
36D4
331
36DF
331
36E0
331
36EB
331
36EC
331
36F7
331
36F8
331
3704
331
3705
331
3711
331
3712
331
371E
331
371F
331
372B
331
372C
331
3738
331
3739
331
532A
331
532B
331
5333
331
5334
331
533C
331
533D
331
5345
331
5346
331
534F
331
5350
331
5359
331
535A
331
5363
331
5364
331
536D
331
536E
331
5377
331
5378
331
5382
331
5383
331
538E
331
538F
331
539A
331
539B
331
5C7B
331
5C7C
331
5C84
331
5C85
331
5C8D
331
5C8E
331
5C97
331
5C98
331
5CA3
331
5CA4
331
5CAF
331
5CB0
331
5CBB
331
5CBC
331
5CC7
331
5CC8
331
5CD3
331
5CD4
331
5CDF
331
5CE0
331
5FC2
331
5FC3
331
5FCB
331
5FCC
331
5FD4
331
5FD5
331
5FDD
331
5FDE
331
5FE6
331
5FE7
331
5FEF
331
5FF0
331
5FF8
331
5FF9
102
}
  0
BLOCK_RECORD
  5
5F6B
330
1
100
AcDbSymbolTableRecord
100
AcDbBlockTableRecord
  2
*D98
340
0
  0
BLOCK_RECORD
  5
5F77
330
1
100
AcDbSymbolTableRecord
100
AcDbBlockTableRecord
  2
*D99
340
0
  0
BLOCK_RECORD
  5
5F83
330
1
100
AcDbSymbolTableRecord
100
AcDbBlockTableRecord
  2
*D100
340
0
  0
BLOCK_RECORD
  5
5F8F
330
1
100
AcDbSymbolTableRecord
100
AcDbBlockTableRecord
  2
*D101
340
0
  0
BLOCK_RECORD
  5
5F9B
330
1
100
AcDbSymbolTableRecord
100
AcDbBlockTableRecord
  2
*D102
340
0
  0
BLOCK_RECORD
  5
5FA7
330
1
100
AcDbSymbolTableRecord
100
AcDbBlockTableRecord
  2
*D103
340
0
  0
BLOCK_RECORD
  5
5FB3
330
1
100
AcDbSymbolTableRecord
100
AcDbBlockTableRecord
  2
*D104
340
0
  0
ENDTAB
  0
ENDSEC
  0
SECTION
  2
BLOCKS
  0
BLOCK
  5
20
330
1F
100
AcDbEntity
  8
0
100
AcDbBlockBegin
  2
*Model_Space
 70
     0
 10
0.0
 20
0.0
 30
0.0
  3
*Model_Space
  1

  0
ENDBLK
  5
21
330
1F
100
AcDbEntity
  8
0
100
AcDbBlockEnd
  0
BLOCK
  5
1C
330
1B
100
AcDbEntity
 67
     1
  8
0
100
AcDbBlockBegin
  2
*Paper_Space
 70
     0
 10
0.0
 20
0.0
 30
0.0
  3
*Paper_Space
  1

  0
ENDBLK
  5
1D
330
1B
100
AcDbEntity
 67
     1
  8
0
100
AcDbBlockEnd
  0
BLOCK
  5
24
330
23
100
AcDbEntity
  8
0
100
AcDbBlockBegin
  2
*Paper_Space0
 70
     0
 10
0.0
 20
0.0
 30
0.0
  3
*Paper_Space0
  1

  0
ENDBLK
  5
25
330
23
100
AcDbEntity
  8
0
100
AcDbBlockEnd
  0
BLOCK
  5
2F
330
2B
100
AcDbEntity
  8
0
 62
     0
100
AcDbBlockBegin
  2
_OPEN30
 70
     2
 10
0.0
 20
0.0
 30
0.0
  3
_OPEN30
  1

  0
LINE
  5
2C
330
2B
100
AcDbEntity
  8
0
  6
ByBlock
 62
     0
100
AcDbLine
 10
-1.0
 20
0.267949
 30
0.0
 11
0.0
 21
0.0
 31
0.0
  0
LINE
  5
2D
330
2B
100
AcDbEntity
  8
0
  6
ByBlock
 62
     0
100
AcDbLine
 10
0.0
 20
0.0
 30
0.0
 11
-1.0
 21
-0.267949
 31
0.0
  0
LINE
  5
2E
330
2B
100
AcDbEntity
  8
0
  6
ByBlock
 62
     0
100
AcDbLine
 10
0.0
 20
0.0
 30
0.0
 11
-1.0
 21
0.0
 31
0.0
  0
ENDBLK
  5
30
330
2B
100
AcDbEntity
  8
0
 62
     0
100
AcDbBlockEnd
  0
BLOCK
  5
5F75
330
5F6B
100
AcDbEntity
  8
0
100
AcDbBlockBegin
  2
*D98
 70
     1
 10
0.0
 20
0.0
 30
0.0
  3
*D98
  1

  0
LINE
  5
5FBF
330
5F6B
100
AcDbEntity
  8
1
  6
Continuous
 62
     0
370
    13
100
AcDbLine
 10
18157.82850963709
 20
19207.59452692173
 30
0.0
 11
19186.39521487427
 21
19207.59452692173
 31
0.0
  0
LINE
  5
5FC0
330
5F6B
100
AcDbEntity
  8
1
  6
Continuous
 62
     0
370
    13
100
AcDbLine
 10
18157.78701132146
 20
9002.029431297152
 30
0.0
 11
19186.39521487427
 21
9002.029431297152
 31
0.0
  0
LINE
  5
5FC1
330
5F6B
100
AcDbEntity
  8
1
  6
Continuous
 62
     0
370
    13
100
AcDbLine
 10
19186.21521487427
 20
18707.59452692173
 30
0.0
 11
19186.21521487427
 21
9502.029431297152
 31
0.0
  0
INSERT
  5
5FC2
330
5F6B
100
AcDbEntity
  8
1
  6
Continuous
 62
     0
370
    13
100
AcDbBlockReference
  2
_OPEN30
 10
19186.21521487427
 20
19207.59452692173
 30
0.0
 41
500.0
 42
500.0
 43
500.0
 50
90.0
  0
INSERT
  5
5FC3
330
5F6B
100
AcDbEntity
  8
1
  6
Continuous
 62
     0
370
    13
100
AcDbBlockReference
  2
_OPEN30
 10
19186.21521487427
 20
9002.029431297152
 30
0.0
 41
500.0
 42
500.0
 43
500.0
 50
270.0
  0
MTEXT
  5
5FC4
330
5F6B
100
AcDbEntity
  8
1
  6
Continuous
 62
     0
370
    13
100
AcDbMText
 10
18936.21521487427
 20
14104.81197910944
 30
0.0
 40
400.0
 41
0.0
 71
     5
 72
     1
  1
\A1;142
 11
0.0000000000000001
 21
1.0
 31
0.0
 73
     1
 44
1.0
  0
POINT
  5
5FC5
330
5F6B
100
AcDbEntity
  8
DEFPOINTS
  6
Continuous
 62
     0
100
AcDbPoint
 10
18107.82850963709
 20
19207.59452692173
 30
0.0
  0
POINT
  5
5FC6
330
5F6B
100
AcDbEntity
  8
DEFPOINTS
  6
Continuous
 62
     0
100
AcDbPoint
 10
18107.78701132146
 20
9002.029431297152
 30
0.0
  0
POINT
  5
5FC7
330
5F6B
100
AcDbEntity
  8
DEFPOINTS
  6
Continuous
 62
     0
100
AcDbPoint
 10
19186.21521487427
 20
9002.029431297152
 30
0.0
  0
ENDBLK
  5
5F76
330
5F6B
100
AcDbEntity
  8
0
100
AcDbBlockEnd
  0
BLOCK
  5
5F81
330
5F77
100
AcDbEntity
  8
0
100
AcDbBlockBegin
  2
*D99
 70
     1
 10
0.0
 20
0.0
 30
0.0
  3
*D99
  1

  0
LINE
  5
5FC8
330
5F77
100
AcDbEntity
  8
1
  6
Continuous
 62
     0
370
    13
100
AcDbLine
 10
16669.40790618793
 20
18985.00325857826
 30
0.0
 11
16669.40790618793
 21
21554.3345811994
 31
0.0
  0
LINE
  5
5FC9
330
5F77
100
AcDbEntity
  8
1
  6
Continuous
 62
     0
370
    13
100
AcDbLine
 10
18107.82850963709
 20
19257.59452692173
 30
0.0
 11
18107.82850963709
 21
21554.3345811994
 31
0.0
  0
LINE
  5
5FCA
330
5F77
100
AcDbEntity
  8
1
  6
Continuous
 62
     0
370
    13
100
AcDbLine
 10
17169.40790618793
 20
21554.1545811994
 30
0.0
 11
17607.82850963709
 21
21554.1545811994
 31
0.0
  0
INSERT
  5
5FCB
330
5F77
100
AcDbEntity
  8
1
  6
Continuous
 62
     0
370
    13
100
AcDbBlockReference
  2
_OPEN30
 10
16669.40790618793
 20
21554.1545811994
 30
0.0
 41
500.0
 42
500.0
 43
500.0
 50
180.0
  0
INSERT
  5
5FCC
330
5F77
100
AcDbEntity
  8
1
  6
Continuous
 62
     0
370
    13
100
AcDbBlockReference
  2
_OPEN30
 10
18107.82850963709
 20
21554.1545811994
 30
0.0
 41
500.0
 42
500.0
 43
500.0
  0
MTEXT
  5
5FCD
330
5F77
100
AcDbEntity
  8
1
  6
Continuous
 62
     0
370
    13
100
AcDbMText
 10
17388.6182079125
 20
21804.1545811994
 30
0.0
 40
400.0
 41
0.0
 71
     5
 72
     1
  1
\A1;20
 73
     1
 44
1.0
  0
POINT
  5
5FCE
330
5F77
100
AcDbEntity
  8
DEFPOINTS
  6
Continuous
 62
     0
100
AcDbPoint
 10
16669.40790618793
 20
18935.00325857826
 30
0.0
  0
POINT
  5
5FCF
330
5F77
100
AcDbEntity
  8
DEFPOINTS
  6
Continuous
 62
     0
100
AcDbPoint
 10
18107.82850963709
 20
19207.59452692173
 30
0.0
  0
POINT
  5
5FD0
330
5F77
100
AcDbEntity
  8
DEFPOINTS
  6
Continuous
 62
     0
100
AcDbPoint
 10
18107.82850963709
 20
21554.1545811994
 30
0.0
  0
ENDBLK
  5
5F82
330
5F77
100
AcDbEntity
  8
0
100
AcDbBlockEnd
  0
BLOCK
  5
5F8D
330
5F83
100
AcDbEntity
  8
0
100
AcDbBlockBegin
  2
*D100
 70
     1
 10
0.0
 20
0.0
 30
0.0
  3
*D100
  1

  0
LINE
  5
5FD1
330
5F83
100
AcDbEntity
  8
1
  6
Continuous
 62
     0
370
    13
100
AcDbLine
 10
6934.857904608564
 20
14838.059818494
 30
0.0
 11
6934.857904608564
 21
20026.94584531931
 31
0.0
  0
LINE
  5
5FD2
330
5F83
100
AcDbEntity
  8
1
  6
Continuous
 62
     0
370
    13
100
AcDbLine
 10
10530.89916451857
 20
14838.05981849398
 30
0.0
 11
10530.89916451857
 21
20026.94584531931
 31
0.0
  0
LINE
  5
5FD3
330
5F83
100
AcDbEntity
  8
1
  6
Continuous
 62
     0
370
    13
100
AcDbLine
 10
7434.857904608564
 20
20026.76584531931
 30
0.0
 11
10030.89916451857
 21
20026.76584531931
 31
0.0
  0
INSERT
  5
5FD4
330
5F83
100
AcDbEntity
  8
1
  6
Continuous
 62
     0
370
    13
100
AcDbBlockReference
  2
_OPEN30
 10
6934.857904608564
 20
20026.76584531931
 30
0.0
 41
500.0
 42
500.0
 43
500.0
 50
180.0
  0
INSERT
  5
5FD5
330
5F83
100
AcDbEntity
  8
1
  6
Continuous
 62
     0
370
    13
100
AcDbBlockReference
  2
_OPEN30
 10
10530.89916451857
 20
20026.76584531931
 30
0.0
 41
500.0
 42
500.0
 43
500.0
  0
MTEXT
  5
5FD6
330
5F83
100
AcDbEntity
  8
1
  6
Continuous
 62
     0
370
    13
100
AcDbMText
 10
8740.460413221036
 20
20276.76584531931
 30
0.0
 40
400.0
 41
0.0
 71
     5
 72
     1
  1
\A1;50
 73
     1
 44
1.0
  0
POINT
  5
5FD7
330
5F83
100
AcDbEntity
  8
DEFPOINTS
  6
Continuous
 62
     0
100
AcDbPoint
 10
6934.857904608564
 20
14788.059818494
 30
0.0
  0
POINT
  5
5FD8
330
5F83
100
AcDbEntity
  8
DEFPOINTS
  6
Continuous
 62
     0
100
AcDbPoint
 10
10530.89916451857
 20
14788.05981849398
 30
0.0
  0
POINT
  5
5FD9
330
5F83
100
AcDbEntity
  8
DEFPOINTS
  6
Continuous
 62
     0
100
AcDbPoint
 10
10530.89916451857
 20
20026.76584531931
 30
0.0
  0
ENDBLK
  5
5F8E
330
5F83
100
AcDbEntity
  8
0
100
AcDbBlockEnd
  0
BLOCK
  5
5F99
330
5F8F
100
AcDbEntity
  8
0
100
AcDbBlockBegin
  2
*D101
 70
     1
 10
0.0
 20
0.0
 30
0.0
  3
*D101
  1

  0
LINE
  5
5FDA
330
5F8F
100
AcDbEntity
  8
1
  6
Continuous
 62
     0
370
    13
100
AcDbLine
 10
6575.253778617611
 20
18068.70416146806
 30
0.0
 11
6575.253778617611
 21
20807.11498299428
 31
0.0
  0
LINE
  5
5FDB
330
5F8F
100
AcDbEntity
  8
1
  6
Continuous
 62
     0
370
    13
100
AcDbLine
 10
10890.5032905096
 20
18075.79591443468
 30
0.0
 11
10890.5032905096
 21
20807.11498299428
 31
0.0
  0
LINE
  5
5FDC
330
5F8F
100
AcDbEntity
  8
1
  6
Continuous
 62
     0
370
    13
100
AcDbLine
 10
7075.253778617611
 20
20806.93498299428
 30
0.0
 11
10390.5032905096
 21
20806.93498299428
 31
0.0
  0
INSERT
  5
5FDD
330
5F8F
100
AcDbEntity
  8
1
  6
Continuous
 62
     0
370
    13
100
AcDbBlockReference
  2
_OPEN30
 10
6575.253778617611
 20
20806.93498299428
 30
0.0
 41
500.0
 42
500.0
 43
500.0
 50
180.0
  0
INSERT
  5
5FDE
330
5F8F
100
AcDbEntity
  8
1
  6
Continuous
 62
     0
370
    13
100
AcDbBlockReference
  2
_OPEN30
 10
10890.5032905096
 20
20806.93498299428
 30
0.0
 41
500.0
 42
500.0
 43
500.0
  0
MTEXT
  5
5FDF
330
5F8F
100
AcDbEntity
  8
1
  6
Continuous
 62
     0
370
    13
100
AcDbMText
 10
8792.751213313051
 20
21056.93498299427
 30
0.0
 40
400.0
 41
0.0
 71
     5
 72
     1
  1
\A1;60
 73
     1
 44
1.0
  0
POINT
  5
5FE0
330
5F8F
100
AcDbEntity
  8
DEFPOINTS
  6
Continuous
 62
     0
100
AcDbPoint
 10
6575.253778617611
 20
18018.70416146806
 30
0.0
  0
POINT
  5
5FE1
330
5F8F
100
AcDbEntity
  8
DEFPOINTS
  6
Continuous
 62
     0
100
AcDbPoint
 10
10890.5032905096
 20
18025.79591443468
 30
0.0
  0
POINT
  5
5FE2
330
5F8F
100
AcDbEntity
  8
DEFPOINTS
  6
Continuous
 62
     0
100
AcDbPoint
 10
10890.5032905096
 20
20806.93498299428
 30
0.0
  0
ENDBLK
  5
5F9A
330
5F8F
100
AcDbEntity
  8
0
100
AcDbBlockEnd
  0
BLOCK
  5
5FA5
330
5F9B
100
AcDbEntity
  8
0
100
AcDbBlockBegin
  2
*D102
 70
     1
 10
0.0
 20
0.0
 30
0.0
  3
*D102
  1

  0
LINE
  5
5FE3
330
5F9B
100
AcDbEntity
  8
1
  6
Continuous
 62
     0
370
    13
100
AcDbLine
 10
4960.631252919643
 20
18897.99040093072
 30
0.0
 11
4960.631252919643
 21
21554.1545811994
 31
0.0
  0
LINE
  5
5FE4
330
5F9B
100
AcDbEntity
  8
1
  6
Continuous
 62
     0
370
    13
100
AcDbLine
 10
12505.12581621084
 20
18897.99040093072
 30
0.0
 11
12505.12581621084
 21
21554.1545811994
 31
0.0
  0
LINE
  5
5FE5
330
5F9B
100
AcDbEntity
  8
1
  6
Continuous
 62
     0
370
    13
100
AcDbLine
 10
5460.631252919643
 20
21553.9745811994
 30
0.0
 11
12005.12581621084
 21
21553.9745811994
 31
0.0
  0
INSERT
  5
5FE6
330
5F9B
100
AcDbEntity
  8
1
  6
Continuous
 62
     0
370
    13
100
AcDbBlockReference
  2
_OPEN30
 10
4960.631252919643
 20
21553.9745811994
 30
0.0
 41
500.0
 42
500.0
 43
500.0
 50
180.0
  0
INSERT
  5
5FE7
330
5F9B
100
AcDbEntity
  8
1
  6
Continuous
 62
     0
370
    13
100
AcDbBlockReference
  2
_OPEN30
 10
12505.12581621084
 20
21553.9745811994
 30
0.0
 41
500.0
 42
500.0
 43
500.0
  0
MTEXT
  5
5FE8
330
5F9B
100
AcDbEntity
  8
1
  6
Continuous
 62
     0
370
    13
100
AcDbMText
 10
8750.356883945613
 20
21803.9745811994
 30
0.0
 40
400.0
 41
0.0
 71
     5
 72
     1
  1
\A1;105
 73
     1
 44
1.0
  0
POINT
  5
5FE9
330
5F9B
100
AcDbEntity
  8
DEFPOINTS
  6
Continuous
 62
     0
100
AcDbPoint
 10
4960.631252919643
 20
18847.99040093072
 30
0.0
  0
POINT
  5
5FEA
330
5F9B
100
AcDbEntity
  8
DEFPOINTS
  6
Continuous
 62
     0
100
AcDbPoint
 10
12505.12581621084
 20
18847.99040093072
 30
0.0
  0
POINT
  5
5FEB
330
5F9B
100
AcDbEntity
  8
DEFPOINTS
  6
Continuous
 62
     0
100
AcDbPoint
 10
12505.12581621084
 20
21553.9745811994
 30
0.0
  0
ENDBLK
  5
5FA6
330
5F9B
100
AcDbEntity
  8
0
100
AcDbBlockEnd
  0
BLOCK
  5
5FB1
330
5FA7
100
AcDbEntity
  8
0
100
AcDbBlockBegin
  2
*D103
 70
     1
 10
0.0
 20
0.0
 30
0.0
  3
*D103
  1

  0
LINE
  5
5FEC
330
5FA7
100
AcDbEntity
  8
1
  6
Continuous
 62
     0
370
    13
100
AcDbLine
 10
10377.20649752364
 20
15003.8222940886
 30
0.0
 11
14141.46328313187
 21
15003.8222940886
 31
0.0
  0
LINE
  5
5FED
330
5FA7
100
AcDbEntity
  8
1
  6
Continuous
 62
     0
370
    13
100
AcDbLine
 10
10365.13668892398
 20
13205.80166413358
 30
0.0
 11
14141.46328313187
 21
13205.80166413358
 31
0.0
  0
LINE
  5
5FEE
330
5FA7
100
AcDbEntity
  8
1
  6
Continuous
 62
     0
370
    13
100
AcDbLine
 10
14141.28328313187
 20
14503.8222940886
 30
0.0
 11
14141.28328313187
 21
13705.80166413358
 31
0.0
  0
INSERT
  5
5FEF
330
5FA7
100
AcDbEntity
  8
1
  6
Continuous
 62
     0
370
    13
100
AcDbBlockReference
  2
_OPEN30
 10
14141.28328313187
 20
15003.8222940886
 30
0.0
 41
500.0
 42
500.0
 43
500.0
 50
90.0
  0
INSERT
  5
5FF0
330
5FA7
100
AcDbEntity
  8
1
  6
Continuous
 62
     0
370
    13
100
AcDbBlockReference
  2
_OPEN30
 10
14141.28328313187
 20
13205.80166413358
 30
0.0
 41
500.0
 42
500.0
 43
500.0
 50
270.0
  0
MTEXT
  5
5FF1
330
5FA7
100
AcDbEntity
  8
1
  6
Continuous
 62
     0
370
    13
100
AcDbMText
 10
13891.28328313186
 20
14104.8119791111
 30
0.0
 40
400.0
 41
0.0
 71
     5
 72
     1
  1
\A1;25
 11
0.0000000000000001
 21
1.0
 31
0.0
 73
     1
 44
1.0
  0
POINT
  5
5FF2
330
5FA7
100
AcDbEntity
  8
DEFPOINTS
  6
Continuous
 62
     0
100
AcDbPoint
 10
10327.20649752364
 20
15003.8222940886
 30
0.0
  0
POINT
  5
5FF3
330
5FA7
100
AcDbEntity
  8
DEFPOINTS
  6
Continuous
 62
     0
100
AcDbPoint
 10
10315.13668892398
 20
13205.80166413358
 30
0.0
  0
POINT
  5
5FF4
330
5FA7
100
AcDbEntity
  8
DEFPOINTS
  6
Continuous
 62
     0
100
AcDbPoint
 10
14141.28328313187
 20
13205.80166413358
 30
0.0
  0
ENDBLK
  5
5FB2
330
5FA7
100
AcDbEntity
  8
0
100
AcDbBlockEnd
  0
BLOCK
  5
5FBD
330
5FB3
100
AcDbEntity
  8
0
100
AcDbBlockBegin
  2
*D104
 70
     1
 10
0.0
 20
0.0
 30
0.0
  3
*D104
  1

  0
LINE
  5
5FF5
330
5FB3
100
AcDbEntity
  8
1
  6
Continuous
 62
     0
370
    13
100
AcDbLine
 10
11276.21681250113
 20
17700.85323902111
 30
0.0
 11
15040.47359810939
 21
17700.85323902111
 31
0.0
  0
LINE
  5
5FF6
330
5FB3
100
AcDbEntity
  8
1
  6
Continuous
 62
     0
370
    13
100
AcDbLine
 10
11264.14700390148
 20
10508.7707192011
 30
0.0
 11
15040.47359810939
 21
10508.77071920109
 31
0.0
  0
LINE
  5
5FF7
330
5FB3
100
AcDbEntity
  8
1
  6
Continuous
 62
     0
370
    13
100
AcDbLine
 10
15040.29359810939
 20
17200.85323902111
 30
0.0
 11
15040.29359810939
 21
11008.77071920109
 31
0.0
  0
INSERT
  5
5FF8
330
5FB3
100
AcDbEntity
  8
1
  6
Continuous
 62
     0
370
    13
100
AcDbBlockReference
  2
_OPEN30
 10
15040.29359810939
 20
17700.85323902111
 30
0.0
 41
500.0
 42
500.0
 43
500.0
 50
90.0
  0
INSERT
  5
5FF9
330
5FB3
100
AcDbEntity
  8
1
  6
Continuous
 62
     0
370
    13
100
AcDbBlockReference
  2
_OPEN30
 10
15040.29359810939
 20
10508.77071920109
 30
0.0
 41
500.0
 42
500.0
 43
500.0
 50
270.0
  0
MTEXT
  5
5FFA
330
5FB3
100
AcDbEntity
  8
1
  6
Continuous
 62
     0
370
    13
100
AcDbMText
 10
14790.29359810939
 20
14104.81197911111
 30
0.0
 40
400.0
 41
0.0
 71
     5
 72
     1
  1
\A1;100
 11
0.0000000000000001
 21
1.0
 31
0.0
 73
     1
 44
1.0
  0
POINT
  5
5FFB
330
5FB3
100
AcDbEntity
  8
DEFPOINTS
  6
Continuous
 62
     0
100
AcDbPoint
 10
11226.21681250113
 20
17700.85323902111
 30
0.0
  0
POINT
  5
5FFC
330
5FB3
100
AcDbEntity
  8
DEFPOINTS
  6
Continuous
 62
     0
100
AcDbPoint
 10
11214.14700390148
 20
10508.7707192011
 30
0.0
  0
POINT
  5
5FFD
330
5FB3
100
AcDbEntity
  8
DEFPOINTS
  6
Continuous
 62
     0
100
AcDbPoint
 10
15040.29359810939
 20
10508.77071920109
 30
0.0
  0
ENDBLK
  5
5FBE
330
5FB3
100
AcDbEntity
  8
0
100
AcDbBlockEnd
  0
ENDSEC
  0
SECTION
  2
ENTITIES
  0
LINE
  5
5E2B
330
1F
100
AcDbEntity
  8
0
370
    13
100
AcDbLine
 10
1294.459968508133
 20
25285.68283990626
 30
0.0
 11
23874.91764055282
 21
25285.68283990626
 31
0.0
  0
LINE
  5
5E2C
330
1F
100
AcDbEntity
  8
1
  6
Continuous
 62
     7
370
    13
100
AcDbLine
 10
4050.158746070724
 20
25285.68283990626
 30
0.0
 11
4050.158746070724
 21
23448.5503215313
 31
0.0
  0
LINE
  5
5E2D
330
1F
100
AcDbEntity
  8
1
  6
Continuous
 62
     7
370
    13
100
AcDbLine
 10
1294.459968508133
 20
23448.5503215313
 30
0.0
 11
23874.91764055119
 21
23448.5503215313
 31
0.0
  0
LINE
  5
5E2E
330
1F
100
AcDbEntity
  8
1
  6
Continuous
 62
     7
370
    13
100
AcDbLine
 10
1294.459968508133
 20
25285.68283990626
 30
0.0
 11
1294.459968508133
 21
205.7268151161551
 31
0.0
  0
LINE
  5
5E2F
330
1F
100
AcDbEntity
  8
0
370
    13
100
AcDbLine
 10
1294.459968508133
 20
205.7268151161551
 30
0.0
 11
23874.91764055282
 21
205.7268151161551
 31
0.0
  0
LINE
  5
5E30
330
1F
100
AcDbEntity
  8
1
  6
Continuous
 62
     7
370
    13
100
AcDbLine
 10
23874.91764055282
 20
25285.68283990626
 30
0.0
 11
23874.91764055282
 21
205.7268151161551
 31
0.0
  0
LINE
  5
5E31
330
1F
100
AcDbEntity
  8
1
  6
Continuous
 62
     7
370
    13
100
AcDbLine
 10
10436.11758582468
 20
13242.91065230916
 30
0.0
 11
12881.70937021917
 21
10866.16939308625
 31
0.0
  0
LINE
  5
5E32
330
1F
100
AcDbEntity
  8
1
  6
Continuous
 62
     7
370
    13
100
AcDbLine
 10
12881.70937021917
 20
10866.16939308625
 30
0.0
 11
13557.76512708223
 21
10866.16939308625
 31
0.0
  0
TEXT
  5
5E33
330
1F
100
AcDbEntity
  8
1
  6
Continuous
 62
     7
370
    13
100
AcDbText
 10
12881.70937021917
 20
10902.12980568538
 30
0.0
 40
215.7624755946
  1
通線孔
 41
0.944444
  7
KANJI
100
AcDbText
  0
LINE
  5
5E34
330
1F
100
AcDbEntity
  8
1
  6
Continuous
 62
     7
370
    13
100
AcDbLine
 10
10436.11758582468
 20
13242.91065230916
 30
0.0
 11
10586.81911644828
 21
13158.74854306005
 31
0.0
  0
LINE
  5
5E35
330
1F
100
AcDbEntity
  8
1
  6
Continuous
 62
     7
370
    13
100
AcDbLine
 10
10436.11758582468
 20
13242.91065230916
 30
0.0
 11
10524.54783644716
 21
13094.67334491826
 31
0.0
  0
LINE
  5
5E36
330
1F
100
AcDbEntity
  8
1
  6
DASHDOT
 62
     7
370
    13
100
AcDbLine
 10
8732.878534563585
 20
8791.073855977229
 30
0.0
 11
8732.878534563585
 21
19736.80198329115
 31
0.0
  0
LINE
  5
5E37
330
1F
100
AcDbEntity
  8
1
  6
Continuous
 62
     7
370
    13
100
AcDbLine
 10
7290.371030222829
 20
12011.03112393013
 30
0.0
 11
7506.133505817444
 21
12298.71442472292
 31
0.0
  0
LINE
  5
5E38
330
1F
100
AcDbEntity
  8
1
  6
Continuous
 62
     7
370
    13
100
AcDbLine
 10
7506.133505817444
 20
12298.71442472292
 30
0.0
 11
7398.252268020151
 21
12298.71442472292
 31
0.0
  0
LINE
  5
5E39
330
1F
100
AcDbEntity
  8
1
  6
Continuous
 62
     7
370
    13
100
AcDbLine
 10
7398.252268020151
 20
12298.71442472292
 30
0.0
 11
7398.252268020151
 21
12658.31855071391
 31
0.0
  0
LINE
  5
5E3A
330
1F
100
AcDbEntity
  8
1
  6
Continuous
 62
     7
370
    13
100
AcDbLine
 10
7398.252268020151
 20
12658.31855071391
 30
0.0
 11
7182.489792425563
 21
12658.31855071391
 31
0.0
  0
LINE
  5
5E3B
330
1F
100
AcDbEntity
  8
1
  6
Continuous
 62
     7
370
    13
100
AcDbLine
 10
7182.489792425563
 20
12658.31855071391
 30
0.0
 11
7182.489792425563
 21
12298.71442472292
 31
0.0
  0
LINE
  5
5E3C
330
1F
100
AcDbEntity
  8
1
  6
Continuous
 62
     7
370
    13
100
AcDbLine
 10
7182.489792425563
 20
12298.71442472292
 30
0.0
 11
7074.608554628269
 21
12298.71442472292
 31
0.0
  0
LINE
  5
5E3D
330
1F
100
AcDbEntity
  8
1
  6
Continuous
 62
     7
370
    13
100
AcDbLine
 10
7074.608554628269
 20
12298.71442472292
 30
0.0
 11
7290.371030222829
 21
12011.03112393013
 31
0.0
  0
LINE
  5
5E3E
330
1F
100
AcDbEntity
  8
1
  6
Continuous
 62
     7
370
    13
100
AcDbLine
 10
10367.63889132067
 20
15910.74389983524
 30
0.0
 11
10151.87641572605
 21
16198.42720062803
 31
0.0
  0
LINE
  5
5E3F
330
1F
100
AcDbEntity
  8
1
  6
Continuous
 62
     7
370
    13
100
AcDbLine
 10
10259.75765352338
 20
15910.74389983524
 30
0.0
 11
10367.63889132067
 21
15910.74389983524
 31
0.0
  0
LINE
  5
5E40
330
1F
100
AcDbEntity
  8
1
  6
Continuous
 62
     7
370
    13
100
AcDbLine
 10
10259.75765352338
 20
15551.13977384424
 30
0.0
 11
10259.75765352338
 21
15910.74389983524
 31
0.0
  0
LINE
  5
5E41
330
1F
100
AcDbEntity
  8
1
  6
Continuous
 62
     7
370
    13
100
AcDbLine
 10
10043.99517792876
 20
15551.13977384424
 30
0.0
 11
10259.75765352338
 21
15551.13977384424
 31
0.0
  0
LINE
  5
5E42
330
1F
100
AcDbEntity
  8
1
  6
Continuous
 62
     7
370
    13
100
AcDbLine
 10
10043.99517792876
 20
15910.74389983524
 30
0.0
 11
10043.99517792876
 21
15551.13977384424
 31
0.0
  0
LINE
  5
5E43
330
1F
100
AcDbEntity
  8
1
  6
Continuous
 62
     7
370
    13
100
AcDbLine
 10
9936.113940131443
 20
15910.74389983524
 30
0.0
 11
10043.99517792876
 21
15910.74389983524
 31
0.0
  0
LINE
  5
5E44
330
1F
100
AcDbEntity
  8
1
  6
Continuous
 62
     7
370
    13
100
AcDbLine
 10
10151.87641572605
 20
16198.42720062803
 30
0.0
 11
9936.113940131443
 21
15910.74389983524
 31
0.0
  0
TEXT
  5
5E45
330
1F
100
AcDbEntity
  8
1
  6
Continuous
 62
     7
370
    13
100
AcDbText
 10
7420.61446635722
 20
13022.90916327781
 30
0.0
 40
287.6833007928
  1
Ｖ
 50
180.0
 41
0.9166669999999999
  7
KANJI
100
AcDbText
  0
TEXT
  5
5E46
330
1F
100
AcDbEntity
  8
1
  6
Continuous
 62
     7
370
    13
100
AcDbText
 10
9846.257715307409
 20
15201.04789619614
 30
0.0
 40
287.6833007928
  1
3830
 41
0.55
  7
KANJI
100
AcDbText
  0
LINE
  5
5E47
330
1F
100
AcDbEntity
  8
1
  6
DASHDOT
 62
     7
370
    13
100
AcDbLine
 10
9158.931102085684
 20
10742.51340109527
 30
0.0
 11
8336.234823992651
 21
10742.51340109527
 31
0.0
  0
LINE
  5
5E48
330
1F
100
AcDbEntity
  8
1
  6
DASHDOT
 62
     7
370
    13
100
AcDbLine
 10
10095.39476215123
 20
11102.11745516488
 30
0.0
 11
9058.634490672121
 21
11102.11745516488
 31
0.0
  0
LINE
  5
5E49
330
1F
100
AcDbEntity
  8
1
  6
DASHDOT
 62
     7
370
    13
100
AcDbLine
 10
7869.828632185178
 20
11601.58378037079
 30
0.0
 11
7869.828632185178
 21
10564.82350889168
 31
0.0
  0
LINE
  5
5E4A
330
1F
100
AcDbEntity
  8
1
  6
DASHDOT
 62
     7
370
    13
100
AcDbLine
 10
9595.928149261483
 20
11469.88114261516
 30
0.0
 11
9595.928149261483
 21
10734.11585362175
 31
0.0
  0
LINE
  5
5E4B
330
1F
100
AcDbEntity
  8
1
  6
DASHDOT
 62
     7
370
    13
100
AcDbLine
 10
9158.931102085684
 20
11983.14763576419
 30
0.0
 11
8336.234823992651
 21
11983.14763576419
 31
0.0
  0
LINE
  5
5E4C
330
1F
100
AcDbEntity
  8
1
  6
DASHDOT
 62
     7
370
    13
100
AcDbLine
 10
6575.253778617597
 20
10224.82197917568
 30
0.0
 11
6575.253778617597
 21
10820.53268074369
 31
0.0
  0
LINE
  5
5E4D
330
1F
100
AcDbEntity
  8
1
  6
DASHDOT
 62
     7
370
    13
100
AcDbLine
 10
6251.610065225687
 20
10508.7707192011
 30
0.0
 11
6920.447200784984
 21
10508.7707192011
 31
0.0
  0
LINE
  5
5E4E
330
1F
100
AcDbEntity
  8
1
  6
DASHDOT
 62
     7
370
    13
100
AcDbLine
 10
6575.253778617597
 20
17401.71798522935
 30
0.0
 11
6575.253778617597
 21
18018.70416146806
 31
0.0
  0
LINE
  5
5E4F
330
1F
100
AcDbEntity
  8
1
  6
DASHDOT
 62
     7
370
    13
100
AcDbLine
 10
6251.610065225687
 20
17700.85323902111
 30
0.0
 11
6906.263622927014
 21
17700.85323902111
 31
0.0
  0
LINE
  5
5E50
330
1F
100
AcDbEntity
  8
1
  6
DASHDOT
 62
     7
370
    13
100
AcDbLine
 10
10593.9967428827
 20
17700.85323902111
 30
0.0
 11
11214.14700390148
 21
17700.85323902111
 31
0.0
  0
LINE
  5
5E51
330
1F
100
AcDbEntity
  8
1
  6
DASHDOT
 62
     7
370
    13
100
AcDbLine
 10
10890.5032905096
 20
17394.62623226273
 30
0.0
 11
10890.5032905096
 21
18025.79591443468
 31
0.0
  0
LINE
  5
5E52
330
1F
100
AcDbEntity
  8
1
  6
DASHDOT
 62
     7
370
    13
100
AcDbLine
 10
9134.538506933052
 20
17988.53653981391
 30
0.0
 11
8305.18969635159
 21
17988.53653981391
 31
0.0
  0
LINE
  5
5E53
330
1F
100
AcDbEntity
  8
1
  6
DASHDOT
 62
     7
370
    13
100
AcDbLine
 10
9595.928149261483
 20
16608.04017784638
 30
0.0
 11
9595.928149261483
 21
17644.80044932549
 31
0.0
  0
LINE
  5
5E54
330
1F
100
AcDbEntity
  8
1
  6
DASHDOT
 62
     7
370
    13
100
AcDbLine
 10
12955.25941786964
 20
14104.8119791111
 30
0.0
 11
4804.134342200093
 21
14104.8119791111
 31
0.0
  0
LINE
  5
5E55
330
1F
100
AcDbEntity
  8
1
  6
DASHDOT
 62
     7
370
    13
100
AcDbLine
 10
7370.362306977565
 20
17107.50650305399
 30
0.0
 11
8407.122578456707
 21
17107.50650305399
 31
0.0
  0
LINE
  5
5E56
330
1F
100
AcDbEntity
  8
1
  6
DASHDOT
 62
     7
370
    13
100
AcDbLine
 10
7869.828632185178
 20
16739.7428156037
 30
0.0
 11
7869.828632185178
 21
17475.5081765168
 31
0.0
  0
LINE
  5
5E57
330
1F
100
AcDbEntity
  8
1
  6
DASHDOT
 62
     7
370
    13
100
AcDbLine
 10
9228.164749491698
 20
17107.50650305399
 30
0.0
 11
9963.930110404792
 21
17107.50650305399
 31
0.0
  0
LINE
  5
5E58
330
1F
100
AcDbEntity
  8
1
  6
DASHDOT
 62
     7
370
    13
100
AcDbLine
 10
9158.931030164328
 20
16747.90216130221
 30
0.0
 11
8336.234680151596
 21
16747.90216130221
 31
0.0
  0
LINE
  5
5E59
330
1F
100
AcDbEntity
  8
1
  6
DASHDOT
 62
     7
370
    13
100
AcDbLine
 10
8242.482288464497
 20
11102.11745516488
 30
0.0
 11
7448.907903228624
 21
11102.11745516488
 31
0.0
  0
LINE
  5
5E5A
330
1F
100
AcDbEntity
  8
1
  6
DASHDOT
 62
     7
370
    13
100
AcDbLine
 10
11214.14700390148
 20
10508.7707192011
 30
0.0
 11
10586.90498991438
 21
10508.7707192011
 31
0.0
  0
LINE
  5
5E5B
330
1F
100
AcDbEntity
  8
1
  6
DASHDOT
 62
     7
370
    13
100
AcDbLine
 10
10890.5032905096
 20
10210.6384013177
 30
0.0
 11
10890.5032905096
 21
10813.4409277754
 31
0.0
  0
LINE
  5
5E5C
330
1F
100
AcDbEntity
  8
1
  6
Continuous
 62
     7
370
    13
100
AcDbLine
 10
8409.234677332278
 20
16747.90237706297
 30
0.0
 11
8409.234749253664
 21
17107.50650305399
 31
0.0
  0
LINE
  5
5E5D
330
1F
100
AcDbEntity
  8
1
  6
Continuous
 62
     7
370
    13
100
AcDbLine
 10
8445.195089931395
 20
16747.90237706297
 30
0.0
 11
8445.195161852781
 21
17107.50643113596
 31
0.0
  0
LINE
  5
5E5E
330
1F
100
AcDbEntity
  8
1
  6
Continuous
 62
     7
370
    13
100
AcDbLine
 10
9056.522104116098
 20
16747.90237706297
 30
0.0
 11
9056.522176037455
 21
17107.50643113596
 31
0.0
  0
LINE
  5
5E5F
330
1F
100
AcDbEntity
  8
1
  6
Continuous
 62
     7
370
    13
100
AcDbLine
 10
9020.561691516952
 20
16747.90237706297
 30
0.0
 11
9020.561763438339
 21
17107.50643113596
 31
0.0
  0
ARC
  5
5E60
330
1F
100
AcDbEntity
  8
1
  6
Continuous
 62
     7
370
    13
100
AcDbCircle
 10
8732.878390724188
 20
16747.90230514499
 30
0.0
 40
287.6833007928
100
AcDbArc
 50
179.9999910003586
 51
0.0000089996413454
  0
ARC
  5
5E61
330
1F
100
AcDbEntity
  8
1
  6
Continuous
 62
     7
370
    13
100
AcDbCircle
 10
8732.878462645546
 20
17107.50643113596
 30
0.0
 40
287.6833007928
100
AcDbArc
 50
0.0000089996413454
 51
78.46302499960114
  0
ARC
  5
5E62
330
1F
100
AcDbEntity
  8
1
  6
Continuous
 62
     7
370
    13
100
AcDbCircle
 10
8732.878462645546
 20
17107.50643113596
 30
0.0
 40
287.6833007928
100
AcDbArc
 50
101.5369390002879
 51
179.9999910003586
  0
ARC
  5
5E63
330
1F
100
AcDbEntity
  8
1
  6
Continuous
 62
     7
370
    13
100
AcDbCircle
 10
8732.878462645546
 20
17107.50643113596
 30
0.0
 40
323.6437133919
100
AcDbArc
 50
151.7914389988801
 51
179.9999919983733
  0
ARC
  5
5E64
330
1F
100
AcDbEntity
  8
1
  6
Continuous
 62
     7
370
    13
100
AcDbCircle
 10
8732.878462645546
 20
17107.50643113596
 30
0.0
 40
323.6437133919
100
AcDbArc
 50
0.000007999959117
 51
28.20853100012423
  0
ARC
  5
5E65
330
1F
100
AcDbEntity
  8
1
  6
Continuous
 62
     7
370
    13
100
AcDbCircle
 10
8732.878390724188
 20
16747.90230514499
 30
0.0
 40
323.6437133919
100
AcDbArc
 50
179.9999919983733
 51
208.2085840006467
  0
ARC
  5
5E66
330
1F
100
AcDbEntity
  8
1
  6
Continuous
 62
     7
370
    13
100
AcDbCircle
 10
8732.878390724188
 20
16747.90230514499
 30
0.0
 40
323.6437133919
100
AcDbArc
 50
331.7914460003507
 51
0.000007999959117
  0
LINE
  5
5E67
330
1F
100
AcDbEntity
  8
1
  6
Continuous
 62
     7
370
    13
100
AcDbLine
 10
8885.859092298167
 20
16462.6968206205
 30
0.0
 11
9200.750904315297
 21
16198.66065562758
 31
0.0
  0
LINE
  5
5E68
330
1F
100
AcDbEntity
  8
1
  6
Continuous
 62
     7
370
    13
100
AcDbLine
 10
9018.083875246956
 20
16594.92167548902
 30
0.0
 11
9282.119968318525
 21
16280.02979155384
 31
0.0
  0
LINE
  5
5E69
330
1F
100
AcDbEntity
  8
1
  6
Continuous
 62
     7
370
    13
100
AcDbLine
 10
9282.120040239883
 20
16280.02979155384
 30
0.0
 11
9200.750904315297
 21
16198.66065562758
 31
0.0
  0
LINE
  5
5E6A
330
1F
100
AcDbEntity
  8
1
  6
Continuous
 62
     7
370
    13
100
AcDbLine
 10
9282.119968318525
 20
16280.02986347522
 30
0.0
 11
9024.565595775987
 21
16537.58409217499
 31
0.0
  0
LINE
  5
5E6B
330
1F
100
AcDbEntity
  8
1
  6
Continuous
 62
     7
370
    13
100
AcDbLine
 10
8943.1965317711
 20
16456.21502817011
 30
0.0
 11
9200.750904315297
 21
16198.66065562758
 31
0.0
  0
LINE
  5
5E6C
330
1F
100
AcDbEntity
  8
1
  6
Continuous
 62
     7
370
    13
100
AcDbLine
 10
8265.005877133052
 20
16198.66079946866
 30
0.0
 11
8183.636813128194
 21
16280.03000731465
 31
0.0
  0
LINE
  5
5E6D
330
1F
100
AcDbEntity
  8
1
  6
Continuous
 62
     7
370
    13
100
AcDbLine
 10
8265.005877133052
 20
16198.66079946866
 30
0.0
 11
8579.897689148522
 21
16462.6968206205
 31
0.0
  0
LINE
  5
5E6E
330
1F
100
AcDbEntity
  8
1
  6
Continuous
 62
     7
370
    13
100
AcDbLine
 10
8447.672978121117
 20
16594.92153164792
 30
0.0
 11
8183.636813128194
 21
16280.03000731465
 31
0.0
  0
LINE
  5
5E6F
330
1F
100
AcDbEntity
  8
1
  6
Continuous
 62
     7
370
    13
100
AcDbLine
 10
8265.005877133052
 20
16198.66079946866
 30
0.0
 11
8522.560321595287
 21
16456.21517201286
 31
0.0
  0
LINE
  5
5E70
330
1F
100
AcDbEntity
  8
1
  6
Continuous
 62
     7
370
    13
100
AcDbLine
 10
8441.191257592086
 20
16537.58423601608
 30
0.0
 11
8183.636813128194
 21
16280.03000731465
 31
0.0
  0
LINE
  5
5E71
330
1F
100
AcDbEntity
  8
1
  6
Continuous
 62
     7
370
    13
100
AcDbLine
 10
8579.897832989606
 20
16462.69674869916
 30
0.0
 11
8574.250178269839
 21
16507.90495676602
 31
0.0
  0
LINE
  5
5E72
330
1F
100
AcDbEntity
  8
1
  6
Continuous
 62
     7
370
    13
100
AcDbLine
 10
8447.672978121117
 20
16594.92153164792
 30
0.0
 11
8492.881114266639
 21
16589.27409269064
 31
0.0
  0
LINE
  5
5E73
330
1F
100
AcDbEntity
  8
1
  6
Continuous
 62
     7
370
    13
100
AcDbLine
 10
9018.083875246956
 20
16594.92167548902
 30
0.0
 11
8972.875811022822
 21
16589.27394884786
 31
0.0
  0
LINE
  5
5E74
330
1F
100
AcDbEntity
  8
1
  6
Continuous
 62
     7
370
    13
100
AcDbLine
 10
8885.859092298167
 20
16462.6968206205
 30
0.0
 11
8891.506603176852
 21
16507.90481292326
 31
0.0
  0
ARC
  5
5E75
330
1F
100
AcDbEntity
  8
1
  6
Continuous
 62
     7
370
    13
100
AcDbCircle
 10
8732.878390724188
 20
16747.90230514499
 30
0.0
 40
323.6437133919
100
AcDbArc
 50
241.7914689998736
 51
298.2085610011228
  0
ARC
  5
5E76
330
1F
100
AcDbEntity
  8
1
  6
Continuous
 62
     7
370
    13
100
AcDbCircle
 10
8732.878462645546
 20
16747.90230514499
 30
0.0
 40
359.604125991
100
AcDbArc
 50
324.2068740006014
 51
324.2068780003662
  0
ARC
  5
5E77
330
1F
100
AcDbEntity
  8
1
  6
Continuous
 62
     7
370
    13
100
AcDbCircle
 10
8732.878462645546
 20
16747.90230514499
 30
0.0
 40
359.604125991
100
AcDbArc
 50
305.7930750001776
 51
305.7930869999029
  0
ARC
  5
5E78
330
1F
100
AcDbEntity
  8
1
  6
Continuous
 62
     7
370
    13
100
AcDbCircle
 10
8732.878462645546
 20
16747.90230514499
 30
0.0
 40
359.604125991
100
AcDbArc
 50
234.2068859994007
 51
234.2068870000918
  0
LINE
  5
5E79
330
1F
100
AcDbEntity
  8
1
  6
Continuous
 62
     7
370
    13
100
AcDbLine
 10
9024.565595775987
 20
16537.58409217499
 30
0.0
 11
8972.875811022822
 21
16589.27394884786
 31
0.0
  0
LINE
  5
5E7A
330
1F
100
AcDbEntity
  8
1
  6
Continuous
 62
     7
370
    13
100
AcDbLine
 10
8943.1965317711
 20
16456.21502817011
 30
0.0
 11
8891.506603176852
 21
16507.90481292326
 31
0.0
  0
LINE
  5
5E7B
330
1F
100
AcDbEntity
  8
1
  6
Continuous
 62
     7
370
    13
100
AcDbLine
 10
8441.191257592086
 20
16537.58423601608
 30
0.0
 11
8492.881114266639
 21
16589.27409269064
 31
0.0
  0
LINE
  5
5E7C
330
1F
100
AcDbEntity
  8
1
  6
Continuous
 62
     7
370
    13
100
AcDbLine
 10
8526.564225855983
 20
16460.21900435217
 30
0.0
 11
8574.250178269839
 21
16507.90495676602
 31
0.0
  0
CIRCLE
  5
5E7D
330
1F
100
AcDbEntity
  8
1
  6
Continuous
 62
     7
370
    13
100
AcDbCircle
 10
8732.878462645546
 20
16747.90230514499
 30
0.0
 40
179.8022787579756
  0
CIRCLE
  5
5E7E
330
1F
100
AcDbEntity
  8
1
  6
Continuous
 62
     7
370
    13
100
AcDbCircle
 10
8732.878390724188
 20
16747.90230514499
 30
0.0
 40
143.8416503964
  0
LINE
  5
5E7F
330
1F
100
AcDbEntity
  8
1
  6
Continuous
 62
     7
370
    13
100
AcDbLine
 10
8445.195233770762
 20
10742.51340109527
 30
0.0
 11
8445.195233770762
 21
11102.11752708627
 31
0.0
  0
LINE
  5
5E80
330
1F
100
AcDbEntity
  8
1
  6
Continuous
 62
     7
370
    13
100
AcDbLine
 10
9020.561835356376
 20
11102.11752708627
 30
0.0
 11
9020.561835356376
 21
10742.51340109527
 31
0.0
  0
ARC
  5
5E81
330
1F
100
AcDbEntity
  8
1
  6
Continuous
 62
     7
370
    13
100
AcDbCircle
 10
8732.878462645546
 20
11102.11752708627
 30
0.0
 40
323.6437133919
100
AcDbArc
 50
106.7914120007376
 51
180.0
  0
ARC
  5
5E82
330
1F
100
AcDbEntity
  8
1
  6
Continuous
 62
     7
370
    13
100
AcDbCircle
 10
8732.878462645546
 20
11102.11752708627
 30
0.0
 40
323.6437133919
100
AcDbArc
 50
0.0
 51
73.20855199997575
  0
ARC
  5
5E83
330
1F
100
AcDbEntity
  8
1
  6
Continuous
 62
     7
370
    13
100
AcDbCircle
 10
8732.878462645546
 20
11102.11752708627
 30
0.0
 40
323.6437133919
100
AcDbArc
 50
331.7914609992598
 51
331.7914669997225
  0
ARC
  5
5E84
330
1F
100
AcDbEntity
  8
1
  6
Continuous
 62
     7
370
    13
100
AcDbCircle
 10
8732.878534563585
 20
11102.11752708627
 30
0.0
 40
287.6833007928
100
AcDbArc
 50
0.0
 51
78.46304100181845
  0
ARC
  5
5E85
330
1F
100
AcDbEntity
  8
1
  6
Continuous
 62
     7
370
    13
100
AcDbCircle
 10
8732.878534563585
 20
11102.11752708627
 30
0.0
 40
287.6833007928
100
AcDbArc
 50
101.5369390002879
 51
180.0
  0
ARC
  5
5E86
330
1F
100
AcDbEntity
  8
1
  6
Continuous
 62
     7
370
    13
100
AcDbCircle
 10
8732.878462645546
 20
10742.51340109527
 30
0.0
 40
323.6437133919
100
AcDbArc
 50
180.0
 51
208.2085709998319
  0
ARC
  5
5E87
330
1F
100
AcDbEntity
  8
1
  6
Continuous
 62
     7
370
    13
100
AcDbCircle
 10
8732.878534563585
 20
10742.51340109527
 30
0.0
 40
287.6833007928
100
AcDbArc
 50
180.0
 51
0.0
  0
ARC
  5
5E88
330
1F
100
AcDbEntity
  8
1
  6
Continuous
 62
     7
370
    13
100
AcDbCircle
 10
8732.878462645546
 20
10742.51340109527
 30
0.0
 40
323.6437133919
100
AcDbArc
 50
331.7914609992598
 51
0.0
  0
LINE
  5
5E89
330
1F
100
AcDbEntity
  8
1
  6
Continuous
 62
     7
370
    13
100
AcDbLine
 10
8409.234749253664
 20
10742.51340109527
 30
0.0
 11
8409.234749253664
 21
11102.11752708627
 31
0.0
  0
LINE
  5
5E8A
330
1F
100
AcDbEntity
  8
1
  6
Continuous
 62
     7
370
    13
100
AcDbLine
 10
9056.522176037455
 20
10742.51340109527
 30
0.0
 11
9056.522176037455
 21
11102.11752708627
 31
0.0
  0
LINE
  5
5E8B
330
1F
100
AcDbEntity
  8
1
  6
DASHDOT
 62
     7
370
    13
100
AcDbLine
 10
9175.637878253329
 20
17107.50643113596
 30
0.0
 11
8267.888176122825
 21
17107.50643113596
 31
0.0
  0
CIRCLE
  5
5E8C
330
1F
100
AcDbEntity
  8
1
  6
Continuous
 62
     7
370
    13
100
AcDbCircle
 10
8732.878534563585
 20
10742.51347301328
 30
0.0
 40
179.8022787579756
  0
CIRCLE
  5
5E8D
330
1F
100
AcDbEntity
  8
1
  6
Continuous
 62
     7
370
    13
100
AcDbCircle
 10
8732.878462645546
 20
10742.51347301328
 30
0.0
 40
143.8416503964
  0
LINE
  5
5E8E
330
1F
100
AcDbEntity
  8
1
  6
Continuous
 62
     7
370
    13
100
AcDbLine
 10
9282.120112161269
 20
10274.64103134689
 30
0.0
 11
9018.084019088012
 21
10589.53284336066
 31
0.0
  0
LINE
  5
5E8F
330
1F
100
AcDbEntity
  8
1
  6
Continuous
 62
     7
370
    13
100
AcDbLine
 10
9200.751048154693
 20
10193.27189541896
 30
0.0
 11
9282.120112161269
 21
10274.64103134689
 31
0.0
  0
LINE
  5
5E90
330
1F
100
AcDbEntity
  8
1
  6
Continuous
 62
     7
370
    13
100
AcDbLine
 10
8885.859164219525
 20
10457.30806041191
 30
0.0
 11
9200.751048154693
 21
10193.27189541896
 31
0.0
  0
LINE
  5
5E91
330
1F
100
AcDbEntity
  8
1
  6
Continuous
 62
     7
370
    13
100
AcDbLine
 10
8265.005949054438
 20
10193.27189541896
 30
0.0
 11
8579.897904910962
 21
10457.3079884922
 31
0.0
  0
LINE
  5
5E92
330
1F
100
AcDbEntity
  8
1
  6
Continuous
 62
     7
370
    13
100
AcDbLine
 10
8183.636813128194
 20
10274.64103134689
 30
0.0
 11
8265.005949054438
 21
10193.27189541896
 31
0.0
  0
LINE
  5
5E93
330
1F
100
AcDbEntity
  8
1
  6
Continuous
 62
     7
370
    13
100
AcDbLine
 10
8447.672978121117
 20
10589.53269951962
 30
0.0
 11
8183.636813128194
 21
10274.64103134689
 31
0.0
  0
LINE
  5
5E94
330
1F
100
AcDbEntity
  8
1
  6
Continuous
 62
     7
370
    13
100
AcDbLine
 10
9282.120112161269
 20
10274.64103134689
 30
0.0
 11
9024.565667695686
 21
10532.19533196637
 31
0.0
  0
LINE
  5
5E95
330
1F
100
AcDbEntity
  8
1
  6
Continuous
 62
     7
370
    13
100
AcDbLine
 10
8943.1965317711
 20
10450.82626796314
 30
0.0
 11
9200.751120076079
 21
10193.27182349926
 31
0.0
  0
LINE
  5
5E96
330
1F
100
AcDbEntity
  8
1
  6
Continuous
 62
     7
370
    13
100
AcDbLine
 10
8265.005949054438
 20
10193.27189541896
 30
0.0
 11
8522.560393516673
 21
10450.82633988118
 31
0.0
  0
LINE
  5
5E97
330
1F
100
AcDbEntity
  8
1
  6
Continuous
 62
     7
370
    13
100
AcDbLine
 10
8441.191329513443
 20
10532.19547580913
 30
0.0
 11
8183.63688504955
 21
10274.64110326493
 31
0.0
  0
LINE
  5
5E98
330
1F
100
AcDbEntity
  8
1
  6
Continuous
 62
     7
370
    13
100
AcDbLine
 10
8579.897904910962
 20
10457.3079884922
 30
0.0
 11
8574.250250191225
 21
10502.51612463769
 31
0.0
  0
LINE
  5
5E99
330
1F
100
AcDbEntity
  8
1
  6
Continuous
 62
     7
370
    13
100
AcDbLine
 10
8447.673050042475
 20
10589.53269951962
 30
0.0
 11
8492.881114266639
 21
10583.88526056228
 31
0.0
  0
LINE
  5
5E9A
330
1F
100
AcDbEntity
  8
1
  6
Continuous
 62
     7
370
    13
100
AcDbLine
 10
9018.083947166655
 20
10589.53284336066
 30
0.0
 11
8972.875882942521
 21
10583.88511671955
 31
0.0
  0
LINE
  5
5E9B
330
1F
100
AcDbEntity
  8
1
  6
Continuous
 62
     7
370
    13
100
AcDbLine
 10
8885.859164219525
 20
10457.30806041191
 30
0.0
 11
8891.506675096549
 21
10502.51598079496
 31
0.0
  0
ARC
  5
5E9C
330
1F
100
AcDbEntity
  8
1
  6
Continuous
 62
     7
370
    13
100
AcDbCircle
 10
8732.878462645546
 20
10742.51347301328
 30
0.0
 40
323.6437133919
100
AcDbArc
 50
241.7914689998736
 51
298.2085610011228
  0
ARC
  5
5E9D
330
1F
100
AcDbEntity
  8
1
  6
Continuous
 62
     7
370
    13
100
AcDbCircle
 10
8732.878534563585
 20
10742.51347301328
 30
0.0
 40
359.604125991
100
AcDbArc
 50
324.2068740006014
 51
324.2068780003662
  0
ARC
  5
5E9E
330
1F
100
AcDbEntity
  8
1
  6
Continuous
 62
     7
370
    13
100
AcDbCircle
 10
8732.878534563585
 20
10742.51347301328
 30
0.0
 40
359.604125991
100
AcDbArc
 50
305.7930750001776
 51
305.7930869999029
  0
ARC
  5
5E9F
330
1F
100
AcDbEntity
  8
1
  6
Continuous
 62
     7
370
    13
100
AcDbCircle
 10
8732.878534563585
 20
10742.51347301328
 30
0.0
 40
359.604125991
100
AcDbArc
 50
234.2068859994007
 51
234.2068870000918
  0
LINE
  5
5EA0
330
1F
100
AcDbEntity
  8
1
  6
Continuous
 62
     7
370
    13
100
AcDbLine
 10
9024.565667695686
 20
10532.19533196637
 30
0.0
 11
8972.875882942521
 21
10583.88511671955
 31
0.0
  0
LINE
  5
5EA1
330
1F
100
AcDbEntity
  8
1
  6
Continuous
 62
     7
370
    13
100
AcDbLine
 10
8943.1965317711
 20
10450.82626796314
 30
0.0
 11
8891.506675096549
 21
10502.51598079496
 31
0.0
  0
LINE
  5
5EA2
330
1F
100
AcDbEntity
  8
1
  6
Continuous
 62
     7
370
    13
100
AcDbLine
 10
8441.191329513443
 20
10532.19547580913
 30
0.0
 11
8492.881114266639
 21
10583.88526056228
 31
0.0
  0
LINE
  5
5EA3
330
1F
100
AcDbEntity
  8
1
  6
Continuous
 62
     7
370
    13
100
AcDbLine
 10
8526.564297777367
 20
10454.83017222049
 30
0.0
 11
8574.250250191225
 21
10502.51612463769
 31
0.0
  0
CIRCLE
  5
5EA4
330
1F
100
AcDbEntity
  8
1
  6
Continuous
 62
     7
370
    13
100
AcDbCircle
 10
8732.878534563585
 20
10742.51347301328
 30
0.0
 40
179.8022787579756
  0
CIRCLE
  5
5EA5
330
1F
100
AcDbEntity
  8
1
  6
Continuous
 62
     7
370
    13
100
AcDbCircle
 10
8732.878462645546
 20
10742.51347301328
 30
0.0
 40
143.8416503964
  0
CIRCLE
  5
5EA6
330
1F
100
AcDbEntity
  8
1
  6
Continuous
 62
     7
370
    13
100
AcDbCircle
 10
8732.878534563585
 20
11102.11759900428
 30
0.0
 40
179.8022787579756
  0
CIRCLE
  5
5EA7
330
1F
100
AcDbEntity
  8
1
  6
Continuous
 62
     7
370
    13
100
AcDbCircle
 10
8732.878462645546
 20
11102.11759900428
 30
0.0
 40
143.8416503964
  0
CIRCLE
  5
5EA8
330
1F
100
AcDbEntity
  8
1
  6
Continuous
 62
     7
370
    13
100
AcDbCircle
 10
6575.253778617597
 20
10508.7707192011
 30
0.0
 40
287.6833007928
  0
CIRCLE
  5
5EA9
330
1F
100
AcDbEntity
  8
1
  6
Continuous
 62
     7
370
    13
100
AcDbCircle
 10
6575.253778617597
 20
10508.7707192011
 30
0.0
 40
179.8020629955
  0
CIRCLE
  5
5EAA
330
1F
100
AcDbEntity
  8
1
  6
Continuous
 62
     7
370
    13
100
AcDbCircle
 10
6575.253778617597
 20
17700.85323902111
 30
0.0
 40
287.6833007928
  0
CIRCLE
  5
5EAB
330
1F
100
AcDbEntity
  8
1
  6
Continuous
 62
     7
370
    13
100
AcDbCircle
 10
6575.253778617597
 20
17700.85323902111
 30
0.0
 40
179.8020629955
  0
CIRCLE
  5
5EAC
330
1F
100
AcDbEntity
  8
1
  6
Continuous
 62
     7
370
    13
100
AcDbCircle
 10
10890.5032905096
 20
17700.85323902111
 30
0.0
 40
287.6833007928
  0
CIRCLE
  5
5EAD
330
1F
100
AcDbEntity
  8
1
  6
Continuous
 62
     7
370
    13
100
AcDbCircle
 10
10890.5032905096
 20
17700.85323902111
 30
0.0
 40
179.8020629955
  0
CIRCLE
  5
5EAE
330
1F
100
AcDbEntity
  8
1
  6
Continuous
 62
     7
370
    13
100
AcDbCircle
 10
10890.5032905096
 20
10508.7707192011
 30
0.0
 40
287.6833007928
  0
CIRCLE
  5
5EAF
330
1F
100
AcDbEntity
  8
1
  6
Continuous
 62
     7
370
    13
100
AcDbCircle
 10
10890.5032905096
 20
10508.7707192011
 30
0.0
 40
179.8020629955
  0
LINE
  5
5EB0
330
1F
100
AcDbEntity
  8
1
  6
Continuous
 62
     7
370
    13
100
AcDbLine
 10
8183.63688504955
 20
12451.02000551257
 30
0.0
 11
8447.673193883558
 21
12136.1283373382
 31
0.0
  0
LINE
  5
5EB1
330
1F
100
AcDbEntity
  8
1
  6
Continuous
 62
     7
370
    13
100
AcDbLine
 10
8265.006020975823
 20
12532.38914143716
 30
0.0
 11
8183.63688504955
 21
12451.02000551257
 31
0.0
  0
LINE
  5
5EB2
330
1F
100
AcDbEntity
  8
1
  6
Continuous
 62
     7
370
    13
100
AcDbLine
 10
8579.897976832318
 20
12268.3531202853
 30
0.0
 11
8265.006020975823
 21
12532.38914143716
 31
0.0
  0
LINE
  5
5EB3
330
1F
100
AcDbEntity
  8
1
  6
Continuous
 62
     7
370
    13
100
AcDbLine
 10
9200.750976233335
 20
12532.38921335853
 30
0.0
 11
8885.859164219525
 21
12268.3531202853
 31
0.0
  0
LINE
  5
5EB4
330
1F
100
AcDbEntity
  8
1
  6
Continuous
 62
     7
370
    13
100
AcDbLine
 10
9282.120112161269
 20
12451.02014935197
 30
0.0
 11
9200.750976233335
 21
12532.38921335853
 31
0.0
  0
LINE
  5
5EB5
330
1F
100
AcDbEntity
  8
1
  6
Continuous
 62
     7
370
    13
100
AcDbLine
 10
9018.084019088012
 20
12136.12840925957
 30
0.0
 11
9282.120112161269
 21
12451.02014935197
 31
0.0
  0
LINE
  5
5EB6
330
1F
100
AcDbEntity
  8
1
  6
Continuous
 62
     7
370
    13
100
AcDbLine
 10
9282.120112161269
 20
12451.02014935197
 30
0.0
 11
8972.875882942521
 21
12141.77599205795
 31
0.0
  0
LINE
  5
5EB7
330
1F
100
AcDbEntity
  8
1
  6
Continuous
 62
     7
370
    13
100
AcDbLine
 10
8891.506747017935
 20
12223.14505606118
 30
0.0
 11
9200.751120076079
 21
12532.38935719792
 31
0.0
  0
LINE
  5
5EB8
330
1F
100
AcDbEntity
  8
1
  6
Continuous
 62
     7
370
    13
100
AcDbLine
 10
8265.006020975823
 20
12532.38914143716
 30
0.0
 11
8574.250250191225
 21
12223.14491222008
 31
0.0
  0
LINE
  5
5EB9
330
1F
100
AcDbEntity
  8
1
  6
Continuous
 62
     7
370
    13
100
AcDbLine
 10
8492.881114266639
 20
12141.77577629548
 30
0.0
 11
8183.636956969246
 21
12451.02000551257
 31
0.0
  0
LINE
  5
5EBA
330
1F
100
AcDbEntity
  8
1
  6
Continuous
 62
     7
370
    13
100
AcDbLine
 10
8265.006020975823
 20
17656.74786488755
 30
0.0
 11
8579.897761069878
 21
17392.71191565705
 31
0.0
  0
LINE
  5
5EBB
330
1F
100
AcDbEntity
  8
1
  6
Continuous
 62
     7
370
    13
100
AcDbLine
 10
8183.637028890604
 20
17575.37872896295
 30
0.0
 11
8265.006020975823
 21
17656.74786488755
 31
0.0
  0
LINE
  5
5EBC
330
1F
100
AcDbEntity
  8
1
  6
Continuous
 62
     7
370
    13
100
AcDbLine
 10
8447.672906199761
 20
17260.48706078858
 30
0.0
 11
8183.637028890604
 21
17575.37872896295
 31
0.0
  0
LINE
  5
5EBD
330
1F
100
AcDbEntity
  8
1
  6
Continuous
 62
     7
370
    13
100
AcDbLine
 10
8522.560321595287
 20
17399.1935642664
 30
0.0
 11
8265.006092897209
 21
17656.74786488755
 31
0.0
  0
LINE
  5
5EBE
330
1F
100
AcDbEntity
  8
1
  6
Continuous
 62
     7
370
    13
100
AcDbLine
 10
8183.637028890604
 20
17575.37872896295
 30
0.0
 11
8441.191257592086
 21
17317.82442834012
 31
0.0
  0
LINE
  5
5EBF
330
1F
100
AcDbEntity
  8
1
  6
Continuous
 62
     7
370
    13
100
AcDbLine
 10
9200.7491062927
 20
17656.74606686661
 30
0.0
 11
8885.859236140911
 21
17392.71184373734
 31
0.0
  0
LINE
  5
5EC0
330
1F
100
AcDbEntity
  8
1
  6
Continuous
 62
     7
370
    13
100
AcDbLine
 10
9282.120040239883
 20
17575.37880088434
 30
0.0
 11
9200.750976233335
 21
17656.74786488755
 31
0.0
  0
LINE
  5
5EC1
330
1F
100
AcDbEntity
  8
1
  6
Continuous
 62
     7
370
    13
100
AcDbLine
 10
9018.083947166655
 20
17260.48706078858
 30
0.0
 11
9282.120040239883
 21
17575.37880088434
 31
0.0
  0
LINE
  5
5EC2
330
1F
100
AcDbEntity
  8
1
  6
Continuous
 62
     7
370
    13
100
AcDbLine
 10
9200.750904315297
 20
17656.74786488755
 30
0.0
 11
8943.196603692486
 21
17399.1936361861
 31
0.0
  0
LINE
  5
5EC3
330
1F
100
AcDbEntity
  8
1
  6
Continuous
 62
     7
370
    13
100
AcDbLine
 10
9024.565739617072
 20
17317.8245721829
 30
0.0
 11
9285.270963510907
 21
17578.52965223559
 31
0.0
  0
LINE
  5
5EC4
330
1F
100
AcDbEntity
  8
1
  6
Continuous
 62
     7
370
    13
100
AcDbLine
 10
8492.881186187995
 20
12141.77584821519
 30
0.0
 11
8447.673193883558
 21
12136.1283373382
 31
0.0
  0
LINE
  5
5EC5
330
1F
100
AcDbEntity
  8
1
  6
Continuous
 62
     7
370
    13
100
AcDbLine
 10
8574.250250191225
 20
12223.14491222008
 30
0.0
 11
8579.897976832318
 21
12268.3531202853
 31
0.0
  0
LINE
  5
5EC6
330
1F
100
AcDbEntity
  8
1
  6
Continuous
 62
     7
370
    13
100
AcDbLine
 10
8891.506747017935
 20
12223.14505606118
 30
0.0
 11
8885.859164219525
 21
12268.3531202853
 31
0.0
  0
LINE
  5
5EC7
330
1F
100
AcDbEntity
  8
1
  6
Continuous
 62
     7
370
    13
100
AcDbLine
 10
9018.084019088012
 20
12136.12840925957
 30
0.0
 11
8972.876026785263
 21
12141.77613589902
 31
0.0
  0
ARC
  5
5EC8
330
1F
100
AcDbEntity
  8
1
  6
Continuous
 62
     7
370
    13
100
AcDbCircle
 10
8732.878606484941
 20
11983.14756384283
 30
0.0
 40
323.6437133919
100
AcDbArc
 50
151.791429000168
 51
253.2085320015203
  0
ARC
  5
5EC9
330
1F
100
AcDbEntity
  8
1
  6
Continuous
 62
     7
370
    13
100
AcDbCircle
 10
8732.878606484941
 20
11983.14756384283
 30
0.0
 40
323.6437133919
100
AcDbArc
 50
61.79147000125153
 51
118.2085440009348
  0
ARC
  5
5ECA
330
1F
100
AcDbEntity
  8
1
  6
Continuous
 62
     7
370
    13
100
AcDbCircle
 10
8732.878606484941
 20
11983.14756384283
 30
0.0
 40
323.6437133919
100
AcDbArc
 50
286.7914499996424
 51
28.20858499922848
  0
ARC
  5
5ECB
330
1F
100
AcDbEntity
  8
1
  6
Continuous
 62
     7
370
    13
100
AcDbCircle
 10
8732.878606484941
 20
11983.14756384283
 30
0.0
 40
287.6833007928
100
AcDbArc
 50
281.5369619999291
 51
258.4630249996011
  0
LINE
  5
5ECC
330
1F
100
AcDbEntity
  8
1
  6
Continuous
 62
     7
370
    13
100
AcDbLine
 10
9955.53256293299
 20
9900.116426721536
 30
0.0
 11
7510.22450619418
 21
9900.116426721536
 31
0.0
  0
LINE
  5
5ECD
330
1F
100
AcDbEntity
  8
1
  6
Continuous
 62
     7
370
    13
100
AcDbLine
 10
7510.22450619418
 20
9934.08470438233
 30
0.0
 11
7510.22450619418
 21
9900.116426721536
 31
0.0
  0
LINE
  5
5ECE
330
1F
100
AcDbEntity
  8
1
  6
Continuous
 62
     7
370
    13
100
AcDbLine
 10
9955.53256293299
 20
9900.116426721536
 30
0.0
 11
9955.53256293299
 21
9934.08470438233
 31
0.0
  0
LINE
  5
5ECF
330
1F
100
AcDbEntity
  8
1
  6
Continuous
 62
     7
370
    13
100
AcDbLine
 10
8301.353583374352
 20
18309.50753149733
 30
0.0
 11
6575.253778617597
 21
18309.50753149733
 31
0.0
  0
LINE
  5
5ED0
330
1F
100
AcDbEntity
  8
1
  6
Continuous
 62
     7
370
    13
100
AcDbLine
 10
10890.5032905096
 20
18309.50753149733
 30
0.0
 11
10890.5032905096
 21
18276.2198406067
 31
0.0
  0
LINE
  5
5ED1
330
1F
100
AcDbEntity
  8
1
  6
Continuous
 62
     7
370
    13
100
AcDbLine
 10
10890.5032905096
 20
18309.50753149733
 30
0.0
 11
9164.403485752789
 21
18309.50753149733
 31
0.0
  0
LINE
  5
5ED2
330
1F
100
AcDbEntity
  8
1
  6
Continuous
 62
     7
370
    13
100
AcDbLine
 10
8675.341874406674
 20
11701.27676029877
 30
0.0
 11
8639.381461807586
 21
11673.30322726062
 31
0.0
  0
LINE
  5
5ED3
330
1F
100
AcDbEntity
  8
1
  6
Continuous
 62
     7
370
    13
100
AcDbLine
 10
8790.415194723813
 20
11701.27676029877
 30
0.0
 11
8826.375607322901
 21
11673.30322726062
 31
0.0
  0
LINE
  5
5ED4
330
1F
100
AcDbEntity
  8
1
  6
Continuous
 62
     7
370
    13
100
AcDbLine
 10
8675.341874406674
 20
11383.98854638777
 30
0.0
 11
8639.381461807586
 21
11411.96207942924
 31
0.0
  0
LINE
  5
5ED5
330
1F
100
AcDbEntity
  8
1
  6
Continuous
 62
     7
370
    13
100
AcDbLine
 10
8826.375607322901
 20
11411.96200750788
 30
0.0
 11
8790.415194723813
 21
11383.98854638777
 31
0.0
  0
LINE
  5
5ED6
330
1F
100
AcDbEntity
  8
1
  6
Continuous
 62
     7
370
    13
100
AcDbLine
 10
8639.381461807586
 20
11411.96207942924
 30
0.0
 11
8639.381461807586
 21
11673.30322726062
 31
0.0
  0
LINE
  5
5ED7
330
1F
100
AcDbEntity
  8
1
  6
Continuous
 62
     7
370
    13
100
AcDbLine
 10
8826.375607322901
 20
11673.30322726062
 30
0.0
 11
8826.375607322901
 21
11411.96200750788
 31
0.0
  0
LINE
  5
5ED8
330
1F
100
AcDbEntity
  8
1
  6
Continuous
 62
     7
370
    13
100
AcDbLine
 10
8675.341874406674
 20
11383.98854638777
 30
0.0
 11
8675.341874406674
 21
11701.27676029877
 31
0.0
  0
LINE
  5
5ED9
330
1F
100
AcDbEntity
  8
1
  6
Continuous
 62
     7
370
    13
100
AcDbLine
 10
8790.415194723813
 20
11383.98854638777
 30
0.0
 11
8790.415194723813
 21
11701.27676029877
 31
0.0
  0
ARC
  5
5EDA
330
1F
100
AcDbEntity
  8
1
  6
Continuous
 62
     7
370
    13
100
AcDbCircle
 10
9595.928149261483
 20
16927.70444005847
 30
0.0
 40
179.8020629955
100
AcDbArc
 50
180.0
 51
270.0
  0
LINE
  5
5EDB
330
1F
100
AcDbEntity
  8
1
  6
Continuous
 62
     7
370
    13
100
AcDbLine
 10
9416.126086266043
 20
16927.70444005847
 30
0.0
 11
9416.126086266043
 21
17287.30856604947
 31
0.0
  0
ARC
  5
5EDC
330
1F
100
AcDbEntity
  8
1
  6
Continuous
 62
     7
370
    13
100
AcDbCircle
 10
9595.928149261483
 20
17287.30856604947
 30
0.0
 40
179.8020629955
100
AcDbArc
 50
90.0
 51
180.0
  0
ARC
  5
5EDD
330
1F
100
AcDbEntity
  8
1
  6
Continuous
 62
     7
370
    13
100
AcDbCircle
 10
9595.928149261483
 20
17287.30856604947
 30
0.0
 40
179.8020629955
100
AcDbArc
 50
0.0
 51
90.0
  0
LINE
  5
5EDE
330
1F
100
AcDbEntity
  8
1
  6
Continuous
 62
     7
370
    13
100
AcDbLine
 10
9775.730212257011
 20
17287.30856604947
 30
0.0
 11
9775.730212257011
 21
16927.70444005847
 31
0.0
  0
ARC
  5
5EDF
330
1F
100
AcDbEntity
  8
1
  6
Continuous
 62
     7
370
    13
100
AcDbCircle
 10
9595.928149261483
 20
16927.70444005847
 30
0.0
 40
179.8020629955
100
AcDbArc
 50
270.0
 51
0.0
  0
ARC
  5
5EE0
330
1F
100
AcDbEntity
  8
1
  6
Continuous
 62
     7
370
    13
100
AcDbCircle
 10
9775.730212257011
 20
11102.11745516488
 30
0.0
 40
179.8020629955
100
AcDbArc
 50
270.0
 51
0.0
  0
LINE
  5
5EE1
330
1F
100
AcDbEntity
  8
1
  6
Continuous
 62
     7
370
    13
100
AcDbLine
 10
9775.730212257011
 20
10922.31539216937
 30
0.0
 11
9416.126086266043
 21
10922.31539216937
 31
0.0
  0
ARC
  5
5EE2
330
1F
100
AcDbEntity
  8
1
  6
Continuous
 62
     7
370
    13
100
AcDbCircle
 10
9416.126086266043
 20
11102.11745516488
 30
0.0
 40
179.8020629955
100
AcDbArc
 50
180.0
 51
270.0
  0
ARC
  5
5EE3
330
1F
100
AcDbEntity
  8
1
  6
Continuous
 62
     7
370
    13
100
AcDbCircle
 10
9416.126086266043
 20
11102.11745516488
 30
0.0
 40
179.8020629955
100
AcDbArc
 50
90.0
 51
180.0
  0
LINE
  5
5EE4
330
1F
100
AcDbEntity
  8
1
  6
Continuous
 62
     7
370
    13
100
AcDbLine
 10
9416.126086266043
 20
11281.91951816038
 30
0.0
 11
9775.730212257011
 21
11281.91951816038
 31
0.0
  0
ARC
  5
5EE5
330
1F
100
AcDbEntity
  8
1
  6
Continuous
 62
     7
370
    13
100
AcDbCircle
 10
9775.730212257011
 20
11102.11745516488
 30
0.0
 40
179.8020629955
100
AcDbArc
 50
0.0
 51
90.0
  0
LINE
  5
5EE6
330
1F
100
AcDbEntity
  8
1
  6
Continuous
 62
     7
370
    13
100
AcDbLine
 10
8301.353583374352
 20
18309.50753149733
 30
0.0
 11
8301.353583374352
 21
18275.53925383655
 31
0.0
  0
LINE
  5
5EE7
330
1F
100
AcDbEntity
  8
1
  6
Continuous
 62
     7
370
    13
100
AcDbLine
 10
9164.403485752789
 20
18309.50753149733
 30
0.0
 11
9164.403485752789
 21
18276.2198406067
 31
0.0
  0
LINE
  5
5EE8
330
1F
100
AcDbEntity
  8
1
  6
Continuous
 62
     7
370
    13
100
AcDbLine
 10
8675.341874406674
 20
17706.66552050906
 30
0.0
 11
8639.381461807586
 21
17678.69213131032
 31
0.0
  0
LINE
  5
5EE9
330
1F
100
AcDbEntity
  8
1
  6
Continuous
 62
     7
370
    13
100
AcDbLine
 10
8826.375607322901
 20
17678.69213131032
 30
0.0
 11
8790.415194723813
 21
17706.66552050906
 31
0.0
  0
ARC
  5
5EEA
330
1F
100
AcDbEntity
  8
1
  6
Continuous
 62
     7
370
    13
100
AcDbCircle
 10
8732.878534563585
 20
17988.53653981391
 30
0.0
 40
323.6437133919
100
AcDbArc
 50
286.7914469990116
 51
0.044702000164855
  0
ARC
  5
5EEB
330
1F
100
AcDbEntity
  8
1
  6
Continuous
 62
     7
370
    13
100
AcDbCircle
 10
8732.878534563585
 20
17988.53653981391
 30
0.0
 40
323.6437133919
100
AcDbArc
 50
180.0
 51
253.2085530009883
  0
LINE
  5
5EEC
330
1F
100
AcDbEntity
  8
1
  6
Continuous
 62
     7
370
    13
100
AcDbLine
 10
8675.341874406674
 20
17389.37737851942
 30
0.0
 11
8639.381461807586
 21
17417.35083963789
 31
0.0
  0
LINE
  5
5EED
330
1F
100
AcDbEntity
  8
1
  6
Continuous
 62
     7
370
    13
100
AcDbLine
 10
8826.375607322901
 20
17417.35083963789
 30
0.0
 11
8790.415194723813
 21
17389.37737851942
 31
0.0
  0
ARC
  5
5EEE
330
1F
100
AcDbEntity
  8
1
  6
Continuous
 62
     7
370
    13
100
AcDbCircle
 10
8732.878462645546
 20
17107.50643113596
 30
0.0
 40
323.6437133919
100
AcDbArc
 50
106.7914290005713
 51
118.2085539996506
  0
ARC
  5
5EEF
330
1F
100
AcDbEntity
  8
1
  6
Continuous
 62
     7
370
    13
100
AcDbCircle
 10
8732.878462645546
 20
17107.50643113596
 30
0.0
 40
323.6437133919
100
AcDbArc
 50
61.79141599935976
 51
73.20853500002955
  0
ARC
  5
5EF0
330
1F
100
AcDbEntity
  8
1
  6
Continuous
 62
     7
370
    13
100
AcDbCircle
 10
8732.878534563585
 20
17988.53646789252
 30
0.0
 40
287.6833007928
100
AcDbArc
 50
281.5369589981815
 51
0.0000199994809108
  0
ARC
  5
5EF1
330
1F
100
AcDbEntity
  8
1
  6
Continuous
 62
     7
370
    13
100
AcDbCircle
 10
8732.878534563585
 20
17988.53646789252
 30
0.0
 40
287.6833007928
100
AcDbArc
 50
179.9999799988515
 51
258.4630410018184
  0
LINE
  5
5EF2
330
1F
100
AcDbEntity
  8
1
  6
Continuous
 62
     7
370
    13
100
AcDbLine
 10
9056.522176037455
 20
18276.2198406067
 30
0.0
 11
9020.561835356376
 21
18344.54462454334
 31
0.0
  0
LINE
  5
5EF3
330
1F
100
AcDbEntity
  8
1
  6
Continuous
 62
     7
370
    13
100
AcDbLine
 10
8409.234749253664
 20
18276.2198406067
 30
0.0
 11
8445.195233770762
 21
18344.54462454334
 31
0.0
  0
LINE
  5
5EF4
330
1F
100
AcDbEntity
  8
1
  6
Continuous
 62
     7
370
    13
100
AcDbLine
 10
8409.234749253664
 20
18276.2198406067
 30
0.0
 11
7654.066156590591
 21
18276.2198406067
 31
0.0
  0
LINE
  5
5EF5
330
1F
100
AcDbEntity
  8
1
  6
Continuous
 62
     7
370
    13
100
AcDbLine
 10
9811.690912536578
 20
18276.2198406067
 30
0.0
 11
9056.522176037455
 21
18276.2198406067
 31
0.0
  0
ARC
  5
5EF6
330
1F
100
AcDbEntity
  8
1
  6
Continuous
 62
     7
370
    13
100
AcDbCircle
 10
11354.39261303964
 20
18056.86132375054
 30
0.0
 40
287.6833007928
100
AcDbArc
 50
0.0
 51
90.0
  0
ARC
  5
5EF7
330
1F
100
AcDbEntity
  8
1
  6
Continuous
 62
     7
370
    13
100
AcDbCircle
 10
6111.364456090872
 20
18056.86132375054
 30
0.0
 40
287.6833007928
100
AcDbArc
 50
90.0
 51
180.0
  0
LINE
  5
5EF8
330
1F
100
AcDbEntity
  8
1
  6
Continuous
 62
     7
370
    13
100
AcDbLine
 10
11642.07591383243
 20
10152.76263446835
 30
0.0
 11
11642.07591383243
 21
18056.86132375054
 31
0.0
  0
ARC
  5
5EF9
330
1F
100
AcDbEntity
  8
1
  6
Continuous
 62
     7
370
    13
100
AcDbCircle
 10
11354.39261303964
 20
10152.76263446835
 30
0.0
 40
287.6833007928
100
AcDbArc
 50
270.0
 51
0.0
  0
LINE
  5
5EFA
330
1F
100
AcDbEntity
  8
1
  6
Continuous
 62
     7
370
    13
100
AcDbLine
 10
6111.364456090872
 20
9865.079333675545
 30
0.0
 11
11354.39261303964
 21
9865.079333675545
 31
0.0
  0
LINE
  5
5EFB
330
1F
100
AcDbEntity
  8
1
  6
Continuous
 62
     7
370
    13
100
AcDbLine
 10
5823.681155298079
 20
18056.86132375054
 30
0.0
 11
5823.681155298079
 21
10152.76263446835
 31
0.0
  0
ARC
  5
5EFC
330
1F
100
AcDbEntity
  8
1
  6
Continuous
 62
     7
370
    13
100
AcDbCircle
 10
6111.364456090872
 20
10152.76263446835
 30
0.0
 40
287.6833007928
100
AcDbArc
 50
180.0
 51
270.0
  0
LINE
  5
5EFD
330
1F
100
AcDbEntity
  8
1
  6
Continuous
 62
     7
370
    13
100
AcDbLine
 10
11354.39261303964
 20
18344.54462454334
 30
0.0
 11
9020.561835356376
 21
18344.54462454334
 31
0.0
  0
LINE
  5
5EFE
330
1F
100
AcDbEntity
  8
1
  6
Continuous
 62
     7
370
    13
100
AcDbLine
 10
8445.195233770762
 20
18344.54462454334
 30
0.0
 11
6111.364456090872
 21
18344.54462454334
 31
0.0
  0
LINE
  5
5EFF
330
1F
100
AcDbEntity
  8
1
  6
Continuous
 62
     7
370
    13
100
AcDbLine
 10
8409.234821171674
 20
17988.53653981391
 30
0.0
 11
8409.234821171674
 21
18276.2198406067
 31
0.0
  0
LINE
  5
5F00
330
1F
100
AcDbEntity
  8
1
  6
Continuous
 62
     7
370
    13
100
AcDbLine
 10
9056.522176037455
 20
17988.78905382991
 30
0.0
 11
9056.522176037455
 21
18276.2198406067
 31
0.0
  0
LINE
  5
5F01
330
1F
100
AcDbEntity
  8
1
  6
Continuous
 62
     7
370
    13
100
AcDbLine
 10
9020.561835356376
 20
17988.53646789252
 30
0.0
 11
9020.561835356376
 21
18344.54462454334
 31
0.0
  0
LINE
  5
5F02
330
1F
100
AcDbEntity
  8
1
  6
Continuous
 62
     7
370
    13
100
AcDbLine
 10
8445.195233770762
 20
17988.53646789252
 30
0.0
 11
8445.195233770762
 21
18344.54462454334
 31
0.0
  0
LINE
  5
5F03
330
1F
100
AcDbEntity
  8
1
  6
Continuous
 62
     7
370
    13
100
AcDbLine
 10
8826.375607322901
 20
17417.35083963789
 30
0.0
 11
8826.375607322901
 21
17678.69213131032
 31
0.0
  0
LINE
  5
5F04
330
1F
100
AcDbEntity
  8
1
  6
Continuous
 62
     7
370
    13
100
AcDbLine
 10
8639.381461807586
 20
17678.69213131032
 30
0.0
 11
8639.381461807586
 21
17417.35083963789
 31
0.0
  0
LINE
  5
5F05
330
1F
100
AcDbEntity
  8
1
  6
Continuous
 62
     7
370
    13
100
AcDbLine
 10
8675.341874406674
 20
17389.37737851942
 30
0.0
 11
8675.341874406674
 21
17706.66552050906
 31
0.0
  0
LINE
  5
5F06
330
1F
100
AcDbEntity
  8
1
  6
Continuous
 62
     7
370
    13
100
AcDbLine
 10
8790.415194723813
 20
17706.66552050906
 30
0.0
 11
8790.415194723813
 21
17389.37737851942
 31
0.0
  0
CIRCLE
  5
5F07
330
1F
100
AcDbEntity
  8
1
  6
Continuous
 62
     7
370
    13
100
AcDbCircle
 10
8732.878534563585
 20
17988.53653981391
 30
0.0
 40
179.8022787579756
  0
CIRCLE
  5
5F08
330
1F
100
AcDbEntity
  8
1
  6
Continuous
 62
     7
370
    13
100
AcDbCircle
 10
8732.878462645546
 20
17988.53653981391
 30
0.0
 40
143.8416503964
  0
CIRCLE
  5
5F09
330
1F
100
AcDbEntity
  8
1
  6
Continuous
 62
     7
370
    13
100
AcDbCircle
 10
8732.878534563585
 20
11983.14763576419
 30
0.0
 40
179.8022787579756
  0
CIRCLE
  5
5F0A
330
1F
100
AcDbEntity
  8
1
  6
Continuous
 62
     7
370
    13
100
AcDbCircle
 10
8732.878462645546
 20
11983.14763576419
 30
0.0
 40
143.8416503964
  0
ARC
  5
5F0B
330
1F
100
AcDbEntity
  8
1
  6
Continuous
 62
     7
370
    13
100
AcDbCircle
 10
7150.620380203182
 20
13421.56413972818
 30
0.0
 40
215.7624755946
100
AcDbArc
 50
180.0
 51
270.0
  0
LINE
  5
5F0C
330
1F
100
AcDbEntity
  8
1
  6
Continuous
 62
     7
370
    13
100
AcDbLine
 10
10315.13668892398
 20
13205.80166413361
 30
0.0
 11
7150.620380203182
 21
13205.80166413361
 31
0.0
  0
LINE
  5
5F0D
330
1F
100
AcDbEntity
  8
1
  6
Continuous
 62
     7
370
    13
100
AcDbLine
 10
6934.857904608564
 20
13421.56413972818
 30
0.0
 11
6934.857904608564
 21
14788.059818494
 31
0.0
  0
ARC
  5
5F0E
330
1F
100
AcDbEntity
  8
1
  6
Continuous
 62
     7
370
    13
100
AcDbCircle
 10
7150.620380203182
 20
14788.059818494
 30
0.0
 40
215.7624755946
100
AcDbArc
 50
90.0
 51
180.0
  0
LINE
  5
5F0F
330
1F
100
AcDbEntity
  8
1
  6
Continuous
 62
     7
370
    13
100
AcDbLine
 10
7150.620380203182
 20
15003.8222940886
 30
0.0
 11
10315.13668892398
 21
15003.8222940886
 31
0.0
  0
ARC
  5
5F10
330
1F
100
AcDbEntity
  8
1
  6
Continuous
 62
     7
370
    13
100
AcDbCircle
 10
10315.13668892398
 20
14788.059818494
 30
0.0
 40
215.7624755946
100
AcDbArc
 50
0.0
 51
90.0
  0
LINE
  5
5F11
330
1F
100
AcDbEntity
  8
1
  6
Continuous
 62
     7
370
    13
100
AcDbLine
 10
10530.89916451857
 20
14788.059818494
 30
0.0
 11
10530.89916451857
 21
13421.56413972818
 31
0.0
  0
ARC
  5
5F12
330
1F
100
AcDbEntity
  8
1
  6
Continuous
 62
     7
370
    13
100
AcDbCircle
 10
10315.13668892398
 20
13421.56413972818
 30
0.0
 40
215.7624755946
100
AcDbArc
 50
270.0
 51
0.0
  0
ARC
  5
5F13
330
1F
100
AcDbEntity
  8
1
  6
Continuous
 62
     7
370
    13
100
AcDbCircle
 10
8732.878534563585
 20
11102.11759900428
 30
0.0
 40
359.604125991
100
AcDbArc
 50
324.2068740006014
 51
324.2068780003662
  0
ARC
  5
5F14
330
1F
100
AcDbEntity
  8
1
  6
Continuous
 62
     7
370
    13
100
AcDbCircle
 10
8732.878534563585
 20
11102.11759900428
 30
0.0
 40
359.604125991
100
AcDbArc
 50
234.2068859994007
 51
234.2068870000918
  0
CIRCLE
  5
5F15
330
1F
100
AcDbEntity
  8
1
  6
Continuous
 62
     7
370
    13
100
AcDbCircle
 10
8732.878534563585
 20
11102.11759900428
 30
0.0
 40
179.8022787579756
  0
CIRCLE
  5
5F16
330
1F
100
AcDbEntity
  8
1
  6
Continuous
 62
     7
370
    13
100
AcDbCircle
 10
8732.878462645546
 20
11102.11759900428
 30
0.0
 40
143.8416503964
  0
LINE
  5
5F17
330
1F
100
AcDbEntity
  8
1
  6
Continuous
 62
     7
370
    13
100
AcDbLine
 10
8447.673050042475
 20
17260.48706078858
 30
0.0
 11
8492.881042345253
 21
17266.13457166726
 31
0.0
  0
LINE
  5
5F18
330
1F
100
AcDbEntity
  8
1
  6
Continuous
 62
     7
370
    13
100
AcDbLine
 10
8579.897761069878
 20
17392.71191565705
 30
0.0
 11
8574.250178269839
 21
17347.50377951323
 31
0.0
  0
LINE
  5
5F19
330
1F
100
AcDbEntity
  8
1
  6
Continuous
 62
     7
370
    13
100
AcDbLine
 10
8885.859236140911
 20
17392.71184373734
 30
0.0
 11
8891.506818939291
 21
17347.50385143292
 31
0.0
  0
LINE
  5
5F1A
330
1F
100
AcDbEntity
  8
1
  6
Continuous
 62
     7
370
    13
100
AcDbLine
 10
9018.084019088012
 20
17260.48698886719
 30
0.0
 11
8972.875882942521
 21
17266.13478742969
 31
0.0
  0
ARC
  5
5F1B
330
1F
100
AcDbEntity
  8
1
  6
Continuous
 62
     7
370
    13
100
AcDbCircle
 10
8732.878534563585
 20
17107.50643113596
 30
0.0
 40
359.604125991
100
AcDbArc
 50
144.2069130000979
 51
144.2069250003999
  0
ARC
  5
5F1C
330
1F
100
AcDbEntity
  8
1
  6
Continuous
 62
     7
370
    13
100
AcDbCircle
 10
8732.878534563585
 20
17107.50643113596
 30
0.0
 40
359.604125991
100
AcDbArc
 50
35.79311299990266
 51
35.79311399967543
  0
ARC
  5
5F1D
330
1F
100
AcDbEntity
  8
1
  6
Continuous
 62
     7
370
    13
100
AcDbCircle
 10
8732.878534563585
 20
17107.50643113596
 30
0.0
 40
359.604125991
100
AcDbArc
 50
324.2068740006014
 51
324.2068780003662
  0
ARC
  5
5F1E
330
1F
100
AcDbEntity
  8
1
  6
Continuous
 62
     7
370
    13
100
AcDbCircle
 10
8732.878534563585
 20
17107.50643113596
 30
0.0
 40
359.604125991
100
AcDbArc
 50
305.7930750001776
 51
305.7930869999029
  0
LINE
  5
5F1F
330
1F
100
AcDbEntity
  8
1
  6
Continuous
 62
     7
370
    13
100
AcDbLine
 10
8441.191257592086
 20
17317.82435642041
 30
0.0
 11
8492.881042345253
 21
17266.13457166726
 31
0.0
  0
LINE
  5
5F20
330
1F
100
AcDbEntity
  8
1
  6
Continuous
 62
     7
370
    13
100
AcDbLine
 10
8526.564225855983
 20
17395.18973192876
 30
0.0
 11
8574.250178269839
 21
17347.50377951323
 31
0.0
  0
LINE
  5
5F21
330
1F
100
AcDbEntity
  8
1
  6
Continuous
 62
     7
370
    13
100
AcDbLine
 10
8943.196603692486
 20
17399.1936361861
 30
0.0
 11
8891.506818939291
 21
17347.50385143292
 31
0.0
  0
LINE
  5
5F22
330
1F
100
AcDbEntity
  8
1
  6
Continuous
 62
     7
370
    13
100
AcDbLine
 10
9024.565739617072
 20
17317.8245721829
 30
0.0
 11
8972.875882942521
 21
17266.13478742969
 31
0.0
  0
CIRCLE
  5
5F23
330
1F
100
AcDbEntity
  8
1
  6
Continuous
 62
     7
370
    13
100
AcDbCircle
 10
8732.878534563585
 20
17107.50643113596
 30
0.0
 40
179.8022787579756
  0
CIRCLE
  5
5F24
330
1F
100
AcDbEntity
  8
1
  6
Continuous
 62
     7
370
    13
100
AcDbCircle
 10
8732.878462645546
 20
17107.50643113596
 30
0.0
 40
143.8416503964
  0
ARC
  5
5F25
330
1F
100
AcDbEntity
  8
1
  6
Continuous
 62
     7
370
    13
100
AcDbCircle
 10
12149.11773147806
 20
9358.037516029915
 30
0.0
 40
287.6833007928
100
AcDbArc
 50
270.0
 51
0.0
  0
LINE
  5
5F26
330
1F
100
AcDbEntity
  8
1
  6
Continuous
 62
     7
370
    13
100
AcDbLine
 10
5316.639337649045
 20
9070.354215237136
 30
0.0
 11
12149.11773147806
 21
9070.354215237136
 31
0.0
  0
ARC
  5
5F27
330
1F
100
AcDbEntity
  8
1
  6
Continuous
 62
     7
370
    13
100
AcDbCircle
 10
5316.639337649045
 20
9358.037516029915
 30
0.0
 40
287.6833007928
100
AcDbArc
 50
180.0
 51
270.0
  0
LINE
  5
5F28
330
1F
100
AcDbEntity
  8
1
  6
Continuous
 62
     7
370
    13
100
AcDbLine
 10
5028.956036856282
 20
18851.5864421923
 30
0.0
 11
5028.956036856282
 21
9358.037516029915
 31
0.0
  0
ARC
  5
5F29
330
1F
100
AcDbEntity
  8
1
  6
Continuous
 62
     7
370
    13
100
AcDbCircle
 10
5316.639337649045
 20
18851.5864421923
 30
0.0
 40
287.6833007928
100
AcDbArc
 50
90.0
 51
180.0
  0
LINE
  5
5F2A
330
1F
100
AcDbEntity
  8
1
  6
Continuous
 62
     7
370
    13
100
AcDbLine
 10
12149.11773147806
 20
19139.26974298511
 30
0.0
 11
5316.639337649045
 21
19139.26974298511
 31
0.0
  0
LINE
  5
5F2B
330
1F
100
AcDbEntity
  8
1
  6
Continuous
 62
     7
370
    13
100
AcDbLine
 10
12436.80103227088
 20
9358.037516029915
 30
0.0
 11
12436.80103227088
 21
18851.5864421923
 31
0.0
  0
ARC
  5
5F2C
330
1F
100
AcDbEntity
  8
1
  6
Continuous
 62
     7
370
    13
100
AcDbCircle
 10
12149.11773147806
 20
18851.5864421923
 30
0.0
 40
287.6833007928
100
AcDbArc
 50
0.0
 51
90.0
  0
LINE
  5
5F2D
330
1F
100
AcDbEntity
  8
1
  6
Continuous
 62
     7
370
    13
100
AcDbLine
 10
12145.52169021984
 20
19207.59452692173
 30
0.0
 11
5320.235378910641
 21
19207.59452692173
 31
0.0
  0
ARC
  5
5F2E
330
1F
100
AcDbEntity
  8
1
  6
Continuous
 62
     7
370
    13
100
AcDbCircle
 10
12145.52169021984
 20
18847.99040093072
 30
0.0
 40
359.604125991
100
AcDbArc
 50
0.0
 51
90.0
  0
LINE
  5
5F2F
330
1F
100
AcDbEntity
  8
1
  6
Continuous
 62
     7
370
    13
100
AcDbLine
 10
12505.12581621084
 20
18847.99040093072
 30
0.0
 11
12505.12581621084
 21
9361.63355728812
 31
0.0
  0
ARC
  5
5F30
330
1F
100
AcDbEntity
  8
1
  6
Continuous
 62
     7
370
    13
100
AcDbCircle
 10
12145.52169021984
 20
9361.63355728812
 30
0.0
 40
359.604125991
100
AcDbArc
 50
270.0
 51
0.0
  0
LINE
  5
5F31
330
1F
100
AcDbEntity
  8
1
  6
Continuous
 62
     7
370
    13
100
AcDbLine
 10
5320.235378910641
 20
9002.029431297152
 30
0.0
 11
12145.52169021984
 21
9002.029431297152
 31
0.0
  0
ARC
  5
5F32
330
1F
100
AcDbEntity
  8
1
  6
Continuous
 62
     7
370
    13
100
AcDbCircle
 10
5320.235378910641
 20
18847.99040093072
 30
0.0
 40
359.604125991
100
AcDbArc
 50
90.0
 51
180.0
  0
LINE
  5
5F33
330
1F
100
AcDbEntity
  8
1
  6
Continuous
 62
     7
370
    13
100
AcDbLine
 10
4960.631252919672
 20
9361.63355728812
 30
0.0
 11
4960.631252919672
 21
18847.99040093072
 31
0.0
  0
ARC
  5
5F34
330
1F
100
AcDbEntity
  8
1
  6
Continuous
 62
     7
370
    13
100
AcDbCircle
 10
5320.235378910641
 20
9361.63355728812
 30
0.0
 40
359.604125991
100
AcDbArc
 50
180.0
 51
270.0
  0
ARC
  5
5F35
330
1F
100
AcDbEntity
  8
1
  6
Continuous
 62
     7
370
    13
100
AcDbCircle
 10
7869.828632185178
 20
11281.91951816038
 30
0.0
 40
179.8020629955
100
AcDbArc
 50
0.0
 51
90.0
  0
LINE
  5
5F36
330
1F
100
AcDbEntity
  8
1
  6
Continuous
 62
     7
370
    13
100
AcDbLine
 10
8049.630695180677
 20
11281.91951816038
 30
0.0
 11
8049.630695180677
 21
10922.31539216937
 31
0.0
  0
ARC
  5
5F37
330
1F
100
AcDbEntity
  8
1
  6
Continuous
 62
     7
370
    13
100
AcDbCircle
 10
7869.828632185178
 20
10922.31539216937
 30
0.0
 40
179.8020629955
100
AcDbArc
 50
270.0
 51
0.0
  0
ARC
  5
5F38
330
1F
100
AcDbEntity
  8
1
  6
Continuous
 62
     7
370
    13
100
AcDbCircle
 10
7869.828632185178
 20
10922.31539216937
 30
0.0
 40
179.8020629955
100
AcDbArc
 50
180.0
 51
270.0
  0
LINE
  5
5F39
330
1F
100
AcDbEntity
  8
1
  6
Continuous
 62
     7
370
    13
100
AcDbLine
 10
7690.026569189679
 20
10922.31539216937
 30
0.0
 11
7690.026569189679
 21
11281.91951816038
 31
0.0
  0
ARC
  5
5F3A
330
1F
100
AcDbEntity
  8
1
  6
Continuous
 62
     7
370
    13
100
AcDbCircle
 10
7869.828632185178
 20
11281.91951816038
 30
0.0
 40
179.8020629955
100
AcDbArc
 50
90.0
 51
180.0
  0
ARC
  5
5F3B
330
1F
100
AcDbEntity
  8
1
  6
Continuous
 62
     7
370
    13
100
AcDbCircle
 10
7690.026569189679
 20
17107.50650305399
 30
0.0
 40
179.8020629955
100
AcDbArc
 50
90.0
 51
180.0
  0
LINE
  5
5F3C
330
1F
100
AcDbEntity
  8
1
  6
Continuous
 62
     7
370
    13
100
AcDbLine
 10
7690.026569189679
 20
17287.30856604947
 30
0.0
 11
8049.630695180677
 21
17287.30856604947
 31
0.0
  0
ARC
  5
5F3D
330
1F
100
AcDbEntity
  8
1
  6
Continuous
 62
     7
370
    13
100
AcDbCircle
 10
8049.630695180677
 20
17107.50650305399
 30
0.0
 40
179.8020629955
100
AcDbArc
 50
0.0
 51
90.0
  0
ARC
  5
5F3E
330
1F
100
AcDbEntity
  8
1
  6
Continuous
 62
     7
370
    13
100
AcDbCircle
 10
8049.630695180677
 20
17107.50650305399
 30
0.0
 40
179.8020629955
100
AcDbArc
 50
270.0
 51
0.0
  0
LINE
  5
5F3F
330
1F
100
AcDbEntity
  8
1
  6
Continuous
 62
     7
370
    13
100
AcDbLine
 10
8049.630695180677
 20
16927.70444005847
 30
0.0
 11
7690.026569189679
 21
16927.70444005847
 31
0.0
  0
ARC
  5
5F40
330
1F
100
AcDbEntity
  8
1
  6
Continuous
 62
     7
370
    13
100
AcDbCircle
 10
7690.026569189679
 20
17107.50650305399
 30
0.0
 40
179.8020629955
100
AcDbArc
 50
180.0
 51
270.0
  0
ARC
  5
5F41
330
1F
100
AcDbEntity
  8
1
  6
Continuous
 62
     7
370
    13
100
AcDbCircle
 10
11357.98865429789
 20
18060.45736501211
 30
0.0
 40
215.7624755946
100
AcDbArc
 50
0.0
 51
90.0
  0
LINE
  5
5F42
330
1F
100
AcDbEntity
  8
1
  6
Continuous
 62
     7
370
    13
100
AcDbLine
 10
11573.75112989248
 20
18060.45736501211
 30
0.0
 11
11573.75112989248
 21
10149.1665932101
 31
0.0
  0
ARC
  5
5F43
330
1F
100
AcDbEntity
  8
1
  6
Continuous
 62
     7
370
    13
100
AcDbCircle
 10
11357.98865429789
 20
10149.1665932101
 30
0.0
 40
215.7624755946
100
AcDbArc
 50
270.0
 51
0.0
  0
LINE
  5
5F44
330
1F
100
AcDbEntity
  8
1
  6
Continuous
 62
     7
370
    13
100
AcDbLine
 10
6107.768414829275
 20
9933.40411761553
 30
0.0
 11
11357.98865429789
 21
9933.40411761553
 31
0.0
  0
ARC
  5
5F45
330
1F
100
AcDbEntity
  8
1
  6
Continuous
 62
     7
370
    13
100
AcDbCircle
 10
6107.768414829275
 20
18060.45736501211
 30
0.0
 40
215.7624755946
100
AcDbArc
 50
90.0
 51
180.0
  0
LINE
  5
5F46
330
1F
100
AcDbEntity
  8
1
  6
Continuous
 62
     7
370
    13
100
AcDbLine
 10
5892.005939234689
 20
10149.1665932101
 30
0.0
 11
5892.005939234689
 21
18060.45736501211
 31
0.0
  0
ARC
  5
5F47
330
1F
100
AcDbEntity
  8
1
  6
Continuous
 62
     7
370
    13
100
AcDbCircle
 10
6107.768414829275
 20
10149.1665932101
 30
0.0
 40
215.7624755946
100
AcDbArc
 50
180.0
 51
270.0
  0
LINE
  5
5F48
330
1F
100
AcDbEntity
  8
1
  6
Continuous
 62
     7
370
    13
100
AcDbLine
 10
11357.98865429789
 20
18276.2198406067
 30
0.0
 11
9811.690912536578
 21
18276.2198406067
 31
0.0
  0
LINE
  5
5F49
330
1F
100
AcDbEntity
  8
1
  6
Continuous
 62
     7
370
    13
100
AcDbLine
 10
7654.066156590591
 20
18276.2198406067
 30
0.0
 11
6107.768414829275
 21
18276.2198406067
 31
0.0
  0
LINE
  5
5F4A
330
1F
100
AcDbEntity
  8
1
  6
Continuous
 62
     7
370
    13
100
AcDbLine
 10
18107.82850963709
 20
19207.59452692173
 30
0.0
 11
18107.78701132146
 21
9002.029431297152
 31
0.0
  0
LINE
  5
5F4B
330
1F
100
AcDbEntity
  8
1
  6
Continuous
 62
     7
370
    13
100
AcDbLine
 10
16873.87917182987
 20
19150.46939772548
 30
0.0
 11
18107.82850963709
 21
19207.59452692173
 31
0.0
  0
LINE
  5
5F4C
330
1F
100
AcDbEntity
  8
1
  6
Continuous
 62
     7
370
    13
100
AcDbLine
 10
18107.78701132146
 20
9002.029431297152
 30
0.0
 11
16873.84400254648
 21
9059.164413647783
 31
0.0
  0
LINE
  5
5F4D
330
1F
100
AcDbEntity
  8
1
  6
Continuous
 62
     7
370
    13
100
AcDbLine
 10
16669.37453492253
 20
9274.631870016557
 30
0.0
 11
16669.40790618667
 21
18935.00330785109
 31
0.0
  0
ARC
  5
5F4E
330
1F
100
AcDbEntity
  8
1
  6
Continuous
 62
     7
370
    13
100
AcDbCircle
 10
16885.17038178126
 20
18935.00251672268
 30
0.0
 40
215.7624755946
100
AcDbArc
 50
92.99976200002324
 51
179.9998030000687
  0
ARC
  5
5F4F
330
1F
100
AcDbEntity
  8
1
  6
Continuous
 62
     7
370
    13
100
AcDbCircle
 10
16885.13701051712
 20
9274.631150809524
 30
0.0
 40
215.7624755946
100
AcDbArc
 50
179.9998030000687
 51
266.9997670002486
  0
TEXT
  5
5F50
330
1F
100
AcDbEntity
  8
1
  6
Continuous
 62
     7
370
    13
100
AcDbText
 10
3407.523492494045
 20
3883.976161934275
 30
0.0
 40
423.007619611172
  1
重　量
 41
0.8872049999999999
  7
KANJI
100
AcDbText
  0
TEXT
  5
5F51
330
1F
100
AcDbEntity
  8
1
  6
Continuous
 62
     7
370
    13
100
AcDbText
 10
3407.523492494045
 20
5737.706056461131
 30
0.0
 40
423.007619611172
  1
材　質
 41
0.8872049999999999
  7
KANJI
100
AcDbText
  0
TEXT
  5
5F52
330
1F
100
AcDbEntity
  8
1
  6
Continuous
 62
     7
370
    13
100
AcDbText
 10
3407.523492494045
 20
5101.686226908132
 30
0.0
 40
423.007619611172
  1
仕　上
 41
0.8872049999999999
  7
KANJI
100
AcDbText
  0
TEXT
  5
5F53
330
1F
100
AcDbEntity
  8
1
  6
Continuous
 62
     7
370
    13
100
AcDbText
 10
3407.523492494045
 20
4522.234577852956
 30
0.0
 40
423.007619611172
  1
彩　色
 41
0.8872049999999999
  7
KANJI
100
AcDbText
  0
TEXT
  5
5F54
330
1F
100
AcDbEntity
  8
1
  6
Continuous
 62
     7
370
    13
100
AcDbText
 10
5953.099651016906
 20
3887.207008303885
 30
0.0
 40
423.007619611172
  1
約１００ｇ
 41
0.8872049999999999
  7
KANJI
100
AcDbText
  0
TEXT
  5
5F55
330
1F
100
AcDbEntity
  8
1
  6
Continuous
 62
     7
370
    13
100
AcDbText
 10
5953.099651016906
 20
4525.465424219219
 30
0.0
 40
423.007619611172
  1
黒　色
 41
0.8872049999999999
  7
KANJI
100
AcDbText
  0
TEXT
  5
5F56
330
1F
100
AcDbEntity
  8
1
  6
Continuous
 62
     7
370
    13
100
AcDbText
 10
5953.000195784873
 20
5101.844341397562
 30
0.0
 40
423.007619611172
  1
ツヤ消し
 41
0.8872049999999999
  7
KANJI
100
AcDbText
  0
TEXT
  5
5F57
330
1F
100
AcDbEntity
  8
1
  6
Continuous
 62
     7
370
    13
100
AcDbText
 10
5953.000195784873
 20
5740.146692456488
 30
0.0
 40
423.007619611172
  1
樹　脂
 41
0.8872049999999999
  7
KANJI
100
AcDbText
  0
TEXT
  5
5F58
330
1F
100
AcDbEntity
  8
1
  6
Continuous
 62
     7
370
    13
100
AcDbText
 10
13285.26125484137
 20
6347.607625565913
 30
0.0
 40
423.007619611172
  1
内　容
 41
0.8872049999999999
  7
KANJI
100
AcDbText
  0
LINE
  5
5F59
330
1F
100
AcDbEntity
  8
1
  6
Continuous
 62
     7
370
    13
100
AcDbLine
 10
3012.130443708651
 20
6829.169305512289
 30
0.0
 11
21014.12820143965
 21
6829.169305512289
 31
0.0
  0
LINE
  5
5F5A
330
1F
100
AcDbEntity
  8
1
  6
Continuous
 62
     7
370
    13
100
AcDbLine
 10
3012.130443708651
 20
6223.895917411443
 30
0.0
 11
21014.12820143965
 21
6223.895917411443
 31
0.0
  0
LINE
  5
5F5B
330
1F
100
AcDbEntity
  8
1
  6
Continuous
 62
     7
370
    13
100
AcDbLine
 10
21014.12820143965
 20
6829.169305512289
 30
0.0
 11
21014.12820143965
 21
3802.802365004558
 31
0.0
  0
LINE
  5
5F5C
330
1F
100
AcDbEntity
  8
1
  6
Continuous
 62
     7
370
    13
100
AcDbLine
 10
3012.130443708651
 20
5618.622529307192
 30
0.0
 11
21014.12820143965
 21
5618.622529307192
 31
0.0
  0
LINE
  5
5F5D
330
1F
100
AcDbEntity
  8
1
  6
Continuous
 62
     7
370
    13
100
AcDbLine
 10
3012.130443708651
 20
5013.349141209721
 30
0.0
 11
21014.12820143965
 21
5013.349141209721
 31
0.0
  0
LINE
  5
5F5E
330
1F
100
AcDbEntity
  8
1
  6
Continuous
 62
     7
370
    13
100
AcDbLine
 10
3012.130443708651
 20
4408.075753105441
 30
0.0
 11
21014.12820143965
 21
4408.075753105441
 31
0.0
  0
LINE
  5
5F5F
330
1F
100
AcDbEntity
  8
1
  6
Continuous
 62
     7
370
    13
100
AcDbLine
 10
3012.130443708651
 20
3802.802365004565
 30
0.0
 11
21014.12820143965
 21
3802.802365004565
 31
0.0
  0
TEXT
  5
5F60
330
1F
100
AcDbEntity
  8
1
  6
Continuous
 62
     7
370
    13
100
AcDbText
 10
3702.604552402772
 20
6346.619427645594
 30
0.0
 40
423.007619611172
  1
項　目
 41
0.944444
  7
KANJI
100
AcDbText
  0
LINE
  5
5F61
330
1F
100
AcDbEntity
  8
1
  6
Continuous
 62
     7
370
    13
100
AcDbLine
 10
5663.571290281048
 20
6829.169305512289
 30
0.0
 11
5663.571290281063
 21
3802.802365004565
 31
0.0
  0
LINE
  5
5F62
330
1F
100
AcDbEntity
  8
1
  6
Continuous
 62
     7
370
    13
100
AcDbLine
 10
3012.130443708651
 20
6829.169305512289
 30
0.0
 11
3012.130443708658
 21
3802.802365004558
 31
0.0
  0
DIMENSION
  5
5F63
330
1F
100
AcDbEntity
  8
1
  6
Continuous
 62
     7
370
    13
100
AcDbDimension
  2
*D98
 10
19186.21521487427
 20
9002.029431297152
 30
0.0
 11
18936.21521487427
 21
14104.81197910944
 31
0.0
 70
    32
  1
142
 71
     5
 42
10205.56509562458
  3
Standard
100
AcDbAlignedDimension
 13
18107.82850963709
 23
19207.59452692173
 33
0.0
 14
18107.78701132146
 24
9002.029431297152
 34
0.0
 50
270.0
100
AcDbRotatedDimension
1001
ACAD
1000
DSTYLE
1002
{
1070
    41
1040
500.0
1070
    42
1040
50.0
1070
    73
1070
     0
1070
    77
1070
     1
1070
   140
1040
400.0
1070
   147
1040
50.0
1070
   173
1070
     1
1070
   343
1005
2B
1070
   344
1005
2B
1070
   371
1070
    13
1070
   372
1070
    13
1002
}
  0
DIMENSION
  5
5F64
330
1F
100
AcDbEntity
  8
1
  6
Continuous
 62
     7
370
    13
100
AcDbDimension
  2
*D99
 10
18107.82850963709
 20
21554.1545811994
 30
0.0
 11
17388.6182079125
 21
21554.1545811994
 31
0.0
 70
   160
  1
20
 71
     5
 42
1438.420603449165
  3
Standard
100
AcDbAlignedDimension
 13
16669.40790618793
 23
18935.00325857826
 33
0.0
 14
18107.82850963709
 24
19207.59452692173
 34
0.0
100
AcDbRotatedDimension
1001
ACAD
1000
DSTYLE
1002
{
1070
    41
1040
500.0
1070
    42
1040
50.0
1070
    73
1070
     0
1070
    77
1070
     1
1070
   140
1040
400.0
1070
   147
1040
50.0
1070
   173
1070
     1
1070
   343
1005
2B
1070
   344
1005
2B
1070
   371
1070
    13
1070
   372
1070
    13
1002
}
  0
DIMENSION
  5
5F65
330
1F
100
AcDbEntity
  8
1
  6
Continuous
 62
     7
370
    13
100
AcDbDimension
  2
*D100
 10
10530.89916451857
 20
20026.76584531931
 30
0.0
 11
8740.460413221036
 21
20026.76584531931
 31
0.0
 70
   160
  1
50
 71
     5
 42
3596.041259910009
  3
Standard
100
AcDbAlignedDimension
 13
6934.857904608564
 23
14788.059818494
 33
0.0
 14
10530.89916451857
 24
14788.05981849398
 34
0.0
100
AcDbRotatedDimension
1001
ACAD
1000
DSTYLE
1002
{
1070
    41
1040
500.0
1070
    42
1040
50.0
1070
    73
1070
     0
1070
    77
1070
     1
1070
   140
1040
400.0
1070
   147
1040
50.0
1070
   173
1070
     1
1070
   343
1005
2B
1070
   344
1005
2B
1070
   371
1070
    13
1070
   372
1070
    13
1002
}
  0
DIMENSION
  5
5F66
330
1F
100
AcDbEntity
  8
1
  6
Continuous
 62
     7
370
    13
100
AcDbDimension
  2
*D101
 10
10890.5032905096
 20
20806.93498299428
 30
0.0
 11
8792.751213313051
 21
20806.93498299428
 31
0.0
 70
   160
  1
60
 71
     5
 42
4315.24951189199
  3
Standard
100
AcDbAlignedDimension
 13
6575.253778617611
 23
18018.70416146806
 33
0.0
 14
10890.5032905096
 24
18025.79591443468
 34
0.0
100
AcDbRotatedDimension
1001
ACAD
1000
DSTYLE
1002
{
1070
    41
1040
500.0
1070
    42
1040
50.0
1070
    73
1070
     0
1070
    77
1070
     1
1070
   140
1040
400.0
1070
   147
1040
50.0
1070
   173
1070
     1
1070
   343
1005
2B
1070
   344
1005
2B
1070
   371
1070
    13
1070
   372
1070
    13
1002
}
  0
DIMENSION
  5
5F67
330
1F
100
AcDbEntity
  8
1
  6
Continuous
 62
     7
370
    13
100
AcDbDimension
  2
*D102
 10
12505.12581621084
 20
21553.9745811994
 30
0.0
 11
8750.356883945613
 21
21553.9745811994
 31
0.0
 70
   160
  1
105
 71
     5
 42
7544.494563291198
  3
Standard
100
AcDbAlignedDimension
 13
4960.631252919643
 23
18847.99040093072
 33
0.0
 14
12505.12581621084
 24
18847.99040093072
 34
0.0
100
AcDbRotatedDimension
1001
ACAD
1000
DSTYLE
1002
{
1070
    41
1040
500.0
1070
    42
1040
50.0
1070
    73
1070
     0
1070
    77
1070
     1
1070
   140
1040
400.0
1070
   147
1040
50.0
1070
   173
1070
     1
1070
   343
1005
2B
1070
   344
1005
2B
1070
   371
1070
    13
1070
   372
1070
    13
1002
}
  0
DIMENSION
  5
5F68
330
1F
100
AcDbEntity
  8
1
  6
Continuous
 62
     7
370
    13
100
AcDbDimension
  2
*D103
 10
14141.28328313187
 20
13205.80166413358
 30
0.0
 11
14141.28328313186
 21
14104.8119791111
 31
0.0
 70
   160
  1
25
 71
     5
 42
1798.020629955018
  3
Standard
100
AcDbAlignedDimension
 13
10327.20649752364
 23
15003.8222940886
 33
0.0
 14
10315.13668892398
 24
13205.80166413358
 34
0.0
 50
270.0
100
AcDbRotatedDimension
1001
ACAD
1000
DSTYLE
1002
{
1070
    41
1040
500.0
1070
    42
1040
50.0
1070
    73
1070
     0
1070
    77
1070
     1
1070
   140
1040
400.0
1070
   147
1040
50.0
1070
   173
1070
     1
1070
   343
1005
2B
1070
   344
1005
2B
1070
   371
1070
    13
1070
   372
1070
    13
1002
}
  0
DIMENSION
  5
5F69
330
1F
100
AcDbEntity
  8
1
  6
Continuous
 62
     7
370
    13
100
AcDbDimension
  2
*D104
 10
15040.29359810939
 20
10508.77071920109
 30
0.0
 11
15040.29359810939
 21
14104.8119791111
 31
0.0
 70
   160
  1
100
 71
     5
 42
7192.08251982002
  3
Standard
100
AcDbAlignedDimension
 13
11226.21681250113
 23
17700.85323902111
 33
0.0
 14
11214.14700390148
 24
10508.7707192011
 34
0.0
 50
270.0
100
AcDbRotatedDimension
1001
ACAD
1000
DSTYLE
1002
{
1070
    41
1040
500.0
1070
    42
1040
50.0
1070
    73
1070
     0
1070
    77
1070
     1
1070
   140
1040
400.0
1070
   147
1040
50.0
1070
   173
1070
     1
1070
   343
1005
2B
1070
   344
1005
2B
1070
   371
1070
    13
1070
   372
1070
    13
1002
}
  0
TEXT
  5
5F6A
330
1F
100
AcDbEntity
  8
1
  6
Continuous
 62
     7
370
    13
100
AcDbText
 10
4366.285907866578
 20
24081.49201547166
 30
0.0
 40
741.8776780800004
  1
デジタルテンキー　Ｔ－３８３０　面付ボックス
 41
0.8
  7
KANJI
100
AcDbText
  0
ENDSEC
  0
SECTION
  2
OBJECTS
  0
DICTIONARY
  5
C
330
0
100
AcDbDictionary
281
     1
  3
ACAD_GROUP
350
D
  3
ACAD_LAYOUT
350
1A
  3
ACAD_MLINESTYLE
350
17
  3
ACAD_PLOTSETTINGS
350
19
  3
ACAD_PLOTSTYLENAME
350
E
  3
AcDbVariableDictionary
350
932
  0
DICTIONARY
  5
5A
330
2
100
AcDbDictionary
280
     1
281
     1
  3
ACAD_LAYERSTATES
360
5B
  0
DICTIONARY
  5
D
102
{ACAD_REACTORS
330
C
102
}
330
C
100
AcDbDictionary
281
     1
  0
DICTIONARY
  5
1A
102
{ACAD_REACTORS
330
C
102
}
330
C
100
AcDbDictionary
281
     1
  3
Model
350
22
  3
ﾚｲｱｳﾄ1
350
1E
  3
ﾚｲｱｳﾄ2
350
26
  0
DICTIONARY
  5
17
102
{ACAD_REACTORS
330
C
102
}
330
C
100
AcDbDictionary
281
     1
  3
Standard
350
18
  0
DICTIONARY
  5
19
102
{ACAD_REACTORS
330
C
102
}
330
C
100
AcDbDictionary
281
     1
  0
ACDBDICTIONARYWDFLT
  5
E
102
{ACAD_REACTORS
330
C
102
}
330
C
100
AcDbDictionary
281
     1
  3
Normal
350
F
100
AcDbDictionaryWithDefault
340
F
  0
DICTIONARY
  5
932
102
{ACAD_REACTORS
330
C
102
}
330
C
100
AcDbDictionary
281
     1
  3
DIMASSOC
350
934
  3
HIDETEXT
350
933
  0
DICTIONARY
  5
5B
102
{ACAD_REACTORS
330
5A
102
}
330
5A
100
AcDbDictionary
281
     1
  0
LAYOUT
  5
22
102
{ACAD_REACTORS
330
1A
102
}
330
1A
100
AcDbPlotSettings
  1

  2
DocuCentre a235
  4

  6

 40
0.0
 41
0.0
 42
0.0
 43
0.0
 44
0.0
 45
0.0
 46
0.0
 47
0.0
 48
0.0
 49
0.0
140
0.0
141
0.0
142
1.0
143
1.0
 70
  1712
 72
     0
 73
     0
 74
     0
  7

 75
     0
147
1.0
148
0.0
149
0.0
100
AcDbLayout
  1
Model
 70
     1
 71
     0
 10
0.0
 20
0.0
 11
12.0
 21
9.0
 12
0.0
 22
0.0
 32
0.0
 14
0.0
 24
0.0
 34
0.0
 15
0.0
 25
0.0
 35
0.0
146
0.0
 13
0.0
 23
0.0
 33
0.0
 16
1.0
 26
0.0
 36
0.0
 17
0.0
 27
1.0
 37
0.0
 76
     0
330
1F
  0
LAYOUT
  5
1E
102
{ACAD_REACTORS
330
1A
102
}
330
1A
100
AcDbPlotSettings
  1

  2
DocuCentre a235
  4

  6

 40
0.0
 41
0.0
 42
0.0
 43
0.0
 44
0.0
 45
0.0
 46
0.0
 47
0.0
 48
0.0
 49
0.0
140
0.0
141
0.0
142
1.0
143
1.0
 70
   688
 72
     0
 73
     0
 74
     5
  7

 75
    16
147
1.0
148
0.0
149
0.0
100
AcDbLayout
  1
ﾚｲｱｳﾄ1
 70
     1
 71
     1
 10
0.0
 20
0.0
 11
420.0
 21
297.0
 12
0.0
 22
0.0
 32
0.0
 14
1.000000000000000E+20
 24
1.000000000000000E+20
 34
1.000000000000000E+20
 15
-1.000000000000000E+20
 25
-1.000000000000000E+20
 35
-1.000000000000000E+20
146
0.0
 13
0.0
 23
0.0
 33
0.0
 16
1.0
 26
0.0
 36
0.0
 17
0.0
 27
1.0
 37
0.0
 76
     0
330
1B
  0
LAYOUT
  5
26
102
{ACAD_REACTORS
330
1A
102
}
330
1A
100
AcDbPlotSettings
  1

  2
DocuCentre a235
  4

  6

 40
0.0
 41
0.0
 42
0.0
 43
0.0
 44
0.0
 45
0.0
 46
0.0
 47
0.0
 48
0.0
 49
0.0
140
0.0
141
0.0
142
1.0
143
1.0
 70
   688
 72
     0
 73
     0
 74
     5
  7

 75
    16
147
1.0
148
0.0
149
0.0
100
AcDbLayout
  1
ﾚｲｱｳﾄ2
 70
     1
 71
     2
 10
0.0
 20
0.0
 11
12.0
 21
9.0
 12
0.0
 22
0.0
 32
0.0
 14
0.0
 24
0.0
 34
0.0
 15
0.0
 25
0.0
 35
0.0
146
0.0
 13
0.0
 23
0.0
 33
0.0
 16
1.0
 26
0.0
 36
0.0
 17
0.0
 27
1.0
 37
0.0
 76
     0
330
23
  0
MLINESTYLE
  5
18
102
{ACAD_REACTORS
330
17
102
}
330
17
100
AcDbMlineStyle
  2
STANDARD
 70
     0
  3

 62
   256
 51
90.0
 52
90.0
 71
     2
 49
0.5
 62
   256
  6
BYLAYER
 49
-0.5
 62
   256
  6
BYLAYER
  0
ACDBPLACEHOLDER
  5
F
102
{ACAD_REACTORS
330
E
102
}
330
E
  0
DICTIONARYVAR
  5
934
102
{ACAD_REACTORS
330
932
102
}
330
932
100
DictionaryVariables
280
     0
  1
2
  0
DICTIONARYVAR
  5
933
102
{ACAD_REACTORS
330
932
102
}
330
932
100
DictionaryVariables
280
     0
  1
1
  0
ENDSEC
  0
EOF
