  0
SECTION
  2
HEADER
  9
$ACADVER
  1
AC1015
  9
$ACADMAINTVER
 70
    13
  9
$DWGCODEPAGE
  3
ANSI_932
  9
$INSBASE
 10
0.0
 20
0.0
 30
0.0
  9
$EXTMIN
 10
50.83860713600916
 20
-24793.95355718863
 30
0.0
  9
$EXTMAX
 10
24626.31060570293
 20
26703.49976113019
 30
0.0
  9
$LIMMIN
 10
0.0
 20
0.0
  9
$LIMMAX
 10
420.0
 20
297.0
  9
$ORTHOMODE
 70
     0
  9
$REGENMODE
 70
     1
  9
$FILLMODE
 70
     1
  9
$QTEXTMODE
 70
     0
  9
$MIRRTEXT
 70
     1
  9
$LTSCALE
 40
1.0
  9
$ATTMODE
 70
     1
  9
$TEXTSIZE
 40
2.5
  9
$TRACEWID
 40
1.0
  9
$TEXTSTYLE
  7
Standard
  9
$CLAYER
  8
0
  9
$CELTYPE
  6
ByLayer
  9
$CECOLOR
 62
   256
  9
$CELTSCALE
 40
1.0
  9
$DISPSILH
 70
     0
  9
$DIMSCALE
 40
1.0
  9
$DIMASZ
 40
2.5
  9
$DIMEXO
 40
0.625
  9
$DIMDLI
 40
3.75
  9
$DIMRND
 40
0.0
  9
$DIMDLE
 40
0.0
  9
$DIMEXE
 40
1.25
  9
$DIMTP
 40
0.0
  9
$DIMTM
 40
0.0
  9
$DIMTXT
 40
2.5
  9
$DIMCEN
 40
2.5
  9
$DIMTSZ
 40
0.0
  9
$DIMTOL
 70
     0
  9
$DIMLIM
 70
     0
  9
$DIMTIH
 70
     0
  9
$DIMTOH
 70
     0
  9
$DIMSE1
 70
     0
  9
$DIMSE2
 70
     0
  9
$DIMTAD
 70
     1
  9
$DIMZIN
 70
     8
  9
$DIMBLK
  1

  9
$DIMASO
 70
     1
  9
$DIMSHO
 70
     1
  9
$DIMPOST
  1

  9
$DIMAPOST
  1

  9
$DIMALT
 70
     0
  9
$DIMALTD
 70
     3
  9
$DIMALTF
 40
0.03937007874016
  9
$DIMLFAC
 40
1.0
  9
$DIMTOFL
 70
     1
  9
$DIMTVP
 40
0.0
  9
$DIMTIX
 70
     0
  9
$DIMSOXD
 70
     0
  9
$DIMSAH
 70
     0
  9
$DIMBLK1
  1

  9
$DIMBLK2
  1

  9
$DIMSTYLE
  2
ISO-25
  9
$DIMCLRD
 70
     0
  9
$DIMCLRE
 70
     0
  9
$DIMCLRT
 70
     0
  9
$DIMTFAC
 40
1.0
  9
$DIMGAP
 40
0.625
  9
$DIMJUST
 70
     0
  9
$DIMSD1
 70
     0
  9
$DIMSD2
 70
     0
  9
$DIMTOLJ
 70
     0
  9
$DIMTZIN
 70
     8
  9
$DIMALTZ
 70
     0
  9
$DIMALTTZ
 70
     0
  9
$DIMUPT
 70
     0
  9
$DIMDEC
 70
     2
  9
$DIMTDEC
 70
     2
  9
$DIMALTU
 70
     2
  9
$DIMALTTD
 70
     3
  9
$DIMTXSTY
  7
Standard
  9
$DIMAUNIT
 70
     0
  9
$DIMADEC
 70
     0
  9
$DIMALTRND
 40
0.0
  9
$DIMAZIN
 70
     0
  9
$DIMDSEP
 70
    46
  9
$DIMATFIT
 70
     3
  9
$DIMFRAC
 70
     0
  9
$DIMLDRBLK
  1

  9
$DIMLUNIT
 70
     2
  9
$DIMLWD
 70
    -2
  9
$DIMLWE
 70
    -2
  9
$DIMTMOVE
 70
     0
  9
$LUNITS
 70
     2
  9
$LUPREC
 70
     4
  9
$SKETCHINC
 40
1.0
  9
$FILLETRAD
 40
10.0
  9
$AUNITS
 70
     0
  9
$AUPREC
 70
     0
  9
$MENU
  1
.
  9
$ELEVATION
 40
0.0
  9
$PELEVATION
 40
0.0
  9
$THICKNESS
 40
0.0
  9
$LIMCHECK
 70
     0
  9
$CHAMFERA
 40
10.0
  9
$CHAMFERB
 40
10.0
  9
$CHAMFERC
 40
20.0
  9
$CHAMFERD
 40
0.0
  9
$SKPOLY
 70
     0
  9
$TDCREATE
 40
2455236.663561527
  9
$TDUCREATE
 40
2455236.288561527
  9
$TDUPDATE
 40
2455442.720699247
  9
$TDUUPDATE
 40
2455442.345699248
  9
$TDINDWG
 40
0.0009931713
  9
$TDUSRTIMER
 40
0.0009919097
  9
$USRTIMER
 70
     1
  9
$ANGBASE
 50
0.0
  9
$ANGDIR
 70
     0
  9
$PDMODE
 70
     0
  9
$PDSIZE
 40
0.0
  9
$PLINEWID
 40
0.0
  9
$SPLFRAME
 70
     0
  9
$SPLINETYPE
 70
     6
  9
$SPLINESEGS
 70
     8
  9
$HANDSEED
  5
DBE
  9
$SURFTAB1
 70
     6
  9
$SURFTAB2
 70
     6
  9
$SURFTYPE
 70
     6
  9
$SURFU
 70
     6
  9
$SURFV
 70
     6
  9
$UCSBASE
  2

  9
$UCSNAME
  2

  9
$UCSORG
 10
0.0
 20
0.0
 30
0.0
  9
$UCSXDIR
 10
1.0
 20
0.0
 30
0.0
  9
$UCSYDIR
 10
0.0
 20
1.0
 30
0.0
  9
$UCSORTHOREF
  2

  9
$UCSORTHOVIEW
 70
     0
  9
$UCSORGTOP
 10
0.0
 20
0.0
 30
0.0
  9
$UCSORGBOTTOM
 10
0.0
 20
0.0
 30
0.0
  9
$UCSORGLEFT
 10
0.0
 20
0.0
 30
0.0
  9
$UCSORGRIGHT
 10
0.0
 20
0.0
 30
0.0
  9
$UCSORGFRONT
 10
0.0
 20
0.0
 30
0.0
  9
$UCSORGBACK
 10
0.0
 20
0.0
 30
0.0
  9
$PUCSBASE
  2

  9
$PUCSNAME
  2

  9
$PUCSORG
 10
0.0
 20
0.0
 30
0.0
  9
$PUCSXDIR
 10
1.0
 20
0.0
 30
0.0
  9
$PUCSYDIR
 10
0.0
 20
1.0
 30
0.0
  9
$PUCSORTHOREF
  2

  9
$PUCSORTHOVIEW
 70
     0
  9
$PUCSORGTOP
 10
0.0
 20
0.0
 30
0.0
  9
$PUCSORGBOTTOM
 10
0.0
 20
0.0
 30
0.0
  9
$PUCSORGLEFT
 10
0.0
 20
0.0
 30
0.0
  9
$PUCSORGRIGHT
 10
0.0
 20
0.0
 30
0.0
  9
$PUCSORGFRONT
 10
0.0
 20
0.0
 30
0.0
  9
$PUCSORGBACK
 10
0.0
 20
0.0
 30
0.0
  9
$USERI1
 70
     0
  9
$USERI2
 70
     0
  9
$USERI3
 70
     0
  9
$USERI4
 70
     0
  9
$USERI5
 70
     0
  9
$USERR1
 40
0.0
  9
$USERR2
 40
0.0
  9
$USERR3
 40
0.0
  9
$USERR4
 40
0.0
  9
$USERR5
 40
0.0
  9
$WORLDVIEW
 70
     1
  9
$SHADEDGE
 70
     3
  9
$SHADEDIF
 70
    70
  9
$TILEMODE
 70
     1
  9
$MAXACTVP
 70
    64
  9
$PINSBASE
 10
0.0
 20
0.0
 30
0.0
  9
$PLIMCHECK
 70
     0
  9
$PEXTMIN
 10
1.000000000000000E+20
 20
1.000000000000000E+20
 30
1.000000000000000E+20
  9
$PEXTMAX
 10
-1.000000000000000E+20
 20
-1.000000000000000E+20
 30
-1.000000000000000E+20
  9
$PLIMMIN
 10
0.0
 20
0.0
  9
$PLIMMAX
 10
420.0
 20
297.0
  9
$UNITMODE
 70
     0
  9
$VISRETAIN
 70
     1
  9
$PLINEGEN
 70
     0
  9
$PSLTSCALE
 70
     1
  9
$TREEDEPTH
 70
  3020
  9
$CMLSTYLE
  2
Standard
  9
$CMLJUST
 70
     0
  9
$CMLSCALE
 40
20.0
  9
$PROXYGRAPHICS
 70
     1
  9
$MEASUREMENT
 70
     1
  9
$CELWEIGHT
370
    -1
  9
$ENDCAPS
280
     0
  9
$JOINSTYLE
280
     0
  9
$LWDISPLAY
290
     0
  9
$INSUNITS
 70
     4
  9
$HYPERLINKBASE
  1

  9
$STYLESHEET
  1

  9
$XEDIT
290
     1
  9
$CEPSNTYPE
380
     0
  9
$PSTYLEMODE
290
     1
  9
$FINGERPRINTGUID
  2
{55D281FF-F51E-4FF9-9C6C-9C21EC1AA7A1}
  9
$VERSIONGUID
  2
{E38299D4-8A21-4432-92DF-EA1D3FB59BCE}
  9
$EXTNAMES
290
     1
  9
$PSVPSCALE
 40
0.0
  9
$OLESTARTUP
290
     0
  0
ENDSEC
  0
SECTION
  2
CLASSES
  0
CLASS
  1
ACDBDICTIONARYWDFLT
  2
AcDbDictionaryWithDefault
  3
AutoCAD 2000
 90
        0
280
     0
281
     0
  0
CLASS
  1
ACDBPLACEHOLDER
  2
AcDbPlaceHolder
  3
AutoCAD 2000
 90
        0
280
     0
281
     0
  0
CLASS
  1
LAYOUT
  2
AcDbLayout
  3
AutoCAD 2000
 90
        0
280
     0
281
     0
  0
CLASS
  1
DICTIONARYVAR
  2
AcDbDictionaryVar
  3
AutoCAD 2000
 90
        0
280
     0
281
     0
  0
ENDSEC
  0
SECTION
  2
TABLES
  0
TABLE
  2
VPORT
  5
8
330
0
100
AcDbSymbolTable
 70
     2
  0
VPORT
  5
DBD
330
8
100
AcDbSymbolTableRecord
100
AcDbViewportTableRecord
  2
*Active
 70
     0
 10
0.0
 20
0.0
 11
1.0
 21
1.0
 12
13536.58131432552
 22
-12248.47677859431
 13
0.0
 23
0.0
 14
10.0
 24
10.0
 15
10.0
 25
10.0
 16
0.0
 26
0.0
 36
1.0
 17
0.0
 27
0.0
 37
0.0
 40
126880.3900880642
 41
1.372384937238493
 42
50.0
 43
0.0
 44
0.0
 50
0.0
 51
0.0
 71
     0
 72
   100
 73
     1
 74
     3
 75
     0
 76
     0
 77
     0
 78
     0
281
     0
 65
     1
110
0.0
120
0.0
130
0.0
111
1.0
121
0.0
131
0.0
112
0.0
122
1.0
132
0.0
 79
     0
146
0.0
  0
ENDTAB
  0
TABLE
  2
LTYPE
  5
5
330
0
100
AcDbSymbolTable
 70
     2
  0
LTYPE
  5
14
330
5
100
AcDbSymbolTableRecord
100
AcDbLinetypeTableRecord
  2
ByBlock
 70
     0
  3

 72
    65
 73
     0
 40
0.0
  0
LTYPE
  5
15
330
5
100
AcDbSymbolTableRecord
100
AcDbLinetypeTableRecord
  2
ByLayer
 70
     0
  3

 72
    65
 73
     0
 40
0.0
  0
LTYPE
  5
16
330
5
100
AcDbSymbolTableRecord
100
AcDbLinetypeTableRecord
  2
Continuous
 70
     0
  3
Solid line
 72
    65
 73
     0
 40
0.0
  0
LTYPE
  5
38A
330
5
100
AcDbSymbolTableRecord
100
AcDbLinetypeTableRecord
  2
DOT
 70
     0
  3
････････････････････････
 72
    65
 73
     2
 40
8.0
 49
6.0
 74
     0
 49
-2.0
 74
     0
  0
ENDTAB
  0
TABLE
  2
LAYER
  5
2
102
{ACAD_XDICTIONARY
360
73
102
}
330
0
100
AcDbSymbolTable
 70
     3
  0
LAYER
  5
10
330
2
100
AcDbSymbolTableRecord
100
AcDbLayerTableRecord
  2
0
 70
     0
 62
     7
  6
Continuous
370
    -3
390
F
  0
LAYER
  5
6E
330
2
100
AcDbSymbolTableRecord
100
AcDbLayerTableRecord
  2
1
 70
     0
 62
     7
  6
Continuous
370
    -3
390
F
  0
LAYER
  5
6F
330
2
100
AcDbSymbolTableRecord
100
AcDbLayerTableRecord
  2
DEFPOINTS
 70
     0
 62
     7
  6
Continuous
290
     0
370
    -3
390
F
  0
ENDTAB
  0
TABLE
  2
STYLE
  5
3
330
0
100
AcDbSymbolTable
 70
     2
  0
STYLE
  5
11
330
3
100
AcDbSymbolTableRecord
100
AcDbTextStyleTableRecord
  2
Standard
 70
     0
 40
0.0
 41
1.0
 50
0.0
 71
     0
 42
2.5
  3
txt
  4

  0
STYLE
  5
70
330
3
100
AcDbSymbolTableRecord
100
AcDbTextStyleTableRecord
  2
KANJI
 70
     0
 40
0.0
 41
1.0
 50
0.0
 71
     0
 42
0.2
  3
TXT
  4
BIGFONT
  0
ENDTAB
  0
TABLE
  2
VIEW
  5
6
330
0
100
AcDbSymbolTable
 70
     0
  0
ENDTAB
  0
TABLE
  2
UCS
  5
7
330
0
100
AcDbSymbolTable
 70
     0
  0
ENDTAB
  0
TABLE
  2
APPID
  5
9
330
0
100
AcDbSymbolTable
 70
     2
  0
APPID
  5
12
330
9
100
AcDbSymbolTableRecord
100
AcDbRegAppTableRecord
  2
ACAD
 70
     0
  0
APPID
  5
72
330
9
100
AcDbSymbolTableRecord
100
AcDbRegAppTableRecord
  2
ACAD_PSEXT
 70
     0
  0
ENDTAB
  0
TABLE
  2
DIMSTYLE
  5
A
330
0
100
AcDbSymbolTable
 70
     2
100
AcDbDimStyleTable
 71
     0
  0
DIMSTYLE
105
27
330
A
100
AcDbSymbolTableRecord
100
AcDbDimStyleTableRecord
  2
ISO-25
 70
     0
 41
2.5
 42
0.625
 43
3.75
 44
1.25
 73
     0
 74
     0
 77
     1
 78
     8
140
2.5
141
2.5
143
0.03937007874016
147
0.625
171
     3
172
     1
271
     2
272
     2
274
     3
283
     0
284
     8
340
11
  0
DIMSTYLE
105
71
102
{ACAD_REACTORS
330
D0A
330
D0B
330
D0C
330
D0D
330
D0E
330
D0F
102
}
330
A
100
AcDbSymbolTableRecord
100
AcDbDimStyleTableRecord
  2
Standard
 70
     0
340
11
  0
ENDTAB
  0
TABLE
  2
BLOCK_RECORD
  5
1
330
0
100
AcDbSymbolTable
 70
    25
  0
BLOCK_RECORD
  5
1F
330
1
100
AcDbSymbolTableRecord
100
AcDbBlockTableRecord
  2
*Model_Space
340
22
  0
BLOCK_RECORD
  5
1B
330
1
100
AcDbSymbolTableRecord
100
AcDbBlockTableRecord
  2
*Paper_Space
340
1E
  0
BLOCK_RECORD
  5
23
330
1
100
AcDbSymbolTableRecord
100
AcDbBlockTableRecord
  2
*Paper_Space0
340
26
  0
BLOCK_RECORD
  5
2B
330
1
100
AcDbSymbolTableRecord
100
AcDbBlockTableRecord
  2
_OPEN30
340
0
102
{BLKREFS
331
5A
331
5B
331
36
331
37
331
4E
331
4F
331
42
331
43
331
66
331
67
331
2D3
331
2D4
331
2DF
331
2E0
331
2EB
331
2EC
331
2F7
331
2F8
331
303
331
304
331
30F
331
310
331
318
331
319
331
321
331
322
331
32A
331
32B
331
333
331
334
331
346
331
347
331
352
331
353
331
35E
331
35F
331
36A
331
36B
331
376
331
377
331
382
331
383
331
D43
331
D44
331
D4F
331
D50
331
D5B
331
D5C
331
D67
331
D68
331
D73
331
D74
331
D7F
331
D80
331
D8A
331
D8B
331
D93
331
D94
331
D9C
331
D9D
331
DA5
331
DA6
331
DAE
331
DAF
331
DB7
331
DB8
102
}
  0
BLOCK_RECORD
  5
31
330
1
100
AcDbSymbolTableRecord
100
AcDbBlockTableRecord
  2
*D2
340
0
  0
BLOCK_RECORD
  5
3E
330
1
100
AcDbSymbolTableRecord
100
AcDbBlockTableRecord
  2
*D3
340
0
  0
BLOCK_RECORD
  5
4A
330
1
100
AcDbSymbolTableRecord
100
AcDbBlockTableRecord
  2
*D4
340
0
  0
BLOCK_RECORD
  5
56
330
1
100
AcDbSymbolTableRecord
100
AcDbBlockTableRecord
  2
*D5
340
0
  0
BLOCK_RECORD
  5
62
330
1
100
AcDbSymbolTableRecord
100
AcDbBlockTableRecord
  2
*D6
340
0
  0
BLOCK_RECORD
  5
2CE
330
1
100
AcDbSymbolTableRecord
100
AcDbBlockTableRecord
  2
*D7
340
0
  0
BLOCK_RECORD
  5
2DB
330
1
100
AcDbSymbolTableRecord
100
AcDbBlockTableRecord
  2
*D8
340
0
  0
BLOCK_RECORD
  5
2E7
330
1
100
AcDbSymbolTableRecord
100
AcDbBlockTableRecord
  2
*D9
340
0
  0
BLOCK_RECORD
  5
2F3
330
1
100
AcDbSymbolTableRecord
100
AcDbBlockTableRecord
  2
*D10
340
0
  0
BLOCK_RECORD
  5
2FF
330
1
100
AcDbSymbolTableRecord
100
AcDbBlockTableRecord
  2
*D11
340
0
  0
BLOCK_RECORD
  5
342
330
1
100
AcDbSymbolTableRecord
100
AcDbBlockTableRecord
  2
*D12
340
0
  0
BLOCK_RECORD
  5
34E
330
1
100
AcDbSymbolTableRecord
100
AcDbBlockTableRecord
  2
*D13
340
0
  0
BLOCK_RECORD
  5
35A
330
1
100
AcDbSymbolTableRecord
100
AcDbBlockTableRecord
  2
*D14
340
0
  0
BLOCK_RECORD
  5
366
330
1
100
AcDbSymbolTableRecord
100
AcDbBlockTableRecord
  2
*D15
340
0
  0
BLOCK_RECORD
  5
372
330
1
100
AcDbSymbolTableRecord
100
AcDbBlockTableRecord
  2
*D16
340
0
  0
BLOCK_RECORD
  5
37E
330
1
100
AcDbSymbolTableRecord
100
AcDbBlockTableRecord
  2
*D17
340
0
  0
BLOCK_RECORD
  5
D3F
330
1
100
AcDbSymbolTableRecord
100
AcDbBlockTableRecord
  2
*D19
340
0
  0
BLOCK_RECORD
  5
D4B
330
1
100
AcDbSymbolTableRecord
100
AcDbBlockTableRecord
  2
*D20
340
0
  0
BLOCK_RECORD
  5
D57
330
1
100
AcDbSymbolTableRecord
100
AcDbBlockTableRecord
  2
*D21
340
0
  0
BLOCK_RECORD
  5
D63
330
1
100
AcDbSymbolTableRecord
100
AcDbBlockTableRecord
  2
*D22
340
0
  0
BLOCK_RECORD
  5
D6F
330
1
100
AcDbSymbolTableRecord
100
AcDbBlockTableRecord
  2
*D23
340
0
  0
BLOCK_RECORD
  5
D7B
330
1
100
AcDbSymbolTableRecord
100
AcDbBlockTableRecord
  2
*D24
340
0
  0
ENDTAB
  0
ENDSEC
  0
SECTION
  2
BLOCKS
  0
BLOCK
  5
20
330
1F
100
AcDbEntity
  8
0
100
AcDbBlockBegin
  2
*Model_Space
 70
     0
 10
0.0
 20
0.0
 30
0.0
  3
*Model_Space
  1

  0
ENDBLK
  5
21
330
1F
100
AcDbEntity
  8
0
100
AcDbBlockEnd
  0
BLOCK
  5
1C
330
1B
100
AcDbEntity
 67
     1
  8
0
100
AcDbBlockBegin
  2
*Paper_Space
 70
     0
 10
0.0
 20
0.0
 30
0.0
  3
*Paper_Space
  1

  0
ENDBLK
  5
1D
330
1B
100
AcDbEntity
 67
     1
  8
0
100
AcDbBlockEnd
  0
BLOCK
  5
24
330
23
100
AcDbEntity
  8
0
100
AcDbBlockBegin
  2
*Paper_Space0
 70
     0
 10
0.0
 20
0.0
 30
0.0
  3
*Paper_Space0
  1

  0
ENDBLK
  5
25
330
23
100
AcDbEntity
  8
0
100
AcDbBlockEnd
  0
BLOCK
  5
2F
330
2B
100
AcDbEntity
  8
0
 62
     0
100
AcDbBlockBegin
  2
_OPEN30
 70
     2
 10
0.0
 20
0.0
 30
0.0
  3
_OPEN30
  1

  0
LINE
  5
2C
330
2B
100
AcDbEntity
  8
0
  6
ByBlock
 62
     0
100
AcDbLine
 10
-1.0
 20
0.267949
 30
0.0
 11
0.0
 21
0.0
 31
0.0
  0
LINE
  5
2D
330
2B
100
AcDbEntity
  8
0
  6
ByBlock
 62
     0
100
AcDbLine
 10
0.0
 20
0.0
 30
0.0
 11
-1.0
 21
-0.267949
 31
0.0
  0
LINE
  5
2E
330
2B
100
AcDbEntity
  8
0
  6
ByBlock
 62
     0
100
AcDbLine
 10
0.0
 20
0.0
 30
0.0
 11
-1.0
 21
0.0
 31
0.0
  0
ENDBLK
  5
30
330
2B
100
AcDbEntity
  8
0
 62
     0
100
AcDbBlockEnd
  0
BLOCK
  5
3C
330
31
100
AcDbEntity
  8
0
100
AcDbBlockBegin
  2
*D2
 70
     1
 10
0.0
 20
0.0
 30
0.0
  3
*D2
  1

  0
LINE
  5
32
330
31
100
AcDbEntity
  8
1
  6
Continuous
 62
     0
370
    -2
100
AcDbLine
 10
135834.6833121244
 20
104054.394177345
 30
0.0
 11
135834.6833121244
 21
106806.7458336756
 31
0.0
  0
LINE
  5
33
330
31
100
AcDbEntity
  8
1
  6
Continuous
 62
     0
370
    -2
100
AcDbLine
 10
136336.3839719388
 20
105257.3945735351
 30
0.0
 11
136336.3839719388
 21
106806.7458336756
 31
0.0
  0
LINE
  5
34
330
31
100
AcDbEntity
  8
1
  6
Continuous
 62
     0
370
    -2
100
AcDbLine
 10
136836.3839719388
 20
106806.5658336756
 30
0.0
 11
137336.3839719388
 21
106806.5658336756
 31
0.0
  0
LINE
  5
35
330
31
100
AcDbEntity
  8
1
  6
Continuous
 62
     0
370
    -2
100
AcDbLine
 10
135334.6833121245
 20
106806.5658336756
 30
0.0
 11
133934.6833121245
 21
106806.5658336756
 31
0.0
  0
INSERT
  5
36
330
31
100
AcDbEntity
  8
1
  6
Continuous
 62
     0
370
    -2
100
AcDbBlockReference
  2
_OPEN30
 10
136336.3839719388
 20
106806.5658336756
 30
0.0
 41
500.0
 42
500.0
 43
500.0
 50
180.0
  0
INSERT
  5
37
330
31
100
AcDbEntity
  8
1
  6
Continuous
 62
     0
370
    -2
100
AcDbBlockReference
  2
_OPEN30
 10
135834.6833121244
 20
106806.5658336756
 30
0.0
 41
500.0
 42
500.0
 43
500.0
  0
MTEXT
  5
38
330
31
100
AcDbEntity
  8
1
  6
Continuous
 62
     0
370
    13
100
AcDbMText
 10
134384.6833121244
 20
107056.5658336755
 30
0.0
 40
400.0
 41
0.0
 71
     5
 72
     1
  1
\A1;8.7
 73
     1
 44
1.0
  0
POINT
  5
39
330
31
100
AcDbEntity
  8
DEFPOINTS
  6
Continuous
 62
     0
100
AcDbPoint
 10
135834.6833121244
 20
104054.3316773451
 30
0.0
  0
POINT
  5
3A
330
31
100
AcDbEntity
  8
DEFPOINTS
  6
Continuous
 62
     0
100
AcDbPoint
 10
136336.3839719388
 20
105257.3320735351
 30
0.0
  0
POINT
  5
3B
330
31
100
AcDbEntity
  8
DEFPOINTS
  6
Continuous
 62
     0
100
AcDbPoint
 10
136336.3839719388
 20
106806.5658336756
 30
0.0
  0
ENDBLK
  5
3D
330
31
100
AcDbEntity
  8
0
100
AcDbBlockEnd
  0
BLOCK
  5
48
330
3E
100
AcDbEntity
  8
0
100
AcDbBlockBegin
  2
*D3
 70
     1
 10
0.0
 20
0.0
 30
0.0
  3
*D3
  1

  0
LINE
  5
3F
330
3E
100
AcDbEntity
  8
1
  6
Continuous
 62
     0
370
    -2
100
AcDbLine
 10
130800.4391912929
 20
106009.3534171618
 30
0.0
 11
133626.2270741225
 21
106009.3534171618
 31
0.0
  0
LINE
  5
40
330
3E
100
AcDbEntity
  8
1
  6
Continuous
 62
     0
370
    -2
100
AcDbLine
 10
130800.4391912929
 20
99089.34431636122
 30
0.0
 11
133626.2270741225
 21
99089.34431636122
 31
0.0
  0
LINE
  5
41
330
3E
100
AcDbEntity
  8
1
  6
Continuous
 62
     0
370
    -2
100
AcDbLine
 10
133626.0470741225
 20
105509.3534171618
 30
0.0
 11
133626.0470741225
 21
99589.34431636123
 31
0.0
  0
INSERT
  5
42
330
3E
100
AcDbEntity
  8
1
  6
Continuous
 62
     0
370
    -2
100
AcDbBlockReference
  2
_OPEN30
 10
133626.0470741225
 20
106009.3534171618
 30
0.0
 41
500.0
 42
500.0
 43
500.0
 50
90.0
  0
INSERT
  5
43
330
3E
100
AcDbEntity
  8
1
  6
Continuous
 62
     0
370
    -2
100
AcDbBlockReference
  2
_OPEN30
 10
133626.0470741225
 20
99089.34431636122
 30
0.0
 41
500.0
 42
500.0
 43
500.0
 50
270.0
  0
MTEXT
  5
44
330
3E
100
AcDbEntity
  8
1
  6
Continuous
 62
     0
370
    13
100
AcDbMText
 10
133376.0470741225
 20
102549.3488667616
 30
0.0
 40
400.0
 41
0.0
 71
     5
 72
     1
  1
\A1;120
 11
0.0000000000000001
 21
1.0
 31
0.0
 73
     1
 44
1.0
  0
POINT
  5
45
330
3E
100
AcDbEntity
  8
DEFPOINTS
  6
Continuous
 62
     0
100
AcDbPoint
 10
130800.3766912928
 20
106009.3534171618
 30
0.0
  0
POINT
  5
46
330
3E
100
AcDbEntity
  8
DEFPOINTS
  6
Continuous
 62
     0
100
AcDbPoint
 10
130800.3766912928
 20
99089.34431636122
 30
0.0
  0
POINT
  5
47
330
3E
100
AcDbEntity
  8
DEFPOINTS
  6
Continuous
 62
     0
100
AcDbPoint
 10
133626.0470741225
 20
99089.34431636122
 30
0.0
  0
ENDBLK
  5
49
330
3E
100
AcDbEntity
  8
0
100
AcDbBlockEnd
  0
BLOCK
  5
54
330
4A
100
AcDbEntity
  8
0
100
AcDbBlockBegin
  2
*D4
 70
     1
 10
0.0
 20
0.0
 30
0.0
  3
*D4
  1

  0
LINE
  5
4B
330
4A
100
AcDbEntity
  8
1
  6
Continuous
 62
     0
370
    -2
100
AcDbLine
 10
124514.7017580615
 20
105605.7487196151
 30
0.0
 11
124514.7017580615
 21
107581.9497851141
 31
0.0
  0
LINE
  5
4C
330
4A
100
AcDbEntity
  8
1
  6
Continuous
 62
     0
370
    -2
100
AcDbLine
 10
131204.043888839
 20
105605.7487196151
 30
0.0
 11
131204.043888839
 21
107581.9497851141
 31
0.0
  0
LINE
  5
4D
330
4A
100
AcDbEntity
  8
1
  6
Continuous
 62
     0
370
    -2
100
AcDbLine
 10
125014.7017580615
 20
107581.7697851141
 30
0.0
 11
130704.043888839
 21
107581.7697851141
 31
0.0
  0
INSERT
  5
4E
330
4A
100
AcDbEntity
  8
1
  6
Continuous
 62
     0
370
    -2
100
AcDbBlockReference
  2
_OPEN30
 10
124514.7017580615
 20
107581.7697851141
 30
0.0
 41
500.0
 42
500.0
 43
500.0
 50
180.0
  0
INSERT
  5
4F
330
4A
100
AcDbEntity
  8
1
  6
Continuous
 62
     0
370
    -2
100
AcDbBlockReference
  2
_OPEN30
 10
131204.043888839
 20
107581.7697851141
 30
0.0
 41
500.0
 42
500.0
 43
500.0
  0
MTEXT
  5
50
330
4A
100
AcDbEntity
  8
1
  6
Continuous
 62
     0
370
    13
100
AcDbMText
 10
127859.3728234503
 20
107831.7697851141
 30
0.0
 40
400.0
 41
0.0
 71
     5
 72
     1
  1
\A1;116
 73
     1
 44
1.0
  0
POINT
  5
51
330
4A
100
AcDbEntity
  8
DEFPOINTS
  6
Continuous
 62
     0
100
AcDbPoint
 10
124514.7017580615
 20
105605.6862196152
 30
0.0
  0
POINT
  5
52
330
4A
100
AcDbEntity
  8
DEFPOINTS
  6
Continuous
 62
     0
100
AcDbPoint
 10
131204.043888839
 20
105605.6862196152
 30
0.0
  0
POINT
  5
53
330
4A
100
AcDbEntity
  8
DEFPOINTS
  6
Continuous
 62
     0
100
AcDbPoint
 10
131204.043888839
 20
107581.7697851141
 30
0.0
  0
ENDBLK
  5
55
330
4A
100
AcDbEntity
  8
0
100
AcDbBlockEnd
  0
BLOCK
  5
60
330
56
100
AcDbEntity
  8
0
100
AcDbBlockBegin
  2
*D5
 70
     1
 10
0.0
 20
0.0
 30
0.0
  3
*D5
  1

  0
LINE
  5
57
330
56
100
AcDbEntity
  8
1
  6
Continuous
 62
     0
370
    -2
100
AcDbLine
 10
136336.3839719363
 20
106393.8613797983
 30
0.0
 11
136336.3839719363
 21
107581.9497851141
 31
0.0
  0
LINE
  5
58
330
56
100
AcDbEntity
  8
1
  6
Continuous
 62
     0
370
    -2
100
AcDbLine
 10
138787.220528466
 20
104396.6533331835
 30
0.0
 11
138787.220528466
 21
107581.9497851141
 31
0.0
  0
LINE
  5
59
330
56
100
AcDbEntity
  8
1
  6
Continuous
 62
     0
370
    -2
100
AcDbLine
 10
136836.3839719363
 20
107581.7697851141
 30
0.0
 11
138287.220528466
 21
107581.7697851141
 31
0.0
  0
INSERT
  5
5A
330
56
100
AcDbEntity
  8
1
  6
Continuous
 62
     0
370
    -2
100
AcDbBlockReference
  2
_OPEN30
 10
136336.3839719363
 20
107581.7697851141
 30
0.0
 41
500.0
 42
500.0
 43
500.0
 50
180.0
  0
INSERT
  5
5B
330
56
100
AcDbEntity
  8
1
  6
Continuous
 62
     0
370
    -2
100
AcDbBlockReference
  2
_OPEN30
 10
138787.220528466
 20
107581.7697851141
 30
0.0
 41
500.0
 42
500.0
 43
500.0
  0
MTEXT
  5
5C
330
56
100
AcDbEntity
  8
1
  6
Continuous
 62
     0
370
    13
100
AcDbMText
 10
137561.8022502028
 20
107831.7697851141
 30
0.0
 40
400.0
 41
0.0
 71
     5
 72
     1
  1
\A1;42.5
 73
     1
 44
1.0
  0
POINT
  5
5D
330
56
100
AcDbEntity
  8
DEFPOINTS
  6
Continuous
 62
     0
100
AcDbPoint
 10
136336.3839719363
 20
106393.7988797982
 30
0.0
  0
POINT
  5
5E
330
56
100
AcDbEntity
  8
DEFPOINTS
  6
Continuous
 62
     0
100
AcDbPoint
 10
138787.220528466
 20
104396.5908331835
 30
0.0
  0
POINT
  5
5F
330
56
100
AcDbEntity
  8
DEFPOINTS
  6
Continuous
 62
     0
100
AcDbPoint
 10
138787.220528466
 20
107581.7697851141
 30
0.0
  0
ENDBLK
  5
61
330
56
100
AcDbEntity
  8
0
100
AcDbBlockEnd
  0
BLOCK
  5
6C
330
62
100
AcDbEntity
  8
0
100
AcDbBlockBegin
  2
*D6
 70
     1
 10
0.0
 20
0.0
 30
0.0
  3
*D6
  1

  0
LINE
  5
63
330
62
100
AcDbEntity
  8
1
  6
Continuous
 62
     0
370
    -2
100
AcDbLine
 10
136336.4464719388
 20
104538.8514832421
 30
0.0
 11
140517.4028036725
 21
104538.8514832421
 31
0.0
  0
LINE
  5
64
330
62
100
AcDbEntity
  8
1
  6
Continuous
 62
     0
370
    -2
100
AcDbLine
 10
136336.4464719388
 20
100559.8462502805
 30
0.0
 11
140517.4028036725
 21
100559.8462502805
 31
0.0
  0
LINE
  5
65
330
62
100
AcDbEntity
  8
1
  6
Continuous
 62
     0
370
    -2
100
AcDbLine
 10
140517.2228036725
 20
104038.8514832421
 30
0.0
 11
140517.2228036725
 21
101059.8462502805
 31
0.0
  0
INSERT
  5
66
330
62
100
AcDbEntity
  8
1
  6
Continuous
 62
     0
370
    -2
100
AcDbBlockReference
  2
_OPEN30
 10
140517.2228036725
 20
104538.8514832421
 30
0.0
 41
500.0
 42
500.0
 43
500.0
 50
90.0
  0
INSERT
  5
67
330
62
100
AcDbEntity
  8
1
  6
Continuous
 62
     0
370
    -2
100
AcDbBlockReference
  2
_OPEN30
 10
140517.2228036725
 20
100559.8462502805
 30
0.0
 41
500.0
 42
500.0
 43
500.0
 50
270.0
  0
MTEXT
  5
68
330
62
100
AcDbEntity
  8
1
  6
Continuous
 62
     0
370
    13
100
AcDbMText
 10
140267.2228036725
 20
102549.3488667613
 30
0.0
 40
400.0
 41
0.0
 71
     5
 72
     1
  1
\A1;69
 11
0.0000000000000001
 21
1.0
 31
0.0
 73
     1
 44
1.0
  0
POINT
  5
69
330
62
100
AcDbEntity
  8
DEFPOINTS
  6
Continuous
 62
     0
100
AcDbPoint
 10
136336.3839719388
 20
104538.8514832421
 30
0.0
  0
POINT
  5
6A
330
62
100
AcDbEntity
  8
DEFPOINTS
  6
Continuous
 62
     0
100
AcDbPoint
 10
136336.3839719388
 20
100559.8462502805
 30
0.0
  0
POINT
  5
6B
330
62
100
AcDbEntity
  8
DEFPOINTS
  6
Continuous
 62
     0
100
AcDbPoint
 10
140517.2228036725
 20
100559.8462502805
 30
0.0
  0
ENDBLK
  5
6D
330
62
100
AcDbEntity
  8
0
100
AcDbBlockEnd
  0
BLOCK
  5
2D9
330
2CE
100
AcDbEntity
  8
0
100
AcDbBlockBegin
  2
*D7
 70
     1
 10
0.0
 20
0.0
 30
0.0
  3
*D7
  1

  0
LINE
  5
30B
330
2CE
100
AcDbEntity
  8
1
  6
Continuous
 62
     0
370
    -2
100
AcDbLine
 10
15097.59074992782
 20
-9896.343801839726
 30
0.0
 11
15097.59074992782
 21
-7143.992145509217
 31
0.0
  0
LINE
  5
30C
330
2CE
100
AcDbEntity
  8
1
  6
Continuous
 62
     0
370
    -2
100
AcDbLine
 10
15599.2914097421
 20
-8693.343405649704
 30
0.0
 11
15599.2914097421
 21
-7143.992145509217
 31
0.0
  0
LINE
  5
30D
330
2CE
100
AcDbEntity
  8
1
  6
Continuous
 62
     0
370
    -2
100
AcDbLine
 10
16099.2914097421
 20
-7144.172145509218
 30
0.0
 11
16599.29140974209
 21
-7144.172145509218
 31
0.0
  0
LINE
  5
30E
330
2CE
100
AcDbEntity
  8
1
  6
Continuous
 62
     0
370
    -2
100
AcDbLine
 10
14597.5907499278
 20
-7144.172145509218
 30
0.0
 11
13197.59074992782
 21
-7144.172145509218
 31
0.0
  0
INSERT
  5
30F
330
2CE
100
AcDbEntity
  8
1
  6
Continuous
 62
     0
370
    -2
100
AcDbBlockReference
  2
_OPEN30
 10
15599.2914097421
 20
-7144.172145509218
 30
0.0
 41
500.0
 42
500.0
 43
500.0
 50
180.0
  0
INSERT
  5
310
330
2CE
100
AcDbEntity
  8
1
  6
Continuous
 62
     0
370
    -2
100
AcDbBlockReference
  2
_OPEN30
 10
15097.59074992782
 20
-7144.172145509218
 30
0.0
 41
500.0
 42
500.0
 43
500.0
  0
MTEXT
  5
311
330
2CE
100
AcDbEntity
  8
1
  6
Continuous
 62
     0
370
    13
100
AcDbMText
 10
13647.59074992782
 20
-6894.172145509218
 30
0.0
 40
400.0
 41
0.0
 71
     5
 72
     1
  1
\A1;8.7
 73
     1
 44
1.0
  0
POINT
  5
312
330
2CE
100
AcDbEntity
  8
DEFPOINTS
  6
Continuous
 62
     0
100
AcDbPoint
 10
15097.59074992782
 20
-9896.406301839729
 30
0.0
  0
POINT
  5
313
330
2CE
100
AcDbEntity
  8
DEFPOINTS
  6
Continuous
 62
     0
100
AcDbPoint
 10
15599.2914097421
 20
-8693.405905649704
 30
0.0
  0
POINT
  5
314
330
2CE
100
AcDbEntity
  8
DEFPOINTS
  6
Continuous
 62
     0
100
AcDbPoint
 10
15599.2914097421
 20
-7144.172145509218
 30
0.0
  0
ENDBLK
  5
2DA
330
2CE
100
AcDbEntity
  8
0
100
AcDbBlockEnd
  0
BLOCK
  5
2E5
330
2DB
100
AcDbEntity
  8
0
100
AcDbBlockBegin
  2
*D8
 70
     1
 10
0.0
 20
0.0
 30
0.0
  3
*D8
  1

  0
LINE
  5
315
330
2DB
100
AcDbEntity
  8
1
  6
Continuous
 62
     0
370
    -2
100
AcDbLine
 10
10063.34662909621
 20
-7941.384562022908
 30
0.0
 11
12889.13451192583
 21
-7941.384562022911
 31
0.0
  0
LINE
  5
316
330
2DB
100
AcDbEntity
  8
1
  6
Continuous
 62
     0
370
    -2
100
AcDbLine
 10
10063.34662909621
 20
-14861.39366282363
 30
0.0
 11
12889.13451192583
 21
-14861.39366282364
 31
0.0
  0
LINE
  5
317
330
2DB
100
AcDbEntity
  8
1
  6
Continuous
 62
     0
370
    -2
100
AcDbLine
 10
12888.95451192583
 20
-8441.384562022911
 30
0.0
 11
12888.95451192583
 21
-14361.39366282364
 31
0.0
  0
INSERT
  5
318
330
2DB
100
AcDbEntity
  8
1
  6
Continuous
 62
     0
370
    -2
100
AcDbBlockReference
  2
_OPEN30
 10
12888.95451192583
 20
-7941.384562022911
 30
0.0
 41
500.0
 42
500.0
 43
500.0
 50
90.0
  0
INSERT
  5
319
330
2DB
100
AcDbEntity
  8
1
  6
Continuous
 62
     0
370
    -2
100
AcDbBlockReference
  2
_OPEN30
 10
12888.95451192583
 20
-14861.39366282364
 30
0.0
 41
500.0
 42
500.0
 43
500.0
 50
270.0
  0
MTEXT
  5
31A
330
2DB
100
AcDbEntity
  8
1
  6
Continuous
 62
     0
370
    13
100
AcDbMText
 10
12638.95451192583
 20
-11401.38911242327
 30
0.0
 40
400.0
 41
0.0
 71
     5
 72
     1
  1
\A1;120
 11
0.0000000000000001
 21
1.0
 31
0.0
 73
     1
 44
1.0
  0
POINT
  5
31B
330
2DB
100
AcDbEntity
  8
DEFPOINTS
  6
Continuous
 62
     0
100
AcDbPoint
 10
10063.28412909621
 20
-7941.384562022908
 30
0.0
  0
POINT
  5
31C
330
2DB
100
AcDbEntity
  8
DEFPOINTS
  6
Continuous
 62
     0
100
AcDbPoint
 10
10063.28412909621
 20
-14861.39366282363
 30
0.0
  0
POINT
  5
31D
330
2DB
100
AcDbEntity
  8
DEFPOINTS
  6
Continuous
 62
     0
100
AcDbPoint
 10
12888.95451192583
 20
-14861.39366282364
 30
0.0
  0
ENDBLK
  5
2E6
330
2DB
100
AcDbEntity
  8
0
100
AcDbBlockEnd
  0
BLOCK
  5
2F1
330
2E7
100
AcDbEntity
  8
0
100
AcDbBlockBegin
  2
*D9
 70
     1
 10
0.0
 20
0.0
 30
0.0
  3
*D9
  1

  0
LINE
  5
31E
330
2E7
100
AcDbEntity
  8
1
  6
Continuous
 62
     0
370
    -2
100
AcDbLine
 10
3777.60919586487
 20
-8344.989259569628
 30
0.0
 11
3777.60919586487
 21
-6368.788194070721
 31
0.0
  0
LINE
  5
31F
330
2E7
100
AcDbEntity
  8
1
  6
Continuous
 62
     0
370
    -2
100
AcDbLine
 10
10466.95132664231
 20
-8344.989259569628
 30
0.0
 11
10466.95132664231
 21
-6368.788194070721
 31
0.0
  0
LINE
  5
320
330
2E7
100
AcDbEntity
  8
1
  6
Continuous
 62
     0
370
    -2
100
AcDbLine
 10
4277.60919586487
 20
-6368.968194070721
 30
0.0
 11
9966.951326642323
 21
-6368.968194070721
 31
0.0
  0
INSERT
  5
321
330
2E7
100
AcDbEntity
  8
1
  6
Continuous
 62
     0
370
    -2
100
AcDbBlockReference
  2
_OPEN30
 10
3777.60919586487
 20
-6368.968194070721
 30
0.0
 41
500.0
 42
500.0
 43
500.0
 50
180.0
  0
INSERT
  5
322
330
2E7
100
AcDbEntity
  8
1
  6
Continuous
 62
     0
370
    -2
100
AcDbBlockReference
  2
_OPEN30
 10
10466.95132664231
 20
-6368.968194070721
 30
0.0
 41
500.0
 42
500.0
 43
500.0
  0
MTEXT
  5
323
330
2E7
100
AcDbEntity
  8
1
  6
Continuous
 62
     0
370
    13
100
AcDbMText
 10
7122.280261253599
 20
-6118.968194070721
 30
0.0
 40
400.0
 41
0.0
 71
     5
 72
     1
  1
\A1;116
 73
     1
 44
1.0
  0
POINT
  5
324
330
2E7
100
AcDbEntity
  8
DEFPOINTS
  6
Continuous
 62
     0
100
AcDbPoint
 10
3777.60919586487
 20
-8345.051759569626
 30
0.0
  0
POINT
  5
325
330
2E7
100
AcDbEntity
  8
DEFPOINTS
  6
Continuous
 62
     0
100
AcDbPoint
 10
10466.95132664231
 20
-8345.051759569626
 30
0.0
  0
POINT
  5
326
330
2E7
100
AcDbEntity
  8
DEFPOINTS
  6
Continuous
 62
     0
100
AcDbPoint
 10
10466.95132664231
 20
-6368.968194070721
 30
0.0
  0
ENDBLK
  5
2F2
330
2E7
100
AcDbEntity
  8
0
100
AcDbBlockEnd
  0
BLOCK
  5
2FD
330
2F3
100
AcDbEntity
  8
0
100
AcDbBlockBegin
  2
*D10
 70
     1
 10
0.0
 20
0.0
 30
0.0
  3
*D10
  1

  0
LINE
  5
327
330
2F3
100
AcDbEntity
  8
1
  6
Continuous
 62
     0
370
    -2
100
AcDbLine
 10
15599.29140973959
 20
-7556.876599386552
 30
0.0
 11
15599.29140973959
 21
-6368.788194070721
 31
0.0
  0
LINE
  5
328
330
2F3
100
AcDbEntity
  8
1
  6
Continuous
 62
     0
370
    -2
100
AcDbLine
 10
18050.12796626934
 20
-9554.084646001356
 30
0.0
 11
18050.12796626934
 21
-6368.788194070721
 31
0.0
  0
LINE
  5
329
330
2F3
100
AcDbEntity
  8
1
  6
Continuous
 62
     0
370
    -2
100
AcDbLine
 10
16099.29140973959
 20
-6368.968194070721
 30
0.0
 11
17550.12796626934
 21
-6368.968194070721
 31
0.0
  0
INSERT
  5
32A
330
2F3
100
AcDbEntity
  8
1
  6
Continuous
 62
     0
370
    -2
100
AcDbBlockReference
  2
_OPEN30
 10
15599.29140973959
 20
-6368.968194070721
 30
0.0
 41
500.0
 42
500.0
 43
500.0
 50
180.0
  0
INSERT
  5
32B
330
2F3
100
AcDbEntity
  8
1
  6
Continuous
 62
     0
370
    -2
100
AcDbBlockReference
  2
_OPEN30
 10
18050.12796626934
 20
-6368.968194070721
 30
0.0
 41
500.0
 42
500.0
 43
500.0
  0
MTEXT
  5
32C
330
2F3
100
AcDbEntity
  8
1
  6
Continuous
 62
     0
370
    13
100
AcDbMText
 10
16824.70968800628
 20
-6118.968194070721
 30
0.0
 40
400.0
 41
0.0
 71
     5
 72
     1
  1
\A1;42.5
 73
     1
 44
1.0
  0
POINT
  5
32D
330
2F3
100
AcDbEntity
  8
DEFPOINTS
  6
Continuous
 62
     0
100
AcDbPoint
 10
15599.29140973959
 20
-7556.939099386553
 30
0.0
  0
POINT
  5
32E
330
2F3
100
AcDbEntity
  8
DEFPOINTS
  6
Continuous
 62
     0
100
AcDbPoint
 10
18050.12796626934
 20
-9554.147146001353
 30
0.0
  0
POINT
  5
32F
330
2F3
100
AcDbEntity
  8
DEFPOINTS
  6
Continuous
 62
     0
100
AcDbPoint
 10
18050.12796626934
 20
-6368.968194070721
 30
0.0
  0
ENDBLK
  5
2FE
330
2F3
100
AcDbEntity
  8
0
100
AcDbBlockEnd
  0
BLOCK
  5
309
330
2FF
100
AcDbEntity
  8
0
100
AcDbBlockBegin
  2
*D11
 70
     1
 10
0.0
 20
0.0
 30
0.0
  3
*D11
  1

  0
LINE
  5
330
330
2FF
100
AcDbEntity
  8
1
  6
Continuous
 62
     0
370
    -2
100
AcDbLine
 10
15599.35390974211
 20
-9411.886495942756
 30
0.0
 11
19780.31024147584
 21
-9411.886495942756
 31
0.0
  0
LINE
  5
331
330
2FF
100
AcDbEntity
  8
1
  6
Continuous
 62
     0
370
    -2
100
AcDbLine
 10
15599.35390974211
 20
-13390.8917289043
 30
0.0
 11
19780.31024147584
 21
-13390.8917289043
 31
0.0
  0
LINE
  5
332
330
2FF
100
AcDbEntity
  8
1
  6
Continuous
 62
     0
370
    -2
100
AcDbLine
 10
19780.13024147583
 20
-9911.886495942759
 30
0.0
 11
19780.13024147583
 21
-12890.8917289043
 31
0.0
  0
INSERT
  5
333
330
2FF
100
AcDbEntity
  8
1
  6
Continuous
 62
     0
370
    -2
100
AcDbBlockReference
  2
_OPEN30
 10
19780.13024147583
 20
-9411.886495942756
 30
0.0
 41
500.0
 42
500.0
 43
500.0
 50
90.0
  0
INSERT
  5
334
330
2FF
100
AcDbEntity
  8
1
  6
Continuous
 62
     0
370
    -2
100
AcDbBlockReference
  2
_OPEN30
 10
19780.13024147583
 20
-13390.8917289043
 30
0.0
 41
500.0
 42
500.0
 43
500.0
 50
270.0
  0
MTEXT
  5
335
330
2FF
100
AcDbEntity
  8
1
  6
Continuous
 62
     0
370
    13
100
AcDbMText
 10
19530.13024147585
 20
-11401.38911242352
 30
0.0
 40
400.0
 41
0.0
 71
     5
 72
     1
  1
\A1;69
 11
0.0000000000000001
 21
1.0
 31
0.0
 73
     1
 44
1.0
  0
POINT
  5
336
330
2FF
100
AcDbEntity
  8
DEFPOINTS
  6
Continuous
 62
     0
100
AcDbPoint
 10
15599.2914097421
 20
-9411.886495942756
 30
0.0
  0
POINT
  5
337
330
2FF
100
AcDbEntity
  8
DEFPOINTS
  6
Continuous
 62
     0
100
AcDbPoint
 10
15599.2914097421
 20
-13390.8917289043
 30
0.0
  0
POINT
  5
338
330
2FF
100
AcDbEntity
  8
DEFPOINTS
  6
Continuous
 62
     0
100
AcDbPoint
 10
19780.13024147583
 20
-13390.8917289043
 30
0.0
  0
ENDBLK
  5
30A
330
2FF
100
AcDbEntity
  8
0
100
AcDbBlockEnd
  0
BLOCK
  5
34C
330
342
100
AcDbEntity
  8
0
100
AcDbBlockBegin
  2
*D12
 70
     1
 10
0.0
 20
0.0
 30
0.0
  3
*D12
  1

  0
LINE
  5
343
330
342
100
AcDbEntity
  8
1
  6
Continuous
 62
     0
370
    -2
100
AcDbLine
 10
152486.1235216908
 20
109971.3889230566
 30
0.0
 11
152486.1235216908
 21
111462.894013
 31
0.0
  0
LINE
  5
344
330
342
100
AcDbEntity
  8
1
  6
Continuous
 62
     0
370
    -2
100
AcDbLine
 10
157831.0432733115
 20
109801.3444298453
 30
0.0
 11
157831.0432733115
 21
111462.894013
 31
0.0
  0
LINE
  5
345
330
342
100
AcDbEntity
  8
1
  6
Continuous
 62
     0
370
    13
100
AcDbLine
 10
152986.1235216908
 20
111462.714013
 30
0.0
 11
157331.0432733116
 21
111462.714013
 31
0.0
  0
INSERT
  5
346
330
342
100
AcDbEntity
  8
1
  6
Continuous
 62
     0
370
    13
100
AcDbBlockReference
  2
_OPEN30
 10
152486.1235216908
 20
111462.714013
 30
0.0
 41
500.0
 42
500.0
 43
500.0
 50
180.0
  0
INSERT
  5
347
330
342
100
AcDbEntity
  8
1
  6
Continuous
 62
     0
370
    13
100
AcDbBlockReference
  2
_OPEN30
 10
157831.0432733115
 20
111462.714013
 30
0.0
 41
500.0
 42
500.0
 43
500.0
  0
MTEXT
  5
348
330
342
100
AcDbEntity
  8
1
  6
Continuous
 62
     0
370
    13
100
AcDbMText
 10
155154.1811078321
 20
111712.714013
 30
0.0
 40
400.0
 41
0.0
 71
     5
 72
     1
  1
\A1;120
 73
     1
 44
1.0
  0
POINT
  5
349
330
342
100
AcDbEntity
  8
DEFPOINTS
  6
Continuous
 62
     0
100
AcDbPoint
 10
152486.1235216908
 20
109971.3264230566
 30
0.0
  0
POINT
  5
34A
330
342
100
AcDbEntity
  8
DEFPOINTS
  6
Continuous
 62
     0
100
AcDbPoint
 10
157831.0432733115
 20
109801.2819298453
 30
0.0
  0
POINT
  5
34B
330
342
100
AcDbEntity
  8
DEFPOINTS
  6
Continuous
 62
     0
100
AcDbPoint
 10
157831.0432733115
 20
111462.714013
 30
0.0
  0
ENDBLK
  5
34D
330
342
100
AcDbEntity
  8
0
100
AcDbBlockEnd
  0
BLOCK
  5
358
330
34E
100
AcDbEntity
  8
0
100
AcDbBlockBegin
  2
*D13
 70
     1
 10
0.0
 20
0.0
 30
0.0
  3
*D13
  1

  0
LINE
  5
34F
330
34E
100
AcDbEntity
  8
1
  6
Continuous
 62
     0
370
    -2
100
AcDbLine
 10
160958.2520663232
 20
109311.3548874708
 30
0.0
 11
160958.2520663232
 21
111462.894013
 31
0.0
  0
LINE
  5
350
330
34E
100
AcDbEntity
  8
1
  6
Continuous
 62
     0
370
    -2
100
AcDbLine
 10
162075.826403379
 20
110212.0412053516
 30
0.0
 11
162075.826403379
 21
111462.894013
 31
0.0
  0
LINE
  5
351
330
34E
100
AcDbEntity
  8
1
  6
Continuous
 62
     0
370
    13
100
AcDbLine
 10
161458.2520663232
 20
111462.714013
 30
0.0
 11
161575.826403379
 21
111462.714013
 31
0.0
  0
INSERT
  5
352
330
34E
100
AcDbEntity
  8
1
  6
Continuous
 62
     0
370
    13
100
AcDbBlockReference
  2
_OPEN30
 10
160958.2520663232
 20
111462.714013
 30
0.0
 41
500.0
 42
500.0
 43
500.0
 50
180.0
  0
INSERT
  5
353
330
34E
100
AcDbEntity
  8
1
  6
Continuous
 62
     0
370
    13
100
AcDbBlockReference
  2
_OPEN30
 10
162075.826403379
 20
111462.714013
 30
0.0
 41
500.0
 42
500.0
 43
500.0
  0
MTEXT
  5
354
330
34E
100
AcDbEntity
  8
1
  6
Continuous
 62
     0
370
    13
100
AcDbMText
 10
161575.826403379
 20
111712.714013
 30
0.0
 40
400.0
 41
0.0
 71
     5
 72
     1
  1
\A1;25
 73
     1
 44
1.0
  0
POINT
  5
355
330
34E
100
AcDbEntity
  8
DEFPOINTS
  6
Continuous
 62
     0
100
AcDbPoint
 10
160958.2520663232
 20
109311.2923874708
 30
0.0
  0
POINT
  5
356
330
34E
100
AcDbEntity
  8
DEFPOINTS
  6
Continuous
 62
     0
100
AcDbPoint
 10
162075.826403379
 20
110211.9787053516
 30
0.0
  0
POINT
  5
357
330
34E
100
AcDbEntity
  8
DEFPOINTS
  6
Continuous
 62
     0
100
AcDbPoint
 10
162075.826403379
 20
111462.714013
 30
0.0
  0
ENDBLK
  5
359
330
34E
100
AcDbEntity
  8
0
100
AcDbBlockEnd
  0
BLOCK
  5
364
330
35A
100
AcDbEntity
  8
0
100
AcDbBlockBegin
  2
*D14
 70
     1
 10
0.0
 20
0.0
 30
0.0
  3
*D14
  1

  0
LINE
  5
35B
330
35A
100
AcDbEntity
  8
1
  6
Continuous
 62
     0
370
    -2
100
AcDbLine
 10
162062.4546161459
 20
110235.1402035157
 30
0.0
 11
162062.4546161459
 21
111466.4769700173
 31
0.0
  0
LINE
  5
35C
330
35A
100
AcDbEntity
  8
1
  6
Continuous
 62
     0
370
    -2
100
AcDbLine
 10
164080.1619161464
 20
108758.3888360354
 30
0.0
 11
164080.1619161464
 21
111466.4769700173
 31
0.0
  0
LINE
  5
35D
330
35A
100
AcDbEntity
  8
1
  6
Continuous
 62
     0
370
    13
100
AcDbLine
 10
162562.4546161458
 20
111466.2969700173
 30
0.0
 11
163580.1619161463
 21
111466.2969700173
 31
0.0
  0
INSERT
  5
35E
330
35A
100
AcDbEntity
  8
1
  6
Continuous
 62
     0
370
    13
100
AcDbBlockReference
  2
_OPEN30
 10
162062.4546161459
 20
111466.2969700173
 30
0.0
 41
500.0
 42
500.0
 43
500.0
 50
180.0
  0
INSERT
  5
35F
330
35A
100
AcDbEntity
  8
1
  6
Continuous
 62
     0
370
    13
100
AcDbBlockReference
  2
_OPEN30
 10
164080.1619161464
 20
111466.2969700173
 30
0.0
 41
500.0
 42
500.0
 43
500.0
  0
MTEXT
  5
360
330
35A
100
AcDbEntity
  8
1
  6
Continuous
 62
     0
370
    13
100
AcDbMText
 10
163071.3082661461
 20
111716.2969700173
 30
0.0
 40
400.0
 41
0.0
 71
     5
 72
     1
  1
\A1;45
 73
     1
 44
1.0
  0
POINT
  5
361
330
35A
100
AcDbEntity
  8
DEFPOINTS
  6
Continuous
 62
     0
100
AcDbPoint
 10
162062.4546161459
 20
110235.0777035157
 30
0.0
  0
POINT
  5
362
330
35A
100
AcDbEntity
  8
DEFPOINTS
  6
Continuous
 62
     0
100
AcDbPoint
 10
164080.1619161464
 20
108758.3263360354
 30
0.0
  0
POINT
  5
363
330
35A
100
AcDbEntity
  8
DEFPOINTS
  6
Continuous
 62
     0
100
AcDbPoint
 10
164080.1619161464
 20
111466.2969700173
 30
0.0
  0
ENDBLK
  5
365
330
35A
100
AcDbEntity
  8
0
100
AcDbBlockEnd
  0
BLOCK
  5
370
330
366
100
AcDbEntity
  8
0
100
AcDbBlockBegin
  2
*D15
 70
     1
 10
0.0
 20
0.0
 30
0.0
  3
*D15
  1

  0
LINE
  5
367
330
366
100
AcDbEntity
  8
1
  6
Continuous
 62
     0
370
    -2
100
AcDbLine
 10
157407.9111547814
 20
110224.2160332501
 30
0.0
 11
159109.6688017284
 21
110224.2160332501
 31
0.0
  0
LINE
  5
368
330
366
100
AcDbEntity
  8
1
  6
Continuous
 62
     0
370
    -2
100
AcDbLine
 10
157407.9111547814
 20
99534.42730000604
 30
0.0
 11
159109.6688017284
 21
99534.42730000604
 31
0.0
  0
LINE
  5
369
330
366
100
AcDbEntity
  8
1
  6
Continuous
 62
     0
370
    13
100
AcDbLine
 10
159109.4888017284
 20
109724.2160332501
 30
0.0
 11
159109.4888017284
 21
100034.427300006
 31
0.0
  0
INSERT
  5
36A
330
366
100
AcDbEntity
  8
1
  6
Continuous
 62
     0
370
    13
100
AcDbBlockReference
  2
_OPEN30
 10
159109.4888017284
 20
110224.2160332501
 30
0.0
 41
500.0
 42
500.0
 43
500.0
 50
90.0
  0
INSERT
  5
36B
330
366
100
AcDbEntity
  8
1
  6
Continuous
 62
     0
370
    13
100
AcDbBlockReference
  2
_OPEN30
 10
159109.4888017284
 20
99534.42730000604
 30
0.0
 41
500.0
 42
500.0
 43
500.0
 50
270.0
  0
MTEXT
  5
36C
330
366
100
AcDbEntity
  8
1
  6
Continuous
 62
     0
370
    13
100
AcDbMText
 10
158859.4888017284
 20
104879.3216666281
 30
0.0
 40
400.0
 41
0.0
 71
     5
 72
     1
  1
\A1;240
 11
0.0000000000000001
 21
1.0
 31
0.0
 73
     1
 44
1.0
  0
POINT
  5
36D
330
366
100
AcDbEntity
  8
DEFPOINTS
  6
Continuous
 62
     0
100
AcDbPoint
 10
157407.8486547814
 20
110224.2160332501
 30
0.0
  0
POINT
  5
36E
330
366
100
AcDbEntity
  8
DEFPOINTS
  6
Continuous
 62
     0
100
AcDbPoint
 10
157407.8486547814
 20
99534.42730000604
 30
0.0
  0
POINT
  5
36F
330
366
100
AcDbEntity
  8
DEFPOINTS
  6
Continuous
 62
     0
100
AcDbPoint
 10
159109.4888017284
 20
99534.42730000604
 30
0.0
  0
ENDBLK
  5
371
330
366
100
AcDbEntity
  8
0
100
AcDbBlockEnd
  0
BLOCK
  5
37C
330
372
100
AcDbEntity
  8
0
100
AcDbBlockBegin
  2
*D16
 70
     1
 10
0.0
 20
0.0
 30
0.0
  3
*D16
  1

  0
LINE
  5
373
330
372
100
AcDbEntity
  8
1
  6
Continuous
 62
     0
370
    -2
100
AcDbLine
 10
162075.9136060337
 20
110224.2160332501
 30
0.0
 11
165321.0372491383
 21
110224.21603325
 31
0.0
  0
LINE
  5
374
330
372
100
AcDbEntity
  8
1
  6
Continuous
 62
     0
370
    -2
100
AcDbLine
 10
162075.8794161464
 20
108947.9052144335
 30
0.0
 11
165321.0372491383
 21
108947.9052144335
 31
0.0
  0
LINE
  5
375
330
372
100
AcDbEntity
  8
1
  6
Continuous
 62
     0
370
    13
100
AcDbLine
 10
165320.8572491383
 20
109724.2160332501
 30
0.0
 11
165320.8572491383
 21
109447.9052144335
 31
0.0
  0
INSERT
  5
376
330
372
100
AcDbEntity
  8
1
  6
Continuous
 62
     0
370
    13
100
AcDbBlockReference
  2
_OPEN30
 10
165320.8572491383
 20
110224.21603325
 30
0.0
 41
500.0
 42
500.0
 43
500.0
 50
90.0
  0
INSERT
  5
377
330
372
100
AcDbEntity
  8
1
  6
Continuous
 62
     0
370
    13
100
AcDbBlockReference
  2
_OPEN30
 10
165320.8572491383
 20
108947.9052144335
 30
0.0
 41
500.0
 42
500.0
 43
500.0
 50
270.0
  0
MTEXT
  5
378
330
372
100
AcDbEntity
  8
1
  6
Continuous
 62
     0
370
    13
100
AcDbMText
 10
165070.8572491383
 20
109608.3843674036
 30
0.0
 40
400.0
 41
0.0
 71
     5
 72
     1
  1
\A1;29
 11
0.0000000000000001
 21
1.0
 31
0.0
 73
     1
 44
1.0
  0
POINT
  5
379
330
372
100
AcDbEntity
  8
DEFPOINTS
  6
Continuous
 62
     0
100
AcDbPoint
 10
162075.8511060336
 20
110224.2160332501
 30
0.0
  0
POINT
  5
37A
330
372
100
AcDbEntity
  8
DEFPOINTS
  6
Continuous
 62
     0
100
AcDbPoint
 10
162075.8169161464
 20
108947.9052144335
 30
0.0
  0
POINT
  5
37B
330
372
100
AcDbEntity
  8
DEFPOINTS
  6
Continuous
 62
     0
100
AcDbPoint
 10
165320.8572491383
 20
108947.9052144335
 30
0.0
  0
ENDBLK
  5
37D
330
372
100
AcDbEntity
  8
0
100
AcDbBlockEnd
  0
BLOCK
  5
388
330
37E
100
AcDbEntity
  8
0
100
AcDbBlockBegin
  2
*D17
 70
     1
 10
0.0
 20
0.0
 30
0.0
  3
*D17
  1

  0
LINE
  5
37F
330
37E
100
AcDbEntity
  8
1
  6
Continuous
 62
     0
370
    -2
100
AcDbLine
 10
162075.9136060336
 20
108949.4899832141
 30
0.0
 11
165321.0372491383
 21
108949.4899832141
 31
0.0
  0
LINE
  5
380
330
37E
100
AcDbEntity
  8
1
  6
Continuous
 62
     0
370
    -2
100
AcDbLine
 10
162075.7397504551
 20
101664.8450214729
 30
0.0
 11
165321.0372491383
 21
101664.8450214729
 31
0.0
  0
LINE
  5
381
330
37E
100
AcDbEntity
  8
1
  6
Continuous
 62
     0
370
    13
100
AcDbLine
 10
165320.8572491383
 20
108449.4899832141
 30
0.0
 11
165320.8572491383
 21
102164.8450214729
 31
0.0
  0
INSERT
  5
382
330
37E
100
AcDbEntity
  8
1
  6
Continuous
 62
     0
370
    13
100
AcDbBlockReference
  2
_OPEN30
 10
165320.8572491383
 20
108949.4899832141
 30
0.0
 41
500.0
 42
500.0
 43
500.0
 50
90.0
  0
INSERT
  5
383
330
37E
100
AcDbEntity
  8
1
  6
Continuous
 62
     0
370
    13
100
AcDbBlockReference
  2
_OPEN30
 10
165320.8572491383
 20
101664.8450214729
 30
0.0
 41
500.0
 42
500.0
 43
500.0
 50
270.0
  0
MTEXT
  5
384
330
37E
100
AcDbEntity
  8
1
  6
Continuous
 62
     0
370
    13
100
AcDbMText
 10
165070.8572491383
 20
105307.1675023435
 30
0.0
 40
400.0
 41
0.0
 71
     5
 72
     1
  1
\A1;164
 11
0.0000000000000001
 21
1.0
 31
0.0
 73
     1
 44
1.0
  0
POINT
  5
385
330
37E
100
AcDbEntity
  8
DEFPOINTS
  6
Continuous
 62
     0
100
AcDbPoint
 10
162075.8511060336
 20
108949.4899832141
 30
0.0
  0
POINT
  5
386
330
37E
100
AcDbEntity
  8
DEFPOINTS
  6
Continuous
 62
     0
100
AcDbPoint
 10
162075.677250455
 20
101664.8450214729
 30
0.0
  0
POINT
  5
387
330
37E
100
AcDbEntity
  8
DEFPOINTS
  6
Continuous
 62
     0
100
AcDbPoint
 10
165320.8572491383
 20
101664.8450214729
 30
0.0
  0
ENDBLK
  5
389
330
37E
100
AcDbEntity
  8
0
100
AcDbBlockEnd
  0
BLOCK
  5
D49
330
D3F
100
AcDbEntity
  8
0
100
AcDbBlockBegin
  2
*D19
 70
     1
 10
0.0
 20
0.0
 30
0.0
  3
*D19
  1

  0
LINE
  5
D87
330
D3F
100
AcDbEntity
  8
1
  6
Continuous
 62
     0
370
    -2
100
AcDbLine
 10
7488.306636413778
 20
22438.14823740045
 30
0.0
 11
7488.306636413778
 21
23929.65332734389
 31
0.0
  0
LINE
  5
D88
330
D3F
100
AcDbEntity
  8
1
  6
Continuous
 62
     0
370
    -2
100
AcDbLine
 10
12833.22638803448
 20
22268.10374418921
 30
0.0
 11
12833.22638803448
 21
23929.65332734389
 31
0.0
  0
LINE
  5
D89
330
D3F
100
AcDbEntity
  8
1
  6
Continuous
 62
     0
370
    13
100
AcDbLine
 10
7988.306636413778
 20
23929.47332734389
 30
0.0
 11
12333.22638803448
 21
23929.47332734389
 31
0.0
  0
INSERT
  5
D8A
330
D3F
100
AcDbEntity
  8
1
  6
Continuous
 62
     0
370
    13
100
AcDbBlockReference
  2
_OPEN30
 10
7488.306636413778
 20
23929.47332734389
 30
0.0
 41
500.0
 42
500.0
 43
500.0
 50
180.0
  0
INSERT
  5
D8B
330
D3F
100
AcDbEntity
  8
1
  6
Continuous
 62
     0
370
    13
100
AcDbBlockReference
  2
_OPEN30
 10
12833.22638803448
 20
23929.47332734389
 30
0.0
 41
500.0
 42
500.0
 43
500.0
  0
MTEXT
  5
D8C
330
D3F
100
AcDbEntity
  8
1
  6
Continuous
 62
     0
370
    13
100
AcDbMText
 10
10156.36422255508
 20
24179.47332734389
 30
0.0
 40
400.0
 41
0.0
 71
     5
 72
     1
  1
\A1;120
 73
     1
 44
1.0
  0
POINT
  5
D8D
330
D3F
100
AcDbEntity
  8
DEFPOINTS
  6
Continuous
 62
     0
100
AcDbPoint
 10
7488.306636413778
 20
22438.08573740045
 30
0.0
  0
POINT
  5
D8E
330
D3F
100
AcDbEntity
  8
DEFPOINTS
  6
Continuous
 62
     0
100
AcDbPoint
 10
12833.22638803448
 20
22268.04124418921
 30
0.0
  0
POINT
  5
D8F
330
D3F
100
AcDbEntity
  8
DEFPOINTS
  6
Continuous
 62
     0
100
AcDbPoint
 10
12833.22638803448
 20
23929.47332734389
 30
0.0
  0
ENDBLK
  5
D4A
330
D3F
100
AcDbEntity
  8
0
100
AcDbBlockEnd
  0
BLOCK
  5
D55
330
D4B
100
AcDbEntity
  8
0
100
AcDbBlockBegin
  2
*D20
 70
     1
 10
0.0
 20
0.0
 30
0.0
  3
*D20
  1

  0
LINE
  5
D90
330
D4B
100
AcDbEntity
  8
1
  6
Continuous
 62
     0
370
    -2
100
AcDbLine
 10
15960.43518104609
 20
21778.11420181469
 30
0.0
 11
15960.43518104609
 21
23929.65332734389
 31
0.0
  0
LINE
  5
D91
330
D4B
100
AcDbEntity
  8
1
  6
Continuous
 62
     0
370
    -2
100
AcDbLine
 10
17078.00951810194
 20
22678.80051969546
 30
0.0
 11
17078.00951810194
 21
23929.65332734389
 31
0.0
  0
LINE
  5
D92
330
D4B
100
AcDbEntity
  8
1
  6
Continuous
 62
     0
370
    13
100
AcDbLine
 10
16460.43518104609
 20
23929.47332734389
 30
0.0
 11
16578.00951810194
 21
23929.47332734389
 31
0.0
  0
INSERT
  5
D93
330
D4B
100
AcDbEntity
  8
1
  6
Continuous
 62
     0
370
    13
100
AcDbBlockReference
  2
_OPEN30
 10
15960.43518104609
 20
23929.47332734389
 30
0.0
 41
500.0
 42
500.0
 43
500.0
 50
180.0
  0
INSERT
  5
D94
330
D4B
100
AcDbEntity
  8
1
  6
Continuous
 62
     0
370
    13
100
AcDbBlockReference
  2
_OPEN30
 10
17078.00951810194
 20
23929.47332734389
 30
0.0
 41
500.0
 42
500.0
 43
500.0
  0
MTEXT
  5
D95
330
D4B
100
AcDbEntity
  8
1
  6
Continuous
 62
     0
370
    13
100
AcDbMText
 10
16578.00951810194
 20
24179.47332734389
 30
0.0
 40
400.0
 41
0.0
 71
     5
 72
     1
  1
\A1;25
 73
     1
 44
1.0
  0
POINT
  5
D96
330
D4B
100
AcDbEntity
  8
DEFPOINTS
  6
Continuous
 62
     0
100
AcDbPoint
 10
15960.43518104609
 20
21778.05170181469
 30
0.0
  0
POINT
  5
D97
330
D4B
100
AcDbEntity
  8
DEFPOINTS
  6
Continuous
 62
     0
100
AcDbPoint
 10
17078.00951810194
 20
22678.73801969546
 30
0.0
  0
POINT
  5
D98
330
D4B
100
AcDbEntity
  8
DEFPOINTS
  6
Continuous
 62
     0
100
AcDbPoint
 10
17078.00951810194
 20
23929.47332734389
 30
0.0
  0
ENDBLK
  5
D56
330
D4B
100
AcDbEntity
  8
0
100
AcDbBlockEnd
  0
BLOCK
  5
D61
330
D57
100
AcDbEntity
  8
0
100
AcDbBlockBegin
  2
*D21
 70
     1
 10
0.0
 20
0.0
 30
0.0
  3
*D21
  1

  0
LINE
  5
D99
330
D57
100
AcDbEntity
  8
1
  6
Continuous
 62
     0
370
    -2
100
AcDbLine
 10
17064.63773086878
 20
22701.89951785958
 30
0.0
 11
17064.63773086878
 21
23933.23628436122
 31
0.0
  0
LINE
  5
D9A
330
D57
100
AcDbEntity
  8
1
  6
Continuous
 62
     0
370
    -2
100
AcDbLine
 10
19082.34503086928
 20
21225.14815037926
 30
0.0
 11
19082.34503086928
 21
23933.23628436122
 31
0.0
  0
LINE
  5
D9B
330
D57
100
AcDbEntity
  8
1
  6
Continuous
 62
     0
370
    13
100
AcDbLine
 10
17564.63773086878
 20
23933.05628436122
 30
0.0
 11
18582.34503086928
 21
23933.05628436122
 31
0.0
  0
INSERT
  5
D9C
330
D57
100
AcDbEntity
  8
1
  6
Continuous
 62
     0
370
    13
100
AcDbBlockReference
  2
_OPEN30
 10
17064.63773086878
 20
23933.05628436122
 30
0.0
 41
500.0
 42
500.0
 43
500.0
 50
180.0
  0
INSERT
  5
D9D
330
D57
100
AcDbEntity
  8
1
  6
Continuous
 62
     0
370
    13
100
AcDbBlockReference
  2
_OPEN30
 10
19082.34503086928
 20
23933.05628436122
 30
0.0
 41
500.0
 42
500.0
 43
500.0
  0
MTEXT
  5
D9E
330
D57
100
AcDbEntity
  8
1
  6
Continuous
 62
     0
370
    13
100
AcDbMText
 10
18073.49138086901
 20
24183.05628436122
 30
0.0
 40
400.0
 41
0.0
 71
     5
 72
     1
  1
\A1;45
 73
     1
 44
1.0
  0
POINT
  5
D9F
330
D57
100
AcDbEntity
  8
DEFPOINTS
  6
Continuous
 62
     0
100
AcDbPoint
 10
17064.63773086878
 20
22701.83701785958
 30
0.0
  0
POINT
  5
DA0
330
D57
100
AcDbEntity
  8
DEFPOINTS
  6
Continuous
 62
     0
100
AcDbPoint
 10
19082.34503086928
 20
21225.08565037926
 30
0.0
  0
POINT
  5
DA1
330
D57
100
AcDbEntity
  8
DEFPOINTS
  6
Continuous
 62
     0
100
AcDbPoint
 10
19082.34503086928
 20
23933.05628436122
 30
0.0
  0
ENDBLK
  5
D62
330
D57
100
AcDbEntity
  8
0
100
AcDbBlockEnd
  0
BLOCK
  5
D6D
330
D63
100
AcDbEntity
  8
0
100
AcDbBlockBegin
  2
*D22
 70
     1
 10
0.0
 20
0.0
 30
0.0
  3
*D22
  1

  0
LINE
  5
DA2
330
D63
100
AcDbEntity
  8
1
  6
Continuous
 62
     0
370
    -2
100
AcDbLine
 10
12410.09426950434
 20
22690.97534759395
 30
0.0
 11
14111.85191645135
 21
22690.97534759395
 31
0.0
  0
LINE
  5
DA3
330
D63
100
AcDbEntity
  8
1
  6
Continuous
 62
     0
370
    -2
100
AcDbLine
 10
12410.09426950434
 20
12001.18661434987
 30
0.0
 11
14111.85191645135
 21
12001.18661434987
 31
0.0
  0
LINE
  5
DA4
330
D63
100
AcDbEntity
  8
1
  6
Continuous
 62
     0
370
    13
100
AcDbLine
 10
14111.67191645135
 20
22190.97534759395
 30
0.0
 11
14111.67191645135
 21
12501.18661434987
 31
0.0
  0
INSERT
  5
DA5
330
D63
100
AcDbEntity
  8
1
  6
Continuous
 62
     0
370
    13
100
AcDbBlockReference
  2
_OPEN30
 10
14111.67191645135
 20
22690.97534759395
 30
0.0
 41
500.0
 42
500.0
 43
500.0
 50
90.0
  0
INSERT
  5
DA6
330
D63
100
AcDbEntity
  8
1
  6
Continuous
 62
     0
370
    13
100
AcDbBlockReference
  2
_OPEN30
 10
14111.67191645134
 20
12001.18661434987
 30
0.0
 41
500.0
 42
500.0
 43
500.0
 50
270.0
  0
MTEXT
  5
DA7
330
D63
100
AcDbEntity
  8
1
  6
Continuous
 62
     0
370
    13
100
AcDbMText
 10
13861.67191645135
 20
17346.08098097191
 30
0.0
 40
400.0
 41
0.0
 71
     5
 72
     1
  1
\A1;240
 11
0.0000000000000001
 21
1.0
 31
0.0
 73
     1
 44
1.0
  0
POINT
  5
DA8
330
D63
100
AcDbEntity
  8
DEFPOINTS
  6
Continuous
 62
     0
100
AcDbPoint
 10
12410.03176950434
 20
22690.97534759395
 30
0.0
  0
POINT
  5
DA9
330
D63
100
AcDbEntity
  8
DEFPOINTS
  6
Continuous
 62
     0
100
AcDbPoint
 10
12410.03176950434
 20
12001.18661434987
 30
0.0
  0
POINT
  5
DAA
330
D63
100
AcDbEntity
  8
DEFPOINTS
  6
Continuous
 62
     0
100
AcDbPoint
 10
14111.67191645134
 20
12001.18661434987
 30
0.0
  0
ENDBLK
  5
D6E
330
D63
100
AcDbEntity
  8
0
100
AcDbBlockEnd
  0
BLOCK
  5
D79
330
D6F
100
AcDbEntity
  8
0
100
AcDbBlockBegin
  2
*D23
 70
     1
 10
0.0
 20
0.0
 30
0.0
  3
*D23
  1

  0
LINE
  5
DAB
330
D6F
100
AcDbEntity
  8
1
  6
Continuous
 62
     0
370
    -2
100
AcDbLine
 10
17078.09672075659
 20
22690.97534759395
 30
0.0
 11
20323.2203638612
 21
22690.97534759395
 31
0.0
  0
LINE
  5
DAC
330
D6F
100
AcDbEntity
  8
1
  6
Continuous
 62
     0
370
    -2
100
AcDbLine
 10
17078.06253086934
 20
21414.6645287774
 30
0.0
 11
20323.2203638612
 21
21414.6645287774
 31
0.0
  0
LINE
  5
DAD
330
D6F
100
AcDbEntity
  8
1
  6
Continuous
 62
     0
370
    13
100
AcDbLine
 10
20323.0403638612
 20
22190.97534759395
 30
0.0
 11
20323.0403638612
 21
21914.6645287774
 31
0.0
  0
INSERT
  5
DAE
330
D6F
100
AcDbEntity
  8
1
  6
Continuous
 62
     0
370
    13
100
AcDbBlockReference
  2
_OPEN30
 10
20323.0403638612
 20
22690.97534759395
 30
0.0
 41
500.0
 42
500.0
 43
500.0
 50
90.0
  0
INSERT
  5
DAF
330
D6F
100
AcDbEntity
  8
1
  6
Continuous
 62
     0
370
    13
100
AcDbBlockReference
  2
_OPEN30
 10
20323.0403638612
 20
21414.6645287774
 30
0.0
 41
500.0
 42
500.0
 43
500.0
 50
270.0
  0
MTEXT
  5
DB0
330
D6F
100
AcDbEntity
  8
1
  6
Continuous
 62
     0
370
    13
100
AcDbMText
 10
20073.0403638612
 20
22075.14368174751
 30
0.0
 40
400.0
 41
0.0
 71
     5
 72
     1
  1
\A1;29
 11
0.0000000000000001
 21
1.0
 31
0.0
 73
     1
 44
1.0
  0
POINT
  5
DB1
330
D6F
100
AcDbEntity
  8
DEFPOINTS
  6
Continuous
 62
     0
100
AcDbPoint
 10
17078.03422075659
 20
22690.97534759395
 30
0.0
  0
POINT
  5
DB2
330
D6F
100
AcDbEntity
  8
DEFPOINTS
  6
Continuous
 62
     0
100
AcDbPoint
 10
17078.00003086934
 20
21414.6645287774
 30
0.0
  0
POINT
  5
DB3
330
D6F
100
AcDbEntity
  8
DEFPOINTS
  6
Continuous
 62
     0
100
AcDbPoint
 10
20323.0403638612
 20
21414.6645287774
 30
0.0
  0
ENDBLK
  5
D7A
330
D6F
100
AcDbEntity
  8
0
100
AcDbBlockEnd
  0
BLOCK
  5
D85
330
D7B
100
AcDbEntity
  8
0
100
AcDbBlockBegin
  2
*D24
 70
     1
 10
0.0
 20
0.0
 30
0.0
  3
*D24
  1

  0
LINE
  5
DB4
330
D7B
100
AcDbEntity
  8
1
  6
Continuous
 62
     0
370
    -2
100
AcDbLine
 10
17078.09672075657
 20
21416.249297558
 30
0.0
 11
20323.2203638612
 21
21416.249297558
 31
0.0
  0
LINE
  5
DB5
330
D7B
100
AcDbEntity
  8
1
  6
Continuous
 62
     0
370
    -2
100
AcDbLine
 10
17077.92286517798
 20
14131.60433581682
 30
0.0
 11
20323.2203638612
 21
14131.60433581682
 31
0.0
  0
LINE
  5
DB6
330
D7B
100
AcDbEntity
  8
1
  6
Continuous
 62
     0
370
    13
100
AcDbLine
 10
20323.0403638612
 20
20916.24929755801
 30
0.0
 11
20323.0403638612
 21
14631.60433581682
 31
0.0
  0
INSERT
  5
DB7
330
D7B
100
AcDbEntity
  8
1
  6
Continuous
 62
     0
370
    13
100
AcDbBlockReference
  2
_OPEN30
 10
20323.0403638612
 20
21416.249297558
 30
0.0
 41
500.0
 42
500.0
 43
500.0
 50
90.0
  0
INSERT
  5
DB8
330
D7B
100
AcDbEntity
  8
1
  6
Continuous
 62
     0
370
    13
100
AcDbBlockReference
  2
_OPEN30
 10
20323.0403638612
 20
14131.60433581682
 30
0.0
 41
500.0
 42
500.0
 43
500.0
 50
270.0
  0
MTEXT
  5
DB9
330
D7B
100
AcDbEntity
  8
1
  6
Continuous
 62
     0
370
    13
100
AcDbMText
 10
20073.0403638612
 20
17773.92681668741
 30
0.0
 40
400.0
 41
0.0
 71
     5
 72
     1
  1
\A1;164
 11
0.0000000000000001
 21
1.0
 31
0.0
 73
     1
 44
1.0
  0
POINT
  5
DBA
330
D7B
100
AcDbEntity
  8
DEFPOINTS
  6
Continuous
 62
     0
100
AcDbPoint
 10
17078.03422075657
 20
21416.249297558
 30
0.0
  0
POINT
  5
DBB
330
D7B
100
AcDbEntity
  8
DEFPOINTS
  6
Continuous
 62
     0
100
AcDbPoint
 10
17077.86036517798
 20
14131.60433581682
 30
0.0
  0
POINT
  5
DBC
330
D7B
100
AcDbEntity
  8
DEFPOINTS
  6
Continuous
 62
     0
100
AcDbPoint
 10
20323.0403638612
 20
14131.60433581682
 30
0.0
  0
ENDBLK
  5
D86
330
D7B
100
AcDbEntity
  8
0
100
AcDbBlockEnd
  0
ENDSEC
  0
SECTION
  2
ENTITIES
  0
LINE
  5
867
330
1F
100
AcDbEntity
  8
0
370
    13
100
AcDbLine
 10
2045.852933658243
 20
26703.49976113019
 30
0.0
 11
24626.31060570293
 21
26703.49976113019
 31
0.0
  0
LINE
  5
868
330
1F
100
AcDbEntity
  8
1
  6
Continuous
 62
     7
370
    13
100
AcDbLine
 10
4801.551711220833
 20
26703.49976113019
 30
0.0
 11
4801.551711220833
 21
24866.36724275523
 31
0.0
  0
LINE
  5
869
330
1F
100
AcDbEntity
  8
1
  6
Continuous
 62
     7
370
    13
100
AcDbLine
 10
2045.852933658243
 20
24866.36724275523
 30
0.0
 11
24626.3106057013
 21
24866.36724275523
 31
0.0
  0
LINE
  5
86A
330
1F
100
AcDbEntity
  8
1
  6
Continuous
 62
     7
370
    13
100
AcDbLine
 10
2045.852933658243
 20
26703.49976113019
 30
0.0
 11
2045.852933658243
 21
1623.543736340085
 31
0.0
  0
LINE
  5
86B
330
1F
100
AcDbEntity
  8
0
370
    13
100
AcDbLine
 10
2045.852933658243
 20
1623.543736340085
 30
0.0
 11
24626.31060570293
 21
1623.543736340085
 31
0.0
  0
LINE
  5
86C
330
1F
100
AcDbEntity
  8
1
  6
Continuous
 62
     7
370
    13
100
AcDbLine
 10
24626.31060570293
 20
26703.49976113019
 30
0.0
 11
24626.31060570293
 21
1623.543736340085
 31
0.0
  0
LINE
  5
86D
330
1F
100
AcDbEntity
  8
1
  6
Continuous
 62
     7
370
    13
100
AcDbLine
 10
9847.130175624
 20
13720.65258964678
 30
0.0
 11
9953.817094957296
 21
13720.65258964678
 31
0.0
  0
LINE
  5
86E
330
1F
100
AcDbEntity
  8
1
  6
Continuous
 62
     7
370
    13
100
AcDbLine
 10
10474.92768686795
 20
13850.30645205455
 30
0.0
 11
10474.92768686795
 21
13891.24969732074
 31
0.0
  0
LINE
  5
86F
330
1F
100
AcDbEntity
  8
1
  6
Continuous
 62
     7
370
    13
100
AcDbLine
 10
10430.57264554234
 20
13850.30645205455
 30
0.0
 11
10474.92768686795
 21
13850.30645205455
 31
0.0
  0
LINE
  5
870
330
1F
100
AcDbEntity
  8
1
  6
Continuous
 62
     7
370
    13
100
AcDbLine
 10
10430.57264554234
 20
13720.65258964678
 30
0.0
 11
10430.57264554234
 21
13850.30645205455
 31
0.0
  0
LINE
  5
871
330
1F
100
AcDbEntity
  8
1
  6
Continuous
 62
     7
370
    13
100
AcDbLine
 10
10382.80536274852
 20
13720.65258964678
 30
0.0
 11
10430.57264554234
 21
13720.65258964678
 31
0.0
  0
LINE
  5
872
330
1F
100
AcDbEntity
  8
1
  6
Continuous
 62
     7
370
    13
100
AcDbLine
 10
10354.10100438127
 20
13720.65258964678
 30
0.0
 11
10294.09487922933
 21
13720.65258964678
 31
0.0
  0
LINE
  5
873
330
1F
100
AcDbEntity
  8
1
  6
Continuous
 62
     7
370
    13
100
AcDbLine
 10
10045.02303254215
 20
13720.65258964678
 30
0.0
 11
10191.73645427737
 21
13720.65258964678
 31
0.0
  0
LINE
  5
874
330
1F
100
AcDbEntity
  8
1
  6
Continuous
 62
     7
370
    13
100
AcDbLine
 10
10045.02303254215
 20
13792.30338021449
 30
0.0
 11
10045.02303254215
 21
13720.65258964678
 31
0.0
  0
LINE
  5
875
330
1F
100
AcDbEntity
  8
1
  6
Continuous
 62
     7
370
    13
100
AcDbLine
 10
9953.817094957296
 20
13720.65258964678
 30
0.0
 11
10120.08575279127
 21
13885.27501212142
 31
0.0
  0
LINE
  5
876
330
1F
100
AcDbEntity
  8
1
  6
Continuous
 62
     7
370
    13
100
AcDbLine
 10
10120.08575279127
 20
13885.27501212142
 30
0.0
 11
10120.08575279127
 21
13792.30338021449
 31
0.0
  0
LINE
  5
877
330
1F
100
AcDbEntity
  8
1
  6
Continuous
 62
     7
370
    13
100
AcDbLine
 10
10120.08575279127
 20
13792.30338021449
 30
0.0
 11
10045.02303254215
 21
13792.30338021449
 31
0.0
  0
LINE
  5
878
330
1F
100
AcDbEntity
  8
1
  6
Continuous
 62
     7
370
    13
100
AcDbLine
 10
10191.73645427737
 20
13816.18697707058
 30
0.0
 11
10294.09487922933
 21
13720.65258964678
 31
0.0
  0
ARC
  5
879
330
1F
100
AcDbEntity
  8
1
  6
Continuous
 62
     7
370
    13
100
AcDbCircle
 10
10273.62316751493
 20
13833.24671456284
 30
0.0
 40
17.059737492
100
AcDbArc
 50
270.0
 51
90.0
  0
LINE
  5
87A
330
1F
100
AcDbEntity
  8
1
  6
Continuous
 62
     7
370
    13
100
AcDbLine
 10
10191.73645427737
 20
13816.18697707058
 30
0.0
 11
10273.62316751493
 21
13816.18697707058
 31
0.0
  0
LINE
  5
87B
330
1F
100
AcDbEntity
  8
1
  6
Continuous
 62
     7
370
    13
100
AcDbLine
 10
10205.38430662856
 20
13850.30645205455
 30
0.0
 11
10273.62316751493
 21
13850.30645205455
 31
0.0
  0
LINE
  5
87C
330
1F
100
AcDbEntity
  8
1
  6
Continuous
 62
     7
370
    13
100
AcDbLine
 10
10205.38430662856
 20
13891.24969732074
 30
0.0
 11
10205.38430662856
 21
13850.30645205455
 31
0.0
  0
LINE
  5
87D
330
1F
100
AcDbEntity
  8
1
  6
Continuous
 62
     7
370
    13
100
AcDbLine
 10
10205.38430662856
 20
13891.24969732074
 30
0.0
 11
10286.55266261806
 21
13891.24969732074
 31
0.0
  0
ARC
  5
87E
330
1F
100
AcDbEntity
  8
1
  6
Continuous
 62
     7
370
    13
100
AcDbCircle
 10
10280.08784825495
 20
13833.24671456284
 30
0.0
 40
58.36216138200001
100
AcDbArc
 50
283.9448469994052
 51
83.64029599924885
  0
LINE
  5
87F
330
1F
100
AcDbEntity
  8
1
  6
Continuous
 62
     7
370
    13
100
AcDbLine
 10
10294.09487922933
 20
13776.65839850551
 30
0.0
 11
10354.10100438127
 21
13720.65258964678
 31
0.0
  0
LINE
  5
880
330
1F
100
AcDbEntity
  8
1
  6
Continuous
 62
     7
370
    13
100
AcDbLine
 10
10474.92768686795
 20
13891.24969732074
 30
0.0
 11
10338.45000963665
 21
13891.24969732074
 31
0.0
  0
LINE
  5
881
330
1F
100
AcDbEntity
  8
1
  6
Continuous
 62
     7
370
    13
100
AcDbLine
 10
10338.45000963665
 20
13891.24969732074
 30
0.0
 11
10338.45000963665
 21
13850.30645205455
 31
0.0
  0
LINE
  5
882
330
1F
100
AcDbEntity
  8
1
  6
Continuous
 62
     7
370
    13
100
AcDbLine
 10
10338.45000963665
 20
13850.30645205455
 30
0.0
 11
10382.80536274852
 21
13850.30645205455
 31
0.0
  0
LINE
  5
883
330
1F
100
AcDbEntity
  8
1
  6
Continuous
 62
     7
370
    13
100
AcDbLine
 10
10382.80536274852
 20
13850.30645205455
 30
0.0
 11
10382.80536274852
 21
13720.65258964678
 31
0.0
  0
LINE
  5
884
330
1F
100
AcDbEntity
  8
1
  6
Continuous
 62
     7
370
    13
100
AcDbLine
 10
10191.73645427737
 20
13720.65258964678
 30
0.0
 11
10191.73645427737
 21
14061.84684953554
 31
0.0
  0
LINE
  5
885
330
1F
100
AcDbEntity
  8
1
  6
Continuous
 62
     7
370
    13
100
AcDbLine
 10
10191.73645427737
 20
14061.84684953554
 30
0.0
 11
9847.130175624
 21
13720.65258964678
 31
0.0
  0
LINE
  5
886
330
1F
100
AcDbEntity
  8
1
  6
Continuous
 62
     7
370
    13
100
AcDbLine
 10
10182.75583061164
 20
14052.95517424689
 30
0.0
 11
10191.73645427737
 21
14052.95517424689
 31
0.0
  0
CIRCLE
  5
887
330
1F
100
AcDbEntity
  8
1
  6
DOT
 62
     7
370
    13
100
AcDbCircle
 10
10160.68656684971
 20
12891.23520877082
 30
0.0
 40
445.409955459
  0
CIRCLE
  5
888
330
1F
100
AcDbEntity
  8
1
  6
DOT
 62
     7
370
    13
100
AcDbCircle
 10
10160.68656684971
 20
12891.23520877082
 30
0.0
 40
400.868955459
  0
CIRCLE
  5
889
330
1F
100
AcDbEntity
  8
1
  6
DOT
 62
     7
370
    13
100
AcDbCircle
 10
10160.68656684971
 20
12757.61220877083
 30
0.0
 40
222.705
  0
LINE
  5
88A
330
1F
100
AcDbEntity
  8
1
  6
DOT
 62
     7
370
    13
100
AcDbLine
 10
10116.14556684969
 20
12539.36130877083
 30
0.0
 11
10116.14556684969
 21
12913.50570877085
 31
0.0
  0
LINE
  5
88B
330
1F
100
AcDbEntity
  8
1
  6
DOT
 62
     7
370
    13
100
AcDbLine
 10
10116.14556684969
 20
12913.50570877085
 30
0.0
 11
10205.22761139106
 21
12913.50570877085
 31
0.0
  0
LINE
  5
88C
330
1F
100
AcDbEntity
  8
1
  6
DOT
 62
     7
370
    13
100
AcDbLine
 10
10205.22761139106
 20
12913.50570877085
 30
0.0
 11
10205.22761139106
 21
12539.36130877083
 31
0.0
  0
ARC
  5
88D
330
1F
100
AcDbEntity
  8
1
  6
Continuous
 62
     7
370
    13
100
AcDbCircle
 10
7911.366066849689
 20
22267.88711434985
 30
0.0
 40
423.1395
100
AcDbArc
 50
90.0
 51
180.0
  0
LINE
  5
88E
330
1F
100
AcDbEntity
  8
1
  6
Continuous
 62
     7
370
    13
100
AcDbLine
 10
7488.226566849698
 20
22267.88711434985
 30
0.0
 11
7488.226566849698
 21
12424.32611434983
 31
0.0
  0
LINE
  5
88F
330
1F
100
AcDbEntity
  8
1
  6
Continuous
 62
     7
370
    13
100
AcDbLine
 10
12410.00706684969
 20
22691.02661434984
 30
0.0
 11
7911.366066849689
 21
22691.02661434984
 31
0.0
  0
ARC
  5
890
330
1F
100
AcDbEntity
  8
1
  6
Continuous
 62
     7
370
    13
100
AcDbCircle
 10
12410.00706684969
 20
22267.88711434985
 30
0.0
 40
423.1395
100
AcDbArc
 50
0.0
 51
90.0
  0
LINE
  5
891
330
1F
100
AcDbEntity
  8
1
  6
Continuous
 62
     7
370
    13
100
AcDbLine
 10
12833.14656684971
 20
12424.32611434983
 30
0.0
 11
12833.14656684971
 21
22267.88711434985
 31
0.0
  0
ARC
  5
892
330
1F
100
AcDbEntity
  8
1
  6
Continuous
 62
     7
370
    13
100
AcDbCircle
 10
7911.366066849689
 20
12424.32611434983
 30
0.0
 40
423.1395
100
AcDbArc
 50
180.0
 51
270.0
  0
LINE
  5
893
330
1F
100
AcDbEntity
  8
1
  6
Continuous
 62
     7
370
    13
100
AcDbLine
 10
7911.366066849689
 20
12001.18661434986
 30
0.0
 11
12410.00706684969
 21
12001.18661434986
 31
0.0
  0
ARC
  5
894
330
1F
100
AcDbEntity
  8
1
  6
Continuous
 62
     7
370
    13
100
AcDbCircle
 10
12410.00706684969
 20
12424.32611434983
 30
0.0
 40
423.1395
100
AcDbArc
 50
270.0
 51
0.0
  0
LINE
  5
895
330
1F
100
AcDbEntity
  8
1
  6
Continuous
 62
     7
370
    13
100
AcDbLine
 10
10784.73577477889
 20
12001.18661434986
 30
0.0
 11
9537.587774778906
 21
12001.18661434986
 31
0.0
  0
TEXT
  5
896
330
1F
100
AcDbEntity
  8
1
  6
Continuous
 62
     7
370
    13
100
AcDbText
 10
10937.65999355459
 20
17212.69077454091
 30
0.0
 40
256.501463652
  1
R
 41
0.9362679999999999
  7
KANJI
100
AcDbText
  0
TEXT
  5
897
330
1F
100
AcDbEntity
  8
1
  6
Continuous
 62
     7
370
    13
100
AcDbText
 10
9255.318184560936
 20
17212.69077454091
 30
0.0
 40
256.501463652
  1
L
 41
0.9362679999999999
  7
KANJI
100
AcDbText
  0
ARC
  5
898
330
1F
100
AcDbEntity
  8
1
  6
Continuous
 62
     7
370
    13
100
AcDbCircle
 10
10782.39768406505
 20
17503.57691029088
 30
0.0
 40
42.75022909500001
100
AcDbArc
 50
74.47588900070181
 51
180.0
  0
LINE
  5
899
330
1F
100
AcDbEntity
  8
1
  6
Continuous
 62
     7
370
    13
100
AcDbLine
 10
10739.64745497123
 20
17188.56246943055
 30
0.0
 11
10739.64745497123
 21
17503.57691029088
 31
0.0
  0
ARC
  5
89A
330
1F
100
AcDbEntity
  8
1
  6
Continuous
 62
     7
370
    13
100
AcDbCircle
 10
10782.39768406505
 20
17188.56246943055
 30
0.0
 40
42.75022909500001
100
AcDbArc
 50
180.0
 51
285.5241109992982
  0
LINE
  5
89B
330
1F
100
AcDbEntity
  8
1
  6
Continuous
 62
     7
370
    13
100
AcDbLine
 10
10793.83955430892
 20
17544.76753627094
 30
0.0
 11
11360.86559239892
 21
17387.26031584026
 31
0.0
  0
LINE
  5
89C
330
1F
100
AcDbEntity
  8
1
  6
Continuous
 62
     7
370
    13
100
AcDbLine
 10
11360.86559239892
 20
17304.87906388066
 30
0.0
 11
10793.83955430892
 21
17147.3718434505
 31
0.0
  0
ARC
  5
89D
330
1F
100
AcDbEntity
  8
1
  6
Continuous
 62
     7
370
    13
100
AcDbCircle
 10
11349.42372215511
 20
17346.06968986072
 30
0.0
 40
42.75022909500001
100
AcDbArc
 50
285.5241109992982
 51
74.47588900070181
  0
ARC
  5
89E
330
1F
100
AcDbEntity
  8
1
  6
Continuous
 62
     7
370
    13
100
AcDbCircle
 10
9538.831225875895
 20
17503.57691029088
 30
0.0
 40
42.75022909500001
100
AcDbArc
 50
0.0
 51
105.5241109992981
  0
LINE
  5
89F
330
1F
100
AcDbEntity
  8
1
  6
Continuous
 62
     7
370
    13
100
AcDbLine
 10
9581.581454971239
 20
17188.56246943055
 30
0.0
 11
9581.581454971239
 21
17503.57691029088
 31
0.0
  0
ARC
  5
8A0
330
1F
100
AcDbEntity
  8
1
  6
Continuous
 62
     7
370
    13
100
AcDbCircle
 10
9538.831225875895
 20
17188.56246943055
 30
0.0
 40
42.75022909500001
100
AcDbArc
 50
254.4758890007018
 51
0.0
  0
LINE
  5
8A1
330
1F
100
AcDbEntity
  8
1
  6
Continuous
 62
     7
370
    13
100
AcDbLine
 10
9527.389355632026
 20
17544.76753627094
 30
0.0
 11
8960.363362083342
 21
17387.26031584026
 31
0.0
  0
LINE
  5
8A2
330
1F
100
AcDbEntity
  8
1
  6
Continuous
 62
     7
370
    13
100
AcDbLine
 10
8960.363362083342
 20
17304.87906388066
 30
0.0
 11
9527.389355632026
 21
17147.3718434505
 31
0.0
  0
ARC
  5
8A3
330
1F
100
AcDbEntity
  8
1
  6
Continuous
 62
     7
370
    13
100
AcDbCircle
 10
8971.805187786362
 20
17346.06968986072
 30
0.0
 40
42.75022909500001
100
AcDbArc
 50
105.5241109992981
 51
254.4758890007018
  0
TEXT
  5
8A4
330
1F
100
AcDbEntity
  8
1
  6
Continuous
 62
     7
370
    13
100
AcDbText
 10
10094.7658868495
 20
17207.14052053044
 30
0.0
 40
267.246
  1
C
 41
0.9362679999999999
  7
KANJI
100
AcDbText
  0
ARC
  5
8A5
330
1F
100
AcDbEntity
  8
1
  6
Continuous
 62
     7
370
    13
100
AcDbCircle
 10
10427.86045497121
 20
17190.21302526767
 30
0.0
 40
44.541
100
AcDbArc
 50
270.0
 51
0.0
  0
LINE
  5
8A6
330
1F
100
AcDbEntity
  8
1
  6
Continuous
 62
     7
370
    13
100
AcDbLine
 10
10472.40145497124
 20
17502.00002526768
 30
0.0
 11
10472.40145497124
 21
17190.21302526767
 31
0.0
  0
ARC
  5
8A7
330
1F
100
AcDbEntity
  8
1
  6
Continuous
 62
     7
370
    13
100
AcDbCircle
 10
10427.86045497121
 20
17502.00002526768
 30
0.0
 40
44.541
100
AcDbArc
 50
0.0
 51
90.0
  0
LINE
  5
8A8
330
1F
100
AcDbEntity
  8
1
  6
Continuous
 62
     7
370
    13
100
AcDbLine
 10
10427.86045497121
 20
17145.67202526769
 30
0.0
 11
9893.36845497125
 21
17145.67202526769
 31
0.0
  0
ARC
  5
8A9
330
1F
100
AcDbEntity
  8
1
  6
Continuous
 62
     7
370
    13
100
AcDbCircle
 10
9893.36845497125
 20
17190.21302526767
 30
0.0
 40
44.541
100
AcDbArc
 50
180.0
 51
270.0
  0
LINE
  5
8AA
330
1F
100
AcDbEntity
  8
1
  6
Continuous
 62
     7
370
    13
100
AcDbLine
 10
9893.36845497125
 20
17546.54102526769
 30
0.0
 11
10427.86045497121
 21
17546.54102526769
 31
0.0
  0
LINE
  5
8AB
330
1F
100
AcDbEntity
  8
1
  6
Continuous
 62
     7
370
    13
100
AcDbLine
 10
9848.827454971223
 20
17190.21302526767
 30
0.0
 11
9848.827454971223
 21
17502.00002526768
 31
0.0
  0
ARC
  5
8AC
330
1F
100
AcDbEntity
  8
1
  6
Continuous
 62
     7
370
    13
100
AcDbCircle
 10
9893.36845497125
 20
17502.00002526768
 30
0.0
 40
44.541
100
AcDbArc
 50
90.0
 51
180.0
  0
ARC
  5
8AD
330
1F
100
AcDbEntity
  8
1
  6
Continuous
 62
     7
370
    13
100
AcDbCircle
 10
11363.22145497125
 20
19840.40252526768
 30
0.0
 40
44.541
100
AcDbArc
 50
0.0
 51
90.0
  0
LINE
  5
8AE
330
1F
100
AcDbEntity
  8
1
  6
Continuous
 62
     7
370
    13
100
AcDbLine
 10
8958.007454971273
 20
19884.94352526769
 30
0.0
 11
11363.22145497125
 21
19884.94352526769
 31
0.0
  0
ARC
  5
8AF
330
1F
100
AcDbEntity
  8
1
  6
Continuous
 62
     7
370
    13
100
AcDbCircle
 10
8958.007454971273
 20
19840.40252526768
 30
0.0
 40
44.541
100
AcDbArc
 50
90.0
 51
180.0
  0
LINE
  5
8B0
330
1F
100
AcDbEntity
  8
1
  6
Continuous
 62
     7
370
    13
100
AcDbLine
 10
8913.466454971247
 20
18147.84452526769
 30
0.0
 11
8913.466454971247
 21
19840.40252526768
 31
0.0
  0
ARC
  5
8B1
330
1F
100
AcDbEntity
  8
1
  6
Continuous
 62
     7
370
    13
100
AcDbCircle
 10
8958.007454971273
 20
18147.84452526769
 30
0.0
 40
44.541
100
AcDbArc
 50
180.0
 51
270.0
  0
LINE
  5
8B2
330
1F
100
AcDbEntity
  8
1
  6
Continuous
 62
     7
370
    13
100
AcDbLine
 10
11363.22145497125
 20
18103.30352526769
 30
0.0
 11
8958.007454971273
 21
18103.30352526769
 31
0.0
  0
LINE
  5
8B3
330
1F
100
AcDbEntity
  8
1
  6
Continuous
 62
     7
370
    13
100
AcDbLine
 10
11407.76245497121
 20
19840.40252526768
 30
0.0
 11
11407.76245497121
 21
18147.84452526769
 31
0.0
  0
ARC
  5
8B4
330
1F
100
AcDbEntity
  8
1
  6
Continuous
 62
     7
370
    13
100
AcDbCircle
 10
11363.22145497125
 20
18147.84452526769
 30
0.0
 40
44.541
100
AcDbArc
 50
270.0
 51
0.0
  0
ARC
  5
8B5
330
1F
100
AcDbEntity
  8
1
  6
Continuous
 62
     7
370
    13
100
AcDbCircle
 10
8846.654954971237
 20
19951.75502526769
 30
0.0
 40
44.541
100
AcDbArc
 50
90.0
 51
180.0
  0
LINE
  5
8B6
330
1F
100
AcDbEntity
  8
1
  6
Continuous
 62
     7
370
    13
100
AcDbLine
 10
8802.113954971268
 20
19951.75502526769
 30
0.0
 11
8802.113954971268
 21
18036.49202526768
 31
0.0
  0
ARC
  5
8B7
330
1F
100
AcDbEntity
  8
1
  6
Continuous
 62
     7
370
    13
100
AcDbCircle
 10
8846.654954971237
 20
18036.49202526768
 30
0.0
 40
44.541
100
AcDbArc
 50
180.0
 51
270.0
  0
LINE
  5
8B8
330
1F
100
AcDbEntity
  8
1
  6
Continuous
 62
     7
370
    13
100
AcDbLine
 10
8846.654954971237
 20
17991.95102526768
 30
0.0
 11
11474.57395497123
 21
17991.95102526768
 31
0.0
  0
ARC
  5
8B9
330
1F
100
AcDbEntity
  8
1
  6
Continuous
 62
     7
370
    13
100
AcDbCircle
 10
11474.57395497123
 20
18036.49202526768
 30
0.0
 40
44.541
100
AcDbArc
 50
270.0
 51
0.0
  0
LINE
  5
8BA
330
1F
100
AcDbEntity
  8
1
  6
Continuous
 62
     7
370
    13
100
AcDbLine
 10
11474.57395497123
 20
19996.2960252677
 30
0.0
 11
8846.654954971237
 21
19996.2960252677
 31
0.0
  0
LINE
  5
8BB
330
1F
100
AcDbEntity
  8
1
  6
Continuous
 62
     7
370
    13
100
AcDbLine
 10
11519.11495497125
 20
18036.49202526768
 30
0.0
 11
11519.11495497125
 21
19951.75502526769
 31
0.0
  0
ARC
  5
8BC
330
1F
100
AcDbEntity
  8
1
  6
Continuous
 62
     7
370
    13
100
AcDbCircle
 10
11474.57395497123
 20
19951.75502526769
 30
0.0
 40
44.541
100
AcDbArc
 50
0.0
 51
90.0
  0
LINE
  5
8BD
330
1F
100
AcDbEntity
  8
1
  6
Continuous
 62
     7
370
    13
100
AcDbLine
 10
10088.86692135113
 20
19227.35895302829
 30
0.0
 11
10124.03555958905
 21
19219.95721873044
 31
0.0
  0
LINE
  5
8BE
330
1F
100
AcDbEntity
  8
1
  6
Continuous
 62
     7
370
    13
100
AcDbLine
 10
10124.03555958905
 20
19219.95721873044
 30
0.0
 11
10135.14381774335
 21
19218.10587206605
 31
0.0
  0
LINE
  5
8BF
330
1F
100
AcDbEntity
  8
1
  6
Continuous
 62
     7
370
    13
100
AcDbLine
 10
10135.14381774335
 20
19218.10587206605
 30
0.0
 11
10138.84660015588
 21
19216.2544808598
 31
0.0
  0
LINE
  5
8C0
330
1F
100
AcDbEntity
  8
1
  6
Continuous
 62
     7
370
    13
100
AcDbLine
 10
10138.84660015588
 20
19216.2544808598
 30
0.0
 11
10148.09593967466
 21
19212.5516984478
 31
0.0
  0
LINE
  5
8C1
330
1F
100
AcDbEntity
  8
1
  6
Continuous
 62
     7
370
    13
100
AcDbLine
 10
10148.09593967466
 20
19212.5516984478
 30
0.0
 11
10159.20419782849
 21
19210.70030724206
 31
0.0
  0
LINE
  5
8C2
330
1F
100
AcDbEntity
  8
1
  6
Continuous
 62
     7
370
    13
100
AcDbLine
 10
10159.20419782849
 20
19210.70030724206
 30
0.0
 11
10161.04801706464
 21
19210.70030724206
 31
0.0
  0
LINE
  5
8C3
330
1F
100
AcDbEntity
  8
1
  6
Continuous
 62
     7
370
    13
100
AcDbLine
 10
10161.04801706464
 20
19210.70030724206
 30
0.0
 11
10170.31250052417
 21
19210.70030724206
 31
0.0
  0
LINE
  5
8C4
330
1F
100
AcDbEntity
  8
1
  6
Continuous
 62
     7
370
    13
100
AcDbLine
 10
10170.31250052417
 20
19210.70030724206
 30
0.0
 11
10179.56184004242
 21
19206.99756937089
 31
0.0
  0
LINE
  5
8C5
330
1F
100
AcDbEntity
  8
1
  6
Continuous
 62
     7
370
    13
100
AcDbLine
 10
10179.56184004242
 20
19206.99756937089
 30
0.0
 11
10201.77835635004
 21
19197.7444438668
 31
0.0
  0
LINE
  5
8C6
330
1F
100
AcDbEntity
  8
1
  6
Continuous
 62
     7
370
    13
100
AcDbLine
 10
10201.77835635004
 20
19197.7444438668
 30
0.0
 11
10212.8790870756
 21
19194.04170599511
 31
0.0
  0
LINE
  5
8C7
330
1F
100
AcDbEntity
  8
1
  6
Continuous
 62
     7
370
    13
100
AcDbLine
 10
10212.8790870756
 20
19194.04170599511
 30
0.0
 11
10286.91914596596
 21
19179.23445141462
 31
0.0
  0
LINE
  5
8C8
330
1F
100
AcDbEntity
  8
1
  6
Continuous
 62
     7
370
    13
100
AcDbLine
 10
10286.91914596596
 20
19179.23445141462
 30
0.0
 11
10288.77053717164
 21
19179.23445141462
 31
0.0
  0
LINE
  5
8C9
330
1F
100
AcDbEntity
  8
1
  6
Continuous
 62
     7
370
    13
100
AcDbLine
 10
10288.77053717164
 20
19179.23445141462
 30
0.0
 11
10346.14816428943
 21
19162.57580562737
 31
0.0
  0
LINE
  5
8CA
330
1F
100
AcDbEntity
  8
1
  6
Continuous
 62
     7
370
    13
100
AcDbLine
 10
10346.14816428943
 20
19162.57580562737
 30
0.0
 11
10388.7223228115
 21
19153.32268012379
 31
0.0
  0
LINE
  5
8CB
330
1F
100
AcDbEntity
  8
1
  6
Continuous
 62
     7
370
    13
100
AcDbLine
 10
10388.7223228115
 20
19153.32268012379
 30
0.0
 11
10401.68197217206
 21
19145.91715984115
 31
0.0
  0
LINE
  5
8CC
330
1F
100
AcDbEntity
  8
1
  6
Continuous
 62
     7
370
    13
100
AcDbLine
 10
10401.68197217206
 20
19145.91715984115
 30
0.0
 11
10440.54582085234
 21
19120.00543309112
 31
0.0
  0
LINE
  5
8CD
330
1F
100
AcDbEntity
  8
1
  6
Continuous
 62
     7
370
    13
100
AcDbLine
 10
10440.54582085234
 20
19120.00543309112
 30
0.0
 11
10449.80273234228
 21
19112.59991280797
 31
0.0
  0
LINE
  5
8CE
330
1F
100
AcDbEntity
  8
1
  6
Continuous
 62
     7
370
    13
100
AcDbLine
 10
10449.80273234228
 20
19112.59991280797
 30
0.0
 11
10497.92344797014
 21
19051.51950327822
 31
0.0
  0
LINE
  5
8CF
330
1F
100
AcDbEntity
  8
1
  6
Continuous
 62
     7
370
    13
100
AcDbLine
 10
10497.92344797014
 20
19051.51950327822
 30
0.0
 11
10505.32901279408
 21
19044.11398299454
 31
0.0
  0
LINE
  5
8D0
330
1F
100
AcDbEntity
  8
1
  6
Continuous
 62
     7
370
    13
100
AcDbLine
 10
10505.32901279408
 20
19044.11398299454
 30
0.0
 11
10529.38934833889
 21
19023.75638532143
 31
0.0
  0
LINE
  5
8D1
330
1F
100
AcDbEntity
  8
1
  6
Continuous
 62
     7
370
    13
100
AcDbLine
 10
10529.38934833889
 20
19023.75638532143
 30
0.0
 11
10536.79491316289
 21
19016.35086503879
 31
0.0
  0
LINE
  5
8D2
330
1F
100
AcDbEntity
  8
1
  6
Continuous
 62
     7
370
    13
100
AcDbLine
 10
10536.79491316289
 20
19016.35086503879
 30
0.0
 11
10544.2003889052
 21
19005.24634832894
 31
0.0
  0
LINE
  5
8D3
330
1F
100
AcDbEntity
  8
1
  6
Continuous
 62
     7
370
    13
100
AcDbLine
 10
10544.2003889052
 20
19005.24634832894
 30
0.0
 11
10549.75451798214
 21
19001.54361045776
 31
0.0
  0
LINE
  5
8D4
330
1F
100
AcDbEntity
  8
1
  6
Continuous
 62
     7
370
    13
100
AcDbLine
 10
10549.75451798214
 20
19001.54361045776
 30
0.0
 11
10568.26076898981
 21
18983.03357346478
 31
0.0
  0
LINE
  5
8D5
330
1F
100
AcDbEntity
  8
1
  6
Continuous
 62
     7
370
    13
100
AcDbLine
 10
10568.26076898981
 20
18983.03357346478
 30
0.0
 11
10570.11973216514
 21
18981.18222679935
 31
0.0
  0
LINE
  5
8D6
330
1F
100
AcDbEntity
  8
1
  6
Continuous
 62
     7
370
    13
100
AcDbLine
 10
10570.11973216514
 20
18981.18222679935
 30
0.0
 11
10603.42940722925
 21
18944.1621973547
 31
0.0
  0
LINE
  5
8D7
330
1F
100
AcDbEntity
  8
1
  6
Continuous
 62
     7
370
    13
100
AcDbLine
 10
10603.42940722925
 20
18944.1621973547
 30
0.0
 11
10608.98353630562
 21
18938.61559570657
 31
0.0
  0
LINE
  5
8D8
330
1F
100
AcDbEntity
  8
1
  6
Continuous
 62
     7
370
    13
100
AcDbLine
 10
10608.98353630562
 20
18938.61559570657
 30
0.0
 11
10636.74669880217
 21
18897.88525642064
 31
0.0
  0
LINE
  5
8D9
330
1F
100
AcDbEntity
  8
1
  6
Continuous
 62
     7
370
    13
100
AcDbLine
 10
10636.74669880217
 20
18897.88525642064
 30
0.0
 11
10642.30082788011
 21
18890.4873081081
 31
0.0
  0
LINE
  5
8DA
330
1F
100
AcDbEntity
  8
1
  6
Continuous
 62
     7
370
    13
100
AcDbLine
 10
10642.30082788011
 20
18890.4873081081
 30
0.0
 11
10683.02359519597
 21
18851.61588745669
 31
0.0
  0
LINE
  5
8DB
330
1F
100
AcDbEntity
  8
1
  6
Continuous
 62
     7
370
    13
100
AcDbLine
 10
10683.02359519597
 20
18851.61588745669
 30
0.0
 11
10684.87498640223
 21
18849.76449625096
 31
0.0
  0
LINE
  5
8DC
330
1F
100
AcDbEntity
  8
1
  6
Continuous
 62
     7
370
    13
100
AcDbLine
 10
10684.87498640223
 20
18849.76449625096
 30
0.0
 11
10714.48949556321
 21
18825.70416070666
 31
0.0
  0
LINE
  5
8DD
330
1F
100
AcDbEntity
  8
1
  6
Continuous
 62
     7
370
    13
100
AcDbLine
 10
10714.48949556321
 20
18825.70416070666
 30
0.0
 11
10718.18470600609
 21
18823.85276950095
 31
0.0
  0
LINE
  5
8DE
330
1F
100
AcDbEntity
  8
1
  6
Continuous
 62
     7
370
    13
100
AcDbLine
 10
10718.18470600609
 20
18823.85276950095
 30
0.0
 11
10807.03580546176
 21
18759.06962210001
 31
0.0
  0
LINE
  5
8DF
330
1F
100
AcDbEntity
  8
1
  6
Continuous
 62
     7
370
    13
100
AcDbLine
 10
10807.03580546176
 20
18759.06962210001
 30
0.0
 11
10808.88715212613
 21
18757.21823089376
 31
0.0
  0
LINE
  5
8E0
330
1F
100
AcDbEntity
  8
1
  6
Continuous
 62
     7
370
    13
100
AcDbLine
 10
10808.88715212613
 20
18757.21823089376
 30
0.0
 11
10912.54172017898
 21
18675.78017914954
 31
0.0
  0
LINE
  5
8E1
330
1F
100
AcDbEntity
  8
1
  6
Continuous
 62
     7
370
    13
100
AcDbLine
 10
9942.64198076156
 20
18962.67597579167
 30
0.0
 11
9822.328766923005
 21
18860.87279894558
 31
0.0
  0
LINE
  5
8E2
330
1F
100
AcDbEntity
  8
1
  6
Continuous
 62
     7
370
    13
100
AcDbLine
 10
9822.328766923005
 20
18860.87279894558
 30
0.0
 11
9809.37290354773
 21
18853.46727866295
 31
0.0
  0
LINE
  5
8E3
330
1F
100
AcDbEntity
  8
1
  6
Continuous
 62
     7
370
    13
100
AcDbLine
 10
9809.37290354773
 20
18853.46727866295
 30
0.0
 11
9807.521512341468
 21
18853.46727866295
 31
0.0
  0
LINE
  5
8E4
330
1F
100
AcDbEntity
  8
1
  6
Continuous
 62
     7
370
    13
100
AcDbLine
 10
9807.521512341468
 20
18853.46727866295
 30
0.0
 11
9790.862866554192
 21
18849.76449625096
 31
0.0
  0
LINE
  5
8E5
330
1F
100
AcDbEntity
  8
1
  6
Continuous
 62
     7
370
    13
100
AcDbLine
 10
9790.862866554192
 20
18849.76449625096
 30
0.0
 11
9774.204265308291
 21
18853.46727866295
 31
0.0
  0
LINE
  5
8E6
330
1F
100
AcDbEntity
  8
1
  6
Continuous
 62
     7
370
    13
100
AcDbLine
 10
9774.204265308291
 20
18853.46727866295
 30
0.0
 11
9763.09974859895
 21
18859.02140773933
 31
0.0
  0
LINE
  5
8E7
330
1F
100
AcDbEntity
  8
1
  6
Continuous
 62
     7
370
    13
100
AcDbLine
 10
9763.09974859895
 20
18859.02140773933
 30
0.0
 11
9753.842837109537
 21
18864.57553681674
 31
0.0
  0
LINE
  5
8E8
330
1F
100
AcDbEntity
  8
1
  6
Continuous
 62
     7
370
    13
100
AcDbLine
 10
9753.842837109537
 20
18864.57553681674
 30
0.0
 11
9748.292494017938
 21
18870.12213846489
 31
0.0
  0
LINE
  5
8E9
330
1F
100
AcDbEntity
  8
1
  6
Continuous
 62
     7
370
    13
100
AcDbLine
 10
9748.292494017938
 20
18870.12213846489
 30
0.0
 11
9348.485262375398
 21
19347.67216686738
 31
0.0
  0
LINE
  5
8EA
330
1F
100
AcDbEntity
  8
1
  6
Continuous
 62
     7
370
    13
100
AcDbLine
 10
9348.485262375398
 20
19347.67216686738
 30
0.0
 11
9341.079742092771
 21
19360.62803024266
 31
0.0
  0
LINE
  5
8EB
330
1F
100
AcDbEntity
  8
1
  6
Continuous
 62
     7
370
    13
100
AcDbLine
 10
9341.079742092771
 20
19360.62803024266
 30
0.0
 11
9341.079742092771
 21
19362.47942144838
 31
0.0
  0
LINE
  5
8EC
330
1F
100
AcDbEntity
  8
1
  6
Continuous
 62
     7
370
    13
100
AcDbLine
 10
9341.079742092771
 20
19362.47942144838
 30
0.0
 11
9337.380745665068
 21
19379.13806723564
 31
0.0
  0
LINE
  5
8ED
330
1F
100
AcDbEntity
  8
1
  6
Continuous
 62
     7
370
    13
100
AcDbLine
 10
9337.380745665068
 20
19379.13806723564
 30
0.0
 11
9342.931133299032
 21
19395.79671302238
 31
0.0
  0
LINE
  5
8EE
330
1F
100
AcDbEntity
  8
1
  6
Continuous
 62
     7
370
    13
100
AcDbLine
 10
9342.931133299032
 20
19395.79671302238
 30
0.0
 11
9348.485262375398
 21
19406.90118519191
 31
0.0
  0
LINE
  5
8EF
330
1F
100
AcDbEntity
  8
1
  6
Continuous
 62
     7
370
    13
100
AcDbLine
 10
9348.485262375398
 20
19406.90118519191
 30
0.0
 11
9352.188044787922
 21
19416.15809668028
 31
0.0
  0
LINE
  5
8F0
330
1F
100
AcDbEntity
  8
1
  6
Continuous
 62
     7
370
    13
100
AcDbLine
 10
9352.188044787922
 20
19416.15809668028
 30
0.0
 11
9357.738387880045
 21
19421.70843977241
 31
0.0
  0
LINE
  5
8F1
330
1F
100
AcDbEntity
  8
1
  6
Continuous
 62
     7
370
    13
100
AcDbLine
 10
9357.738387880045
 20
19421.70843977241
 30
0.0
 11
9639.083796888197
 21
19667.88521054269
 31
0.0
  0
LINE
  5
8F2
330
1F
100
AcDbEntity
  8
1
  6
Continuous
 62
     7
370
    13
100
AcDbLine
 10
9639.083796888197
 20
19667.88521054269
 30
0.0
 11
9650.192055043081
 21
19673.43933962009
 31
0.0
  0
LINE
  5
8F3
330
1F
100
AcDbEntity
  8
1
  6
Continuous
 62
     7
370
    13
100
AcDbLine
 10
9650.192055043081
 20
19673.43933962009
 30
0.0
 11
9661.296571752362
 21
19677.14207749074
 31
0.0
  0
LINE
  5
8F4
330
1F
100
AcDbEntity
  8
1
  6
Continuous
 62
     7
370
    13
100
AcDbLine
 10
9661.296571752362
 20
19677.14207749074
 30
0.0
 11
9670.549652715635
 21
19678.99346869648
 31
0.0
  0
LINE
  5
8F5
330
1F
100
AcDbEntity
  8
1
  6
Continuous
 62
     7
370
    13
100
AcDbLine
 10
9670.549652715635
 20
19678.99346869648
 30
0.0
 11
9683.509346616528
 21
19678.99346869648
 31
0.0
  0
LINE
  5
8F6
330
1F
100
AcDbEntity
  8
1
  6
Continuous
 62
     7
370
    13
100
AcDbLine
 10
9683.509346616528
 20
19678.99346869648
 30
0.0
 11
9696.465209991279
 21
19675.29073082584
 31
0.0
  0
LINE
  5
8F7
330
1F
100
AcDbEntity
  8
1
  6
Continuous
 62
     7
370
    13
100
AcDbLine
 10
9696.465209991279
 20
19675.29073082584
 30
0.0
 11
9702.015553084391
 21
19673.43933962009
 31
0.0
  0
LINE
  5
8F8
330
1F
100
AcDbEntity
  8
1
  6
Continuous
 62
     7
370
    13
100
AcDbLine
 10
9702.015553084391
 20
19673.43933962009
 30
0.0
 11
9711.272464572816
 21
19667.88521054269
 31
0.0
  0
LINE
  5
8F9
330
1F
100
AcDbEntity
  8
1
  6
Continuous
 62
     7
370
    13
100
AcDbLine
 10
9711.272464572816
 20
19667.88521054269
 30
0.0
 11
9716.822807663891
 21
19662.33482291027
 31
0.0
  0
LINE
  5
8FA
330
1F
100
AcDbEntity
  8
1
  6
Continuous
 62
     7
370
    13
100
AcDbLine
 10
9716.822807663891
 20
19662.33482291027
 30
0.0
 11
10098.12004685426
 21
19223.65621515815
 31
0.0
  0
LINE
  5
8FB
330
1F
100
AcDbEntity
  8
1
  6
Continuous
 62
     7
370
    13
100
AcDbLine
 10
10098.12000231289
 20
19223.65621515815
 30
0.0
 11
10124.03555958905
 21
19194.04170599511
 31
0.0
  0
LINE
  5
8FC
330
1F
100
AcDbEntity
  8
1
  6
Continuous
 62
     7
370
    13
100
AcDbLine
 10
10124.03555958905
 20
19194.04170599511
 30
0.0
 11
10133.28489910835
 21
19182.93718928526
 31
0.0
  0
LINE
  5
8FD
330
1F
100
AcDbEntity
  8
1
  6
Continuous
 62
     7
370
    13
100
AcDbLine
 10
10133.28489910835
 20
19182.93718928526
 30
0.0
 11
10138.84660015588
 21
19169.98132591106
 31
0.0
  0
LINE
  5
8FE
330
1F
100
AcDbEntity
  8
1
  6
Continuous
 62
     7
370
    13
100
AcDbLine
 10
10138.84660015588
 20
19169.98132591106
 30
0.0
 11
10138.84660015588
 21
19160.72441442164
 31
0.0
  0
LINE
  5
8FF
330
1F
100
AcDbEntity
  8
1
  6
Continuous
 62
     7
370
    13
100
AcDbLine
 10
10138.84660015588
 20
19160.72441442164
 30
0.0
 11
10138.84660015588
 21
19147.76855104688
 31
0.0
  0
LINE
  5
900
330
1F
100
AcDbEntity
  8
1
  6
Continuous
 62
     7
370
    13
100
AcDbLine
 10
10138.84660015588
 20
19147.76855104688
 30
0.0
 11
10135.14381774335
 21
19136.66403433705
 31
0.0
  0
LINE
  5
901
330
1F
100
AcDbEntity
  8
1
  6
Continuous
 62
     7
370
    13
100
AcDbLine
 10
10135.14381774335
 20
19136.66403433705
 30
0.0
 11
10129.58216123773
 21
19129.2585140539
 31
0.0
  0
LINE
  5
902
330
1F
100
AcDbEntity
  8
1
  6
Continuous
 62
     7
370
    13
100
AcDbLine
 10
10129.58216123773
 20
19129.2585140539
 30
0.0
 11
10120.33277717705
 21
19114.45125947236
 31
0.0
  0
LINE
  5
903
330
1F
100
AcDbEntity
  8
1
  6
Continuous
 62
     7
370
    13
100
AcDbLine
 10
10120.33277717705
 20
19114.45125947236
 30
0.0
 11
10087.01553014492
 21
19082.98540364597
 31
0.0
  0
LINE
  5
904
330
1F
100
AcDbEntity
  8
1
  6
Continuous
 62
     7
370
    13
100
AcDbLine
 10
9951.895106265103
 20
18958.97319337967
 30
0.0
 11
9950.043715059365
 21
18933.05389465956
 31
0.0
  0
LINE
  5
905
330
1F
100
AcDbEntity
  8
1
  6
Continuous
 62
     7
370
    13
100
AcDbLine
 10
9950.043715059365
 20
18933.05389465956
 30
0.0
 11
9946.34471863271
 21
18921.95316393452
 31
0.0
  0
LINE
  5
906
330
1F
100
AcDbEntity
  8
1
  6
Continuous
 62
     7
370
    13
100
AcDbLine
 10
9946.34471863271
 20
18921.95316393452
 30
0.0
 11
9940.790589555822
 21
18910.85247775079
 31
0.0
  0
LINE
  5
907
330
1F
100
AcDbEntity
  8
1
  6
Continuous
 62
     7
370
    13
100
AcDbLine
 10
9940.790589555822
 20
18910.85247775079
 30
0.0
 11
9938.939198350084
 21
18899.74417505566
 31
0.0
  0
LINE
  5
908
330
1F
100
AcDbEntity
  8
1
  6
Continuous
 62
     7
370
    13
100
AcDbLine
 10
9938.939198350084
 20
18899.74417505566
 30
0.0
 11
9942.64198076156
 21
18890.4873081081
 31
0.0
  0
LINE
  5
909
330
1F
100
AcDbEntity
  8
1
  6
Continuous
 62
     7
370
    13
100
AcDbLine
 10
9942.64198076156
 20
18890.4873081081
 30
0.0
 11
9948.192323853161
 21
18883.08174328414
 31
0.0
  0
LINE
  5
90A
330
1F
100
AcDbEntity
  8
1
  6
Continuous
 62
     7
370
    13
100
AcDbLine
 10
9948.192323853161
 20
18883.08174328414
 30
0.0
 11
9950.043715059365
 21
18881.23039661868
 31
0.0
  0
LINE
  5
90B
330
1F
100
AcDbEntity
  8
1
  6
Continuous
 62
     7
370
    13
100
AcDbLine
 10
9950.043715059365
 20
18881.23039661868
 30
0.0
 11
9975.959227794739
 21
18844.21793914363
 31
0.0
  0
LINE
  5
90C
330
1F
100
AcDbEntity
  8
1
  6
Continuous
 62
     7
370
    13
100
AcDbLine
 10
9975.959227794739
 20
18844.21793914363
 30
0.0
 11
9983.3609620926
 21
18834.95345568517
 31
0.0
  0
LINE
  5
90D
330
1F
100
AcDbEntity
  8
1
  6
Continuous
 62
     7
370
    13
100
AcDbLine
 10
9983.3609620926
 20
18834.95345568517
 30
0.0
 11
9992.617873582014
 21
18829.40689857784
 31
0.0
  0
LINE
  5
90E
330
1F
100
AcDbEntity
  8
1
  6
Continuous
 62
     7
370
    13
100
AcDbLine
 10
9992.617873582014
 20
18829.40689857784
 30
0.0
 11
10020.38099153725
 21
18816.44724921777
 31
0.0
  0
LINE
  5
90F
330
1F
100
AcDbEntity
  8
1
  6
Continuous
 62
     7
370
    13
100
AcDbLine
 10
10020.38099153725
 20
18816.44724921777
 30
0.0
 11
10035.18824611873
 21
18812.74446680578
 31
0.0
  0
LINE
  5
910
330
1F
100
AcDbEntity
  8
1
  6
Continuous
 62
     7
370
    13
100
AcDbLine
 10
10035.18824611873
 20
18812.74446680578
 30
0.0
 11
10055.54962977669
 21
18810.89312014087
 31
0.0
  0
LINE
  5
911
330
1F
100
AcDbEntity
  8
1
  6
Continuous
 62
     7
370
    13
100
AcDbLine
 10
10055.54962977669
 20
18810.89312014087
 30
0.0
 11
10061.10001740955
 21
18809.04925636391
 31
0.0
  0
LINE
  5
912
330
1F
100
AcDbEntity
  8
1
  6
Continuous
 62
     7
370
    13
100
AcDbLine
 10
10061.10001740955
 20
18809.04925636391
 30
0.0
 11
10064.80275528128
 21
18809.04925636391
 31
0.0
  0
LINE
  5
913
330
1F
100
AcDbEntity
  8
1
  6
Continuous
 62
     7
370
    13
100
AcDbLine
 10
10064.80275528128
 20
18809.04925636391
 30
0.0
 11
10079.61000986125
 21
18812.74446680578
 31
0.0
  0
LINE
  5
914
330
1F
100
AcDbEntity
  8
1
  6
Continuous
 62
     7
370
    13
100
AcDbLine
 10
10079.61000986125
 20
18812.74446680578
 30
0.0
 11
10092.56965922181
 21
18822.0013782952
 31
0.0
  0
LINE
  5
915
330
1F
100
AcDbEntity
  8
1
  6
Continuous
 62
     7
370
    13
100
AcDbLine
 10
10092.56965922181
 20
18822.0013782952
 30
0.0
 11
10099.97143806047
 21
18829.40689857784
 31
0.0
  0
LINE
  5
916
330
1F
100
AcDbEntity
  8
1
  6
Continuous
 62
     7
370
    13
100
AcDbLine
 10
10099.97143806047
 20
18829.40689857784
 30
0.0
 11
10105.52556713683
 21
18838.65623809662
 31
0.0
  0
LINE
  5
917
330
1F
100
AcDbEntity
  8
1
  6
Continuous
 62
     7
370
    13
100
AcDbLine
 10
10105.52556713683
 20
18838.65623809662
 30
0.0
 11
10107.37691380335
 21
18847.91310504471
 31
0.0
  0
LINE
  5
918
330
1F
100
AcDbEntity
  8
1
  6
Continuous
 62
     7
370
    13
100
AcDbLine
 10
10107.37691380335
 20
18847.91310504471
 30
0.0
 11
10107.37691380335
 21
18857.17001653359
 31
0.0
  0
LINE
  5
919
330
1F
100
AcDbEntity
  8
1
  6
Continuous
 62
     7
370
    13
100
AcDbLine
 10
10107.37691380335
 20
18857.17001653359
 30
0.0
 11
10103.67417593115
 21
18871.98105709938
 31
0.0
  0
LINE
  5
91A
330
1F
100
AcDbEntity
  8
1
  6
Continuous
 62
     7
370
    13
100
AcDbLine
 10
10103.67417593115
 20
18871.98105709938
 30
0.0
 11
10092.56965922181
 21
18905.29077670381
 31
0.0
  0
LINE
  5
91B
330
1F
100
AcDbEntity
  8
1
  6
Continuous
 62
     7
370
    13
100
AcDbLine
 10
9972.25644538326
 20
18838.65623809662
 30
0.0
 11
9955.597844137301
 21
18820.14998708895
 31
0.0
  0
LINE
  5
91C
330
1F
100
AcDbEntity
  8
1
  6
Continuous
 62
     7
370
    13
100
AcDbLine
 10
9955.597844137301
 20
18820.14998708895
 30
0.0
 11
9948.192323853161
 21
18809.04925636391
 31
0.0
  0
LINE
  5
91D
330
1F
100
AcDbEntity
  8
1
  6
Continuous
 62
     7
370
    13
100
AcDbLine
 10
9948.192323853161
 20
18809.04925636391
 30
0.0
 11
9946.34471863271
 21
18807.19033772888
 31
0.0
  0
LINE
  5
91E
330
1F
100
AcDbEntity
  8
1
  6
Continuous
 62
     7
370
    13
100
AcDbLine
 10
9946.34471863271
 20
18807.19033772888
 30
0.0
 11
9944.493327426506
 21
18796.08965154466
 31
0.0
  0
LINE
  5
91F
330
1F
100
AcDbEntity
  8
1
  6
Continuous
 62
     7
370
    13
100
AcDbLine
 10
9944.493327426506
 20
18796.08965154466
 30
0.0
 11
9942.641936220185
 21
18784.98134884952
 31
0.0
  0
LINE
  5
920
330
1F
100
AcDbEntity
  8
1
  6
Continuous
 62
     7
370
    13
100
AcDbLine
 10
9942.641936220185
 20
18784.98134884952
 30
0.0
 11
9944.493327426506
 21
18773.88061812448
 31
0.0
  0
LINE
  5
921
330
1F
100
AcDbEntity
  8
1
  6
Continuous
 62
     7
370
    13
100
AcDbLine
 10
9944.493327426506
 20
18773.88061812448
 30
0.0
 11
9950.043670519095
 21
18764.62375117639
 31
0.0
  0
LINE
  5
922
330
1F
100
AcDbEntity
  8
1
  6
Continuous
 62
     7
370
    13
100
AcDbLine
 10
9950.043670519095
 20
18764.62375117639
 30
0.0
 11
9955.597844137301
 21
18757.21818635241
 31
0.0
  0
LINE
  5
923
330
1F
100
AcDbEntity
  8
1
  6
Continuous
 62
     7
370
    13
100
AcDbLine
 10
9955.597844137301
 20
18757.21818635241
 30
0.0
 11
9959.300582007461
 21
18753.51544848176
 31
0.0
  0
LINE
  5
924
330
1F
100
AcDbEntity
  8
1
  6
Continuous
 62
     7
370
    13
100
AcDbLine
 10
9959.300582007461
 20
18753.51544848176
 30
0.0
 11
9998.168216673555
 21
18716.49541903659
 31
0.0
  0
LINE
  5
925
330
1F
100
AcDbEntity
  8
1
  6
Continuous
 62
     7
370
    13
100
AcDbLine
 10
9998.168216673555
 20
18716.49541903659
 30
0.0
 11
10009.27647482791
 21
18709.08989875344
 31
0.0
  0
LINE
  5
926
330
1F
100
AcDbEntity
  8
1
  6
Continuous
 62
     7
370
    13
100
AcDbLine
 10
10009.27647482791
 20
18709.08989875344
 30
0.0
 11
10048.14410949401
 21
18690.58369228658
 31
0.0
  0
LINE
  5
927
330
1F
100
AcDbEntity
  8
1
  6
Continuous
 62
     7
370
    13
100
AcDbLine
 10
10048.14410949401
 20
18690.58369228658
 30
0.0
 11
10057.40102098289
 21
18688.73230108084
 31
0.0
  0
LINE
  5
928
330
1F
100
AcDbEntity
  8
1
  6
Continuous
 62
     7
370
    13
100
AcDbLine
 10
10057.40102098289
 20
18688.73230108084
 30
0.0
 11
10066.65414648754
 21
18686.88090987511
 31
0.0
  0
LINE
  5
929
330
1F
100
AcDbEntity
  8
1
  6
Continuous
 62
     7
370
    13
100
AcDbLine
 10
10066.65414648754
 20
18686.88090987511
 30
0.0
 11
10070.35688435765
 21
18686.88090987511
 31
0.0
  0
LINE
  5
92A
330
1F
100
AcDbEntity
  8
1
  6
Continuous
 62
     7
370
    13
100
AcDbLine
 10
10070.35688435765
 20
18686.88090987511
 30
0.0
 11
10079.61000986125
 21
18686.88090987511
 31
0.0
  0
LINE
  5
92B
330
1F
100
AcDbEntity
  8
1
  6
Continuous
 62
     7
370
    13
100
AcDbLine
 10
10079.61000986125
 20
18686.88090987511
 30
0.0
 11
10088.86692135113
 21
18683.17817200343
 31
0.0
  0
LINE
  5
92C
330
1F
100
AcDbEntity
  8
1
  6
Continuous
 62
     7
370
    13
100
AcDbLine
 10
10088.86692135113
 20
18683.17817200343
 30
0.0
 11
10096.26865564852
 21
18677.6239983857
 31
0.0
  0
LINE
  5
92D
330
1F
100
AcDbEntity
  8
1
  6
Continuous
 62
     7
370
    13
100
AcDbLine
 10
10096.26865564852
 20
18677.6239983857
 30
0.0
 11
10103.67417593115
 21
18672.0774412789
 31
0.0
  0
LINE
  5
92E
330
1F
100
AcDbEntity
  8
1
  6
Continuous
 62
     7
370
    13
100
AcDbLine
 10
10103.67417593115
 20
18672.0774412789
 30
0.0
 11
10124.03555958905
 21
18646.15814255825
 31
0.0
  0
LINE
  5
92F
330
1F
100
AcDbEntity
  8
1
  6
Continuous
 62
     7
370
    13
100
AcDbLine
 10
10124.03555958905
 20
18646.15814255825
 30
0.0
 11
10127.73829746073
 21
18642.45536014626
 31
0.0
  0
LINE
  5
930
330
1F
100
AcDbEntity
  8
1
  6
Continuous
 62
     7
370
    13
100
AcDbLine
 10
10127.73829746073
 20
18642.45536014626
 30
0.0
 11
10144.39315726318
 21
18627.65189155057
 31
0.0
  0
LINE
  5
931
330
1F
100
AcDbEntity
  8
1
  6
Continuous
 62
     7
370
    13
100
AcDbLine
 10
10144.39315726318
 20
18627.65189155057
 30
0.0
 11
10151.79867754581
 21
18614.69224219053
 31
0.0
  0
LINE
  5
932
330
1F
100
AcDbEntity
  8
1
  6
Continuous
 62
     7
370
    13
100
AcDbLine
 10
10151.79867754581
 20
18614.69224219053
 30
0.0
 11
10153.6500687516
 21
18612.84842295436
 31
0.0
  0
LINE
  5
933
330
1F
100
AcDbEntity
  8
1
  6
Continuous
 62
     7
370
    13
100
AcDbLine
 10
10153.6500687516
 20
18612.84842295436
 30
0.0
 11
10157.35280662223
 21
18605.44290267172
 31
0.0
  0
LINE
  5
934
330
1F
100
AcDbEntity
  8
1
  6
Continuous
 62
     7
370
    13
100
AcDbLine
 10
10157.35280662223
 20
18605.44290267172
 30
0.0
 11
10172.15627521842
 21
18581.38252258661
 31
0.0
  0
LINE
  5
935
330
1F
100
AcDbEntity
  8
1
  6
Continuous
 62
     7
370
    13
100
AcDbLine
 10
10172.15627521842
 20
18581.38252258661
 30
0.0
 11
10175.8590576299
 21
18575.82086608043
 31
0.0
  0
LINE
  5
936
330
1F
100
AcDbEntity
  8
1
  6
Continuous
 62
     7
370
    13
100
AcDbLine
 10
10175.8590576299
 20
18575.82086608043
 30
0.0
 11
10209.17634920445
 21
18533.25423498763
 31
0.0
  0
LINE
  5
937
330
1F
100
AcDbEntity
  8
1
  6
Continuous
 62
     7
370
    13
100
AcDbLine
 10
10209.17634920445
 20
18533.25423498763
 30
0.0
 11
10214.73047828134
 21
18525.84871470499
 31
0.0
  0
LINE
  5
938
330
1F
100
AcDbEntity
  8
1
  6
Continuous
 62
     7
370
    13
100
AcDbLine
 10
10214.73047828134
 20
18525.84871470499
 30
0.0
 11
10223.9873452299
 21
18522.145932293
 31
0.0
  0
LINE
  5
939
330
1F
100
AcDbEntity
  8
1
  6
Continuous
 62
     7
370
    13
100
AcDbLine
 10
10223.9873452299
 20
18522.145932293
 30
0.0
 11
10225.83873643617
 21
18520.29458562759
 31
0.0
  0
LINE
  5
93A
330
1F
100
AcDbEntity
  8
1
  6
Continuous
 62
     7
370
    13
100
AcDbLine
 10
10225.83873643617
 20
18520.29458562759
 30
0.0
 11
10238.79085836747
 21
18512.88906534495
 31
0.0
  0
LINE
  5
93B
330
1F
100
AcDbEntity
  8
1
  6
Continuous
 62
     7
370
    13
100
AcDbLine
 10
10238.79085836747
 20
18512.88906534495
 30
0.0
 11
10249.89911652026
 21
18499.93694341363
 31
0.0
  0
LINE
  5
93C
330
1F
100
AcDbEntity
  8
1
  6
Continuous
 62
     7
370
    13
100
AcDbLine
 10
10249.89911652026
 20
18499.93694341363
 30
0.0
 11
10262.85119391018
 21
18492.53146767182
 31
0.0
  0
LINE
  5
93D
330
1F
100
AcDbEntity
  8
1
  6
Continuous
 62
     7
370
    13
100
AcDbLine
 10
10262.85119391018
 20
18492.53146767182
 30
0.0
 11
10444.24860326435
 21
18407.38310608685
 31
0.0
  0
LINE
  5
93E
330
1F
100
AcDbEntity
  8
1
  6
Continuous
 62
     7
370
    13
100
AcDbLine
 10
10444.24860326435
 20
18407.38310608685
 30
0.0
 11
10447.95134113654
 21
18405.5392868507
 31
0.0
  0
LINE
  5
93F
330
1F
100
AcDbEntity
  8
1
  6
Continuous
 62
     7
370
    13
100
AcDbLine
 10
10447.95134113654
 20
18405.5392868507
 30
0.0
 11
10538.64625982726
 21
18374.07338648296
 31
0.0
  0
LINE
  5
940
330
1F
100
AcDbEntity
  8
1
  6
Continuous
 62
     7
370
    13
100
AcDbLine
 10
10538.64625982726
 20
18374.07338648296
 30
0.0
 11
10542.34899769946
 21
18374.07338648296
 31
0.0
  0
LINE
  5
941
330
1F
100
AcDbEntity
  8
1
  6
Continuous
 62
     7
370
    13
100
AcDbLine
 10
10542.34899769946
 20
18374.07338648296
 30
0.0
 11
10588.61836666237
 21
18362.96512832916
 31
0.0
  0
LINE
  5
942
330
1F
100
AcDbEntity
  8
1
  6
Continuous
 62
     7
370
    13
100
AcDbLine
 10
10588.61836666237
 20
18362.96512832916
 30
0.0
 11
10590.47732983926
 21
18361.11373712291
 31
0.0
  0
LINE
  5
943
330
1F
100
AcDbEntity
  8
1
  6
Continuous
 62
     7
370
    13
100
AcDbLine
 10
10590.47732983926
 20
18361.11373712291
 30
0.0
 11
10644.15217454506
 21
18346.31026852669
 31
0.0
  0
LINE
  5
944
330
1F
100
AcDbEntity
  8
1
  6
Continuous
 62
     7
370
    13
100
AcDbLine
 10
10644.15217454506
 20
18346.31026852669
 30
0.0
 11
10651.55773936906
 21
18344.45134989167
 31
0.0
  0
LINE
  5
945
330
1F
100
AcDbEntity
  8
1
  6
Continuous
 62
     7
370
    13
100
AcDbLine
 10
10651.55773936906
 20
18344.45134989167
 30
0.0
 11
10764.46160239832
 21
18290.77646064457
 31
0.0
  0
LINE
  5
946
330
1F
100
AcDbEntity
  8
1
  6
Continuous
 62
     7
370
    13
100
AcDbLine
 10
10068.50553769328
 20
18805.34651849273
 30
0.0
 11
10068.50553769328
 21
18770.17788025381
 31
0.0
  0
LINE
  5
947
330
1F
100
AcDbEntity
  8
1
  6
Continuous
 62
     7
370
    13
100
AcDbLine
 10
10068.50553769328
 20
18770.17788025381
 30
0.0
 11
10066.65414648754
 21
18759.06957755866
 31
0.0
  0
LINE
  5
948
330
1F
100
AcDbEntity
  8
1
  6
Continuous
 62
     7
370
    13
100
AcDbLine
 10
10066.65414648754
 20
18759.06957755866
 30
0.0
 11
10059.25241218863
 21
18751.66405727602
 31
0.0
  0
LINE
  5
949
330
1F
100
AcDbEntity
  8
1
  6
Continuous
 62
     7
370
    13
100
AcDbLine
 10
10059.25241218863
 20
18751.66405727602
 30
0.0
 11
10042.59376640136
 21
18738.71197988606
 31
0.0
  0
LINE
  5
94A
330
1F
100
AcDbEntity
  8
1
  6
Continuous
 62
     7
370
    13
100
AcDbLine
 10
10042.59376640136
 20
18738.71197988606
 30
0.0
 11
10033.33685491299
 21
18733.15027883855
 31
0.0
  0
LINE
  5
94B
330
1F
100
AcDbEntity
  8
1
  6
Continuous
 62
     7
370
    13
100
AcDbLine
 10
10033.33685491299
 20
18733.15027883855
 30
0.0
 11
10022.23238274345
 21
18731.3064596024
 31
0.0
  0
LINE
  5
94C
330
1F
100
AcDbEntity
  8
1
  6
Continuous
 62
     7
370
    13
100
AcDbLine
 10
10022.23238274345
 20
18731.3064596024
 30
0.0
 11
10016.67825366709
 21
18729.45506839665
 31
0.0
  0
LINE
  5
94D
330
1F
100
AcDbEntity
  8
1
  6
Continuous
 62
     7
370
    13
100
AcDbLine
 10
10016.67825366709
 20
18729.45506839665
 30
0.0
 11
10007.4251281625
 21
18733.15027883855
 31
0.0
  0
LINE
  5
94E
330
1F
100
AcDbEntity
  8
1
  6
Continuous
 62
     7
370
    13
100
AcDbLine
 10
10007.4251281625
 20
18733.15027883855
 30
0.0
 11
10001.87095454418
 21
18735.0092420149
 31
0.0
  0
LINE
  5
94F
330
1F
100
AcDbEntity
  8
1
  6
Continuous
 62
     7
370
    13
100
AcDbLine
 10
10092.56965922181
 20
18820.14998708895
 30
0.0
 11
10101.82278472541
 21
18820.14998708895
 31
0.0
  0
LINE
  5
950
330
1F
100
AcDbEntity
  8
1
  6
Continuous
 62
     7
370
    13
100
AcDbLine
 10
10101.82278472541
 20
18820.14998708895
 30
0.0
 11
10105.52556713683
 21
18818.29859588269
 31
0.0
  0
LINE
  5
951
330
1F
100
AcDbEntity
  8
1
  6
Continuous
 62
     7
370
    13
100
AcDbLine
 10
10105.52556713683
 20
18818.29859588269
 30
0.0
 11
10105.52556713683
 21
18816.44724921777
 31
0.0
  0
LINE
  5
952
330
1F
100
AcDbEntity
  8
1
  6
Continuous
 62
     7
370
    13
100
AcDbLine
 10
10105.52556713683
 20
18816.44724921777
 30
0.0
 11
10098.12004685426
 21
18809.04930090524
 31
0.0
  0
LINE
  5
953
330
1F
100
AcDbEntity
  8
1
  6
Continuous
 62
     7
370
    13
100
AcDbLine
 10
10098.12004685426
 20
18809.04930090524
 30
0.0
 11
10096.26865564852
 21
18809.04930090524
 31
0.0
  0
LINE
  5
954
330
1F
100
AcDbEntity
  8
1
  6
Continuous
 62
     7
370
    13
100
AcDbLine
 10
10096.26865564852
 20
18809.04930090524
 30
0.0
 11
10090.71831255745
 21
18809.04930090524
 31
0.0
  0
LINE
  5
955
330
1F
100
AcDbEntity
  8
1
  6
Continuous
 62
     7
370
    13
100
AcDbLine
 10
10090.71831255745
 20
18809.04930090524
 30
0.0
 11
10087.01553014492
 21
18812.74446680578
 31
0.0
  0
LINE
  5
956
330
1F
100
AcDbEntity
  8
1
  6
Continuous
 62
     7
370
    13
100
AcDbLine
 10
10087.01553014492
 20
18812.74446680578
 30
0.0
 11
10088.86692135113
 21
18818.29859588269
 31
0.0
  0
LINE
  5
957
330
1F
100
AcDbEntity
  8
1
  6
Continuous
 62
     7
370
    13
100
AcDbLine
 10
10088.86692135113
 20
18818.29859588269
 30
0.0
 11
10092.56965922181
 21
18820.14998708895
 31
0.0
  0
LINE
  5
958
330
1F
100
AcDbEntity
  8
1
  6
Continuous
 62
     7
370
    13
100
AcDbLine
 10
10092.56965922181
 20
18692.4350389515
 30
0.0
 11
10098.12004685426
 21
18703.54334164662
 31
0.0
  0
LINE
  5
959
330
1F
100
AcDbEntity
  8
1
  6
Continuous
 62
     7
370
    13
100
AcDbLine
 10
10098.12004685426
 20
18703.54334164662
 30
0.0
 11
10099.97139351915
 21
18710.94881738847
 31
0.0
  0
LINE
  5
95A
330
1F
100
AcDbEntity
  8
1
  6
Continuous
 62
     7
370
    13
100
AcDbLine
 10
10099.97139351915
 20
18710.94881738847
 30
0.0
 11
10098.12004685426
 21
18716.49541903659
 31
0.0
  0
LINE
  5
95B
330
1F
100
AcDbEntity
  8
1
  6
Continuous
 62
     7
370
    13
100
AcDbLine
 10
10098.12004685426
 20
18716.49541903659
 30
0.0
 11
10098.12004685426
 21
18718.34681024285
 31
0.0
  0
LINE
  5
95C
330
1F
100
AcDbEntity
  8
1
  6
Continuous
 62
     7
370
    13
100
AcDbLine
 10
10098.12004685426
 20
18718.34681024285
 30
0.0
 11
10098.12004685426
 21
18727.60367719092
 31
0.0
  0
LINE
  5
95D
330
1F
100
AcDbEntity
  8
1
  6
Continuous
 62
     7
370
    13
100
AcDbLine
 10
10098.12004685426
 20
18727.60367719092
 30
0.0
 11
10099.97139351915
 21
18738.71197988606
 31
0.0
  0
LINE
  5
95E
330
1F
100
AcDbEntity
  8
1
  6
Continuous
 62
     7
370
    13
100
AcDbLine
 10
10099.97139351915
 20
18738.71197988606
 30
0.0
 11
10099.97139351915
 21
18772.02169948996
 31
0.0
  0
LINE
  5
95F
330
1F
100
AcDbEntity
  8
1
  6
Continuous
 62
     7
370
    13
100
AcDbLine
 10
10099.97139351915
 20
18772.02169948996
 30
0.0
 11
10101.82278472541
 21
18781.27861097833
 31
0.0
  0
LINE
  5
960
330
1F
100
AcDbEntity
  8
1
  6
Continuous
 62
     7
370
    13
100
AcDbLine
 10
10101.82278472541
 20
18781.27861097833
 30
0.0
 11
10101.82278472541
 21
18792.38686913216
 31
0.0
  0
LINE
  5
961
330
1F
100
AcDbEntity
  8
1
  6
Continuous
 62
     7
370
    13
100
AcDbLine
 10
10101.82278472541
 20
18792.38686913216
 30
0.0
 11
10099.97139351915
 21
18801.64373608127
 31
0.0
  0
LINE
  5
962
330
1F
100
AcDbEntity
  8
1
  6
Continuous
 62
     7
370
    13
100
AcDbLine
 10
10099.97139351915
 20
18801.64373608127
 30
0.0
 11
10103.67417593115
 21
18810.89312014087
 31
0.0
  0
LINE
  5
963
330
1F
100
AcDbEntity
  8
1
  6
Continuous
 62
     7
370
    13
100
AcDbLine
 10
10103.67417593115
 20
18810.89312014087
 30
0.0
 11
10105.52556713683
 21
18816.44724921777
 31
0.0
  0
LINE
  5
964
330
1F
100
AcDbEntity
  8
1
  6
Continuous
 62
     7
370
    13
100
AcDbLine
 10
10105.52556713683
 20
18816.44724921777
 30
0.0
 11
10109.22830500909
 21
18823.85276950095
 31
0.0
  0
LINE
  5
965
330
1F
100
AcDbEntity
  8
1
  6
Continuous
 62
     7
370
    13
100
AcDbLine
 10
10109.22830500909
 20
18823.85276950095
 30
0.0
 11
10118.48143051269
 21
18866.41935605289
 31
0.0
  0
LINE
  5
966
330
1F
100
AcDbEntity
  8
1
  6
Continuous
 62
     7
370
    13
100
AcDbLine
 10
10118.48143051269
 20
18866.41935605289
 30
0.0
 11
10122.18416838279
 21
18873.82487633555
 31
0.0
  0
LINE
  5
967
330
1F
100
AcDbEntity
  8
1
  6
Continuous
 62
     7
370
    13
100
AcDbLine
 10
10122.18416838279
 20
18873.82487633555
 30
0.0
 11
10127.738342001
 21
18888.63591690185
 31
0.0
  0
LINE
  5
968
330
1F
100
AcDbEntity
  8
1
  6
Continuous
 62
     7
370
    13
100
AcDbLine
 10
9996.316870008669
 20
18866.41935605289
 30
0.0
 11
9996.316870008669
 21
18881.23039661868
 31
0.0
  0
LINE
  5
969
330
1F
100
AcDbEntity
  8
1
  6
Continuous
 62
     7
370
    13
100
AcDbLine
 10
9996.316870008669
 20
18881.23039661868
 30
0.0
 11
10000.01960787981
 21
18892.33865477252
 31
0.0
  0
LINE
  5
96A
330
1F
100
AcDbEntity
  8
1
  6
Continuous
 62
     7
370
    13
100
AcDbLine
 10
10000.01960787981
 20
18892.33865477252
 30
0.0
 11
10007.4251281625
 21
18899.74417505566
 31
0.0
  0
LINE
  5
96B
330
1F
100
AcDbEntity
  8
1
  6
Continuous
 62
     7
370
    13
100
AcDbLine
 10
10007.4251281625
 20
18899.74417505566
 30
0.0
 11
10016.67825366709
 21
18905.29077670381
 31
0.0
  0
LINE
  5
96C
330
1F
100
AcDbEntity
  8
1
  6
Continuous
 62
     7
370
    13
100
AcDbLine
 10
10016.67825366709
 20
18905.29077670381
 30
0.0
 11
10027.78651181988
 21
18907.1496953383
 31
0.0
  0
LINE
  5
96D
330
1F
100
AcDbEntity
  8
1
  6
Continuous
 62
     7
370
    13
100
AcDbLine
 10
10027.78651181988
 20
18907.1496953383
 30
0.0
 11
10038.89102853073
 21
18907.1496953383
 31
0.0
  0
LINE
  5
96E
330
1F
100
AcDbEntity
  8
1
  6
Continuous
 62
     7
370
    13
100
AcDbLine
 10
10038.89102853073
 20
18907.1496953383
 30
0.0
 11
10048.14415403381
 21
18903.44695746817
 31
0.0
  0
LINE
  5
96F
330
1F
100
AcDbEntity
  8
1
  6
Continuous
 62
     7
370
    13
100
AcDbLine
 10
10048.14415403381
 20
18903.44695746817
 30
0.0
 11
10074.05966677017
 21
18890.4873081081
 31
0.0
  0
LINE
  5
970
330
1F
100
AcDbEntity
  8
1
  6
Continuous
 62
     7
370
    13
100
AcDbLine
 10
10074.05966677017
 20
18890.4873081081
 30
0.0
 11
10077.76240464033
 21
18886.78452569613
 31
0.0
  0
LINE
  5
971
330
1F
100
AcDbEntity
  8
1
  6
Continuous
 62
     7
370
    13
100
AcDbLine
 10
10077.76240464033
 20
18886.78452569613
 30
0.0
 11
10075.91105797591
 21
18881.23039661868
 31
0.0
  0
LINE
  5
972
330
1F
100
AcDbEntity
  8
1
  6
Continuous
 62
     7
370
    13
100
AcDbLine
 10
10075.91105797591
 20
18881.23039661868
 30
0.0
 11
10070.35692889896
 21
18875.68383951137
 31
0.0
  0
LINE
  5
973
330
1F
100
AcDbEntity
  8
1
  6
Continuous
 62
     7
370
    13
100
AcDbLine
 10
10070.35692889896
 20
18875.68383951137
 30
0.0
 11
10064.80275528128
 21
18868.2782746874
 31
0.0
  0
LINE
  5
974
330
1F
100
AcDbEntity
  8
1
  6
Continuous
 62
     7
370
    13
100
AcDbLine
 10
10064.80275528128
 20
18868.2782746874
 30
0.0
 11
10044.44515760716
 21
18827.55550737159
 31
0.0
  0
LINE
  5
975
330
1F
100
AcDbEntity
  8
1
  6
Continuous
 62
     7
370
    13
100
AcDbLine
 10
10044.44515760716
 20
18827.55550737159
 30
0.0
 11
10038.89102853073
 21
18823.85276950095
 31
0.0
  0
LINE
  5
976
330
1F
100
AcDbEntity
  8
1
  6
Continuous
 62
     7
370
    13
100
AcDbLine
 10
10038.89102853073
 20
18823.85276950095
 30
0.0
 11
10033.33685491299
 21
18825.70411616533
 31
0.0
  0
LINE
  5
977
330
1F
100
AcDbEntity
  8
1
  6
Continuous
 62
     7
370
    13
100
AcDbLine
 10
10033.33685491299
 20
18825.70411616533
 30
0.0
 11
10020.38099153725
 21
18836.81237431966
 31
0.0
  0
LINE
  5
978
330
1F
100
AcDbEntity
  8
1
  6
Continuous
 62
     7
370
    13
100
AcDbLine
 10
10020.38099153725
 20
18836.81237431966
 30
0.0
 11
10016.67825366709
 21
18842.3589759678
 31
0.0
  0
LINE
  5
979
330
1F
100
AcDbEntity
  8
1
  6
Continuous
 62
     7
370
    13
100
AcDbLine
 10
10016.67825366709
 20
18842.3589759678
 30
0.0
 11
10007.4251281625
 21
18853.46727866295
 31
0.0
  0
LINE
  5
97A
330
1F
100
AcDbEntity
  8
1
  6
Continuous
 62
     7
370
    13
100
AcDbLine
 10
10007.4251281625
 20
18853.46727866295
 30
0.0
 11
10000.01960787981
 21
18859.02140773933
 31
0.0
  0
LINE
  5
97B
330
1F
100
AcDbEntity
  8
1
  6
Continuous
 62
     7
370
    13
100
AcDbLine
 10
10000.01960787981
 20
18859.02140773933
 30
0.0
 11
9996.316870008669
 21
18862.71661818173
 31
0.0
  0
LINE
  5
97C
330
1F
100
AcDbEntity
  8
1
  6
Continuous
 62
     7
370
    13
100
AcDbLine
 10
9996.316870008669
 20
18862.71661818173
 30
0.0
 11
9996.316870008669
 21
18866.41935605289
 31
0.0
  0
LINE
  5
97D
330
1F
100
AcDbEntity
  8
1
  6
Continuous
 62
     7
370
    13
100
AcDbLine
 10
10025.93512061414
 20
18762.77235997065
 30
0.0
 11
10014.82686246083
 21
18762.77235997065
 31
0.0
  0
LINE
  5
97E
330
1F
100
AcDbEntity
  8
1
  6
Continuous
 62
     7
370
    13
100
AcDbLine
 10
10014.82686246083
 20
18762.77235997065
 30
0.0
 11
10005.57373695624
 21
18766.47509784183
 31
0.0
  0
LINE
  5
97F
330
1F
100
AcDbEntity
  8
1
  6
Continuous
 62
     7
370
    13
100
AcDbLine
 10
10005.57373695624
 20
18766.47509784183
 30
0.0
 11
9994.469220246902
 21
18772.02169948996
 31
0.0
  0
LINE
  5
980
330
1F
100
AcDbEntity
  8
1
  6
Continuous
 62
     7
370
    13
100
AcDbLine
 10
9994.469220246902
 20
18772.02169948996
 30
0.0
 11
9988.915091170479
 21
18775.7244373606
 31
0.0
  0
LINE
  5
981
330
1F
100
AcDbEntity
  8
1
  6
Continuous
 62
     7
370
    13
100
AcDbLine
 10
9988.915091170479
 20
18775.7244373606
 30
0.0
 11
9985.21235329828
 21
18781.27861097833
 31
0.0
  0
LINE
  5
982
330
1F
100
AcDbEntity
  8
1
  6
Continuous
 62
     7
370
    13
100
AcDbLine
 10
9985.21235329828
 20
18781.27861097833
 30
0.0
 11
9985.21235329828
 21
18788.68408672069
 31
0.0
  0
LINE
  5
983
330
1F
100
AcDbEntity
  8
1
  6
Continuous
 62
     7
370
    13
100
AcDbLine
 10
9985.21235329828
 20
18788.68408672069
 30
0.0
 11
9987.063744504077
 21
18796.08960700382
 31
0.0
  0
LINE
  5
984
330
1F
100
AcDbEntity
  8
1
  6
Continuous
 62
     7
370
    13
100
AcDbLine
 10
9987.063744504077
 20
18796.08960700382
 30
0.0
 11
9994.469220246902
 21
18812.74446680578
 31
0.0
  0
LINE
  5
985
330
1F
100
AcDbEntity
  8
1
  6
Continuous
 62
     7
370
    13
100
AcDbLine
 10
9994.469220246902
 20
18812.74446680578
 30
0.0
 11
9996.316870008669
 21
18814.59585801152
 31
0.0
  0
LINE
  5
986
330
1F
100
AcDbEntity
  8
1
  6
Continuous
 62
     7
370
    13
100
AcDbLine
 10
9996.316870008669
 20
18814.59585801152
 30
0.0
 11
10000.01960787981
 21
18814.59585801152
 31
0.0
  0
LINE
  5
987
330
1F
100
AcDbEntity
  8
1
  6
Continuous
 62
     7
370
    13
100
AcDbLine
 10
10000.01960787981
 20
18814.59585801152
 30
0.0
 11
10007.4251281625
 21
18810.89312014087
 31
0.0
  0
LINE
  5
988
330
1F
100
AcDbEntity
  8
1
  6
Continuous
 62
     7
370
    13
100
AcDbLine
 10
10007.4251281625
 20
18810.89312014087
 30
0.0
 11
10014.82686246083
 21
18809.04925636391
 31
0.0
  0
LINE
  5
989
330
1F
100
AcDbEntity
  8
1
  6
Continuous
 62
     7
370
    13
100
AcDbLine
 10
10014.82686246083
 20
18809.04925636391
 30
0.0
 11
10020.38099153725
 21
18810.89312014087
 31
0.0
  0
LINE
  5
98A
330
1F
100
AcDbEntity
  8
1
  6
Continuous
 62
     7
370
    13
100
AcDbLine
 10
10020.38099153725
 20
18810.89312014087
 30
0.0
 11
10022.23238274345
 21
18810.89312014087
 31
0.0
  0
LINE
  5
98B
330
1F
100
AcDbEntity
  8
1
  6
Continuous
 62
     7
370
    13
100
AcDbLine
 10
10022.23238274345
 20
18810.89312014087
 30
0.0
 11
10031.4855082481
 21
18810.89312014087
 31
0.0
  0
LINE
  5
98C
330
1F
100
AcDbEntity
  8
1
  6
Continuous
 62
     7
370
    13
100
AcDbLine
 10
10031.4855082481
 20
18810.89312014087
 30
0.0
 11
10035.18824611873
 21
18809.04925636391
 31
0.0
  0
LINE
  5
98D
330
1F
100
AcDbEntity
  8
1
  6
Continuous
 62
     7
370
    13
100
AcDbLine
 10
10035.18824611873
 20
18809.04925636391
 30
0.0
 11
10033.33685491299
 21
18805.34651849273
 31
0.0
  0
LINE
  5
98E
330
1F
100
AcDbEntity
  8
1
  6
Continuous
 62
     7
370
    13
100
AcDbLine
 10
10033.33685491299
 20
18805.34651849273
 30
0.0
 11
10031.4855082481
 21
18797.94099820958
 31
0.0
  0
LINE
  5
98F
330
1F
100
AcDbEntity
  8
1
  6
Continuous
 62
     7
370
    13
100
AcDbLine
 10
10031.4855082481
 20
18797.94099820958
 30
0.0
 11
10029.63411704184
 21
18790.53547792641
 31
0.0
  0
LINE
  5
990
330
1F
100
AcDbEntity
  8
1
  6
Continuous
 62
     7
370
    13
100
AcDbLine
 10
10029.63411704184
 20
18790.53547792641
 30
0.0
 11
10029.63411704184
 21
18783.12995764378
 31
0.0
  0
LINE
  5
991
330
1F
100
AcDbEntity
  8
1
  6
Continuous
 62
     7
370
    13
100
AcDbLine
 10
10029.63411704184
 20
18783.12995764378
 30
0.0
 11
10033.33685491299
 21
18773.88061812448
 31
0.0
  0
LINE
  5
992
330
1F
100
AcDbEntity
  8
1
  6
Continuous
 62
     7
370
    13
100
AcDbLine
 10
10033.33685491299
 20
18773.88061812448
 30
0.0
 11
10033.33685491299
 21
18768.31891707798
 31
0.0
  0
LINE
  5
993
330
1F
100
AcDbEntity
  8
1
  6
Continuous
 62
     7
370
    13
100
AcDbLine
 10
10033.33685491299
 20
18768.31891707798
 30
0.0
 11
10029.63411704184
 21
18764.62375117639
 31
0.0
  0
LINE
  5
994
330
1F
100
AcDbEntity
  8
1
  6
Continuous
 62
     7
370
    13
100
AcDbLine
 10
10029.63411704184
 20
18764.62375117639
 30
0.0
 11
10025.93512061414
 21
18762.77235997065
 31
0.0
  0
LINE
  5
995
330
1F
100
AcDbEntity
  8
1
  6
Continuous
 62
     7
370
    13
100
AcDbLine
 10
9874.156050948093
 20
19051.51950327822
 30
0.0
 11
9876.007397614085
 21
19044.11398299454
 31
0.0
  0
LINE
  5
996
330
1F
100
AcDbEntity
  8
1
  6
Continuous
 62
     7
370
    13
100
AcDbLine
 10
9876.007397614085
 20
19044.11398299454
 30
0.0
 11
9883.40917645274
 21
19031.15811961928
 31
0.0
  0
LINE
  5
997
330
1F
100
AcDbEntity
  8
1
  6
Continuous
 62
     7
370
    13
100
AcDbLine
 10
9883.40917645274
 20
19031.15811961928
 30
0.0
 11
9903.770560110643
 21
19005.24634832894
 31
0.0
  0
LINE
  5
998
330
1F
100
AcDbEntity
  8
1
  6
Continuous
 62
     7
370
    13
100
AcDbLine
 10
9903.770560110643
 20
19005.24634832894
 30
0.0
 11
9909.324689187009
 21
18999.69221925152
 31
0.0
  0
LINE
  5
999
330
1F
100
AcDbEntity
  8
1
  6
Continuous
 62
     7
370
    13
100
AcDbLine
 10
9909.324689187009
 20
18999.69221925152
 30
0.0
 11
9950.043715059365
 21
18960.81705715613
 31
0.0
  0
LINE
  5
99A
330
1F
100
AcDbEntity
  8
1
  6
Continuous
 62
     7
370
    13
100
AcDbLine
 10
9950.043715059365
 20
18960.81705715613
 30
0.0
 11
9955.597844137301
 21
18957.12184671424
 31
0.0
  0
LINE
  5
99B
330
1F
100
AcDbEntity
  8
1
  6
Continuous
 62
     7
370
    13
100
AcDbLine
 10
9955.597844137301
 20
18957.12184671424
 30
0.0
 11
10000.01960787981
 21
18925.65594634649
 31
0.0
  0
LINE
  5
99C
330
1F
100
AcDbEntity
  8
1
  6
Continuous
 62
     7
370
    13
100
AcDbLine
 10
10000.01960787981
 20
18925.65594634649
 30
0.0
 11
10005.57373695624
 21
18923.80455514077
 31
0.0
  0
LINE
  5
99D
330
1F
100
AcDbEntity
  8
1
  6
Continuous
 62
     7
370
    13
100
AcDbLine
 10
10005.57373695624
 20
18923.80455514077
 30
0.0
 11
10022.23238274345
 21
18914.5476881927
 31
0.0
  0
LINE
  5
99E
330
1F
100
AcDbEntity
  8
1
  6
Continuous
 62
     7
370
    13
100
AcDbLine
 10
10022.23238274345
 20
18914.5476881927
 30
0.0
 11
10037.03963732447
 21
18910.85247775079
 31
0.0
  0
LINE
  5
99F
330
1F
100
AcDbEntity
  8
1
  6
Continuous
 62
     7
370
    13
100
AcDbLine
 10
10037.03963732447
 20
18910.85247775079
 30
0.0
 11
10053.69828311174
 21
18908.99351457445
 31
0.0
  0
LINE
  5
9A0
330
1F
100
AcDbEntity
  8
1
  6
Continuous
 62
     7
370
    13
100
AcDbLine
 10
10053.69828311174
 20
18908.99351457445
 30
0.0
 11
10066.65414648754
 21
18905.29077670381
 31
0.0
  0
LINE
  5
9A1
330
1F
100
AcDbEntity
  8
1
  6
Continuous
 62
     7
370
    13
100
AcDbLine
 10
10066.65414648754
 20
18905.29077670381
 30
0.0
 11
10072.20827556391
 21
18903.44695746817
 31
0.0
  0
LINE
  5
9A2
330
1F
100
AcDbEntity
  8
1
  6
Continuous
 62
     7
370
    13
100
AcDbLine
 10
10072.20827556391
 20
18903.44695746817
 30
0.0
 11
10085.16413893918
 21
18899.74421959648
 31
0.0
  0
LINE
  5
9A3
330
1F
100
AcDbEntity
  8
1
  6
Continuous
 62
     7
370
    13
100
AcDbLine
 10
10085.16413893918
 20
18899.74421959648
 30
0.0
 11
10105.52556713683
 21
18896.04143718449
 31
0.0
  0
LINE
  5
9A4
330
1F
100
AcDbEntity
  8
1
  6
Continuous
 62
     7
370
    13
100
AcDbLine
 10
10105.52556713683
 20
18896.04143718449
 30
0.0
 11
10114.77864810016
 21
18896.04143718449
 31
0.0
  0
LINE
  5
9A5
330
1F
100
AcDbEntity
  8
1
  6
Continuous
 62
     7
370
    13
100
AcDbLine
 10
10114.77864810016
 20
18896.04143718449
 30
0.0
 11
10175.8590576299
 21
18877.52765874752
 31
0.0
  0
LINE
  5
9A6
330
1F
100
AcDbEntity
  8
1
  6
Continuous
 62
     7
370
    13
100
AcDbLine
 10
10175.8590576299
 20
18877.52765874752
 30
0.0
 11
10181.41318670783
 21
18873.82487633555
 31
0.0
  0
LINE
  5
9A7
330
1F
100
AcDbEntity
  8
1
  6
Continuous
 62
     7
370
    13
100
AcDbLine
 10
10181.41318670783
 20
18873.82487633555
 30
0.0
 11
10214.73047828134
 21
18859.02140773933
 31
0.0
  0
LINE
  5
9A8
330
1F
100
AcDbEntity
  8
1
  6
Continuous
 62
     7
370
    13
100
AcDbLine
 10
10214.73047828134
 20
18859.02140773933
 30
0.0
 11
10223.98738977128
 21
18853.46727866295
 31
0.0
  0
LINE
  5
9A9
330
1F
100
AcDbEntity
  8
1
  6
Continuous
 62
     7
370
    13
100
AcDbLine
 10
10223.98738977128
 20
18853.46727866295
 30
0.0
 11
10231.38533808327
 21
18846.06175837926
 31
0.0
  0
LINE
  5
9AA
330
1F
100
AcDbEntity
  8
1
  6
Continuous
 62
     7
370
    13
100
AcDbLine
 10
10231.38533808327
 20
18846.06175837926
 30
0.0
 11
10236.94703913027
 21
18836.81241886099
 31
0.0
  0
LINE
  5
9AB
330
1F
100
AcDbEntity
  8
1
  6
Continuous
 62
     7
370
    13
100
AcDbLine
 10
10236.94703913027
 20
18836.81241886099
 30
0.0
 11
10240.64977700142
 21
18825.70416070666
 31
0.0
  0
LINE
  5
9AC
330
1F
100
AcDbEntity
  8
1
  6
Continuous
 62
     7
370
    13
100
AcDbLine
 10
10240.64977700142
 20
18825.70416070666
 30
0.0
 11
10242.49359623763
 21
18805.34651849273
 31
0.0
  0
LINE
  5
9AD
330
1F
100
AcDbEntity
  8
1
  6
Continuous
 62
     7
370
    13
100
AcDbLine
 10
10242.49359623763
 20
18805.34651849273
 30
0.0
 11
10244.34498744383
 21
18797.94099820958
 31
0.0
  0
LINE
  5
9AE
330
1F
100
AcDbEntity
  8
1
  6
Continuous
 62
     7
370
    13
100
AcDbLine
 10
10244.34498744383
 20
18797.94099820958
 30
0.0
 11
10257.30463680288
 21
18762.77235997065
 31
0.0
  0
LINE
  5
9AF
330
1F
100
AcDbEntity
  8
1
  6
Continuous
 62
     7
370
    13
100
AcDbLine
 10
10257.30463680288
 20
18762.77235997065
 30
0.0
 11
10259.14845604008
 21
18757.21823089376
 31
0.0
  0
LINE
  5
9B0
330
1F
100
AcDbEntity
  8
1
  6
Continuous
 62
     7
370
    13
100
AcDbLine
 10
10259.14845604008
 20
18757.21823089376
 30
0.0
 11
10266.55397632271
 21
18720.19820144858
 31
0.0
  0
LINE
  5
9B1
330
1F
100
AcDbEntity
  8
1
  6
Continuous
 62
     7
370
    13
100
AcDbLine
 10
10266.55397632271
 20
18720.19820144858
 30
0.0
 11
10270.25675873419
 21
18710.94886192926
 31
0.0
  0
LINE
  5
9B2
330
1F
100
AcDbEntity
  8
1
  6
Continuous
 62
     7
370
    13
100
AcDbLine
 10
10270.25675873419
 20
18710.94886192926
 30
0.0
 11
10273.95949660534
 21
18703.54334164662
 31
0.0
  0
LINE
  5
9B3
330
1F
100
AcDbEntity
  8
1
  6
Continuous
 62
     7
370
    13
100
AcDbLine
 10
10273.95949660534
 20
18703.54334164662
 30
0.0
 11
10307.28431560915
 21
18660.96918312508
 31
0.0
  0
LINE
  5
9B4
330
1F
100
AcDbEntity
  8
1
  6
Continuous
 62
     7
370
    13
100
AcDbLine
 10
10307.28431560915
 20
18660.96918312508
 30
0.0
 11
10310.97952604999
 21
18655.41505404765
 31
0.0
  0
LINE
  5
9B5
330
1F
100
AcDbEntity
  8
1
  6
Continuous
 62
     7
370
    13
100
AcDbLine
 10
10310.97952604999
 20
18655.41505404765
 30
0.0
 11
10323.93917541056
 21
18636.90880303946
 31
0.0
  0
LINE
  5
9B6
330
1F
100
AcDbEntity
  8
1
  6
Continuous
 62
     7
370
    13
100
AcDbLine
 10
10323.93917541056
 20
18636.90880303946
 30
0.0
 11
10329.48577705818
 21
18629.50328275631
 31
0.0
  0
LINE
  5
9B7
330
1F
100
AcDbEntity
  8
1
  6
Continuous
 62
     7
370
    13
100
AcDbLine
 10
10329.48577705818
 20
18629.50328275631
 30
0.0
 11
10336.89125280054
 21
18623.94915367993
 31
0.0
  0
LINE
  5
9B8
330
1F
100
AcDbEntity
  8
1
  6
Continuous
 62
     7
370
    13
100
AcDbLine
 10
10336.89125280054
 20
18623.94915367993
 30
0.0
 11
10349.85094670137
 21
18618.3950246025
 31
0.0
  0
LINE
  5
9B9
330
1F
100
AcDbEntity
  8
1
  6
Continuous
 62
     7
370
    13
100
AcDbLine
 10
10349.85094670137
 20
18618.3950246025
 30
0.0
 11
10353.55368457206
 21
18614.69228673186
 31
0.0
  0
LINE
  5
9BA
330
1F
100
AcDbEntity
  8
1
  6
Continuous
 62
     7
370
    13
100
AcDbLine
 10
10353.55368457206
 20
18614.69228673186
 30
0.0
 11
10357.25642244373
 21
18609.14568508371
 31
0.0
  0
LINE
  5
9BB
330
1F
100
AcDbEntity
  8
1
  6
Continuous
 62
     7
370
    13
100
AcDbLine
 10
10357.25642244373
 20
18609.14568508371
 30
0.0
 11
10360.95163288562
 21
18601.74016480056
 31
0.0
  0
LINE
  5
9BC
330
1F
100
AcDbEntity
  8
1
  6
Continuous
 62
     7
370
    13
100
AcDbLine
 10
10360.95163288562
 20
18601.74016480056
 30
0.0
 11
10366.51333393262
 21
18598.03738238857
 31
0.0
  0
LINE
  5
9BD
330
1F
100
AcDbEntity
  8
1
  6
Continuous
 62
     7
370
    13
100
AcDbLine
 10
10366.51333393262
 20
18598.03738238857
 30
0.0
 11
10373.91128224624
 21
18596.18603572364
 31
0.0
  0
LINE
  5
9BE
330
1F
100
AcDbEntity
  8
1
  6
Continuous
 62
     7
370
    13
100
AcDbLine
 10
10373.91128224624
 20
18596.18603572364
 30
0.0
 11
10383.16819373461
 21
18590.63186210593
 31
0.0
  0
LINE
  5
9BF
330
1F
100
AcDbEntity
  8
1
  6
Continuous
 62
     7
370
    13
100
AcDbLine
 10
10383.16819373461
 20
18590.63186210593
 30
0.0
 11
10405.3771826129
 21
18570.27426443281
 31
0.0
  0
LINE
  5
9C0
330
1F
100
AcDbEntity
  8
1
  6
Continuous
 62
     7
370
    13
100
AcDbLine
 10
10405.3771826129
 20
18570.27426443281
 30
0.0
 11
10414.63409410336
 21
18564.72013535539
 31
0.0
  0
LINE
  5
9C1
330
1F
100
AcDbEntity
  8
1
  6
Continuous
 62
     7
370
    13
100
AcDbLine
 10
10414.63409410336
 20
18564.72013535539
 30
0.0
 11
10477.56585029752
 21
18535.10562619337
 31
0.0
  0
LINE
  5
9C2
330
1F
100
AcDbEntity
  8
1
  6
Continuous
 62
     7
370
    13
100
AcDbLine
 10
10477.56585029752
 20
18535.10562619337
 30
0.0
 11
10488.67415299215
 21
18533.25423498763
 31
0.0
  0
LINE
  5
9C3
330
1F
100
AcDbEntity
  8
1
  6
Continuous
 62
     7
370
    13
100
AcDbLine
 10
10488.67415299215
 20
18533.25423498763
 30
0.0
 11
10560.85524870718
 21
18518.44319442183
 31
0.0
  0
LINE
  5
9C4
330
1F
100
AcDbEntity
  8
1
  6
Continuous
 62
     7
370
    13
100
AcDbLine
 10
10560.85524870718
 20
18518.44319442183
 30
0.0
 11
10564.55803111913
 21
18518.44319442183
 31
0.0
  0
LINE
  5
9C5
330
1F
100
AcDbEntity
  8
1
  6
Continuous
 62
     7
370
    13
100
AcDbLine
 10
10564.55803111913
 20
18518.44319442183
 30
0.0
 11
10618.2404477945
 21
18503.63972582563
 31
0.0
  0
LINE
  5
9C6
330
1F
100
AcDbEntity
  8
1
  6
Continuous
 62
     7
370
    13
100
AcDbLine
 10
10618.2404477945
 20
18503.63972582563
 30
0.0
 11
10625.64596807818
 21
18501.78833461938
 31
0.0
  0
LINE
  5
9C7
330
1F
100
AcDbEntity
  8
1
  6
Continuous
 62
     7
370
    13
100
AcDbLine
 10
10625.64596807818
 20
18501.78833461938
 30
0.0
 11
10647.85495695653
 21
18498.08559674924
 31
0.0
  0
LINE
  5
9C8
330
1F
100
AcDbEntity
  8
1
  6
Continuous
 62
     7
370
    13
100
AcDbLine
 10
10647.85495695653
 20
18498.08559674924
 30
0.0
 11
10657.11186844542
 21
18496.23420554299
 31
0.0
  0
LINE
  5
9C9
330
1F
100
AcDbEntity
  8
1
  6
Continuous
 62
     7
370
    13
100
AcDbLine
 10
10657.11186844542
 20
18496.23420554299
 30
0.0
 11
10662.6584700941
 21
18494.38285887756
 31
0.0
  0
LINE
  5
9CA
330
1F
100
AcDbEntity
  8
1
  6
Continuous
 62
     7
370
    13
100
AcDbLine
 10
10434.99169177598
 20
18977.48697181716
 30
0.0
 11
10410.93135623117
 21
18981.18218225904
 31
0.0
  0
LINE
  5
9CB
330
1F
100
AcDbEntity
  8
1
  6
Continuous
 62
     7
370
    13
100
AcDbLine
 10
10410.93135623117
 20
18981.18218225904
 30
0.0
 11
10397.97923430091
 21
18984.88496467103
 31
0.0
  0
LINE
  5
9CC
330
1F
100
AcDbEntity
  8
1
  6
Continuous
 62
     7
370
    13
100
AcDbLine
 10
10397.97923430091
 20
18984.88496467103
 30
0.0
 11
10373.91132678756
 21
18995.98943683953
 31
0.0
  0
LINE
  5
9CD
330
1F
100
AcDbEntity
  8
1
  6
Continuous
 62
     7
370
    13
100
AcDbLine
 10
10373.91132678756
 20
18995.98943683953
 30
0.0
 11
10362.810596062
 21
18999.69221925152
 31
0.0
  0
LINE
  5
9CE
330
1F
100
AcDbEntity
  8
1
  6
Continuous
 62
     7
370
    13
100
AcDbLine
 10
10362.810596062
 20
18999.69221925152
 30
0.0
 11
10331.34469569324
 21
19005.24634832894
 31
0.0
  0
LINE
  5
9CF
330
1F
100
AcDbEntity
  8
1
  6
Continuous
 62
     7
370
    13
100
AcDbLine
 10
10331.34469569324
 20
19005.24634832894
 30
0.0
 11
10325.78299464624
 21
19007.0977395347
 31
0.0
  0
LINE
  5
9D0
330
1F
100
AcDbEntity
  8
1
  6
Continuous
 62
     7
370
    13
100
AcDbLine
 10
10325.78299464624
 20
19007.0977395347
 30
0.0
 11
10253.60189893272
 21
19029.30672841354
 31
0.0
  0
LINE
  5
9D1
330
1F
100
AcDbEntity
  8
1
  6
Continuous
 62
     7
370
    13
100
AcDbLine
 10
10253.60189893272
 20
19029.30672841354
 30
0.0
 11
10248.04776985583
 21
19031.15807507846
 31
0.0
  0
LINE
  5
9D2
330
1F
100
AcDbEntity
  8
1
  6
Continuous
 62
     7
370
    13
100
AcDbLine
 10
10248.04776985583
 20
19031.15807507846
 30
0.0
 11
10216.58186948708
 21
19036.71224869669
 31
0.0
  0
LINE
  5
9D3
330
1F
100
AcDbEntity
  8
1
  6
Continuous
 62
     7
370
    13
100
AcDbLine
 10
10216.58186948708
 20
19036.71224869669
 30
0.0
 11
10205.48113876204
 21
19040.41498656786
 31
0.0
  0
LINE
  5
9D4
330
1F
100
AcDbEntity
  8
1
  6
Continuous
 62
     7
370
    13
100
AcDbLine
 10
10205.48113876204
 20
19040.41498656786
 30
0.0
 11
10124.03555958905
 21
19077.43123002773
 31
0.0
  0
LINE
  5
9D5
330
1F
100
AcDbEntity
  8
1
  6
Continuous
 62
     7
370
    13
100
AcDbLine
 10
10124.03555958905
 20
19077.43123002773
 30
0.0
 11
10112.92730143574
 21
19081.13401243971
 31
0.0
  0
LINE
  5
9D6
330
1F
100
AcDbEntity
  8
1
  6
Continuous
 62
     7
370
    13
100
AcDbLine
 10
10112.92730143574
 20
19081.13401243971
 30
0.0
 11
10081.46140106699
 21
19086.68814151661
 31
0.0
  0
LINE
  5
9D7
330
1F
100
AcDbEntity
  8
1
  6
Continuous
 62
     7
370
    13
100
AcDbLine
 10
10081.46140106699
 20
19086.68814151661
 30
0.0
 11
10075.91105797591
 21
19088.53948818153
 31
0.0
  0
LINE
  5
9D8
330
1F
100
AcDbEntity
  8
1
  6
Continuous
 62
     7
370
    13
100
AcDbLine
 10
10075.91105797591
 20
19088.53948818153
 30
0.0
 11
10001.87099908555
 21
19112.59991280797
 31
0.0
  0
LINE
  5
9D9
330
1F
100
AcDbEntity
  8
1
  6
Continuous
 62
     7
370
    13
100
AcDbLine
 10
10001.87099908555
 20
19112.59991280797
 30
0.0
 11
9935.236460478932
 21
19132.96129646536
 31
0.0
  0
LINE
  5
9DA
330
1F
100
AcDbEntity
  8
1
  6
Continuous
 62
     7
370
    13
100
AcDbLine
 10
9998.168216673555
 20
19090.3909239286
 30
0.0
 11
10011.12791057392
 21
19077.43127456854
 31
0.0
  0
LINE
  5
9DB
330
1F
100
AcDbEntity
  8
1
  6
Continuous
 62
     7
370
    13
100
AcDbLine
 10
10011.12791057392
 20
19077.43127456854
 30
0.0
 11
10018.52964487283
 21
19066.32675785871
 31
0.0
  0
LINE
  5
9DC
330
1F
100
AcDbEntity
  8
1
  6
Continuous
 62
     7
370
    13
100
AcDbLine
 10
10018.52964487283
 20
19066.32675785871
 30
0.0
 11
10020.38099153725
 21
19058.92502356086
 31
0.0
  0
LINE
  5
9DD
330
1F
100
AcDbEntity
  8
1
  6
Continuous
 62
     7
370
    13
100
AcDbLine
 10
10020.38099153725
 20
19058.92502356086
 30
0.0
 11
10018.52964487283
 21
19053.37089448397
 31
0.0
  0
LINE
  5
9DE
330
1F
100
AcDbEntity
  8
1
  6
Continuous
 62
     7
370
    13
100
AcDbLine
 10
10018.52964487283
 20
19053.37089448397
 30
0.0
 11
10000.01960787981
 21
19014.49947383254
 31
0.0
  0
LINE
  5
9DF
330
1F
100
AcDbEntity
  8
1
  6
Continuous
 62
     7
370
    13
100
AcDbLine
 10
10000.01960787981
 20
19014.49947383254
 30
0.0
 11
9994.46926478822
 21
19007.0977395347
 31
0.0
  0
LINE
  5
9E0
330
1F
100
AcDbEntity
  8
1
  6
Continuous
 62
     7
370
    13
100
AcDbLine
 10
9994.46926478822
 20
19007.0977395347
 30
0.0
 11
9985.21235329828
 21
19005.24634832894
 31
0.0
  0
LINE
  5
9E1
330
1F
100
AcDbEntity
  8
1
  6
Continuous
 62
     7
370
    13
100
AcDbLine
 10
9985.21235329828
 20
19005.24634832894
 30
0.0
 11
9983.361006633918
 21
19005.24634832894
 31
0.0
  0
LINE
  5
9E2
330
1F
100
AcDbEntity
  8
1
  6
Continuous
 62
     7
370
    13
100
AcDbLine
 10
9983.361006633918
 20
19005.24634832894
 30
0.0
 11
9974.107881129269
 21
19005.24634832894
 31
0.0
  0
LINE
  5
9E3
330
1F
100
AcDbEntity
  8
1
  6
Continuous
 62
     7
370
    13
100
AcDbLine
 10
9974.107881129269
 20
19005.24634832894
 30
0.0
 11
9964.850969640437
 21
19008.94913074094
 31
0.0
  0
LINE
  5
9E4
330
1F
100
AcDbEntity
  8
1
  6
Continuous
 62
     7
370
    13
100
AcDbLine
 10
9964.850969640437
 20
19008.94913074094
 30
0.0
 11
9955.597844137301
 21
19010.79673596135
 31
0.0
  0
LINE
  5
9E5
330
1F
100
AcDbEntity
  8
1
  6
Continuous
 62
     7
370
    13
100
AcDbLine
 10
9955.597844137301
 20
19010.79673596135
 30
0.0
 11
9946.34471863271
 21
19012.64812716761
 31
0.0
  0
LINE
  5
9E6
330
1F
100
AcDbEntity
  8
1
  6
Continuous
 62
     7
370
    13
100
AcDbLine
 10
9946.34471863271
 20
19012.64812716761
 30
0.0
 11
9942.64198076156
 21
19012.64812716761
 31
0.0
  0
LINE
  5
9E7
330
1F
100
AcDbEntity
  8
1
  6
Continuous
 62
     7
370
    13
100
AcDbLine
 10
9942.64198076156
 20
19012.64812716761
 30
0.0
 11
9933.385069273194
 21
19012.64812716761
 31
0.0
  0
LINE
  5
9E8
330
1F
100
AcDbEntity
  8
1
  6
Continuous
 62
     7
370
    13
100
AcDbLine
 10
9933.385069273194
 20
19012.64812716761
 30
0.0
 11
9924.131943768545
 21
19016.35086503879
 31
0.0
  0
LINE
  5
9E9
330
1F
100
AcDbEntity
  8
1
  6
Continuous
 62
     7
370
    13
100
AcDbLine
 10
9924.131943768545
 20
19016.35086503879
 30
0.0
 11
9898.216431034278
 21
19029.30672841354
 31
0.0
  0
LINE
  5
9EA
330
1F
100
AcDbEntity
  8
1
  6
Continuous
 62
     7
370
    13
100
AcDbLine
 10
9898.216431034278
 20
19029.30672841354
 30
0.0
 11
9888.963305529687
 21
19034.86085749096
 31
0.0
  0
LINE
  5
9EB
330
1F
100
AcDbEntity
  8
1
  6
Continuous
 62
     7
370
    13
100
AcDbLine
 10
9888.963305529687
 20
19034.86085749096
 30
0.0
 11
9881.561571231825
 21
19040.41498656786
 31
0.0
  0
LINE
  5
9EC
330
1F
100
AcDbEntity
  8
1
  6
Continuous
 62
     7
370
    13
100
AcDbLine
 10
9881.561571231825
 20
19040.41498656786
 30
0.0
 11
9877.858833360152
 21
19045.96537420079
 31
0.0
  0
LINE
  5
9ED
330
1F
100
AcDbEntity
  8
1
  6
Continuous
 62
     7
370
    13
100
AcDbLine
 10
9877.858833360152
 20
19045.96537420079
 30
0.0
 11
9872.304659742411
 21
19057.07363235461
 31
0.0
  0
LINE
  5
9EE
330
1F
100
AcDbEntity
  8
1
  6
Continuous
 62
     7
370
    13
100
AcDbLine
 10
9872.304659742411
 20
19057.07363235461
 30
0.0
 11
9870.453313077465
 21
19071.8808869356
 31
0.0
  0
LINE
  5
9EF
330
1F
100
AcDbEntity
  8
1
  6
Continuous
 62
     7
370
    13
100
AcDbLine
 10
9870.453313077465
 20
19071.8808869356
 30
0.0
 11
9872.304659742411
 21
19088.53953272235
 31
0.0
  0
LINE
  5
9F0
330
1F
100
AcDbEntity
  8
1
  6
Continuous
 62
     7
370
    13
100
AcDbLine
 10
9872.304659742411
 20
19088.53953272235
 30
0.0
 11
9876.007442153831
 21
19101.49539609761
 31
0.0
  0
LINE
  5
9F1
330
1F
100
AcDbEntity
  8
1
  6
Continuous
 62
     7
370
    13
100
AcDbLine
 10
9876.007442153831
 20
19101.49539609761
 30
0.0
 11
9883.40917645274
 21
19116.30265067915
 31
0.0
  0
LINE
  5
9F2
330
1F
100
AcDbEntity
  8
1
  6
Continuous
 62
     7
370
    13
100
AcDbLine
 10
9883.40917645274
 20
19116.30265067915
 30
0.0
 11
9887.111914323368
 21
19121.85682429687
 31
0.0
  0
LINE
  5
9F3
330
1F
100
AcDbEntity
  8
1
  6
Continuous
 62
     7
370
    13
100
AcDbLine
 10
9887.111914323368
 20
19121.85682429687
 30
0.0
 11
9892.666087941108
 21
19125.55577618273
 31
0.0
  0
LINE
  5
9F4
330
1F
100
AcDbEntity
  8
1
  6
Continuous
 62
     7
370
    13
100
AcDbLine
 10
9892.666087941108
 20
19125.55577618273
 30
0.0
 11
9903.770560110643
 21
19129.25855859523
 31
0.0
  0
LINE
  5
9F5
330
1F
100
AcDbEntity
  8
1
  6
Continuous
 62
     7
370
    13
100
AcDbLine
 10
9903.770560110643
 20
19129.25855859523
 30
0.0
 11
9913.027471599534
 21
19131.10990525964
 31
0.0
  0
LINE
  5
9F6
330
1F
100
AcDbEntity
  8
1
  6
Continuous
 62
     7
370
    13
100
AcDbLine
 10
9913.027471599534
 20
19131.10990525964
 30
0.0
 11
9920.429205897919
 21
19127.40716738898
 31
0.0
  0
LINE
  5
9F7
330
1F
100
AcDbEntity
  8
1
  6
Continuous
 62
     7
370
    13
100
AcDbLine
 10
9920.429205897919
 20
19127.40716738898
 30
0.0
 11
9987.063744504077
 21
19097.79265822644
 31
0.0
  0
LINE
  5
9F8
330
1F
100
AcDbEntity
  8
1
  6
Continuous
 62
     7
370
    13
100
AcDbLine
 10
9987.063744504077
 20
19097.79265822644
 30
0.0
 11
9998.168216673555
 21
19090.3909239286
 31
0.0
  0
ARC
  5
9F9
330
1F
100
AcDbEntity
  8
1
  6
Continuous
 62
     7
370
    13
100
AcDbCircle
 10
9389.514427229952
 20
18492.95220195752
 30
0.0
 40
142.114697109
100
AcDbArc
 50
34.70567999961311
 51
128.1572269999235
  0
ARC
  5
9FA
330
1F
100
AcDbEntity
  8
1
  6
Continuous
 62
     7
370
    13
100
AcDbCircle
 10
9389.514427229952
 20
18492.95220195752
 30
0.0
 40
273.989641023
100
AcDbArc
 50
51.96084000017817
 51
120.6506679993474
  0
ARC
  5
9FB
330
1F
100
AcDbEntity
  8
1
  6
Continuous
 62
     7
370
    13
100
AcDbCircle
 10
9389.514427229952
 20
18492.95220195752
 30
0.0
 40
457.390593639
100
AcDbArc
 50
44.39353600047687
 51
115.0835939998024
  0
ARC
  5
9FC
330
1F
100
AcDbEntity
  8
1
  6
Continuous
 62
     7
370
    13
100
AcDbCircle
 10
9389.514427229952
 20
18492.95220195752
 30
0.0
 40
643.200189912
100
AcDbArc
 50
76.410169999972
 51
109.4413839988659
  0
TEXT
  5
9FD
330
1F
100
AcDbEntity
  8
1
  6
Continuous
 62
     7
370
    13
100
AcDbText
 10
10551.95832578786
 20
18135.06526695712
 30
0.0
 40
133.623
  1
ＮＷ－ＭＬ１０
 41
0.694444
  7
KANJI
100
AcDbText
  0
LINE
  5
9FE
330
1F
100
AcDbEntity
  8
1
  6
Continuous
 62
     7
370
    13
100
AcDbLine
 10
8378.974454971277
 20
13560.14058881564
 30
0.0
 11
11942.25445497124
 21
13560.07845412094
 31
0.0
  0
LINE
  5
9FF
330
1F
100
AcDbEntity
  8
1
  6
Continuous
 62
     7
370
    13
100
AcDbLine
 10
11942.38812251111
 20
21221.1304095796
 30
0.0
 11
8379.108122511141
 21
21221.19258881565
 31
0.0
  0
LINE
  5
A00
330
1F
100
AcDbEntity
  8
1
  6
Continuous
 62
     7
370
    13
100
AcDbLine
 10
11942.25445497124
 20
13560.07845412094
 30
0.0
 11
11942.38812251111
 21
21221.1304095796
 31
0.0
  0
LINE
  5
A01
330
1F
100
AcDbEntity
  8
1
  6
Continuous
 62
     7
370
    13
100
AcDbLine
 10
8379.108122511141
 20
21221.19258881565
 30
0.0
 11
8378.974454971277
 21
13560.14058881564
 31
0.0
  0
LINE
  5
A02
330
1F
100
AcDbEntity
  8
1
  6
Continuous
 62
     7
370
    13
100
AcDbLine
 10
9492.472418583188
 20
12012.07412730784
 30
0.0
 11
10828.70241858316
 21
12012.05083236481
 31
0.0
  0
LINE
  5
A03
330
1F
100
AcDbEntity
  8
1
  6
Continuous
 62
     7
370
    13
100
AcDbLine
 10
9492.472240419433
 20
12001.18621348038
 30
0.0
 11
9490.272360428891
 21
13560.12112439925
 31
0.0
  0
LINE
  5
A04
330
1F
100
AcDbEntity
  8
1
  6
Continuous
 62
     7
370
    13
100
AcDbLine
 10
10830.9121421355
 20
13560.09774037354
 30
0.0
 11
10828.65787758371
 21
12001.16291853785
 31
0.0
  0
ARC
  5
A05
330
1F
100
AcDbEntity
  8
1
  6
Continuous
 62
     7
370
    13
100
AcDbCircle
 10
7911.274134225692
 20
12424.3532398185
 30
0.0
 40
423.1395
100
AcDbArc
 50
179.9990000001077
 51
269.9990009997899
  0
LINE
  5
A06
330
1F
100
AcDbEntity
  8
1
  6
Continuous
 62
     7
370
    13
100
AcDbLine
 10
7911.266784960709
 20
12001.2137398185
 30
0.0
 11
12409.90774041936
 21
12001.1353476584
 31
0.0
  0
ARC
  5
A07
330
1F
100
AcDbEntity
  8
1
  6
Continuous
 62
     7
370
    13
100
AcDbCircle
 10
12409.91513422566
 20
12424.2748476584
 30
0.0
 40
423.1395
100
AcDbArc
 50
269.9990009997899
 51
359.9990000001077
  0
LINE
  5
A08
330
1F
100
AcDbEntity
  8
1
  6
Continuous
 62
     7
370
    13
100
AcDbLine
 10
12833.05463422571
 20
12424.26745385263
 30
0.0
 11
12833.22638432176
 21
22267.82845385262
 31
0.0
  0
ARC
  5
A09
330
1F
100
AcDbEntity
  8
1
  6
Continuous
 62
     7
370
    13
100
AcDbCircle
 10
12410.08688432174
 20
22267.83584765839
 30
0.0
 40
423.1395
100
AcDbArc
 50
359.9990000001077
 51
89.99899999927398
  0
LINE
  5
A0A
330
1F
100
AcDbEntity
  8
1
  6
Continuous
 62
     7
370
    13
100
AcDbLine
 10
7488.306384321782
 20
22267.92172270645
 30
0.0
 11
7488.134634225701
 21
12424.36063362428
 31
0.0
  0
LINE
  5
A0B
330
1F
100
AcDbEntity
  8
1
  6
Continuous
 62
     7
370
    13
100
AcDbLine
 10
7911.453278128073
 20
22691.05382890066
 30
0.0
 11
12410.09427812807
 21
22690.9753476584
 31
0.0
  0
ARC
  5
A0C
330
1F
100
AcDbEntity
  8
1
  6
Continuous
 62
     7
370
    13
100
AcDbCircle
 10
7911.445884321773
 20
22267.91432890067
 30
0.0
 40
423.1395
100
AcDbArc
 50
89.99899999927398
 51
179.9990000001077
  0
LINE
  5
A0D
330
1F
100
AcDbEntity
  8
1
  6
Continuous
 62
     7
370
    13
100
AcDbLine
 10
11296.42033302447
 20
20858.07564959571
 30
0.0
 11
11029.17843079655
 21
20858.07564959571
 31
0.0
  0
LINE
  5
A0E
330
1F
100
AcDbEntity
  8
1
  6
Continuous
 62
     7
370
    13
100
AcDbLine
 10
11296.42033302447
 20
20724.45438669447
 30
0.0
 11
11296.42033302447
 21
20858.07564959571
 31
0.0
  0
LINE
  5
A0F
330
1F
100
AcDbEntity
  8
1
  6
Continuous
 62
     7
370
    13
100
AcDbLine
 10
11029.17843079655
 20
20724.45438669447
 30
0.0
 11
11296.42033302447
 21
20724.45438669447
 31
0.0
  0
LINE
  5
A10
330
1F
100
AcDbEntity
  8
1
  6
Continuous
 62
     7
370
    13
100
AcDbLine
 10
11029.17843079655
 20
20858.07564959571
 30
0.0
 11
11029.17843079655
 21
20724.45438669447
 31
0.0
  0
LINE
  5
A11
330
1F
100
AcDbEntity
  8
1
  6
Continuous
 62
     7
370
    13
100
AcDbLine
 10
9292.106021772269
 20
20858.07564959571
 30
0.0
 11
9024.864164085666
 21
20858.07564959571
 31
0.0
  0
LINE
  5
A12
330
1F
100
AcDbEntity
  8
1
  6
Continuous
 62
     7
370
    13
100
AcDbLine
 10
9292.106021772269
 20
20724.45438669447
 30
0.0
 11
9292.106021772269
 21
20858.07564959571
 31
0.0
  0
LINE
  5
A13
330
1F
100
AcDbEntity
  8
1
  6
Continuous
 62
     7
370
    13
100
AcDbLine
 10
9024.864164085666
 20
20724.45438669447
 30
0.0
 11
9292.106021772269
 21
20724.45438669447
 31
0.0
  0
LINE
  5
A14
330
1F
100
AcDbEntity
  8
1
  6
Continuous
 62
     7
370
    13
100
AcDbLine
 10
9024.864164085666
 20
20858.07564959571
 30
0.0
 11
9024.864164085666
 21
20724.45438669447
 31
0.0
  0
LINE
  5
A15
330
1F
100
AcDbEntity
  8
1
  6
Continuous
 62
     7
370
    13
100
AcDbLine
 10
10294.26319966821
 20
20858.07564959571
 30
0.0
 11
10027.02129744035
 21
20858.07564959571
 31
0.0
  0
LINE
  5
A16
330
1F
100
AcDbEntity
  8
1
  6
Continuous
 62
     7
370
    13
100
AcDbLine
 10
10294.26319966821
 20
20724.45438669447
 30
0.0
 11
10294.26319966821
 21
20858.07564959571
 31
0.0
  0
LINE
  5
A17
330
1F
100
AcDbEntity
  8
1
  6
Continuous
 62
     7
370
    13
100
AcDbLine
 10
10027.02129744035
 20
20724.45438669447
 30
0.0
 11
10294.26319966821
 21
20724.45438669447
 31
0.0
  0
LINE
  5
A18
330
1F
100
AcDbEntity
  8
1
  6
Continuous
 62
     7
370
    13
100
AcDbLine
 10
10027.02129744035
 20
20858.07564959571
 30
0.0
 11
10027.02129744035
 21
20724.45438669447
 31
0.0
  0
TEXT
  5
A19
330
1F
100
AcDbEntity
  8
1
  6
Continuous
 62
     7
370
    13
100
AcDbText
 10
9044.779380546605
 20
20524.72452531423
 30
0.0
 40
155.891094786
  1
電源
 41
0.7857140000000001
  7
KANJI
100
AcDbText
  0
TEXT
  5
A1A
330
1F
100
AcDbEntity
  8
1
  6
Continuous
 62
     7
370
    13
100
AcDbText
 10
10039.05578568945
 20
20524.94451331349
 30
0.0
 40
155.891094786
  1
解錠
 41
0.7857140000000001
  7
KANJI
100
AcDbText
  0
TEXT
  5
A1B
330
1F
100
AcDbEntity
  8
1
  6
Continuous
 62
     7
370
    13
100
AcDbText
 10
11048.82243710711
 20
20511.59980700867
 30
0.0
 40
155.891094786
  1
エラー
 41
0.690476
  7
KANJI
100
AcDbText
  0
LINE
  5
A1C
330
1F
100
AcDbEntity
  8
1
  6
Continuous
 62
     7
370
    13
100
AcDbLine
 10
16797.21512580306
 20
22657.36310558275
 30
0.0
 11
16797.21512580306
 21
22701.91470634058
 31
0.0
  0
ARC
  5
A1D
330
1F
100
AcDbEntity
  8
1
  6
Continuous
 62
     7
370
    13
100
AcDbCircle
 10
16421.08357363003
 20
22421.9147473188
 30
0.0
 40
267.246
100
AcDbArc
 50
91.91919500064697
 51
158.2519399998519
  0
ARC
  5
A1E
330
1F
100
AcDbEntity
  8
1
  6
Continuous
 62
     7
370
    13
100
AcDbCircle
 10
19068.80612580305
 20
21365.68448363544
 30
0.0
 40
3117.87
100
AcDbArc
 50
158.2519399998519
 51
180.0
  0
LINE
  5
A1F
330
1F
100
AcDbEntity
  8
1
  6
Continuous
 62
     7
370
    13
100
AcDbLine
 10
15950.93612580305
 20
21221.17356980849
 30
0.0
 11
15950.93612580305
 21
21365.68448363544
 31
0.0
  0
LINE
  5
A20
330
1F
100
AcDbEntity
  8
1
  6
Continuous
 62
     7
370
    13
100
AcDbLine
 10
15950.93612580305
 20
21232.06148363545
 30
0.0
 11
15950.93612580305
 21
13570.91131527167
 31
0.0
  0
LINE
  5
A21
330
1F
100
AcDbEntity
  8
1
  6
Continuous
 62
     7
370
    13
100
AcDbLine
 10
16412.13350508957
 20
22689.01082231248
 30
0.0
 11
16797.21512580306
 21
22701.91448363545
 31
0.0
  0
LINE
  5
A22
330
1F
100
AcDbEntity
  8
1
  6
Continuous
 62
     7
370
    13
100
AcDbLine
 10
15950.9552784337
 20
13348.31682149254
 30
0.0
 11
15950.95844084389
 21
13570.92343042361
 31
0.0
  0
ARC
  5
A23
330
1F
100
AcDbEntity
  8
1
  6
Continuous
 62
     7
370
    13
100
AcDbCircle
 10
19068.82527843369
 20
13348.27214687004
 30
0.0
 40
3117.87
100
AcDbArc
 50
179.9991789990887
 51
201.7353009994066
  0
LINE
  5
A24
330
1F
100
AcDbEntity
  8
1
  6
Continuous
 62
     7
370
    13
100
AcDbLine
 10
15950.93617034437
 20
13348.30470634059
 30
0.0
 11
15950.93617034437
 21
13570.91127073083
 31
0.0
  0
ARC
  5
A25
330
1F
100
AcDbEntity
  8
1
  6
Continuous
 62
     7
370
    13
100
AcDbCircle
 10
19068.80617034436
 20
13348.30470634059
 30
0.0
 40
3117.87
100
AcDbArc
 50
180.0
 51
201.7361219989737
  0
ARC
  5
A26
330
1F
100
AcDbEntity
  8
1
  6
Continuous
 62
     7
370
    13
100
AcDbCircle
 10
16420.86754978039
 20
12292.63151694452
 30
0.0
 40
267.246
100
AcDbArc
 50
201.7353009994066
 51
267.999174002343
  0
ARC
  5
A27
330
1F
100
AcDbEntity
  8
1
  6
Continuous
 62
     7
370
    13
100
AcDbCircle
 10
16420.86358563076
 20
12292.62612748345
 30
0.0
 40
267.246
100
AcDbArc
 50
201.7361219989737
 51
267.9999939996935
  0
LINE
  5
A28
330
1F
100
AcDbEntity
  8
1
  6
Continuous
 62
     7
370
    13
100
AcDbLine
 10
16411.53696747655
 20
12025.54844792284
 30
0.0
 11
16797.21512580306
 21
12012.07470634058
 31
0.0
  0
LINE
  5
A29
330
1F
100
AcDbEntity
  8
1
  6
Continuous
 62
     7
370
    13
100
AcDbLine
 10
16797.21512580306
 20
12012.07470634058
 30
0.0
 11
16411.53678931274
 21
12025.54292483879
 31
0.0
  0
LINE
  5
A2A
330
1F
100
AcDbEntity
  8
1
  6
Continuous
 62
     7
370
    13
100
AcDbLine
 10
17064.63773086878
 20
22701.89951785958
 30
0.0
 11
16797.40166351171
 21
22701.90419466492
 31
0.0
  0
LINE
  5
A2B
330
1F
100
AcDbEntity
  8
1
  6
Continuous
 62
     7
370
    13
100
AcDbLine
 10
17078.00951810194
 20
22678.73801969546
 30
0.0
 11
17064.63773086878
 21
22701.89951785958
 31
0.0
  0
LINE
  5
A2C
330
1F
100
AcDbEntity
  8
1
  6
Continuous
 62
     7
370
    13
100
AcDbLine
 10
17064.45119316117
 20
12012.07002953575
 30
0.0
 11
16797.21512580306
 21
12012.07470634058
 31
0.0
  0
LINE
  5
A2D
330
1F
100
AcDbEntity
  8
1
  6
Continuous
 62
     7
370
    13
100
AcDbLine
 10
17077.82382667304
 20
12035.23108228959
 30
0.0
 11
17064.45119316117
 21
12012.07002953575
 31
0.0
  0
LINE
  5
A2E
330
1F
100
AcDbEntity
  8
1
  6
Continuous
 62
     7
370
    13
100
AcDbLine
 10
16797.21512580306
 20
22657.36310558275
 30
0.0
 11
16797.21512580306
 21
12012.07470634058
 31
0.0
  0
LINE
  5
A2F
330
1F
100
AcDbEntity
  8
1
  6
Continuous
 62
     7
370
    13
100
AcDbLine
 10
17078.00951810194
 20
22678.73801969546
 30
0.0
 11
17077.8237821317
 21
12035.23117137174
 31
0.0
  0
LINE
  5
A30
330
1F
100
AcDbEntity
  8
1
  6
Continuous
 62
     7
370
    13
100
AcDbLine
 10
16797.21512580306
 20
12012.07470634058
 30
0.0
 11
16797.40166351171
 21
22701.90419466492
 31
0.0
  0
LINE
  5
A31
330
1F
100
AcDbEntity
  8
1
  6
Continuous
 62
     7
370
    13
100
AcDbLine
 10
16797.21530396737
 20
12023.30536316313
 30
0.0
 11
17070.9382334824
 21
12023.30536316313
 31
0.0
  0
LINE
  5
A32
330
1F
100
AcDbEntity
  8
1
  6
Continuous
 62
     7
370
    13
100
AcDbLine
 10
16797.21561575519
 20
12039.03893692056
 30
0.0
 11
17077.82387121331
 21
12039.03893692056
 31
0.0
  0
LINE
  5
A33
330
1F
100
AcDbEntity
  8
1
  6
Continuous
 62
     7
370
    13
100
AcDbLine
 10
16797.21588300062
 20
12054.7725106785
 30
0.0
 11
17077.82413846034
 21
12054.7725106785
 31
0.0
  0
LINE
  5
A34
330
1F
100
AcDbEntity
  8
1
  6
Continuous
 62
     7
370
    13
100
AcDbLine
 10
16797.21615024605
 20
12070.50608443647
 30
0.0
 11
17077.82440570525
 21
12070.50608443647
 31
0.0
  0
LINE
  5
A35
330
1F
100
AcDbEntity
  8
1
  6
Continuous
 62
     7
370
    13
100
AcDbLine
 10
16797.21641749255
 20
12086.23965819494
 30
0.0
 11
17077.82467295228
 21
12086.23965819494
 31
0.0
  0
LINE
  5
A36
330
1F
100
AcDbEntity
  8
1
  6
Continuous
 62
     7
370
    13
100
AcDbLine
 10
16797.21668473851
 20
12101.97323195288
 30
0.0
 11
17077.82498473902
 21
12101.97323195288
 31
0.0
  0
LINE
  5
A37
330
1F
100
AcDbEntity
  8
1
  6
Continuous
 62
     7
370
    13
100
AcDbLine
 10
16797.21695198501
 20
12117.70685025166
 30
0.0
 11
17077.82525198445
 21
12117.70685025166
 31
0.0
  0
LINE
  5
A38
330
1F
100
AcDbEntity
  8
1
  6
Continuous
 62
     7
370
    13
100
AcDbLine
 10
16797.21726377175
 20
12133.44042400963
 30
0.0
 11
17077.82551923148
 21
12133.44042400963
 31
0.0
  0
LINE
  5
A39
330
1F
100
AcDbEntity
  8
1
  6
Continuous
 62
     7
370
    13
100
AcDbLine
 10
16797.21753101718
 20
12149.17399776759
 30
0.0
 11
17077.82578647638
 21
12149.17399776759
 31
0.0
  0
LINE
  5
A3A
330
1F
100
AcDbEntity
  8
1
  6
Continuous
 62
     7
370
    13
100
AcDbLine
 10
16797.21779826369
 20
12164.90757152553
 30
0.0
 11
17077.82605372234
 21
12164.90757152553
 31
0.0
  0
LINE
  5
A3B
330
1F
100
AcDbEntity
  8
1
  6
Continuous
 62
     7
370
    13
100
AcDbLine
 10
16797.21806550964
 20
12180.64114528401
 30
0.0
 11
17077.82632096884
 21
12180.64114528401
 31
0.0
  0
LINE
  5
A3C
330
1F
100
AcDbEntity
  8
1
  6
Continuous
 62
     7
370
    13
100
AcDbLine
 10
16797.21833275615
 20
12196.37471904144
 30
0.0
 11
17077.82663275561
 21
12196.37471904144
 31
0.0
  0
LINE
  5
A3D
330
1F
100
AcDbEntity
  8
1
  6
Continuous
 62
     7
370
    13
100
AcDbLine
 10
16797.21860000157
 20
12212.10829279939
 30
0.0
 11
17077.82690000104
 21
12212.10829279939
 31
0.0
  0
LINE
  5
A3E
330
1F
100
AcDbEntity
  8
1
  6
Continuous
 62
     7
370
    13
100
AcDbLine
 10
16797.21891178835
 20
12227.84186655788
 30
0.0
 11
17077.82716724755
 21
12227.84186655788
 31
0.0
  0
LINE
  5
A3F
330
1F
100
AcDbEntity
  8
1
  6
Continuous
 62
     7
370
    13
100
AcDbLine
 10
16797.21917903485
 20
12243.57544031583
 30
0.0
 11
17077.8274344935
 21
12243.57544031583
 31
0.0
  0
LINE
  5
A40
330
1F
100
AcDbEntity
  8
1
  6
Continuous
 62
     7
370
    13
100
AcDbLine
 10
16797.21944628078
 20
12259.30901407377
 30
0.0
 11
17077.82770173995
 21
12259.30901407377
 31
0.0
  0
LINE
  5
A41
330
1F
100
AcDbEntity
  8
1
  6
Continuous
 62
     7
370
    13
100
AcDbLine
 10
16797.21971352725
 20
12275.0425878312
 30
0.0
 11
17077.82796898543
 21
12275.0425878312
 31
0.0
  0
LINE
  5
A42
330
1F
100
AcDbEntity
  8
1
  6
Continuous
 62
     7
370
    13
100
AcDbLine
 10
16797.21998077271
 20
12290.77616159019
 30
0.0
 11
17077.82828077221
 21
12290.77616159019
 31
0.0
  0
LINE
  5
A43
330
1F
100
AcDbEntity
  8
1
  6
Continuous
 62
     7
370
    13
100
AcDbLine
 10
16797.22024801817
 20
12306.50973534763
 30
0.0
 11
17077.82854801866
 21
12306.50973534763
 31
0.0
  0
LINE
  5
A44
330
1F
100
AcDbEntity
  8
1
  6
Continuous
 62
     7
370
    13
100
AcDbLine
 10
16797.22051526462
 20
12322.24330910558
 30
0.0
 11
17077.82881526464
 21
12322.24330910558
 31
0.0
  0
LINE
  5
A45
330
1F
100
AcDbEntity
  8
1
  6
Continuous
 62
     7
370
    13
100
AcDbLine
 10
16797.22082705194
 20
12337.97688286355
 30
0.0
 11
17077.82908251111
 21
12337.97688286355
 31
0.0
  0
LINE
  5
A46
330
1F
100
AcDbEntity
  8
1
  6
Continuous
 62
     7
370
    13
100
AcDbLine
 10
16797.22109429688
 20
12353.710456622
 30
0.0
 11
17077.82934975654
 21
12353.710456622
 31
0.0
  0
LINE
  5
A47
330
1F
100
AcDbEntity
  8
1
  6
Continuous
 62
     7
370
    13
100
AcDbLine
 10
16797.22136154385
 20
12369.44403037996
 30
0.0
 11
17077.82961700357
 21
12369.44403037996
 31
0.0
  0
LINE
  5
A48
330
1F
100
AcDbEntity
  8
1
  6
Continuous
 62
     7
370
    13
100
AcDbLine
 10
16797.2216287893
 20
12385.17760413739
 30
0.0
 11
17077.82992878979
 21
12385.17760413739
 31
0.0
  0
LINE
  5
A49
330
1F
100
AcDbEntity
  8
1
  6
Continuous
 62
     7
370
    13
100
AcDbLine
 10
16797.22189603578
 20
12400.91117789587
 30
0.0
 11
17077.83019603577
 21
12400.91117789587
 31
0.0
  0
LINE
  5
A4A
330
1F
100
AcDbEntity
  8
1
  6
Continuous
 62
     7
370
    13
100
AcDbLine
 10
16797.22216328176
 20
12416.64475165383
 30
0.0
 11
17077.83046328225
 21
12416.64475165383
 31
0.0
  0
LINE
  5
A4B
330
1F
100
AcDbEntity
  8
1
  6
Continuous
 62
     7
370
    13
100
AcDbLine
 10
16797.22247506804
 20
12432.3783254118
 30
0.0
 11
17077.83073052768
 21
12432.3783254118
 31
0.0
  0
LINE
  5
A4C
330
1F
100
AcDbEntity
  8
1
  6
Continuous
 62
     7
370
    13
100
AcDbLine
 10
16797.22274231498
 20
12448.11189916975
 30
0.0
 11
17077.83099777311
 21
12448.11189916975
 31
0.0
  0
LINE
  5
A4D
330
1F
100
AcDbEntity
  8
1
  6
Continuous
 62
     7
370
    13
100
AcDbLine
 10
16797.22300956041
 20
12463.84547292768
 30
0.0
 11
17077.83126501961
 21
12463.84547292768
 31
0.0
  0
LINE
  5
A4E
330
1F
100
AcDbEntity
  8
1
  6
Continuous
 62
     7
370
    13
100
AcDbLine
 10
16797.22327680692
 20
12479.57904668564
 30
0.0
 11
17077.83157680691
 21
12479.57904668564
 31
0.0
  0
LINE
  5
A4F
330
1F
100
AcDbEntity
  8
1
  6
Continuous
 62
     7
370
    13
100
AcDbLine
 10
16797.22354405287
 20
12495.31262044361
 30
0.0
 11
17077.83184405184
 21
12495.31262044361
 31
0.0
  0
LINE
  5
A50
330
1F
100
AcDbEntity
  8
1
  6
Continuous
 62
     7
370
    13
100
AcDbLine
 10
16797.22381129778
 20
12511.04619420155
 30
0.0
 11
17077.83211129885
 21
12511.04619420155
 31
0.0
  0
LINE
  5
A51
330
1F
100
AcDbEntity
  8
1
  6
Continuous
 62
     7
370
    13
100
AcDbLine
 10
16797.22412308615
 20
12526.77976796003
 30
0.0
 11
17077.83237854427
 21
12526.77976796003
 31
0.0
  0
LINE
  5
A52
330
1F
100
AcDbEntity
  8
1
  6
Continuous
 62
     7
370
    13
100
AcDbLine
 10
16797.22439033158
 20
12542.51334171748
 30
0.0
 11
17077.83264579078
 21
12542.51334171748
 31
0.0
  0
LINE
  5
A53
330
1F
100
AcDbEntity
  8
1
  6
Continuous
 62
     7
370
    13
100
AcDbLine
 10
16797.22465757704
 20
12558.24691547543
 30
0.0
 11
17077.83291303673
 21
12558.24691547543
 31
0.0
  0
LINE
  5
A54
330
1F
100
AcDbEntity
  8
1
  6
Continuous
 62
     7
370
    13
100
AcDbLine
 10
16797.22492482401
 20
12573.98048923336
 30
0.0
 11
17077.83318028324
 21
12573.98048923336
 31
0.0
  0
LINE
  5
A55
330
1F
100
AcDbEntity
  8
1
  6
Continuous
 62
     7
370
    13
100
AcDbLine
 10
16797.22519206897
 20
12589.71406299185
 30
0.0
 11
17077.83349206998
 21
12589.71406299185
 31
0.0
  0
LINE
  5
A56
330
1F
100
AcDbEntity
  8
1
  6
Continuous
 62
     7
370
    13
100
AcDbLine
 10
16797.22545931594
 20
12605.4476367498
 30
0.0
 11
17077.83375931541
 21
12605.4476367498
 31
0.0
  0
LINE
  5
A57
330
1F
100
AcDbEntity
  8
1
  6
Continuous
 62
     7
370
    13
100
AcDbLine
 10
16797.22577110271
 20
12621.18121050723
 30
0.0
 11
17077.83402656191
 21
12621.18121050723
 31
0.0
  0
LINE
  5
A58
330
1F
100
AcDbEntity
  8
1
  6
Continuous
 62
     7
370
    13
100
AcDbLine
 10
16797.22603834817
 20
12636.91478426622
 30
0.0
 11
17077.83429380787
 21
12636.91478426622
 31
0.0
  0
LINE
  5
A59
330
1F
100
AcDbEntity
  8
1
  6
Continuous
 62
     7
370
    13
100
AcDbLine
 10
16797.22630559517
 20
12652.64835802365
 30
0.0
 11
17077.8345610528
 21
12652.64835802365
 31
0.0
  0
LINE
  5
A5A
330
1F
100
AcDbEntity
  8
1
  6
Continuous
 62
     7
370
    13
100
AcDbLine
 10
16797.22657284011
 20
12668.3819317816
 30
0.0
 11
17077.8348282998
 21
12668.3819317816
 31
0.0
  0
LINE
  5
A5B
330
1F
100
AcDbEntity
  8
1
  6
Continuous
 62
     7
370
    13
100
AcDbLine
 10
16797.22684008711
 20
12684.11550553956
 30
0.0
 11
17077.83514008661
 21
12684.11550553956
 31
0.0
  0
LINE
  5
A5C
330
1F
100
AcDbEntity
  8
1
  6
Continuous
 62
     7
370
    13
100
AcDbLine
 10
16797.22710733253
 20
12699.84907929804
 30
0.0
 11
17077.83540733203
 21
12699.84907929804
 31
0.0
  0
LINE
  5
A5D
330
1F
100
AcDbEntity
  8
1
  6
Continuous
 62
     7
370
    13
100
AcDbLine
 10
16797.22741911934
 20
12715.58265305598
 30
0.0
 11
17077.835674579
 21
12715.58265305598
 31
0.0
  0
LINE
  5
A5E
330
1F
100
AcDbEntity
  8
1
  6
Continuous
 62
     7
370
    13
100
AcDbLine
 10
16797.22768636631
 20
12731.31622681343
 30
0.0
 11
17077.83594182397
 21
12731.31622681343
 31
0.0
  0
LINE
  5
A5F
330
1F
100
AcDbEntity
  8
1
  6
Continuous
 62
     7
370
    13
100
AcDbLine
 10
16797.22795361127
 20
12747.0498005714
 30
0.0
 11
17077.83620907091
 21
12747.0498005714
 31
0.0
  0
LINE
  5
A60
330
1F
100
AcDbEntity
  8
1
  6
Continuous
 62
     7
370
    13
100
AcDbLine
 10
16797.22822085821
 20
12762.78337432985
 30
0.0
 11
17077.83647631639
 21
12762.78337432985
 31
0.0
  0
LINE
  5
A61
330
1F
100
AcDbEntity
  8
1
  6
Continuous
 62
     7
370
    13
100
AcDbLine
 10
16797.22848810367
 20
12778.51694808781
 30
0.0
 11
17077.83678810317
 21
12778.51694808781
 31
0.0
  0
LINE
  5
A62
330
1F
100
AcDbEntity
  8
1
  6
Continuous
 62
     7
370
    13
100
AcDbLine
 10
16797.22875534913
 20
12794.25052184578
 30
0.0
 11
17077.83705535017
 21
12794.25052184578
 31
0.0
  0
LINE
  5
A63
330
1F
100
AcDbEntity
  8
1
  6
Continuous
 62
     7
370
    13
100
AcDbLine
 10
16797.22906713748
 20
12809.98409560372
 30
0.0
 11
17077.8373225951
 21
12809.98409560372
 31
0.0
  0
LINE
  5
A64
330
1F
100
AcDbEntity
  8
1
  6
Continuous
 62
     7
370
    13
100
AcDbLine
 10
16797.22933438241
 20
12825.71766936166
 30
0.0
 11
17077.83758984207
 21
12825.71766936166
 31
0.0
  0
LINE
  5
A65
330
1F
100
AcDbEntity
  8
1
  6
Continuous
 62
     7
370
    13
100
AcDbLine
 10
16797.22960162836
 20
12841.45124311963
 30
0.0
 11
17077.8378570875
 21
12841.45124311963
 31
0.0
  0
LINE
  5
A66
330
1F
100
AcDbEntity
  8
1
  6
Continuous
 62
     7
370
    13
100
AcDbLine
 10
16797.22986887481
 20
12857.18481687757
 30
0.0
 11
17077.83812433401
 21
12857.18481687757
 31
0.0
  0
LINE
  5
A67
330
1F
100
AcDbEntity
  8
1
  6
Continuous
 62
     7
370
    13
100
AcDbLine
 10
16797.23013612029
 20
12872.91839063605
 30
0.0
 11
17077.83843612128
 21
12872.91839063605
 31
0.0
  0
LINE
  5
A68
330
1F
100
AcDbEntity
  8
1
  6
Continuous
 62
     7
370
    13
100
AcDbLine
 10
16797.23040336724
 20
12888.65196439348
 30
0.0
 11
17077.83870336624
 21
12888.65196439348
 31
0.0
  0
LINE
  5
A69
330
1F
100
AcDbEntity
  8
1
  6
Continuous
 62
     7
370
    13
100
AcDbLine
 10
16797.23071515352
 20
12904.38553815144
 30
0.0
 11
17077.83897061321
 21
12904.38553815144
 31
0.0
  0
LINE
  5
A6A
330
1F
100
AcDbEntity
  8
1
  6
Continuous
 62
     7
370
    13
100
AcDbLine
 10
16797.2309823995
 20
12920.1191119094
 30
0.0
 11
17077.83923785864
 21
12920.1191119094
 31
0.0
  0
LINE
  5
A6B
330
1F
100
AcDbEntity
  8
1
  6
Continuous
 62
     7
370
    13
100
AcDbLine
 10
16797.23124964595
 20
12935.85268566788
 30
0.0
 11
17077.8395051041
 21
12935.85268566788
 31
0.0
  0
LINE
  5
A6C
330
1F
100
AcDbEntity
  8
1
  6
Continuous
 62
     7
370
    13
100
AcDbLine
 10
16797.2315168914
 20
12951.58625942582
 30
0.0
 11
17077.8397723511
 21
12951.58625942582
 31
0.0
  0
LINE
  5
A6D
330
1F
100
AcDbEntity
  8
1
  6
Continuous
 62
     7
370
    13
100
AcDbLine
 10
16797.2317841384
 20
12967.31983318325
 30
0.0
 11
17077.84008413738
 21
12967.31983318325
 31
0.0
  0
LINE
  5
A6E
330
1F
100
AcDbEntity
  8
1
  6
Continuous
 62
     7
370
    13
100
AcDbLine
 10
16797.23205138334
 20
12983.05340694224
 30
0.0
 11
17077.84035138336
 21
12983.05340694224
 31
0.0
  0
LINE
  5
A6F
330
1F
100
AcDbEntity
  8
1
  6
Continuous
 62
     7
370
    13
100
AcDbLine
 10
16797.23236317066
 20
12998.78698069969
 30
0.0
 11
17077.8406186298
 21
12998.78698069969
 31
0.0
  0
LINE
  5
A70
330
1F
100
AcDbEntity
  8
1
  6
Continuous
 62
     7
370
    13
100
AcDbLine
 10
16797.23263041708
 20
13014.52055445763
 30
0.0
 11
17077.84088587526
 21
13014.52055445763
 31
0.0
  0
LINE
  5
A71
330
1F
100
AcDbEntity
  8
1
  6
Continuous
 62
     7
370
    13
100
AcDbLine
 10
16797.23289766257
 20
13030.25412821558
 30
0.0
 11
17077.84115312223
 21
13030.25412821558
 31
0.0
  0
LINE
  5
A72
330
1F
100
AcDbEntity
  8
1
  6
Continuous
 62
     7
370
    13
100
AcDbLine
 10
16797.23316490954
 20
13045.98770197406
 30
0.0
 11
17077.8414203672
 21
13045.98770197406
 31
0.0
  0
LINE
  5
A73
330
1F
100
AcDbEntity
  8
1
  6
Continuous
 62
     7
370
    13
100
AcDbLine
 10
16797.2334321545
 20
13061.72127573202
 30
0.0
 11
17077.84173215447
 21
13061.72127573202
 31
0.0
  0
LINE
  5
A74
330
1F
100
AcDbEntity
  8
1
  6
Continuous
 62
     7
370
    13
100
AcDbLine
 10
16797.23369940045
 20
13077.45484948945
 30
0.0
 11
17077.84199940097
 21
13077.45484948945
 31
0.0
  0
LINE
  5
A75
330
1F
100
AcDbEntity
  8
1
  6
Continuous
 62
     7
370
    13
100
AcDbLine
 10
16797.23401118828
 20
13093.18842324741
 30
0.0
 11
17077.8422666464
 21
13093.18842324741
 31
0.0
  0
LINE
  5
A76
330
1F
100
AcDbEntity
  8
1
  6
Continuous
 62
     7
370
    13
100
AcDbLine
 10
16797.23427843371
 20
13108.92199700587
 30
0.0
 11
17077.8425338934
 21
13108.92199700587
 31
0.0
  0
LINE
  5
A77
330
1F
100
AcDbEntity
  8
1
  6
Continuous
 62
     7
370
    13
100
AcDbLine
 10
16797.23454567913
 20
13124.65557076383
 30
0.0
 11
17077.84280113833
 21
13124.65557076383
 31
0.0
  0
LINE
  5
A78
330
1F
100
AcDbEntity
  8
1
  6
Continuous
 62
     7
370
    13
100
AcDbLine
 10
16797.23481292564
 20
13140.38914452177
 30
0.0
 11
17077.84306838429
 21
13140.38914452177
 31
0.0
  0
LINE
  5
A79
330
1F
100
AcDbEntity
  8
1
  6
Continuous
 62
     7
370
    13
100
AcDbLine
 10
16797.23508017159
 20
13156.12276282056
 30
0.0
 11
17077.84338017214
 21
13156.12276282056
 31
0.0
  0
LINE
  5
A7A
330
1F
100
AcDbEntity
  8
1
  6
Continuous
 62
     7
370
    13
100
AcDbLine
 10
16797.23534741807
 20
13171.85633657852
 30
0.0
 11
17077.84364741756
 21
13171.85633657852
 31
0.0
  0
LINE
  5
A7B
330
1F
100
AcDbEntity
  8
1
  6
Continuous
 62
     7
370
    13
100
AcDbLine
 10
16797.23565920484
 20
13187.58991033698
 30
0.0
 11
17077.84391466454
 21
13187.58991033698
 31
0.0
  0
LINE
  5
A7C
330
1F
100
AcDbEntity
  8
1
  6
Continuous
 62
     7
370
    13
100
AcDbLine
 10
16797.2359264503
 20
13203.32348409494
 30
0.0
 11
17077.8441819095
 21
13203.32348409494
 31
0.0
  0
LINE
  5
A7D
330
1F
100
AcDbEntity
  8
1
  6
Continuous
 62
     7
370
    13
100
AcDbLine
 10
16797.23619369678
 20
13219.0570578529
 30
0.0
 11
17077.84444915545
 21
13219.0570578529
 31
0.0
  0
LINE
  5
A7E
330
1F
100
AcDbEntity
  8
1
  6
Continuous
 62
     7
370
    13
100
AcDbLine
 10
16797.23646094273
 20
13234.79063161033
 30
0.0
 11
17077.84471640187
 21
13234.79063161033
 31
0.0
  0
LINE
  5
A7F
330
1F
100
AcDbEntity
  8
1
  6
Continuous
 62
     7
370
    13
100
AcDbLine
 10
16797.23672818917
 20
13250.52420536878
 30
0.0
 11
17077.8450281887
 21
13250.52420536878
 31
0.0
  0
LINE
  5
A80
330
1F
100
AcDbEntity
  8
1
  6
Continuous
 62
     7
370
    13
100
AcDbLine
 10
16797.23699543466
 20
13266.25777912675
 30
0.0
 11
17077.84529543413
 21
13266.25777912675
 31
0.0
  0
LINE
  5
A81
330
1F
100
AcDbEntity
  8
1
  6
Continuous
 62
     7
370
    13
100
AcDbLine
 10
16797.23726268009
 20
13281.99135288471
 30
0.0
 11
17077.84556268061
 21
13281.99135288471
 31
0.0
  0
LINE
  5
A82
330
1F
100
AcDbEntity
  8
1
  6
Continuous
 62
     7
370
    13
100
AcDbLine
 10
16797.23757446791
 20
13297.72492664266
 30
0.0
 11
17077.84582992659
 21
13297.72492664266
 31
0.0
  0
LINE
  5
A83
330
1F
100
AcDbEntity
  8
1
  6
Continuous
 62
     7
370
    13
100
AcDbLine
 10
16797.23784171389
 20
13313.45850040062
 30
0.0
 11
17077.84609717303
 21
13313.45850040062
 31
0.0
  0
LINE
  5
A84
330
1F
100
AcDbEntity
  8
1
  6
Continuous
 62
     7
370
    13
100
AcDbLine
 10
16797.2381089588
 20
13329.19207415857
 30
0.0
 11
17077.84636441849
 21
13329.19207415857
 31
0.0
  0
LINE
  5
A85
330
1F
100
AcDbEntity
  8
1
  6
Continuous
 62
     7
370
    13
100
AcDbLine
 10
16797.2383762058
 20
13344.92564791653
 30
0.0
 11
17077.84667620529
 21
13344.92564791653
 31
0.0
  0
LINE
  5
A86
330
1F
100
AcDbEntity
  8
1
  6
Continuous
 62
     7
370
    13
100
AcDbLine
 10
16797.23864345126
 20
13360.65922167499
 30
0.0
 11
17077.84694345174
 21
13360.65922167499
 31
0.0
  0
LINE
  5
A87
330
1F
100
AcDbEntity
  8
1
  6
Continuous
 62
     7
370
    13
100
AcDbLine
 10
16797.23891069773
 20
13376.39279543295
 30
0.0
 11
17077.84721069772
 21
13376.39279543295
 31
0.0
  0
LINE
  5
A88
330
1F
100
AcDbEntity
  8
1
  6
Continuous
 62
     7
370
    13
100
AcDbLine
 10
16797.23922248503
 20
13392.12636919038
 30
0.0
 11
17077.84747794417
 21
13392.12636919038
 31
0.0
  0
LINE
  5
A89
330
1F
100
AcDbEntity
  8
1
  6
Continuous
 62
     7
370
    13
100
AcDbLine
 10
16797.23948972993
 20
13407.85994294834
 30
0.0
 11
17077.84774518963
 21
13407.85994294834
 31
0.0
  0
LINE
  5
A8A
330
1F
100
AcDbEntity
  8
1
  6
Continuous
 62
     7
370
    13
100
AcDbLine
 10
16797.23975697693
 20
13423.59351670682
 30
0.0
 11
17077.84801243506
 21
13423.59351670682
 31
0.0
  0
LINE
  5
A8B
330
1F
100
AcDbEntity
  8
1
  6
Continuous
 62
     7
370
    13
100
AcDbLine
 10
16797.24002422236
 20
13439.32709046476
 30
0.0
 11
17077.84832422291
 21
13439.32709046476
 31
0.0
  0
LINE
  5
A8C
330
1F
100
AcDbEntity
  8
1
  6
Continuous
 62
     7
370
    13
100
AcDbLine
 10
16797.24029146887
 20
13455.0606642227
 30
0.0
 11
17077.84859146886
 21
13455.0606642227
 31
0.0
  0
LINE
  5
A8D
330
1F
100
AcDbEntity
  8
1
  6
Continuous
 62
     7
370
    13
100
AcDbLine
 10
16797.24055871482
 20
13470.79423798015
 30
0.0
 11
17077.84885871376
 21
13470.79423798015
 31
0.0
  0
LINE
  5
A8E
330
1F
100
AcDbEntity
  8
1
  6
Continuous
 62
     7
370
    13
100
AcDbLine
 10
16797.24087050107
 20
13486.52781173915
 30
0.0
 11
17077.84912596079
 21
13486.52781173915
 31
0.0
  0
LINE
  5
A8F
330
1F
100
AcDbEntity
  8
1
  6
Continuous
 62
     7
370
    13
100
AcDbLine
 10
16797.24113774807
 20
13502.26138549659
 30
0.0
 11
17077.84939320622
 21
13502.26138549659
 31
0.0
  0
LINE
  5
A90
330
1F
100
AcDbEntity
  8
1
  6
Continuous
 62
     7
370
    13
100
AcDbLine
 10
16797.24140499353
 20
13517.99495925454
 30
0.0
 11
17077.84966045273
 21
13517.99495925454
 31
0.0
  0
LINE
  5
A91
330
1F
100
AcDbEntity
  8
1
  6
Continuous
 62
     7
370
    13
100
AcDbLine
 10
16797.24167224
 20
13533.72853301301
 30
0.0
 11
17077.84992769868
 21
13533.72853301301
 31
0.0
  0
LINE
  5
A92
330
1F
100
AcDbEntity
  8
1
  6
Continuous
 62
     7
370
    13
100
AcDbLine
 10
16797.24193948596
 20
13549.46210677095
 30
0.0
 11
17077.8502394849
 21
13549.46210677095
 31
0.0
  0
LINE
  5
A93
330
1F
100
AcDbEntity
  8
1
  6
Continuous
 62
     7
370
    13
100
AcDbLine
 10
16797.24220673089
 20
13565.19568052892
 30
0.0
 11
17077.85050673193
 21
13565.19568052892
 31
0.0
  0
LINE
  5
A94
330
1F
100
AcDbEntity
  8
1
  6
Continuous
 62
     7
370
    13
100
AcDbLine
 10
16797.24251851924
 20
13580.92925428635
 30
0.0
 11
17077.85077397736
 21
13580.92925428635
 31
0.0
  0
LINE
  5
A95
330
1F
100
AcDbEntity
  8
1
  6
Continuous
 62
     7
370
    13
100
AcDbLine
 10
16797.24278576467
 20
13596.66282804482
 30
0.0
 11
17077.85104122386
 21
13596.66282804482
 31
0.0
  0
LINE
  5
A96
330
1F
100
AcDbEntity
  8
1
  6
Continuous
 62
     7
370
    13
100
AcDbLine
 10
16797.24305301009
 20
13612.39640180279
 30
0.0
 11
17077.85130846982
 21
13612.39640180279
 31
0.0
  0
LINE
  5
A97
330
1F
100
AcDbEntity
  8
1
  6
Continuous
 62
     7
370
    13
100
AcDbLine
 10
16797.24332025712
 20
13628.12997556073
 30
0.0
 11
17077.85157571626
 21
13628.12997556073
 31
0.0
  0
LINE
  5
A98
330
1F
100
AcDbEntity
  8
1
  6
Continuous
 62
     7
370
    13
100
AcDbLine
 10
16797.24358750203
 20
13643.86354931868
 30
0.0
 11
17077.85188750307
 21
13643.86354931868
 31
0.0
  0
LINE
  5
A99
330
1F
100
AcDbEntity
  8
1
  6
Continuous
 62
     7
370
    13
100
AcDbLine
 10
16797.24385474905
 20
13659.59712307662
 30
0.0
 11
17077.85215474852
 21
13659.59712307662
 31
0.0
  0
LINE
  5
A9A
330
1F
100
AcDbEntity
  8
1
  6
Continuous
 62
     7
370
    13
100
AcDbLine
 10
16797.2441665358
 20
13675.3306968346
 30
0.0
 11
17077.85242199497
 21
13675.3306968346
 31
0.0
  0
LINE
  5
A9B
330
1F
100
AcDbEntity
  8
1
  6
Continuous
 62
     7
370
    13
100
AcDbLine
 10
16797.24443378123
 20
13691.06427059255
 30
0.0
 11
17077.85268924095
 21
13691.06427059255
 31
0.0
  0
LINE
  5
A9C
330
1F
100
AcDbEntity
  8
1
  6
Continuous
 62
     7
370
    13
100
AcDbLine
 10
16797.24470102826
 20
13706.79784435049
 30
0.0
 11
17077.85295648589
 21
13706.79784435049
 31
0.0
  0
LINE
  5
A9D
330
1F
100
AcDbEntity
  8
1
  6
Continuous
 62
     7
370
    13
100
AcDbLine
 10
16797.24496827316
 20
13722.53141810897
 30
0.0
 11
17077.85322373286
 21
13722.53141810897
 31
0.0
  0
LINE
  5
A9E
330
1F
100
AcDbEntity
  8
1
  6
Continuous
 62
     7
370
    13
100
AcDbLine
 10
16797.24523552016
 20
13738.26499186641
 30
0.0
 11
17077.85353551966
 21
13738.26499186641
 31
0.0
  0
LINE
  5
A9F
330
1F
100
AcDbEntity
  8
1
  6
Continuous
 62
     7
370
    13
100
AcDbLine
 10
16797.24550276562
 20
13753.99856562436
 30
0.0
 11
17077.85380276509
 21
13753.99856562436
 31
0.0
  0
LINE
  5
AA0
330
1F
100
AcDbEntity
  8
1
  6
Continuous
 62
     7
370
    13
100
AcDbLine
 10
16797.24581455239
 20
13769.73213938284
 30
0.0
 11
17077.85407001212
 21
13769.73213938284
 31
0.0
  0
LINE
  5
AA1
330
1F
100
AcDbEntity
  8
1
  6
Continuous
 62
     7
370
    13
100
AcDbLine
 10
16797.24608179943
 20
13785.4657131408
 30
0.0
 11
17077.85433725702
 21
13785.4657131408
 31
0.0
  0
LINE
  5
AA2
330
1F
100
AcDbEntity
  8
1
  6
Continuous
 62
     7
370
    13
100
AcDbLine
 10
16797.24634904433
 20
13801.19928689874
 30
0.0
 11
17077.85460450402
 21
13801.19928689874
 31
0.0
  0
LINE
  5
AA3
330
1F
100
AcDbEntity
  8
1
  6
Continuous
 62
     7
370
    13
100
AcDbLine
 10
16797.2466162913
 20
13816.93286065617
 30
0.0
 11
17077.85487174945
 21
13816.93286065617
 31
0.0
  0
LINE
  5
AA4
330
1F
100
AcDbEntity
  8
1
  6
Continuous
 62
     7
370
    13
100
AcDbLine
 10
16797.24688353676
 20
13832.66643441516
 30
0.0
 11
17077.85518353623
 21
13832.66643441516
 31
0.0
  0
LINE
  5
AA5
330
1F
100
AcDbEntity
  8
1
  6
Continuous
 62
     7
370
    13
100
AcDbLine
 10
16797.24715078221
 20
13848.40000817259
 30
0.0
 11
17077.85545078323
 21
13848.40000817259
 31
0.0
  0
LINE
  5
AA6
330
1F
100
AcDbEntity
  8
1
  6
Continuous
 62
     7
370
    13
100
AcDbLine
 10
16797.24746257053
 20
13864.13358193055
 30
0.0
 11
17077.85571802813
 21
13864.13358193055
 31
0.0
  0
LINE
  5
AA7
330
1F
100
AcDbEntity
  8
1
  6
Continuous
 62
     7
370
    13
100
AcDbLine
 10
16797.24772981544
 20
13879.86715568852
 30
0.0
 11
17077.85598527516
 21
13879.86715568852
 31
0.0
  0
LINE
  5
AA8
330
1F
100
AcDbEntity
  8
1
  6
Continuous
 62
     7
370
    13
100
AcDbLine
 10
16797.24799706142
 20
13895.60072944697
 30
0.0
 11
17077.85625252059
 21
13895.60072944697
 31
0.0
  0
LINE
  5
AA9
330
1F
100
AcDbEntity
  8
1
  6
Continuous
 62
     7
370
    13
100
AcDbLine
 10
16797.24826430789
 20
13911.33430320493
 30
0.0
 11
17077.85651976602
 21
13911.33430320493
 31
0.0
  0
LINE
  5
AAA
330
1F
100
AcDbEntity
  8
1
  6
Continuous
 62
     7
370
    13
100
AcDbLine
 10
16797.24853155332
 20
13927.06787696236
 30
0.0
 11
17077.85683155436
 21
13927.06787696236
 31
0.0
  0
LINE
  5
AAB
330
1F
100
AcDbEntity
  8
1
  6
Continuous
 62
     7
370
    13
100
AcDbLine
 10
16797.24879880035
 20
13942.80145072084
 30
0.0
 11
17077.8570987993
 21
13942.80145072084
 31
0.0
  0
LINE
  5
AAC
330
1F
100
AcDbEntity
  8
1
  6
Continuous
 62
     7
370
    13
100
AcDbLine
 10
16797.2491105866
 20
13958.53502447879
 30
0.0
 11
17077.8573660463
 21
13958.53502447879
 31
0.0
  0
LINE
  5
AAD
330
1F
100
AcDbEntity
  8
1
  6
Continuous
 62
     7
370
    13
100
AcDbLine
 10
16797.24937783258
 20
13974.26859823676
 30
0.0
 11
17077.85763329176
 21
13974.26859823676
 31
0.0
  0
LINE
  5
AAE
330
1F
100
AcDbEntity
  8
1
  6
Continuous
 62
     7
370
    13
100
AcDbLine
 10
16797.24964507903
 20
13990.00217199472
 30
0.0
 11
17077.85790053718
 21
13990.00217199472
 31
0.0
  0
LINE
  5
AAF
330
1F
100
AcDbEntity
  8
1
  6
Continuous
 62
     7
370
    13
100
AcDbLine
 10
16797.24991232446
 20
14005.73574575265
 30
0.0
 11
17077.85816778418
 21
14005.73574575265
 31
0.0
  0
LINE
  5
AB0
330
1F
100
AcDbEntity
  8
1
  6
Continuous
 62
     7
370
    13
100
AcDbLine
 10
16797.25017957149
 20
14021.4693195106
 30
0.0
 11
17077.85847957043
 21
14021.4693195106
 31
0.0
  0
LINE
  5
AB1
330
1F
100
AcDbEntity
  8
1
  6
Continuous
 62
     7
370
    13
100
AcDbLine
 10
16797.25044681639
 20
14037.20289326857
 30
0.0
 11
17077.85874681639
 21
14037.20289326857
 31
0.0
  0
LINE
  5
AB2
330
1F
100
AcDbEntity
  8
1
  6
Continuous
 62
     7
370
    13
100
AcDbLine
 10
16797.25075860369
 20
14052.93646702651
 30
0.0
 11
17077.85901406289
 21
14052.93646702651
 31
0.0
  0
LINE
  5
AB3
330
1F
100
AcDbEntity
  8
1
  6
Continuous
 62
     7
370
    13
100
AcDbLine
 10
16797.2510258502
 20
14068.670040785
 30
0.0
 11
17077.85928130832
 21
14068.670040785
 31
0.0
  0
LINE
  5
AB4
330
1F
100
AcDbEntity
  8
1
  6
Continuous
 62
     7
370
    13
100
AcDbLine
 10
16797.25129309562
 20
14084.40361454244
 30
0.0
 11
17077.85954855535
 21
14084.40361454244
 31
0.0
  0
LINE
  5
AB5
330
1F
100
AcDbEntity
  8
1
  6
Continuous
 62
     7
370
    13
100
AcDbLine
 10
16797.25156034105
 20
14100.1371883004
 30
0.0
 11
17077.85981580025
 21
14100.1371883004
 31
0.0
  0
LINE
  5
AB6
330
1F
100
AcDbEntity
  8
1
  6
Continuous
 62
     7
370
    13
100
AcDbLine
 10
16797.25182758756
 20
14115.87076205885
 30
0.0
 11
17077.86012758752
 21
14115.87076205885
 31
0.0
  0
LINE
  5
AB7
330
1F
100
AcDbEntity
  8
1
  6
Continuous
 62
     7
370
    13
100
AcDbLine
 10
16797.25209483351
 20
14131.60433581682
 30
0.0
 11
17077.86039483403
 21
14131.60433581682
 31
0.0
  0
LINE
  5
AB8
330
1F
100
AcDbEntity
  8
1
  6
Continuous
 62
     7
370
    13
100
AcDbLine
 10
16797.25236208002
 20
14147.33790957476
 30
0.0
 11
17077.86066207946
 21
14147.33790957476
 31
0.0
  0
LINE
  5
AB9
330
1F
100
AcDbEntity
  8
1
  6
Continuous
 62
     7
370
    13
100
AcDbLine
 10
16797.25267386676
 20
14163.07148333219
 30
0.0
 11
17077.86092932648
 21
14163.07148333219
 31
0.0
  0
LINE
  5
ABA
330
1F
100
AcDbEntity
  8
1
  6
Continuous
 62
     7
370
    13
100
AcDbLine
 10
16797.25294111219
 20
14178.80505709118
 30
0.0
 11
17077.86119657139
 21
14178.80505709118
 31
0.0
  0
LINE
  5
ABB
330
1F
100
AcDbEntity
  8
1
  6
Continuous
 62
     7
370
    13
100
AcDbLine
 10
16797.2532083587
 20
14194.53867538945
 30
0.0
 11
17077.86146381734
 21
14194.53867538945
 31
0.0
  0
LINE
  5
ABC
330
1F
100
AcDbEntity
  8
1
  6
Continuous
 62
     7
370
    13
100
AcDbLine
 10
16797.25347560465
 20
14210.27224914792
 30
0.0
 11
17077.86177560516
 21
14210.27224914792
 31
0.0
  0
LINE
  5
ABD
330
1F
100
AcDbEntity
  8
1
  6
Continuous
 62
     7
370
    13
100
AcDbLine
 10
16797.25374285112
 20
14226.00582290586
 30
0.0
 11
17077.86204285062
 21
14226.00582290586
 31
0.0
  0
LINE
  5
ABE
330
1F
100
AcDbEntity
  8
1
  6
Continuous
 62
     7
370
    13
100
AcDbLine
 10
16797.25401009658
 20
14241.73939666331
 30
0.0
 11
17077.86231009605
 21
14241.73939666331
 31
0.0
  0
LINE
  5
ABF
330
1F
100
AcDbEntity
  8
1
  6
Continuous
 62
     7
370
    13
100
AcDbLine
 10
16797.25432188336
 20
14257.47297042128
 30
0.0
 11
17077.86257734253
 21
14257.47297042128
 31
0.0
  0
LINE
  5
AC0
330
1F
100
AcDbEntity
  8
1
  6
Continuous
 62
     7
370
    13
100
AcDbLine
 10
16797.25458912983
 20
14273.20654417973
 30
0.0
 11
17077.86284458851
 21
14273.20654417973
 31
0.0
  0
LINE
  5
AC1
330
1F
100
AcDbEntity
  8
1
  6
Continuous
 62
     7
370
    13
100
AcDbLine
 10
16797.25485637581
 20
14288.9401179377
 30
0.0
 11
17077.86311183498
 21
14288.9401179377
 31
0.0
  0
LINE
  5
AC2
330
1F
100
AcDbEntity
  8
1
  6
Continuous
 62
     7
370
    13
100
AcDbLine
 10
16797.25512362226
 20
14304.67369169566
 30
0.0
 11
17077.86342362173
 21
14304.67369169566
 31
0.0
  0
LINE
  5
AC3
330
1F
100
AcDbEntity
  8
1
  6
Continuous
 62
     7
370
    13
100
AcDbLine
 10
16797.25539086769
 20
14320.4072654541
 30
0.0
 11
17077.86369086719
 21
14320.4072654541
 31
0.0
  0
LINE
  5
AC4
330
1F
100
AcDbEntity
  8
1
  6
Continuous
 62
     7
370
    13
100
AcDbLine
 10
16797.25565811317
 20
14336.14083921207
 30
0.0
 11
17077.86395811366
 21
14336.14083921207
 31
0.0
  0
LINE
  5
AC5
330
1F
100
AcDbEntity
  8
1
  6
Continuous
 62
     7
370
    13
100
AcDbLine
 10
16797.25596990097
 20
14351.87441296951
 30
0.0
 11
17077.86422535964
 21
14351.87441296951
 31
0.0
  0
LINE
  5
AC6
330
1F
100
AcDbEntity
  8
1
  6
Continuous
 62
     7
370
    13
100
AcDbLine
 10
16797.25623714695
 20
14367.60798672745
 30
0.0
 11
17077.86449260612
 21
14367.60798672745
 31
0.0
  0
LINE
  5
AC7
330
1F
100
AcDbEntity
  8
1
  6
Continuous
 62
     7
370
    13
100
AcDbLine
 10
16797.25650439185
 20
14383.34156048594
 30
0.0
 11
17077.86475985155
 21
14383.34156048594
 31
0.0
  0
LINE
  5
AC8
330
1F
100
AcDbEntity
  8
1
  6
Continuous
 62
     7
370
    13
100
AcDbLine
 10
16797.25677163886
 20
14399.07513424389
 30
0.0
 11
17077.86507163832
 21
14399.07513424389
 31
0.0
  0
LINE
  5
AC9
330
1F
100
AcDbEntity
  8
1
  6
Continuous
 62
     7
370
    13
100
AcDbLine
 10
16797.25703888428
 20
14414.80870800183
 30
0.0
 11
17077.86533888483
 21
14414.80870800183
 31
0.0
  0
LINE
  5
ACA
330
1F
100
AcDbEntity
  8
1
  6
Continuous
 62
     7
370
    13
100
AcDbLine
 10
16797.25730613079
 20
14430.54228175927
 30
0.0
 11
17077.86560613075
 21
14430.54228175927
 31
0.0
  0
LINE
  5
ACB
330
1F
100
AcDbEntity
  8
1
  6
Continuous
 62
     7
370
    13
100
AcDbLine
 10
16797.25761791806
 20
14446.27585551775
 30
0.0
 11
17077.86587337726
 21
14446.27585551775
 31
0.0
  0
LINE
  5
ACC
330
1F
100
AcDbEntity
  8
1
  6
Continuous
 62
     7
370
    13
100
AcDbLine
 10
16797.25788516299
 20
14462.00942927569
 30
0.0
 11
17077.86614062269
 21
14462.00942927569
 31
0.0
  0
LINE
  5
ACD
330
1F
100
AcDbEntity
  8
1
  6
Continuous
 62
     7
370
    13
100
AcDbLine
 10
16797.25815240999
 20
14477.74300303365
 30
0.0
 11
17077.86640786814
 21
14477.74300303365
 31
0.0
  0
LINE
  5
ACE
330
1F
100
AcDbEntity
  8
1
  6
Continuous
 62
     7
370
    13
100
AcDbLine
 10
16797.25841965542
 20
14493.47657679212
 30
0.0
 11
17077.86667511462
 21
14493.47657679212
 31
0.0
  0
LINE
  5
ACF
330
1F
100
AcDbEntity
  8
1
  6
Continuous
 62
     7
370
    13
100
AcDbLine
 10
16797.25868690193
 20
14509.21015054956
 30
0.0
 11
17077.86698690192
 21
14509.21015054956
 31
0.0
  0
LINE
  5
AD0
330
1F
100
AcDbEntity
  8
1
  6
Continuous
 62
     7
370
    13
100
AcDbLine
 10
16797.25895414788
 20
14524.94372430752
 30
0.0
 11
17077.86725414685
 21
14524.94372430752
 31
0.0
  0
LINE
  5
AD1
330
1F
100
AcDbEntity
  8
1
  6
Continuous
 62
     7
370
    13
100
AcDbLine
 10
16797.25926593416
 20
14540.67729806546
 30
0.0
 11
17077.86752139385
 21
14540.67729806546
 31
0.0
  0
LINE
  5
AD2
330
1F
100
AcDbEntity
  8
1
  6
Continuous
 62
     7
370
    13
100
AcDbLine
 10
16797.25953318116
 20
14556.41087182394
 30
0.0
 11
17077.86778863928
 21
14556.41087182394
 31
0.0
  0
LINE
  5
AD3
330
1F
100
AcDbEntity
  8
1
  6
Continuous
 62
     7
370
    13
100
AcDbLine
 10
16797.25980042658
 20
14572.1444455819
 30
0.0
 11
17077.86805588578
 21
14572.1444455819
 31
0.0
  0
LINE
  5
AD4
330
1F
100
AcDbEntity
  8
1
  6
Continuous
 62
     7
370
    13
100
AcDbLine
 10
16797.26006767201
 20
14587.87801933933
 30
0.0
 11
17077.86832313174
 21
14587.87801933933
 31
0.0
  0
LINE
  5
AD5
330
1F
100
AcDbEntity
  8
1
  6
Continuous
 62
     7
370
    13
100
AcDbLine
 10
16797.26033491904
 20
14603.61159309728
 30
0.0
 11
17077.86863491802
 21
14603.61159309728
 31
0.0
  0
LINE
  5
AD6
330
1F
100
AcDbEntity
  8
1
  6
Continuous
 62
     7
370
    13
100
AcDbLine
 10
16797.26060216395
 20
14619.34516685575
 30
0.0
 11
17077.86890216499
 21
14619.34516685575
 31
0.0
  0
LINE
  5
AD7
330
1F
100
AcDbEntity
  8
1
  6
Continuous
 62
     7
370
    13
100
AcDbLine
 10
16797.26091395229
 20
14635.0787406137
 30
0.0
 11
17077.86916941041
 21
14635.0787406137
 31
0.0
  0
LINE
  5
AD8
330
1F
100
AcDbEntity
  8
1
  6
Continuous
 62
     7
370
    13
100
AcDbLine
 10
16797.26118119772
 20
14650.81231437166
 30
0.0
 11
17077.86943665689
 21
14650.81231437166
 31
0.0
  0
LINE
  5
AD9
330
1F
100
AcDbEntity
  8
1
  6
Continuous
 62
     7
370
    13
100
AcDbLine
 10
16797.26144844315
 20
14666.54588813014
 30
0.0
 11
17077.86970390287
 21
14666.54588813014
 31
0.0
  0
LINE
  5
ADA
330
1F
100
AcDbEntity
  8
1
  6
Continuous
 62
     7
370
    13
100
AcDbLine
 10
16797.26171569018
 20
14682.27946188808
 30
0.0
 11
17077.86997114778
 21
14682.27946188808
 31
0.0
  0
LINE
  5
ADB
330
1F
100
AcDbEntity
  8
1
  6
Continuous
 62
     7
370
    13
100
AcDbLine
 10
16797.26198293508
 20
14698.01303564553
 30
0.0
 11
17077.87028293612
 21
14698.01303564553
 31
0.0
  0
LINE
  5
ADC
330
1F
100
AcDbEntity
  8
1
  6
Continuous
 62
     7
370
    13
100
AcDbLine
 10
16797.26225018208
 20
14713.74660940349
 30
0.0
 11
17077.87055018158
 21
14713.74660940349
 31
0.0
  0
LINE
  5
ADD
330
1F
100
AcDbEntity
  8
1
  6
Continuous
 62
     7
370
    13
100
AcDbLine
 10
16797.26256196889
 20
14729.48018316195
 30
0.0
 11
17077.87081742704
 21
14729.48018316195
 31
0.0
  0
LINE
  5
ADE
330
1F
100
AcDbEntity
  8
1
  6
Continuous
 62
     7
370
    13
100
AcDbLine
 10
16797.26282921435
 20
14745.21375691991
 30
0.0
 11
17077.87108467404
 21
14745.21375691991
 31
0.0
  0
LINE
  5
ADF
330
1F
100
AcDbEntity
  8
1
  6
Continuous
 62
     7
370
    13
100
AcDbLine
 10
16797.26309646132
 20
14760.94733067786
 30
0.0
 11
17077.87135191894
 21
14760.94733067786
 31
0.0
  0
LINE
  5
AE0
330
1F
100
AcDbEntity
  8
1
  6
Continuous
 62
     7
370
    13
100
AcDbLine
 10
16797.26336370625
 20
14776.68090443529
 30
0.0
 11
17077.87161916591
 21
14776.68090443529
 31
0.0
  0
LINE
  5
AE1
330
1F
100
AcDbEntity
  8
1
  6
Continuous
 62
     7
370
    13
100
AcDbLine
 10
16797.26363095322
 20
14792.41447819375
 30
0.0
 11
17077.87193095269
 21
14792.41447819375
 31
0.0
  0
LINE
  5
AE2
330
1F
100
AcDbEntity
  8
1
  6
Continuous
 62
     7
370
    13
100
AcDbLine
 10
16797.26389819865
 20
14808.14805195172
 30
0.0
 11
17077.87219819818
 21
14808.14805195172
 31
0.0
  0
LINE
  5
AE3
330
1F
100
AcDbEntity
  8
1
  6
Continuous
 62
     7
370
    13
100
AcDbLine
 10
16797.26420998548
 20
14823.88162570967
 30
0.0
 11
17077.87246544515
 21
14823.88162570967
 31
0.0
  0
LINE
  5
AE4
330
1F
100
AcDbEntity
  8
1
  6
Continuous
 62
     7
370
    13
100
AcDbLine
 10
16797.26447723245
 20
14839.61519946763
 30
0.0
 11
17077.87273269005
 21
14839.61519946763
 31
0.0
  0
LINE
  5
AE5
330
1F
100
AcDbEntity
  8
1
  6
Continuous
 62
     7
370
    13
100
AcDbLine
 10
16797.26474447736
 20
14855.34877322558
 30
0.0
 11
17077.87299993708
 21
14855.34877322558
 31
0.0
  0
LINE
  5
AE6
330
1F
100
AcDbEntity
  8
1
  6
Continuous
 62
     7
370
    13
100
AcDbLine
 10
16797.26501172334
 20
14871.08234698354
 30
0.0
 11
17077.87326718251
 21
14871.08234698354
 31
0.0
  0
LINE
  5
AE7
330
1F
100
AcDbEntity
  8
1
  6
Continuous
 62
     7
370
    13
100
AcDbLine
 10
16797.26527896981
 20
14886.8159207415
 30
0.0
 11
17077.87357896931
 21
14886.8159207415
 31
0.0
  0
LINE
  5
AE8
330
1F
100
AcDbEntity
  8
1
  6
Continuous
 62
     7
370
    13
100
AcDbLine
 10
16797.26554621524
 20
14902.54949449996
 30
0.0
 11
17077.87384621628
 21
14902.54949449996
 31
0.0
  0
LINE
  5
AE9
330
1F
100
AcDbEntity
  8
1
  6
Continuous
 62
     7
370
    13
100
AcDbLine
 10
16797.26585800207
 20
14918.28306825792
 30
0.0
 11
17077.87411346125
 21
14918.28306825792
 31
0.0
  0
LINE
  5
AEA
330
1F
100
AcDbEntity
  8
1
  6
Continuous
 62
     7
370
    13
100
AcDbLine
 10
16797.26612524852
 20
14934.01664201535
 30
0.0
 11
17077.87438070822
 21
14934.01664201535
 31
0.0
  0
LINE
  5
AEB
330
1F
100
AcDbEntity
  8
1
  6
Continuous
 62
     7
370
    13
100
AcDbLine
 10
16797.26639249451
 20
14949.75021577331
 30
0.0
 11
17077.87464795365
 21
14949.75021577331
 31
0.0
  0
LINE
  5
AEC
330
1F
100
AcDbEntity
  8
1
  6
Continuous
 62
     7
370
    13
100
AcDbLine
 10
16797.26665974095
 20
14965.48378953179
 30
0.0
 11
17077.87491519907
 21
14965.48378953179
 31
0.0
  0
LINE
  5
AED
330
1F
100
AcDbEntity
  8
1
  6
Continuous
 62
     7
370
    13
100
AcDbLine
 10
16797.26692698638
 20
14981.21736328973
 30
0.0
 11
17077.87522698745
 21
14981.21736328973
 31
0.0
  0
LINE
  5
AEE
330
1F
100
AcDbEntity
  8
1
  6
Continuous
 62
     7
370
    13
100
AcDbLine
 10
16797.26719423341
 20
14996.95093704767
 30
0.0
 11
17077.87549423238
 21
14996.95093704767
 31
0.0
  0
LINE
  5
AEF
330
1F
100
AcDbEntity
  8
1
  6
Continuous
 62
     7
370
    13
100
AcDbLine
 10
16797.26750601969
 20
15012.68451080512
 30
0.0
 11
17077.87576147834
 21
15012.68451080512
 31
0.0
  0
LINE
  5
AF0
330
1F
100
AcDbEntity
  8
1
  6
Continuous
 62
     7
370
    13
100
AcDbLine
 10
16797.26777326564
 20
15028.41808456412
 30
0.0
 11
17077.87602872481
 21
15028.41808456412
 31
0.0
  0
LINE
  5
AF1
330
1F
100
AcDbEntity
  8
1
  6
Continuous
 62
     7
370
    13
100
AcDbLine
 10
16797.26804051212
 20
15044.15165832155
 30
0.0
 11
17077.87629597024
 21
15044.15165832155
 31
0.0
  0
LINE
  5
AF2
330
1F
100
AcDbEntity
  8
1
  6
Continuous
 62
     7
370
    13
100
AcDbLine
 10
16797.26830775754
 20
15059.88523207951
 30
0.0
 11
17077.87656321727
 21
15059.88523207951
 31
0.0
  0
LINE
  5
AF3
330
1F
100
AcDbEntity
  8
1
  6
Continuous
 62
     7
370
    13
100
AcDbLine
 10
16797.26857500454
 20
15075.61880583797
 30
0.0
 11
17077.87687500352
 21
15075.61880583797
 31
0.0
  0
LINE
  5
AF4
330
1F
100
AcDbEntity
  8
1
  6
Continuous
 62
     7
370
    13
100
AcDbLine
 10
16797.26884224948
 20
15091.35237959591
 30
0.0
 11
17077.87714224947
 21
15091.35237959591
 31
0.0
  0
LINE
  5
AF5
330
1F
100
AcDbEntity
  8
1
  6
Continuous
 62
     7
370
    13
100
AcDbLine
 10
16797.26910949543
 20
15107.08595335388
 30
0.0
 11
17077.87740949595
 21
15107.08595335388
 31
0.0
  0
LINE
  5
AF6
330
1F
100
AcDbEntity
  8
1
  6
Continuous
 62
     7
370
    13
100
AcDbLine
 10
16797.26942128325
 20
15122.81952711132
 30
0.0
 11
17077.87767674141
 21
15122.81952711132
 31
0.0
  0
LINE
  5
AF7
330
1F
100
AcDbEntity
  8
1
  6
Continuous
 62
     7
370
    13
100
AcDbLine
 10
16797.26968852871
 20
15138.55310086978
 30
0.0
 11
17077.87794398841
 21
15138.55310086978
 31
0.0
  0
LINE
  5
AF8
330
1F
100
AcDbEntity
  8
1
  6
Continuous
 62
     7
370
    13
100
AcDbLine
 10
16797.26995577414
 20
15154.28667462775
 30
0.0
 11
17077.87821123331
 21
15154.28667462775
 31
0.0
  0
LINE
  5
AF9
330
1F
100
AcDbEntity
  8
1
  6
Continuous
 62
     7
370
    13
100
AcDbLine
 10
16797.27022302061
 20
15170.0202483857
 30
0.0
 11
17077.87852302064
 21
15170.0202483857
 31
0.0
  0
LINE
  5
AFA
330
1F
100
AcDbEntity
  8
1
  6
Continuous
 62
     7
370
    13
100
AcDbLine
 10
16797.27049026657
 20
15185.75382214365
 30
0.0
 11
17077.87879026706
 21
15185.75382214365
 31
0.0
  0
LINE
  5
AFB
330
1F
100
AcDbEntity
  8
1
  6
Continuous
 62
     7
370
    13
100
AcDbLine
 10
16797.27075751304
 20
15201.48739590159
 30
0.0
 11
17077.87905751257
 21
15201.48739590159
 31
0.0
  0
LINE
  5
AFC
330
1F
100
AcDbEntity
  8
1
  6
Continuous
 62
     7
370
    13
100
AcDbLine
 10
16797.27106929985
 20
15217.22096965956
 30
0.0
 11
17077.87932475951
 21
15217.22096965956
 31
0.0
  0
LINE
  5
AFD
330
1F
100
AcDbEntity
  8
1
  6
Continuous
 62
     7
370
    13
100
AcDbLine
 10
16797.2713365453
 20
15232.95458795885
 30
0.0
 11
17077.87959200445
 21
15232.95458795885
 31
0.0
  0
LINE
  5
AFE
330
1F
100
AcDbEntity
  8
1
  6
Continuous
 62
     7
370
    13
100
AcDbLine
 10
16797.27160379172
 20
15248.68816171681
 30
0.0
 11
17077.87985925043
 21
15248.68816171681
 31
0.0
  0
LINE
  5
AFF
330
1F
100
AcDbEntity
  8
1
  6
Continuous
 62
     7
370
    13
100
AcDbLine
 10
16797.2718710377
 20
15264.42173547475
 30
0.0
 11
17077.88017103822
 21
15264.42173547475
 31
0.0
  0
LINE
  5
B00
330
1F
100
AcDbEntity
  8
1
  6
Continuous
 62
     7
370
    13
100
AcDbLine
 10
16797.27213828418
 20
15280.15530923272
 30
0.0
 11
17077.88043828368
 21
15280.15530923272
 31
0.0
  0
LINE
  5
B01
330
1F
100
AcDbEntity
  8
1
  6
Continuous
 62
     7
370
    13
100
AcDbLine
 10
16797.27240552961
 20
15295.88888299068
 30
0.0
 11
17077.88070552914
 21
15295.88888299068
 31
0.0
  0
LINE
  5
B02
330
1F
100
AcDbEntity
  8
1
  6
Continuous
 62
     7
370
    13
100
AcDbLine
 10
16797.27271731644
 20
15311.62245674862
 30
0.0
 11
17077.88097277561
 21
15311.62245674862
 31
0.0
  0
LINE
  5
B03
330
1F
100
AcDbEntity
  8
1
  6
Continuous
 62
     7
370
    13
100
AcDbLine
 10
16797.27298456292
 20
15327.35603050657
 30
0.0
 11
17077.88124002159
 21
15327.35603050657
 31
0.0
  0
LINE
  5
B04
330
1F
100
AcDbEntity
  8
1
  6
Continuous
 62
     7
370
    13
100
AcDbLine
 10
16797.2732518089
 20
15343.08960426504
 30
0.0
 11
17077.88150726804
 21
15343.08960426504
 31
0.0
  0
LINE
  5
B05
330
1F
100
AcDbEntity
  8
1
  6
Continuous
 62
     7
370
    13
100
AcDbLine
 10
16797.2735190538
 20
15358.82317802247
 30
0.0
 11
17077.88177451347
 21
15358.82317802247
 31
0.0
  0
LINE
  5
B06
330
1F
100
AcDbEntity
  8
1
  6
Continuous
 62
     7
370
    13
100
AcDbLine
 10
16797.27378630077
 20
15374.55675178043
 30
0.0
 11
17077.88208630027
 21
15374.55675178043
 31
0.0
  0
LINE
  5
B07
330
1F
100
AcDbEntity
  8
1
  6
Continuous
 62
     7
370
    13
100
AcDbLine
 10
16797.27405354623
 20
15390.2903255384
 30
0.0
 11
17077.88235354675
 21
15390.2903255384
 31
0.0
  0
LINE
  5
B08
330
1F
100
AcDbEntity
  8
1
  6
Continuous
 62
     7
370
    13
100
AcDbLine
 10
16797.27436533405
 20
15406.02389929685
 30
0.0
 11
17077.8826207927
 21
15406.02389929685
 31
0.0
  0
LINE
  5
B09
330
1F
100
AcDbEntity
  8
1
  6
Continuous
 62
     7
370
    13
100
AcDbLine
 10
16797.27463258001
 20
15421.75747305482
 30
0.0
 11
17077.88288803918
 21
15421.75747305482
 31
0.0
  0
LINE
  5
B0A
330
1F
100
AcDbEntity
  8
1
  6
Continuous
 62
     7
370
    13
100
AcDbLine
 10
16797.27489982491
 20
15437.49104681227
 30
0.0
 11
17077.8831552846
 21
15437.49104681227
 31
0.0
  0
LINE
  5
B0B
330
1F
100
AcDbEntity
  8
1
  6
Continuous
 62
     7
370
    13
100
AcDbLine
 10
16797.27516707191
 20
15453.22462057124
 30
0.0
 11
17077.88342253006
 21
15453.22462057124
 31
0.0
  0
LINE
  5
B0C
330
1F
100
AcDbEntity
  8
1
  6
Continuous
 62
     7
370
    13
100
AcDbLine
 10
16797.27543431737
 20
15468.95819432867
 30
0.0
 11
17077.88373431792
 21
15468.95819432867
 31
0.0
  0
LINE
  5
B0D
330
1F
100
AcDbEntity
  8
1
  6
Continuous
 62
     7
370
    13
100
AcDbLine
 10
16797.27570156384
 20
15484.69176808664
 30
0.0
 11
17077.88400156387
 21
15484.69176808664
 31
0.0
  0
LINE
  5
B0E
330
1F
100
AcDbEntity
  8
1
  6
Continuous
 62
     7
370
    13
100
AcDbLine
 10
16797.27601335117
 20
15500.4253418446
 30
0.0
 11
17077.88426880877
 21
15500.4253418446
 31
0.0
  0
LINE
  5
B0F
330
1F
100
AcDbEntity
  8
1
  6
Continuous
 62
     7
370
    13
100
AcDbLine
 10
16797.27628059608
 20
15516.15891560306
 30
0.0
 11
17077.8845360558
 21
15516.15891560306
 31
0.0
  0
LINE
  5
B10
330
1F
100
AcDbEntity
  8
1
  6
Continuous
 62
     7
370
    13
100
AcDbLine
 10
16797.27654784308
 20
15531.89248936102
 30
0.0
 11
17077.88480330123
 21
15531.89248936102
 31
0.0
  0
LINE
  5
B11
330
1F
100
AcDbEntity
  8
1
  6
Continuous
 62
     7
370
    13
100
AcDbLine
 10
16797.27681508853
 20
15547.62606311845
 30
0.0
 11
17077.8850705477
 21
15547.62606311845
 31
0.0
  0
LINE
  5
B12
330
1F
100
AcDbEntity
  8
1
  6
Continuous
 62
     7
370
    13
100
AcDbLine
 10
16797.27708233498
 20
15563.35963687639
 30
0.0
 11
17077.885382335
 21
15563.35963687639
 31
0.0
  0
LINE
  5
B13
330
1F
100
AcDbEntity
  8
1
  6
Continuous
 62
     7
370
    13
100
AcDbLine
 10
16797.27734958093
 20
15579.09321063489
 30
0.0
 11
17077.88564957991
 21
15579.09321063489
 31
0.0
  0
LINE
  5
B14
330
1F
100
AcDbEntity
  8
1
  6
Continuous
 62
     7
370
    13
100
AcDbLine
 10
16797.27766136721
 20
15594.82678439281
 30
0.0
 11
17077.88591682694
 21
15594.82678439281
 31
0.0
  0
LINE
  5
B15
330
1F
100
AcDbEntity
  8
1
  6
Continuous
 62
     7
370
    13
100
AcDbLine
 10
16797.27792861424
 20
15610.56035815077
 30
0.0
 11
17077.88618407237
 21
15610.56035815077
 31
0.0
  0
LINE
  5
B16
330
1F
100
AcDbEntity
  8
1
  6
Continuous
 62
     7
370
    13
100
AcDbLine
 10
16797.27819585967
 20
15626.29393190874
 30
0.0
 11
17077.88645131881
 21
15626.29393190874
 31
0.0
  0
LINE
  5
B17
330
1F
100
AcDbEntity
  8
1
  6
Continuous
 62
     7
370
    13
100
AcDbLine
 10
16797.2784631051
 20
15642.0275056667
 30
0.0
 11
17077.88671856479
 21
15642.0275056667
 31
0.0
  0
LINE
  5
B18
330
1F
100
AcDbEntity
  8
1
  6
Continuous
 62
     7
370
    13
100
AcDbLine
 10
16797.2787303521
 20
15657.76107942464
 30
0.0
 11
17077.88703035107
 21
15657.76107942464
 31
0.0
  0
LINE
  5
B19
330
1F
100
AcDbEntity
  8
1
  6
Continuous
 62
     7
370
    13
100
AcDbLine
 10
16797.27899759703
 20
15673.4946531826
 30
0.0
 11
17077.88729759804
 21
15673.4946531826
 31
0.0
  0
LINE
  5
B1A
330
1F
100
AcDbEntity
  8
1
  6
Continuous
 62
     7
370
    13
100
AcDbLine
 10
16797.27930938433
 20
15689.22822694106
 30
0.0
 11
17077.88756484353
 21
15689.22822694106
 31
0.0
  0
LINE
  5
B1B
330
1F
100
AcDbEntity
  8
1
  6
Continuous
 62
     7
370
    13
100
AcDbLine
 10
16797.27957663081
 20
15704.96180069849
 30
0.0
 11
17077.88783208998
 21
15704.96180069849
 31
0.0
  0
LINE
  5
B1C
330
1F
100
AcDbEntity
  8
1
  6
Continuous
 62
     7
370
    13
100
AcDbLine
 10
16797.27984387624
 20
15720.69537445645
 30
0.0
 11
17077.88809933596
 21
15720.69537445645
 31
0.0
  0
LINE
  5
B1D
330
1F
100
AcDbEntity
  8
1
  6
Continuous
 62
     7
370
    13
100
AcDbLine
 10
16797.28011112326
 20
15736.42894821442
 30
0.0
 11
17077.88836658089
 21
15736.42894821442
 31
0.0
  0
LINE
  5
B1E
330
1F
100
AcDbEntity
  8
1
  6
Continuous
 62
     7
370
    13
100
AcDbLine
 10
16797.28037836817
 20
15752.16252197289
 30
0.0
 11
17077.88867836921
 21
15752.16252197289
 31
0.0
  0
LINE
  5
B1F
330
1F
100
AcDbEntity
  8
1
  6
Continuous
 62
     7
370
    13
100
AcDbLine
 10
16797.28064561514
 20
15767.89609573083
 30
0.0
 11
17077.88894561464
 21
15767.89609573083
 31
0.0
  0
LINE
  5
B20
330
1F
100
AcDbEntity
  8
1
  6
Continuous
 62
     7
370
    13
100
AcDbLine
 10
16797.28095740195
 20
15783.62966948827
 30
0.0
 11
17077.8892128601
 21
15783.62966948827
 31
0.0
  0
LINE
  5
B21
330
1F
100
AcDbEntity
  8
1
  6
Continuous
 62
     7
370
    13
100
AcDbLine
 10
16797.2812246474
 20
15799.36324324726
 30
0.0
 11
17077.88948010709
 21
15799.36324324726
 31
0.0
  0
LINE
  5
B22
330
1F
100
AcDbEntity
  8
1
  6
Continuous
 62
     7
370
    13
100
AcDbLine
 10
16797.2814918944
 20
15815.09681700469
 30
0.0
 11
17077.889747352
 21
15815.09681700469
 31
0.0
  0
LINE
  5
B23
330
1F
100
AcDbEntity
  8
1
  6
Continuous
 62
     7
370
    13
100
AcDbLine
 10
16797.28175913931
 20
15830.83039076266
 30
0.0
 11
17077.890014599
 21
15830.83039076266
 31
0.0
  0
LINE
  5
B24
330
1F
100
AcDbEntity
  8
1
  6
Continuous
 62
     7
370
    13
100
AcDbLine
 10
16797.28202638628
 20
15846.56396452062
 30
0.0
 11
17077.89032638578
 21
15846.56396452062
 31
0.0
  0
LINE
  5
B25
330
1F
100
AcDbEntity
  8
1
  6
Continuous
 62
     7
370
    13
100
AcDbLine
 10
16797.28229363176
 20
15862.29753827907
 30
0.0
 11
17077.8905936312
 21
15862.29753827907
 31
0.0
  0
LINE
  5
B26
330
1F
100
AcDbEntity
  8
1
  6
Continuous
 62
     7
370
    13
100
AcDbLine
 10
16797.28260541851
 20
15878.03111203704
 30
0.0
 11
17077.89086087823
 21
15878.03111203704
 31
0.0
  0
LINE
  5
B27
330
1F
100
AcDbEntity
  8
1
  6
Continuous
 62
     7
370
    13
100
AcDbLine
 10
16797.28287266554
 20
15893.76468579447
 30
0.0
 11
17077.89112812314
 21
15893.76468579447
 31
0.0
  0
LINE
  5
B28
330
1F
100
AcDbEntity
  8
1
  6
Continuous
 62
     7
370
    13
100
AcDbLine
 10
16797.28313991044
 20
15909.49825955242
 30
0.0
 11
17077.89139537017
 21
15909.49825955242
 31
0.0
  0
LINE
  5
B29
330
1F
100
AcDbEntity
  8
1
  6
Continuous
 62
     7
370
    13
100
AcDbLine
 10
16797.28340715642
 20
15925.23183331091
 30
0.0
 11
17077.89166261559
 21
15925.23183331091
 31
0.0
  0
LINE
  5
B2A
330
1F
100
AcDbEntity
  8
1
  6
Continuous
 62
     7
370
    13
100
AcDbLine
 10
16797.2836744029
 20
15940.96540706885
 30
0.0
 11
17077.89197440237
 21
15940.96540706885
 31
0.0
  0
LINE
  5
B2B
330
1F
100
AcDbEntity
  8
1
  6
Continuous
 62
     7
370
    13
100
AcDbLine
 10
16797.28394164833
 20
15956.69898082679
 30
0.0
 11
17077.8922416494
 21
15956.69898082679
 31
0.0
  0
LINE
  5
B2C
330
1F
100
AcDbEntity
  8
1
  6
Continuous
 62
     7
370
    13
100
AcDbLine
 10
16797.2842534351
 20
15972.43255458424
 30
0.0
 11
17077.8925088943
 21
15972.43255458424
 31
0.0
  0
LINE
  5
B2D
330
1F
100
AcDbEntity
  8
1
  6
Continuous
 62
     7
370
    13
100
AcDbLine
 10
16797.28452068161
 20
15988.16612834272
 30
0.0
 11
17077.8927761413
 21
15988.16612834272
 31
0.0
  0
LINE
  5
B2E
330
1F
100
AcDbEntity
  8
1
  6
Continuous
 62
     7
370
    13
100
AcDbLine
 10
16797.28478792756
 20
16003.89970210066
 30
0.0
 11
17077.89304338676
 21
16003.89970210066
 31
0.0
  0
LINE
  5
B2F
330
1F
100
AcDbEntity
  8
1
  6
Continuous
 62
     7
370
    13
100
AcDbLine
 10
16797.28505517404
 20
16019.63327585862
 30
0.0
 11
17077.89331063219
 21
16019.63327585862
 31
0.0
  0
LINE
  5
B30
330
1F
100
AcDbEntity
  8
1
  6
Continuous
 62
     7
370
    13
100
AcDbLine
 10
16797.28532241947
 20
16035.36684961708
 30
0.0
 11
17077.89362242053
 21
16035.36684961708
 31
0.0
  0
LINE
  5
B31
330
1F
100
AcDbEntity
  8
1
  6
Continuous
 62
     7
370
    13
100
AcDbLine
 10
16797.28558966647
 20
16051.10042337453
 30
0.0
 11
17077.89388966544
 21
16051.10042337453
 31
0.0
  0
LINE
  5
B32
330
1F
100
AcDbEntity
  8
1
  6
Continuous
 62
     7
370
    13
100
AcDbLine
 10
16797.2858569114
 20
16066.83399713249
 30
0.0
 11
17077.89415691139
 21
16066.83399713249
 31
0.0
  0
LINE
  5
B33
330
1F
100
AcDbEntity
  8
1
  6
Continuous
 62
     7
370
    13
100
AcDbLine
 10
16797.2861686987
 20
16082.56757089043
 30
0.0
 11
17077.8944241579
 21
16082.56757089043
 31
0.0
  0
LINE
  5
B34
330
1F
100
AcDbEntity
  8
1
  6
Continuous
 62
     7
370
    13
100
AcDbLine
 10
16797.2864359452
 20
16098.30114464891
 30
0.0
 11
17077.89469140332
 21
16098.30114464891
 31
0.0
  0
LINE
  5
B35
330
1F
100
AcDbEntity
  8
1
  6
Continuous
 62
     7
370
    13
100
AcDbLine
 10
16797.28670319063
 20
16114.03471840686
 30
0.0
 11
17077.89495865035
 21
16114.03471840686
 31
0.0
  0
LINE
  5
B36
330
1F
100
AcDbEntity
  8
1
  6
Continuous
 62
     7
370
    13
100
AcDbLine
 10
16797.28697043606
 20
16129.76829216429
 30
0.0
 11
17077.8952704366
 21
16129.76829216429
 31
0.0
  0
LINE
  5
B37
330
1F
100
AcDbEntity
  8
1
  6
Continuous
 62
     7
370
    13
100
AcDbLine
 10
16797.28723768256
 20
16145.50186592225
 30
0.0
 11
17077.89553768256
 21
16145.50186592225
 31
0.0
  0
LINE
  5
B38
330
1F
100
AcDbEntity
  8
1
  6
Continuous
 62
     7
370
    13
100
AcDbLine
 10
16797.28750492852
 20
16161.23543968072
 30
0.0
 11
17077.895804929
 21
16161.23543968072
 31
0.0
  0
LINE
  5
B39
330
1F
100
AcDbEntity
  8
1
  6
Continuous
 62
     7
370
    13
100
AcDbLine
 10
16797.28781671477
 20
16176.96901343867
 30
0.0
 11
17077.89607217446
 21
16176.96901343867
 31
0.0
  0
LINE
  5
B3A
330
1F
100
AcDbEntity
  8
1
  6
Continuous
 62
     7
370
    13
100
AcDbLine
 10
16797.28808396177
 20
16192.70258719663
 30
0.0
 11
17077.89633942146
 21
16192.70258719663
 31
0.0
  0
LINE
  5
B3B
330
1F
100
AcDbEntity
  8
1
  6
Continuous
 62
     7
370
    13
100
AcDbLine
 10
16797.2883512072
 20
16208.43616095511
 30
0.0
 11
17077.89660666637
 21
16208.43616095511
 31
0.0
  0
LINE
  5
B3C
330
1F
100
AcDbEntity
  8
1
  6
Continuous
 62
     7
370
    13
100
AcDbLine
 10
16797.28861845367
 20
16224.16973471305
 30
0.0
 11
17077.89691845369
 21
16224.16973471305
 31
0.0
  0
LINE
  5
B3D
330
1F
100
AcDbEntity
  8
1
  6
Continuous
 62
     7
370
    13
100
AcDbLine
 10
16797.28888569965
 20
16239.9033084705
 30
0.0
 11
17077.89718570017
 21
16239.9033084705
 31
0.0
  0
LINE
  5
B3E
330
1F
100
AcDbEntity
  8
1
  6
Continuous
 62
     7
370
    13
100
AcDbLine
 10
16797.28915294613
 20
16255.63688222845
 30
0.0
 11
17077.8974529456
 21
16255.63688222845
 31
0.0
  0
LINE
  5
B3F
330
1F
100
AcDbEntity
  8
1
  6
Continuous
 62
     7
370
    13
100
AcDbLine
 10
16797.2894647329
 20
16271.37050052774
 30
0.0
 11
17077.89772019106
 21
16271.37050052774
 31
0.0
  0
LINE
  5
B40
330
1F
100
AcDbEntity
  8
1
  6
Continuous
 62
     7
370
    13
100
AcDbLine
 10
16797.28973197836
 20
16287.10407428517
 30
0.0
 11
17077.89798743753
 21
16287.10407428517
 31
0.0
  0
LINE
  5
B41
330
1F
100
AcDbEntity
  8
1
  6
Continuous
 62
     7
370
    13
100
AcDbLine
 10
16797.28999922484
 20
16302.83764804416
 30
0.0
 11
17077.89825468351
 21
16302.83764804416
 31
0.0
  0
LINE
  5
B42
330
1F
100
AcDbEntity
  8
1
  6
Continuous
 62
     7
370
    13
100
AcDbLine
 10
16797.29026647082
 20
16318.57122180159
 30
0.0
 11
17077.89852192999
 21
16318.57122180159
 31
0.0
  0
LINE
  5
B43
330
1F
100
AcDbEntity
  8
1
  6
Continuous
 62
     7
370
    13
100
AcDbLine
 10
16797.29053371727
 20
16334.30479555955
 30
0.0
 11
17077.89883371674
 21
16334.30479555955
 31
0.0
  0
LINE
  5
B44
330
1F
100
AcDbEntity
  8
1
  6
Continuous
 62
     7
370
    13
100
AcDbLine
 10
16797.2908009627
 20
16350.0383693175
 30
0.0
 11
17077.89910096216
 21
16350.0383693175
 31
0.0
  0
LINE
  5
B45
330
1F
100
AcDbEntity
  8
1
  6
Continuous
 62
     7
370
    13
100
AcDbLine
 10
16797.29111274947
 20
16365.77194307599
 30
0.0
 11
17077.89936820867
 21
16365.77194307599
 31
0.0
  0
LINE
  5
B46
330
1F
100
AcDbEntity
  8
1
  6
Continuous
 62
     7
370
    13
100
AcDbLine
 10
16797.29137999597
 20
16381.50551683393
 30
0.0
 11
17077.89963545462
 21
16381.50551683393
 31
0.0
  0
LINE
  5
B47
330
1F
100
AcDbEntity
  8
1
  6
Continuous
 62
     7
370
    13
100
AcDbLine
 10
16797.29164724193
 20
16397.23909059137
 30
0.0
 11
17077.89990270113
 21
16397.23909059137
 31
0.0
  0
LINE
  5
B48
330
1F
100
AcDbEntity
  8
1
  6
Continuous
 62
     7
370
    13
100
AcDbLine
 10
16797.29191448683
 20
16412.97266434984
 30
0.0
 11
17077.90016994656
 21
16412.97266434984
 31
0.0
  0
LINE
  5
B49
330
1F
100
AcDbEntity
  8
1
  6
Continuous
 62
     7
370
    13
100
AcDbLine
 10
16797.29218173386
 20
16428.7062381078
 30
0.0
 11
17077.90048173333
 21
16428.7062381078
 31
0.0
  0
LINE
  5
B4A
330
1F
100
AcDbEntity
  8
1
  6
Continuous
 62
     7
370
    13
100
AcDbLine
 10
16797.29244897929
 20
16444.43981186575
 30
0.0
 11
17077.90074897983
 21
16444.43981186575
 31
0.0
  0
LINE
  5
B4B
330
1F
100
AcDbEntity
  8
1
  6
Continuous
 62
     7
370
    13
100
AcDbLine
 10
16797.29276076606
 20
16460.17338562371
 30
0.0
 11
17077.90101622579
 21
16460.17338562371
 31
0.0
  0
LINE
  5
B4C
330
1F
100
AcDbEntity
  8
1
  6
Continuous
 62
     7
370
    13
100
AcDbLine
 10
16797.29302801306
 20
16475.90695938166
 30
0.0
 11
17077.90128347226
 21
16475.90695938166
 31
0.0
  0
LINE
  5
B4D
330
1F
100
AcDbEntity
  8
1
  6
Continuous
 62
     7
370
    13
100
AcDbLine
 10
16797.293295258
 20
16491.6405331396
 30
0.0
 11
17077.90155071769
 21
16491.6405331396
 31
0.0
  0
LINE
  5
B4E
330
1F
100
AcDbEntity
  8
1
  6
Continuous
 62
     7
370
    13
100
AcDbLine
 10
16797.293562505
 20
16507.37410689756
 30
0.0
 11
17077.90181796315
 21
16507.37410689756
 31
0.0
  0
LINE
  5
B4F
330
1F
100
AcDbEntity
  8
1
  6
Continuous
 62
     7
370
    13
100
AcDbLine
 10
16797.29382975042
 20
16523.10768065552
 30
0.0
 11
17077.90212975097
 21
16523.10768065552
 31
0.0
  0
LINE
  5
B50
330
1F
100
AcDbEntity
  8
1
  6
Continuous
 62
     7
370
    13
100
AcDbLine
 10
16797.29409699693
 20
16538.841254414
 30
0.0
 11
17077.90239699692
 21
16538.841254414
 31
0.0
  0
LINE
  5
B51
330
1F
100
AcDbEntity
  8
1
  6
Continuous
 62
     7
370
    13
100
AcDbLine
 10
16797.29440878423
 20
16554.57482817143
 30
0.0
 11
17077.90266424183
 21
16554.57482817143
 31
0.0
  0
LINE
  5
B52
330
1F
100
AcDbEntity
  8
1
  6
Continuous
 62
     7
370
    13
100
AcDbLine
 10
16797.29467602913
 20
16570.30840192939
 30
0.0
 11
17077.90293148886
 21
16570.30840192939
 31
0.0
  0
LINE
  5
B53
330
1F
100
AcDbEntity
  8
1
  6
Continuous
 62
     7
370
    13
100
AcDbLine
 10
16797.29494327616
 20
16586.04197568785
 30
0.0
 11
17077.90319873429
 21
16586.04197568785
 31
0.0
  0
LINE
  5
B54
330
1F
100
AcDbEntity
  8
1
  6
Continuous
 62
     7
370
    13
100
AcDbLine
 10
16797.29521052159
 20
16601.77554944581
 30
0.0
 11
17077.90346598076
 21
16601.77554944581
 31
0.0
  0
LINE
  5
B55
330
1F
100
AcDbEntity
  8
1
  6
Continuous
 62
     7
370
    13
100
AcDbLine
 10
16797.29547776702
 20
16617.50912320376
 30
0.0
 11
17077.90377776806
 21
16617.50912320376
 31
0.0
  0
LINE
  5
B56
330
1F
100
AcDbEntity
  8
1
  6
Continuous
 62
     7
370
    13
100
AcDbLine
 10
16797.29574501405
 20
16633.24269696119
 30
0.0
 11
17077.90404501299
 21
16633.24269696119
 31
0.0
  0
LINE
  5
B57
330
1F
100
AcDbEntity
  8
1
  6
Continuous
 62
     7
370
    13
100
AcDbLine
 10
16797.29605680027
 20
16648.97627072018
 30
0.0
 11
17077.90431225997
 21
16648.97627072018
 31
0.0
  0
LINE
  5
B58
330
1F
100
AcDbEntity
  8
1
  6
Continuous
 62
     7
370
    13
100
AcDbLine
 10
16797.29632404727
 20
16664.70984447763
 30
0.0
 11
17077.90457950542
 21
16664.70984447763
 31
0.0
  0
LINE
  5
B59
330
1F
100
AcDbEntity
  8
1
  6
Continuous
 62
     7
370
    13
100
AcDbLine
 10
16797.29659129273
 20
16680.44341823557
 30
0.0
 11
17077.9048467519
 21
16680.44341823557
 31
0.0
  0
LINE
  5
B5A
330
1F
100
AcDbEntity
  8
1
  6
Continuous
 62
     7
370
    13
100
AcDbLine
 10
16797.29685853816
 20
16696.17699199353
 30
0.0
 11
17077.90511399788
 21
16696.17699199353
 31
0.0
  0
LINE
  5
B5B
330
1F
100
AcDbEntity
  8
1
  6
Continuous
 62
     7
370
    13
100
AcDbLine
 10
16797.29712578519
 20
16711.91056575201
 30
0.0
 11
17077.90542578413
 21
16711.91056575201
 31
0.0
  0
LINE
  5
B5C
330
1F
100
AcDbEntity
  8
1
  6
Continuous
 62
     7
370
    13
100
AcDbLine
 10
16797.29739303009
 20
16727.64413950996
 30
0.0
 11
17077.90569303113
 21
16727.64413950996
 31
0.0
  0
LINE
  5
B5D
330
1F
100
AcDbEntity
  8
1
  6
Continuous
 62
     7
370
    13
100
AcDbLine
 10
16797.29770481739
 20
16743.3777132674
 30
0.0
 11
17077.90596027656
 21
16743.3777132674
 31
0.0
  0
LINE
  5
B5E
330
1F
100
AcDbEntity
  8
1
  6
Continuous
 62
     7
370
    13
100
AcDbLine
 10
16797.29797206386
 20
16759.11128702586
 30
0.0
 11
17077.90622752202
 21
16759.11128702586
 31
0.0
  0
LINE
  5
B5F
330
1F
100
AcDbEntity
  8
1
  6
Continuous
 62
     7
370
    13
100
AcDbLine
 10
16797.29823930932
 20
16774.84486078382
 30
0.0
 11
17077.90649476902
 21
16774.84486078382
 31
0.0
  0
LINE
  5
B60
330
1F
100
AcDbEntity
  8
1
  6
Continuous
 62
     7
370
    13
100
AcDbLine
 10
16797.29850655629
 20
16790.57843454177
 30
0.0
 11
17077.90676201392
 21
16790.57843454177
 31
0.0
  0
LINE
  5
B61
330
1F
100
AcDbEntity
  8
1
  6
Continuous
 62
     7
370
    13
100
AcDbLine
 10
16797.29877380123
 20
16806.31200829972
 30
0.0
 11
17077.90707380227
 21
16806.31200829972
 31
0.0
  0
LINE
  5
B62
330
1F
100
AcDbEntity
  8
1
  6
Continuous
 62
     7
370
    13
100
AcDbLine
 10
16797.29904104823
 20
16822.04558205769
 30
0.0
 11
17077.9073410477
 21
16822.04558205769
 31
0.0
  0
LINE
  5
B63
330
1F
100
AcDbEntity
  8
1
  6
Continuous
 62
     7
370
    13
100
AcDbLine
 10
16797.299352835
 20
16837.77915581564
 30
0.0
 11
17077.90760829312
 21
16837.77915581564
 31
0.0
  0
LINE
  5
B64
330
1F
100
AcDbEntity
  8
1
  6
Continuous
 62
     7
370
    13
100
AcDbLine
 10
16797.29962008043
 20
16853.51272957358
 30
0.0
 11
17077.90787554015
 21
16853.51272957358
 31
0.0
  0
LINE
  5
B65
330
1F
100
AcDbEntity
  8
1
  6
Continuous
 62
     7
370
    13
100
AcDbLine
 10
16797.29988732746
 20
16869.24630333154
 30
0.0
 11
17077.90814278506
 21
16869.24630333154
 31
0.0
  0
LINE
  5
B66
330
1F
100
AcDbEntity
  8
1
  6
Continuous
 62
     7
370
    13
100
AcDbLine
 10
16797.30015457236
 20
16884.97987709
 30
0.0
 11
17077.90841003209
 21
16884.97987709
 31
0.0
  0
LINE
  5
B67
330
1F
100
AcDbEntity
  8
1
  6
Continuous
 62
     7
370
    13
100
AcDbLine
 10
16797.30042181834
 20
16900.71345084744
 30
0.0
 11
17077.90872181886
 21
16900.71345084744
 31
0.0
  0
LINE
  5
B68
330
1F
100
AcDbEntity
  8
1
  6
Continuous
 62
     7
370
    13
100
AcDbLine
 10
16797.30068906482
 20
16916.44702460539
 30
0.0
 11
17077.90898906429
 21
16916.44702460539
 31
0.0
  0
LINE
  5
B69
330
1F
100
AcDbEntity
  8
1
  6
Continuous
 62
     7
370
    13
100
AcDbLine
 10
16797.30095631025
 20
16932.18059836389
 30
0.0
 11
17077.90925631129
 21
16932.18059836389
 31
0.0
  0
LINE
  5
B6A
330
1F
100
AcDbEntity
  8
1
  6
Continuous
 62
     7
370
    13
100
AcDbLine
 10
16797.30126809705
 20
16947.91417212181
 30
0.0
 11
17077.90952355622
 21
16947.91417212181
 31
0.0
  0
LINE
  5
B6B
330
1F
100
AcDbEntity
  8
1
  6
Continuous
 62
     7
370
    13
100
AcDbLine
 10
16797.3015353435
 20
16963.64774587979
 30
0.0
 11
17077.90979080322
 21
16963.64774587979
 31
0.0
  0
LINE
  5
B6C
330
1F
100
AcDbEntity
  8
1
  6
Continuous
 62
     7
370
    13
100
AcDbLine
 10
16797.30180258945
 20
16979.38131963723
 30
0.0
 11
17077.91005804865
 21
16979.38131963723
 31
0.0
  0
LINE
  5
B6D
330
1F
100
AcDbEntity
  8
1
  6
Continuous
 62
     7
370
    13
100
AcDbLine
 10
16797.30206983596
 20
16995.11489339621
 30
0.0
 11
17077.91036983543
 21
16995.11489339621
 31
0.0
  0
LINE
  5
B6E
330
1F
100
AcDbEntity
  8
1
  6
Continuous
 62
     7
370
    13
100
AcDbLine
 10
16797.30233708139
 20
17010.84846715364
 30
0.0
 11
17077.91063708246
 21
17010.84846715364
 31
0.0
  0
LINE
  5
B6F
330
1F
100
AcDbEntity
  8
1
  6
Continuous
 62
     7
370
    13
100
AcDbLine
 10
16797.30260432841
 20
17026.58204091161
 30
0.0
 11
17077.91090432736
 21
17026.58204091161
 31
0.0
  0
LINE
  5
B70
330
1F
100
AcDbEntity
  8
1
  6
Continuous
 62
     7
370
    13
100
AcDbLine
 10
16797.30291611467
 20
17042.31561466956
 30
0.0
 11
17077.91117157331
 21
17042.31561466956
 31
0.0
  0
LINE
  5
B71
330
1F
100
AcDbEntity
  8
1
  6
Continuous
 62
     7
370
    13
100
AcDbLine
 10
16797.30318336062
 20
17058.04918842803
 30
0.0
 11
17077.91143881982
 21
17058.04918842803
 31
0.0
  0
LINE
  5
B72
330
1F
100
AcDbEntity
  8
1
  6
Continuous
 62
     7
370
    13
100
AcDbLine
 10
16797.30345060712
 20
17073.78276218599
 30
0.0
 11
17077.91170606524
 21
17073.78276218599
 31
0.0
  0
LINE
  5
B73
330
1F
100
AcDbEntity
  8
1
  6
Continuous
 62
     7
370
    13
100
AcDbLine
 10
16797.30371785255
 20
17089.51633594342
 30
0.0
 11
17077.91201785205
 21
17089.51633594342
 31
0.0
  0
LINE
  5
B74
330
1F
100
AcDbEntity
  8
1
  6
Continuous
 62
     7
370
    13
100
AcDbLine
 10
16797.30398509955
 20
17105.24990970136
 30
0.0
 11
17077.9122850985
 21
17105.24990970136
 31
0.0
  0
LINE
  5
B75
330
1F
100
AcDbEntity
  8
1
  6
Continuous
 62
     7
370
    13
100
AcDbLine
 10
16797.30425234448
 20
17120.98348345985
 30
0.0
 11
17077.91255234445
 21
17120.98348345985
 31
0.0
  0
LINE
  5
B76
330
1F
100
AcDbEntity
  8
1
  6
Continuous
 62
     7
370
    13
100
AcDbLine
 10
16797.30456413175
 20
17136.71705721778
 30
0.0
 11
17077.91281959092
 21
17136.71705721778
 31
0.0
  0
LINE
  5
B77
330
1F
100
AcDbEntity
  8
1
  6
Continuous
 62
     7
370
    13
100
AcDbLine
 10
16797.30483137823
 20
17152.45063097574
 30
0.0
 11
17077.91308683638
 21
17152.45063097574
 31
0.0
  0
LINE
  5
B78
330
1F
100
AcDbEntity
  8
1
  6
Continuous
 62
     7
370
    13
100
AcDbLine
 10
16797.30509862369
 20
17168.18420473371
 30
0.0
 11
17077.91335408338
 21
17168.18420473371
 31
0.0
  0
LINE
  5
B79
330
1F
100
AcDbEntity
  8
1
  6
Continuous
 62
     7
370
    13
100
AcDbLine
 10
16797.30536586915
 20
17183.91777849166
 30
0.0
 11
17077.91362132829
 21
17183.91777849166
 31
0.0
  0
LINE
  5
B7A
330
1F
100
AcDbEntity
  8
1
  6
Continuous
 62
     7
370
    13
100
AcDbLine
 10
16797.30563311559
 20
17199.65135224961
 30
0.0
 11
17077.91393311561
 21
17199.65135224961
 31
0.0
  0
LINE
  5
B7B
330
1F
100
AcDbEntity
  8
1
  6
Continuous
 62
     7
370
    13
100
AcDbLine
 10
16797.30590036157
 20
17215.38492600756
 30
0.0
 11
17077.91420036209
 21
17215.38492600756
 31
0.0
  0
LINE
  5
B7C
330
1F
100
AcDbEntity
  8
1
  6
Continuous
 62
     7
370
    13
100
AcDbLine
 10
16797.30621214785
 20
17231.11849976603
 30
0.0
 11
17077.91446760752
 21
17231.11849976603
 31
0.0
  0
LINE
  5
B7D
330
1F
100
AcDbEntity
  8
1
  6
Continuous
 62
     7
370
    13
100
AcDbLine
 10
16797.3064793948
 20
17246.85207352346
 30
0.0
 11
17077.91473485452
 21
17246.85207352346
 31
0.0
  0
LINE
  5
B7E
330
1F
100
AcDbEntity
  8
1
  6
Continuous
 62
     7
370
    13
100
AcDbLine
 10
16797.30674664031
 20
17262.58564728142
 30
0.0
 11
17077.91500209945
 21
17262.58564728142
 31
0.0
  0
LINE
  5
B7F
330
1F
100
AcDbEntity
  8
1
  6
Continuous
 62
     7
370
    13
100
AcDbLine
 10
16797.30701388673
 20
17278.31922103939
 30
0.0
 11
17077.91526934543
 21
17278.31922103939
 31
0.0
  0
LINE
  5
B80
330
1F
100
AcDbEntity
  8
1
  6
Continuous
 62
     7
370
    13
100
AcDbLine
 10
16797.30728113271
 20
17294.05279479785
 30
0.0
 11
17077.91558113323
 21
17294.05279479785
 31
0.0
  0
LINE
  5
B81
330
1F
100
AcDbEntity
  8
1
  6
Continuous
 62
     7
370
    13
100
AcDbLine
 10
16797.30754837919
 20
17309.78641309661
 30
0.0
 11
17077.91584837865
 21
17309.78641309661
 31
0.0
  0
LINE
  5
B82
330
1F
100
AcDbEntity
  8
1
  6
Continuous
 62
     7
370
    13
100
AcDbLine
 10
16797.30786016596
 20
17325.51998685457
 30
0.0
 11
17077.91611562411
 21
17325.51998685457
 31
0.0
  0
LINE
  5
B83
330
1F
100
AcDbEntity
  8
1
  6
Continuous
 62
     7
370
    13
100
AcDbLine
 10
16797.30812741142
 20
17341.25356061254
 30
0.0
 11
17077.91638287059
 21
17341.25356061254
 31
0.0
  0
LINE
  5
B84
330
1F
100
AcDbEntity
  8
1
  6
Continuous
 62
     7
370
    13
100
AcDbLine
 10
16797.30839465789
 20
17356.9871343705
 30
0.0
 11
17077.91665011654
 21
17356.9871343705
 31
0.0
  0
LINE
  5
B85
330
1F
100
AcDbEntity
  8
1
  6
Continuous
 62
     7
370
    13
100
AcDbLine
 10
16797.30866190385
 20
17372.72070812896
 30
0.0
 11
17077.91691736305
 21
17372.72070812896
 31
0.0
  0
LINE
  5
B86
330
1F
100
AcDbEntity
  8
1
  6
Continuous
 62
     7
370
    13
100
AcDbLine
 10
16797.30892914878
 20
17388.45428188692
 30
0.0
 11
17077.91722914979
 21
17388.45428188692
 31
0.0
  0
LINE
  5
B87
330
1F
100
AcDbEntity
  8
1
  6
Continuous
 62
     7
370
    13
100
AcDbLine
 10
16797.30919639578
 20
17404.18785564435
 30
0.0
 11
17077.91749639528
 21
17404.18785564435
 31
0.0
  0
LINE
  5
B88
330
1F
100
AcDbEntity
  8
1
  6
Continuous
 62
     7
370
    13
100
AcDbLine
 10
16797.30950818256
 20
17419.92142940229
 30
0.0
 11
17077.91776364173
 21
17419.92142940229
 31
0.0
  0
LINE
  5
B89
330
1F
100
AcDbEntity
  8
1
  6
Continuous
 62
     7
370
    13
100
AcDbLine
 10
16797.30977542903
 20
17435.65500316079
 30
0.0
 11
17077.91803088768
 21
17435.65500316079
 31
0.0
  0
LINE
  5
B8A
330
1F
100
AcDbEntity
  8
1
  6
Continuous
 62
     7
370
    13
100
AcDbLine
 10
16797.31004267498
 20
17451.38857691873
 30
0.0
 11
17077.91829813418
 21
17451.38857691873
 31
0.0
  0
LINE
  5
B8B
330
1F
100
AcDbEntity
  8
1
  6
Continuous
 62
     7
370
    13
100
AcDbLine
 10
16797.31030991992
 20
17467.12215067669
 30
0.0
 11
17077.91856537961
 21
17467.12215067669
 31
0.0
  0
LINE
  5
B8C
330
1F
100
AcDbEntity
  8
1
  6
Continuous
 62
     7
370
    13
100
AcDbLine
 10
16797.31057716692
 20
17482.85572443412
 30
0.0
 11
17077.91887716641
 21
17482.85572443412
 31
0.0
  0
LINE
  5
B8D
330
1F
100
AcDbEntity
  8
1
  6
Continuous
 62
     7
370
    13
100
AcDbLine
 10
16797.31084441234
 20
17498.58929819311
 30
0.0
 11
17077.91914441289
 21
17498.58929819311
 31
0.0
  0
LINE
  5
B8E
330
1F
100
AcDbEntity
  8
1
  6
Continuous
 62
     7
370
    13
100
AcDbLine
 10
16797.31115619915
 20
17514.32287195054
 30
0.0
 11
17077.91941165884
 21
17514.32287195054
 31
0.0
  0
LINE
  5
B8F
330
1F
100
AcDbEntity
  8
1
  6
Continuous
 62
     7
370
    13
100
AcDbLine
 10
16797.31142344615
 20
17530.05644570849
 30
0.0
 11
17077.91967890378
 21
17530.05644570849
 31
0.0
  0
LINE
  5
B90
330
1F
100
AcDbEntity
  8
1
  6
Continuous
 62
     7
370
    13
100
AcDbLine
 10
16797.31169069108
 20
17545.79001946696
 30
0.0
 11
17077.91994615078
 21
17545.79001946696
 31
0.0
  0
LINE
  5
B91
330
1F
100
AcDbEntity
  8
1
  6
Continuous
 62
     7
370
    13
100
AcDbLine
 10
16797.31195793805
 20
17561.52359322492
 30
0.0
 11
17077.92021339624
 21
17561.52359322492
 31
0.0
  0
LINE
  5
B92
330
1F
100
AcDbEntity
  8
1
  6
Continuous
 62
     7
370
    13
100
AcDbLine
 10
16797.31222518354
 20
17577.25716698287
 30
0.0
 11
17077.920525184
 21
17577.25716698287
 31
0.0
  0
LINE
  5
B93
330
1F
100
AcDbEntity
  8
1
  6
Continuous
 62
     7
370
    13
100
AcDbLine
 10
16797.31249242996
 20
17592.9907407403
 30
0.0
 11
17077.92079242998
 21
17592.9907407403
 31
0.0
  0
LINE
  5
B94
330
1F
100
AcDbEntity
  8
1
  6
Continuous
 62
     7
370
    13
100
AcDbLine
 10
16797.31280421728
 20
17608.72431449878
 30
0.0
 11
17077.92105967491
 21
17608.72431449878
 31
0.0
  0
LINE
  5
B95
330
1F
100
AcDbEntity
  8
1
  6
Continuous
 62
     7
370
    13
100
AcDbLine
 10
16797.31307146222
 20
17624.45788825674
 30
0.0
 11
17077.92132692189
 21
17624.45788825674
 31
0.0
  0
LINE
  5
B96
330
1F
100
AcDbEntity
  8
1
  6
Continuous
 62
     7
370
    13
100
AcDbLine
 10
16797.31333870919
 20
17640.19146201471
 30
0.0
 11
17077.92159416737
 21
17640.19146201471
 31
0.0
  0
LINE
  5
B97
330
1F
100
AcDbEntity
  8
1
  6
Continuous
 62
     7
370
    13
100
AcDbLine
 10
16797.31360595468
 20
17655.92503577265
 30
0.0
 11
17077.92186141382
 21
17655.92503577265
 31
0.0
  0
LINE
  5
B98
330
1F
100
AcDbEntity
  8
1
  6
Continuous
 62
     7
370
    13
100
AcDbLine
 10
16797.31387320011
 20
17671.65860953059
 30
0.0
 11
17077.92217320118
 21
17671.65860953059
 31
0.0
  0
LINE
  5
B99
330
1F
100
AcDbEntity
  8
1
  6
Continuous
 62
     7
370
    13
100
AcDbLine
 10
16797.31414044711
 20
17687.39218328855
 30
0.0
 11
17077.92244044608
 21
17687.39218328855
 31
0.0
  0
LINE
  5
B9A
330
1F
100
AcDbEntity
  8
1
  6
Continuous
 62
     7
370
    13
100
AcDbLine
 10
16797.31445223338
 20
17703.1257570465
 30
0.0
 11
17077.92270769302
 21
17703.1257570465
 31
0.0
  0
LINE
  5
B9B
330
1F
100
AcDbEntity
  8
1
  6
Continuous
 62
     7
370
    13
100
AcDbLine
 10
16797.31471947934
 20
17718.85933080499
 30
0.0
 11
17077.92297493851
 21
17718.85933080499
 31
0.0
  0
LINE
  5
B9C
330
1F
100
AcDbEntity
  8
1
  6
Continuous
 62
     7
370
    13
100
AcDbLine
 10
16797.31498672578
 20
17734.59290456294
 30
0.0
 11
17077.92324218496
 21
17734.59290456294
 31
0.0
  0
LINE
  5
B9D
330
1F
100
AcDbEntity
  8
1
  6
Continuous
 62
     7
370
    13
100
AcDbLine
 10
16797.31525397127
 20
17750.32647832039
 30
0.0
 11
17077.92350943091
 21
17750.32647832039
 31
0.0
  0
LINE
  5
B9E
330
1F
100
AcDbEntity
  8
1
  6
Continuous
 62
     7
370
    13
100
AcDbLine
 10
16797.31552121821
 20
17766.06005207833
 30
0.0
 11
17077.92382121719
 21
17766.06005207833
 31
0.0
  0
LINE
  5
B9F
330
1F
100
AcDbEntity
  8
1
  6
Continuous
 62
     7
370
    13
100
AcDbLine
 10
16797.31578846315
 20
17781.79362583679
 30
0.0
 11
17077.92408846419
 21
17781.79362583679
 31
0.0
  0
LINE
  5
BA0
330
1F
100
AcDbEntity
  8
1
  6
Continuous
 62
     7
370
    13
100
AcDbLine
 10
16797.31610025047
 20
17797.52719959475
 30
0.0
 11
17077.92435570965
 21
17797.52719959475
 31
0.0
  0
LINE
  5
BA1
330
1F
100
AcDbEntity
  8
1
  6
Continuous
 62
     7
370
    13
100
AcDbLine
 10
16797.31636749695
 20
17813.26077335271
 30
0.0
 11
17077.92462295507
 21
17813.26077335271
 31
0.0
  0
LINE
  5
BA2
330
1F
100
AcDbEntity
  8
1
  6
Continuous
 62
     7
370
    13
100
AcDbLine
 10
16797.31663474238
 20
17828.99434711014
 30
0.0
 11
17077.92489020207
 21
17828.99434711014
 31
0.0
  0
LINE
  5
BA3
330
1F
100
AcDbEntity
  8
1
  6
Continuous
 62
     7
370
    13
100
AcDbLine
 10
16797.31690198938
 20
17844.72792086913
 30
0.0
 11
17077.92515744701
 21
17844.72792086913
 31
0.0
  0
LINE
  5
BA4
330
1F
100
AcDbEntity
  8
1
  6
Continuous
 62
     7
370
    13
100
AcDbLine
 10
16797.31716923431
 20
17860.46149462656
 30
0.0
 11
17077.92546923433
 21
17860.46149462656
 31
0.0
  0
LINE
  5
BA5
330
1F
100
AcDbEntity
  8
1
  6
Continuous
 62
     7
370
    13
100
AcDbLine
 10
16797.31743648128
 20
17876.19506838452
 30
0.0
 11
17077.92573648078
 21
17876.19506838452
 31
0.0
  0
LINE
  5
BA6
330
1F
100
AcDbEntity
  8
1
  6
Continuous
 62
     7
370
    13
100
AcDbLine
 10
16797.31770372674
 20
17891.928642143
 30
0.0
 11
17077.92600372621
 21
17891.928642143
 31
0.0
  0
LINE
  5
BA7
330
1F
100
AcDbEntity
  8
1
  6
Continuous
 62
     7
370
    13
100
AcDbLine
 10
16797.31801551351
 20
17907.66221590095
 30
0.0
 11
17077.92627097321
 21
17907.66221590095
 31
0.0
  0
LINE
  5
BA8
330
1F
100
AcDbEntity
  8
1
  6
Continuous
 62
     7
370
    13
100
AcDbLine
 10
16797.31828276052
 20
17923.39578965889
 30
0.0
 11
17077.92653821814
 21
17923.39578965889
 31
0.0
  0
LINE
  5
BA9
330
1F
100
AcDbEntity
  8
1
  6
Continuous
 62
     7
370
    13
100
AcDbLine
 10
16797.31855000545
 20
17939.12936341634
 30
0.0
 11
17077.92680546514
 21
17939.12936341634
 31
0.0
  0
LINE
  5
BAA
330
1F
100
AcDbEntity
  8
1
  6
Continuous
 62
     7
370
    13
100
AcDbLine
 10
16797.3188172514
 20
17954.86293717481
 30
0.0
 11
17077.92711725195
 21
17954.86293717481
 31
0.0
  0
LINE
  5
BAB
330
1F
100
AcDbEntity
  8
1
  6
Continuous
 62
     7
370
    13
100
AcDbLine
 10
16797.31908449791
 20
17970.59651093276
 30
0.0
 11
17077.92738449738
 21
17970.59651093276
 31
0.0
  0
LINE
  5
BAC
330
1F
100
AcDbEntity
  8
1
  6
Continuous
 62
     7
370
    13
100
AcDbLine
 10
16797.31935174334
 20
17986.33008469072
 30
0.0
 11
17077.92765174438
 21
17986.33008469072
 31
0.0
  0
LINE
  5
BAD
330
1F
100
AcDbEntity
  8
1
  6
Continuous
 62
     7
370
    13
100
AcDbLine
 10
16797.31966353011
 20
18002.06365844868
 30
0.0
 11
17077.92791898931
 21
18002.06365844868
 31
0.0
  0
LINE
  5
BAE
330
1F
100
AcDbEntity
  8
1
  6
Continuous
 62
     7
370
    13
100
AcDbLine
 10
16797.31993077662
 20
18017.79723220663
 30
0.0
 11
17077.92818623625
 21
18017.79723220663
 31
0.0
  0
LINE
  5
BAF
330
1F
100
AcDbEntity
  8
1
  6
Continuous
 62
     7
370
    13
100
AcDbLine
 10
16797.32019802257
 20
18033.53080596457
 30
0.0
 11
17077.92845348177
 21
18033.53080596457
 31
0.0
  0
LINE
  5
BB0
330
1F
100
AcDbEntity
  8
1
  6
Continuous
 62
     7
370
    13
100
AcDbLine
 10
16797.32046526904
 20
18049.26437972253
 30
0.0
 11
17077.92876526851
 21
18049.26437972253
 31
0.0
  0
LINE
  5
BB1
330
1F
100
AcDbEntity
  8
1
  6
Continuous
 62
     7
370
    13
100
AcDbLine
 10
16797.3207325145
 20
18064.99795348101
 30
0.0
 11
17077.92903251554
 21
18064.99795348101
 31
0.0
  0
LINE
  5
BB2
330
1F
100
AcDbEntity
  8
1
  6
Continuous
 62
     7
370
    13
100
AcDbLine
 10
16797.32099976147
 20
18080.73152723896
 30
0.0
 11
17077.92929976045
 21
18080.73152723896
 31
0.0
  0
LINE
  5
BB3
330
1F
100
AcDbEntity
  8
1
  6
Continuous
 62
     7
370
    13
100
AcDbLine
 10
16797.32131154775
 20
18096.4651009964
 30
0.0
 11
17077.9295670064
 21
18096.4651009964
 31
0.0
  0
LINE
  5
BB4
330
1F
100
AcDbEntity
  8
1
  6
Continuous
 62
     7
370
    13
100
AcDbLine
 10
16797.3215787937
 20
18112.19867475435
 30
0.0
 11
17077.92983425287
 21
18112.19867475435
 31
0.0
  0
LINE
  5
BB5
330
1F
100
AcDbEntity
  8
1
  6
Continuous
 62
     7
370
    13
100
AcDbLine
 10
16797.32184604018
 20
18127.93224851282
 30
0.0
 11
17077.93010149833
 21
18127.93224851282
 31
0.0
  0
LINE
  5
BB6
330
1F
100
AcDbEntity
  8
1
  6
Continuous
 62
     7
370
    13
100
AcDbLine
 10
16797.32211328564
 20
18143.66582227077
 30
0.0
 11
17077.9303687453
 21
18143.66582227077
 31
0.0
  0
LINE
  5
BB7
330
1F
100
AcDbEntity
  8
1
  6
Continuous
 62
     7
370
    13
100
AcDbLine
 10
16797.32238053107
 20
18159.39939602873
 30
0.0
 11
17077.93068053158
 21
18159.39939602873
 31
0.0
  0
LINE
  5
BB8
330
1F
100
AcDbEntity
  8
1
  6
Continuous
 62
     7
370
    13
100
AcDbLine
 10
16797.32264777754
 20
18175.13296978616
 30
0.0
 11
17077.93094777756
 21
18175.13296978616
 31
0.0
  0
LINE
  5
BB9
330
1F
100
AcDbEntity
  8
1
  6
Continuous
 62
     7
370
    13
100
AcDbLine
 10
16797.32295956484
 20
18190.86654354515
 30
0.0
 11
17077.93121502401
 21
18190.86654354515
 31
0.0
  0
LINE
  5
BBA
330
1F
100
AcDbEntity
  8
1
  6
Continuous
 62
     7
370
    13
100
AcDbLine
 10
16797.32322680977
 20
18206.6001173026
 30
0.0
 11
17077.93148226944
 21
18206.6001173026
 31
0.0
  0
LINE
  5
BBB
330
1F
100
AcDbEntity
  8
1
  6
Continuous
 62
     7
370
    13
100
AcDbLine
 10
16797.32349405675
 20
18222.33369106054
 30
0.0
 11
17077.93174951644
 21
18222.33369106054
 31
0.0
  0
LINE
  5
BBC
330
1F
100
AcDbEntity
  8
1
  6
Continuous
 62
     7
370
    13
100
AcDbLine
 10
16797.3237613022
 20
18238.0672648185
 30
0.0
 11
17077.93201676137
 21
18238.0672648185
 31
0.0
  0
LINE
  5
BBD
330
1F
100
AcDbEntity
  8
1
  6
Continuous
 62
     7
370
    13
100
AcDbLine
 10
16797.32402854868
 20
18253.80083857697
 30
0.0
 11
17077.9323285487
 21
18253.80083857697
 31
0.0
  0
LINE
  5
BBE
330
1F
100
AcDbEntity
  8
1
  6
Continuous
 62
     7
370
    13
100
AcDbLine
 10
16797.32429579466
 20
18269.53441233493
 30
0.0
 11
17077.93259579518
 21
18269.53441233493
 31
0.0
  0
LINE
  5
BBF
330
1F
100
AcDbEntity
  8
1
  6
Continuous
 62
     7
370
    13
100
AcDbLine
 10
16797.32460758091
 20
18285.26798609236
 30
0.0
 11
17077.93286304061
 21
18285.26798609236
 31
0.0
  0
LINE
  5
BC0
330
1F
100
AcDbEntity
  8
1
  6
Continuous
 62
     7
370
    13
100
AcDbLine
 10
16797.32487482791
 20
18301.00155985083
 30
0.0
 11
17077.93313028603
 21
18301.00155985083
 31
0.0
  0
LINE
  5
BC1
330
1F
100
AcDbEntity
  8
1
  6
Continuous
 62
     7
370
    13
100
AcDbLine
 10
16797.32514207334
 20
18316.73513360879
 30
0.0
 11
17077.93339753254
 21
18316.73513360879
 31
0.0
  0
LINE
  5
BC2
330
1F
100
AcDbEntity
  8
1
  6
Continuous
 62
     7
370
    13
100
AcDbLine
 10
16797.32540931984
 20
18332.46870736674
 30
0.0
 11
17077.93366477849
 21
18332.46870736674
 31
0.0
  0
LINE
  5
BC3
330
1F
100
AcDbEntity
  8
1
  6
Continuous
 62
     7
370
    13
100
AcDbLine
 10
16797.3256765658
 20
18348.20232566601
 30
0.0
 11
17077.93397656631
 21
18348.20232566601
 31
0.0
  0
LINE
  5
BC4
330
1F
100
AcDbEntity
  8
1
  6
Continuous
 62
     7
370
    13
100
AcDbLine
 10
16797.32594381227
 20
18363.93589942346
 30
0.0
 11
17077.93424381174
 21
18363.93589942346
 31
0.0
  0
LINE
  5
BC5
330
1F
100
AcDbEntity
  8
1
  6
Continuous
 62
     7
370
    13
100
AcDbLine
 10
16797.32625559905
 20
18379.66947318143
 30
0.0
 11
17077.93451105717
 21
18379.66947318143
 31
0.0
  0
LINE
  5
BC6
330
1F
100
AcDbEntity
  8
1
  6
Continuous
 62
     7
370
    13
100
AcDbLine
 10
16797.32652284448
 20
18395.40304693988
 30
0.0
 11
17077.93477830368
 21
18395.40304693988
 31
0.0
  0
LINE
  5
BC7
330
1F
100
AcDbEntity
  8
1
  6
Continuous
 62
     7
370
    13
100
AcDbLine
 10
16797.32679009098
 20
18411.13662069785
 30
0.0
 11
17077.93504554963
 21
18411.13662069785
 31
0.0
  0
LINE
  5
BC8
330
1F
100
AcDbEntity
  8
1
  6
Continuous
 62
     7
370
    13
100
AcDbLine
 10
16797.32705733693
 20
18426.87019445581
 30
0.0
 11
17077.93531279613
 21
18426.87019445581
 31
0.0
  0
LINE
  5
BC9
330
1F
100
AcDbEntity
  8
1
  6
Continuous
 62
     7
370
    13
100
AcDbLine
 10
16797.32732458184
 20
18442.60376821324
 30
0.0
 11
17077.93562458291
 21
18442.60376821324
 31
0.0
  0
LINE
  5
BCA
330
1F
100
AcDbEntity
  8
1
  6
Continuous
 62
     7
370
    13
100
AcDbLine
 10
16797.32759182887
 20
18458.33734197169
 30
0.0
 11
17077.93589182833
 21
18458.33734197169
 31
0.0
  0
LINE
  5
BCB
330
1F
100
AcDbEntity
  8
1
  6
Continuous
 62
     7
370
    13
100
AcDbLine
 10
16797.32790361564
 20
18474.07091572966
 30
0.0
 11
17077.93615907484
 21
18474.07091572966
 31
0.0
  0
LINE
  5
BCC
330
1F
100
AcDbEntity
  8
1
  6
Continuous
 62
     7
370
    13
100
AcDbLine
 10
16797.32817086107
 20
18489.80448948762
 30
0.0
 11
17077.93642632079
 21
18489.80448948762
 31
0.0
  0
LINE
  5
BCD
330
1F
100
AcDbEntity
  8
1
  6
Continuous
 62
     7
370
    13
100
AcDbLine
 10
16797.32843810807
 20
18505.5380632461
 30
0.0
 11
17077.93669356724
 21
18505.5380632461
 31
0.0
  0
LINE
  5
BCE
330
1F
100
AcDbEntity
  8
1
  6
Continuous
 62
     7
370
    13
100
AcDbLine
 10
16797.328705353
 20
18521.27163700353
 30
0.0
 11
17077.93696081273
 21
18521.27163700353
 31
0.0
  0
LINE
  5
BCF
330
1F
100
AcDbEntity
  8
1
  6
Continuous
 62
     7
370
    13
100
AcDbLine
 10
16797.3289726
 20
18537.00521076149
 30
0.0
 11
17077.93727259947
 21
18537.00521076149
 31
0.0
  0
LINE
  5
BD0
330
1F
100
AcDbEntity
  8
1
  6
Continuous
 62
     7
370
    13
100
AcDbLine
 10
16797.32923984543
 20
18552.73878451944
 30
0.0
 11
17077.93753984595
 21
18552.73878451944
 31
0.0
  0
LINE
  5
BD1
330
1F
100
AcDbEntity
  8
1
  6
Continuous
 62
     7
370
    13
100
AcDbLine
 10
16797.32955163221
 20
18568.47235827791
 30
0.0
 11
17077.93780709193
 21
18568.47235827791
 31
0.0
  0
LINE
  5
BD2
330
1F
100
AcDbEntity
  8
1
  6
Continuous
 62
     7
370
    13
100
AcDbLine
 10
16797.32981887924
 20
18584.20593203586
 30
0.0
 11
17077.93807433683
 21
18584.20593203586
 31
0.0
  0
LINE
  5
BD3
330
1F
100
AcDbEntity
  8
1
  6
Continuous
 62
     7
370
    13
100
AcDbLine
 10
16797.33008612414
 20
18599.9395057933
 30
0.0
 11
17077.93834158383
 21
18599.9395057933
 31
0.0
  0
LINE
  5
BD4
330
1F
100
AcDbEntity
  8
1
  6
Continuous
 62
     7
370
    13
100
AcDbLine
 10
16797.33035337114
 20
18615.67307955124
 30
0.0
 11
17077.93860882929
 21
18615.67307955124
 31
0.0
  0
LINE
  5
BD5
330
1F
100
AcDbEntity
  8
1
  6
Continuous
 62
     7
370
    13
100
AcDbLine
 10
16797.3306206166
 20
18631.40665330973
 30
0.0
 11
17077.93892061607
 21
18631.40665330973
 31
0.0
  0
LINE
  5
BD6
330
1F
100
AcDbEntity
  8
1
  6
Continuous
 62
     7
370
    13
100
AcDbLine
 10
16797.33088786202
 20
18647.14022706766
 30
0.0
 11
17077.93918786307
 21
18647.14022706766
 31
0.0
  0
LINE
  5
BD7
330
1F
100
AcDbEntity
  8
1
  6
Continuous
 62
     7
370
    13
100
AcDbLine
 10
16797.33119965037
 20
18662.87380082561
 30
0.0
 11
17077.939455108
 21
18662.87380082561
 31
0.0
  0
LINE
  5
BD8
330
1F
100
AcDbEntity
  8
1
  6
Continuous
 62
     7
370
    13
100
AcDbLine
 10
16797.33146689528
 20
18678.60737458411
 30
0.0
 11
17077.93972235497
 21
18678.60737458411
 31
0.0
  0
LINE
  5
BD9
330
1F
100
AcDbEntity
  8
1
  6
Continuous
 62
     7
370
    13
100
AcDbLine
 10
16797.33173414228
 20
18694.34094834205
 30
0.0
 11
17077.9399896004
 21
18694.34094834205
 31
0.0
  0
LINE
  5
BDA
330
1F
100
AcDbEntity
  8
1
  6
Continuous
 62
     7
370
    13
100
AcDbLine
 10
16797.33200138771
 20
18710.07452209948
 30
0.0
 11
17077.9402568469
 21
18710.07452209948
 31
0.0
  0
LINE
  5
BDB
330
1F
100
AcDbEntity
  8
1
  6
Continuous
 62
     7
370
    13
100
AcDbLine
 10
16797.33226863316
 20
18725.80809585745
 30
0.0
 11
17077.9405686342
 21
18725.80809585745
 31
0.0
  0
LINE
  5
BDC
330
1F
100
AcDbEntity
  8
1
  6
Continuous
 62
     7
370
    13
100
AcDbLine
 10
16797.33253588016
 20
18741.5416696159
 30
0.0
 11
17077.94083587911
 21
18741.5416696159
 31
0.0
  0
LINE
  5
BDD
330
1F
100
AcDbEntity
  8
1
  6
Continuous
 62
     7
370
    13
100
AcDbLine
 10
16797.33280312507
 20
18757.27524337386
 30
0.0
 11
17077.94110312614
 21
18757.27524337386
 31
0.0
  0
LINE
  5
BDE
330
1F
100
AcDbEntity
  8
1
  6
Continuous
 62
     7
370
    13
100
AcDbLine
 10
16797.3331149124
 20
18773.00881713183
 30
0.0
 11
17077.94137037156
 21
18773.00881713183
 31
0.0
  0
LINE
  5
BDF
330
1F
100
AcDbEntity
  8
1
  6
Continuous
 62
     7
370
    13
100
AcDbLine
 10
16797.33338215887
 20
18788.74239088926
 30
0.0
 11
17077.94163761807
 21
18788.74239088926
 31
0.0
  0
LINE
  5
BE0
330
1F
100
AcDbEntity
  8
1
  6
Continuous
 62
     7
370
    13
100
AcDbLine
 10
16797.3336494043
 20
18804.47596464773
 30
0.0
 11
17077.94190486402
 21
18804.47596464773
 31
0.0
  0
LINE
  5
BE1
330
1F
100
AcDbEntity
  8
1
  6
Continuous
 62
     7
370
    13
100
AcDbLine
 10
16797.3339166513
 20
18820.2095384057
 30
0.0
 11
17077.94221665024
 21
18820.2095384057
 31
0.0
  0
LINE
  5
BE2
330
1F
100
AcDbEntity
  8
1
  6
Continuous
 62
     7
370
    13
100
AcDbLine
 10
16797.33418389623
 20
18835.94311216364
 30
0.0
 11
17077.94248389727
 21
18835.94311216364
 31
0.0
  0
LINE
  5
BE3
330
1F
100
AcDbEntity
  8
1
  6
Continuous
 62
     7
370
    13
100
AcDbLine
 10
16797.33445114323
 20
18851.6766859221
 30
0.0
 11
17077.9427511427
 21
18851.6766859221
 31
0.0
  0
LINE
  5
BE4
330
1F
100
AcDbEntity
  8
1
  6
Continuous
 62
     7
370
    13
100
AcDbLine
 10
16797.33476293001
 20
18867.41025967954
 30
0.0
 11
17077.94301838813
 21
18867.41025967954
 31
0.0
  0
LINE
  5
BE5
330
1F
100
AcDbEntity
  8
1
  6
Continuous
 62
     7
370
    13
100
AcDbLine
 10
16797.33503017543
 20
18883.14383343751
 30
0.0
 11
17077.94328563516
 21
18883.14383343751
 31
0.0
  0
LINE
  5
BE6
330
1F
100
AcDbEntity
  8
1
  6
Continuous
 62
     7
370
    13
100
AcDbLine
 10
16797.33529742246
 20
18898.87740719546
 30
0.0
 11
17077.94355288006
 21
18898.87740719546
 31
0.0
  0
LINE
  5
BE7
330
1F
100
AcDbEntity
  8
1
  6
Continuous
 62
     7
370
    13
100
AcDbLine
 10
16797.33556466737
 20
18914.61098095393
 30
0.0
 11
17077.94386466736
 21
18914.61098095393
 31
0.0
  0
LINE
  5
BE8
330
1F
100
AcDbEntity
  8
1
  6
Continuous
 62
     7
370
    13
100
AcDbLine
 10
16797.33583191332
 20
18930.34455471189
 30
0.0
 11
17077.94413191387
 21
18930.34455471189
 31
0.0
  0
LINE
  5
BE9
330
1F
100
AcDbEntity
  8
1
  6
Continuous
 62
     7
370
    13
100
AcDbLine
 10
16797.33609915983
 20
18946.07812846932
 30
0.0
 11
17077.9443991593
 21
18946.07812846932
 31
0.0
  0
LINE
  5
BEA
330
1F
100
AcDbEntity
  8
1
  6
Continuous
 62
     7
370
    13
100
AcDbLine
 10
16797.33641094657
 20
18961.81170222726
 30
0.0
 11
17077.9446664063
 21
18961.81170222726
 31
0.0
  0
LINE
  5
BEB
330
1F
100
AcDbEntity
  8
1
  6
Continuous
 62
     7
370
    13
100
AcDbLine
 10
16797.33667819203
 20
18977.54527598575
 30
0.0
 11
17077.94493365123
 21
18977.54527598575
 31
0.0
  0
LINE
  5
BEC
330
1F
100
AcDbEntity
  8
1
  6
Continuous
 62
     7
370
    13
100
AcDbLine
 10
16797.33694543851
 20
18993.27884974369
 30
0.0
 11
17077.9452008982
 21
18993.27884974369
 31
0.0
  0
LINE
  5
BED
330
1F
100
AcDbEntity
  8
1
  6
Continuous
 62
     7
370
    13
100
AcDbLine
 10
16797.33721268446
 20
19009.01242350165
 30
0.0
 11
17077.945512685
 21
19009.01242350165
 31
0.0
  0
LINE
  5
BEE
330
1F
100
AcDbEntity
  8
1
  6
Continuous
 62
     7
370
    13
100
AcDbLine
 10
16797.33747993096
 20
19024.74599726013
 30
0.0
 11
17077.94577993043
 21
19024.74599726013
 31
0.0
  0
LINE
  5
BEF
330
1F
100
AcDbEntity
  8
1
  6
Continuous
 62
     7
370
    13
100
AcDbLine
 10
16797.33774717639
 20
19040.47957101807
 30
0.0
 11
17077.94604717746
 21
19040.47957101807
 31
0.0
  0
LINE
  5
BF0
330
1F
100
AcDbEntity
  8
1
  6
Continuous
 62
     7
370
    13
100
AcDbLine
 10
16797.33805896317
 20
19056.2131447755
 30
0.0
 11
17077.94631442236
 21
19056.2131447755
 31
0.0
  0
LINE
  5
BF1
330
1F
100
AcDbEntity
  8
1
  6
Continuous
 62
     7
370
    13
100
AcDbLine
 10
16797.33832620967
 20
19071.94671853346
 30
0.0
 11
17077.94658166832
 21
19071.94671853346
 31
0.0
  0
LINE
  5
BF2
330
1F
100
AcDbEntity
  8
1
  6
Continuous
 62
     7
370
    13
100
AcDbLine
 10
16797.33859345562
 20
19087.68029229193
 30
0.0
 11
17077.9468489148
 21
19087.68029229193
 31
0.0
  0
LINE
  5
BF3
330
1F
100
AcDbEntity
  8
1
  6
Continuous
 62
     7
370
    13
100
AcDbLine
 10
16797.3388607021
 20
19103.41386604988
 30
0.0
 11
17077.94711616025
 21
19103.41386604988
 31
0.0
  0
LINE
  5
BF4
330
1F
100
AcDbEntity
  8
1
  6
Continuous
 62
     7
370
    13
100
AcDbLine
 10
16797.33912794756
 20
19119.14743980784
 30
0.0
 11
17077.94742794705
 21
19119.14743980784
 31
0.0
  0
LINE
  5
BF5
330
1F
100
AcDbEntity
  8
1
  6
Continuous
 62
     7
370
    13
100
AcDbLine
 10
16797.33939519453
 20
19134.88101356527
 30
0.0
 11
17077.94769519347
 21
19134.88101356527
 31
0.0
  0
LINE
  5
BF6
330
1F
100
AcDbEntity
  8
1
  6
Continuous
 62
     7
370
    13
100
AcDbLine
 10
16797.33970698078
 20
19150.61458732375
 30
0.0
 11
17077.94796243945
 21
19150.61458732375
 31
0.0
  0
LINE
  5
BF7
330
1F
100
AcDbEntity
  8
1
  6
Continuous
 62
     7
370
    13
100
AcDbLine
 10
16797.33997422676
 20
19166.34816108171
 30
0.0
 11
17077.94822968593
 21
19166.34816108171
 31
0.0
  0
LINE
  5
BF8
330
1F
100
AcDbEntity
  8
1
  6
Continuous
 62
     7
370
    13
100
AcDbLine
 10
16797.34024147324
 20
19182.08173483968
 30
0.0
 11
17077.94849693136
 21
19182.08173483968
 31
0.0
  0
LINE
  5
BF9
330
1F
100
AcDbEntity
  8
1
  6
Continuous
 62
     7
370
    13
100
AcDbLine
 10
16797.34050871867
 20
19197.81530859813
 30
0.0
 11
17077.94876417839
 21
19197.81530859813
 31
0.0
  0
LINE
  5
BFA
330
1F
100
AcDbEntity
  8
1
  6
Continuous
 62
     7
370
    13
100
AcDbLine
 10
16797.34077596412
 20
19213.54888235556
 30
0.0
 11
17077.94907596464
 21
19213.54888235556
 31
0.0
  0
LINE
  5
BFB
330
1F
100
AcDbEntity
  8
1
  6
Continuous
 62
     7
370
    13
100
AcDbLine
 10
16797.3410432106
 20
19229.28245611352
 30
0.0
 11
17077.94934321062
 21
19229.28245611352
 31
0.0
  0
LINE
  5
BFC
330
1F
100
AcDbEntity
  8
1
  6
Continuous
 62
     7
370
    13
100
AcDbLine
 10
16797.34135499793
 20
19245.01602987147
 30
0.0
 11
17077.9496104571
 21
19245.01602987147
 31
0.0
  0
LINE
  5
BFD
330
1F
100
AcDbEntity
  8
1
  6
Continuous
 62
     7
370
    13
100
AcDbLine
 10
16797.34162224286
 20
19260.74960362995
 30
0.0
 11
17077.94987770252
 21
19260.74960362995
 31
0.0
  0
LINE
  5
BFE
330
1F
100
AcDbEntity
  8
1
  6
Continuous
 62
     7
370
    13
100
AcDbLine
 10
16797.3418894898
 20
19276.48317738791
 30
0.0
 11
17077.95014494952
 21
19276.48317738791
 31
0.0
  0
LINE
  5
BFF
330
1F
100
AcDbEntity
  8
1
  6
Continuous
 62
     7
370
    13
100
AcDbLine
 10
16797.34215673526
 20
19292.21675114535
 30
0.0
 11
17077.95041219446
 21
19292.21675114535
 31
0.0
  0
LINE
  5
C00
330
1F
100
AcDbEntity
  8
1
  6
Continuous
 62
     7
370
    13
100
AcDbLine
 10
16797.34242398174
 20
19307.9503249033
 30
0.0
 11
17077.95072398173
 21
19307.9503249033
 31
0.0
  0
LINE
  5
C01
330
1F
100
AcDbEntity
  8
1
  6
Continuous
 62
     7
370
    13
100
AcDbLine
 10
16797.34269122769
 20
19323.68389866176
 30
0.0
 11
17077.95099122823
 21
19323.68389866176
 31
0.0
  0
LINE
  5
C02
330
1F
100
AcDbEntity
  8
1
  6
Continuous
 62
     7
370
    13
100
AcDbLine
 10
16797.34300301397
 20
19339.41747241972
 30
0.0
 11
17077.95125847366
 21
19339.41747241972
 31
0.0
  0
LINE
  5
C03
330
1F
100
AcDbEntity
  8
1
  6
Continuous
 62
     7
370
    13
100
AcDbLine
 10
16797.34327026097
 20
19355.15104617767
 30
0.0
 11
17077.95152571909
 21
19355.15104617767
 31
0.0
  0
LINE
  5
C04
330
1F
100
AcDbEntity
  8
1
  6
Continuous
 62
     7
370
    13
100
AcDbLine
 10
16797.3435375064
 20
19370.88461993511
 30
0.0
 11
17077.95179296559
 21
19370.88461993511
 31
0.0
  0
LINE
  5
C05
330
1F
100
AcDbEntity
  8
1
  6
Continuous
 62
     7
370
    13
100
AcDbLine
 10
16797.3438047529
 20
19386.61823823439
 30
0.0
 11
17077.95206021155
 21
19386.61823823439
 31
0.0
  0
LINE
  5
C06
330
1F
100
AcDbEntity
  8
1
  6
Continuous
 62
     7
370
    13
100
AcDbLine
 10
16797.34407199885
 20
19402.35181199287
 30
0.0
 11
17077.95237199783
 21
19402.35181199287
 31
0.0
  0
LINE
  5
C07
330
1F
100
AcDbEntity
  8
1
  6
Continuous
 62
     7
370
    13
100
AcDbLine
 10
16797.34433924379
 20
19418.08538575083
 30
0.0
 11
17077.9526392448
 21
19418.08538575083
 31
0.0
  0
LINE
  5
C08
330
1F
100
AcDbEntity
  8
1
  6
Continuous
 62
     7
370
    13
100
AcDbLine
 10
16797.3446510321
 20
19433.81895950877
 30
0.0
 11
17077.95290649026
 21
19433.81895950877
 31
0.0
  0
LINE
  5
C09
330
1F
100
AcDbEntity
  8
1
  6
Continuous
 62
     7
370
    13
100
AcDbLine
 10
16797.34491827753
 20
19449.55253326622
 30
0.0
 11
17077.95317373673
 21
19449.55253326622
 31
0.0
  0
LINE
  5
C0A
330
1F
100
AcDbEntity
  8
1
  6
Continuous
 62
     7
370
    13
100
AcDbLine
 10
16797.34518552404
 20
19465.28610702521
 30
0.0
 11
17077.95344098268
 21
19465.28610702521
 31
0.0
  0
LINE
  5
C0B
330
1F
100
AcDbEntity
  8
1
  6
Continuous
 62
     7
370
    13
100
AcDbLine
 10
16797.34545276999
 20
19481.01968078264
 30
0.0
 11
17077.95370822916
 21
19481.01968078264
 31
0.0
  0
LINE
  5
C0C
330
1F
100
AcDbEntity
  8
1
  6
Continuous
 62
     7
370
    13
100
AcDbLine
 10
16797.34572001492
 20
19496.75325454061
 30
0.0
 11
17077.95402001596
 21
19496.75325454061
 31
0.0
  0
LINE
  5
C0D
330
1F
100
AcDbEntity
  8
1
  6
Continuous
 62
     7
370
    13
100
AcDbLine
 10
16797.34598726192
 20
19512.48682829855
 30
0.0
 11
17077.95428726142
 21
19512.48682829855
 31
0.0
  0
LINE
  5
C0E
330
1F
100
AcDbEntity
  8
1
  6
Continuous
 62
     7
370
    13
100
AcDbLine
 10
16797.34629904873
 20
19528.22040205702
 30
0.0
 11
17077.95455450787
 21
19528.22040205702
 31
0.0
  0
LINE
  5
C0F
330
1F
100
AcDbEntity
  8
1
  6
Continuous
 62
     7
370
    13
100
AcDbLine
 10
16797.34656629416
 20
19543.95397581497
 30
0.0
 11
17077.95482175385
 21
19543.95397581497
 31
0.0
  0
LINE
  5
C10
330
1F
100
AcDbEntity
  8
1
  6
Continuous
 62
     7
370
    13
100
AcDbLine
 10
16797.34683354116
 20
19559.6875495724
 30
0.0
 11
17077.95508899878
 21
19559.6875495724
 31
0.0
  0
LINE
  5
C11
330
1F
100
AcDbEntity
  8
1
  6
Continuous
 62
     7
370
    13
100
AcDbLine
 10
16797.34710078609
 20
19575.42112333036
 30
0.0
 11
17077.95535624575
 21
19575.42112333036
 31
0.0
  0
LINE
  5
C12
330
1F
100
AcDbEntity
  8
1
  6
Continuous
 62
     7
370
    13
100
AcDbLine
 10
16797.34736803303
 20
19591.15469708885
 30
0.0
 11
17077.95566803256
 21
19591.15469708885
 31
0.0
  0
LINE
  5
C13
330
1F
100
AcDbEntity
  8
1
  6
Continuous
 62
     7
370
    13
100
AcDbLine
 10
16797.34763527852
 20
19606.8882708468
 30
0.0
 11
17077.95593527901
 21
19606.8882708468
 31
0.0
  0
LINE
  5
C14
330
1F
100
AcDbEntity
  8
1
  6
Continuous
 62
     7
370
    13
100
AcDbLine
 10
16797.34794706529
 20
19622.62184460474
 30
0.0
 11
17077.95620252499
 21
19622.62184460474
 31
0.0
  0
LINE
  5
C15
330
1F
100
AcDbEntity
  8
1
  6
Continuous
 62
     7
370
    13
100
AcDbLine
 10
16797.34821431229
 20
19638.35541836269
 30
0.0
 11
17077.95646976992
 21
19638.35541836269
 31
0.0
  0
LINE
  5
C16
330
1F
100
AcDbEntity
  8
1
  6
Continuous
 62
     7
370
    13
100
AcDbLine
 10
16797.34848155723
 20
19654.08899212065
 30
0.0
 11
17077.95673701689
 21
19654.08899212065
 31
0.0
  0
LINE
  5
C17
330
1F
100
AcDbEntity
  8
1
  6
Continuous
 62
     7
370
    13
100
AcDbLine
 10
16797.3487488042
 20
19669.82256587861
 30
0.0
 11
17077.95700426232
 21
19669.82256587861
 31
0.0
  0
LINE
  5
C18
330
1F
100
AcDbEntity
  8
1
  6
Continuous
 62
     7
370
    13
100
AcDbLine
 10
16797.34901604962
 20
19685.55613963656
 30
0.0
 11
17077.95731604915
 21
19685.55613963656
 31
0.0
  0
LINE
  5
C19
330
1F
100
AcDbEntity
  8
1
  6
Continuous
 62
     7
370
    13
100
AcDbLine
 10
16797.34928329511
 20
19701.28971339503
 30
0.0
 11
17077.95758329612
 21
19701.28971339503
 31
0.0
  0
LINE
  5
C1A
330
1F
100
AcDbEntity
  8
1
  6
Continuous
 62
     7
370
    13
100
AcDbLine
 10
16797.34955054208
 20
19717.02328715247
 30
0.0
 11
17077.95785054106
 21
19717.02328715247
 31
0.0
  0
LINE
  5
C1B
330
1F
100
AcDbEntity
  8
1
  6
Continuous
 62
     7
370
    13
100
AcDbLine
 10
16797.34986232836
 20
19732.75686091043
 30
0.0
 11
17077.95811778803
 21
19732.75686091043
 31
0.0
  0
LINE
  5
C1C
330
1F
100
AcDbEntity
  8
1
  6
Continuous
 62
     7
370
    13
100
AcDbLine
 10
16797.35012957434
 20
19748.49043466837
 30
0.0
 11
17077.95838503348
 21
19748.49043466837
 31
0.0
  0
LINE
  5
C1D
330
1F
100
AcDbEntity
  8
1
  6
Continuous
 62
     7
370
    13
100
AcDbLine
 10
16797.35039682076
 20
19764.22400842685
 30
0.0
 11
17077.95865227996
 21
19764.22400842685
 31
0.0
  0
LINE
  5
C1E
330
1F
100
AcDbEntity
  8
1
  6
Continuous
 62
     7
370
    13
100
AcDbLine
 10
16797.35066406625
 20
19779.95758218481
 30
0.0
 11
17077.95896406726
 21
19779.95758218481
 31
0.0
  0
LINE
  5
C1F
330
1F
100
AcDbEntity
  8
1
  6
Continuous
 62
     7
370
    13
100
AcDbLine
 10
16797.35093131322
 20
19795.69115594224
 30
0.0
 11
17077.95923131219
 21
19795.69115594224
 31
0.0
  0
LINE
  5
C20
330
1F
100
AcDbEntity
  8
1
  6
Continuous
 62
     7
370
    13
100
AcDbLine
 10
16797.35119855815
 20
19811.42472970123
 30
0.0
 11
17077.95949855919
 21
19811.42472970123
 31
0.0
  0
LINE
  5
C21
330
1F
100
AcDbEntity
  8
1
  6
Continuous
 62
     7
370
    13
100
AcDbLine
 10
16797.35151034548
 20
19827.15830345866
 30
0.0
 11
17077.95976580462
 21
19827.15830345866
 31
0.0
  0
LINE
  5
C22
330
1F
100
AcDbEntity
  8
1
  6
Continuous
 62
     7
370
    13
100
AcDbLine
 10
16797.35177759193
 20
19842.89187721662
 30
0.0
 11
17077.96003305008
 21
19842.89187721662
 31
0.0
  0
LINE
  5
C23
330
1F
100
AcDbEntity
  8
1
  6
Continuous
 62
     7
370
    13
100
AcDbLine
 10
16797.35204483739
 20
19858.62545097457
 30
0.0
 11
17077.96030029708
 21
19858.62545097457
 31
0.0
  0
LINE
  5
C24
330
1F
100
AcDbEntity
  8
1
  6
Continuous
 62
     7
370
    13
100
AcDbLine
 10
16797.35231208439
 20
19874.35902473306
 30
0.0
 11
17077.96061208336
 21
19874.35902473306
 31
0.0
  0
LINE
  5
C25
330
1F
100
AcDbEntity
  8
1
  6
Continuous
 62
     7
370
    13
100
AcDbLine
 10
16797.35257932932
 20
19890.09259849098
 30
0.0
 11
17077.96087932931
 21
19890.09259849098
 31
0.0
  0
LINE
  5
C26
330
1F
100
AcDbEntity
  8
1
  6
Continuous
 62
     7
370
    13
100
AcDbLine
 10
16797.35284657632
 20
19905.82617224843
 30
0.0
 11
17077.96114657579
 21
19905.82617224843
 31
0.0
  0
LINE
  5
C27
330
1F
100
AcDbEntity
  8
1
  6
Continuous
 62
     7
370
    13
100
AcDbLine
 10
16797.35315836309
 20
19921.5597460064
 30
0.0
 11
17077.96141382124
 21
19921.5597460064
 31
0.0
  0
LINE
  5
C28
330
1F
100
AcDbEntity
  8
1
  6
Continuous
 62
     7
370
    13
100
AcDbLine
 10
16797.35342560852
 20
19937.29331976485
 30
0.0
 11
17077.96168106822
 21
19937.29331976485
 31
0.0
  0
LINE
  5
C29
330
1F
100
AcDbEntity
  8
1
  6
Continuous
 62
     7
370
    13
100
AcDbLine
 10
16797.35369285552
 20
19953.02689352282
 30
0.0
 11
17077.96194831315
 21
19953.02689352282
 31
0.0
  0
LINE
  5
C2A
330
1F
100
AcDbEntity
  8
1
  6
Continuous
 62
     7
370
    13
100
AcDbLine
 10
16797.35396010046
 20
19968.76046728077
 30
0.0
 11
17077.96221556012
 21
19968.76046728077
 31
0.0
  0
LINE
  5
C2B
330
1F
100
AcDbEntity
  8
1
  6
Continuous
 62
     7
370
    13
100
AcDbLine
 10
16797.35422734641
 20
19984.49404103873
 30
0.0
 11
17077.96252734695
 21
19984.49404103873
 31
0.0
  0
LINE
  5
C2C
330
1F
100
AcDbEntity
  8
1
  6
Continuous
 62
     7
370
    13
100
AcDbLine
 10
16797.35449459288
 20
20000.22761479666
 30
0.0
 11
17077.96279459238
 21
20000.22761479666
 31
0.0
  0
LINE
  5
C2D
330
1F
100
AcDbEntity
  8
1
  6
Continuous
 62
     7
370
    13
100
AcDbLine
 10
16797.35480637969
 20
20015.96118855463
 30
0.0
 11
17077.96306183938
 21
20015.96118855463
 31
0.0
  0
LINE
  5
C2E
330
1F
100
AcDbEntity
  8
1
  6
Continuous
 62
     7
370
    13
100
AcDbLine
 10
16797.35507362511
 20
20031.69476231259
 30
0.0
 11
17077.96332908432
 21
20031.69476231259
 31
0.0
  0
LINE
  5
C2F
330
1F
100
AcDbEntity
  8
1
  6
Continuous
 62
     7
370
    13
100
AcDbLine
 10
16797.35534087162
 20
20047.42833607107
 30
0.0
 11
17077.96359633126
 21
20047.42833607107
 31
0.0
  0
LINE
  5
C30
330
1F
100
AcDbEntity
  8
1
  6
Continuous
 62
     7
370
    13
100
AcDbLine
 10
16797.35560811757
 20
20063.1619098285
 30
0.0
 11
17077.96386357671
 21
20063.1619098285
 31
0.0
  0
LINE
  5
C31
330
1F
100
AcDbEntity
  8
1
  6
Continuous
 62
     7
370
    13
100
AcDbLine
 10
16797.35587536399
 20
20078.89548358645
 30
0.0
 11
17077.96417536352
 21
20078.89548358645
 31
0.0
  0
LINE
  5
C32
330
1F
100
AcDbEntity
  8
1
  6
Continuous
 62
     7
370
    13
100
AcDbLine
 10
16797.35614260951
 20
20094.62905734441
 30
0.0
 11
17077.96444261049
 21
20094.62905734441
 31
0.0
  0
LINE
  5
C33
330
1F
100
AcDbEntity
  8
1
  6
Continuous
 62
     7
370
    13
100
AcDbLine
 10
16797.35645439625
 20
20110.36263110288
 30
0.0
 11
17077.96470985542
 21
20110.36263110288
 31
0.0
  0
LINE
  5
C34
330
1F
100
AcDbEntity
  8
1
  6
Continuous
 62
     7
370
    13
100
AcDbLine
 10
16797.35672164273
 20
20126.09620486083
 30
0.0
 11
17077.9649771014
 21
20126.09620486083
 31
0.0
  0
LINE
  5
C35
330
1F
100
AcDbEntity
  8
1
  6
Continuous
 62
     7
370
    13
100
AcDbLine
 10
16797.35698888871
 20
20141.82977861826
 30
0.0
 11
17077.96524434785
 21
20141.82977861826
 31
0.0
  0
LINE
  5
C36
330
1F
100
AcDbEntity
  8
1
  6
Continuous
 62
     7
370
    13
100
AcDbLine
 10
16797.35725613516
 20
20157.56335237725
 30
0.0
 11
17077.96551159331
 21
20157.56335237725
 31
0.0
  0
LINE
  5
C37
330
1F
100
AcDbEntity
  8
1
  6
Continuous
 62
     7
370
    13
100
AcDbLine
 10
16797.35752338062
 20
20173.2969261347
 30
0.0
 11
17077.96582338011
 21
20173.2969261347
 31
0.0
  0
LINE
  5
C38
330
1F
100
AcDbEntity
  8
1
  6
Continuous
 62
     7
370
    13
100
AcDbLine
 10
16797.35779062607
 20
20189.03049989262
 30
0.0
 11
17077.96609062659
 21
20189.03049989262
 31
0.0
  0
LINE
  5
C39
330
1F
100
AcDbEntity
  8
1
  6
Continuous
 62
     7
370
    13
100
AcDbLine
 10
16797.35810241387
 20
20204.76407365058
 30
0.0
 11
17077.96635787257
 21
20204.76407365058
 31
0.0
  0
LINE
  5
C3A
330
1F
100
AcDbEntity
  8
1
  6
Continuous
 62
     7
370
    13
100
AcDbLine
 10
16797.35836965985
 20
20220.49764740907
 30
0.0
 11
17077.96662511899
 21
20220.49764740907
 31
0.0
  0
LINE
  5
C3B
330
1F
100
AcDbEntity
  8
1
  6
Continuous
 62
     7
370
    13
100
AcDbLine
 10
16797.35863690478
 20
20236.23122116702
 30
0.0
 11
17077.96689236448
 21
20236.23122116702
 31
0.0
  0
LINE
  5
C3C
330
1F
100
AcDbEntity
  8
1
  6
Continuous
 62
     7
370
    13
100
AcDbLine
 10
16797.35890415175
 20
20251.96479492445
 30
0.0
 11
17077.96715961145
 21
20251.96479492445
 31
0.0
  0
LINE
  5
C3D
330
1F
100
AcDbEntity
  8
1
  6
Continuous
 62
     7
370
    13
100
AcDbLine
 10
16797.35917139718
 20
20267.69836868242
 30
0.0
 11
17077.96747139773
 21
20267.69836868242
 31
0.0
  0
LINE
  5
C3E
330
1F
100
AcDbEntity
  8
1
  6
Continuous
 62
     7
370
    13
100
AcDbLine
 10
16797.35943864368
 20
20283.43194244087
 30
0.0
 11
17077.96773864368
 21
20283.43194244087
 31
0.0
  0
LINE
  5
C3F
330
1F
100
AcDbEntity
  8
1
  6
Continuous
 62
     7
370
    13
100
AcDbLine
 10
16797.35975043098
 20
20299.16551619883
 30
0.0
 11
17077.96800589018
 21
20299.16551619883
 31
0.0
  0
LINE
  5
C40
330
1F
100
AcDbEntity
  8
1
  6
Continuous
 62
     7
370
    13
100
AcDbLine
 10
16797.36001767589
 20
20314.8990899568
 30
0.0
 11
17077.96827313561
 21
20314.8990899568
 31
0.0
  0
LINE
  5
C41
330
1F
100
AcDbEntity
  8
1
  6
Continuous
 62
     7
370
    13
100
AcDbLine
 10
16797.36028492292
 20
20330.63266371475
 30
0.0
 11
17077.96854038104
 21
20330.63266371475
 31
0.0
  0
LINE
  5
C42
330
1F
100
AcDbEntity
  8
1
  6
Continuous
 62
     7
370
    13
100
AcDbLine
 10
16797.36055216834
 20
20346.3662374727
 30
0.0
 11
17077.96880762755
 21
20346.3662374727
 31
0.0
  0
LINE
  5
C43
330
1F
100
AcDbEntity
  8
1
  6
Continuous
 62
     7
370
    13
100
AcDbLine
 10
16797.36081941485
 20
20362.09981123067
 30
0.0
 11
17077.96911941481
 21
20362.09981123067
 31
0.0
  0
LINE
  5
C44
330
1F
100
AcDbEntity
  8
1
  6
Continuous
 62
     7
370
    13
100
AcDbLine
 10
16797.3610866608
 20
20377.83338498861
 30
0.0
 11
17077.96938666132
 21
20377.83338498861
 31
0.0
  0
LINE
  5
C45
330
1F
100
AcDbEntity
  8
1
  6
Continuous
 62
     7
370
    13
100
AcDbLine
 10
16797.36139844702
 20
20393.56695874707
 30
0.0
 11
17077.96965390675
 21
20393.56695874707
 31
0.0
  0
LINE
  5
C46
330
1F
100
AcDbEntity
  8
1
  6
Continuous
 62
     7
370
    13
100
AcDbLine
 10
16797.36166569405
 20
20409.30053250451
 30
0.0
 11
17077.96992115218
 21
20409.30053250451
 31
0.0
  0
LINE
  5
C47
330
1F
100
AcDbEntity
  8
1
  6
Continuous
 62
     7
370
    13
100
AcDbLine
 10
16797.36193293948
 20
20425.03415080381
 30
0.0
 11
17077.97018839868
 21
20425.03415080381
 31
0.0
  0
LINE
  5
C48
330
1F
100
AcDbEntity
  8
1
  6
Continuous
 62
     7
370
    13
100
AcDbLine
 10
16797.36220018599
 20
20440.76772456176
 30
0.0
 11
17077.97045564463
 21
20440.76772456176
 31
0.0
  0
LINE
  5
C49
330
1F
100
AcDbEntity
  8
1
  6
Continuous
 62
     7
370
    13
100
AcDbLine
 10
16797.36246743194
 20
20456.50129831971
 30
0.0
 11
17077.97076743089
 21
20456.50129831971
 31
0.0
  0
LINE
  5
C4A
330
1F
100
AcDbEntity
  8
1
  6
Continuous
 62
     7
370
    13
100
AcDbLine
 10
16797.36273467684
 20
20472.23487207766
 30
0.0
 11
17077.97103467791
 21
20472.23487207766
 31
0.0
  0
LINE
  5
C4B
330
1F
100
AcDbEntity
  8
1
  6
Continuous
 62
     7
370
    13
100
AcDbLine
 10
16797.36304646522
 20
20487.96844583563
 30
0.0
 11
17077.97130192334
 21
20487.96844583563
 31
0.0
  0
LINE
  5
C4C
330
1F
100
AcDbEntity
  8
1
  6
Continuous
 62
     7
370
    13
100
AcDbLine
 10
16797.36331371065
 20
20503.70201959357
 30
0.0
 11
17077.97156916982
 21
20503.70201959357
 31
0.0
  0
LINE
  5
C4D
330
1F
100
AcDbEntity
  8
1
  6
Continuous
 62
     7
370
    13
100
AcDbLine
 10
16797.36358095608
 20
20519.43559335153
 30
0.0
 11
17077.9718364158
 21
20519.43559335153
 31
0.0
  0
LINE
  5
C4E
330
1F
100
AcDbEntity
  8
1
  6
Continuous
 62
     7
370
    13
100
AcDbLine
 10
16797.36384820308
 20
20535.16916711001
 30
0.0
 11
17077.97210366222
 21
20535.16916711001
 31
0.0
  0
LINE
  5
C4F
330
1F
100
AcDbEntity
  8
1
  6
Continuous
 62
     7
370
    13
100
AcDbLine
 10
16797.36411544801
 20
20550.90274086795
 30
0.0
 11
17077.97241544902
 21
20550.90274086795
 31
0.0
  0
LINE
  5
C50
330
1F
100
AcDbEntity
  8
1
  6
Continuous
 62
     7
370
    13
100
AcDbLine
 10
16797.36438269498
 20
20566.63631462538
 30
0.0
 11
17077.97268269448
 21
20566.63631462538
 31
0.0
  0
LINE
  5
C51
330
1F
100
AcDbEntity
  8
1
  6
Continuous
 62
     7
370
    13
100
AcDbLine
 10
16797.36469448178
 20
20582.36988838334
 30
0.0
 11
17077.97294994096
 21
20582.36988838334
 31
0.0
  0
LINE
  5
C52
330
1F
100
AcDbEntity
  8
1
  6
Continuous
 62
     7
370
    13
100
AcDbLine
 10
16797.36496172721
 20
20598.10346214182
 30
0.0
 11
17077.97321718694
 21
20598.10346214182
 31
0.0
  0
LINE
  5
C53
330
1F
100
AcDbEntity
  8
1
  6
Continuous
 62
     7
370
    13
100
AcDbLine
 10
16797.36522897424
 20
20613.83703589976
 30
0.0
 11
17077.97348443184
 21
20613.83703589976
 31
0.0
  0
LINE
  5
C54
330
1F
100
AcDbEntity
  8
1
  6
Continuous
 62
     7
370
    13
100
AcDbLine
 10
16797.36549621915
 20
20629.57060965773
 30
0.0
 11
17077.97375167884
 21
20629.57060965773
 31
0.0
  0
LINE
  5
C55
330
1F
100
AcDbEntity
  8
1
  6
Continuous
 62
     7
370
    13
100
AcDbLine
 10
16797.36576346615
 20
20645.30418341518
 30
0.0
 11
17077.97406346561
 21
20645.30418341518
 31
0.0
  0
LINE
  5
C56
330
1F
100
AcDbEntity
  8
1
  6
Continuous
 62
     7
370
    13
100
AcDbLine
 10
16797.36603071158
 20
20661.03775717415
 30
0.0
 11
17077.97433071107
 21
20661.03775717415
 31
0.0
  0
LINE
  5
C57
330
1F
100
AcDbEntity
  8
1
  6
Continuous
 62
     7
370
    13
100
AcDbLine
 10
16797.36629795703
 20
20676.77133093158
 30
0.0
 11
17077.97459795804
 21
20676.77133093158
 31
0.0
  0
LINE
  5
C58
330
1F
100
AcDbEntity
  8
1
  6
Continuous
 62
     7
370
    13
100
AcDbLine
 10
16797.36660974535
 20
20692.50490468955
 30
0.0
 11
17077.97486520298
 21
20692.50490468955
 31
0.0
  0
LINE
  5
C59
330
1F
100
AcDbEntity
  8
1
  6
Continuous
 62
     7
370
    13
100
AcDbLine
 10
16797.36687699025
 20
20708.2384784475
 30
0.0
 11
17077.97513244998
 21
20708.2384784475
 31
0.0
  0
LINE
  5
C5A
330
1F
100
AcDbEntity
  8
1
  6
Continuous
 62
     7
370
    13
100
AcDbLine
 10
16797.36714423728
 20
20723.97205220597
 30
0.0
 11
17077.97539969541
 21
20723.97205220597
 31
0.0
  0
LINE
  5
C5B
330
1F
100
AcDbEntity
  8
1
  6
Continuous
 62
     7
370
    13
100
AcDbLine
 10
16797.36741148271
 20
20739.70562596392
 30
0.0
 11
17077.97571148218
 21
20739.70562596392
 31
0.0
  0
LINE
  5
C5C
330
1F
100
AcDbEntity
  8
1
  6
Continuous
 62
     7
370
    13
100
AcDbLine
 10
16797.36767872814
 20
20755.43919972135
 30
0.0
 11
17077.97597872921
 21
20755.43919972135
 31
0.0
  0
LINE
  5
C5D
330
1F
100
AcDbEntity
  8
1
  6
Continuous
 62
     7
370
    13
100
AcDbLine
 10
16797.36794597517
 20
20771.17277347983
 30
0.0
 11
17077.97624597411
 21
20771.17277347983
 31
0.0
  0
LINE
  5
C5E
330
1F
100
AcDbEntity
  8
1
  6
Continuous
 62
     7
370
    13
100
AcDbLine
 10
16797.36825776142
 20
20786.9063472378
 30
0.0
 11
17077.97651322114
 21
20786.9063472378
 31
0.0
  0
LINE
  5
C5F
330
1F
100
AcDbEntity
  8
1
  6
Continuous
 62
     7
370
    13
100
AcDbLine
 10
16797.3685250074
 20
20802.63992099573
 30
0.0
 11
17077.97678046657
 21
20802.63992099573
 31
0.0
  0
LINE
  5
C60
330
1F
100
AcDbEntity
  8
1
  6
Continuous
 62
     7
370
    13
100
AcDbLine
 10
16797.36879225388
 20
20818.37349475368
 30
0.0
 11
17077.97704771308
 21
20818.37349475368
 31
0.0
  0
LINE
  5
C61
330
1F
100
AcDbEntity
  8
1
  6
Continuous
 62
     7
370
    13
100
AcDbLine
 10
16797.36905949931
 20
20834.10706851165
 30
0.0
 11
17077.97735950035
 21
20834.10706851165
 31
0.0
  0
LINE
  5
C62
330
1F
100
AcDbEntity
  8
1
  6
Continuous
 62
     7
370
    13
100
AcDbLine
 10
16797.3693267463
 20
20849.8406422696
 30
0.0
 11
17077.97762674525
 21
20849.8406422696
 31
0.0
  0
LINE
  5
C63
330
1F
100
AcDbEntity
  8
1
  6
Continuous
 62
     7
370
    13
100
AcDbLine
 10
16797.36959399124
 20
20865.57421602755
 30
0.0
 11
17077.97789399228
 21
20865.57421602755
 31
0.0
  0
LINE
  5
C64
330
1F
100
AcDbEntity
  8
1
  6
Continuous
 62
     7
370
    13
100
AcDbLine
 10
16797.36990577851
 20
20881.30778978551
 30
0.0
 11
17077.97816123771
 21
20881.30778978551
 31
0.0
  0
LINE
  5
C65
330
1F
100
AcDbEntity
  8
1
  6
Continuous
 62
     7
370
    13
100
AcDbLine
 10
16797.37017302501
 20
20897.04136354397
 30
0.0
 11
17077.97842848314
 21
20897.04136354397
 31
0.0
  0
LINE
  5
C66
330
1F
100
AcDbEntity
  8
1
  6
Continuous
 62
     7
370
    13
100
AcDbLine
 10
16797.37044027044
 20
20912.77493730141
 30
0.0
 11
17077.97869573016
 21
20912.77493730141
 31
0.0
  0
LINE
  5
C67
330
1F
100
AcDbEntity
  8
1
  6
Continuous
 62
     7
370
    13
100
AcDbLine
 10
16797.37070751747
 20
20928.50851105936
 30
0.0
 11
17077.97896297507
 21
20928.50851105936
 31
0.0
  0
LINE
  5
C68
330
1F
100
AcDbEntity
  8
1
  6
Continuous
 62
     7
370
    13
100
AcDbLine
 10
16797.37097476238
 20
20944.24208481784
 30
0.0
 11
17077.97927476237
 21
20944.24208481784
 31
0.0
  0
LINE
  5
C69
330
1F
100
AcDbEntity
  8
1
  6
Continuous
 62
     7
370
    13
100
AcDbLine
 10
16797.37124200833
 20
20959.9756585758
 30
0.0
 11
17077.97954200887
 21
20959.9756585758
 31
0.0
  0
LINE
  5
C6A
330
1F
100
AcDbEntity
  8
1
  6
Continuous
 62
     7
370
    13
100
AcDbLine
 10
16797.37155379615
 20
20975.70923233374
 30
0.0
 11
17077.9798092543
 21
20975.70923233374
 31
0.0
  0
LINE
  5
C6B
330
1F
100
AcDbEntity
  8
1
  6
Continuous
 62
     7
370
    13
100
AcDbLine
 10
16797.37182104161
 20
20991.44280609118
 30
0.0
 11
17077.9800765013
 21
20991.44280609118
 31
0.0
  0
LINE
  5
C6C
330
1F
100
AcDbEntity
  8
1
  6
Continuous
 62
     7
370
    13
100
AcDbLine
 10
16797.37208828704
 20
21007.17637985018
 30
0.0
 11
17077.98034374623
 21
21007.17637985018
 31
0.0
  0
LINE
  5
C6D
330
1F
100
AcDbEntity
  8
1
  6
Continuous
 62
     7
370
    13
100
AcDbLine
 10
16797.37235553351
 20
21022.9099536076
 30
0.0
 11
17077.98061099321
 21
21022.9099536076
 31
0.0
  0
LINE
  5
C6E
330
1F
100
AcDbEntity
  8
1
  6
Continuous
 62
     7
370
    13
100
AcDbLine
 10
16797.37262277946
 20
21038.64352736558
 30
0.0
 11
17077.98092277998
 21
21038.64352736558
 31
0.0
  0
LINE
  5
C6F
330
1F
100
AcDbEntity
  8
1
  6
Continuous
 62
     7
370
    13
100
AcDbLine
 10
16797.37289002594
 20
21054.37710112352
 30
0.0
 11
17077.98119002544
 21
21054.37710112352
 31
0.0
  0
LINE
  5
C70
330
1F
100
AcDbEntity
  8
1
  6
Continuous
 62
     7
370
    13
100
AcDbLine
 10
16797.37320181274
 20
21070.11067488198
 30
0.0
 11
17077.98145727244
 21
21070.11067488198
 31
0.0
  0
LINE
  5
C71
330
1F
100
AcDbEntity
  8
1
  6
Continuous
 62
     7
370
    13
100
AcDbLine
 10
16797.37346905817
 20
21085.84424863994
 30
0.0
 11
17077.98172451734
 21
21085.84424863994
 31
0.0
  0
LINE
  5
C72
330
1F
100
AcDbEntity
  8
1
  6
Continuous
 62
     7
370
    13
100
AcDbLine
 10
16797.37373630465
 20
21101.57782239737
 30
0.0
 11
17077.98199176332
 21
21101.57782239737
 31
0.0
  0
LINE
  5
C73
330
1F
100
AcDbEntity
  8
1
  6
Continuous
 62
     7
370
    13
100
AcDbLine
 10
16797.37400355063
 20
21117.31139615585
 30
0.0
 11
17077.9822590098
 21
21117.31139615585
 31
0.0
  0
LINE
  5
C74
330
1F
100
AcDbEntity
  8
1
  6
Continuous
 62
     7
370
    13
100
AcDbLine
 10
16797.37427079711
 20
21133.04496991382
 30
0.0
 11
17077.98257079655
 21
21133.04496991382
 31
0.0
  0
LINE
  5
C75
330
1F
100
AcDbEntity
  8
1
  6
Continuous
 62
     7
370
    13
100
AcDbLine
 10
16797.37453804253
 20
21148.77854367176
 30
0.0
 11
17077.98283804203
 21
21148.77854367176
 31
0.0
  0
LINE
  5
C76
330
1F
100
AcDbEntity
  8
1
  6
Continuous
 62
     7
370
    13
100
AcDbLine
 10
16797.37484982931
 20
21164.51211742971
 30
0.0
 11
17077.98310528848
 21
21164.51211742971
 31
0.0
  0
LINE
  5
C77
330
1F
100
AcDbEntity
  8
1
  6
Continuous
 62
     7
370
    13
100
AcDbLine
 10
16797.37511707578
 20
21180.24569118766
 30
0.0
 11
17077.98337253446
 21
21180.24569118766
 31
0.0
  0
LINE
  5
C78
330
1F
100
AcDbEntity
  8
1
  6
Continuous
 62
     7
370
    13
100
AcDbLine
 10
16797.37538432177
 20
21195.97926494562
 30
0.0
 11
17077.98363978094
 21
21195.97926494562
 31
0.0
  0
LINE
  5
C79
330
1F
100
AcDbEntity
  8
1
  6
Continuous
 62
     7
370
    13
100
AcDbLine
 10
16797.37565156824
 20
21211.71283870357
 30
0.0
 11
17077.98390702637
 21
21211.71283870357
 31
0.0
  0
LINE
  5
C7A
330
1F
100
AcDbEntity
  8
1
  6
Continuous
 62
     7
370
    13
100
AcDbLine
 10
16797.37591881367
 20
21227.44641246153
 30
0.0
 11
17077.98421881314
 21
21227.44641246153
 31
0.0
  0
LINE
  5
C7B
330
1F
100
AcDbEntity
  8
1
  6
Continuous
 62
     7
370
    13
100
AcDbLine
 10
16797.3761860591
 20
21243.17998621999
 30
0.0
 11
17077.98448605965
 21
21243.17998621999
 31
0.0
  0
LINE
  5
C7C
330
1F
100
AcDbEntity
  8
1
  6
Continuous
 62
     7
370
    13
100
AcDbLine
 10
16797.37649784695
 20
21258.91355997744
 30
0.0
 11
17077.9847533056
 21
21258.91355997744
 31
0.0
  0
LINE
  5
C7D
330
1F
100
AcDbEntity
  8
1
  6
Continuous
 62
     7
370
    13
100
AcDbLine
 10
16797.3767650929
 20
21274.6471337354
 30
0.0
 11
17077.9850205521
 21
21274.6471337354
 31
0.0
  0
LINE
  5
C7E
330
1F
100
AcDbEntity
  8
1
  6
Continuous
 62
     7
370
    13
100
AcDbLine
 10
16797.37703233781
 20
21290.38070749386
 30
0.0
 11
17077.98528779753
 21
21290.38070749386
 31
0.0
  0
LINE
  5
C7F
330
1F
100
AcDbEntity
  8
1
  6
Continuous
 62
     7
370
    13
100
AcDbLine
 10
16797.37729958484
 20
21306.11428125182
 30
0.0
 11
17077.98555504453
 21
21306.11428125182
 31
0.0
  0
LINE
  5
C80
330
1F
100
AcDbEntity
  8
1
  6
Continuous
 62
     7
370
    13
100
AcDbLine
 10
16797.37756683026
 20
21321.84785500978
 30
0.0
 11
17077.98586683078
 21
21321.84785500978
 31
0.0
  0
LINE
  5
C81
330
1F
100
AcDbEntity
  8
1
  6
Continuous
 62
     7
370
    13
100
AcDbLine
 10
16797.37783407674
 20
21337.58142876721
 30
0.0
 11
17077.98613407673
 21
21337.58142876721
 31
0.0
  0
LINE
  5
C82
330
1F
100
AcDbEntity
  8
1
  6
Continuous
 62
     7
370
    13
100
AcDbLine
 10
16797.37814586404
 20
21353.3150025262
 30
0.0
 11
17077.98640132324
 21
21353.3150025262
 31
0.0
  0
LINE
  5
C83
330
1F
100
AcDbEntity
  8
1
  6
Continuous
 62
     7
370
    13
100
AcDbLine
 10
16797.37841310897
 20
21369.04857628363
 30
0.0
 11
17077.98666856867
 21
21369.04857628363
 31
0.0
  0
LINE
  5
C84
330
1F
100
AcDbEntity
  8
1
  6
Continuous
 62
     7
370
    13
100
AcDbLine
 10
16797.37868035597
 20
21384.78215004159
 30
0.0
 11
17077.9869358141
 21
21384.78215004159
 31
0.0
  0
LINE
  5
C85
330
1F
100
AcDbEntity
  8
1
  6
Continuous
 62
     7
370
    13
100
AcDbLine
 10
16797.3789476014
 20
21400.51572379954
 30
0.0
 11
17077.9872030606
 21
21400.51572379954
 31
0.0
  0
LINE
  5
C86
330
1F
100
AcDbEntity
  8
1
  6
Continuous
 62
     7
370
    13
100
AcDbLine
 10
16797.37921484791
 20
21416.24929755802
 30
0.0
 11
17077.9875148479
 21
21416.24929755802
 31
0.0
  0
LINE
  5
C87
330
1F
100
AcDbEntity
  8
1
  6
Continuous
 62
     7
370
    13
100
AcDbLine
 10
16797.37948209386
 20
21431.98287131595
 30
0.0
 11
17077.98778209283
 21
21431.98287131595
 31
0.0
  0
LINE
  5
C88
330
1F
100
AcDbEntity
  8
1
  6
Continuous
 62
     7
370
    13
100
AcDbLine
 10
16797.37979388014
 20
21447.71644507339
 30
0.0
 11
17077.98804933983
 21
21447.71644507339
 31
0.0
  0
LINE
  5
C89
330
1F
100
AcDbEntity
  8
1
  6
Continuous
 62
     7
370
    13
100
AcDbLine
 10
16797.38006112711
 20
21463.45006337269
 30
0.0
 11
17077.98831658526
 21
21463.45006337269
 31
0.0
  0
LINE
  5
C8A
330
1F
100
AcDbEntity
  8
1
  6
Continuous
 62
     7
370
    13
100
AcDbLine
 10
16797.38032837254
 20
21479.18363713065
 30
0.0
 11
17077.98858383171
 21
21479.18363713065
 31
0.0
  0
LINE
  5
C8B
330
1F
100
AcDbEntity
  8
1
  6
Continuous
 62
     7
370
    13
100
AcDbLine
 10
16797.38059561902
 20
21494.91721088912
 30
0.0
 11
17077.98885107769
 21
21494.91721088912
 31
0.0
  0
LINE
  5
C8C
330
1F
100
AcDbEntity
  8
1
  6
Continuous
 62
     7
370
    13
100
AcDbLine
 10
16797.380862865
 20
21510.65078464708
 30
0.0
 11
17077.98916286397
 21
21510.65078464708
 31
0.0
  0
LINE
  5
C8D
330
1F
100
AcDbEntity
  8
1
  6
Continuous
 62
     7
370
    13
100
AcDbLine
 10
16797.3811301099
 20
21526.3843584045
 30
0.0
 11
17077.98943011094
 21
21526.3843584045
 31
0.0
  0
LINE
  5
C8E
330
1F
100
AcDbEntity
  8
1
  6
Continuous
 62
     7
370
    13
100
AcDbLine
 10
16797.3813973569
 20
21542.11793216246
 30
0.0
 11
17077.9896973564
 21
21542.11793216246
 31
0.0
  0
LINE
  5
C8F
330
1F
100
AcDbEntity
  8
1
  6
Continuous
 62
     7
370
    13
100
AcDbLine
 10
16797.3817091437
 20
21557.85150592094
 30
0.0
 11
17077.98996460287
 21
21557.85150592094
 31
0.0
  0
LINE
  5
C90
330
1F
100
AcDbEntity
  8
1
  6
Continuous
 62
     7
370
    13
100
AcDbLine
 10
16797.38197638916
 20
21573.5850796789
 30
0.0
 11
17077.99023184886
 21
21573.5850796789
 31
0.0
  0
LINE
  5
C91
330
1F
100
AcDbEntity
  8
1
  6
Continuous
 62
     7
370
    13
100
AcDbLine
 10
16797.38224363616
 20
21589.31865343684
 30
0.0
 11
17077.99049909376
 21
21589.31865343684
 31
0.0
  0
LINE
  5
C92
330
1F
100
AcDbEntity
  8
1
  6
Continuous
 62
     7
370
    13
100
AcDbLine
 10
16797.38251088107
 20
21605.05222719429
 30
0.0
 11
17077.99081088208
 21
21605.05222719429
 31
0.0
  0
LINE
  5
C93
330
1F
100
AcDbEntity
  8
1
  6
Continuous
 62
     7
370
    13
100
AcDbLine
 10
16797.38277812807
 20
21620.78580095275
 30
0.0
 11
17077.99107812751
 21
21620.78580095275
 31
0.0
  0
LINE
  5
C94
330
1F
100
AcDbEntity
  8
1
  6
Continuous
 62
     7
370
    13
100
AcDbLine
 10
16797.38304537349
 20
21636.51937471071
 30
0.0
 11
17077.99134537401
 21
21636.51937471071
 31
0.0
  0
LINE
  5
C95
330
1F
100
AcDbEntity
  8
1
  6
Continuous
 62
     7
370
    13
100
AcDbLine
 10
16797.3833571603
 20
21652.25294846865
 30
0.0
 11
17077.99161261996
 21
21652.25294846865
 31
0.0
  0
LINE
  5
C96
330
1F
100
AcDbEntity
  8
1
  6
Continuous
 62
     7
370
    13
100
AcDbLine
 10
16797.38362440727
 20
21667.98652222713
 30
0.0
 11
17077.99187986487
 21
21667.98652222713
 31
0.0
  0
LINE
  5
C97
330
1F
100
AcDbEntity
  8
1
  6
Continuous
 62
     7
370
    13
100
AcDbLine
 10
16797.38389165217
 20
21683.72009598458
 30
0.0
 11
17077.9921471119
 21
21683.72009598458
 31
0.0
  0
LINE
  5
C98
330
1F
100
AcDbEntity
  8
1
  6
Continuous
 62
     7
370
    13
100
AcDbLine
 10
16797.3841588992
 20
21699.4536697425
 30
0.0
 11
17077.99245889867
 21
21699.4536697425
 31
0.0
  0
LINE
  5
C99
330
1F
100
AcDbEntity
  8
1
  6
Continuous
 62
     7
370
    13
100
AcDbLine
 10
16797.38442614463
 20
21715.18724350047
 30
0.0
 11
17077.99272614413
 21
21715.18724350047
 31
0.0
  0
LINE
  5
C9A
330
1F
100
AcDbEntity
  8
1
  6
Continuous
 62
     7
370
    13
100
AcDbLine
 10
16797.38469339006
 20
21730.92081725895
 30
0.0
 11
17077.99299339113
 21
21730.92081725895
 31
0.0
  0
LINE
  5
C9B
330
1F
100
AcDbEntity
  8
1
  6
Continuous
 62
     7
370
    13
100
AcDbLine
 10
16797.38500517841
 20
21746.65439101689
 30
0.0
 11
17077.99326063606
 21
21746.65439101689
 31
0.0
  0
LINE
  5
C9C
330
1F
100
AcDbEntity
  8
1
  6
Continuous
 62
     7
370
    13
100
AcDbLine
 10
16797.38527242337
 20
21762.38796477433
 30
0.0
 11
17077.99352788306
 21
21762.38796477433
 31
0.0
  0
LINE
  5
C9D
330
1F
100
AcDbEntity
  8
1
  6
Continuous
 62
     7
370
    13
100
AcDbLine
 10
16797.38553966935
 20
21778.1215385323
 30
0.0
 11
17077.99379512849
 21
21778.1215385323
 31
0.0
  0
LINE
  5
C9E
330
1F
100
AcDbEntity
  8
1
  6
Continuous
 62
     7
370
    13
100
AcDbLine
 10
16797.38580691577
 20
21793.85511229075
 30
0.0
 11
17077.99410691527
 21
21793.85511229075
 31
0.0
  0
LINE
  5
C9F
330
1F
100
AcDbEntity
  8
1
  6
Continuous
 62
     7
370
    13
100
AcDbLine
 10
16797.38607416123
 20
21809.58868604872
 30
0.0
 11
17077.99437416227
 21
21809.58868604872
 31
0.0
  0
LINE
  5
CA0
330
1F
100
AcDbEntity
  8
1
  6
Continuous
 62
     7
370
    13
100
AcDbLine
 10
16797.38634140823
 20
21825.32225980668
 30
0.0
 11
17077.9946414072
 21
21825.32225980668
 31
0.0
  0
LINE
  5
CA1
330
1F
100
AcDbEntity
  8
1
  6
Continuous
 62
     7
370
    13
100
AcDbLine
 10
16797.38665319451
 20
21841.05583356513
 30
0.0
 11
17077.9949086542
 21
21841.05583356513
 31
0.0
  0
LINE
  5
CA2
330
1F
100
AcDbEntity
  8
1
  6
Continuous
 62
     7
370
    13
100
AcDbLine
 10
16797.38692044046
 20
21856.7894073231
 30
0.0
 11
17077.99517589963
 21
21856.7894073231
 31
0.0
  0
LINE
  5
CA3
330
1F
100
AcDbEntity
  8
1
  6
Continuous
 62
     7
370
    13
100
AcDbLine
 10
16797.38718768693
 20
21872.52298108054
 30
0.0
 11
17077.99544314506
 21
21872.52298108054
 31
0.0
  0
LINE
  5
CA4
330
1F
100
AcDbEntity
  8
1
  6
Continuous
 62
     7
370
    13
100
AcDbLine
 10
16797.38745493236
 20
21888.25655483848
 30
0.0
 11
17077.99571039209
 21
21888.25655483848
 31
0.0
  0
LINE
  5
CA5
330
1F
100
AcDbEntity
  8
1
  6
Continuous
 62
     7
370
    13
100
AcDbLine
 10
16797.38772217939
 20
21903.99012859697
 30
0.0
 11
17077.99602217836
 21
21903.99012859697
 31
0.0
  0
LINE
  5
CA6
330
1F
100
AcDbEntity
  8
1
  6
Continuous
 62
     7
370
    13
100
AcDbLine
 10
16797.3879894243
 20
21919.72370235492
 30
0.0
 11
17077.99628942432
 21
21919.72370235492
 31
0.0
  0
LINE
  5
CA7
330
1F
100
AcDbEntity
  8
1
  6
Continuous
 62
     7
370
    13
100
AcDbLine
 10
16797.38830121159
 20
21935.45727611287
 30
0.0
 11
17077.99655667076
 21
21935.45727611287
 31
0.0
  0
LINE
  5
CA8
330
1F
100
AcDbEntity
  8
1
  6
Continuous
 62
     7
370
    13
100
AcDbLine
 10
16797.38856845807
 20
21951.19084987031
 30
0.0
 11
17077.99682391625
 21
21951.19084987031
 31
0.0
  0
LINE
  5
CA9
330
1F
100
AcDbEntity
  8
1
  6
Continuous
 62
     7
370
    13
100
AcDbLine
 10
16797.38883570353
 20
21966.92442362877
 30
0.0
 11
17077.99709116322
 21
21966.92442362877
 31
0.0
  0
LINE
  5
CAA
330
1F
100
AcDbEntity
  8
1
  6
Continuous
 62
     7
370
    13
100
AcDbLine
 10
16797.38910295053
 20
21982.65799738673
 30
0.0
 11
17077.99735840813
 21
21982.65799738673
 31
0.0
  0
LINE
  5
CAB
330
1F
100
AcDbEntity
  8
1
  6
Continuous
 62
     7
370
    13
100
AcDbLine
 10
16797.38937019543
 20
21998.39157114467
 30
0.0
 11
17077.99767019545
 21
21998.39157114467
 31
0.0
  0
LINE
  5
CAC
330
1F
100
AcDbEntity
  8
1
  6
Continuous
 62
     7
370
    13
100
AcDbLine
 10
16797.38963744138
 20
22014.12514490263
 30
0.0
 11
17077.9979374419
 21
22014.12514490263
 31
0.0
  0
LINE
  5
CAD
330
1F
100
AcDbEntity
  8
1
  6
Continuous
 62
     7
370
    13
100
AcDbLine
 10
16797.38994922921
 20
22029.8587186606
 30
0.0
 11
17077.99820468739
 21
22029.8587186606
 31
0.0
  0
LINE
  5
CAE
330
1F
100
AcDbEntity
  8
1
  6
Continuous
 62
     7
370
    13
100
AcDbLine
 10
16797.39021647469
 20
22045.59229241854
 30
0.0
 11
17077.99847193436
 21
22045.59229241854
 31
0.0
  0
LINE
  5
CAF
330
1F
100
AcDbEntity
  8
1
  6
Continuous
 62
     7
370
    13
100
AcDbLine
 10
16797.39048372012
 20
22061.3258661765
 30
0.0
 11
17077.99873917926
 21
22061.3258661765
 31
0.0
  0
LINE
  5
CB0
330
1F
100
AcDbEntity
  8
1
  6
Continuous
 62
     7
370
    13
100
AcDbLine
 10
16797.39075096657
 20
22077.05943993497
 30
0.0
 11
17077.99900642629
 21
22077.05943993497
 31
0.0
  0
LINE
  5
CB1
330
1F
100
AcDbEntity
  8
1
  6
Continuous
 62
     7
370
    13
100
AcDbLine
 10
16797.39101821255
 20
22092.79301369292
 30
0.0
 11
17077.99931821304
 21
22092.79301369292
 31
0.0
  0
LINE
  5
CB2
330
1F
100
AcDbEntity
  8
1
  6
Continuous
 62
     7
370
    13
100
AcDbLine
 10
16797.391285459
 20
22108.52658745035
 30
0.0
 11
17077.9995854585
 21
22108.52658745035
 31
0.0
  0
LINE
  5
CB3
330
1F
100
AcDbEntity
  8
1
  6
Continuous
 62
     7
370
    13
100
AcDbLine
 10
16797.3915972458
 20
22124.26016120831
 30
0.0
 11
17077.9998527055
 21
22124.26016120831
 31
0.0
  0
LINE
  5
CB4
330
1F
100
AcDbEntity
  8
1
  6
Continuous
 62
     7
370
    13
100
AcDbLine
 10
16797.39186449126
 20
22139.99373496679
 30
0.0
 11
17078.00011995043
 21
22139.99373496679
 31
0.0
  0
LINE
  5
CB5
330
1F
100
AcDbEntity
  8
1
  6
Continuous
 62
     7
370
    13
100
AcDbLine
 10
16797.39213173774
 20
22155.72730872473
 30
0.0
 11
17078.00038719641
 21
22155.72730872473
 31
0.0
  0
LINE
  5
CB6
330
1F
100
AcDbEntity
  8
1
  6
Continuous
 62
     7
370
    13
100
AcDbLine
 10
16797.39239898372
 20
22171.4608824827
 30
0.0
 11
17078.00065444286
 21
22171.4608824827
 31
0.0
  0
LINE
  5
CB7
330
1F
100
AcDbEntity
  8
1
  6
Continuous
 62
     7
370
    13
100
AcDbLine
 10
16797.39266623016
 20
22187.19445624014
 30
0.0
 11
17078.00096622966
 21
22187.19445624014
 31
0.0
  0
LINE
  5
CB8
330
1F
100
AcDbEntity
  8
1
  6
Continuous
 62
     7
370
    13
100
AcDbLine
 10
16797.39293347559
 20
22202.92802999912
 30
0.0
 11
17078.00123347509
 21
22202.92802999912
 31
0.0
  0
LINE
  5
CB9
330
1F
100
AcDbEntity
  8
1
  6
Continuous
 62
     7
370
    13
100
AcDbLine
 10
16797.3932452624
 20
22218.66160375655
 30
0.0
 11
17078.00150072159
 21
22218.66160375655
 31
0.0
  0
LINE
  5
CBA
330
1F
100
AcDbEntity
  8
1
  6
Continuous
 62
     7
370
    13
100
AcDbLine
 10
16797.39351250887
 20
22234.39517751452
 30
0.0
 11
17078.00176796755
 21
22234.39517751452
 31
0.0
  0
LINE
  5
CBB
330
1F
100
AcDbEntity
  8
1
  6
Continuous
 62
     7
370
    13
100
AcDbLine
 10
16797.39377975482
 20
22250.12875127297
 30
0.0
 11
17078.00203521399
 21
22250.12875127297
 31
0.0
  0
LINE
  5
CBC
330
1F
100
AcDbEntity
  8
1
  6
Continuous
 62
     7
370
    13
100
AcDbLine
 10
16797.39404699976
 20
22265.86232503094
 30
0.0
 11
17078.00230245945
 21
22265.86232503094
 31
0.0
  0
LINE
  5
CBD
330
1F
100
AcDbEntity
  8
1
  6
Continuous
 62
     7
370
    13
100
AcDbLine
 10
16797.39431424673
 20
22281.59589878889
 30
0.0
 11
17078.00261424623
 21
22281.59589878889
 31
0.0
  0
LINE
  5
CBE
330
1F
100
AcDbEntity
  8
1
  6
Continuous
 62
     7
370
    13
100
AcDbLine
 10
16797.39458149219
 20
22297.32947254632
 30
0.0
 11
17078.00288149273
 21
22297.32947254632
 31
0.0
  0
LINE
  5
CBF
330
1F
100
AcDbEntity
  8
1
  6
Continuous
 62
     7
370
    13
100
AcDbLine
 10
16797.39489328004
 20
22313.06304630479
 30
0.0
 11
17078.00314873868
 21
22313.06304630479
 31
0.0
  0
LINE
  5
CC0
330
1F
100
AcDbEntity
  8
1
  6
Continuous
 62
     7
370
    13
100
AcDbLine
 10
16797.39516052599
 20
22328.79662006276
 30
0.0
 11
17078.00341598516
 21
22328.79662006276
 31
0.0
  0
LINE
  5
CC1
330
1F
100
AcDbEntity
  8
1
  6
Continuous
 62
     7
370
    13
100
AcDbLine
 10
16797.39542777089
 20
22344.53019382069
 30
0.0
 11
17078.00368323062
 21
22344.53019382069
 31
0.0
  0
LINE
  5
CC2
330
1F
100
AcDbEntity
  8
1
  6
Continuous
 62
     7
370
    13
100
AcDbLine
 10
16797.39569501792
 20
22360.26376757865
 30
0.0
 11
17078.00395047605
 21
22360.26376757865
 31
0.0
  0
LINE
  5
CC3
330
1F
100
AcDbEntity
  8
1
  6
Continuous
 62
     7
370
    13
100
AcDbLine
 10
16797.39596226335
 20
22375.99734133662
 30
0.0
 11
17078.00426226387
 21
22375.99734133662
 31
0.0
  0
LINE
  5
CC4
330
1F
100
AcDbEntity
  8
1
  6
Continuous
 62
     7
370
    13
100
AcDbLine
 10
16797.39622950983
 20
22391.73091509456
 30
0.0
 11
17078.00452950982
 21
22391.73091509456
 31
0.0
  0
LINE
  5
CC5
330
1F
100
AcDbEntity
  8
1
  6
Continuous
 62
     7
370
    13
100
AcDbLine
 10
16797.39654129713
 20
22407.46448885252
 30
0.0
 11
17078.00479675627
 21
22407.46448885252
 31
0.0
  0
LINE
  5
CC6
330
1F
100
AcDbEntity
  8
1
  6
Continuous
 62
     7
370
    13
100
AcDbLine
 10
16797.39680854203
 20
22423.198062611
 30
0.0
 11
17078.00506400175
 21
22423.198062611
 31
0.0
  0
LINE
  5
CC7
330
1F
100
AcDbEntity
  8
1
  6
Continuous
 62
     7
370
    13
100
AcDbLine
 10
16797.39707578906
 20
22438.93163636894
 30
0.0
 11
17078.00533124718
 21
22438.93163636894
 31
0.0
  0
LINE
  5
CC8
330
1F
100
AcDbEntity
  8
1
  6
Continuous
 62
     7
370
    13
100
AcDbLine
 10
16797.39734303449
 20
22454.66521012637
 30
0.0
 11
17078.00559849363
 21
22454.66521012637
 31
0.0
  0
LINE
  5
CC9
330
1F
100
AcDbEntity
  8
1
  6
Continuous
 62
     7
370
    13
100
AcDbLine
 10
16797.39761028093
 20
22470.39878388433
 30
0.0
 11
17078.00591028099
 21
22470.39878388433
 31
0.0
  0
LINE
  5
CCA
330
1F
100
AcDbEntity
  8
1
  6
Continuous
 62
     7
370
    13
100
AcDbLine
 10
16797.39787752692
 20
22486.13235764281
 30
0.0
 11
17078.00617752589
 21
22486.13235764281
 31
0.0
  0
LINE
  5
CCB
330
1F
100
AcDbEntity
  8
1
  6
Continuous
 62
     7
370
    13
100
AcDbLine
 10
16797.39814477185
 20
22501.86597594157
 30
0.0
 11
17078.00644477289
 21
22501.86597594157
 31
0.0
  0
LINE
  5
CCC
330
1F
100
AcDbEntity
  8
1
  6
Continuous
 62
     7
370
    13
100
AcDbLine
 10
16797.3984565602
 20
22517.59954970005
 30
0.0
 11
17078.00671201835
 21
22517.59954970005
 31
0.0
  0
LINE
  5
CCD
330
1F
100
AcDbEntity
  8
1
  6
Continuous
 62
     7
370
    13
100
AcDbLine
 10
16797.39872380565
 20
22533.33312345748
 30
0.0
 11
17078.00697926482
 21
22533.33312345748
 31
0.0
  0
LINE
  5
CCE
330
1F
100
AcDbEntity
  8
1
  6
Continuous
 62
     7
370
    13
100
AcDbLine
 10
16797.39899105108
 20
22549.06669721545
 30
0.0
 11
17078.00724651081
 21
22549.06669721545
 31
0.0
  0
LINE
  5
CCF
330
1F
100
AcDbEntity
  8
1
  6
Continuous
 62
     7
370
    13
100
AcDbLine
 10
16797.39925829808
 20
22564.8002709734
 30
0.0
 11
17078.00755829703
 21
22564.8002709734
 31
0.0
  0
LINE
  5
CD0
330
1F
100
AcDbEntity
  8
1
  6
Continuous
 62
     7
370
    13
100
AcDbLine
 10
16797.39952554301
 20
22580.53384473187
 30
0.0
 11
17078.00782554403
 21
22580.53384473187
 31
0.0
  0
LINE
  5
CD1
330
1F
100
AcDbEntity
  8
1
  6
Continuous
 62
     7
370
    13
100
AcDbLine
 10
16797.39979278996
 20
22596.26741848982
 30
0.0
 11
17078.00809278946
 21
22596.26741848982
 31
0.0
  0
LINE
  5
CD2
330
1F
100
AcDbEntity
  8
1
  6
Continuous
 62
     7
370
    13
100
AcDbLine
 10
16797.40010457676
 20
22612.00099224725
 30
0.0
 11
17078.00836003596
 21
22612.00099224725
 31
0.0
  0
LINE
  5
CD3
330
1F
100
AcDbEntity
  8
1
  6
Continuous
 62
     7
370
    13
100
AcDbLine
 10
16797.40037182222
 20
22627.73456600627
 30
0.0
 11
17078.00862728191
 21
22627.73456600627
 31
0.0
  0
LINE
  5
CD4
330
1F
100
AcDbEntity
  8
1
  6
Continuous
 62
     7
370
    13
100
AcDbLine
 10
16797.40063906922
 20
22643.4681397637
 30
0.0
 11
17078.00889452682
 21
22643.4681397637
 31
0.0
  0
LINE
  5
CD5
330
1F
100
AcDbEntity
  8
1
  6
Continuous
 62
     7
370
    13
100
AcDbLine
 10
16797.40090631412
 20
22659.20171352164
 30
0.0
 11
17078.00920631519
 21
22659.20171352164
 31
0.0
  0
LINE
  5
CD6
330
1F
100
AcDbEntity
  8
1
  6
Continuous
 62
     7
370
    13
100
AcDbLine
 10
16797.40117356112
 20
22674.9352872796
 30
0.0
 11
17078.00947356062
 21
22674.9352872796
 31
0.0
  0
LINE
  5
CD7
330
1F
100
AcDbEntity
  8
1
  6
Continuous
 62
     7
370
    13
100
AcDbLine
 10
16797.40144080658
 20
22690.66886103806
 30
0.0
 11
17071.12151969816
 21
22690.66886103806
 31
0.0
  0
LINE
  5
CD8
330
1F
100
AcDbEntity
  8
1
  6
Continuous
 62
     7
370
    13
100
AcDbLine
 10
19082.34503086931
 20
21225.08565037926
 30
0.0
 11
19082.34503086931
 21
14299.51954079906
 31
0.0
  0
LINE
  5
CD9
330
1F
100
AcDbEntity
  8
1
  6
Continuous
 62
     7
370
    13
100
AcDbLine
 10
18997.92522642073
 20
14210.55962767999
 30
0.0
 11
17078.00003086934
 21
14109.94070694119
 31
0.0
  0
ARC
  5
CDA
330
1F
100
AcDbEntity
  8
1
  6
Continuous
 62
     7
370
    13
100
AcDbCircle
 10
18993.26303086929
 20
14299.51954079906
 30
0.0
 40
89.082
100
AcDbArc
 50
272.9999979983149
 51
0.0
  0
ARC
  5
CDB
330
1F
100
AcDbEntity
  8
1
  6
Continuous
 62
     7
370
    13
100
AcDbCircle
 10
18458.77103086932
 20
20256.59861785956
 30
0.0
 40
44.541
100
AcDbArc
 50
90.00000100051599
 51
270.0000010005159
  0
ARC
  5
CDC
330
1F
100
AcDbEntity
  8
1
  6
Continuous
 62
     7
370
    13
100
AcDbCircle
 10
18458.770986328
 20
20033.89361785956
 30
0.0
 40
44.541
100
AcDbArc
 50
89.99999800063553
 51
269.9999980006355
  0
ARC
  5
CDD
330
1F
100
AcDbEntity
  8
1
  6
Continuous
 62
     7
370
    13
100
AcDbCircle
 10
18458.77103086932
 20
19588.48357331875
 30
0.0
 40
44.541
100
AcDbArc
 50
90.00000299988045
 51
270.0000029998804
  0
ARC
  5
CDE
330
1F
100
AcDbEntity
  8
1
  6
Continuous
 62
     7
370
    13
100
AcDbCircle
 10
18458.770986328
 20
19365.77861785957
 30
0.0
 40
44.541
100
AcDbArc
 50
90.0
 51
270.0
  0
ARC
  5
CDF
330
1F
100
AcDbEntity
  8
1
  6
Continuous
 62
     7
370
    13
100
AcDbCircle
 10
18458.770986328
 20
19811.1886624009
 30
0.0
 40
44.541
100
AcDbArc
 50
89.99999399857157
 51
269.9999939985715
  0
ARC
  5
CE0
330
1F
100
AcDbEntity
  8
1
  6
Continuous
 62
     7
370
    13
100
AcDbCircle
 10
18458.770986328
 20
19143.0736624009
 30
0.0
 40
44.541
100
AcDbArc
 50
89.99999599960355
 51
269.9999959996036
  0
ARC
  5
CE1
330
1F
100
AcDbEntity
  8
1
  6
Continuous
 62
     7
370
    13
100
AcDbCircle
 10
18458.77103086932
 20
18920.36857331875
 30
0.0
 40
44.541
100
AcDbArc
 50
90.00000499757737
 51
270.0000049975773
  0
LINE
  5
CE2
330
1F
100
AcDbEntity
  8
1
  6
Continuous
 62
     7
370
    13
100
AcDbLine
 10
18993.26303086929
 20
20212.05761785956
 30
0.0
 11
18993.26303086929
 21
20256.59861785956
 31
0.0
  0
LINE
  5
CE3
330
1F
100
AcDbEntity
  8
1
  6
Continuous
 62
     7
370
    13
100
AcDbLine
 10
18993.26303086929
 20
20033.89361785956
 30
0.0
 11
18993.26303086929
 21
20078.43461785957
 31
0.0
  0
LINE
  5
CE4
330
1F
100
AcDbEntity
  8
1
  6
Continuous
 62
     7
370
    13
100
AcDbLine
 10
18993.26303086929
 20
19989.35261785957
 30
0.0
 11
18993.26303086929
 21
20033.89361785956
 31
0.0
  0
LINE
  5
CE5
330
1F
100
AcDbEntity
  8
1
  6
Continuous
 62
     7
370
    13
100
AcDbLine
 10
18993.26303086929
 20
19811.18861785957
 30
0.0
 11
18993.26303086929
 21
19855.72961785957
 31
0.0
  0
LINE
  5
CE6
330
1F
100
AcDbEntity
  8
1
  6
Continuous
 62
     7
370
    13
100
AcDbLine
 10
18993.26303086929
 20
19766.64761785957
 30
0.0
 11
18993.26303086929
 21
19811.18861785957
 31
0.0
  0
LINE
  5
CE7
330
1F
100
AcDbEntity
  8
1
  6
Continuous
 62
     7
370
    13
100
AcDbLine
 10
18993.26303086929
 20
19588.48361785957
 30
0.0
 11
18993.26303086929
 21
19633.02461785958
 31
0.0
  0
LINE
  5
CE8
330
1F
100
AcDbEntity
  8
1
  6
Continuous
 62
     7
370
    13
100
AcDbLine
 10
18993.26303086929
 20
20256.59861785956
 30
0.0
 11
18993.26303086929
 21
20301.13961785957
 31
0.0
  0
LINE
  5
CE9
330
1F
100
AcDbEntity
  8
1
  6
Continuous
 62
     7
370
    13
100
AcDbLine
 10
18993.26303086929
 20
19321.23761785957
 30
0.0
 11
18993.26303086929
 21
19365.77861785957
 31
0.0
  0
LINE
  5
CEA
330
1F
100
AcDbEntity
  8
1
  6
Continuous
 62
     7
370
    13
100
AcDbLine
 10
18993.26303086929
 20
19365.77861785957
 30
0.0
 11
18993.26303086929
 21
19410.31961785956
 31
0.0
  0
LINE
  5
CEB
330
1F
100
AcDbEntity
  8
1
  6
Continuous
 62
     7
370
    13
100
AcDbLine
 10
18993.26303086929
 20
19143.07361785956
 30
0.0
 11
18993.26303086929
 21
19187.61461785958
 31
0.0
  0
LINE
  5
CEC
330
1F
100
AcDbEntity
  8
1
  6
Continuous
 62
     7
370
    13
100
AcDbLine
 10
18993.26303086929
 20
19098.53261785957
 30
0.0
 11
18993.26303086929
 21
19143.07361785956
 31
0.0
  0
LINE
  5
CED
330
1F
100
AcDbEntity
  8
1
  6
Continuous
 62
     7
370
    13
100
AcDbLine
 10
18993.26303086929
 20
18875.82761785958
 30
0.0
 11
18993.26303086929
 21
18920.36861785956
 31
0.0
  0
LINE
  5
CEE
330
1F
100
AcDbEntity
  8
1
  6
Continuous
 62
     7
370
    13
100
AcDbLine
 10
18993.26303086929
 20
18920.36861785956
 30
0.0
 11
18993.26303086929
 21
18964.90961785957
 31
0.0
  0
LINE
  5
CEF
330
1F
100
AcDbEntity
  8
1
  6
Continuous
 62
     7
370
    13
100
AcDbLine
 10
18993.26303086929
 20
19543.94261785956
 30
0.0
 11
18993.26303086929
 21
19588.48361785957
 31
0.0
  0
LINE
  5
CF0
330
1F
100
AcDbEntity
  8
1
  6
Continuous
 62
     7
370
    13
100
AcDbLine
 10
18458.770986328
 20
20301.13957331875
 30
0.0
 11
19082.34503086931
 21
20301.13961785957
 31
0.0
  0
LINE
  5
CF1
330
1F
100
AcDbEntity
  8
1
  6
Continuous
 62
     7
370
    13
100
AcDbLine
 10
19082.34503086931
 20
20212.05761785956
 30
0.0
 11
18458.77103086932
 21
20212.05761785956
 31
0.0
  0
LINE
  5
CF2
330
1F
100
AcDbEntity
  8
1
  6
Continuous
 62
     7
370
    13
100
AcDbLine
 10
18458.770986328
 20
20078.43461785957
 30
0.0
 11
19082.34503086931
 21
20078.43461785957
 31
0.0
  0
LINE
  5
CF3
330
1F
100
AcDbEntity
  8
1
  6
Continuous
 62
     7
370
    13
100
AcDbLine
 10
19082.34503086931
 20
19989.35261785957
 30
0.0
 11
18458.770986328
 21
19989.35261785957
 31
0.0
  0
LINE
  5
CF4
330
1F
100
AcDbEntity
  8
1
  6
Continuous
 62
     7
370
    13
100
AcDbLine
 10
18458.770986328
 20
19855.72966240091
 30
0.0
 11
19082.34503086931
 21
19855.72961785957
 31
0.0
  0
LINE
  5
CF5
330
1F
100
AcDbEntity
  8
1
  6
Continuous
 62
     7
370
    13
100
AcDbLine
 10
19082.34503086931
 20
19766.64761785957
 30
0.0
 11
18458.770986328
 21
19766.6476624009
 31
0.0
  0
LINE
  5
CF6
330
1F
100
AcDbEntity
  8
1
  6
Continuous
 62
     7
370
    13
100
AcDbLine
 10
18458.770986328
 20
19633.02457331874
 30
0.0
 11
19082.34503086931
 21
19633.02461785958
 31
0.0
  0
LINE
  5
CF7
330
1F
100
AcDbEntity
  8
1
  6
Continuous
 62
     7
370
    13
100
AcDbLine
 10
19082.34503086931
 20
19543.94261785956
 30
0.0
 11
18458.77103086932
 21
19543.94257331875
 31
0.0
  0
LINE
  5
CF8
330
1F
100
AcDbEntity
  8
1
  6
Continuous
 62
     7
370
    13
100
AcDbLine
 10
18458.770986328
 20
19410.31961785956
 30
0.0
 11
19082.34503086931
 21
19410.31961785956
 31
0.0
  0
LINE
  5
CF9
330
1F
100
AcDbEntity
  8
1
  6
Continuous
 62
     7
370
    13
100
AcDbLine
 10
19082.34503086931
 20
19321.23761785957
 30
0.0
 11
18458.770986328
 21
19321.23761785957
 31
0.0
  0
LINE
  5
CFA
330
1F
100
AcDbEntity
  8
1
  6
Continuous
 62
     7
370
    13
100
AcDbLine
 10
18458.770986328
 20
19187.61466240091
 30
0.0
 11
19082.34503086931
 21
19187.61461785958
 31
0.0
  0
LINE
  5
CFB
330
1F
100
AcDbEntity
  8
1
  6
Continuous
 62
     7
370
    13
100
AcDbLine
 10
19082.34503086931
 20
19098.53261785957
 30
0.0
 11
18458.770986328
 21
19098.53266240091
 31
0.0
  0
LINE
  5
CFC
330
1F
100
AcDbEntity
  8
1
  6
Continuous
 62
     7
370
    13
100
AcDbLine
 10
18458.770986328
 20
18964.90952877741
 30
0.0
 11
19082.34503086931
 21
18964.90957331874
 31
0.0
  0
LINE
  5
CFD
330
1F
100
AcDbEntity
  8
1
  6
Continuous
 62
     7
370
    13
100
AcDbLine
 10
19082.34503086931
 20
18875.82761785958
 30
0.0
 11
18458.77103086932
 21
18875.82757331874
 31
0.0
  0
ARC
  5
CFE
330
1F
100
AcDbEntity
  8
1
  6
Continuous
 62
     7
370
    13
100
AcDbCircle
 10
18458.770986328
 20
20479.30370694122
 30
0.0
 40
44.541
100
AcDbArc
 50
89.99999199753959
 51
269.9999919975396
  0
LINE
  5
CFF
330
1F
100
AcDbEntity
  8
1
  6
Continuous
 62
     7
370
    13
100
AcDbLine
 10
17078.00003086934
 20
21414.6645287774
 30
0.0
 11
18997.92522642073
 21
21314.04556349886
 31
0.0
  0
LINE
  5
D00
330
1F
100
AcDbEntity
  8
1
  6
Continuous
 62
     7
370
    13
100
AcDbLine
 10
18993.26303086929
 20
20479.30361785958
 30
0.0
 11
18993.26303086929
 21
20523.84461785957
 31
0.0
  0
LINE
  5
D01
330
1F
100
AcDbEntity
  8
1
  6
Continuous
 62
     7
370
    13
100
AcDbLine
 10
18993.26303086929
 20
20434.76261785958
 30
0.0
 11
18993.26303086929
 21
20479.30361785958
 31
0.0
  0
ARC
  5
D02
330
1F
100
AcDbEntity
  8
1
  6
Continuous
 62
     7
370
    13
100
AcDbCircle
 10
18993.26303086929
 20
21225.08565037926
 30
0.0
 40
89.082
100
AcDbArc
 50
0.0
 51
87.0000020016851
  0
LINE
  5
D03
330
1F
100
AcDbEntity
  8
1
  6
Continuous
 62
     7
370
    13
100
AcDbLine
 10
19082.34503086931
 20
20434.76257331874
 30
0.0
 11
18458.770986328
 21
20434.76266240091
 31
0.0
  0
LINE
  5
D04
330
1F
100
AcDbEntity
  8
1
  6
Continuous
 62
     7
370
    13
100
AcDbLine
 10
18458.770986328
 20
20523.84470694122
 30
0.0
 11
19082.34503086931
 21
20523.84461785957
 31
0.0
  0
LINE
  5
D05
330
1F
100
AcDbEntity
  8
1
  6
Continuous
 62
     7
370
    13
100
AcDbLine
 10
10606.09656684975
 20
12781.80585552743
 30
0.0
 11
11435.66431814119
 21
11110.36661434985
 31
0.0
  0
LINE
  5
D06
330
1F
100
AcDbEntity
  8
1
  6
Continuous
 62
     7
370
    13
100
AcDbLine
 10
11435.66431814119
 20
11110.36661434985
 30
0.0
 11
13817.56931401493
 21
11110.36661434985
 31
0.0
  0
TEXT
  5
D07
330
1F
100
AcDbEntity
  8
1
  6
Continuous
 62
     7
370
    13
100
AcDbText
 10
11435.66431814119
 20
11154.90761434985
 30
0.0
 40
378.142254879536
  1
シリンダー錠
 41
0.8854169999999999
  7
KANJI
100
AcDbText
  0
LINE
  5
D08
330
1F
100
AcDbEntity
  8
1
  6
Continuous
 62
     7
370
    13
100
AcDbLine
 10
10606.09656684975
 20
12781.80585552743
 30
0.0
 11
10747.47197244137
 21
12621.42484977765
 31
0.0
  0
LINE
  5
D09
330
1F
100
AcDbEntity
  8
1
  6
Continuous
 62
     7
370
    13
100
AcDbLine
 10
10606.09656684975
 20
12781.80585552743
 30
0.0
 11
10648.34076564353
 21
12572.2241039802
 31
0.0
  0
DIMENSION
  5
D0A
330
1F
100
AcDbEntity
  8
1
  6
Continuous
 62
     7
370
    13
100
AcDbDimension
  2
*D19
 10
12833.22638803448
 20
23929.47332734389
 30
0.0
 11
10156.36422255508
 21
23929.47332734389
 31
0.0
 70
   160
  1
120
 71
     5
 42
5344.919751620706
  3
Standard
100
AcDbAlignedDimension
 13
7488.306636413778
 23
22438.08573740045
 33
0.0
 14
12833.22638803448
 24
22268.04124418921
 34
0.0
100
AcDbRotatedDimension
1001
ACAD
1000
DSTYLE
1002
{
1070
    41
1040
500.0
1070
    73
1070
     0
1070
    77
1070
     1
1070
   140
1040
400.0
1070
   147
1040
50.0
1070
   173
1070
     1
1070
   343
1005
2B
1070
   344
1005
2B
1070
   371
1070
    13
1002
}
  0
DIMENSION
  5
D0B
330
1F
100
AcDbEntity
  8
1
  6
Continuous
 62
     7
370
    13
100
AcDbDimension
  2
*D20
 10
17078.00951810194
 20
23929.47332734389
 30
0.0
 11
16578.00951810194
 21
23929.47332734389
 31
0.0
 70
   160
  1
25
 71
     5
 42
1117.574337055848
  3
Standard
100
AcDbAlignedDimension
 13
15960.43518104609
 23
21778.05170181469
 33
0.0
 14
17078.00951810194
 24
22678.73801969546
 34
0.0
100
AcDbRotatedDimension
1001
ACAD
1000
DSTYLE
1002
{
1070
    41
1040
500.0
1070
    73
1070
     0
1070
    77
1070
     1
1070
   140
1040
400.0
1070
   147
1040
50.0
1070
   173
1070
     1
1070
   343
1005
2B
1070
   344
1005
2B
1070
   371
1070
    13
1002
}
  0
DIMENSION
  5
D0C
330
1F
100
AcDbEntity
  8
1
  6
Continuous
 62
     7
370
    13
100
AcDbDimension
  2
*D21
 10
19082.34503086928
 20
23933.05628436122
 30
0.0
 11
18073.49138086901
 21
23933.05628436122
 31
0.0
 70
   160
  1
45
 71
     5
 42
2017.707300000503
  3
Standard
100
AcDbAlignedDimension
 13
17064.63773086878
 23
22701.83701785958
 33
0.0
 14
19082.34503086928
 24
21225.08565037926
 34
0.0
100
AcDbRotatedDimension
1001
ACAD
1000
DSTYLE
1002
{
1070
    41
1040
500.0
1070
    73
1070
     0
1070
    77
1070
     1
1070
   140
1040
400.0
1070
   147
1040
50.0
1070
   173
1070
     1
1070
   343
1005
2B
1070
   344
1005
2B
1070
   371
1070
    13
1002
}
  0
DIMENSION
  5
D0D
330
1F
100
AcDbEntity
  8
1
  6
Continuous
 62
     7
370
    13
100
AcDbDimension
  2
*D22
 10
14111.67191645134
 20
12001.18661434987
 30
0.0
 11
13861.67191645135
 21
17346.08098097191
 31
0.0
 70
    32
  1
240
 71
     5
 42
10689.78873324407
  3
Standard
100
AcDbAlignedDimension
 13
12410.03176950434
 23
22690.97534759395
 33
0.0
 14
12410.03176950434
 24
12001.18661434987
 34
0.0
 50
270.0
100
AcDbRotatedDimension
1001
ACAD
1000
DSTYLE
1002
{
1070
    41
1040
500.0
1070
    73
1070
     0
1070
    77
1070
     1
1070
   140
1040
400.0
1070
   147
1040
50.0
1070
   173
1070
     1
1070
   343
1005
2B
1070
   344
1005
2B
1070
   371
1070
    13
1002
}
  0
DIMENSION
  5
D0E
330
1F
100
AcDbEntity
  8
1
  6
Continuous
 62
     7
370
    13
100
AcDbDimension
  2
*D23
 10
20323.0403638612
 20
21414.6645287774
 30
0.0
 11
20323.0403638612
 21
22075.14368174751
 31
0.0
 70
   160
  1
29
 71
     5
 42
1276.310818816549
  3
Standard
100
AcDbAlignedDimension
 13
17078.03422075659
 23
22690.97534759395
 33
0.0
 14
17078.00003086934
 24
21414.6645287774
 34
0.0
 50
270.0
100
AcDbRotatedDimension
1001
ACAD
1000
DSTYLE
1002
{
1070
    41
1040
500.0
1070
    73
1070
     0
1070
    77
1070
     1
1070
   140
1040
400.0
1070
   147
1040
50.0
1070
   173
1070
     1
1070
   343
1005
2B
1070
   344
1005
2B
1070
   371
1070
    13
1002
}
  0
DIMENSION
  5
D0F
330
1F
100
AcDbEntity
  8
1
  6
Continuous
 62
     7
370
    13
100
AcDbDimension
  2
*D24
 10
20323.0403638612
 20
14131.60433581682
 30
0.0
 11
20323.0403638612
 21
17773.92681668741
 31
0.0
 70
   160
  1
164
 71
     5
 42
7284.644961741185
  3
Standard
100
AcDbAlignedDimension
 13
17078.03422075657
 23
21416.249297558
 33
0.0
 14
17077.86036517798
 24
14131.60433581682
 34
0.0
 50
270.0
100
AcDbRotatedDimension
1001
ACAD
1000
DSTYLE
1002
{
1070
    41
1040
500.0
1070
    73
1070
     0
1070
    77
1070
     1
1070
   140
1040
400.0
1070
   147
1040
50.0
1070
   173
1070
     1
1070
   343
1005
2B
1070
   344
1005
2B
1070
   371
1070
    13
1002
}
  0
TEXT
  5
D10
330
1F
100
AcDbEntity
  8
1
  6
Continuous
 62
     7
370
    13
100
AcDbText
 10
5308.750667806729
 20
25437.59651204346
 30
0.0
 40
735.5708998221611
  1
非接触式カード対応ネットワークリーダ　ＮＷ－ＭＬ１０
 41
0.75
  7
KANJI
100
AcDbText
  0
LINE
  5
D11
330
1F
100
AcDbEntity
  8
1
  6
Continuous
 62
     7
370
    13
100
AcDbLine
 10
2542.515024609354
 20
25340.73902502154
 30
0.0
 11
4281.938712234332
 21
25340.73902502154
 31
0.0
  0
LINE
  5
D12
330
1F
100
AcDbEntity
  8
1
  6
Continuous
 62
     7
370
    13
100
AcDbLine
 10
2542.515024609354
 20
26244.42858422525
 30
0.0
 11
2542.515024609354
 21
25340.73902502154
 31
0.0
  0
LINE
  5
D13
330
1F
100
AcDbEntity
  8
1
  6
Continuous
 62
     7
370
    13
100
AcDbLine
 10
4281.938712234332
 20
25340.73902502154
 30
0.0
 11
4281.938712234332
 21
26244.42858422525
 31
0.0
  0
LINE
  5
D14
330
1F
100
AcDbEntity
  8
1
  6
Continuous
 62
     7
370
    13
100
AcDbLine
 10
4281.938712234332
 20
26244.42858422525
 30
0.0
 11
2542.515024609354
 21
26244.42858422525
 31
0.0
  0
LINE
  5
D15
330
1F
100
AcDbEntity
  8
1
  6
Continuous
 62
     7
370
    13
100
AcDbLine
 10
4281.938712234332
 20
26244.42858422525
 30
0.0
 11
2542.515024609354
 21
25340.73902502154
 31
0.0
  0
TEXT
  5
D16
330
1F
100
AcDbEntity
  8
1
  6
Continuous
 62
     7
370
    13
100
AcDbText
 10
3420.617162529335
 20
25340.73902502154
 30
0.0
 40
459.8415360000002
  1
ＭＬ１０
 41
0.4
  7
KANJI
100
AcDbText
  0
TEXT
  5
D17
330
1F
100
AcDbEntity
  8
1
  6
Continuous
 62
     7
370
    13
100
AcDbText
 10
3860.065044231494
 20
8968.431693993275
 30
0.0
 40
447.9946116360424
  1
材　質
 41
0.944444
  7
KANJI
100
AcDbText
  0
TEXT
  5
D18
330
1F
100
AcDbEntity
  8
1
  6
Continuous
 62
     7
370
    13
100
AcDbText
 10
4266.978388347793
 20
9630.180966288667
 30
0.0
 40
447.9946116360424
  1
項　目
 41
0.944444
  7
KANJI
100
AcDbText
  0
LINE
  5
D19
330
1F
100
AcDbEntity
  8
1
  6
Continuous
 62
     7
370
    13
100
AcDbLine
 10
3535.718085146
 20
10141.23498779446
 30
0.0
 11
22601.09095375468
 21
10141.23498779446
 31
0.0
  0
LINE
  5
D1A
330
1F
100
AcDbEntity
  8
1
  6
Continuous
 62
     7
370
    13
100
AcDbLine
 10
3535.718085146
 20
9500.208198052105
 30
0.0
 11
22601.09095375468
 21
9500.208198052105
 31
0.0
  0
TEXT
  5
D1B
330
1F
100
AcDbEntity
  8
1
  6
Continuous
 62
     7
370
    13
100
AcDbText
 10
13351.30809755368
 20
9630.180966288667
 30
0.0
 40
447.9946116360424
  1
内　容
 41
0.944444
  7
KANJI
100
AcDbText
  0
TEXT
  5
D1C
330
1F
100
AcDbEntity
  8
1
  6
Continuous
 62
     7
370
    13
100
AcDbText
 10
3860.065044231494
 20
8337.147193691141
 30
0.0
 40
447.9946116360424
  1
仕　上
 41
0.944444
  7
KANJI
100
AcDbText
  0
TEXT
  5
D1D
330
1F
100
AcDbEntity
  8
1
  6
Continuous
 62
     7
370
    13
100
AcDbText
 10
3860.065044231494
 20
7717.261797079948
 30
0.0
 40
447.9946116360424
  1
彩　色
 41
0.944444
  7
KANJI
100
AcDbText
  0
TEXT
  5
D1E
330
1F
100
AcDbEntity
  8
1
  6
Continuous
 62
     7
370
    13
100
AcDbText
 10
6555.951872588209
 20
8968.431693993275
 30
0.0
 40
447.9946116360424
  1
樹　脂
 41
0.944444
  7
KANJI
100
AcDbText
  0
TEXT
  5
D1F
330
1F
100
AcDbEntity
  8
1
  6
Continuous
 62
     7
370
    13
100
AcDbText
 10
6548.26470398101
 20
8337.147193691141
 30
0.0
 40
447.9946116360424
  1
光沢仕上げ
 41
0.944444
  7
KANJI
100
AcDbText
  0
TEXT
  5
D20
330
1F
100
AcDbEntity
  8
1
  6
Continuous
 62
     7
370
    13
100
AcDbText
 10
6548.26470398101
 20
7717.261797079948
 30
0.0
 40
447.9946116360424
  1
白　色
 41
0.944444
  7
KANJI
100
AcDbText
  0
TEXT
  5
D21
330
1F
100
AcDbEntity
  8
1
  6
Continuous
 62
     7
370
    13
100
AcDbText
 10
3860.065044231494
 20
6387.645744221344
 30
0.0
 40
447.9946116360424
  1
入力電源
 41
0.944444
  7
KANJI
100
AcDbText
  0
TEXT
  5
D22
330
1F
100
AcDbEntity
  8
1
  6
Continuous
 62
     7
370
    13
100
AcDbText
 10
3860.065044231494
 20
7056.742873516909
 30
0.0
 40
447.9946116360424
  1
重　量
 41
0.944444
  7
KANJI
100
AcDbText
  0
TEXT
  5
D23
330
1F
100
AcDbEntity
  8
1
  6
Continuous
 62
     7
370
    13
100
AcDbText
 10
6548.26470398101
 20
7056.742873516909
 30
0.0
 40
447.9946116360424
  1
約６６０ｇ
 41
0.944444
  7
KANJI
100
AcDbText
  0
TEXT
  5
D24
330
1F
100
AcDbEntity
  8
1
  6
Continuous
 62
     7
370
    13
100
AcDbText
 10
6548.26470398101
 20
6387.645744221344
 30
0.0
 40
447.9946116360424
  1
ＡＣ１００Ｖ±１０％　または　ＤＣ２４Ｖ　１．２Ａ以上
 41
0.8872049999999999
  7
KANJI
100
AcDbText
  0
TEXT
  5
D25
330
1F
100
AcDbEntity
  8
1
  6
Continuous
 62
     7
370
    13
100
AcDbText
 10
3860.065044231494
 20
5102.892765376076
 30
0.0
 40
447.9946116360424
  1
適応カード
 41
0.8
  7
KANJI
100
AcDbText
  0
LINE
  5
D26
330
1F
100
AcDbEntity
  8
1
  6
Continuous
 62
     7
370
    13
100
AcDbLine
 10
6343.779115898433
 20
10141.23498779446
 30
0.0
 11
6343.779115898433
 21
2407.853159135135
 31
0.0
  0
LINE
  5
D27
330
1F
100
AcDbEntity
  8
1
  6
Continuous
 62
     7
370
    13
100
AcDbLine
 10
22601.09095375468
 20
10141.23498779446
 30
0.0
 11
22601.09095375468
 21
2407.853159135135
 31
0.0
  0
LINE
  5
D28
330
1F
100
AcDbEntity
  8
1
  6
Continuous
 62
     7
370
    13
100
AcDbLine
 10
3535.718085146
 20
10141.23498779446
 30
0.0
 11
3535.718085146
 21
2407.853159135135
 31
0.0
  0
TEXT
  5
D29
330
1F
100
AcDbEntity
  8
1
  6
Continuous
 62
     7
370
    13
100
AcDbText
 10
6548.26470398101
 20
5102.892765376076
 30
0.0
 40
447.9946116360424
  1
ＭＩＦＡＲＥ対応カード／ＦｅｌｉＣａ対応カード
 41
0.944444
  7
KANJI
100
AcDbText
  0
TEXT
  5
D2A
330
1F
100
AcDbEntity
  8
1
  6
Continuous
 62
     7
370
    13
100
AcDbText
 10
6548.26470398101
 20
4460.914123272115
 30
0.0
 40
447.9946116360424
  1
約２ｃｍ（周囲の環境により異なる）
 41
0.944444
  7
KANJI
100
AcDbText
  0
TEXT
  5
D2B
330
1F
100
AcDbEntity
  8
1
  6
Continuous
 62
     7
370
    13
100
AcDbText
 10
3860.065044231494
 20
3848.009659868242
 30
0.0
 40
447.9946116360424
  1
ネットワーク
 41
0.75
  7
KANJI
100
AcDbText
  0
TEXT
  5
D2C
330
1F
100
AcDbEntity
  8
1
  6
Continuous
 62
     7
370
    13
100
AcDbText
 10
6548.26470398101
 20
3848.009659868242
 30
0.0
 40
447.9946116360424
  1
ＬＡＮ(Ｆａｓｔ Ｅｔｈｅｒｎｅｔ)
 41
0.8872049999999999
  7
KANJI
100
AcDbText
  0
TEXT
  5
D2D
330
1F
100
AcDbEntity
  8
1
  6
Continuous
 62
     7
370
    13
100
AcDbText
 10
3860.065044231494
 20
5764.138713188586
 30
0.0
 40
447.9946116360424
  1
消費電力
 41
0.944444
  7
KANJI
100
AcDbText
  0
TEXT
  5
D2E
330
1F
100
AcDbEntity
  8
1
  6
Continuous
 62
     7
370
    13
100
AcDbText
 10
6548.26470398101
 20
5764.138713188586
 30
0.0
 40
447.9946116360424
  1
１１Ｗ
 41
0.8872049999999999
  7
KANJI
100
AcDbText
  0
LINE
  5
D2F
330
1F
100
AcDbEntity
  8
1
  6
Continuous
 62
     7
370
    13
100
AcDbLine
 10
3535.718085146
 20
8859.181408309698
 30
0.0
 11
22601.09095375468
 21
8859.181408309698
 31
0.0
  0
LINE
  5
D30
330
1F
100
AcDbEntity
  8
1
  6
Continuous
 62
     7
370
    13
100
AcDbLine
 10
3535.718085146
 20
8218.154618567336
 30
0.0
 11
22601.09095375468
 21
8218.154618563742
 31
0.0
  0
LINE
  5
D31
330
1F
100
AcDbEntity
  8
1
  6
Continuous
 62
     7
370
    13
100
AcDbLine
 10
3535.718085146
 20
7577.127828821351
 30
0.0
 11
22601.09095375468
 21
7577.127828821351
 31
0.0
  0
LINE
  5
D32
330
1F
100
AcDbEntity
  8
1
  6
Continuous
 62
     7
370
    13
100
AcDbLine
 10
3535.718085146
 20
6295.074249336583
 30
0.0
 11
22601.09095375468
 21
6295.074249336583
 31
0.0
  0
LINE
  5
D33
330
1F
100
AcDbEntity
  8
1
  6
Continuous
 62
     7
370
    13
100
AcDbLine
 10
3535.718085146
 20
5654.047459594221
 30
0.0
 11
22601.09095375468
 21
5654.047459594221
 31
0.0
  0
LINE
  5
D34
330
1F
100
AcDbEntity
  8
1
  6
Continuous
 62
     7
370
    13
100
AcDbLine
 10
3535.718085146
 20
4361.728792174442
 30
0.0
 11
22601.09095375468
 21
4361.728792170863
 31
0.0
  0
LINE
  5
D35
330
1F
100
AcDbEntity
  8
1
  6
Continuous
 62
     7
370
    13
100
AcDbLine
 10
3535.718085146
 20
3710.436914493504
 30
0.0
 11
22601.09095375468
 21
3710.436914493504
 31
0.0
  0
LINE
  5
D36
330
1F
100
AcDbEntity
  8
1
  6
Continuous
 62
     7
370
    13
100
AcDbLine
 10
3535.718085146029
 20
6936.101039075366
 30
0.0
 11
22601.09095375468
 21
6936.101039075366
 31
0.0
  0
LINE
  5
D37
330
1F
100
AcDbEntity
  8
1
  6
Continuous
 62
     7
370
    13
100
AcDbLine
 10
3535.718085146
 20
5013.02066985186
 30
0.0
 11
22601.09095375468
 21
5013.02066985186
 31
0.0
  0
TEXT
  5
D38
330
1F
100
AcDbEntity
  8
1
  6
Continuous
 62
     7
370
    13
100
AcDbText
 10
3860.065044231523
 20
4482.085133703861
 30
0.0
 40
447.9946116360424
  1
感知距離
 41
0.944444
  7
KANJI
100
AcDbText
  0
TEXT
  5
D39
330
1F
100
AcDbEntity
  8
1
  6
Continuous
 62
     7
370
    13
100
AcDbText
 10
6548.26470398101
 20
3158.330367913746
 30
0.0
 40
447.9946116360424
  1
接点容量　ＤＣ２４Ｖ ０．１Ａ以上
 41
0.944444
  7
KANJI
100
AcDbText
  0
TEXT
  5
D3A
330
1F
100
AcDbEntity
  8
1
  6
Continuous
 62
     7
370
    13
100
AcDbText
 10
3860.065044231494
 20
2545.425904509873
 30
0.0
 40
447.9946116360424
  1
外部出力
 41
0.944444
  7
KANJI
100
AcDbText
  0
TEXT
  5
D3B
330
1F
100
AcDbEntity
  8
1
  6
Continuous
 62
     7
370
    13
100
AcDbText
 10
6548.26470398101
 20
2545.425904509873
 30
0.0
 40
447.9946116360424
  1
接点容量　ＤＣ２４Ｖ ０．３Ａ以下
 41
0.944444
  7
KANJI
100
AcDbText
  0
LINE
  5
D3C
330
1F
100
AcDbEntity
  8
1
  6
Continuous
 62
     7
370
    13
100
AcDbLine
 10
3535.718085146
 20
3059.145036816073
 30
0.0
 11
22601.09095375468
 21
3059.145036812493
 31
0.0
  0
LINE
  5
D3D
330
1F
100
AcDbEntity
  8
1
  6
Continuous
 62
     7
370
    13
100
AcDbLine
 10
3535.718085146
 20
2407.853159135135
 30
0.0
 11
22601.09095375468
 21
2407.853159135135
 31
0.0
  0
TEXT
  5
D3E
330
1F
100
AcDbEntity
  8
1
  6
Continuous
 62
     7
370
    13
100
AcDbText
 10
3860.065044231523
 20
3179.501378345507
 30
0.0
 40
447.9946116360424
  1
外部入力
 41
0.944444
  7
KANJI
100
AcDbText
  0
ENDSEC
  0
SECTION
  2
OBJECTS
  0
DICTIONARY
  5
C
330
0
100
AcDbDictionary
281
     1
  3
ACAD_GROUP
350
D
  3
ACAD_LAYOUT
350
1A
  3
ACAD_MLINESTYLE
350
17
  3
ACAD_PLOTSETTINGS
350
19
  3
ACAD_PLOTSTYLENAME
350
E
  3
AcDbVariableDictionary
350
339
  0
DICTIONARY
  5
73
330
2
100
AcDbDictionary
280
     1
281
     1
  3
ACAD_LAYERSTATES
360
74
  0
DICTIONARY
  5
D
102
{ACAD_REACTORS
330
C
102
}
330
C
100
AcDbDictionary
281
     1
  0
DICTIONARY
  5
1A
102
{ACAD_REACTORS
330
C
102
}
330
C
100
AcDbDictionary
281
     1
  3
Model
350
22
  3
ﾚｲｱｳﾄ1
350
1E
  3
ﾚｲｱｳﾄ2
350
26
  0
DICTIONARY
  5
17
102
{ACAD_REACTORS
330
C
102
}
330
C
100
AcDbDictionary
281
     1
  3
Standard
350
18
  0
DICTIONARY
  5
19
102
{ACAD_REACTORS
330
C
102
}
330
C
100
AcDbDictionary
281
     1
  0
ACDBDICTIONARYWDFLT
  5
E
102
{ACAD_REACTORS
330
C
102
}
330
C
100
AcDbDictionary
281
     1
  3
Normal
350
F
100
AcDbDictionaryWithDefault
340
F
  0
DICTIONARY
  5
339
102
{ACAD_REACTORS
330
C
102
}
330
C
100
AcDbDictionary
281
     1
  3
DIMASSOC
350
33B
  3
HIDETEXT
350
33A
  0
DICTIONARY
  5
74
102
{ACAD_REACTORS
330
73
102
}
330
73
100
AcDbDictionary
281
     1
  0
LAYOUT
  5
22
102
{ACAD_REACTORS
330
1A
102
}
330
1A
100
AcDbPlotSettings
  1

  2
RICOH imagio MP C4500 RPCS
  4

  6

 40
0.0
 41
0.0
 42
0.0
 43
0.0
 44
0.0
 45
0.0
 46
0.0
 47
0.0
 48
0.0
 49
0.0
140
0.0
141
0.0
142
1.0
143
1.0
 70
  1712
 72
     0
 73
     0
 74
     0
  7

 75
     0
147
1.0
148
0.0
149
0.0
100
AcDbLayout
  1
Model
 70
     1
 71
     0
 10
0.0
 20
0.0
 11
12.0
 21
9.0
 12
0.0
 22
0.0
 32
0.0
 14
0.0
 24
0.0
 34
0.0
 15
0.0
 25
0.0
 35
0.0
146
0.0
 13
0.0
 23
0.0
 33
0.0
 16
1.0
 26
0.0
 36
0.0
 17
0.0
 27
1.0
 37
0.0
 76
     0
330
1F
  0
LAYOUT
  5
1E
102
{ACAD_REACTORS
330
1A
102
}
330
1A
100
AcDbPlotSettings
  1

  2
RICOH imagio MP C4500 RPCS
  4

  6

 40
0.0
 41
0.0
 42
0.0
 43
0.0
 44
0.0
 45
0.0
 46
0.0
 47
0.0
 48
0.0
 49
0.0
140
0.0
141
0.0
142
1.0
143
1.0
 70
   688
 72
     0
 73
     0
 74
     5
  7

 75
    16
147
1.0
148
0.0
149
0.0
100
AcDbLayout
  1
ﾚｲｱｳﾄ1
 70
     1
 71
     1
 10
0.0
 20
0.0
 11
420.0
 21
297.0
 12
0.0
 22
0.0
 32
0.0
 14
1.000000000000000E+20
 24
1.000000000000000E+20
 34
1.000000000000000E+20
 15
-1.000000000000000E+20
 25
-1.000000000000000E+20
 35
-1.000000000000000E+20
146
0.0
 13
0.0
 23
0.0
 33
0.0
 16
1.0
 26
0.0
 36
0.0
 17
0.0
 27
1.0
 37
0.0
 76
     0
330
1B
  0
LAYOUT
  5
26
102
{ACAD_REACTORS
330
1A
102
}
330
1A
100
AcDbPlotSettings
  1

  2
RICOH imagio MP C4500 RPCS
  4

  6

 40
0.0
 41
0.0
 42
0.0
 43
0.0
 44
0.0
 45
0.0
 46
0.0
 47
0.0
 48
0.0
 49
0.0
140
0.0
141
0.0
142
1.0
143
1.0
 70
   688
 72
     0
 73
     0
 74
     5
  7

 75
    16
147
1.0
148
0.0
149
0.0
100
AcDbLayout
  1
ﾚｲｱｳﾄ2
 70
     1
 71
     2
 10
0.0
 20
0.0
 11
12.0
 21
9.0
 12
0.0
 22
0.0
 32
0.0
 14
0.0
 24
0.0
 34
0.0
 15
0.0
 25
0.0
 35
0.0
146
0.0
 13
0.0
 23
0.0
 33
0.0
 16
1.0
 26
0.0
 36
0.0
 17
0.0
 27
1.0
 37
0.0
 76
     0
330
23
  0
MLINESTYLE
  5
18
102
{ACAD_REACTORS
330
17
102
}
330
17
100
AcDbMlineStyle
  2
STANDARD
 70
     0
  3

 62
   256
 51
90.0
 52
90.0
 71
     2
 49
0.5
 62
   256
  6
BYLAYER
 49
-0.5
 62
   256
  6
BYLAYER
  0
ACDBPLACEHOLDER
  5
F
102
{ACAD_REACTORS
330
E
102
}
330
E
  0
DICTIONARYVAR
  5
33B
102
{ACAD_REACTORS
330
339
102
}
330
339
100
DictionaryVariables
280
     0
  1
2
  0
DICTIONARYVAR
  5
33A
102
{ACAD_REACTORS
330
339
102
}
330
339
100
DictionaryVariables
280
     0
  1
1
  0
ENDSEC
  0
EOF
