  0
SECTION
  2
HEADER
  9
$ACADVER
  1
AC1015
  9
$ACADMAINTVER
 70
    13
  9
$DWGCODEPAGE
  3
ANSI_932
  9
$INSBASE
 10
0.0
 20
0.0
 30
0.0
  9
$EXTMIN
 10
50.83860713600916
 20
-24793.95355718863
 30
0.0
  9
$EXTMAX
 10
23837.48088345688
 20
26461.91624055487
 30
0.0
  9
$LIMMIN
 10
0.0
 20
0.0
  9
$LIMMAX
 10
420.0
 20
297.0
  9
$ORTHOMODE
 70
     0
  9
$REGENMODE
 70
     1
  9
$FILLMODE
 70
     1
  9
$QTEXTMODE
 70
     0
  9
$MIRRTEXT
 70
     1
  9
$LTSCALE
 40
1.0
  9
$ATTMODE
 70
     1
  9
$TEXTSIZE
 40
2.5
  9
$TRACEWID
 40
1.0
  9
$TEXTSTYLE
  7
Standard
  9
$CLAYER
  8
0
  9
$CELTYPE
  6
ByLayer
  9
$CECOLOR
 62
   256
  9
$CELTSCALE
 40
1.0
  9
$DISPSILH
 70
     0
  9
$DIMSCALE
 40
1.0
  9
$DIMASZ
 40
2.5
  9
$DIMEXO
 40
0.625
  9
$DIMDLI
 40
3.75
  9
$DIMRND
 40
0.0
  9
$DIMDLE
 40
0.0
  9
$DIMEXE
 40
1.25
  9
$DIMTP
 40
0.0
  9
$DIMTM
 40
0.0
  9
$DIMTXT
 40
2.5
  9
$DIMCEN
 40
2.5
  9
$DIMTSZ
 40
0.0
  9
$DIMTOL
 70
     0
  9
$DIMLIM
 70
     0
  9
$DIMTIH
 70
     0
  9
$DIMTOH
 70
     0
  9
$DIMSE1
 70
     0
  9
$DIMSE2
 70
     0
  9
$DIMTAD
 70
     1
  9
$DIMZIN
 70
     8
  9
$DIMBLK
  1

  9
$DIMASO
 70
     1
  9
$DIMSHO
 70
     1
  9
$DIMPOST
  1

  9
$DIMAPOST
  1

  9
$DIMALT
 70
     0
  9
$DIMALTD
 70
     3
  9
$DIMALTF
 40
0.03937007874016
  9
$DIMLFAC
 40
1.0
  9
$DIMTOFL
 70
     1
  9
$DIMTVP
 40
0.0
  9
$DIMTIX
 70
     0
  9
$DIMSOXD
 70
     0
  9
$DIMSAH
 70
     0
  9
$DIMBLK1
  1

  9
$DIMBLK2
  1

  9
$DIMSTYLE
  2
ISO-25
  9
$DIMCLRD
 70
     0
  9
$DIMCLRE
 70
     0
  9
$DIMCLRT
 70
     0
  9
$DIMTFAC
 40
1.0
  9
$DIMGAP
 40
0.625
  9
$DIMJUST
 70
     0
  9
$DIMSD1
 70
     0
  9
$DIMSD2
 70
     0
  9
$DIMTOLJ
 70
     0
  9
$DIMTZIN
 70
     8
  9
$DIMALTZ
 70
     0
  9
$DIMALTTZ
 70
     0
  9
$DIMUPT
 70
     0
  9
$DIMDEC
 70
     2
  9
$DIMTDEC
 70
     2
  9
$DIMALTU
 70
     2
  9
$DIMALTTD
 70
     3
  9
$DIMTXSTY
  7
Standard
  9
$DIMAUNIT
 70
     0
  9
$DIMADEC
 70
     0
  9
$DIMALTRND
 40
0.0
  9
$DIMAZIN
 70
     0
  9
$DIMDSEP
 70
    46
  9
$DIMATFIT
 70
     3
  9
$DIMFRAC
 70
     0
  9
$DIMLDRBLK
  1

  9
$DIMLUNIT
 70
     2
  9
$DIMLWD
 70
    -2
  9
$DIMLWE
 70
    -2
  9
$DIMTMOVE
 70
     0
  9
$LUNITS
 70
     2
  9
$LUPREC
 70
     4
  9
$SKETCHINC
 40
1.0
  9
$FILLETRAD
 40
10.0
  9
$AUNITS
 70
     0
  9
$AUPREC
 70
     0
  9
$MENU
  1
.
  9
$ELEVATION
 40
0.0
  9
$PELEVATION
 40
0.0
  9
$THICKNESS
 40
0.0
  9
$LIMCHECK
 70
     0
  9
$CHAMFERA
 40
10.0
  9
$CHAMFERB
 40
10.0
  9
$CHAMFERC
 40
20.0
  9
$CHAMFERD
 40
0.0
  9
$SKPOLY
 70
     0
  9
$TDCREATE
 40
2455236.663561527
  9
$TDUCREATE
 40
2455236.288561527
  9
$TDUPDATE
 40
2455442.723897685
  9
$TDUUPDATE
 40
2455442.348897685
  9
$TDINDWG
 40
0.0018667708
  9
$TDUSRTIMER
 40
0.0018656829
  9
$USRTIMER
 70
     1
  9
$ANGBASE
 50
0.0
  9
$ANGDIR
 70
     0
  9
$PDMODE
 70
     0
  9
$PDSIZE
 40
0.0
  9
$PLINEWID
 40
0.0
  9
$SPLFRAME
 70
     0
  9
$SPLINETYPE
 70
     6
  9
$SPLINESEGS
 70
     8
  9
$HANDSEED
  5
601
  9
$SURFTAB1
 70
     6
  9
$SURFTAB2
 70
     6
  9
$SURFTYPE
 70
     6
  9
$SURFU
 70
     6
  9
$SURFV
 70
     6
  9
$UCSBASE
  2

  9
$UCSNAME
  2

  9
$UCSORG
 10
0.0
 20
0.0
 30
0.0
  9
$UCSXDIR
 10
1.0
 20
0.0
 30
0.0
  9
$UCSYDIR
 10
0.0
 20
1.0
 30
0.0
  9
$UCSORTHOREF
  2

  9
$UCSORTHOVIEW
 70
     0
  9
$UCSORGTOP
 10
0.0
 20
0.0
 30
0.0
  9
$UCSORGBOTTOM
 10
0.0
 20
0.0
 30
0.0
  9
$UCSORGLEFT
 10
0.0
 20
0.0
 30
0.0
  9
$UCSORGRIGHT
 10
0.0
 20
0.0
 30
0.0
  9
$UCSORGFRONT
 10
0.0
 20
0.0
 30
0.0
  9
$UCSORGBACK
 10
0.0
 20
0.0
 30
0.0
  9
$PUCSBASE
  2

  9
$PUCSNAME
  2

  9
$PUCSORG
 10
0.0
 20
0.0
 30
0.0
  9
$PUCSXDIR
 10
1.0
 20
0.0
 30
0.0
  9
$PUCSYDIR
 10
0.0
 20
1.0
 30
0.0
  9
$PUCSORTHOREF
  2

  9
$PUCSORTHOVIEW
 70
     0
  9
$PUCSORGTOP
 10
0.0
 20
0.0
 30
0.0
  9
$PUCSORGBOTTOM
 10
0.0
 20
0.0
 30
0.0
  9
$PUCSORGLEFT
 10
0.0
 20
0.0
 30
0.0
  9
$PUCSORGRIGHT
 10
0.0
 20
0.0
 30
0.0
  9
$PUCSORGFRONT
 10
0.0
 20
0.0
 30
0.0
  9
$PUCSORGBACK
 10
0.0
 20
0.0
 30
0.0
  9
$USERI1
 70
     0
  9
$USERI2
 70
     0
  9
$USERI3
 70
     0
  9
$USERI4
 70
     0
  9
$USERI5
 70
     0
  9
$USERR1
 40
0.0
  9
$USERR2
 40
0.0
  9
$USERR3
 40
0.0
  9
$USERR4
 40
0.0
  9
$USERR5
 40
0.0
  9
$WORLDVIEW
 70
     1
  9
$SHADEDGE
 70
     3
  9
$SHADEDIF
 70
    70
  9
$TILEMODE
 70
     1
  9
$MAXACTVP
 70
    64
  9
$PINSBASE
 10
0.0
 20
0.0
 30
0.0
  9
$PLIMCHECK
 70
     0
  9
$PEXTMIN
 10
1.000000000000000E+20
 20
1.000000000000000E+20
 30
1.000000000000000E+20
  9
$PEXTMAX
 10
-1.000000000000000E+20
 20
-1.000000000000000E+20
 30
-1.000000000000000E+20
  9
$PLIMMIN
 10
0.0
 20
0.0
  9
$PLIMMAX
 10
420.0
 20
297.0
  9
$UNITMODE
 70
     0
  9
$VISRETAIN
 70
     1
  9
$PLINEGEN
 70
     0
  9
$PSLTSCALE
 70
     1
  9
$TREEDEPTH
 70
  3020
  9
$CMLSTYLE
  2
Standard
  9
$CMLJUST
 70
     0
  9
$CMLSCALE
 40
20.0
  9
$PROXYGRAPHICS
 70
     1
  9
$MEASUREMENT
 70
     1
  9
$CELWEIGHT
370
    -1
  9
$ENDCAPS
280
     0
  9
$JOINSTYLE
280
     0
  9
$LWDISPLAY
290
     0
  9
$INSUNITS
 70
     4
  9
$HYPERLINKBASE
  1

  9
$STYLESHEET
  1

  9
$XEDIT
290
     1
  9
$CEPSNTYPE
380
     0
  9
$PSTYLEMODE
290
     1
  9
$FINGERPRINTGUID
  2
{55D281FF-F51E-4FF9-9C6C-9C21EC1AA7A1}
  9
$VERSIONGUID
  2
{CF922566-CB15-401B-A349-2D06CB455014}
  9
$EXTNAMES
290
     1
  9
$PSVPSCALE
 40
0.0
  9
$OLESTARTUP
290
     0
  0
ENDSEC
  0
SECTION
  2
CLASSES
  0
CLASS
  1
ACDBDICTIONARYWDFLT
  2
AcDbDictionaryWithDefault
  3
AutoCAD 2000
 90
        0
280
     0
281
     0
  0
CLASS
  1
ACDBPLACEHOLDER
  2
AcDbPlaceHolder
  3
AutoCAD 2000
 90
        0
280
     0
281
     0
  0
CLASS
  1
LAYOUT
  2
AcDbLayout
  3
AutoCAD 2000
 90
        0
280
     0
281
     0
  0
CLASS
  1
DICTIONARYVAR
  2
AcDbDictionaryVar
  3
AutoCAD 2000
 90
        0
280
     0
281
     0
  0
ENDSEC
  0
SECTION
  2
TABLES
  0
TABLE
  2
VPORT
  5
8
330
0
100
AcDbSymbolTable
 70
     2
  0
VPORT
  5
600
330
8
100
AcDbSymbolTableRecord
100
AcDbViewportTableRecord
  2
*Active
 70
     0
 10
0.0
 20
0.0
 11
1.0
 21
1.0
 12
15862.07913417864
 22
12578.0220144326
 13
0.0
 23
0.0
 14
10.0
 24
10.0
 15
10.0
 25
10.0
 16
0.0
 26
0.0
 36
1.0
 17
0.0
 27
0.0
 37
0.0
 40
35827.45002392823
 41
1.372384937238493
 42
50.0
 43
0.0
 44
0.0
 50
0.0
 51
0.0
 71
     0
 72
   100
 73
     1
 74
     3
 75
     0
 76
     0
 77
     0
 78
     0
281
     0
 65
     1
110
0.0
120
0.0
130
0.0
111
1.0
121
0.0
131
0.0
112
0.0
122
1.0
132
0.0
 79
     0
146
0.0
  0
ENDTAB
  0
TABLE
  2
LTYPE
  5
5
330
0
100
AcDbSymbolTable
 70
     2
  0
LTYPE
  5
14
330
5
100
AcDbSymbolTableRecord
100
AcDbLinetypeTableRecord
  2
ByBlock
 70
     0
  3

 72
    65
 73
     0
 40
0.0
  0
LTYPE
  5
15
330
5
100
AcDbSymbolTableRecord
100
AcDbLinetypeTableRecord
  2
ByLayer
 70
     0
  3

 72
    65
 73
     0
 40
0.0
  0
LTYPE
  5
16
330
5
100
AcDbSymbolTableRecord
100
AcDbLinetypeTableRecord
  2
Continuous
 70
     0
  3
Solid line
 72
    65
 73
     0
 40
0.0
  0
LTYPE
  5
3AE
330
5
100
AcDbSymbolTableRecord
100
AcDbLinetypeTableRecord
  2
DASHDOT
 70
     0
  3
--･--･--･--･--･--･--･--
 72
    65
 73
     4
 40
50.5
 49
30.0
 74
     0
 49
-9.0
 74
     0
 49
2.5
 74
     0
 49
-9.0
 74
     0
  0
ENDTAB
  0
TABLE
  2
LAYER
  5
2
102
{ACAD_XDICTIONARY
360
73
102
}
330
0
100
AcDbSymbolTable
 70
     3
  0
LAYER
  5
10
330
2
100
AcDbSymbolTableRecord
100
AcDbLayerTableRecord
  2
0
 70
     0
 62
     7
  6
Continuous
370
    -3
390
F
  0
LAYER
  5
6E
330
2
100
AcDbSymbolTableRecord
100
AcDbLayerTableRecord
  2
1
 70
     0
 62
     7
  6
Continuous
370
    -3
390
F
  0
LAYER
  5
6F
330
2
100
AcDbSymbolTableRecord
100
AcDbLayerTableRecord
  2
DEFPOINTS
 70
     0
 62
     7
  6
Continuous
290
     0
370
    -3
390
F
  0
ENDTAB
  0
TABLE
  2
STYLE
  5
3
330
0
100
AcDbSymbolTable
 70
     2
  0
STYLE
  5
11
330
3
100
AcDbSymbolTableRecord
100
AcDbTextStyleTableRecord
  2
Standard
 70
     0
 40
0.0
 41
1.0
 50
0.0
 71
     0
 42
2.5
  3
txt
  4

  0
STYLE
  5
70
330
3
100
AcDbSymbolTableRecord
100
AcDbTextStyleTableRecord
  2
KANJI
 70
     0
 40
0.0
 41
1.0
 50
0.0
 71
     0
 42
0.2
  3
TXT
  4
BIGFONT
  0
ENDTAB
  0
TABLE
  2
VIEW
  5
6
330
0
100
AcDbSymbolTable
 70
     0
  0
ENDTAB
  0
TABLE
  2
UCS
  5
7
330
0
100
AcDbSymbolTable
 70
     0
  0
ENDTAB
  0
TABLE
  2
APPID
  5
9
330
0
100
AcDbSymbolTable
 70
     2
  0
APPID
  5
12
330
9
100
AcDbSymbolTableRecord
100
AcDbRegAppTableRecord
  2
ACAD
 70
     0
  0
APPID
  5
72
330
9
100
AcDbSymbolTableRecord
100
AcDbRegAppTableRecord
  2
ACAD_PSEXT
 70
     0
  0
ENDTAB
  0
TABLE
  2
DIMSTYLE
  5
A
330
0
100
AcDbSymbolTable
 70
     2
100
AcDbDimStyleTable
 71
     0
  0
DIMSTYLE
105
27
330
A
100
AcDbSymbolTableRecord
100
AcDbDimStyleTableRecord
  2
ISO-25
 70
     0
 41
2.5
 42
0.625
 43
3.75
 44
1.25
 73
     0
 74
     0
 77
     1
 78
     8
140
2.5
141
2.5
143
0.03937007874016
147
0.625
171
     3
172
     1
271
     2
272
     2
274
     3
283
     0
284
     8
340
11
  0
DIMSTYLE
105
71
102
{ACAD_REACTORS
330
53A
330
53B
330
53C
330
53D
330
53E
330
53F
330
540
330
541
330
542
102
}
330
A
100
AcDbSymbolTableRecord
100
AcDbDimStyleTableRecord
  2
Standard
 70
     0
340
11
  0
ENDTAB
  0
TABLE
  2
BLOCK_RECORD
  5
1
330
0
100
AcDbSymbolTable
 70
    31
  0
BLOCK_RECORD
  5
1F
330
1
100
AcDbSymbolTableRecord
100
AcDbBlockTableRecord
  2
*Model_Space
340
22
  0
BLOCK_RECORD
  5
1B
330
1
100
AcDbSymbolTableRecord
100
AcDbBlockTableRecord
  2
*Paper_Space
340
1E
  0
BLOCK_RECORD
  5
23
330
1
100
AcDbSymbolTableRecord
100
AcDbBlockTableRecord
  2
*Paper_Space0
340
26
  0
BLOCK_RECORD
  5
2B
330
1
100
AcDbSymbolTableRecord
100
AcDbBlockTableRecord
  2
_OPEN30
340
0
102
{BLKREFS
331
5A
331
5B
331
36
331
37
331
4E
331
4F
331
42
331
43
331
66
331
67
331
2D3
331
2D4
331
2DF
331
2E0
331
2EB
331
2EC
331
2F7
331
2F8
331
303
331
304
331
30F
331
310
331
318
331
319
331
321
331
322
331
32A
331
32B
331
333
331
334
331
346
331
347
331
352
331
353
331
35E
331
35F
331
36A
331
36B
331
376
331
377
331
382
331
383
331
38E
331
38F
331
39A
331
39B
331
3A6
331
3A7
331
547
331
548
331
553
331
554
331
55F
331
560
331
56B
331
56C
331
577
331
578
331
583
331
584
331
58F
331
590
331
59B
331
59C
331
5A7
331
5A8
331
5B2
331
5B3
331
5BB
331
5BC
331
5C4
331
5C5
331
5CD
331
5CE
331
5D6
331
5D7
331
5DF
331
5E0
331
5E8
331
5E9
331
5F1
331
5F2
331
5FA
331
5FB
102
}
  0
BLOCK_RECORD
  5
31
330
1
100
AcDbSymbolTableRecord
100
AcDbBlockTableRecord
  2
*D2
340
0
  0
BLOCK_RECORD
  5
3E
330
1
100
AcDbSymbolTableRecord
100
AcDbBlockTableRecord
  2
*D3
340
0
  0
BLOCK_RECORD
  5
4A
330
1
100
AcDbSymbolTableRecord
100
AcDbBlockTableRecord
  2
*D4
340
0
  0
BLOCK_RECORD
  5
56
330
1
100
AcDbSymbolTableRecord
100
AcDbBlockTableRecord
  2
*D5
340
0
  0
BLOCK_RECORD
  5
62
330
1
100
AcDbSymbolTableRecord
100
AcDbBlockTableRecord
  2
*D6
340
0
  0
BLOCK_RECORD
  5
2CE
330
1
100
AcDbSymbolTableRecord
100
AcDbBlockTableRecord
  2
*D7
340
0
  0
BLOCK_RECORD
  5
2DB
330
1
100
AcDbSymbolTableRecord
100
AcDbBlockTableRecord
  2
*D8
340
0
  0
BLOCK_RECORD
  5
2E7
330
1
100
AcDbSymbolTableRecord
100
AcDbBlockTableRecord
  2
*D9
340
0
  0
BLOCK_RECORD
  5
2F3
330
1
100
AcDbSymbolTableRecord
100
AcDbBlockTableRecord
  2
*D10
340
0
  0
BLOCK_RECORD
  5
2FF
330
1
100
AcDbSymbolTableRecord
100
AcDbBlockTableRecord
  2
*D11
340
0
  0
BLOCK_RECORD
  5
342
330
1
100
AcDbSymbolTableRecord
100
AcDbBlockTableRecord
  2
*D12
340
0
  0
BLOCK_RECORD
  5
34E
330
1
100
AcDbSymbolTableRecord
100
AcDbBlockTableRecord
  2
*D13
340
0
  0
BLOCK_RECORD
  5
35A
330
1
100
AcDbSymbolTableRecord
100
AcDbBlockTableRecord
  2
*D14
340
0
  0
BLOCK_RECORD
  5
366
330
1
100
AcDbSymbolTableRecord
100
AcDbBlockTableRecord
  2
*D15
340
0
  0
BLOCK_RECORD
  5
372
330
1
100
AcDbSymbolTableRecord
100
AcDbBlockTableRecord
  2
*D16
340
0
  0
BLOCK_RECORD
  5
37E
330
1
100
AcDbSymbolTableRecord
100
AcDbBlockTableRecord
  2
*D17
340
0
  0
BLOCK_RECORD
  5
38A
330
1
100
AcDbSymbolTableRecord
100
AcDbBlockTableRecord
  2
*D18
340
0
  0
BLOCK_RECORD
  5
396
330
1
100
AcDbSymbolTableRecord
100
AcDbBlockTableRecord
  2
*D19
340
0
  0
BLOCK_RECORD
  5
3A2
330
1
100
AcDbSymbolTableRecord
100
AcDbBlockTableRecord
  2
*D20
340
0
  0
BLOCK_RECORD
  5
543
330
1
100
AcDbSymbolTableRecord
100
AcDbBlockTableRecord
  2
*D22
340
0
  0
BLOCK_RECORD
  5
54F
330
1
100
AcDbSymbolTableRecord
100
AcDbBlockTableRecord
  2
*D23
340
0
  0
BLOCK_RECORD
  5
55B
330
1
100
AcDbSymbolTableRecord
100
AcDbBlockTableRecord
  2
*D24
340
0
  0
BLOCK_RECORD
  5
567
330
1
100
AcDbSymbolTableRecord
100
AcDbBlockTableRecord
  2
*D25
340
0
  0
BLOCK_RECORD
  5
573
330
1
100
AcDbSymbolTableRecord
100
AcDbBlockTableRecord
  2
*D26
340
0
  0
BLOCK_RECORD
  5
57F
330
1
100
AcDbSymbolTableRecord
100
AcDbBlockTableRecord
  2
*D27
340
0
  0
BLOCK_RECORD
  5
58B
330
1
100
AcDbSymbolTableRecord
100
AcDbBlockTableRecord
  2
*D28
340
0
  0
BLOCK_RECORD
  5
597
330
1
100
AcDbSymbolTableRecord
100
AcDbBlockTableRecord
  2
*D29
340
0
  0
BLOCK_RECORD
  5
5A3
330
1
100
AcDbSymbolTableRecord
100
AcDbBlockTableRecord
  2
*D30
340
0
  0
ENDTAB
  0
ENDSEC
  0
SECTION
  2
BLOCKS
  0
BLOCK
  5
20
330
1F
100
AcDbEntity
  8
0
100
AcDbBlockBegin
  2
*Model_Space
 70
     0
 10
0.0
 20
0.0
 30
0.0
  3
*Model_Space
  1

  0
ENDBLK
  5
21
330
1F
100
AcDbEntity
  8
0
100
AcDbBlockEnd
  0
BLOCK
  5
1C
330
1B
100
AcDbEntity
 67
     1
  8
0
100
AcDbBlockBegin
  2
*Paper_Space
 70
     0
 10
0.0
 20
0.0
 30
0.0
  3
*Paper_Space
  1

  0
ENDBLK
  5
1D
330
1B
100
AcDbEntity
 67
     1
  8
0
100
AcDbBlockEnd
  0
BLOCK
  5
24
330
23
100
AcDbEntity
  8
0
100
AcDbBlockBegin
  2
*Paper_Space0
 70
     0
 10
0.0
 20
0.0
 30
0.0
  3
*Paper_Space0
  1

  0
ENDBLK
  5
25
330
23
100
AcDbEntity
  8
0
100
AcDbBlockEnd
  0
BLOCK
  5
2F
330
2B
100
AcDbEntity
  8
0
 62
     0
100
AcDbBlockBegin
  2
_OPEN30
 70
     2
 10
0.0
 20
0.0
 30
0.0
  3
_OPEN30
  1

  0
LINE
  5
2C
330
2B
100
AcDbEntity
  8
0
  6
ByBlock
 62
     0
100
AcDbLine
 10
-1.0
 20
0.267949
 30
0.0
 11
0.0
 21
0.0
 31
0.0
  0
LINE
  5
2D
330
2B
100
AcDbEntity
  8
0
  6
ByBlock
 62
     0
100
AcDbLine
 10
0.0
 20
0.0
 30
0.0
 11
-1.0
 21
-0.267949
 31
0.0
  0
LINE
  5
2E
330
2B
100
AcDbEntity
  8
0
  6
ByBlock
 62
     0
100
AcDbLine
 10
0.0
 20
0.0
 30
0.0
 11
-1.0
 21
0.0
 31
0.0
  0
ENDBLK
  5
30
330
2B
100
AcDbEntity
  8
0
 62
     0
100
AcDbBlockEnd
  0
BLOCK
  5
3C
330
31
100
AcDbEntity
  8
0
100
AcDbBlockBegin
  2
*D2
 70
     1
 10
0.0
 20
0.0
 30
0.0
  3
*D2
  1

  0
LINE
  5
32
330
31
100
AcDbEntity
  8
1
  6
Continuous
 62
     0
370
    -2
100
AcDbLine
 10
135834.6833121244
 20
104054.394177345
 30
0.0
 11
135834.6833121244
 21
106806.7458336756
 31
0.0
  0
LINE
  5
33
330
31
100
AcDbEntity
  8
1
  6
Continuous
 62
     0
370
    -2
100
AcDbLine
 10
136336.3839719388
 20
105257.3945735351
 30
0.0
 11
136336.3839719388
 21
106806.7458336756
 31
0.0
  0
LINE
  5
34
330
31
100
AcDbEntity
  8
1
  6
Continuous
 62
     0
370
    -2
100
AcDbLine
 10
136836.3839719388
 20
106806.5658336756
 30
0.0
 11
137336.3839719388
 21
106806.5658336756
 31
0.0
  0
LINE
  5
35
330
31
100
AcDbEntity
  8
1
  6
Continuous
 62
     0
370
    -2
100
AcDbLine
 10
135334.6833121245
 20
106806.5658336756
 30
0.0
 11
133934.6833121245
 21
106806.5658336756
 31
0.0
  0
INSERT
  5
36
330
31
100
AcDbEntity
  8
1
  6
Continuous
 62
     0
370
    -2
100
AcDbBlockReference
  2
_OPEN30
 10
136336.3839719388
 20
106806.5658336756
 30
0.0
 41
500.0
 42
500.0
 43
500.0
 50
180.0
  0
INSERT
  5
37
330
31
100
AcDbEntity
  8
1
  6
Continuous
 62
     0
370
    -2
100
AcDbBlockReference
  2
_OPEN30
 10
135834.6833121244
 20
106806.5658336756
 30
0.0
 41
500.0
 42
500.0
 43
500.0
  0
MTEXT
  5
38
330
31
100
AcDbEntity
  8
1
  6
Continuous
 62
     0
370
    13
100
AcDbMText
 10
134384.6833121244
 20
107056.5658336755
 30
0.0
 40
400.0
 41
0.0
 71
     5
 72
     1
  1
\A1;8.7
 73
     1
 44
1.0
  0
POINT
  5
39
330
31
100
AcDbEntity
  8
DEFPOINTS
  6
Continuous
 62
     0
100
AcDbPoint
 10
135834.6833121244
 20
104054.3316773451
 30
0.0
  0
POINT
  5
3A
330
31
100
AcDbEntity
  8
DEFPOINTS
  6
Continuous
 62
     0
100
AcDbPoint
 10
136336.3839719388
 20
105257.3320735351
 30
0.0
  0
POINT
  5
3B
330
31
100
AcDbEntity
  8
DEFPOINTS
  6
Continuous
 62
     0
100
AcDbPoint
 10
136336.3839719388
 20
106806.5658336756
 30
0.0
  0
ENDBLK
  5
3D
330
31
100
AcDbEntity
  8
0
100
AcDbBlockEnd
  0
BLOCK
  5
48
330
3E
100
AcDbEntity
  8
0
100
AcDbBlockBegin
  2
*D3
 70
     1
 10
0.0
 20
0.0
 30
0.0
  3
*D3
  1

  0
LINE
  5
3F
330
3E
100
AcDbEntity
  8
1
  6
Continuous
 62
     0
370
    -2
100
AcDbLine
 10
130800.4391912929
 20
106009.3534171618
 30
0.0
 11
133626.2270741225
 21
106009.3534171618
 31
0.0
  0
LINE
  5
40
330
3E
100
AcDbEntity
  8
1
  6
Continuous
 62
     0
370
    -2
100
AcDbLine
 10
130800.4391912929
 20
99089.34431636122
 30
0.0
 11
133626.2270741225
 21
99089.34431636122
 31
0.0
  0
LINE
  5
41
330
3E
100
AcDbEntity
  8
1
  6
Continuous
 62
     0
370
    -2
100
AcDbLine
 10
133626.0470741225
 20
105509.3534171618
 30
0.0
 11
133626.0470741225
 21
99589.34431636123
 31
0.0
  0
INSERT
  5
42
330
3E
100
AcDbEntity
  8
1
  6
Continuous
 62
     0
370
    -2
100
AcDbBlockReference
  2
_OPEN30
 10
133626.0470741225
 20
106009.3534171618
 30
0.0
 41
500.0
 42
500.0
 43
500.0
 50
90.0
  0
INSERT
  5
43
330
3E
100
AcDbEntity
  8
1
  6
Continuous
 62
     0
370
    -2
100
AcDbBlockReference
  2
_OPEN30
 10
133626.0470741225
 20
99089.34431636122
 30
0.0
 41
500.0
 42
500.0
 43
500.0
 50
270.0
  0
MTEXT
  5
44
330
3E
100
AcDbEntity
  8
1
  6
Continuous
 62
     0
370
    13
100
AcDbMText
 10
133376.0470741225
 20
102549.3488667616
 30
0.0
 40
400.0
 41
0.0
 71
     5
 72
     1
  1
\A1;120
 11
0.0000000000000001
 21
1.0
 31
0.0
 73
     1
 44
1.0
  0
POINT
  5
45
330
3E
100
AcDbEntity
  8
DEFPOINTS
  6
Continuous
 62
     0
100
AcDbPoint
 10
130800.3766912928
 20
106009.3534171618
 30
0.0
  0
POINT
  5
46
330
3E
100
AcDbEntity
  8
DEFPOINTS
  6
Continuous
 62
     0
100
AcDbPoint
 10
130800.3766912928
 20
99089.34431636122
 30
0.0
  0
POINT
  5
47
330
3E
100
AcDbEntity
  8
DEFPOINTS
  6
Continuous
 62
     0
100
AcDbPoint
 10
133626.0470741225
 20
99089.34431636122
 30
0.0
  0
ENDBLK
  5
49
330
3E
100
AcDbEntity
  8
0
100
AcDbBlockEnd
  0
BLOCK
  5
54
330
4A
100
AcDbEntity
  8
0
100
AcDbBlockBegin
  2
*D4
 70
     1
 10
0.0
 20
0.0
 30
0.0
  3
*D4
  1

  0
LINE
  5
4B
330
4A
100
AcDbEntity
  8
1
  6
Continuous
 62
     0
370
    -2
100
AcDbLine
 10
124514.7017580615
 20
105605.7487196151
 30
0.0
 11
124514.7017580615
 21
107581.9497851141
 31
0.0
  0
LINE
  5
4C
330
4A
100
AcDbEntity
  8
1
  6
Continuous
 62
     0
370
    -2
100
AcDbLine
 10
131204.043888839
 20
105605.7487196151
 30
0.0
 11
131204.043888839
 21
107581.9497851141
 31
0.0
  0
LINE
  5
4D
330
4A
100
AcDbEntity
  8
1
  6
Continuous
 62
     0
370
    -2
100
AcDbLine
 10
125014.7017580615
 20
107581.7697851141
 30
0.0
 11
130704.043888839
 21
107581.7697851141
 31
0.0
  0
INSERT
  5
4E
330
4A
100
AcDbEntity
  8
1
  6
Continuous
 62
     0
370
    -2
100
AcDbBlockReference
  2
_OPEN30
 10
124514.7017580615
 20
107581.7697851141
 30
0.0
 41
500.0
 42
500.0
 43
500.0
 50
180.0
  0
INSERT
  5
4F
330
4A
100
AcDbEntity
  8
1
  6
Continuous
 62
     0
370
    -2
100
AcDbBlockReference
  2
_OPEN30
 10
131204.043888839
 20
107581.7697851141
 30
0.0
 41
500.0
 42
500.0
 43
500.0
  0
MTEXT
  5
50
330
4A
100
AcDbEntity
  8
1
  6
Continuous
 62
     0
370
    13
100
AcDbMText
 10
127859.3728234503
 20
107831.7697851141
 30
0.0
 40
400.0
 41
0.0
 71
     5
 72
     1
  1
\A1;116
 73
     1
 44
1.0
  0
POINT
  5
51
330
4A
100
AcDbEntity
  8
DEFPOINTS
  6
Continuous
 62
     0
100
AcDbPoint
 10
124514.7017580615
 20
105605.6862196152
 30
0.0
  0
POINT
  5
52
330
4A
100
AcDbEntity
  8
DEFPOINTS
  6
Continuous
 62
     0
100
AcDbPoint
 10
131204.043888839
 20
105605.6862196152
 30
0.0
  0
POINT
  5
53
330
4A
100
AcDbEntity
  8
DEFPOINTS
  6
Continuous
 62
     0
100
AcDbPoint
 10
131204.043888839
 20
107581.7697851141
 30
0.0
  0
ENDBLK
  5
55
330
4A
100
AcDbEntity
  8
0
100
AcDbBlockEnd
  0
BLOCK
  5
60
330
56
100
AcDbEntity
  8
0
100
AcDbBlockBegin
  2
*D5
 70
     1
 10
0.0
 20
0.0
 30
0.0
  3
*D5
  1

  0
LINE
  5
57
330
56
100
AcDbEntity
  8
1
  6
Continuous
 62
     0
370
    -2
100
AcDbLine
 10
136336.3839719363
 20
106393.8613797983
 30
0.0
 11
136336.3839719363
 21
107581.9497851141
 31
0.0
  0
LINE
  5
58
330
56
100
AcDbEntity
  8
1
  6
Continuous
 62
     0
370
    -2
100
AcDbLine
 10
138787.220528466
 20
104396.6533331835
 30
0.0
 11
138787.220528466
 21
107581.9497851141
 31
0.0
  0
LINE
  5
59
330
56
100
AcDbEntity
  8
1
  6
Continuous
 62
     0
370
    -2
100
AcDbLine
 10
136836.3839719363
 20
107581.7697851141
 30
0.0
 11
138287.220528466
 21
107581.7697851141
 31
0.0
  0
INSERT
  5
5A
330
56
100
AcDbEntity
  8
1
  6
Continuous
 62
     0
370
    -2
100
AcDbBlockReference
  2
_OPEN30
 10
136336.3839719363
 20
107581.7697851141
 30
0.0
 41
500.0
 42
500.0
 43
500.0
 50
180.0
  0
INSERT
  5
5B
330
56
100
AcDbEntity
  8
1
  6
Continuous
 62
     0
370
    -2
100
AcDbBlockReference
  2
_OPEN30
 10
138787.220528466
 20
107581.7697851141
 30
0.0
 41
500.0
 42
500.0
 43
500.0
  0
MTEXT
  5
5C
330
56
100
AcDbEntity
  8
1
  6
Continuous
 62
     0
370
    13
100
AcDbMText
 10
137561.8022502028
 20
107831.7697851141
 30
0.0
 40
400.0
 41
0.0
 71
     5
 72
     1
  1
\A1;42.5
 73
     1
 44
1.0
  0
POINT
  5
5D
330
56
100
AcDbEntity
  8
DEFPOINTS
  6
Continuous
 62
     0
100
AcDbPoint
 10
136336.3839719363
 20
106393.7988797982
 30
0.0
  0
POINT
  5
5E
330
56
100
AcDbEntity
  8
DEFPOINTS
  6
Continuous
 62
     0
100
AcDbPoint
 10
138787.220528466
 20
104396.5908331835
 30
0.0
  0
POINT
  5
5F
330
56
100
AcDbEntity
  8
DEFPOINTS
  6
Continuous
 62
     0
100
AcDbPoint
 10
138787.220528466
 20
107581.7697851141
 30
0.0
  0
ENDBLK
  5
61
330
56
100
AcDbEntity
  8
0
100
AcDbBlockEnd
  0
BLOCK
  5
6C
330
62
100
AcDbEntity
  8
0
100
AcDbBlockBegin
  2
*D6
 70
     1
 10
0.0
 20
0.0
 30
0.0
  3
*D6
  1

  0
LINE
  5
63
330
62
100
AcDbEntity
  8
1
  6
Continuous
 62
     0
370
    -2
100
AcDbLine
 10
136336.4464719388
 20
104538.8514832421
 30
0.0
 11
140517.4028036725
 21
104538.8514832421
 31
0.0
  0
LINE
  5
64
330
62
100
AcDbEntity
  8
1
  6
Continuous
 62
     0
370
    -2
100
AcDbLine
 10
136336.4464719388
 20
100559.8462502805
 30
0.0
 11
140517.4028036725
 21
100559.8462502805
 31
0.0
  0
LINE
  5
65
330
62
100
AcDbEntity
  8
1
  6
Continuous
 62
     0
370
    -2
100
AcDbLine
 10
140517.2228036725
 20
104038.8514832421
 30
0.0
 11
140517.2228036725
 21
101059.8462502805
 31
0.0
  0
INSERT
  5
66
330
62
100
AcDbEntity
  8
1
  6
Continuous
 62
     0
370
    -2
100
AcDbBlockReference
  2
_OPEN30
 10
140517.2228036725
 20
104538.8514832421
 30
0.0
 41
500.0
 42
500.0
 43
500.0
 50
90.0
  0
INSERT
  5
67
330
62
100
AcDbEntity
  8
1
  6
Continuous
 62
     0
370
    -2
100
AcDbBlockReference
  2
_OPEN30
 10
140517.2228036725
 20
100559.8462502805
 30
0.0
 41
500.0
 42
500.0
 43
500.0
 50
270.0
  0
MTEXT
  5
68
330
62
100
AcDbEntity
  8
1
  6
Continuous
 62
     0
370
    13
100
AcDbMText
 10
140267.2228036725
 20
102549.3488667613
 30
0.0
 40
400.0
 41
0.0
 71
     5
 72
     1
  1
\A1;69
 11
0.0000000000000001
 21
1.0
 31
0.0
 73
     1
 44
1.0
  0
POINT
  5
69
330
62
100
AcDbEntity
  8
DEFPOINTS
  6
Continuous
 62
     0
100
AcDbPoint
 10
136336.3839719388
 20
104538.8514832421
 30
0.0
  0
POINT
  5
6A
330
62
100
AcDbEntity
  8
DEFPOINTS
  6
Continuous
 62
     0
100
AcDbPoint
 10
136336.3839719388
 20
100559.8462502805
 30
0.0
  0
POINT
  5
6B
330
62
100
AcDbEntity
  8
DEFPOINTS
  6
Continuous
 62
     0
100
AcDbPoint
 10
140517.2228036725
 20
100559.8462502805
 30
0.0
  0
ENDBLK
  5
6D
330
62
100
AcDbEntity
  8
0
100
AcDbBlockEnd
  0
BLOCK
  5
2D9
330
2CE
100
AcDbEntity
  8
0
100
AcDbBlockBegin
  2
*D7
 70
     1
 10
0.0
 20
0.0
 30
0.0
  3
*D7
  1

  0
LINE
  5
30B
330
2CE
100
AcDbEntity
  8
1
  6
Continuous
 62
     0
370
    -2
100
AcDbLine
 10
15097.59074992782
 20
-9896.343801839726
 30
0.0
 11
15097.59074992782
 21
-7143.992145509217
 31
0.0
  0
LINE
  5
30C
330
2CE
100
AcDbEntity
  8
1
  6
Continuous
 62
     0
370
    -2
100
AcDbLine
 10
15599.2914097421
 20
-8693.343405649704
 30
0.0
 11
15599.2914097421
 21
-7143.992145509217
 31
0.0
  0
LINE
  5
30D
330
2CE
100
AcDbEntity
  8
1
  6
Continuous
 62
     0
370
    -2
100
AcDbLine
 10
16099.2914097421
 20
-7144.172145509218
 30
0.0
 11
16599.29140974209
 21
-7144.172145509218
 31
0.0
  0
LINE
  5
30E
330
2CE
100
AcDbEntity
  8
1
  6
Continuous
 62
     0
370
    -2
100
AcDbLine
 10
14597.5907499278
 20
-7144.172145509218
 30
0.0
 11
13197.59074992782
 21
-7144.172145509218
 31
0.0
  0
INSERT
  5
30F
330
2CE
100
AcDbEntity
  8
1
  6
Continuous
 62
     0
370
    -2
100
AcDbBlockReference
  2
_OPEN30
 10
15599.2914097421
 20
-7144.172145509218
 30
0.0
 41
500.0
 42
500.0
 43
500.0
 50
180.0
  0
INSERT
  5
310
330
2CE
100
AcDbEntity
  8
1
  6
Continuous
 62
     0
370
    -2
100
AcDbBlockReference
  2
_OPEN30
 10
15097.59074992782
 20
-7144.172145509218
 30
0.0
 41
500.0
 42
500.0
 43
500.0
  0
MTEXT
  5
311
330
2CE
100
AcDbEntity
  8
1
  6
Continuous
 62
     0
370
    13
100
AcDbMText
 10
13647.59074992782
 20
-6894.172145509218
 30
0.0
 40
400.0
 41
0.0
 71
     5
 72
     1
  1
\A1;8.7
 73
     1
 44
1.0
  0
POINT
  5
312
330
2CE
100
AcDbEntity
  8
DEFPOINTS
  6
Continuous
 62
     0
100
AcDbPoint
 10
15097.59074992782
 20
-9896.406301839729
 30
0.0
  0
POINT
  5
313
330
2CE
100
AcDbEntity
  8
DEFPOINTS
  6
Continuous
 62
     0
100
AcDbPoint
 10
15599.2914097421
 20
-8693.405905649704
 30
0.0
  0
POINT
  5
314
330
2CE
100
AcDbEntity
  8
DEFPOINTS
  6
Continuous
 62
     0
100
AcDbPoint
 10
15599.2914097421
 20
-7144.172145509218
 30
0.0
  0
ENDBLK
  5
2DA
330
2CE
100
AcDbEntity
  8
0
100
AcDbBlockEnd
  0
BLOCK
  5
2E5
330
2DB
100
AcDbEntity
  8
0
100
AcDbBlockBegin
  2
*D8
 70
     1
 10
0.0
 20
0.0
 30
0.0
  3
*D8
  1

  0
LINE
  5
315
330
2DB
100
AcDbEntity
  8
1
  6
Continuous
 62
     0
370
    -2
100
AcDbLine
 10
10063.34662909621
 20
-7941.384562022908
 30
0.0
 11
12889.13451192583
 21
-7941.384562022911
 31
0.0
  0
LINE
  5
316
330
2DB
100
AcDbEntity
  8
1
  6
Continuous
 62
     0
370
    -2
100
AcDbLine
 10
10063.34662909621
 20
-14861.39366282363
 30
0.0
 11
12889.13451192583
 21
-14861.39366282364
 31
0.0
  0
LINE
  5
317
330
2DB
100
AcDbEntity
  8
1
  6
Continuous
 62
     0
370
    -2
100
AcDbLine
 10
12888.95451192583
 20
-8441.384562022911
 30
0.0
 11
12888.95451192583
 21
-14361.39366282364
 31
0.0
  0
INSERT
  5
318
330
2DB
100
AcDbEntity
  8
1
  6
Continuous
 62
     0
370
    -2
100
AcDbBlockReference
  2
_OPEN30
 10
12888.95451192583
 20
-7941.384562022911
 30
0.0
 41
500.0
 42
500.0
 43
500.0
 50
90.0
  0
INSERT
  5
319
330
2DB
100
AcDbEntity
  8
1
  6
Continuous
 62
     0
370
    -2
100
AcDbBlockReference
  2
_OPEN30
 10
12888.95451192583
 20
-14861.39366282364
 30
0.0
 41
500.0
 42
500.0
 43
500.0
 50
270.0
  0
MTEXT
  5
31A
330
2DB
100
AcDbEntity
  8
1
  6
Continuous
 62
     0
370
    13
100
AcDbMText
 10
12638.95451192583
 20
-11401.38911242327
 30
0.0
 40
400.0
 41
0.0
 71
     5
 72
     1
  1
\A1;120
 11
0.0000000000000001
 21
1.0
 31
0.0
 73
     1
 44
1.0
  0
POINT
  5
31B
330
2DB
100
AcDbEntity
  8
DEFPOINTS
  6
Continuous
 62
     0
100
AcDbPoint
 10
10063.28412909621
 20
-7941.384562022908
 30
0.0
  0
POINT
  5
31C
330
2DB
100
AcDbEntity
  8
DEFPOINTS
  6
Continuous
 62
     0
100
AcDbPoint
 10
10063.28412909621
 20
-14861.39366282363
 30
0.0
  0
POINT
  5
31D
330
2DB
100
AcDbEntity
  8
DEFPOINTS
  6
Continuous
 62
     0
100
AcDbPoint
 10
12888.95451192583
 20
-14861.39366282364
 30
0.0
  0
ENDBLK
  5
2E6
330
2DB
100
AcDbEntity
  8
0
100
AcDbBlockEnd
  0
BLOCK
  5
2F1
330
2E7
100
AcDbEntity
  8
0
100
AcDbBlockBegin
  2
*D9
 70
     1
 10
0.0
 20
0.0
 30
0.0
  3
*D9
  1

  0
LINE
  5
31E
330
2E7
100
AcDbEntity
  8
1
  6
Continuous
 62
     0
370
    -2
100
AcDbLine
 10
3777.60919586487
 20
-8344.989259569628
 30
0.0
 11
3777.60919586487
 21
-6368.788194070721
 31
0.0
  0
LINE
  5
31F
330
2E7
100
AcDbEntity
  8
1
  6
Continuous
 62
     0
370
    -2
100
AcDbLine
 10
10466.95132664231
 20
-8344.989259569628
 30
0.0
 11
10466.95132664231
 21
-6368.788194070721
 31
0.0
  0
LINE
  5
320
330
2E7
100
AcDbEntity
  8
1
  6
Continuous
 62
     0
370
    -2
100
AcDbLine
 10
4277.60919586487
 20
-6368.968194070721
 30
0.0
 11
9966.951326642323
 21
-6368.968194070721
 31
0.0
  0
INSERT
  5
321
330
2E7
100
AcDbEntity
  8
1
  6
Continuous
 62
     0
370
    -2
100
AcDbBlockReference
  2
_OPEN30
 10
3777.60919586487
 20
-6368.968194070721
 30
0.0
 41
500.0
 42
500.0
 43
500.0
 50
180.0
  0
INSERT
  5
322
330
2E7
100
AcDbEntity
  8
1
  6
Continuous
 62
     0
370
    -2
100
AcDbBlockReference
  2
_OPEN30
 10
10466.95132664231
 20
-6368.968194070721
 30
0.0
 41
500.0
 42
500.0
 43
500.0
  0
MTEXT
  5
323
330
2E7
100
AcDbEntity
  8
1
  6
Continuous
 62
     0
370
    13
100
AcDbMText
 10
7122.280261253599
 20
-6118.968194070721
 30
0.0
 40
400.0
 41
0.0
 71
     5
 72
     1
  1
\A1;116
 73
     1
 44
1.0
  0
POINT
  5
324
330
2E7
100
AcDbEntity
  8
DEFPOINTS
  6
Continuous
 62
     0
100
AcDbPoint
 10
3777.60919586487
 20
-8345.051759569626
 30
0.0
  0
POINT
  5
325
330
2E7
100
AcDbEntity
  8
DEFPOINTS
  6
Continuous
 62
     0
100
AcDbPoint
 10
10466.95132664231
 20
-8345.051759569626
 30
0.0
  0
POINT
  5
326
330
2E7
100
AcDbEntity
  8
DEFPOINTS
  6
Continuous
 62
     0
100
AcDbPoint
 10
10466.95132664231
 20
-6368.968194070721
 30
0.0
  0
ENDBLK
  5
2F2
330
2E7
100
AcDbEntity
  8
0
100
AcDbBlockEnd
  0
BLOCK
  5
2FD
330
2F3
100
AcDbEntity
  8
0
100
AcDbBlockBegin
  2
*D10
 70
     1
 10
0.0
 20
0.0
 30
0.0
  3
*D10
  1

  0
LINE
  5
327
330
2F3
100
AcDbEntity
  8
1
  6
Continuous
 62
     0
370
    -2
100
AcDbLine
 10
15599.29140973959
 20
-7556.876599386552
 30
0.0
 11
15599.29140973959
 21
-6368.788194070721
 31
0.0
  0
LINE
  5
328
330
2F3
100
AcDbEntity
  8
1
  6
Continuous
 62
     0
370
    -2
100
AcDbLine
 10
18050.12796626934
 20
-9554.084646001356
 30
0.0
 11
18050.12796626934
 21
-6368.788194070721
 31
0.0
  0
LINE
  5
329
330
2F3
100
AcDbEntity
  8
1
  6
Continuous
 62
     0
370
    -2
100
AcDbLine
 10
16099.29140973959
 20
-6368.968194070721
 30
0.0
 11
17550.12796626934
 21
-6368.968194070721
 31
0.0
  0
INSERT
  5
32A
330
2F3
100
AcDbEntity
  8
1
  6
Continuous
 62
     0
370
    -2
100
AcDbBlockReference
  2
_OPEN30
 10
15599.29140973959
 20
-6368.968194070721
 30
0.0
 41
500.0
 42
500.0
 43
500.0
 50
180.0
  0
INSERT
  5
32B
330
2F3
100
AcDbEntity
  8
1
  6
Continuous
 62
     0
370
    -2
100
AcDbBlockReference
  2
_OPEN30
 10
18050.12796626934
 20
-6368.968194070721
 30
0.0
 41
500.0
 42
500.0
 43
500.0
  0
MTEXT
  5
32C
330
2F3
100
AcDbEntity
  8
1
  6
Continuous
 62
     0
370
    13
100
AcDbMText
 10
16824.70968800628
 20
-6118.968194070721
 30
0.0
 40
400.0
 41
0.0
 71
     5
 72
     1
  1
\A1;42.5
 73
     1
 44
1.0
  0
POINT
  5
32D
330
2F3
100
AcDbEntity
  8
DEFPOINTS
  6
Continuous
 62
     0
100
AcDbPoint
 10
15599.29140973959
 20
-7556.939099386553
 30
0.0
  0
POINT
  5
32E
330
2F3
100
AcDbEntity
  8
DEFPOINTS
  6
Continuous
 62
     0
100
AcDbPoint
 10
18050.12796626934
 20
-9554.147146001353
 30
0.0
  0
POINT
  5
32F
330
2F3
100
AcDbEntity
  8
DEFPOINTS
  6
Continuous
 62
     0
100
AcDbPoint
 10
18050.12796626934
 20
-6368.968194070721
 30
0.0
  0
ENDBLK
  5
2FE
330
2F3
100
AcDbEntity
  8
0
100
AcDbBlockEnd
  0
BLOCK
  5
309
330
2FF
100
AcDbEntity
  8
0
100
AcDbBlockBegin
  2
*D11
 70
     1
 10
0.0
 20
0.0
 30
0.0
  3
*D11
  1

  0
LINE
  5
330
330
2FF
100
AcDbEntity
  8
1
  6
Continuous
 62
     0
370
    -2
100
AcDbLine
 10
15599.35390974211
 20
-9411.886495942756
 30
0.0
 11
19780.31024147584
 21
-9411.886495942756
 31
0.0
  0
LINE
  5
331
330
2FF
100
AcDbEntity
  8
1
  6
Continuous
 62
     0
370
    -2
100
AcDbLine
 10
15599.35390974211
 20
-13390.8917289043
 30
0.0
 11
19780.31024147584
 21
-13390.8917289043
 31
0.0
  0
LINE
  5
332
330
2FF
100
AcDbEntity
  8
1
  6
Continuous
 62
     0
370
    -2
100
AcDbLine
 10
19780.13024147583
 20
-9911.886495942759
 30
0.0
 11
19780.13024147583
 21
-12890.8917289043
 31
0.0
  0
INSERT
  5
333
330
2FF
100
AcDbEntity
  8
1
  6
Continuous
 62
     0
370
    -2
100
AcDbBlockReference
  2
_OPEN30
 10
19780.13024147583
 20
-9411.886495942756
 30
0.0
 41
500.0
 42
500.0
 43
500.0
 50
90.0
  0
INSERT
  5
334
330
2FF
100
AcDbEntity
  8
1
  6
Continuous
 62
     0
370
    -2
100
AcDbBlockReference
  2
_OPEN30
 10
19780.13024147583
 20
-13390.8917289043
 30
0.0
 41
500.0
 42
500.0
 43
500.0
 50
270.0
  0
MTEXT
  5
335
330
2FF
100
AcDbEntity
  8
1
  6
Continuous
 62
     0
370
    13
100
AcDbMText
 10
19530.13024147585
 20
-11401.38911242352
 30
0.0
 40
400.0
 41
0.0
 71
     5
 72
     1
  1
\A1;69
 11
0.0000000000000001
 21
1.0
 31
0.0
 73
     1
 44
1.0
  0
POINT
  5
336
330
2FF
100
AcDbEntity
  8
DEFPOINTS
  6
Continuous
 62
     0
100
AcDbPoint
 10
15599.2914097421
 20
-9411.886495942756
 30
0.0
  0
POINT
  5
337
330
2FF
100
AcDbEntity
  8
DEFPOINTS
  6
Continuous
 62
     0
100
AcDbPoint
 10
15599.2914097421
 20
-13390.8917289043
 30
0.0
  0
POINT
  5
338
330
2FF
100
AcDbEntity
  8
DEFPOINTS
  6
Continuous
 62
     0
100
AcDbPoint
 10
19780.13024147583
 20
-13390.8917289043
 30
0.0
  0
ENDBLK
  5
30A
330
2FF
100
AcDbEntity
  8
0
100
AcDbBlockEnd
  0
BLOCK
  5
34C
330
342
100
AcDbEntity
  8
0
100
AcDbBlockBegin
  2
*D12
 70
     1
 10
0.0
 20
0.0
 30
0.0
  3
*D12
  1

  0
LINE
  5
343
330
342
100
AcDbEntity
  8
1
  6
Continuous
 62
     0
370
    -2
100
AcDbLine
 10
255996.0213933587
 20
108072.5698315582
 30
0.0
 11
255996.0213933587
 21
111065.4417830038
 31
0.0
  0
LINE
  5
344
330
342
100
AcDbEntity
  8
1
  6
Continuous
 62
     0
370
    -2
100
AcDbLine
 10
261076.0838933587
 20
108072.5698315582
 30
0.0
 11
261076.0838933587
 21
111065.4417830038
 31
0.0
  0
LINE
  5
345
330
342
100
AcDbEntity
  8
1
  6
Continuous
 62
     0
370
    -2
100
AcDbLine
 10
256496.0213933587
 20
111065.2617830038
 30
0.0
 11
260576.0838933587
 21
111065.2617830038
 31
0.0
  0
INSERT
  5
346
330
342
100
AcDbEntity
  8
1
  6
Continuous
 62
     0
370
    -2
100
AcDbBlockReference
  2
_OPEN30
 10
255996.0213933587
 20
111065.2617830038
 30
0.0
 41
500.0
 42
500.0
 43
500.0
 50
180.0
  0
INSERT
  5
347
330
342
100
AcDbEntity
  8
1
  6
Continuous
 62
     0
370
    -2
100
AcDbBlockReference
  2
_OPEN30
 10
261076.0838933587
 20
111065.2617830038
 30
0.0
 41
500.0
 42
500.0
 43
500.0
  0
MTEXT
  5
348
330
342
100
AcDbEntity
  8
1
  6
Continuous
 62
     0
370
    13
100
AcDbMText
 10
258536.0526433587
 20
111315.2617830038
 30
0.0
 40
400.0
 41
0.0
 71
     5
 72
     1
  1
\A1;127
 73
     1
 44
1.0
  0
POINT
  5
349
330
342
100
AcDbEntity
  8
DEFPOINTS
  6
Continuous
 62
     0
100
AcDbPoint
 10
255996.0213933587
 20
108072.5073315582
 30
0.0
  0
POINT
  5
34A
330
342
100
AcDbEntity
  8
DEFPOINTS
  6
Continuous
 62
     0
100
AcDbPoint
 10
261076.0838933587
 20
108072.5073315582
 30
0.0
  0
POINT
  5
34B
330
342
100
AcDbEntity
  8
DEFPOINTS
  6
Continuous
 62
     0
100
AcDbPoint
 10
261076.0838933587
 20
111065.2617830038
 30
0.0
  0
ENDBLK
  5
34D
330
342
100
AcDbEntity
  8
0
100
AcDbBlockEnd
  0
BLOCK
  5
358
330
34E
100
AcDbEntity
  8
0
100
AcDbBlockBegin
  2
*D13
 70
     1
 10
0.0
 20
0.0
 30
0.0
  3
*D13
  1

  0
LINE
  5
34F
330
34E
100
AcDbEntity
  8
1
  6
Continuous
 62
     0
370
    -2
100
AcDbLine
 10
260533.3146541118
 20
108572.5073315582
 30
0.0
 11
264999.5306384492
 21
108572.5073315582
 31
0.0
  0
LINE
  5
350
330
34E
100
AcDbEntity
  8
1
  6
Continuous
 62
     0
370
    -2
100
AcDbLine
 10
260588.8897938736
 20
98712.66975219542
 30
0.0
 11
264999.5306384492
 21
98712.66975219542
 31
0.0
  0
LINE
  5
351
330
34E
100
AcDbEntity
  8
1
  6
Continuous
 62
     0
370
    -2
100
AcDbLine
 10
264999.3506384491
 20
108072.5073315582
 30
0.0
 11
264999.3506384491
 21
99212.66975219541
 31
0.0
  0
INSERT
  5
352
330
34E
100
AcDbEntity
  8
1
  6
Continuous
 62
     0
370
    -2
100
AcDbBlockReference
  2
_OPEN30
 10
264999.3506384491
 20
108572.5073315582
 30
0.0
 41
500.0
 42
500.0
 43
500.0
 50
90.0
  0
INSERT
  5
353
330
34E
100
AcDbEntity
  8
1
  6
Continuous
 62
     0
370
    -2
100
AcDbBlockReference
  2
_OPEN30
 10
264999.3506384491
 20
98712.66975219542
 30
0.0
 41
500.0
 42
500.0
 43
500.0
 50
270.0
  0
MTEXT
  5
354
330
34E
100
AcDbEntity
  8
1
  6
Continuous
 62
     0
370
    13
100
AcDbMText
 10
264749.3506384492
 20
103686.8371549282
 30
0.0
 40
400.0
 41
0.0
 71
     5
 72
     1
  1
\A1;120
 11
0.0000000000000001
 21
1.0
 31
0.0
 73
     1
 44
1.0
  0
POINT
  5
355
330
34E
100
AcDbEntity
  8
DEFPOINTS
  6
Continuous
 62
     0
100
AcDbPoint
 10
260533.2521541118
 20
108572.5073315582
 30
0.0
  0
POINT
  5
356
330
34E
100
AcDbEntity
  8
DEFPOINTS
  6
Continuous
 62
     0
100
AcDbPoint
 10
260588.8272938736
 20
98712.66975219542
 30
0.0
  0
POINT
  5
357
330
34E
100
AcDbEntity
  8
DEFPOINTS
  6
Continuous
 62
     0
100
AcDbPoint
 10
264999.3506384491
 20
98712.66975219542
 30
0.0
  0
ENDBLK
  5
359
330
34E
100
AcDbEntity
  8
0
100
AcDbBlockEnd
  0
BLOCK
  5
364
330
35A
100
AcDbEntity
  8
0
100
AcDbBlockBegin
  2
*D14
 70
     1
 10
0.0
 20
0.0
 30
0.0
  3
*D14
  1

  0
LINE
  5
35B
330
35A
100
AcDbEntity
  8
1
  6
Continuous
 62
     0
370
    -2
100
AcDbLine
 10
260378.5012941118
 20
106402.5073315582
 30
0.0
 11
262598.9199681031
 21
106402.5073315582
 31
0.0
  0
LINE
  5
35C
330
35A
100
AcDbEntity
  8
1
  6
Continuous
 62
     0
370
    -2
100
AcDbLine
 10
260422.2317133588
 20
104562.5073315582
 30
0.0
 11
262598.9199681031
 21
104562.5073315582
 31
0.0
  0
LINE
  5
35D
330
35A
100
AcDbEntity
  8
1
  6
Continuous
 62
     0
370
    -2
100
AcDbLine
 10
262598.7399681032
 20
105902.5073315582
 30
0.0
 11
262598.7399681032
 21
105062.5073315582
 31
0.0
  0
INSERT
  5
35E
330
35A
100
AcDbEntity
  8
1
  6
Continuous
 62
     0
370
    -2
100
AcDbBlockReference
  2
_OPEN30
 10
262598.7399681032
 20
106402.5073315582
 30
0.0
 41
500.0
 42
500.0
 43
500.0
 50
90.0
  0
INSERT
  5
35F
330
35A
100
AcDbEntity
  8
1
  6
Continuous
 62
     0
370
    -2
100
AcDbBlockReference
  2
_OPEN30
 10
262598.7399681032
 20
104562.5073315582
 30
0.0
 41
500.0
 42
500.0
 43
500.0
 50
270.0
  0
MTEXT
  5
360
330
35A
100
AcDbEntity
  8
1
  6
Continuous
 62
     0
370
    13
100
AcDbMText
 10
262348.7399681032
 20
105482.5073315582
 30
0.0
 40
400.0
 41
0.0
 71
     5
 72
     1
  1
\A1;120
 11
0.0000000000000001
 21
1.0
 31
0.0
 73
     1
 44
1.0
  0
POINT
  5
361
330
35A
100
AcDbEntity
  8
DEFPOINTS
  6
Continuous
 62
     0
100
AcDbPoint
 10
260378.4387941118
 20
106402.5073315582
 30
0.0
  0
POINT
  5
362
330
35A
100
AcDbEntity
  8
DEFPOINTS
  6
Continuous
 62
     0
100
AcDbPoint
 10
260422.1692133588
 20
104562.5073315582
 30
0.0
  0
POINT
  5
363
330
35A
100
AcDbEntity
  8
DEFPOINTS
  6
Continuous
 62
     0
100
AcDbPoint
 10
262598.7399681032
 20
104562.5073315582
 30
0.0
  0
ENDBLK
  5
365
330
35A
100
AcDbEntity
  8
0
100
AcDbBlockEnd
  0
BLOCK
  5
370
330
366
100
AcDbEntity
  8
0
100
AcDbBlockBegin
  2
*D15
 70
     1
 10
0.0
 20
0.0
 30
0.0
  3
*D15
  1

  0
LINE
  5
367
330
366
100
AcDbEntity
  8
1
  6
Continuous
 62
     0
370
    -2
100
AcDbLine
 10
260422.2317133588
 20
104562.5073315582
 30
0.0
 11
262598.9199681031
 21
104562.5073315582
 31
0.0
  0
LINE
  5
368
330
366
100
AcDbEntity
  8
1
  6
Continuous
 62
     0
370
    -2
100
AcDbLine
 10
260422.2317133587
 20
102733.5951115584
 30
0.0
 11
262598.9199681031
 21
102733.5951115584
 31
0.0
  0
LINE
  5
369
330
366
100
AcDbEntity
  8
1
  6
Continuous
 62
     0
370
    -2
100
AcDbLine
 10
262598.7399681031
 20
104062.5073315582
 30
0.0
 11
262598.7399681031
 21
103233.5951115584
 31
0.0
  0
INSERT
  5
36A
330
366
100
AcDbEntity
  8
1
  6
Continuous
 62
     0
370
    -2
100
AcDbBlockReference
  2
_OPEN30
 10
262598.7399681031
 20
104562.5073315582
 30
0.0
 41
500.0
 42
500.0
 43
500.0
 50
90.0
  0
INSERT
  5
36B
330
366
100
AcDbEntity
  8
1
  6
Continuous
 62
     0
370
    -2
100
AcDbBlockReference
  2
_OPEN30
 10
262598.7399681031
 20
102733.5951115584
 30
0.0
 41
500.0
 42
500.0
 43
500.0
 50
270.0
  0
MTEXT
  5
36C
330
366
100
AcDbEntity
  8
1
  6
Continuous
 62
     0
370
    13
100
AcDbMText
 10
262348.7399681031
 20
103653.5951115584
 30
0.0
 40
400.0
 41
0.0
 71
     5
 72
     1
  1
\A1;120
 11
0.0000000000000001
 21
1.0
 31
0.0
 73
     1
 44
1.0
  0
POINT
  5
36D
330
366
100
AcDbEntity
  8
DEFPOINTS
  6
Continuous
 62
     0
100
AcDbPoint
 10
260422.1692133588
 20
104562.5073315582
 30
0.0
  0
POINT
  5
36E
330
366
100
AcDbEntity
  8
DEFPOINTS
  6
Continuous
 62
     0
100
AcDbPoint
 10
260422.1692133587
 20
102733.5951115584
 30
0.0
  0
POINT
  5
36F
330
366
100
AcDbEntity
  8
DEFPOINTS
  6
Continuous
 62
     0
100
AcDbPoint
 10
262598.7399681031
 20
102733.5951115584
 30
0.0
  0
ENDBLK
  5
371
330
366
100
AcDbEntity
  8
0
100
AcDbBlockEnd
  0
BLOCK
  5
37C
330
372
100
AcDbEntity
  8
0
100
AcDbBlockBegin
  2
*D16
 70
     1
 10
0.0
 20
0.0
 30
0.0
  3
*D16
  1

  0
LINE
  5
373
330
372
100
AcDbEntity
  8
1
  6
Continuous
 62
     0
370
    -2
100
AcDbLine
 10
260420.2868933589
 20
102722.5073315582
 30
0.0
 11
262640.7055673503
 21
102722.5073315582
 31
0.0
  0
LINE
  5
374
330
372
100
AcDbEntity
  8
1
  6
Continuous
 62
     0
370
    -2
100
AcDbLine
 10
260464.0173126059
 20
100882.5073315582
 30
0.0
 11
262640.7055673503
 21
100882.5073315582
 31
0.0
  0
LINE
  5
375
330
372
100
AcDbEntity
  8
1
  6
Continuous
 62
     0
370
    -2
100
AcDbLine
 10
262640.5255673503
 20
102222.5073315582
 30
0.0
 11
262640.5255673503
 21
101382.5073315582
 31
0.0
  0
INSERT
  5
376
330
372
100
AcDbEntity
  8
1
  6
Continuous
 62
     0
370
    -2
100
AcDbBlockReference
  2
_OPEN30
 10
262640.5255673503
 20
102722.5073315582
 30
0.0
 41
500.0
 42
500.0
 43
500.0
 50
90.0
  0
INSERT
  5
377
330
372
100
AcDbEntity
  8
1
  6
Continuous
 62
     0
370
    -2
100
AcDbBlockReference
  2
_OPEN30
 10
262640.5255673503
 20
100882.5073315582
 30
0.0
 41
500.0
 42
500.0
 43
500.0
 50
270.0
  0
MTEXT
  5
378
330
372
100
AcDbEntity
  8
1
  6
Continuous
 62
     0
370
    13
100
AcDbMText
 10
262390.5255673503
 20
101802.5073315582
 30
0.0
 40
400.0
 41
0.0
 71
     5
 72
     1
  1
\A1;120
 11
0.0000000000000001
 21
1.0
 31
0.0
 73
     1
 44
1.0
  0
POINT
  5
379
330
372
100
AcDbEntity
  8
DEFPOINTS
  6
Continuous
 62
     0
100
AcDbPoint
 10
260420.2243933589
 20
102722.5073315582
 30
0.0
  0
POINT
  5
37A
330
372
100
AcDbEntity
  8
DEFPOINTS
  6
Continuous
 62
     0
100
AcDbPoint
 10
260463.9548126058
 20
100882.5073315582
 30
0.0
  0
POINT
  5
37B
330
372
100
AcDbEntity
  8
DEFPOINTS
  6
Continuous
 62
     0
100
AcDbPoint
 10
262640.5255673503
 20
100882.5073315582
 30
0.0
  0
ENDBLK
  5
37D
330
372
100
AcDbEntity
  8
0
100
AcDbBlockEnd
  0
BLOCK
  5
388
330
37E
100
AcDbEntity
  8
0
100
AcDbBlockBegin
  2
*D17
 70
     1
 10
0.0
 20
0.0
 30
0.0
  3
*D17
  1

  0
LINE
  5
37F
330
37E
100
AcDbEntity
  8
1
  6
Continuous
 62
     0
370
    -2
100
AcDbLine
 10
260199.1146541116
 20
107242.5092915582
 30
0.0
 11
263628.6526785421
 21
107242.5092915582
 31
0.0
  0
LINE
  5
380
330
37E
100
AcDbEntity
  8
1
  6
Continuous
 62
     0
370
    -2
100
AcDbLine
 10
260242.8450733586
 20
100042.5092915582
 30
0.0
 11
263628.6526785421
 21
100042.5092915582
 31
0.0
  0
LINE
  5
381
330
37E
100
AcDbEntity
  8
1
  6
Continuous
 62
     0
370
    -2
100
AcDbLine
 10
263628.4726785421
 20
106742.5092915583
 30
0.0
 11
263628.4726785421
 21
100542.5092915582
 31
0.0
  0
INSERT
  5
382
330
37E
100
AcDbEntity
  8
1
  6
Continuous
 62
     0
370
    -2
100
AcDbBlockReference
  2
_OPEN30
 10
263628.4726785421
 20
107242.5092915582
 30
0.0
 41
500.0
 42
500.0
 43
500.0
 50
90.0
  0
INSERT
  5
383
330
37E
100
AcDbEntity
  8
1
  6
Continuous
 62
     0
370
    -2
100
AcDbBlockReference
  2
_OPEN30
 10
263628.4726785421
 20
100042.5092915582
 30
0.0
 41
500.0
 42
500.0
 43
500.0
 50
270.0
  0
MTEXT
  5
384
330
37E
100
AcDbEntity
  8
1
  6
Continuous
 62
     0
370
    13
100
AcDbMText
 10
263378.4726785421
 20
103642.5092915582
 30
0.0
 40
400.0
 41
0.0
 71
     5
 72
     1
  1
\A1;120
 11
0.0000000000000001
 21
1.0
 31
0.0
 73
     1
 44
1.0
  0
POINT
  5
385
330
37E
100
AcDbEntity
  8
DEFPOINTS
  6
Continuous
 62
     0
100
AcDbPoint
 10
260199.0521541116
 20
107242.5092915582
 30
0.0
  0
POINT
  5
386
330
37E
100
AcDbEntity
  8
DEFPOINTS
  6
Continuous
 62
     0
100
AcDbPoint
 10
260242.7825733586
 20
100042.5092915582
 30
0.0
  0
POINT
  5
387
330
37E
100
AcDbEntity
  8
DEFPOINTS
  6
Continuous
 62
     0
100
AcDbPoint
 10
263628.4726785421
 20
100042.5092915582
 30
0.0
  0
ENDBLK
  5
389
330
37E
100
AcDbEntity
  8
0
100
AcDbBlockEnd
  0
BLOCK
  5
394
330
38A
100
AcDbEntity
  8
0
100
AcDbBlockBegin
  2
*D18
 70
     1
 10
0.0
 20
0.0
 30
0.0
  3
*D18
  1

  0
LINE
  5
38B
330
38A
100
AcDbEntity
  8
1
  6
Continuous
 62
     0
370
    -2
100
AcDbLine
 10
256535.0838933591
 20
107932.5698315582
 30
0.0
 11
256535.0838933591
 21
110249.8935476768
 31
0.0
  0
LINE
  5
38C
330
38A
100
AcDbEntity
  8
1
  6
Continuous
 62
     0
370
    -2
100
AcDbLine
 10
260537.0838933587
 20
107932.5698315582
 30
0.0
 11
260537.0838933587
 21
110249.8935476768
 31
0.0
  0
LINE
  5
38D
330
38A
100
AcDbEntity
  8
1
  6
Continuous
 62
     0
370
    -2
100
AcDbLine
 10
257035.0838933592
 20
110249.7135476768
 30
0.0
 11
260037.0838933587
 21
110249.7135476768
 31
0.0
  0
INSERT
  5
38E
330
38A
100
AcDbEntity
  8
1
  6
Continuous
 62
     0
370
    -2
100
AcDbBlockReference
  2
_OPEN30
 10
256535.0838933591
 20
110249.7135476768
 30
0.0
 41
500.0
 42
500.0
 43
500.0
 50
180.0
  0
INSERT
  5
38F
330
38A
100
AcDbEntity
  8
1
  6
Continuous
 62
     0
370
    -2
100
AcDbBlockReference
  2
_OPEN30
 10
260537.0838933587
 20
110249.7135476768
 30
0.0
 41
500.0
 42
500.0
 43
500.0
  0
MTEXT
  5
390
330
38A
100
AcDbEntity
  8
1
  6
Continuous
 62
     0
370
    13
100
AcDbMText
 10
258536.0838933589
 20
110499.7135476768
 30
0.0
 40
400.0
 41
0.0
 71
     5
 72
     1
  1
\A1;83.5
 73
     1
 44
1.0
  0
POINT
  5
391
330
38A
100
AcDbEntity
  8
DEFPOINTS
  6
Continuous
 62
     0
100
AcDbPoint
 10
256535.0838933591
 20
107932.5073315582
 30
0.0
  0
POINT
  5
392
330
38A
100
AcDbEntity
  8
DEFPOINTS
  6
Continuous
 62
     0
100
AcDbPoint
 10
260537.0838933587
 20
107932.5073315582
 30
0.0
  0
POINT
  5
393
330
38A
100
AcDbEntity
  8
DEFPOINTS
  6
Continuous
 62
     0
100
AcDbPoint
 10
260537.0838933587
 20
110249.7135476768
 30
0.0
  0
ENDBLK
  5
395
330
38A
100
AcDbEntity
  8
0
100
AcDbBlockEnd
  0
BLOCK
  5
3A0
330
396
100
AcDbEntity
  8
0
100
AcDbBlockBegin
  2
*D19
 70
     1
 10
0.0
 20
0.0
 30
0.0
  3
*D19
  1

  0
LINE
  5
397
330
396
100
AcDbEntity
  8
1
  6
Continuous
 62
     0
370
    -2
100
AcDbLine
 10
257136.0838933587
 20
107489.2117915579
 30
0.0
 11
257136.0838933587
 21
109559.7856388318
 31
0.0
  0
LINE
  5
398
330
396
100
AcDbEntity
  8
1
  6
Continuous
 62
     0
370
    -2
100
AcDbLine
 10
259936.0838933587
 20
107489.2117915579
 30
0.0
 11
259936.0838933587
 21
109559.7856388318
 31
0.0
  0
LINE
  5
399
330
396
100
AcDbEntity
  8
1
  6
Continuous
 62
     0
370
    -2
100
AcDbLine
 10
257636.0838933587
 20
109559.6056388318
 30
0.0
 11
259436.0838933587
 21
109559.6056388318
 31
0.0
  0
INSERT
  5
39A
330
396
100
AcDbEntity
  8
1
  6
Continuous
 62
     0
370
    -2
100
AcDbBlockReference
  2
_OPEN30
 10
257136.0838933587
 20
109559.6056388318
 30
0.0
 41
500.0
 42
500.0
 43
500.0
 50
180.0
  0
INSERT
  5
39B
330
396
100
AcDbEntity
  8
1
  6
Continuous
 62
     0
370
    -2
100
AcDbBlockReference
  2
_OPEN30
 10
259936.0838933587
 20
109559.6056388318
 30
0.0
 41
500.0
 42
500.0
 43
500.0
  0
MTEXT
  5
39C
330
396
100
AcDbEntity
  8
1
  6
Continuous
 62
     0
370
    13
100
AcDbMText
 10
258536.0838933587
 20
109809.6056388318
 30
0.0
 40
400.0
 41
0.0
 71
     5
 72
     1
  1
\A1;70
 73
     1
 44
1.0
  0
POINT
  5
39D
330
396
100
AcDbEntity
  8
DEFPOINTS
  6
Continuous
 62
     0
100
AcDbPoint
 10
257136.0838933587
 20
107489.1492915579
 30
0.0
  0
POINT
  5
39E
330
396
100
AcDbEntity
  8
DEFPOINTS
  6
Continuous
 62
     0
100
AcDbPoint
 10
259936.0838933587
 20
107489.1492915579
 30
0.0
  0
POINT
  5
39F
330
396
100
AcDbEntity
  8
DEFPOINTS
  6
Continuous
 62
     0
100
AcDbPoint
 10
259936.0838933587
 20
109559.6056388318
 30
0.0
  0
ENDBLK
  5
3A1
330
396
100
AcDbEntity
  8
0
100
AcDbBlockEnd
  0
BLOCK
  5
3AC
330
3A2
100
AcDbEntity
  8
0
100
AcDbBlockBegin
  2
*D20
 70
     1
 10
0.0
 20
0.0
 30
0.0
  3
*D20
  1

  0
LINE
  5
3A3
330
3A2
100
AcDbEntity
  8
1
  6
Continuous
 62
     0
370
    -2
100
AcDbLine
 10
268607.2118933592
 20
108336.1910315586
 30
0.0
 11
268607.2118933592
 21
110406.7648788325
 31
0.0
  0
LINE
  5
3A4
330
3A2
100
AcDbEntity
  8
1
  6
Continuous
 62
     0
370
    -2
100
AcDbLine
 10
271183.2118933587
 20
108496.1910315586
 30
0.0
 11
271183.2118933587
 21
110406.7648788325
 31
0.0
  0
LINE
  5
3A5
330
3A2
100
AcDbEntity
  8
1
  6
Continuous
 62
     0
370
    -2
100
AcDbLine
 10
269107.2118933591
 20
110406.5848788325
 30
0.0
 11
270683.2118933587
 21
110406.5848788325
 31
0.0
  0
INSERT
  5
3A6
330
3A2
100
AcDbEntity
  8
1
  6
Continuous
 62
     0
370
    -2
100
AcDbBlockReference
  2
_OPEN30
 10
268607.2118933592
 20
110406.5848788325
 30
0.0
 41
500.0
 42
500.0
 43
500.0
 50
180.0
  0
INSERT
  5
3A7
330
3A2
100
AcDbEntity
  8
1
  6
Continuous
 62
     0
370
    -2
100
AcDbBlockReference
  2
_OPEN30
 10
271183.2118933587
 20
110406.5848788325
 30
0.0
 41
500.0
 42
500.0
 43
500.0
  0
MTEXT
  5
3A8
330
3A2
100
AcDbEntity
  8
1
  6
Continuous
 62
     0
370
    13
100
AcDbMText
 10
269895.2118933589
 20
110656.5848788325
 30
0.0
 40
400.0
 41
0.0
 71
     5
 72
     1
  1
\A1;62
 73
     1
 44
1.0
  0
POINT
  5
3A9
330
3A2
100
AcDbEntity
  8
DEFPOINTS
  6
Continuous
 62
     0
100
AcDbPoint
 10
268607.2118933592
 20
108336.1285315586
 30
0.0
  0
POINT
  5
3AA
330
3A2
100
AcDbEntity
  8
DEFPOINTS
  6
Continuous
 62
     0
100
AcDbPoint
 10
271183.2118933587
 20
108496.1285315586
 30
0.0
  0
POINT
  5
3AB
330
3A2
100
AcDbEntity
  8
DEFPOINTS
  6
Continuous
 62
     0
100
AcDbPoint
 10
271183.2118933587
 20
110406.5848788325
 30
0.0
  0
ENDBLK
  5
3AD
330
3A2
100
AcDbEntity
  8
0
100
AcDbBlockEnd
  0
BLOCK
  5
54D
330
543
100
AcDbEntity
  8
0
100
AcDbBlockBegin
  2
*D22
 70
     1
 10
0.0
 20
0.0
 30
0.0
  3
*D22
  1

  0
LINE
  5
5AF
330
543
100
AcDbEntity
  8
1
  6
Continuous
 62
     0
370
    -2
100
AcDbLine
 10
5186.420187425072
 20
20297.74562532678
 30
0.0
 11
5186.420187425072
 21
23290.61757677232
 31
0.0
  0
LINE
  5
5B0
330
543
100
AcDbEntity
  8
1
  6
Continuous
 62
     0
370
    -2
100
AcDbLine
 10
10266.48268742504
 20
20297.74562532678
 30
0.0
 11
10266.48268742504
 21
23290.61757677232
 31
0.0
  0
LINE
  5
5B1
330
543
100
AcDbEntity
  8
1
  6
Continuous
 62
     0
370
    -2
100
AcDbLine
 10
5686.420187425072
 20
23290.43757677232
 30
0.0
 11
9766.482687425044
 21
23290.43757677232
 31
0.0
  0
INSERT
  5
5B2
330
543
100
AcDbEntity
  8
1
  6
Continuous
 62
     0
370
    -2
100
AcDbBlockReference
  2
_OPEN30
 10
5186.420187425072
 20
23290.43757677232
 30
0.0
 41
500.0
 42
500.0
 43
500.0
 50
180.0
  0
INSERT
  5
5B3
330
543
100
AcDbEntity
  8
1
  6
Continuous
 62
     0
370
    -2
100
AcDbBlockReference
  2
_OPEN30
 10
10266.48268742504
 20
23290.43757677232
 30
0.0
 41
500.0
 42
500.0
 43
500.0
  0
MTEXT
  5
5B4
330
543
100
AcDbEntity
  8
1
  6
Continuous
 62
     0
370
    13
100
AcDbMText
 10
7726.451437425042
 20
23540.43757677232
 30
0.0
 40
400.0
 41
0.0
 71
     5
 72
     1
  1
\A1;127
 73
     1
 44
1.0
  0
POINT
  5
5B5
330
543
100
AcDbEntity
  8
DEFPOINTS
  6
Continuous
 62
     0
100
AcDbPoint
 10
5186.420187425072
 20
20297.68312532679
 30
0.0
  0
POINT
  5
5B6
330
543
100
AcDbEntity
  8
DEFPOINTS
  6
Continuous
 62
     0
100
AcDbPoint
 10
10266.48268742504
 20
20297.68312532679
 30
0.0
  0
POINT
  5
5B7
330
543
100
AcDbEntity
  8
DEFPOINTS
  6
Continuous
 62
     0
100
AcDbPoint
 10
10266.48268742504
 20
23290.43757677232
 30
0.0
  0
ENDBLK
  5
54E
330
543
100
AcDbEntity
  8
0
100
AcDbBlockEnd
  0
BLOCK
  5
559
330
54F
100
AcDbEntity
  8
0
100
AcDbBlockBegin
  2
*D23
 70
     1
 10
0.0
 20
0.0
 30
0.0
  3
*D23
  1

  0
LINE
  5
5B8
330
54F
100
AcDbEntity
  8
1
  6
Continuous
 62
     0
370
    -2
100
AcDbLine
 10
9723.713448178198
 20
20797.68312532678
 30
0.0
 11
14189.92943251553
 21
20797.68312532678
 31
0.0
  0
LINE
  5
5B9
330
54F
100
AcDbEntity
  8
1
  6
Continuous
 62
     0
370
    -2
100
AcDbLine
 10
9779.288587939955
 20
10937.84554596393
 30
0.0
 11
14189.92943251552
 21
10937.84554596393
 31
0.0
  0
LINE
  5
5BA
330
54F
100
AcDbEntity
  8
1
  6
Continuous
 62
     0
370
    -2
100
AcDbLine
 10
14189.74943251553
 20
20297.68312532679
 30
0.0
 11
14189.74943251552
 21
11437.84554596393
 31
0.0
  0
INSERT
  5
5BB
330
54F
100
AcDbEntity
  8
1
  6
Continuous
 62
     0
370
    -2
100
AcDbBlockReference
  2
_OPEN30
 10
14189.74943251553
 20
20797.68312532678
 30
0.0
 41
500.0
 42
500.0
 43
500.0
 50
90.0
  0
INSERT
  5
5BC
330
54F
100
AcDbEntity
  8
1
  6
Continuous
 62
     0
370
    -2
100
AcDbBlockReference
  2
_OPEN30
 10
14189.74943251552
 20
10937.84554596393
 30
0.0
 41
500.0
 42
500.0
 43
500.0
 50
270.0
  0
MTEXT
  5
5BD
330
54F
100
AcDbEntity
  8
1
  6
Continuous
 62
     0
370
    13
100
AcDbMText
 10
13939.74943251552
 20
15912.01294869673
 30
0.0
 40
400.0
 41
0.0
 71
     5
 72
     1
  1
\A1;120
 11
0.0000000000000001
 21
1.0
 31
0.0
 73
     1
 44
1.0
  0
POINT
  5
5BE
330
54F
100
AcDbEntity
  8
DEFPOINTS
  6
Continuous
 62
     0
100
AcDbPoint
 10
9723.650948178198
 20
20797.68312532678
 30
0.0
  0
POINT
  5
5BF
330
54F
100
AcDbEntity
  8
DEFPOINTS
  6
Continuous
 62
     0
100
AcDbPoint
 10
9779.226087939955
 20
10937.84554596393
 30
0.0
  0
POINT
  5
5C0
330
54F
100
AcDbEntity
  8
DEFPOINTS
  6
Continuous
 62
     0
100
AcDbPoint
 10
14189.74943251552
 20
10937.84554596393
 30
0.0
  0
ENDBLK
  5
55A
330
54F
100
AcDbEntity
  8
0
100
AcDbBlockEnd
  0
BLOCK
  5
565
330
55B
100
AcDbEntity
  8
0
100
AcDbBlockBegin
  2
*D24
 70
     1
 10
0.0
 20
0.0
 30
0.0
  3
*D24
  1

  0
LINE
  5
5C1
330
55B
100
AcDbEntity
  8
1
  6
Continuous
 62
     0
370
    -2
100
AcDbLine
 10
9568.900088178168
 20
18627.68312532678
 30
0.0
 11
11789.31876216952
 21
18627.68312532678
 31
0.0
  0
LINE
  5
5C2
330
55B
100
AcDbEntity
  8
1
  6
Continuous
 62
     0
370
    -2
100
AcDbLine
 10
9612.630507425116
 20
16787.68312532678
 30
0.0
 11
11789.31876216952
 21
16787.68312532678
 31
0.0
  0
LINE
  5
5C3
330
55B
100
AcDbEntity
  8
1
  6
Continuous
 62
     0
370
    -2
100
AcDbLine
 10
11789.13876216951
 20
18127.68312532679
 30
0.0
 11
11789.13876216951
 21
17287.68312532678
 31
0.0
  0
INSERT
  5
5C4
330
55B
100
AcDbEntity
  8
1
  6
Continuous
 62
     0
370
    -2
100
AcDbBlockReference
  2
_OPEN30
 10
11789.13876216951
 20
18627.68312532678
 30
0.0
 41
500.0
 42
500.0
 43
500.0
 50
90.0
  0
INSERT
  5
5C5
330
55B
100
AcDbEntity
  8
1
  6
Continuous
 62
     0
370
    -2
100
AcDbBlockReference
  2
_OPEN30
 10
11789.13876216951
 20
16787.68312532678
 30
0.0
 41
500.0
 42
500.0
 43
500.0
 50
270.0
  0
MTEXT
  5
5C6
330
55B
100
AcDbEntity
  8
1
  6
Continuous
 62
     0
370
    13
100
AcDbMText
 10
11539.13876216951
 20
17707.68312532679
 30
0.0
 40
400.0
 41
0.0
 71
     5
 72
     1
  1
\A1;120
 11
0.0000000000000001
 21
1.0
 31
0.0
 73
     1
 44
1.0
  0
POINT
  5
5C7
330
55B
100
AcDbEntity
  8
DEFPOINTS
  6
Continuous
 62
     0
100
AcDbPoint
 10
9568.837588178167
 20
18627.68312532678
 30
0.0
  0
POINT
  5
5C8
330
55B
100
AcDbEntity
  8
DEFPOINTS
  6
Continuous
 62
     0
100
AcDbPoint
 10
9612.568007425114
 20
16787.68312532678
 30
0.0
  0
POINT
  5
5C9
330
55B
100
AcDbEntity
  8
DEFPOINTS
  6
Continuous
 62
     0
100
AcDbPoint
 10
11789.13876216951
 20
16787.68312532678
 30
0.0
  0
ENDBLK
  5
566
330
55B
100
AcDbEntity
  8
0
100
AcDbBlockEnd
  0
BLOCK
  5
571
330
567
100
AcDbEntity
  8
0
100
AcDbBlockBegin
  2
*D25
 70
     1
 10
0.0
 20
0.0
 30
0.0
  3
*D25
  1

  0
LINE
  5
5CA
330
567
100
AcDbEntity
  8
1
  6
Continuous
 62
     0
370
    -2
100
AcDbLine
 10
9612.630507425116
 20
16787.68312532678
 30
0.0
 11
11789.31876216946
 21
16787.68312532678
 31
0.0
  0
LINE
  5
5CB
330
567
100
AcDbEntity
  8
1
  6
Continuous
 62
     0
370
    -2
100
AcDbLine
 10
9612.630507425086
 20
14958.77090532696
 30
0.0
 11
11789.31876216946
 21
14958.77090532696
 31
0.0
  0
LINE
  5
5CC
330
567
100
AcDbEntity
  8
1
  6
Continuous
 62
     0
370
    -2
100
AcDbLine
 10
11789.13876216946
 20
16287.68312532679
 30
0.0
 11
11789.13876216946
 21
15458.77090532696
 31
0.0
  0
INSERT
  5
5CD
330
567
100
AcDbEntity
  8
1
  6
Continuous
 62
     0
370
    -2
100
AcDbBlockReference
  2
_OPEN30
 10
11789.13876216946
 20
16787.68312532678
 30
0.0
 41
500.0
 42
500.0
 43
500.0
 50
90.0
  0
INSERT
  5
5CE
330
567
100
AcDbEntity
  8
1
  6
Continuous
 62
     0
370
    -2
100
AcDbBlockReference
  2
_OPEN30
 10
11789.13876216946
 20
14958.77090532696
 30
0.0
 41
500.0
 42
500.0
 43
500.0
 50
270.0
  0
MTEXT
  5
5CF
330
567
100
AcDbEntity
  8
1
  6
Continuous
 62
     0
370
    13
100
AcDbMText
 10
11539.13876216946
 20
15878.77090532696
 30
0.0
 40
400.0
 41
0.0
 71
     5
 72
     1
  1
\A1;120
 11
0.0000000000000001
 21
1.0
 31
0.0
 73
     1
 44
1.0
  0
POINT
  5
5D0
330
567
100
AcDbEntity
  8
DEFPOINTS
  6
Continuous
 62
     0
100
AcDbPoint
 10
9612.568007425114
 20
16787.68312532678
 30
0.0
  0
POINT
  5
5D1
330
567
100
AcDbEntity
  8
DEFPOINTS
  6
Continuous
 62
     0
100
AcDbPoint
 10
9612.568007425085
 20
14958.77090532696
 30
0.0
  0
POINT
  5
5D2
330
567
100
AcDbEntity
  8
DEFPOINTS
  6
Continuous
 62
     0
100
AcDbPoint
 10
11789.13876216946
 20
14958.77090532696
 30
0.0
  0
ENDBLK
  5
572
330
567
100
AcDbEntity
  8
0
100
AcDbBlockEnd
  0
BLOCK
  5
57D
330
573
100
AcDbEntity
  8
0
100
AcDbBlockBegin
  2
*D26
 70
     1
 10
0.0
 20
0.0
 30
0.0
  3
*D26
  1

  0
LINE
  5
5D3
330
573
100
AcDbEntity
  8
1
  6
Continuous
 62
     0
370
    -2
100
AcDbLine
 10
9610.685687425256
 20
14947.68312532678
 30
0.0
 11
11831.10436141666
 21
14947.68312532678
 31
0.0
  0
LINE
  5
5D4
330
573
100
AcDbEntity
  8
1
  6
Continuous
 62
     0
370
    -2
100
AcDbLine
 10
9654.416106672201
 20
13107.68312532678
 30
0.0
 11
11831.10436141666
 21
13107.68312532678
 31
0.0
  0
LINE
  5
5D5
330
573
100
AcDbEntity
  8
1
  6
Continuous
 62
     0
370
    -2
100
AcDbLine
 10
11830.92436141666
 20
14447.68312532678
 30
0.0
 11
11830.92436141666
 21
13607.68312532678
 31
0.0
  0
INSERT
  5
5D6
330
573
100
AcDbEntity
  8
1
  6
Continuous
 62
     0
370
    -2
100
AcDbBlockReference
  2
_OPEN30
 10
11830.92436141666
 20
14947.68312532678
 30
0.0
 41
500.0
 42
500.0
 43
500.0
 50
90.0
  0
INSERT
  5
5D7
330
573
100
AcDbEntity
  8
1
  6
Continuous
 62
     0
370
    -2
100
AcDbBlockReference
  2
_OPEN30
 10
11830.92436141666
 20
13107.68312532678
 30
0.0
 41
500.0
 42
500.0
 43
500.0
 50
270.0
  0
MTEXT
  5
5D8
330
573
100
AcDbEntity
  8
1
  6
Continuous
 62
     0
370
    13
100
AcDbMText
 10
11580.92436141666
 20
14027.68312532678
 30
0.0
 40
400.0
 41
0.0
 71
     5
 72
     1
  1
\A1;120
 11
0.0000000000000001
 21
1.0
 31
0.0
 73
     1
 44
1.0
  0
POINT
  5
5D9
330
573
100
AcDbEntity
  8
DEFPOINTS
  6
Continuous
 62
     0
100
AcDbPoint
 10
9610.623187425256
 20
14947.68312532678
 30
0.0
  0
POINT
  5
5DA
330
573
100
AcDbEntity
  8
DEFPOINTS
  6
Continuous
 62
     0
100
AcDbPoint
 10
9654.353606672202
 20
13107.68312532678
 30
0.0
  0
POINT
  5
5DB
330
573
100
AcDbEntity
  8
DEFPOINTS
  6
Continuous
 62
     0
100
AcDbPoint
 10
11830.92436141666
 20
13107.68312532678
 30
0.0
  0
ENDBLK
  5
57E
330
573
100
AcDbEntity
  8
0
100
AcDbBlockEnd
  0
BLOCK
  5
589
330
57F
100
AcDbEntity
  8
0
100
AcDbBlockBegin
  2
*D27
 70
     1
 10
0.0
 20
0.0
 30
0.0
  3
*D27
  1

  0
LINE
  5
5DC
330
57F
100
AcDbEntity
  8
1
  6
Continuous
 62
     0
370
    -2
100
AcDbLine
 10
9389.513448178012
 20
19467.68508532681
 30
0.0
 11
12819.05147260847
 21
19467.68508532681
 31
0.0
  0
LINE
  5
5DD
330
57F
100
AcDbEntity
  8
1
  6
Continuous
 62
     0
370
    -2
100
AcDbLine
 10
9433.243867424927
 20
12267.68508532679
 30
0.0
 11
12819.05147260847
 21
12267.68508532679
 31
0.0
  0
LINE
  5
5DE
330
57F
100
AcDbEntity
  8
1
  6
Continuous
 62
     0
370
    -2
100
AcDbLine
 10
12818.87147260847
 20
18967.68508532681
 30
0.0
 11
12818.87147260847
 21
12767.68508532679
 31
0.0
  0
INSERT
  5
5DF
330
57F
100
AcDbEntity
  8
1
  6
Continuous
 62
     0
370
    -2
100
AcDbBlockReference
  2
_OPEN30
 10
12818.87147260847
 20
19467.68508532681
 30
0.0
 41
500.0
 42
500.0
 43
500.0
 50
90.0
  0
INSERT
  5
5E0
330
57F
100
AcDbEntity
  8
1
  6
Continuous
 62
     0
370
    -2
100
AcDbBlockReference
  2
_OPEN30
 10
12818.87147260847
 20
12267.68508532679
 30
0.0
 41
500.0
 42
500.0
 43
500.0
 50
270.0
  0
MTEXT
  5
5E1
330
57F
100
AcDbEntity
  8
1
  6
Continuous
 62
     0
370
    13
100
AcDbMText
 10
12568.87147260847
 20
15867.68508532681
 30
0.0
 40
400.0
 41
0.0
 71
     5
 72
     1
  1
\A1;120
 11
0.0000000000000001
 21
1.0
 31
0.0
 73
     1
 44
1.0
  0
POINT
  5
5E2
330
57F
100
AcDbEntity
  8
DEFPOINTS
  6
Continuous
 62
     0
100
AcDbPoint
 10
9389.450948178012
 20
19467.68508532681
 30
0.0
  0
POINT
  5
5E3
330
57F
100
AcDbEntity
  8
DEFPOINTS
  6
Continuous
 62
     0
100
AcDbPoint
 10
9433.181367424927
 20
12267.68508532679
 30
0.0
  0
POINT
  5
5E4
330
57F
100
AcDbEntity
  8
DEFPOINTS
  6
Continuous
 62
     0
100
AcDbPoint
 10
12818.87147260847
 20
12267.68508532679
 30
0.0
  0
ENDBLK
  5
58A
330
57F
100
AcDbEntity
  8
0
100
AcDbBlockEnd
  0
BLOCK
  5
595
330
58B
100
AcDbEntity
  8
0
100
AcDbBlockBegin
  2
*D28
 70
     1
 10
0.0
 20
0.0
 30
0.0
  3
*D28
  1

  0
LINE
  5
5E5
330
58B
100
AcDbEntity
  8
1
  6
Continuous
 62
     0
370
    -2
100
AcDbLine
 10
5725.482687425508
 20
20157.74562532679
 30
0.0
 11
5725.482687425508
 21
22475.06934144531
 31
0.0
  0
LINE
  5
5E6
330
58B
100
AcDbEntity
  8
1
  6
Continuous
 62
     0
370
    -2
100
AcDbLine
 10
9727.482687425045
 20
20157.74562532679
 30
0.0
 11
9727.482687425045
 21
22475.06934144531
 31
0.0
  0
LINE
  5
5E7
330
58B
100
AcDbEntity
  8
1
  6
Continuous
 62
     0
370
    -2
100
AcDbLine
 10
6225.482687425508
 20
22474.88934144532
 30
0.0
 11
9227.482687425043
 21
22474.88934144532
 31
0.0
  0
INSERT
  5
5E8
330
58B
100
AcDbEntity
  8
1
  6
Continuous
 62
     0
370
    -2
100
AcDbBlockReference
  2
_OPEN30
 10
5725.482687425508
 20
22474.88934144532
 30
0.0
 41
500.0
 42
500.0
 43
500.0
 50
180.0
  0
INSERT
  5
5E9
330
58B
100
AcDbEntity
  8
1
  6
Continuous
 62
     0
370
    -2
100
AcDbBlockReference
  2
_OPEN30
 10
9727.482687425045
 20
22474.88934144532
 30
0.0
 41
500.0
 42
500.0
 43
500.0
  0
MTEXT
  5
5EA
330
58B
100
AcDbEntity
  8
1
  6
Continuous
 62
     0
370
    13
100
AcDbMText
 10
7726.482687425276
 20
22724.88934144532
 30
0.0
 40
400.0
 41
0.0
 71
     5
 72
     1
  1
\A1;83.5
 73
     1
 44
1.0
  0
POINT
  5
5EB
330
58B
100
AcDbEntity
  8
DEFPOINTS
  6
Continuous
 62
     0
100
AcDbPoint
 10
5725.482687425508
 20
20157.68312532678
 30
0.0
  0
POINT
  5
5EC
330
58B
100
AcDbEntity
  8
DEFPOINTS
  6
Continuous
 62
     0
100
AcDbPoint
 10
9727.482687425045
 20
20157.68312532678
 30
0.0
  0
POINT
  5
5ED
330
58B
100
AcDbEntity
  8
DEFPOINTS
  6
Continuous
 62
     0
100
AcDbPoint
 10
9727.482687425045
 20
22474.88934144532
 30
0.0
  0
ENDBLK
  5
596
330
58B
100
AcDbEntity
  8
0
100
AcDbBlockEnd
  0
BLOCK
  5
5A1
330
597
100
AcDbEntity
  8
0
100
AcDbBlockBegin
  2
*D29
 70
     1
 10
0.0
 20
0.0
 30
0.0
  3
*D29
  1

  0
LINE
  5
5EE
330
597
100
AcDbEntity
  8
1
  6
Continuous
 62
     0
370
    -2
100
AcDbLine
 10
6326.482687425043
 20
19714.38758532647
 30
0.0
 11
6326.482687425043
 21
21784.96143260037
 31
0.0
  0
LINE
  5
5EF
330
597
100
AcDbEntity
  8
1
  6
Continuous
 62
     0
370
    -2
100
AcDbLine
 10
9126.482687425044
 20
19714.38758532647
 30
0.0
 11
9126.482687425044
 21
21784.96143260037
 31
0.0
  0
LINE
  5
5F0
330
597
100
AcDbEntity
  8
1
  6
Continuous
 62
     0
370
    -2
100
AcDbLine
 10
6826.482687425043
 20
21784.78143260037
 30
0.0
 11
8626.482687425044
 21
21784.78143260037
 31
0.0
  0
INSERT
  5
5F1
330
597
100
AcDbEntity
  8
1
  6
Continuous
 62
     0
370
    -2
100
AcDbBlockReference
  2
_OPEN30
 10
6326.482687425043
 20
21784.78143260037
 30
0.0
 41
500.0
 42
500.0
 43
500.0
 50
180.0
  0
INSERT
  5
5F2
330
597
100
AcDbEntity
  8
1
  6
Continuous
 62
     0
370
    -2
100
AcDbBlockReference
  2
_OPEN30
 10
9126.482687425044
 20
21784.78143260037
 30
0.0
 41
500.0
 42
500.0
 43
500.0
  0
MTEXT
  5
5F3
330
597
100
AcDbEntity
  8
1
  6
Continuous
 62
     0
370
    13
100
AcDbMText
 10
7726.482687425043
 20
22034.78143260037
 30
0.0
 40
400.0
 41
0.0
 71
     5
 72
     1
  1
\A1;70
 73
     1
 44
1.0
  0
POINT
  5
5F4
330
597
100
AcDbEntity
  8
DEFPOINTS
  6
Continuous
 62
     0
100
AcDbPoint
 10
6326.482687425043
 20
19714.32508532647
 30
0.0
  0
POINT
  5
5F5
330
597
100
AcDbEntity
  8
DEFPOINTS
  6
Continuous
 62
     0
100
AcDbPoint
 10
9126.482687425044
 20
19714.32508532647
 30
0.0
  0
POINT
  5
5F6
330
597
100
AcDbEntity
  8
DEFPOINTS
  6
Continuous
 62
     0
100
AcDbPoint
 10
9126.482687425044
 20
21784.78143260037
 30
0.0
  0
ENDBLK
  5
5A2
330
597
100
AcDbEntity
  8
0
100
AcDbBlockEnd
  0
BLOCK
  5
5AD
330
5A3
100
AcDbEntity
  8
0
100
AcDbBlockBegin
  2
*D30
 70
     1
 10
0.0
 20
0.0
 30
0.0
  3
*D30
  1

  0
LINE
  5
5F7
330
5A3
100
AcDbEntity
  8
1
  6
Continuous
 62
     0
370
    -2
100
AcDbLine
 10
17797.61068742553
 20
20561.36682532719
 30
0.0
 11
17797.61068742553
 21
22631.94067260108
 31
0.0
  0
LINE
  5
5F8
330
5A3
100
AcDbEntity
  8
1
  6
Continuous
 62
     0
370
    -2
100
AcDbLine
 10
20373.61068742506
 20
20721.36682532719
 30
0.0
 11
20373.61068742506
 21
22631.94067260108
 31
0.0
  0
LINE
  5
5F9
330
5A3
100
AcDbEntity
  8
1
  6
Continuous
 62
     0
370
    -2
100
AcDbLine
 10
18297.61068742553
 20
22631.76067260108
 30
0.0
 11
19873.61068742506
 21
22631.76067260108
 31
0.0
  0
INSERT
  5
5FA
330
5A3
100
AcDbEntity
  8
1
  6
Continuous
 62
     0
370
    -2
100
AcDbBlockReference
  2
_OPEN30
 10
17797.61068742553
 20
22631.76067260108
 30
0.0
 41
500.0
 42
500.0
 43
500.0
 50
180.0
  0
INSERT
  5
5FB
330
5A3
100
AcDbEntity
  8
1
  6
Continuous
 62
     0
370
    -2
100
AcDbBlockReference
  2
_OPEN30
 10
20373.61068742506
 20
22631.76067260108
 30
0.0
 41
500.0
 42
500.0
 43
500.0
  0
MTEXT
  5
5FC
330
5A3
100
AcDbEntity
  8
1
  6
Continuous
 62
     0
370
    13
100
AcDbMText
 10
19085.6106874253
 20
22881.76067260108
 30
0.0
 40
400.0
 41
0.0
 71
     5
 72
     1
  1
\A1;62
 73
     1
 44
1.0
  0
POINT
  5
5FD
330
5A3
100
AcDbEntity
  8
DEFPOINTS
  6
Continuous
 62
     0
100
AcDbPoint
 10
17797.61068742553
 20
20561.30432532718
 30
0.0
  0
POINT
  5
5FE
330
5A3
100
AcDbEntity
  8
DEFPOINTS
  6
Continuous
 62
     0
100
AcDbPoint
 10
20373.61068742506
 20
20721.30432532719
 30
0.0
  0
POINT
  5
5FF
330
5A3
100
AcDbEntity
  8
DEFPOINTS
  6
Continuous
 62
     0
100
AcDbPoint
 10
20373.61068742506
 20
22631.76067260108
 30
0.0
  0
ENDBLK
  5
5AE
330
5A3
100
AcDbEntity
  8
0
100
AcDbBlockEnd
  0
ENDSEC
  0
SECTION
  2
ENTITIES
  0
LINE
  5
47B
330
1F
100
AcDbEntity
  8
0
370
    13
100
AcDbLine
 10
1257.02321141219
 20
26461.91624055487
 30
0.0
 11
23837.48088345688
 21
26461.91624055487
 31
0.0
  0
LINE
  5
47C
330
1F
100
AcDbEntity
  8
1
  6
Continuous
 62
     7
370
    13
100
AcDbLine
 10
4012.721988974779
 20
26461.91624055487
 30
0.0
 11
4012.721988974779
 21
24624.78372217991
 31
0.0
  0
LINE
  5
47D
330
1F
100
AcDbEntity
  8
1
  6
Continuous
 62
     7
370
    13
100
AcDbLine
 10
1257.02321141219
 20
24624.78372217991
 30
0.0
 11
23837.48088345525
 21
24624.78372217991
 31
0.0
  0
LINE
  5
47E
330
1F
100
AcDbEntity
  8
1
  6
Continuous
 62
     7
370
    13
100
AcDbLine
 10
1257.02321141219
 20
26461.91624055487
 30
0.0
 11
1257.02321141219
 21
1381.96021576476
 31
0.0
  0
LINE
  5
47F
330
1F
100
AcDbEntity
  8
0
370
    13
100
AcDbLine
 10
1257.02321141219
 20
1381.96021576476
 30
0.0
 11
23837.48088345688
 21
1381.96021576476
 31
0.0
  0
LINE
  5
480
330
1F
100
AcDbEntity
  8
1
  6
Continuous
 62
     7
370
    13
100
AcDbLine
 10
23837.48088345688
 20
26461.91624055487
 30
0.0
 11
23837.48088345688
 21
1381.96021576476
 31
0.0
  0
ARC
  5
481
330
1F
100
AcDbEntity
  8
1
  6
Continuous
 62
     7
370
    13
100
AcDbCircle
 10
5705.482687425508
 20
20297.68312532679
 30
0.0
 40
380.0
100
AcDbArc
 50
90.0
 51
180.0
  0
ARC
  5
482
330
1F
100
AcDbEntity
  8
1
  6
Continuous
 62
     7
370
    13
100
AcDbCircle
 10
9747.482687425042
 20
20297.68312532679
 30
0.0
 40
380.0
100
AcDbArc
 50
0.0
 51
90.0
  0
ARC
  5
483
330
1F
100
AcDbEntity
  8
1
  6
Continuous
 62
     7
370
    13
100
AcDbCircle
 10
9747.482687425042
 20
11437.68312532678
 30
0.0
 40
380.0
100
AcDbArc
 50
270.0
 51
0.0
  0
ARC
  5
484
330
1F
100
AcDbEntity
  8
1
  6
Continuous
 62
     7
370
    13
100
AcDbCircle
 10
5705.482687425508
 20
11437.68312532678
 30
0.0
 40
380.0
100
AcDbArc
 50
180.0
 51
270.0
  0
LINE
  5
485
330
1F
100
AcDbEntity
  8
1
  6
Continuous
 62
     7
370
    13
100
AcDbLine
 10
5325.482687425509
 20
11437.68312532678
 30
0.0
 11
5325.482687425509
 21
20297.68312532679
 31
0.0
  0
LINE
  5
486
330
1F
100
AcDbEntity
  8
1
  6
Continuous
 62
     7
370
    13
100
AcDbLine
 10
5705.450727425691
 20
20677.68312532678
 30
0.0
 11
9747.49440742581
 21
20677.68312532678
 31
0.0
  0
LINE
  5
487
330
1F
100
AcDbEntity
  8
1
  6
Continuous
 62
     7
370
    13
100
AcDbLine
 10
10127.48268742504
 20
20297.68312532679
 30
0.0
 11
10127.48268742504
 21
11437.68312532678
 31
0.0
  0
LINE
  5
488
330
1F
100
AcDbEntity
  8
1
  6
Continuous
 62
     7
370
    13
100
AcDbLine
 10
9747.482687425042
 20
11057.68312532678
 30
0.0
 11
5705.482687425508
 21
11057.68312532678
 31
0.0
  0
ARC
  5
489
330
1F
100
AcDbEntity
  8
1
  6
Continuous
 62
     7
370
    13
100
AcDbCircle
 10
5845.482687425509
 20
20157.68312532678
 30
0.0
 40
120.0
100
AcDbArc
 50
90.0
 51
180.0
  0
ARC
  5
48A
330
1F
100
AcDbEntity
  8
1
  6
Continuous
 62
     7
370
    13
100
AcDbCircle
 10
9607.482687425044
 20
20157.68312532678
 30
0.0
 40
120.0
100
AcDbArc
 50
0.0
 51
90.0
  0
ARC
  5
48B
330
1F
100
AcDbEntity
  8
1
  6
Continuous
 62
     7
370
    13
100
AcDbCircle
 10
9607.482687425044
 20
11577.68312532678
 30
0.0
 40
120.0
100
AcDbArc
 50
270.0
 51
0.0
  0
ARC
  5
48C
330
1F
100
AcDbEntity
  8
1
  6
Continuous
 62
     7
370
    13
100
AcDbCircle
 10
5845.482687425509
 20
11577.68312532678
 30
0.0
 40
120.0
100
AcDbArc
 50
180.0
 51
270.0
  0
LINE
  5
48D
330
1F
100
AcDbEntity
  8
1
  6
Continuous
 62
     7
370
    13
100
AcDbLine
 10
5725.482687425508
 20
20157.68312532678
 30
0.0
 11
5725.482687425508
 21
11577.68312532678
 31
0.0
  0
LINE
  5
48E
330
1F
100
AcDbEntity
  8
1
  6
Continuous
 62
     7
370
    13
100
AcDbLine
 10
9607.482687425044
 20
20277.68312532678
 30
0.0
 11
5845.482687425509
 21
20277.68312532678
 31
0.0
  0
LINE
  5
48F
330
1F
100
AcDbEntity
  8
1
  6
Continuous
 62
     7
370
    13
100
AcDbLine
 10
9727.482687425045
 20
11577.68312532678
 30
0.0
 11
9727.482687425045
 21
20157.68312532678
 31
0.0
  0
LINE
  5
490
330
1F
100
AcDbEntity
  8
1
  6
Continuous
 62
     7
370
    13
100
AcDbLine
 10
5845.482687425509
 20
11457.68312532678
 30
0.0
 11
9607.482687425044
 21
11457.68312532678
 31
0.0
  0
ARC
  5
491
330
1F
100
AcDbEntity
  8
1
  6
Continuous
 62
     7
370
    13
100
AcDbCircle
 10
5705.482687425508
 20
11437.68312532678
 30
0.0
 40
340.0
100
AcDbArc
 50
180.0
 51
270.0
  0
ARC
  5
492
330
1F
100
AcDbEntity
  8
1
  6
Continuous
 62
     7
370
    13
100
AcDbCircle
 10
5705.482687425508
 20
20297.68312532679
 30
0.0
 40
340.0
100
AcDbArc
 50
90.0
 51
180.0
  0
ARC
  5
493
330
1F
100
AcDbEntity
  8
1
  6
Continuous
 62
     7
370
    13
100
AcDbCircle
 10
9747.482687425042
 20
20297.68312532679
 30
0.0
 40
340.0
100
AcDbArc
 50
0.0
 51
90.0
  0
ARC
  5
494
330
1F
100
AcDbEntity
  8
1
  6
Continuous
 62
     7
370
    13
100
AcDbCircle
 10
9747.482687425042
 20
11437.68312532678
 30
0.0
 40
340.0
100
AcDbArc
 50
270.0
 51
0.0
  0
LINE
  5
495
330
1F
100
AcDbEntity
  8
1
  6
Continuous
 62
     7
370
    13
100
AcDbLine
 10
5705.482687425508
 20
11097.68312532678
 30
0.0
 11
9747.482687425042
 21
11097.68312532678
 31
0.0
  0
LINE
  5
496
330
1F
100
AcDbEntity
  8
1
  6
Continuous
 62
     7
370
    13
100
AcDbLine
 10
5365.482687425508
 20
20297.68312532679
 30
0.0
 11
5365.482687425508
 21
11437.68312532678
 31
0.0
  0
LINE
  5
497
330
1F
100
AcDbEntity
  8
1
  6
Continuous
 62
     7
370
    13
100
AcDbLine
 10
10087.48268742504
 20
11437.68312532678
 30
0.0
 11
10087.48268742504
 21
20297.68312532679
 31
0.0
  0
LINE
  5
498
330
1F
100
AcDbEntity
  8
1
  6
Continuous
 62
     7
370
    13
100
AcDbLine
 10
5705.482687425508
 20
20637.68312532678
 30
0.0
 11
9747.482687425042
 21
20637.68312532678
 31
0.0
  0
ARC
  5
499
330
1F
100
AcDbEntity
  8
1
  6
Continuous
 62
     7
370
    13
100
AcDbCircle
 10
5705.482687425508
 20
20297.68312532679
 30
0.0
 40
260.0
100
AcDbArc
 50
90.0
 51
180.0
  0
ARC
  5
49A
330
1F
100
AcDbEntity
  8
1
  6
Continuous
 62
     7
370
    13
100
AcDbCircle
 10
9747.482687425042
 20
20297.68312532679
 30
0.0
 40
260.0
100
AcDbArc
 50
0.0
 51
90.0
  0
ARC
  5
49B
330
1F
100
AcDbEntity
  8
1
  6
Continuous
 62
     7
370
    13
100
AcDbCircle
 10
9747.482687425042
 20
11437.68312532678
 30
0.0
 40
260.0
100
AcDbArc
 50
270.0
 51
0.0
  0
ARC
  5
49C
330
1F
100
AcDbEntity
  8
1
  6
Continuous
 62
     7
370
    13
100
AcDbCircle
 10
5705.482687425508
 20
11437.68312532678
 30
0.0
 40
260.0
100
AcDbArc
 50
180.0
 51
270.0
  0
LINE
  5
49D
330
1F
100
AcDbEntity
  8
1
  6
Continuous
 62
     7
370
    13
100
AcDbLine
 10
5445.482687425509
 20
20297.68312532679
 30
0.0
 11
5445.482687425509
 21
11437.68312532678
 31
0.0
  0
LINE
  5
49E
330
1F
100
AcDbEntity
  8
1
  6
Continuous
 62
     7
370
    13
100
AcDbLine
 10
5705.482687425508
 20
11177.68312532678
 30
0.0
 11
9747.482687425042
 21
11177.68312532678
 31
0.0
  0
LINE
  5
49F
330
1F
100
AcDbEntity
  8
1
  6
Continuous
 62
     7
370
    13
100
AcDbLine
 10
10007.48268742504
 20
11437.68312532678
 30
0.0
 11
10007.48268742504
 21
20297.68312532679
 31
0.0
  0
LINE
  5
4A0
330
1F
100
AcDbEntity
  8
1
  6
Continuous
 62
     7
370
    13
100
AcDbLine
 10
9747.482687425042
 20
20557.68312532678
 30
0.0
 11
5705.482687425508
 21
20557.68312532678
 31
0.0
  0
ARC
  5
4A1
330
1F
100
AcDbEntity
  8
1
  6
Continuous
 62
     7
370
    13
100
AcDbCircle
 10
5686.482687425043
 20
20297.68312532679
 30
0.0
 40
500.0
100
AcDbArc
 50
90.0
 51
180.0
  0
ARC
  5
4A2
330
1F
100
AcDbEntity
  8
1
  6
Continuous
 62
     7
370
    13
100
AcDbCircle
 10
9766.482687425044
 20
20297.68312532679
 30
0.0
 40
500.0
100
AcDbArc
 50
0.0
 51
90.0
  0
ARC
  5
4A3
330
1F
100
AcDbEntity
  8
1
  6
Continuous
 62
     7
370
    13
100
AcDbCircle
 10
9766.482687425044
 20
11437.68312532678
 30
0.0
 40
500.0
100
AcDbArc
 50
270.0
 51
0.0
  0
ARC
  5
4A4
330
1F
100
AcDbEntity
  8
1
  6
Continuous
 62
     7
370
    13
100
AcDbCircle
 10
5686.482687425043
 20
11437.68312532678
 30
0.0
 40
500.0
100
AcDbArc
 50
180.0
 51
270.0
  0
LINE
  5
4A5
330
1F
100
AcDbEntity
  8
1
  6
Continuous
 62
     7
370
    13
100
AcDbLine
 10
5686.482687425043
 20
10937.68312532678
 30
0.0
 11
9766.482687425044
 21
10937.68312532678
 31
0.0
  0
LINE
  5
4A6
330
1F
100
AcDbEntity
  8
1
  6
Continuous
 62
     7
370
    13
100
AcDbLine
 10
5186.482687425043
 20
20297.68312532679
 30
0.0
 11
5186.482687425043
 21
11437.68312532678
 31
0.0
  0
LINE
  5
4A7
330
1F
100
AcDbEntity
  8
1
  6
Continuous
 62
     7
370
    13
100
AcDbLine
 10
9766.482687425044
 20
20797.68312532678
 30
0.0
 11
5686.482687425043
 21
20797.68312532678
 31
0.0
  0
LINE
  5
4A8
330
1F
100
AcDbEntity
  8
1
  6
Continuous
 62
     7
370
    13
100
AcDbLine
 10
10266.48268742504
 20
11437.68312532678
 30
0.0
 11
10266.48268742504
 21
20297.68312532679
 31
0.0
  0
CIRCLE
  5
4A9
330
1F
100
AcDbEntity
  8
1
  6
Continuous
 62
     7
370
    13
100
AcDbCircle
 10
6057.031207424763
 20
18622.84328532675
 30
0.0
 40
160.0
  0
CIRCLE
  5
4AA
330
1F
100
AcDbEntity
  8
1
  6
Continuous
 62
     7
370
    13
100
AcDbCircle
 10
6057.031207424763
 20
18622.84328532675
 30
0.0
 40
80.0
  0
LINE
  5
4AB
330
1F
100
AcDbEntity
  8
1
  6
Continuous
 62
     7
370
    13
100
AcDbLine
 10
6057.031207424763
 20
18782.84328532675
 30
0.0
 11
5725.481887425471
 21
18782.84328532675
 31
0.0
  0
ARC
  5
4AC
330
1F
100
AcDbEntity
  8
1
  6
Continuous
 62
     7
370
    13
100
AcDbCircle
 10
5845.482687425509
 20
11577.68312532678
 30
0.0
 40
40.0
100
AcDbArc
 50
180.0
 51
270.0
  0
ARC
  5
4AD
330
1F
100
AcDbEntity
  8
1
  6
Continuous
 62
     7
370
    13
100
AcDbCircle
 10
5845.482687425509
 20
20157.68312532678
 30
0.0
 40
40.0
100
AcDbArc
 50
90.0
 51
180.0
  0
ARC
  5
4AE
330
1F
100
AcDbEntity
  8
1
  6
Continuous
 62
     7
370
    13
100
AcDbCircle
 10
9607.482687425044
 20
20157.68312532678
 30
0.0
 40
40.0
100
AcDbArc
 50
0.0
 51
90.0
  0
ARC
  5
4AF
330
1F
100
AcDbEntity
  8
1
  6
Continuous
 62
     7
370
    13
100
AcDbCircle
 10
9607.482687425044
 20
11577.68312532678
 30
0.0
 40
40.0
100
AcDbArc
 50
270.0
 51
0.0
  0
LINE
  5
4B0
330
1F
100
AcDbEntity
  8
1
  6
Continuous
 62
     7
370
    13
100
AcDbLine
 10
9607.482687425044
 20
11537.68312532678
 30
0.0
 11
5845.482687425509
 21
11537.68312532678
 31
0.0
  0
LINE
  5
4B1
330
1F
100
AcDbEntity
  8
1
  6
Continuous
 62
     7
370
    13
100
AcDbLine
 10
5845.482687425509
 20
20197.68312532678
 30
0.0
 11
9607.482687425044
 21
20197.68312532678
 31
0.0
  0
ARC
  5
4B2
330
1F
100
AcDbEntity
  8
1
  6
Continuous
 62
     7
370
    13
100
AcDbCircle
 10
6326.313207425817
 20
18398.02348532658
 30
0.0
 40
80.0
100
AcDbArc
 50
270.0
 51
0.0
  0
LINE
  5
4B3
330
1F
100
AcDbEntity
  8
1
  6
Continuous
 62
     7
370
    13
100
AcDbLine
 10
6406.313207425817
 20
19118.02348532658
 30
0.0
 11
6406.313207425817
 21
18398.02348532658
 31
0.0
  0
ARC
  5
4B4
330
1F
100
AcDbEntity
  8
1
  6
Continuous
 62
     7
370
    13
100
AcDbCircle
 10
7045.534367425542
 20
19198.00304532694
 30
0.0
 40
80.0
100
AcDbArc
 50
270.0
 51
0.0
  0
LINE
  5
4B5
330
1F
100
AcDbEntity
  8
1
  6
Continuous
 62
     7
370
    13
100
AcDbLine
 10
7045.534367425542
 20
19118.00304532694
 30
0.0
 11
6405.534367425542
 21
19118.00304532694
 31
0.0
  0
LINE
  5
4B6
330
1F
100
AcDbEntity
  8
1
  6
Continuous
 62
     7
370
    13
100
AcDbLine
 10
7125.534367425541
 20
20198.00304532694
 30
0.0
 11
7125.534367425541
 21
19198.00304532694
 31
0.0
  0
LINE
  5
4B7
330
1F
100
AcDbEntity
  8
1
  6
Continuous
 62
     7
370
    13
100
AcDbLine
 10
5805.313207424886
 20
18318.02348532658
 30
0.0
 11
6326.313207425817
 21
18318.02348532658
 31
0.0
  0
LINE
  5
4B8
330
1F
100
AcDbEntity
  8
1
  6
Continuous
 62
     7
370
    13
100
AcDbLine
 10
8326.713447425689
 20
19118.00548532689
 30
0.0
 11
8906.713447425689
 21
19118.00548532689
 31
0.0
  0
LINE
  5
4B9
330
1F
100
AcDbEntity
  8
1
  6
Continuous
 62
     7
370
    13
100
AcDbLine
 10
8904.76728742494
 20
19118.00548532689
 30
0.0
 11
9646.713447425689
 21
19118.00548532689
 31
0.0
  0
LINE
  5
4BA
330
1F
100
AcDbEntity
  8
1
  6
Continuous
 62
     7
370
    13
100
AcDbLine
 10
8326.713447425689
 20
20198.00548532689
 30
0.0
 11
8326.713447425689
 21
19118.00548532689
 31
0.0
  0
ARC
  5
4BB
330
1F
100
AcDbEntity
  8
1
  6
Continuous
 62
     7
370
    13
100
AcDbCircle
 10
6326.313207425817
 20
13337.34272532715
 30
0.0
 40
80.0
100
AcDbArc
 50
0.0
 51
90.0
  0
LINE
  5
4BC
330
1F
100
AcDbEntity
  8
1
  6
Continuous
 62
     7
370
    13
100
AcDbLine
 10
6406.313207425817
 20
12617.34272532715
 30
0.0
 11
6406.313207425817
 21
13337.34272532715
 31
0.0
  0
ARC
  5
4BD
330
1F
100
AcDbEntity
  8
1
  6
Continuous
 62
     7
370
    13
100
AcDbCircle
 10
7045.534367425542
 20
12537.36320532663
 30
0.0
 40
80.0
100
AcDbArc
 50
0.0
 51
90.0
  0
LINE
  5
4BE
330
1F
100
AcDbEntity
  8
1
  6
Continuous
 62
     7
370
    13
100
AcDbLine
 10
7045.534367425542
 20
12617.36320532663
 30
0.0
 11
6405.534367425542
 21
12617.36320532663
 31
0.0
  0
LINE
  5
4BF
330
1F
100
AcDbEntity
  8
1
  6
Continuous
 62
     7
370
    13
100
AcDbLine
 10
7125.534367425541
 20
11537.36320532663
 30
0.0
 11
7125.534367425541
 21
12537.36320532663
 31
0.0
  0
LINE
  5
4C0
330
1F
100
AcDbEntity
  8
1
  6
Continuous
 62
     7
370
    13
100
AcDbLine
 10
5805.313207424886
 20
13417.34272532715
 30
0.0
 11
6326.313207425817
 21
13417.34272532715
 31
0.0
  0
ARC
  5
4C1
330
1F
100
AcDbEntity
  8
1
  6
Continuous
 62
     7
370
    13
100
AcDbCircle
 10
9607.482687425044
 20
11577.68312532678
 30
0.0
 40
40.0
100
AcDbArc
 50
270.0
 51
0.0
  0
LINE
  5
4C2
330
1F
100
AcDbEntity
  8
1
  6
Continuous
 62
     7
370
    13
100
AcDbLine
 10
8326.713447425689
 20
12617.36072532637
 30
0.0
 11
8906.713447425689
 21
12617.36072532637
 31
0.0
  0
LINE
  5
4C3
330
1F
100
AcDbEntity
  8
1
  6
Continuous
 62
     7
370
    13
100
AcDbLine
 10
8904.76728742494
 20
12617.36072532637
 30
0.0
 11
9646.713447425689
 21
12617.36072532637
 31
0.0
  0
LINE
  5
4C4
330
1F
100
AcDbEntity
  8
1
  6
Continuous
 62
     7
370
    13
100
AcDbLine
 10
8326.713447425689
 20
11537.36072532637
 30
0.0
 11
8326.713447425689
 21
12617.36072532637
 31
0.0
  0
LINE
  5
4C5
330
1F
100
AcDbEntity
  8
1
  6
Continuous
 62
     7
370
    13
100
AcDbLine
 10
5805.482687425508
 20
11577.68312532678
 30
0.0
 11
5805.482687425508
 21
12945.12328532702
 31
0.0
  0
LINE
  5
4C6
330
1F
100
AcDbEntity
  8
1
  6
Continuous
 62
     7
370
    13
100
AcDbLine
 10
5805.482687425508
 20
13262.84328532675
 30
0.0
 11
5805.482687425508
 21
14785.12328532701
 31
0.0
  0
LINE
  5
4C7
330
1F
100
AcDbEntity
  8
1
  6
Continuous
 62
     7
370
    13
100
AcDbLine
 10
5805.482687425508
 20
15102.84328532675
 30
0.0
 11
5805.482687425508
 21
16625.12328532701
 31
0.0
  0
LINE
  5
4C8
330
1F
100
AcDbEntity
  8
1
  6
Continuous
 62
     7
370
    13
100
AcDbLine
 10
5805.482687425508
 20
18782.84328532675
 30
0.0
 11
5805.482687425508
 21
20157.68312532678
 31
0.0
  0
LINE
  5
4C9
330
1F
100
AcDbEntity
  8
1
  6
Continuous
 62
     7
370
    13
100
AcDbLine
 10
9647.482687425043
 20
20157.68312532678
 30
0.0
 11
9647.482687425043
 21
18782.84328532675
 31
0.0
  0
LINE
  5
4CA
330
1F
100
AcDbEntity
  8
1
  6
Continuous
 62
     7
370
    13
100
AcDbLine
 10
9647.482687425043
 20
18465.12328532702
 30
0.0
 11
9647.482687425043
 21
16942.84328532675
 31
0.0
  0
LINE
  5
4CB
330
1F
100
AcDbEntity
  8
1
  6
Continuous
 62
     7
370
    13
100
AcDbLine
 10
9647.482687425043
 20
16625.12328532701
 30
0.0
 11
9647.482687425043
 21
15102.84328532675
 31
0.0
  0
LINE
  5
4CC
330
1F
100
AcDbEntity
  8
1
  6
Continuous
 62
     7
370
    13
100
AcDbLine
 10
9647.482687425043
 20
14785.12328532701
 30
0.0
 11
9647.482687425043
 21
13262.84328532675
 31
0.0
  0
LINE
  5
4CD
330
1F
100
AcDbEntity
  8
1
  6
Continuous
 62
     7
370
    13
100
AcDbLine
 10
9647.482687425043
 20
12945.12328532702
 30
0.0
 11
9647.482687425043
 21
11577.68312532678
 31
0.0
  0
ARC
  5
4CE
330
1F
100
AcDbEntity
  8
1
  6
Continuous
 62
     7
370
    13
100
AcDbCircle
 10
6325.482687425509
 20
17027.68312532678
 30
0.0
 40
80.0
100
AcDbArc
 50
0.0
 51
90.0
  0
ARC
  5
4CF
330
1F
100
AcDbEntity
  8
1
  6
Continuous
 62
     7
370
    13
100
AcDbCircle
 10
6325.482687425509
 20
14707.68312532678
 30
0.0
 40
80.0
100
AcDbArc
 50
270.0
 51
0.0
  0
LINE
  5
4D0
330
1F
100
AcDbEntity
  8
1
  6
Continuous
 62
     7
370
    13
100
AcDbLine
 10
6325.482687425509
 20
14627.68312532678
 30
0.0
 11
5805.482687425508
 21
14627.68312532678
 31
0.0
  0
LINE
  5
4D1
330
1F
100
AcDbEntity
  8
1
  6
Continuous
 62
     7
370
    13
100
AcDbLine
 10
6405.482687425508
 20
17027.68448532689
 30
0.0
 11
6405.482687425508
 21
14707.68312532678
 31
0.0
  0
LINE
  5
4D2
330
1F
100
AcDbEntity
  8
1
  6
Continuous
 62
     7
370
    13
100
AcDbLine
 10
5805.482687425508
 20
17107.68312532678
 30
0.0
 11
6325.482687425509
 21
17107.68312532678
 31
0.0
  0
CIRCLE
  5
4D3
330
1F
100
AcDbEntity
  8
1
  6
Continuous
 62
     7
370
    13
100
AcDbCircle
 10
6326.482687425043
 20
19467.68508532681
 30
0.0
 40
120.0
  0
CIRCLE
  5
4D4
330
1F
100
AcDbEntity
  8
1
  6
Continuous
 62
     7
370
    13
100
AcDbCircle
 10
6326.482687425043
 20
12267.68508532681
 30
0.0
 40
120.0
  0
CIRCLE
  5
4D5
330
1F
100
AcDbEntity
  8
1
  6
Continuous
 62
     7
370
    13
100
AcDbCircle
 10
9126.482687425044
 20
12267.68508532681
 30
0.0
 40
120.0
  0
CIRCLE
  5
4D6
330
1F
100
AcDbEntity
  8
1
  6
Continuous
 62
     7
370
    13
100
AcDbCircle
 10
9126.482687425044
 20
19467.68508532681
 30
0.0
 40
120.0
  0
CIRCLE
  5
4D7
330
1F
100
AcDbEntity
  8
1
  6
Continuous
 62
     7
370
    13
100
AcDbCircle
 10
6326.482687425043
 20
12267.68508532681
 30
0.0
 40
140.0
  0
CIRCLE
  5
4D8
330
1F
100
AcDbEntity
  8
1
  6
Continuous
 62
     7
370
    13
100
AcDbCircle
 10
9126.482687425044
 20
12267.68508532681
 30
0.0
 40
140.0
  0
CIRCLE
  5
4D9
330
1F
100
AcDbEntity
  8
1
  6
Continuous
 62
     7
370
    13
100
AcDbCircle
 10
6326.482687425043
 20
19467.68508532681
 30
0.0
 40
140.0
  0
CIRCLE
  5
4DA
330
1F
100
AcDbEntity
  8
1
  6
Continuous
 62
     7
370
    13
100
AcDbCircle
 10
9126.482687425044
 20
19467.68508532681
 30
0.0
 40
140.0
  0
LINE
  5
4DB
330
1F
100
AcDbEntity
  8
1
  6
Continuous
 62
     7
370
    13
100
AcDbLine
 10
5725.482687425508
 20
18462.84420532724
 30
0.0
 11
6057.625087425288
 21
18462.84420532724
 31
0.0
  0
LINE
  5
4DC
330
1F
100
AcDbEntity
  8
1
  6
Continuous
 62
     7
370
    13
100
AcDbLine
 10
5805.482687425508
 20
16942.84328532675
 30
0.0
 11
5805.482687425508
 21
18462.84420532724
 31
0.0
  0
CIRCLE
  5
4DD
330
1F
100
AcDbEntity
  8
1
  6
Continuous
 62
     7
370
    13
100
AcDbCircle
 10
6057.031207424763
 20
16782.84328532675
 30
0.0
 40
160.0
  0
CIRCLE
  5
4DE
330
1F
100
AcDbEntity
  8
1
  6
Continuous
 62
     7
370
    13
100
AcDbCircle
 10
6057.031207424763
 20
16782.84328532675
 30
0.0
 40
80.0
  0
LINE
  5
4DF
330
1F
100
AcDbEntity
  8
1
  6
Continuous
 62
     7
370
    13
100
AcDbLine
 10
6057.031207424763
 20
16942.84328532675
 30
0.0
 11
5725.481887425471
 21
16942.84328532675
 31
0.0
  0
LINE
  5
4E0
330
1F
100
AcDbEntity
  8
1
  6
Continuous
 62
     7
370
    13
100
AcDbLine
 10
5725.482687425508
 20
16622.84420532724
 30
0.0
 11
6057.625087425288
 21
16622.84420532724
 31
0.0
  0
CIRCLE
  5
4E1
330
1F
100
AcDbEntity
  8
1
  6
Continuous
 62
     7
370
    13
100
AcDbCircle
 10
6057.031207424763
 20
14942.84328532675
 30
0.0
 40
160.0
  0
CIRCLE
  5
4E2
330
1F
100
AcDbEntity
  8
1
  6
Continuous
 62
     7
370
    13
100
AcDbCircle
 10
6057.031207424763
 20
14942.84328532675
 30
0.0
 40
80.0
  0
LINE
  5
4E3
330
1F
100
AcDbEntity
  8
1
  6
Continuous
 62
     7
370
    13
100
AcDbLine
 10
6057.031207424763
 20
15102.84328532675
 30
0.0
 11
5725.481887425471
 21
15102.84328532675
 31
0.0
  0
LINE
  5
4E4
330
1F
100
AcDbEntity
  8
1
  6
Continuous
 62
     7
370
    13
100
AcDbLine
 10
5725.482687425508
 20
14782.84420532724
 30
0.0
 11
6057.625087425288
 21
14782.84420532724
 31
0.0
  0
CIRCLE
  5
4E5
330
1F
100
AcDbEntity
  8
1
  6
Continuous
 62
     7
370
    13
100
AcDbCircle
 10
6057.031207424763
 20
13102.84528532662
 30
0.0
 40
160.0
  0
CIRCLE
  5
4E6
330
1F
100
AcDbEntity
  8
1
  6
Continuous
 62
     7
370
    13
100
AcDbCircle
 10
6057.031207424763
 20
13102.84528532662
 30
0.0
 40
80.0
  0
LINE
  5
4E7
330
1F
100
AcDbEntity
  8
1
  6
Continuous
 62
     7
370
    13
100
AcDbLine
 10
6057.031207424763
 20
13262.84528532662
 30
0.0
 11
5725.481887425471
 21
13262.84528532662
 31
0.0
  0
LINE
  5
4E8
330
1F
100
AcDbEntity
  8
1
  6
Continuous
 62
     7
370
    13
100
AcDbLine
 10
5725.482687425508
 20
12942.84620532664
 30
0.0
 11
6057.625087425288
 21
12942.84620532664
 31
0.0
  0
CIRCLE
  5
4E9
330
1F
100
AcDbEntity
  8
1
  6
Continuous
 62
     7
370
    13
100
AcDbCircle
 10
9395.934167425322
 20
18622.84328532675
 30
0.0
 40
160.0
  0
CIRCLE
  5
4EA
330
1F
100
AcDbEntity
  8
1
  6
Continuous
 62
     7
370
    13
100
AcDbCircle
 10
9395.934167425322
 20
18622.84328532675
 30
0.0
 40
80.0
  0
LINE
  5
4EB
330
1F
100
AcDbEntity
  8
1
  6
Continuous
 62
     7
370
    13
100
AcDbLine
 10
9395.934167425322
 20
18782.84328532675
 30
0.0
 11
9727.483487425548
 21
18782.84328532675
 31
0.0
  0
LINE
  5
4EC
330
1F
100
AcDbEntity
  8
1
  6
Continuous
 62
     7
370
    13
100
AcDbLine
 10
9727.482687425045
 20
18462.84420532724
 30
0.0
 11
9395.340287424799
 21
18462.84420532724
 31
0.0
  0
CIRCLE
  5
4ED
330
1F
100
AcDbEntity
  8
1
  6
Continuous
 62
     7
370
    13
100
AcDbCircle
 10
9395.934167425322
 20
16782.84328532675
 30
0.0
 40
160.0
  0
CIRCLE
  5
4EE
330
1F
100
AcDbEntity
  8
1
  6
Continuous
 62
     7
370
    13
100
AcDbCircle
 10
9395.934167425322
 20
16782.84328532675
 30
0.0
 40
80.0
  0
LINE
  5
4EF
330
1F
100
AcDbEntity
  8
1
  6
Continuous
 62
     7
370
    13
100
AcDbLine
 10
9395.934167425322
 20
16942.84328532675
 30
0.0
 11
9727.483487425548
 21
16942.84328532675
 31
0.0
  0
LINE
  5
4F0
330
1F
100
AcDbEntity
  8
1
  6
Continuous
 62
     7
370
    13
100
AcDbLine
 10
9727.482687425045
 20
16622.84420532724
 30
0.0
 11
9395.340287424799
 21
16622.84420532724
 31
0.0
  0
CIRCLE
  5
4F1
330
1F
100
AcDbEntity
  8
1
  6
Continuous
 62
     7
370
    13
100
AcDbCircle
 10
9395.934167425322
 20
14942.84328532675
 30
0.0
 40
160.0
  0
CIRCLE
  5
4F2
330
1F
100
AcDbEntity
  8
1
  6
Continuous
 62
     7
370
    13
100
AcDbCircle
 10
9395.934167425322
 20
14942.84328532675
 30
0.0
 40
80.0
  0
LINE
  5
4F3
330
1F
100
AcDbEntity
  8
1
  6
Continuous
 62
     7
370
    13
100
AcDbLine
 10
9395.934167425322
 20
15102.84328532675
 30
0.0
 11
9727.483487425548
 21
15102.84328532675
 31
0.0
  0
LINE
  5
4F4
330
1F
100
AcDbEntity
  8
1
  6
Continuous
 62
     7
370
    13
100
AcDbLine
 10
9727.482687425045
 20
14782.84420532724
 30
0.0
 11
9395.340287424799
 21
14782.84420532724
 31
0.0
  0
CIRCLE
  5
4F5
330
1F
100
AcDbEntity
  8
1
  6
Continuous
 62
     7
370
    13
100
AcDbCircle
 10
9395.934167425322
 20
13102.84528532662
 30
0.0
 40
160.0
  0
CIRCLE
  5
4F6
330
1F
100
AcDbEntity
  8
1
  6
Continuous
 62
     7
370
    13
100
AcDbCircle
 10
9395.934167425322
 20
13102.84528532662
 30
0.0
 40
80.0
  0
LINE
  5
4F7
330
1F
100
AcDbEntity
  8
1
  6
Continuous
 62
     7
370
    13
100
AcDbLine
 10
9395.934167425322
 20
13262.84528532662
 30
0.0
 11
9727.483487425548
 21
13262.84528532662
 31
0.0
  0
LINE
  5
4F8
330
1F
100
AcDbEntity
  8
1
  6
Continuous
 62
     7
370
    13
100
AcDbLine
 10
9727.482687425045
 20
12942.84620532664
 30
0.0
 11
9395.340287424799
 21
12942.84620532664
 31
0.0
  0
LINE
  5
4F9
330
1F
100
AcDbEntity
  8
1
  6
DASHDOT
 62
     7
370
    13
100
AcDbLine
 10
4786.482207425113
 20
15867.68208532678
 30
0.0
 11
10666.48268742504
 21
15867.68208532678
 31
0.0
  0
LINE
  5
4FA
330
1F
100
AcDbEntity
  8
1
  6
DASHDOT
 62
     7
370
    13
100
AcDbLine
 10
7726.482687425043
 20
10537.68300532634
 30
0.0
 11
7726.482687425043
 21
21197.68312532678
 31
0.0
  0
LINE
  5
4FB
330
1F
100
AcDbEntity
  8
1
  6
Continuous
 62
     7
370
    13
100
AcDbLine
 10
20279.6106874246
 20
20721.30432532719
 30
0.0
 11
19759.6106874246
 21
20721.30432532719
 31
0.0
  0
LINE
  5
4FC
330
1F
100
AcDbEntity
  8
1
  6
Continuous
 62
     7
370
    13
100
AcDbLine
 10
19759.6106874246
 20
10861.30432532719
 30
0.0
 11
20279.6106874246
 21
10861.30432532719
 31
0.0
  0
LINE
  5
4FD
330
1F
100
AcDbEntity
  8
1
  6
Continuous
 62
     7
370
    13
100
AcDbLine
 10
20279.6106874246
 20
10861.30432532719
 30
0.0
 11
20279.6106874246
 21
20721.30432532719
 31
0.0
  0
LINE
  5
4FE
330
1F
100
AcDbEntity
  8
1
  6
Continuous
 62
     7
370
    13
100
AcDbLine
 10
20279.6106874246
 20
20721.30432532719
 30
0.0
 11
20373.61068742506
 21
20721.30432532719
 31
0.0
  0
LINE
  5
4FF
330
1F
100
AcDbEntity
  8
1
  6
Continuous
 62
     7
370
    13
100
AcDbLine
 10
20373.61068742506
 20
20721.30432532719
 30
0.0
 11
20373.61068742506
 21
19801.30432532719
 31
0.0
  0
LINE
  5
500
330
1F
100
AcDbEntity
  8
1
  6
Continuous
 62
     7
370
    13
100
AcDbLine
 10
20373.61068742506
 20
19801.30432532719
 30
0.0
 11
20279.6106874246
 21
19801.30432532719
 31
0.0
  0
LINE
  5
501
330
1F
100
AcDbEntity
  8
1
  6
Continuous
 62
     7
370
    13
100
AcDbLine
 10
20279.6106874246
 20
16193.30432532625
 30
0.0
 11
20373.61068742506
 21
16193.30432532625
 31
0.0
  0
LINE
  5
502
330
1F
100
AcDbEntity
  8
1
  6
Continuous
 62
     7
370
    13
100
AcDbLine
 10
20373.61068742506
 20
16193.30432532625
 30
0.0
 11
20373.61068742506
 21
15389.30432532672
 31
0.0
  0
LINE
  5
503
330
1F
100
AcDbEntity
  8
1
  6
Continuous
 62
     7
370
    13
100
AcDbLine
 10
20373.61068742506
 20
15389.30432532672
 30
0.0
 11
20279.6106874246
 21
15389.30432532672
 31
0.0
  0
LINE
  5
504
330
1F
100
AcDbEntity
  8
1
  6
Continuous
 62
     7
370
    13
100
AcDbLine
 10
20279.6106874246
 20
11781.30432532719
 30
0.0
 11
20373.61068742506
 21
11781.30432532719
 31
0.0
  0
LINE
  5
505
330
1F
100
AcDbEntity
  8
1
  6
Continuous
 62
     7
370
    13
100
AcDbLine
 10
20373.61068742506
 20
11781.30432532719
 30
0.0
 11
20373.61068742506
 21
10861.30432532719
 31
0.0
  0
LINE
  5
506
330
1F
100
AcDbEntity
  8
1
  6
Continuous
 62
     7
370
    13
100
AcDbLine
 10
20373.61068742506
 20
10861.30432532719
 30
0.0
 11
20279.6106874246
 21
10861.30432532719
 31
0.0
  0
LINE
  5
507
330
1F
100
AcDbEntity
  8
1
  6
Continuous
 62
     7
370
    13
100
AcDbLine
 10
17895.61068742553
 20
20601.30432532718
 30
0.0
 11
17895.61068742553
 21
10981.30432532719
 31
0.0
  0
LINE
  5
508
330
1F
100
AcDbEntity
  8
1
  6
Continuous
 62
     7
370
    13
100
AcDbLine
 10
17895.61068742553
 20
20601.30432532718
 30
0.0
 11
19759.6106874246
 21
20721.30632532705
 31
0.0
  0
LINE
  5
509
330
1F
100
AcDbEntity
  8
1
  6
Continuous
 62
     7
370
    13
100
AcDbLine
 10
17895.61068742553
 20
10981.30432532719
 30
0.0
 11
19759.6106874246
 21
10861.30432532719
 31
0.0
  0
LINE
  5
50A
330
1F
100
AcDbEntity
  8
1
  6
Continuous
 62
     7
370
    13
100
AcDbLine
 10
17797.61068742553
 20
20561.30432532718
 30
0.0
 11
17797.61068742553
 21
11021.30432532719
 31
0.0
  0
LINE
  5
50B
330
1F
100
AcDbEntity
  8
1
  6
Continuous
 62
     7
370
    13
100
AcDbLine
 10
17797.61068742553
 20
11021.30432532719
 30
0.0
 11
17895.61068742553
 21
11021.30432532719
 31
0.0
  0
LINE
  5
50C
330
1F
100
AcDbEntity
  8
1
  6
Continuous
 62
     7
370
    13
100
AcDbLine
 10
17895.61068742553
 20
20561.30432532718
 30
0.0
 11
17797.61068742553
 21
20561.30432532718
 31
0.0
  0
LINE
  5
50D
330
1F
100
AcDbEntity
  8
1
  6
DASHDOT
 62
     7
370
    13
100
AcDbLine
 10
17397.61068742553
 20
15791.30328532672
 30
0.0
 11
20679.6106874246
 21
15791.30328532672
 31
0.0
  0
LINE
  5
50E
330
1F
100
AcDbEntity
  8
1
  6
DASHDOT
 62
     7
370
    13
100
AcDbLine
 10
6040.362687425862
 20
19467.68508532681
 30
0.0
 11
6632.282687424856
 21
19467.68508532681
 31
0.0
  0
LINE
  5
50F
330
1F
100
AcDbEntity
  8
1
  6
DASHDOT
 62
     7
370
    13
100
AcDbLine
 10
6326.482687425043
 20
19714.32508532647
 30
0.0
 11
6326.482687425043
 21
19201.32508532694
 31
0.0
  0
LINE
  5
510
330
1F
100
AcDbEntity
  8
1
  6
DASHDOT
 62
     7
370
    13
100
AcDbLine
 10
6056.482687425043
 20
18881.4110853266
 30
0.0
 11
6056.482687425043
 21
18355.37428532671
 31
0.0
  0
LINE
  5
511
330
1F
100
AcDbEntity
  8
1
  6
DASHDOT
 62
     7
370
    13
100
AcDbLine
 10
5840.397367425437
 20
18627.68312532678
 30
0.0
 11
6270.865887425084
 21
18627.68312532678
 31
0.0
  0
LINE
  5
512
330
1F
100
AcDbEntity
  8
1
  6
DASHDOT
 62
     7
370
    13
100
AcDbLine
 10
6056.482687425043
 20
17046.5139253269
 30
0.0
 11
6056.482687425043
 21
16520.47712532701
 31
0.0
  0
LINE
  5
513
330
1F
100
AcDbEntity
  8
1
  6
DASHDOT
 62
     7
370
    13
100
AcDbLine
 10
5840.397367425437
 20
16787.68312532678
 30
0.0
 11
6270.865887425084
 21
16787.68312532678
 31
0.0
  0
LINE
  5
514
330
1F
100
AcDbEntity
  8
1
  6
DASHDOT
 62
     7
370
    13
100
AcDbLine
 10
6056.482687425043
 20
15205.90440532649
 30
0.0
 11
6056.482687425043
 21
14679.86760532661
 31
0.0
  0
LINE
  5
515
330
1F
100
AcDbEntity
  8
1
  6
DASHDOT
 62
     7
370
    13
100
AcDbLine
 10
5840.397367425437
 20
14947.68312532678
 30
0.0
 11
6270.865887425084
 21
14947.68312532678
 31
0.0
  0
LINE
  5
516
330
1F
100
AcDbEntity
  8
1
  6
DASHDOT
 62
     7
370
    13
100
AcDbLine
 10
6040.362687425862
 20
12267.68508532681
 30
0.0
 11
6632.282687424856
 21
12267.68508532681
 31
0.0
  0
LINE
  5
517
330
1F
100
AcDbEntity
  8
1
  6
DASHDOT
 62
     7
370
    13
100
AcDbLine
 10
6326.482687425043
 20
12514.32508532647
 30
0.0
 11
6326.482687425043
 21
12001.32508532694
 31
0.0
  0
LINE
  5
518
330
1F
100
AcDbEntity
  8
1
  6
DASHDOT
 62
     7
370
    13
100
AcDbLine
 10
6056.482687425043
 20
13368.60240532681
 30
0.0
 11
6056.482687425043
 21
12842.56560532646
 31
0.0
  0
LINE
  5
519
330
1F
100
AcDbEntity
  8
1
  6
DASHDOT
 62
     7
370
    13
100
AcDbLine
 10
5840.397367425437
 20
13107.68508532681
 30
0.0
 11
6270.865887425084
 21
13107.68508532681
 31
0.0
  0
LINE
  5
51A
330
1F
100
AcDbEntity
  8
1
  6
DASHDOT
 62
     7
370
    13
100
AcDbLine
 10
9126.482687425044
 20
12514.32508532647
 30
0.0
 11
9126.482687425044
 21
12001.32508532694
 31
0.0
  0
LINE
  5
51B
330
1F
100
AcDbEntity
  8
1
  6
DASHDOT
 62
     7
370
    13
100
AcDbLine
 10
8840.362687425862
 20
12267.68508532681
 30
0.0
 11
9432.282687424857
 21
12267.68508532681
 31
0.0
  0
LINE
  5
51C
330
1F
100
AcDbEntity
  8
1
  6
DASHDOT
 62
     7
370
    13
100
AcDbLine
 10
9396.482687425043
 20
13360.8418853268
 30
0.0
 11
9396.482687425043
 21
12834.80504532708
 31
0.0
  0
LINE
  5
51D
330
1F
100
AcDbEntity
  8
1
  6
DASHDOT
 62
     7
370
    13
100
AcDbLine
 10
9612.568007425114
 20
13107.68508532681
 30
0.0
 11
9182.099487425935
 21
13107.68508532681
 31
0.0
  0
LINE
  5
51E
330
1F
100
AcDbEntity
  8
1
  6
DASHDOT
 62
     7
370
    13
100
AcDbLine
 10
9396.482687425043
 20
15208.60040532649
 30
0.0
 11
9396.482687425043
 21
14682.5636053266
 31
0.0
  0
LINE
  5
51F
330
1F
100
AcDbEntity
  8
1
  6
DASHDOT
 62
     7
370
    13
100
AcDbLine
 10
9610.685687425256
 20
14947.68312532678
 30
0.0
 11
9180.217207424982
 21
14947.68312532678
 31
0.0
  0
LINE
  5
520
330
1F
100
AcDbEntity
  8
1
  6
DASHDOT
 62
     7
370
    13
100
AcDbLine
 10
9396.482687425043
 20
17040.5124053265
 30
0.0
 11
9396.482687425043
 21
16514.47560532661
 31
0.0
  0
LINE
  5
521
330
1F
100
AcDbEntity
  8
1
  6
DASHDOT
 62
     7
370
    13
100
AcDbLine
 10
9612.568007425114
 20
16787.68312532678
 30
0.0
 11
9182.099487425935
 21
16787.68312532678
 31
0.0
  0
LINE
  5
522
330
1F
100
AcDbEntity
  8
1
  6
DASHDOT
 62
     7
370
    13
100
AcDbLine
 10
8840.362687425862
 20
19467.68508532681
 30
0.0
 11
9432.282687424857
 21
19467.68508532681
 31
0.0
  0
LINE
  5
523
330
1F
100
AcDbEntity
  8
1
  6
DASHDOT
 62
     7
370
    13
100
AcDbLine
 10
9126.482687425044
 20
19714.32508532647
 30
0.0
 11
9126.482687425044
 21
19201.32508532694
 31
0.0
  0
LINE
  5
524
330
1F
100
AcDbEntity
  8
1
  6
DASHDOT
 62
     7
370
    13
100
AcDbLine
 10
9396.482687425043
 20
18879.6137653267
 30
0.0
 11
9396.482687425043
 21
18353.57692532651
 31
0.0
  0
LINE
  5
525
330
1F
100
AcDbEntity
  8
1
  6
DASHDOT
 62
     7
370
    13
100
AcDbLine
 10
9611.669327425014
 20
18627.68312532678
 30
0.0
 11
9181.200847425673
 21
18627.68312532678
 31
0.0
  0
TEXT
  5
526
330
1F
100
AcDbEntity
  8
1
  6
Continuous
 62
     7
370
    13
100
AcDbText
 10
4596.332228085317
 20
25152.86899725543
 30
0.0
 40
741.8776780800004
  1
4型面付ボックス
 41
0.9166669999999999
  7
KANJI
100
AcDbText
  0
TEXT
  5
527
330
1F
100
AcDbEntity
  8
1
  6
Continuous
 62
     7
370
    13
100
AcDbText
 10
3071.235321985383
 20
8065.291207802017
 30
0.0
 40
447.9946116360424
  1
材　質
 41
0.944444
  7
KANJI
100
AcDbText
  0
TEXT
  5
528
330
1F
100
AcDbEntity
  8
1
  6
Continuous
 62
     7
370
    13
100
AcDbText
 10
3478.148666094697
 20
8727.040480097363
 30
0.0
 40
447.9946116360424
  1
項　目
 41
0.944444
  7
KANJI
100
AcDbText
  0
LINE
  5
529
330
1F
100
AcDbEntity
  8
1
  6
Continuous
 62
     7
370
    13
100
AcDbLine
 10
2746.888362900004
 20
9238.094501603191
 30
0.0
 11
21812.26123150862
 21
9238.094501603191
 31
0.0
  0
LINE
  5
52A
330
1F
100
AcDbEntity
  8
1
  6
Continuous
 62
     7
370
    13
100
AcDbLine
 10
2746.888362900004
 20
8597.067711860814
 30
0.0
 11
21812.26123150862
 21
8597.067711860814
 31
0.0
  0
TEXT
  5
52B
330
1F
100
AcDbEntity
  8
1
  6
Continuous
 62
     7
370
    13
100
AcDbText
 10
12562.47837530763
 20
8727.040480097363
 30
0.0
 40
447.9946116360424
  1
内　容
 41
0.944444
  7
KANJI
100
AcDbText
  0
TEXT
  5
52C
330
1F
100
AcDbEntity
  8
1
  6
Continuous
 62
     7
370
    13
100
AcDbText
 10
3071.235321985383
 20
7455.148100631515
 30
0.0
 40
447.9946116360424
  1
仕　上
 41
0.944444
  7
KANJI
100
AcDbText
  0
TEXT
  5
52D
330
1F
100
AcDbEntity
  8
1
  6
Continuous
 62
     7
370
    13
100
AcDbText
 10
5767.122150342096
 20
8065.291207802017
 30
0.0
 40
447.9946116360424
  1
樹　脂
 41
0.944444
  7
KANJI
100
AcDbText
  0
TEXT
  5
52E
330
1F
100
AcDbEntity
  8
1
  6
Continuous
 62
     7
370
    13
100
AcDbText
 10
5759.434981734899
 20
7455.148100631515
 30
0.0
 40
447.9946116360424
  1
光沢仕上げ
 41
0.944444
  7
KANJI
100
AcDbText
  0
TEXT
  5
52F
330
1F
100
AcDbEntity
  8
1
  6
Continuous
 62
     7
370
    13
100
AcDbText
 10
3071.235321985383
 20
6153.602387324267
 30
0.0
 40
447.9946116360424
  1
重　量
 41
0.944444
  7
KANJI
100
AcDbText
  0
TEXT
  5
530
330
1F
100
AcDbEntity
  8
1
  6
Continuous
 62
     7
370
    13
100
AcDbText
 10
5759.434981734899
 20
6153.602387324267
 30
0.0
 40
447.9946116360424
  1
約３００ｇ
 41
0.944444
  7
KANJI
100
AcDbText
  0
LINE
  5
531
330
1F
100
AcDbEntity
  8
1
  6
Continuous
 62
     7
370
    13
100
AcDbLine
 10
5554.949393652321
 20
9238.094501603191
 30
0.0
 11
5554.949393652321
 21
6032.960552887671
 31
0.0
  0
LINE
  5
532
330
1F
100
AcDbEntity
  8
1
  6
Continuous
 62
     7
370
    13
100
AcDbLine
 10
21812.26123150862
 20
9238.094501603191
 30
0.0
 11
21812.26123150862
 21
6032.960552887671
 31
0.0
  0
LINE
  5
533
330
1F
100
AcDbEntity
  8
1
  6
Continuous
 62
     7
370
    13
100
AcDbLine
 10
2746.888362900004
 20
9238.094501603191
 30
0.0
 11
2746.888362900004
 21
6032.960552887671
 31
0.0
  0
LINE
  5
534
330
1F
100
AcDbEntity
  8
1
  6
Continuous
 62
     7
370
    13
100
AcDbLine
 10
2746.888362900004
 20
7956.040922118394
 30
0.0
 11
21812.26123150862
 21
7956.040922118394
 31
0.0
  0
LINE
  5
535
330
1F
100
AcDbEntity
  8
1
  6
Continuous
 62
     7
370
    13
100
AcDbLine
 10
2746.888362900004
 20
7315.014132376062
 30
0.0
 11
21812.26123150862
 21
7315.014132372453
 31
0.0
  0
LINE
  5
536
330
1F
100
AcDbEntity
  8
1
  6
Continuous
 62
     7
370
    13
100
AcDbLine
 10
2746.888362900004
 20
6673.987342630048
 30
0.0
 11
21812.26123150862
 21
6673.987342630048
 31
0.0
  0
TEXT
  5
537
330
1F
100
AcDbEntity
  8
1
  6
Continuous
 62
     7
370
    13
100
AcDbText
 10
3071.235321985383
 20
6814.12131088732
 30
0.0
 40
447.9946116360424
  1
彩　色
 41
0.944444
  7
KANJI
100
AcDbText
  0
TEXT
  5
538
330
1F
100
AcDbEntity
  8
1
  6
Continuous
 62
     7
370
    13
100
AcDbText
 10
5759.434981734899
 20
6814.12131088732
 30
0.0
 40
447.9946116360424
  1
白　色
 41
0.944444
  7
KANJI
100
AcDbText
  0
LINE
  5
539
330
1F
100
AcDbEntity
  8
0
370
    13
100
AcDbLine
 10
2746.888362900004
 20
6032.960552887671
 30
0.0
 11
21812.26123150857
 21
6032.960552887671
 31
0.0
  0
DIMENSION
  5
53A
330
1F
100
AcDbEntity
  8
1
  6
Continuous
 62
     7
370
    13
100
AcDbDimension
  2
*D22
 10
10266.48268742504
 20
23290.43757677232
 30
0.0
 11
7726.451437425042
 21
23290.43757677232
 31
0.0
 70
   160
  1
127
 71
     5
 42
5080.062499999971
  3
Standard
100
AcDbAlignedDimension
 13
5186.420187425072
 23
20297.68312532679
 33
0.0
 14
10266.48268742504
 24
20297.68312532679
 34
0.0
100
AcDbRotatedDimension
1001
ACAD
1000
DSTYLE
1002
{
1070
    41
1040
500.0
1070
    73
1070
     0
1070
    77
1070
     1
1070
   140
1040
400.0
1070
   147
1040
50.0
1070
   173
1070
     1
1070
   343
1005
2B
1070
   344
1005
2B
1002
}
  0
DIMENSION
  5
53B
330
1F
100
AcDbEntity
  8
1
  6
Continuous
 62
     7
370
    13
100
AcDbDimension
  2
*D23
 10
14189.74943251552
 20
10937.84554596393
 30
0.0
 11
14189.74943251552
 21
15912.01294869673
 31
0.0
 70
   160
  1
120
 71
     5
 42
9859.837579362853
  3
Standard
100
AcDbAlignedDimension
 13
9723.650948178198
 23
20797.68312532678
 33
0.0
 14
9779.226087939955
 24
10937.84554596393
 34
0.0
 50
270.0
100
AcDbRotatedDimension
1001
ACAD
1000
DSTYLE
1002
{
1070
    41
1040
500.0
1070
    73
1070
     0
1070
    77
1070
     1
1070
   140
1040
400.0
1070
   147
1040
50.0
1070
   173
1070
     1
1070
   343
1005
2B
1070
   344
1005
2B
1002
}
  0
DIMENSION
  5
53C
330
1F
100
AcDbEntity
  8
1
  6
Continuous
 62
     7
370
    13
100
AcDbDimension
  2
*D24
 10
11789.13876216951
 20
16787.68312532678
 30
0.0
 11
11789.13876216951
 21
17707.68312532679
 31
0.0
 70
   160
  1
120
 71
     5
 42
1840.0
  3
Standard
100
AcDbAlignedDimension
 13
9568.837588178167
 23
18627.68312532678
 33
0.0
 14
9612.568007425114
 24
16787.68312532678
 34
0.0
 50
270.0
100
AcDbRotatedDimension
1001
ACAD
1000
DSTYLE
1002
{
1070
    41
1040
500.0
1070
    73
1070
     0
1070
    77
1070
     1
1070
   140
1040
400.0
1070
   147
1040
50.0
1070
   173
1070
     1
1070
   343
1005
2B
1070
   344
1005
2B
1002
}
  0
DIMENSION
  5
53D
330
1F
100
AcDbEntity
  8
1
  6
Continuous
 62
     7
370
    13
100
AcDbDimension
  2
*D25
 10
11789.13876216946
 20
14958.77090532696
 30
0.0
 11
11789.13876216945
 21
15878.77090532696
 31
0.0
 70
   160
  1
120
 71
     5
 42
1828.912219999825
  3
Standard
100
AcDbAlignedDimension
 13
9612.568007425114
 23
16787.68312532678
 33
0.0
 14
9612.568007425085
 24
14958.77090532696
 34
0.0
 50
270.0
100
AcDbRotatedDimension
1001
ACAD
1000
DSTYLE
1002
{
1070
    41
1040
500.0
1070
    73
1070
     0
1070
    77
1070
     1
1070
   140
1040
400.0
1070
   147
1040
50.0
1070
   173
1070
     1
1070
   343
1005
2B
1070
   344
1005
2B
1002
}
  0
DIMENSION
  5
53E
330
1F
100
AcDbEntity
  8
1
  6
Continuous
 62
     7
370
    13
100
AcDbDimension
  2
*D26
 10
11830.92436141666
 20
13107.68312532678
 30
0.0
 11
11830.92436141666
 21
14027.68312532678
 31
0.0
 70
   160
  1
120
 71
     5
 42
1840.0
  3
Standard
100
AcDbAlignedDimension
 13
9610.623187425256
 23
14947.68312532678
 33
0.0
 14
9654.353606672202
 24
13107.68312532678
 34
0.0
 50
270.0
100
AcDbRotatedDimension
1001
ACAD
1000
DSTYLE
1002
{
1070
    41
1040
500.0
1070
    73
1070
     0
1070
    77
1070
     1
1070
   140
1040
400.0
1070
   147
1040
50.0
1070
   173
1070
     1
1070
   343
1005
2B
1070
   344
1005
2B
1002
}
  0
DIMENSION
  5
53F
330
1F
100
AcDbEntity
  8
1
  6
Continuous
 62
     7
370
    13
100
AcDbDimension
  2
*D27
 10
12818.87147260847
 20
12267.68508532679
 30
0.0
 11
12818.87147260847
 21
15867.68508532681
 31
0.0
 70
   160
  1
120
 71
     5
 42
7200.000000000017
  3
Standard
100
AcDbAlignedDimension
 13
9389.450948178012
 23
19467.68508532681
 33
0.0
 14
9433.181367424927
 24
12267.68508532679
 34
0.0
 50
270.0
100
AcDbRotatedDimension
1001
ACAD
1000
DSTYLE
1002
{
1070
    41
1040
500.0
1070
    73
1070
     0
1070
    77
1070
     1
1070
   140
1040
400.0
1070
   147
1040
50.0
1070
   173
1070
     1
1070
   343
1005
2B
1070
   344
1005
2B
1002
}
  0
DIMENSION
  5
540
330
1F
100
AcDbEntity
  8
1
  6
Continuous
 62
     7
370
    13
100
AcDbDimension
  2
*D28
 10
9727.482687425045
 20
22474.88934144532
 30
0.0
 11
7726.482687425276
 21
22474.88934144532
 31
0.0
 70
   160
  1
83.5
 71
     5
 42
4001.999999999534
  3
Standard
100
AcDbAlignedDimension
 13
5725.482687425508
 23
20157.68312532678
 33
0.0
 14
9727.482687425045
 24
20157.68312532678
 34
0.0
100
AcDbRotatedDimension
1001
ACAD
1000
DSTYLE
1002
{
1070
    41
1040
500.0
1070
    73
1070
     0
1070
    77
1070
     1
1070
   140
1040
400.0
1070
   147
1040
50.0
1070
   173
1070
     1
1070
   343
1005
2B
1070
   344
1005
2B
1002
}
  0
DIMENSION
  5
541
330
1F
100
AcDbEntity
  8
1
  6
Continuous
 62
     7
370
    13
100
AcDbDimension
  2
*D29
 10
9126.482687425044
 20
21784.78143260037
 30
0.0
 11
7726.482687425043
 21
21784.78143260037
 31
0.0
 70
   160
  1
70
 71
     5
 42
2800.0
  3
Standard
100
AcDbAlignedDimension
 13
6326.482687425043
 23
19714.32508532647
 33
0.0
 14
9126.482687425044
 24
19714.32508532647
 34
0.0
100
AcDbRotatedDimension
1001
ACAD
1000
DSTYLE
1002
{
1070
    41
1040
500.0
1070
    73
1070
     0
1070
    77
1070
     1
1070
   140
1040
400.0
1070
   147
1040
50.0
1070
   173
1070
     1
1070
   343
1005
2B
1070
   344
1005
2B
1002
}
  0
DIMENSION
  5
542
330
1F
100
AcDbEntity
  8
1
  6
Continuous
 62
     7
370
    13
100
AcDbDimension
  2
*D30
 10
20373.61068742506
 20
22631.76067260108
 30
0.0
 11
19085.6106874253
 21
22631.76067260108
 31
0.0
 70
   160
  1
62
 71
     5
 42
2575.999999999534
  3
Standard
100
AcDbAlignedDimension
 13
17797.61068742553
 23
20561.30432532718
 33
0.0
 14
20373.61068742506
 24
20721.30432532719
 34
0.0
100
AcDbRotatedDimension
1001
ACAD
1000
DSTYLE
1002
{
1070
    41
1040
500.0
1070
    73
1070
     0
1070
    77
1070
     1
1070
   140
1040
400.0
1070
   147
1040
50.0
1070
   173
1070
     1
1070
   343
1005
2B
1070
   344
1005
2B
1002
}
  0
ENDSEC
  0
SECTION
  2
OBJECTS
  0
DICTIONARY
  5
C
330
0
100
AcDbDictionary
281
     1
  3
ACAD_GROUP
350
D
  3
ACAD_LAYOUT
350
1A
  3
ACAD_MLINESTYLE
350
17
  3
ACAD_PLOTSETTINGS
350
19
  3
ACAD_PLOTSTYLENAME
350
E
  3
AcDbVariableDictionary
350
339
  0
DICTIONARY
  5
73
330
2
100
AcDbDictionary
280
     1
281
     1
  3
ACAD_LAYERSTATES
360
74
  0
DICTIONARY
  5
D
102
{ACAD_REACTORS
330
C
102
}
330
C
100
AcDbDictionary
281
     1
  0
DICTIONARY
  5
1A
102
{ACAD_REACTORS
330
C
102
}
330
C
100
AcDbDictionary
281
     1
  3
Model
350
22
  3
ﾚｲｱｳﾄ1
350
1E
  3
ﾚｲｱｳﾄ2
350
26
  0
DICTIONARY
  5
17
102
{ACAD_REACTORS
330
C
102
}
330
C
100
AcDbDictionary
281
     1
  3
Standard
350
18
  0
DICTIONARY
  5
19
102
{ACAD_REACTORS
330
C
102
}
330
C
100
AcDbDictionary
281
     1
  0
ACDBDICTIONARYWDFLT
  5
E
102
{ACAD_REACTORS
330
C
102
}
330
C
100
AcDbDictionary
281
     1
  3
Normal
350
F
100
AcDbDictionaryWithDefault
340
F
  0
DICTIONARY
  5
339
102
{ACAD_REACTORS
330
C
102
}
330
C
100
AcDbDictionary
281
     1
  3
DIMASSOC
350
33B
  3
HIDETEXT
350
33A
  0
DICTIONARY
  5
74
102
{ACAD_REACTORS
330
73
102
}
330
73
100
AcDbDictionary
281
     1
  0
LAYOUT
  5
22
102
{ACAD_REACTORS
330
1A
102
}
330
1A
100
AcDbPlotSettings
  1

  2
RICOH imagio MP C4500 RPCS
  4

  6

 40
0.0
 41
0.0
 42
0.0
 43
0.0
 44
0.0
 45
0.0
 46
0.0
 47
0.0
 48
0.0
 49
0.0
140
0.0
141
0.0
142
1.0
143
1.0
 70
  1712
 72
     0
 73
     0
 74
     0
  7

 75
     0
147
1.0
148
0.0
149
0.0
100
AcDbLayout
  1
Model
 70
     1
 71
     0
 10
0.0
 20
0.0
 11
12.0
 21
9.0
 12
0.0
 22
0.0
 32
0.0
 14
0.0
 24
0.0
 34
0.0
 15
0.0
 25
0.0
 35
0.0
146
0.0
 13
0.0
 23
0.0
 33
0.0
 16
1.0
 26
0.0
 36
0.0
 17
0.0
 27
1.0
 37
0.0
 76
     0
330
1F
  0
LAYOUT
  5
1E
102
{ACAD_REACTORS
330
1A
102
}
330
1A
100
AcDbPlotSettings
  1

  2
RICOH imagio MP C4500 RPCS
  4

  6

 40
0.0
 41
0.0
 42
0.0
 43
0.0
 44
0.0
 45
0.0
 46
0.0
 47
0.0
 48
0.0
 49
0.0
140
0.0
141
0.0
142
1.0
143
1.0
 70
   688
 72
     0
 73
     0
 74
     5
  7

 75
    16
147
1.0
148
0.0
149
0.0
100
AcDbLayout
  1
ﾚｲｱｳﾄ1
 70
     1
 71
     1
 10
0.0
 20
0.0
 11
420.0
 21
297.0
 12
0.0
 22
0.0
 32
0.0
 14
1.000000000000000E+20
 24
1.000000000000000E+20
 34
1.000000000000000E+20
 15
-1.000000000000000E+20
 25
-1.000000000000000E+20
 35
-1.000000000000000E+20
146
0.0
 13
0.0
 23
0.0
 33
0.0
 16
1.0
 26
0.0
 36
0.0
 17
0.0
 27
1.0
 37
0.0
 76
     0
330
1B
  0
LAYOUT
  5
26
102
{ACAD_REACTORS
330
1A
102
}
330
1A
100
AcDbPlotSettings
  1

  2
RICOH imagio MP C4500 RPCS
  4

  6

 40
0.0
 41
0.0
 42
0.0
 43
0.0
 44
0.0
 45
0.0
 46
0.0
 47
0.0
 48
0.0
 49
0.0
140
0.0
141
0.0
142
1.0
143
1.0
 70
   688
 72
     0
 73
     0
 74
     5
  7

 75
    16
147
1.0
148
0.0
149
0.0
100
AcDbLayout
  1
ﾚｲｱｳﾄ2
 70
     1
 71
     2
 10
0.0
 20
0.0
 11
12.0
 21
9.0
 12
0.0
 22
0.0
 32
0.0
 14
0.0
 24
0.0
 34
0.0
 15
0.0
 25
0.0
 35
0.0
146
0.0
 13
0.0
 23
0.0
 33
0.0
 16
1.0
 26
0.0
 36
0.0
 17
0.0
 27
1.0
 37
0.0
 76
     0
330
23
  0
MLINESTYLE
  5
18
102
{ACAD_REACTORS
330
17
102
}
330
17
100
AcDbMlineStyle
  2
STANDARD
 70
     0
  3

 62
   256
 51
90.0
 52
90.0
 71
     2
 49
0.5
 62
   256
  6
BYLAYER
 49
-0.5
 62
   256
  6
BYLAYER
  0
ACDBPLACEHOLDER
  5
F
102
{ACAD_REACTORS
330
E
102
}
330
E
  0
DICTIONARYVAR
  5
33B
102
{ACAD_REACTORS
330
339
102
}
330
339
100
DictionaryVariables
280
     0
  1
2
  0
DICTIONARYVAR
  5
33A
102
{ACAD_REACTORS
330
339
102
}
330
339
100
DictionaryVariables
280
     0
  1
1
  0
ENDSEC
  0
EOF
