  0
SECTION
  2
HEADER
  9
$ACADVER
  1
AC1015
  9
$ACADMAINTVER
 70
    13
  9
$DWGCODEPAGE
  3
ANSI_932
  9
$INSBASE
 10
0.0
 20
0.0
 30
0.0
  9
$EXTMIN
 10
311.0155872026006
 20
281.2817517180955
 30
0.0
  9
$EXTMAX
 10
22891.47325924727
 20
25361.2377765082
 30
0.0
  9
$LIMMIN
 10
0.0
 20
0.0
  9
$LIMMAX
 10
420.0
 20
297.0
  9
$ORTHOMODE
 70
     0
  9
$REGENMODE
 70
     1
  9
$FILLMODE
 70
     1
  9
$QTEXTMODE
 70
     0
  9
$MIRRTEXT
 70
     1
  9
$LTSCALE
 40
1.0
  9
$ATTMODE
 70
     1
  9
$TEXTSIZE
 40
2.5
  9
$TRACEWID
 40
1.0
  9
$TEXTSTYLE
  7
STANDARD
  9
$CLAYER
  8
0
  9
$CELTYPE
  6
BYLAYER
  9
$CECOLOR
 62
   256
  9
$CELTSCALE
 40
1.0
  9
$DISPSILH
 70
     0
  9
$DIMSCALE
 40
1.0
  9
$DIMASZ
 40
2.5
  9
$DIMEXO
 40
0.625
  9
$DIMDLI
 40
3.75
  9
$DIMRND
 40
0.0
  9
$DIMDLE
 40
0.0
  9
$DIMEXE
 40
1.25
  9
$DIMTP
 40
0.0
  9
$DIMTM
 40
0.0
  9
$DIMTXT
 40
2.5
  9
$DIMCEN
 40
2.5
  9
$DIMTSZ
 40
0.0
  9
$DIMTOL
 70
     0
  9
$DIMLIM
 70
     0
  9
$DIMTIH
 70
     0
  9
$DIMTOH
 70
     0
  9
$DIMSE1
 70
     0
  9
$DIMSE2
 70
     0
  9
$DIMTAD
 70
     1
  9
$DIMZIN
 70
     8
  9
$DIMBLK
  1

  9
$DIMASO
 70
     1
  9
$DIMSHO
 70
     1
  9
$DIMPOST
  1

  9
$DIMAPOST
  1

  9
$DIMALT
 70
     0
  9
$DIMALTD
 70
     3
  9
$DIMALTF
 40
0.03937007874016
  9
$DIMLFAC
 40
1.0
  9
$DIMTOFL
 70
     1
  9
$DIMTVP
 40
0.0
  9
$DIMTIX
 70
     0
  9
$DIMSOXD
 70
     0
  9
$DIMSAH
 70
     0
  9
$DIMBLK1
  1

  9
$DIMBLK2
  1

  9
$DIMSTYLE
  2
ISO-25
  9
$DIMCLRD
 70
     0
  9
$DIMCLRE
 70
     0
  9
$DIMCLRT
 70
     0
  9
$DIMTFAC
 40
1.0
  9
$DIMGAP
 40
0.625
  9
$DIMJUST
 70
     0
  9
$DIMSD1
 70
     0
  9
$DIMSD2
 70
     0
  9
$DIMTOLJ
 70
     0
  9
$DIMTZIN
 70
     8
  9
$DIMALTZ
 70
     0
  9
$DIMALTTZ
 70
     0
  9
$DIMUPT
 70
     0
  9
$DIMDEC
 70
     2
  9
$DIMTDEC
 70
     2
  9
$DIMALTU
 70
     2
  9
$DIMALTTD
 70
     3
  9
$DIMTXSTY
  7
STANDARD
  9
$DIMAUNIT
 70
     0
  9
$DIMADEC
 70
     0
  9
$DIMALTRND
 40
0.0
  9
$DIMAZIN
 70
     0
  9
$DIMDSEP
 70
    46
  9
$DIMATFIT
 70
     3
  9
$DIMFRAC
 70
     0
  9
$DIMLDRBLK
  1

  9
$DIMLUNIT
 70
     2
  9
$DIMLWD
 70
    -2
  9
$DIMLWE
 70
    -2
  9
$DIMTMOVE
 70
     0
  9
$LUNITS
 70
     2
  9
$LUPREC
 70
     4
  9
$SKETCHINC
 40
1.0
  9
$FILLETRAD
 40
10.0
  9
$AUNITS
 70
     0
  9
$AUPREC
 70
     0
  9
$MENU
  1
.
  9
$ELEVATION
 40
0.0
  9
$PELEVATION
 40
0.0
  9
$THICKNESS
 40
0.0
  9
$LIMCHECK
 70
     0
  9
$CHAMFERA
 40
10.0
  9
$CHAMFERB
 40
10.0
  9
$CHAMFERC
 40
20.0
  9
$CHAMFERD
 40
0.0
  9
$SKPOLY
 70
     0
  9
$TDCREATE
 40
2455236.663561527
  9
$TDUCREATE
 40
2455236.288561527
  9
$TDUPDATE
 40
2456280.577944236
  9
$TDUUPDATE
 40
2456280.202944236
  9
$TDINDWG
 40
0.0276997801
  9
$TDUSRTIMER
 40
0.0276986690
  9
$USRTIMER
 70
     1
  9
$ANGBASE
 50
0.0
  9
$ANGDIR
 70
     0
  9
$PDMODE
 70
     0
  9
$PDSIZE
 40
0.0
  9
$PLINEWID
 40
0.0
  9
$SPLFRAME
 70
     0
  9
$SPLINETYPE
 70
     6
  9
$SPLINESEGS
 70
     8
  9
$HANDSEED
  5
2284E
  9
$SURFTAB1
 70
     6
  9
$SURFTAB2
 70
     6
  9
$SURFTYPE
 70
     6
  9
$SURFU
 70
     6
  9
$SURFV
 70
     6
  9
$UCSBASE
  2

  9
$UCSNAME
  2

  9
$UCSORG
 10
0.0
 20
0.0
 30
0.0
  9
$UCSXDIR
 10
1.0
 20
0.0
 30
0.0
  9
$UCSYDIR
 10
0.0
 20
1.0
 30
0.0
  9
$UCSORTHOREF
  2

  9
$UCSORTHOVIEW
 70
     0
  9
$UCSORGTOP
 10
0.0
 20
0.0
 30
0.0
  9
$UCSORGBOTTOM
 10
0.0
 20
0.0
 30
0.0
  9
$UCSORGLEFT
 10
0.0
 20
0.0
 30
0.0
  9
$UCSORGRIGHT
 10
0.0
 20
0.0
 30
0.0
  9
$UCSORGFRONT
 10
0.0
 20
0.0
 30
0.0
  9
$UCSORGBACK
 10
0.0
 20
0.0
 30
0.0
  9
$PUCSBASE
  2

  9
$PUCSNAME
  2

  9
$PUCSORG
 10
0.0
 20
0.0
 30
0.0
  9
$PUCSXDIR
 10
1.0
 20
0.0
 30
0.0
  9
$PUCSYDIR
 10
0.0
 20
1.0
 30
0.0
  9
$PUCSORTHOREF
  2

  9
$PUCSORTHOVIEW
 70
     0
  9
$PUCSORGTOP
 10
0.0
 20
0.0
 30
0.0
  9
$PUCSORGBOTTOM
 10
0.0
 20
0.0
 30
0.0
  9
$PUCSORGLEFT
 10
0.0
 20
0.0
 30
0.0
  9
$PUCSORGRIGHT
 10
0.0
 20
0.0
 30
0.0
  9
$PUCSORGFRONT
 10
0.0
 20
0.0
 30
0.0
  9
$PUCSORGBACK
 10
0.0
 20
0.0
 30
0.0
  9
$USERI1
 70
     0
  9
$USERI2
 70
     0
  9
$USERI3
 70
     0
  9
$USERI4
 70
     0
  9
$USERI5
 70
     0
  9
$USERR1
 40
0.0
  9
$USERR2
 40
0.0
  9
$USERR3
 40
0.0
  9
$USERR4
 40
0.0
  9
$USERR5
 40
0.0
  9
$WORLDVIEW
 70
     1
  9
$SHADEDGE
 70
     3
  9
$SHADEDIF
 70
    70
  9
$TILEMODE
 70
     1
  9
$MAXACTVP
 70
    64
  9
$PINSBASE
 10
0.0
 20
0.0
 30
0.0
  9
$PLIMCHECK
 70
     0
  9
$PEXTMIN
 10
1.000000000000000E+20
 20
1.000000000000000E+20
 30
1.000000000000000E+20
  9
$PEXTMAX
 10
-1.000000000000000E+20
 20
-1.000000000000000E+20
 30
-1.000000000000000E+20
  9
$PLIMMIN
 10
0.0
 20
0.0
  9
$PLIMMAX
 10
420.0
 20
297.0
  9
$UNITMODE
 70
     0
  9
$VISRETAIN
 70
     1
  9
$PLINEGEN
 70
     0
  9
$PSLTSCALE
 70
     1
  9
$TREEDEPTH
 70
  3020
  9
$CMLSTYLE
  2
STANDARD
  9
$CMLJUST
 70
     0
  9
$CMLSCALE
 40
20.0
  9
$PROXYGRAPHICS
 70
     1
  9
$MEASUREMENT
 70
     0
  9
$CELWEIGHT
370
    -1
  9
$ENDCAPS
280
     0
  9
$JOINSTYLE
280
     0
  9
$LWDISPLAY
290
     0
  9
$INSUNITS
 70
     0
  9
$HYPERLINKBASE
  1

  9
$STYLESHEET
  1

  9
$XEDIT
290
     1
  9
$CEPSNTYPE
380
     0
  9
$PSTYLEMODE
290
     1
  9
$FINGERPRINTGUID
  2
{E923DD06-A5D2-4033-A387-0BD564AE0CF6}
  9
$VERSIONGUID
  2
{5F5725C7-27C2-4383-A0BE-E335AB222BCA}
  9
$EXTNAMES
290
     1
  9
$PSVPSCALE
 40
0.0
  9
$OLESTARTUP
290
     0
  0
ENDSEC
  0
SECTION
  2
CLASSES
  0
CLASS
  1
ACDBDICTIONARYWDFLT
  2
AcDbDictionaryWithDefault
  3
AutoCAD 2000
 90
        0
280
     0
281
     0
  0
CLASS
  1
ACDBPLACEHOLDER
  2
AcDbPlaceHolder
  3
AutoCAD 2000
 90
        0
280
     0
281
     0
  0
CLASS
  1
LAYOUT
  2
AcDbLayout
  3
AutoCAD 2000
 90
        0
280
     0
281
     0
  0
CLASS
  1
DICTIONARYVAR
  2
AcDbDictionaryVar
  3
AutoCAD 2000
 90
        0
280
     0
281
     0
  0
CLASS
  1
LONG_TRANSACTION
  2
AcDbLongTransaction
  3
AutoCAD 2000
 90
    32768
280
     0
281
     0
  0
CLASS
  1
LWPOLYLINE
  2
AcDbPolyline
  3
AutoCAD 2000
 90
    32768
280
     0
281
     1
  0
CLASS
  1
HATCH
  2
AcDbHatch
  3
AutoCAD 2000
 90
    32768
280
     0
281
     1
  0
CLASS
  1
XRECORD
  2
AcDbXrecord
  3
AutoCAD 2000
 90
    32768
280
     0
281
     0
  0
CLASS
  1
LONG_TRANSACTION
  2
AcDbLongTransaction
  3
AutoCAD 2000
 90
    32768
280
     0
281
     0
  0
CLASS
  1
LWPOLYLINE
  2
AcDbPolyline
  3
AutoCAD 2000
 90
    32768
280
     0
281
     1
  0
CLASS
  1
HATCH
  2
AcDbHatch
  3
AutoCAD 2000
 90
    32768
280
     0
281
     1
  0
CLASS
  1
XRECORD
  2
AcDbXrecord
  3
AutoCAD 2000
 90
    32768
280
     0
281
     0
  0
ENDSEC
  0
SECTION
  2
TABLES
  0
TABLE
  2
VPORT
  5
8
330
0
100
AcDbSymbolTable
 70
     2
  0
VPORT
  5
2284D
330
8
100
AcDbSymbolTableRecord
100
AcDbViewportTableRecord
  2
*Active
 70
     0
 10
0.0
 20
0.0
 11
1.0
 21
1.0
 12
18277.05425899337
 22
7935.47715155852
 13
0.0
 23
0.0
 14
10.0
 24
10.0
 15
10.0
 25
10.0
 16
0.0
 26
0.0
 36
1.0
 17
0.0
 27
0.0
 37
0.0
 40
20745.65786925791
 41
1.570536828963795
 42
50.0
 43
0.0
 44
0.0
 50
0.0
 51
0.0
 71
     0
 72
   100
 73
     1
 74
     3
 75
     0
 76
     0
 77
     0
 78
     0
281
     0
 65
     1
110
0.0
120
0.0
130
0.0
111
1.0
121
0.0
131
0.0
112
0.0
122
1.0
132
0.0
 79
     0
146
0.0
  0
ENDTAB
  0
TABLE
  2
LTYPE
  5
5
330
0
100
AcDbSymbolTable
 70
     6
  0
LTYPE
  5
14
330
5
100
AcDbSymbolTableRecord
100
AcDbLinetypeTableRecord
  2
BYBLOCK
 70
     0
  3

 72
    65
 73
     0
 40
0.0
  0
LTYPE
  5
15
330
5
100
AcDbSymbolTableRecord
100
AcDbLinetypeTableRecord
  2
BYLAYER
 70
     0
  3

 72
    65
 73
     0
 40
0.0
  0
LTYPE
  5
16
330
5
100
AcDbSymbolTableRecord
100
AcDbLinetypeTableRecord
  2
CONTINUOUS
 70
     0
  3
Solid line
 72
    65
 73
     0
 40
0.0
  0
LTYPE
  5
373
330
5
100
AcDbSymbolTableRecord
100
AcDbLinetypeTableRecord
  2
DOT
 70
     0
  3
････････････････････････
 72
    65
 73
     2
 40
8.0
 49
6.0
 74
     0
 49
-2.0
 74
     0
  0
LTYPE
  5
208A
330
5
100
AcDbSymbolTableRecord
100
AcDbLinetypeTableRecord
  2
DASHDOT
 70
     0
  3
--･--･--･--･--･--･--･--
 72
    65
 73
     4
 40
50.5
 49
30.0
 74
     0
 49
-9.0
 74
     0
 49
2.5
 74
     0
 49
-9.0
 74
     0
  0
LTYPE
  5
253D
330
5
100
AcDbSymbolTableRecord
100
AcDbLinetypeTableRecord
  2
HIDDEN
 70
     0
  3
------------------------
 72
    65
 73
     2
 40
12.6
 49
8.4
 74
     0
 49
-4.2
 74
     0
  0
LTYPE
  5
363F
330
5
100
AcDbSymbolTableRecord
100
AcDbLinetypeTableRecord
  2
DIVIDE
 70
     0
  3
--･･--･･--･･--･･--･･--
 72
    65
 73
     6
 40
58.0
 49
30.0
 74
     0
 49
-9.0
 74
     0
 49
2.5
 74
     0
 49
-5.0
 74
     0
 49
2.5
 74
     0
 49
-9.0
 74
     0
  0
LTYPE
  5
22699
330
5
100
AcDbSymbolTableRecord
100
AcDbLinetypeTableRecord
  2
CENTER
 70
     0
  3
- ･ - ･ - ･ - ･ 
 72
    65
 73
     4
 40
50.5
 49
30.0
 74
     0
 49
-9.0
 74
     0
 49
2.5
 74
     0
 49
-9.0
 74
     0
  0
ENDTAB
  0
TABLE
  2
LAYER
  5
2
102
{ACAD_XDICTIONARY
360
73
102
}
330
0
100
AcDbSymbolTable
 70
     4
  0
LAYER
  5
10
330
2
100
AcDbSymbolTableRecord
100
AcDbLayerTableRecord
  2
0
 70
     0
 62
     7
  6
CONTINUOUS
370
    -3
390
9FDD
  0
LAYER
  5
6E
330
2
100
AcDbSymbolTableRecord
100
AcDbLayerTableRecord
  2
1
 70
     0
 62
     7
  6
CONTINUOUS
370
    -3
390
9FDD
  0
LAYER
  5
6F
330
2
100
AcDbSymbolTableRecord
100
AcDbLayerTableRecord
  2
DEFPOINTS
 70
     0
 62
     7
  6
CONTINUOUS
290
     0
370
    -3
390
9FDD
  0
LAYER
  5
3640
330
2
100
AcDbSymbolTableRecord
100
AcDbLayerTableRecord
  2
129
 70
     0
 62
     7
  6
CONTINUOUS
370
    -3
390
9FDD
  0
ENDTAB
  0
TABLE
  2
STYLE
  5
3
330
0
100
AcDbSymbolTable
 70
     2
  0
STYLE
  5
11
330
3
100
AcDbSymbolTableRecord
100
AcDbTextStyleTableRecord
  2
STANDARD
 70
     0
 40
0.0
 41
1.0
 50
0.0
 71
     0
 42
2.5
  3
txt
  4

  0
STYLE
  5
70
330
3
100
AcDbSymbolTableRecord
100
AcDbTextStyleTableRecord
  2
KANJI
 70
     0
 40
0.0
 41
1.0
 50
0.0
 71
     0
 42
0.2
  3
TXT
  4
BIGFONT
  0
ENDTAB
  0
TABLE
  2
VIEW
  5
6
330
0
100
AcDbSymbolTable
 70
     0
  0
ENDTAB
  0
TABLE
  2
UCS
  5
7
330
0
100
AcDbSymbolTable
 70
     0
  0
ENDTAB
  0
TABLE
  2
APPID
  5
9
330
0
100
AcDbSymbolTable
 70
     2
  0
APPID
  5
12
330
9
100
AcDbSymbolTableRecord
100
AcDbRegAppTableRecord
  2
ACAD
 70
     0
  0
APPID
  5
72
330
9
100
AcDbSymbolTableRecord
100
AcDbRegAppTableRecord
  2
ACAD_PSEXT
 70
     0
  0
ENDTAB
  0
TABLE
  2
DIMSTYLE
  5
A
330
0
100
AcDbSymbolTable
 70
     2
100
AcDbDimStyleTable
 71
     0
  0
DIMSTYLE
105
27
330
A
100
AcDbSymbolTableRecord
100
AcDbDimStyleTableRecord
  2
ISO-25
 70
     0
 41
2.5
 42
0.625
 43
3.75
 44
1.25
 73
     0
 74
     0
 77
     1
 78
     8
140
2.5
141
2.5
143
0.03937007874016
147
0.625
171
     3
172
     1
271
     2
272
     2
274
     3
283
     0
284
     8
340
11
  0
DIMSTYLE
105
71
102
{ACAD_REACTORS
330
227A3
330
227A4
330
227C8
330
227C9
330
227CA
102
}
330
A
100
AcDbSymbolTableRecord
100
AcDbDimStyleTableRecord
  2
STANDARD
 70
     0
340
11
  0
ENDTAB
  0
TABLE
  2
BLOCK_RECORD
  5
1
330
0
100
AcDbSymbolTable
 70
   117
  0
BLOCK_RECORD
  5
1F
102
{ACAD_XDICTIONARY
360
2CF6
102
}
330
1
100
AcDbSymbolTableRecord
100
AcDbBlockTableRecord
  2
*MODEL_SPACE
340
9FDE
  0
BLOCK_RECORD
  5
1B
102
{ACAD_XDICTIONARY
360
2CF4
102
}
330
1
100
AcDbSymbolTableRecord
100
AcDbBlockTableRecord
  2
*PAPER_SPACE
340
9FDF
  0
BLOCK_RECORD
  5
2B
330
1
100
AcDbSymbolTableRecord
100
AcDbBlockTableRecord
  2
_OPEN30
340
0
102
{BLKREFS
331
78B2
331
78B3
331
78BB
331
78BC
331
78C4
331
78C5
331
78D4
331
78D5
331
78E0
331
78E1
331
78EC
331
78ED
331
7FF7
331
7FF8
331
8000
331
8001
331
8009
331
800A
331
8019
331
801A
331
8025
331
8026
331
8031
331
8032
331
882C
331
882D
331
8835
331
8836
331
883E
331
883F
331
8849
331
884A
331
8855
331
8856
331
8861
331
8862
331
928E
331
928F
331
9297
331
9298
331
92A0
331
92A1
331
92AB
331
92AC
331
92B7
331
92B8
331
92C3
331
92C4
331
92CF
331
92D0
331
9FB7
331
9FB8
331
9FC0
331
9FC1
331
9FC9
331
9FCA
331
9FD2
331
9FD3
331
9FE5
331
9FE6
331
9FF1
331
9FF2
331
9FFD
331
9FFE
331
E6E3
331
E6E4
331
E6EF
331
E6F0
331
E6FB
331
E6FC
331
E706
331
E707
331
E70F
331
E710
331
E718
331
E719
331
E72A
331
E72B
331
E736
331
E737
331
E742
331
E743
331
12F7C
331
12F7D
331
12F88
331
12F89
331
12F94
331
12F95
331
12F9F
331
12FA0
331
12FA8
331
12FA9
331
12FB1
331
12FB2
331
12FBC
331
12FBD
331
12FC8
331
12FC9
331
12FD4
331
12FD5
331
178EC
331
178ED
331
178F8
331
178F9
331
17904
331
17905
331
1790F
331
17910
331
17918
331
17919
331
17921
331
17922
331
1792C
331
1792D
331
17938
331
17939
331
17944
331
17945
331
1C3AE
331
1C3AF
331
1C3BA
331
1C3BB
331
1C3C6
331
1C3C7
331
1C3D1
331
1C3D2
331
1C3DA
331
1C3DB
331
1C3E3
331
1C3E4
331
1C3EE
331
1C3EF
331
1C3FA
331
1C3FB
331
1C406
331
1C407
331
20F28
331
20F29
331
20F34
331
20F35
331
20F40
331
20F41
331
20F4B
331
20F4C
331
20F54
331
20F55
331
20F5D
331
20F5E
331
20F68
331
20F69
331
20F74
331
20F75
331
20F80
331
20F81
331
21984
331
21985
331
21990
331
21991
331
2199C
331
2199D
331
219A7
331
219A8
331
219B0
331
219B1
331
219B9
331
219BA
331
219C4
331
219C5
331
219D0
331
219D1
331
219DC
331
219DD
331
22620
331
22621
331
2262C
331
2262D
331
22638
331
22639
331
22643
331
22644
331
2264C
331
2264D
331
22655
331
22656
331
22660
331
22661
331
2266C
331
2266D
331
22678
331
22679
331
22684
331
22685
331
22691
331
22692
331
227E0
331
227E1
331
227EC
331
227ED
331
227F8
331
227F9
331
22804
331
22805
331
22811
331
22812
331
2281C
331
2281D
331
22825
331
22826
331
2282E
331
2282F
331
22837
331
22838
331
22841
331
22842
102
}
  0
BLOCK_RECORD
  5
7037
330
1
100
AcDbSymbolTableRecord
100
AcDbBlockTableRecord
  2
*G1051051111
340
0
  0
BLOCK_RECORD
  5
703E
330
1
100
AcDbSymbolTableRecord
100
AcDbBlockTableRecord
  2
*G1061062222
340
0
  0
BLOCK_RECORD
  5
7045
330
1
100
AcDbSymbolTableRecord
100
AcDbBlockTableRecord
  2
*G1071073333
340
0
  0
BLOCK_RECORD
  5
704C
330
1
100
AcDbSymbolTableRecord
100
AcDbBlockTableRecord
  2
*G1081084444
340
0
  0
BLOCK_RECORD
  5
7053
330
1
100
AcDbSymbolTableRecord
100
AcDbBlockTableRecord
  2
*G1091095555
340
0
  0
BLOCK_RECORD
  5
705A
330
1
100
AcDbSymbolTableRecord
100
AcDbBlockTableRecord
  2
*G1101106666
340
0
  0
BLOCK_RECORD
  5
7061
330
1
100
AcDbSymbolTableRecord
100
AcDbBlockTableRecord
  2
*G1111117777
340
0
  0
BLOCK_RECORD
  5
7068
330
1
100
AcDbSymbolTableRecord
100
AcDbBlockTableRecord
  2
*G1121128888
340
0
  0
BLOCK_RECORD
  5
706F
330
1
100
AcDbSymbolTableRecord
100
AcDbBlockTableRecord
  2
*G1131139999
340
0
  0
BLOCK_RECORD
  5
7076
330
1
100
AcDbSymbolTableRecord
100
AcDbBlockTableRecord
  2
*G11411410101010
340
0
  0
BLOCK_RECORD
  5
707D
330
1
100
AcDbSymbolTableRecord
100
AcDbBlockTableRecord
  2
*G11511511111111
340
0
  0
BLOCK_RECORD
  5
7084
330
1
100
AcDbSymbolTableRecord
100
AcDbBlockTableRecord
  2
*G11611612121212
340
0
  0
BLOCK_RECORD
  5
708B
330
1
100
AcDbSymbolTableRecord
100
AcDbBlockTableRecord
  2
*G11711713131313
340
0
  0
BLOCK_RECORD
  5
7092
330
1
100
AcDbSymbolTableRecord
100
AcDbBlockTableRecord
  2
*G11811814141414
340
0
  0
BLOCK_RECORD
  5
7099
330
1
100
AcDbSymbolTableRecord
100
AcDbBlockTableRecord
  2
*G11911915151515
340
0
  0
BLOCK_RECORD
  5
70A0
330
1
100
AcDbSymbolTableRecord
100
AcDbBlockTableRecord
  2
*G12012016161616
340
0
  0
BLOCK_RECORD
  5
70A7
330
1
100
AcDbSymbolTableRecord
100
AcDbBlockTableRecord
  2
*G12112117171717
340
0
  0
BLOCK_RECORD
  5
70AE
330
1
100
AcDbSymbolTableRecord
100
AcDbBlockTableRecord
  2
*G12212218181818
340
0
  0
BLOCK_RECORD
  5
70B5
330
1
100
AcDbSymbolTableRecord
100
AcDbBlockTableRecord
  2
*G12312319191919
340
0
  0
BLOCK_RECORD
  5
70BC
330
1
100
AcDbSymbolTableRecord
100
AcDbBlockTableRecord
  2
*G12412420202020
340
0
  0
BLOCK_RECORD
  5
70C3
330
1
100
AcDbSymbolTableRecord
100
AcDbBlockTableRecord
  2
*G12512521212121
340
0
  0
BLOCK_RECORD
  5
70CA
330
1
100
AcDbSymbolTableRecord
100
AcDbBlockTableRecord
  2
*G12612622222222
340
0
  0
BLOCK_RECORD
  5
70D1
330
1
100
AcDbSymbolTableRecord
100
AcDbBlockTableRecord
  2
*G12712723232323
340
0
  0
BLOCK_RECORD
  5
70D8
330
1
100
AcDbSymbolTableRecord
100
AcDbBlockTableRecord
  2
*G12812824242424
340
0
  0
BLOCK_RECORD
  5
70DF
330
1
100
AcDbSymbolTableRecord
100
AcDbBlockTableRecord
  2
*G12912925252525
340
0
  0
BLOCK_RECORD
  5
70E6
330
1
100
AcDbSymbolTableRecord
100
AcDbBlockTableRecord
  2
*G13013026262626
340
0
  0
BLOCK_RECORD
  5
70ED
330
1
100
AcDbSymbolTableRecord
100
AcDbBlockTableRecord
  2
*G13113127272727
340
0
  0
BLOCK_RECORD
  5
70F4
330
1
100
AcDbSymbolTableRecord
100
AcDbBlockTableRecord
  2
*G13213228282828
340
0
  0
BLOCK_RECORD
  5
70FB
330
1
100
AcDbSymbolTableRecord
100
AcDbBlockTableRecord
  2
*G13313329292929
340
0
  0
BLOCK_RECORD
  5
7102
330
1
100
AcDbSymbolTableRecord
100
AcDbBlockTableRecord
  2
*G13413430303030
340
0
  0
BLOCK_RECORD
  5
7109
330
1
100
AcDbSymbolTableRecord
100
AcDbBlockTableRecord
  2
*G13513531313131
340
0
  0
BLOCK_RECORD
  5
7110
330
1
100
AcDbSymbolTableRecord
100
AcDbBlockTableRecord
  2
*G13613632323232
340
0
  0
BLOCK_RECORD
  5
7117
330
1
100
AcDbSymbolTableRecord
100
AcDbBlockTableRecord
  2
*G13713733333333
340
0
  0
BLOCK_RECORD
  5
711E
330
1
100
AcDbSymbolTableRecord
100
AcDbBlockTableRecord
  2
*G13813834343434
340
0
  0
BLOCK_RECORD
  5
7129
330
1
100
AcDbSymbolTableRecord
100
AcDbBlockTableRecord
  2
*G13913935353535
340
0
  0
BLOCK_RECORD
  5
788B
330
1
100
AcDbSymbolTableRecord
100
AcDbBlockTableRecord
  2
*D36
340
0
  0
BLOCK_RECORD
  5
7897
330
1
100
AcDbSymbolTableRecord
100
AcDbBlockTableRecord
  2
*D37
340
0
  0
BLOCK_RECORD
  5
78A3
330
1
100
AcDbSymbolTableRecord
100
AcDbBlockTableRecord
  2
*D38
340
0
  0
BLOCK_RECORD
  5
78D0
330
1
100
AcDbSymbolTableRecord
100
AcDbBlockTableRecord
  2
*D39
340
0
  0
BLOCK_RECORD
  5
78DC
330
1
100
AcDbSymbolTableRecord
100
AcDbBlockTableRecord
  2
*D40
340
0
  0
BLOCK_RECORD
  5
78E8
330
1
100
AcDbSymbolTableRecord
100
AcDbBlockTableRecord
  2
*D41
340
0
  0
BLOCK_RECORD
  5
7FD0
330
1
100
AcDbSymbolTableRecord
100
AcDbBlockTableRecord
  2
*D42
340
0
  0
BLOCK_RECORD
  5
7FDC
330
1
100
AcDbSymbolTableRecord
100
AcDbBlockTableRecord
  2
*D43
340
0
  0
BLOCK_RECORD
  5
7FE8
330
1
100
AcDbSymbolTableRecord
100
AcDbBlockTableRecord
  2
*D44
340
0
  0
BLOCK_RECORD
  5
8015
330
1
100
AcDbSymbolTableRecord
100
AcDbBlockTableRecord
  2
*D45
340
0
  0
BLOCK_RECORD
  5
8021
330
1
100
AcDbSymbolTableRecord
100
AcDbBlockTableRecord
  2
*D46
340
0
  0
BLOCK_RECORD
  5
802D
330
1
100
AcDbSymbolTableRecord
100
AcDbBlockTableRecord
  2
*D47
340
0
  0
BLOCK_RECORD
  5
8805
330
1
100
AcDbSymbolTableRecord
100
AcDbBlockTableRecord
  2
*D48
340
0
  0
BLOCK_RECORD
  5
8811
330
1
100
AcDbSymbolTableRecord
100
AcDbBlockTableRecord
  2
*D49
340
0
  0
BLOCK_RECORD
  5
881D
330
1
100
AcDbSymbolTableRecord
100
AcDbBlockTableRecord
  2
*D50
340
0
  0
BLOCK_RECORD
  5
8845
330
1
100
AcDbSymbolTableRecord
100
AcDbBlockTableRecord
  2
*D51
340
0
  0
BLOCK_RECORD
  5
8851
330
1
100
AcDbSymbolTableRecord
100
AcDbBlockTableRecord
  2
*D52
340
0
  0
BLOCK_RECORD
  5
885D
330
1
100
AcDbSymbolTableRecord
100
AcDbBlockTableRecord
  2
*D53
340
0
  0
BLOCK_RECORD
  5
9267
330
1
100
AcDbSymbolTableRecord
100
AcDbBlockTableRecord
  2
*D54
340
0
  0
BLOCK_RECORD
  5
9273
330
1
100
AcDbSymbolTableRecord
100
AcDbBlockTableRecord
  2
*D55
340
0
  0
BLOCK_RECORD
  5
927F
330
1
100
AcDbSymbolTableRecord
100
AcDbBlockTableRecord
  2
*D56
340
0
  0
BLOCK_RECORD
  5
92A7
330
1
100
AcDbSymbolTableRecord
100
AcDbBlockTableRecord
  2
*D57
340
0
  0
BLOCK_RECORD
  5
92B3
330
1
100
AcDbSymbolTableRecord
100
AcDbBlockTableRecord
  2
*D58
340
0
  0
BLOCK_RECORD
  5
92BF
330
1
100
AcDbSymbolTableRecord
100
AcDbBlockTableRecord
  2
*D59
340
0
  0
BLOCK_RECORD
  5
92CB
330
1
100
AcDbSymbolTableRecord
100
AcDbBlockTableRecord
  2
*D60
340
0
  0
BLOCK_RECORD
  5
9F5D
330
1
100
AcDbSymbolTableRecord
100
AcDbBlockTableRecord
  2
*D61
340
0
  0
BLOCK_RECORD
  5
9F69
330
1
100
AcDbSymbolTableRecord
100
AcDbBlockTableRecord
  2
*D62
340
0
  0
BLOCK_RECORD
  5
9F75
330
1
100
AcDbSymbolTableRecord
100
AcDbBlockTableRecord
  2
*D63
340
0
  0
BLOCK_RECORD
  5
9F81
330
1
100
AcDbSymbolTableRecord
100
AcDbBlockTableRecord
  2
*D64
340
0
  0
BLOCK_RECORD
  5
9FE1
330
1
100
AcDbSymbolTableRecord
100
AcDbBlockTableRecord
  2
*D65
340
0
  0
BLOCK_RECORD
  5
9FED
330
1
100
AcDbSymbolTableRecord
100
AcDbBlockTableRecord
  2
*D66
340
0
  0
BLOCK_RECORD
  5
9FF9
330
1
100
AcDbSymbolTableRecord
100
AcDbBlockTableRecord
  2
*D67
340
0
  0
BLOCK_RECORD
  5
E6DF
330
1
100
AcDbSymbolTableRecord
100
AcDbBlockTableRecord
  2
*D68
340
0
  0
BLOCK_RECORD
  5
E6EB
330
1
100
AcDbSymbolTableRecord
100
AcDbBlockTableRecord
  2
*D69
340
0
  0
BLOCK_RECORD
  5
E6F7
330
1
100
AcDbSymbolTableRecord
100
AcDbBlockTableRecord
  2
*D70
340
0
  0
BLOCK_RECORD
  5
E726
330
1
100
AcDbSymbolTableRecord
100
AcDbBlockTableRecord
  2
*D71
340
0
  0
BLOCK_RECORD
  5
E732
330
1
100
AcDbSymbolTableRecord
100
AcDbBlockTableRecord
  2
*D72
340
0
  0
BLOCK_RECORD
  5
E73E
330
1
100
AcDbSymbolTableRecord
100
AcDbBlockTableRecord
  2
*D73
340
0
  0
BLOCK_RECORD
  5
12F78
330
1
100
AcDbSymbolTableRecord
100
AcDbBlockTableRecord
  2
*D74
340
0
  0
BLOCK_RECORD
  5
12F84
330
1
100
AcDbSymbolTableRecord
100
AcDbBlockTableRecord
  2
*D75
340
0
  0
BLOCK_RECORD
  5
12F90
330
1
100
AcDbSymbolTableRecord
100
AcDbBlockTableRecord
  2
*D76
340
0
  0
BLOCK_RECORD
  5
12FB8
330
1
100
AcDbSymbolTableRecord
100
AcDbBlockTableRecord
  2
*D77
340
0
  0
BLOCK_RECORD
  5
12FC4
330
1
100
AcDbSymbolTableRecord
100
AcDbBlockTableRecord
  2
*D78
340
0
  0
BLOCK_RECORD
  5
12FD0
330
1
100
AcDbSymbolTableRecord
100
AcDbBlockTableRecord
  2
*D79
340
0
  0
BLOCK_RECORD
  5
178E8
330
1
100
AcDbSymbolTableRecord
100
AcDbBlockTableRecord
  2
*D80
340
0
  0
BLOCK_RECORD
  5
178F4
330
1
100
AcDbSymbolTableRecord
100
AcDbBlockTableRecord
  2
*D81
340
0
  0
BLOCK_RECORD
  5
17900
330
1
100
AcDbSymbolTableRecord
100
AcDbBlockTableRecord
  2
*D82
340
0
  0
BLOCK_RECORD
  5
17928
330
1
100
AcDbSymbolTableRecord
100
AcDbBlockTableRecord
  2
*D83
340
0
  0
BLOCK_RECORD
  5
17934
330
1
100
AcDbSymbolTableRecord
100
AcDbBlockTableRecord
  2
*D84
340
0
  0
BLOCK_RECORD
  5
17940
330
1
100
AcDbSymbolTableRecord
100
AcDbBlockTableRecord
  2
*D85
340
0
  0
BLOCK_RECORD
  5
1C3AA
330
1
100
AcDbSymbolTableRecord
100
AcDbBlockTableRecord
  2
*D86
340
0
  0
BLOCK_RECORD
  5
1C3B6
330
1
100
AcDbSymbolTableRecord
100
AcDbBlockTableRecord
  2
*D87
340
0
  0
BLOCK_RECORD
  5
1C3C2
330
1
100
AcDbSymbolTableRecord
100
AcDbBlockTableRecord
  2
*D88
340
0
  0
BLOCK_RECORD
  5
1C3EA
330
1
100
AcDbSymbolTableRecord
100
AcDbBlockTableRecord
  2
*D89
340
0
  0
BLOCK_RECORD
  5
1C3F6
330
1
100
AcDbSymbolTableRecord
100
AcDbBlockTableRecord
  2
*D90
340
0
  0
BLOCK_RECORD
  5
1C402
330
1
100
AcDbSymbolTableRecord
100
AcDbBlockTableRecord
  2
*D91
340
0
  0
BLOCK_RECORD
  5
20F24
330
1
100
AcDbSymbolTableRecord
100
AcDbBlockTableRecord
  2
*D92
340
0
  0
BLOCK_RECORD
  5
20F30
330
1
100
AcDbSymbolTableRecord
100
AcDbBlockTableRecord
  2
*D93
340
0
  0
BLOCK_RECORD
  5
20F3C
330
1
100
AcDbSymbolTableRecord
100
AcDbBlockTableRecord
  2
*D94
340
0
  0
BLOCK_RECORD
  5
20F64
330
1
100
AcDbSymbolTableRecord
100
AcDbBlockTableRecord
  2
*D95
340
0
  0
BLOCK_RECORD
  5
20F70
330
1
100
AcDbSymbolTableRecord
100
AcDbBlockTableRecord
  2
*D96
340
0
  0
BLOCK_RECORD
  5
20F7C
330
1
100
AcDbSymbolTableRecord
100
AcDbBlockTableRecord
  2
*D97
340
0
  0
BLOCK_RECORD
  5
21980
330
1
100
AcDbSymbolTableRecord
100
AcDbBlockTableRecord
  2
*D98
340
0
  0
BLOCK_RECORD
  5
2198C
330
1
100
AcDbSymbolTableRecord
100
AcDbBlockTableRecord
  2
*D99
340
0
  0
BLOCK_RECORD
  5
21998
330
1
100
AcDbSymbolTableRecord
100
AcDbBlockTableRecord
  2
*D100
340
0
  0
BLOCK_RECORD
  5
219C0
330
1
100
AcDbSymbolTableRecord
100
AcDbBlockTableRecord
  2
*D101
340
0
  0
BLOCK_RECORD
  5
219CC
330
1
100
AcDbSymbolTableRecord
100
AcDbBlockTableRecord
  2
*D102
340
0
  0
BLOCK_RECORD
  5
219D8
330
1
100
AcDbSymbolTableRecord
100
AcDbBlockTableRecord
  2
*D103
340
0
  0
BLOCK_RECORD
  5
2261C
330
1
100
AcDbSymbolTableRecord
100
AcDbBlockTableRecord
  2
*D104
340
0
  0
BLOCK_RECORD
  5
22628
330
1
100
AcDbSymbolTableRecord
100
AcDbBlockTableRecord
  2
*D105
340
0
  0
BLOCK_RECORD
  5
22634
330
1
100
AcDbSymbolTableRecord
100
AcDbBlockTableRecord
  2
*D106
340
0
  0
BLOCK_RECORD
  5
2265C
330
1
100
AcDbSymbolTableRecord
100
AcDbBlockTableRecord
  2
*D107
340
0
  0
BLOCK_RECORD
  5
22668
330
1
100
AcDbSymbolTableRecord
100
AcDbBlockTableRecord
  2
*D108
340
0
  0
BLOCK_RECORD
  5
22674
330
1
100
AcDbSymbolTableRecord
100
AcDbBlockTableRecord
  2
*D109
340
0
  0
BLOCK_RECORD
  5
22680
330
1
100
AcDbSymbolTableRecord
100
AcDbBlockTableRecord
  2
*D110
340
0
  0
BLOCK_RECORD
  5
2268C
330
1
100
AcDbSymbolTableRecord
100
AcDbBlockTableRecord
  2
*D111
340
0
  0
BLOCK_RECORD
  5
227DC
330
1
100
AcDbSymbolTableRecord
100
AcDbBlockTableRecord
  2
*D112
340
0
  0
BLOCK_RECORD
  5
227E8
330
1
100
AcDbSymbolTableRecord
100
AcDbBlockTableRecord
  2
*D113
340
0
  0
BLOCK_RECORD
  5
227F4
330
1
100
AcDbSymbolTableRecord
100
AcDbBlockTableRecord
  2
*D114
340
0
  0
BLOCK_RECORD
  5
22800
330
1
100
AcDbSymbolTableRecord
100
AcDbBlockTableRecord
  2
*D115
340
0
  0
BLOCK_RECORD
  5
2280C
330
1
100
AcDbSymbolTableRecord
100
AcDbBlockTableRecord
  2
*D116
340
0
  0
ENDTAB
  0
ENDSEC
  0
SECTION
  2
BLOCKS
  0
BLOCK
  5
20
330
1F
100
AcDbEntity
  8
0
100
AcDbBlockBegin
  2
*MODEL_SPACE
 70
     0
 10
0.0
 20
0.0
 30
0.0
  3
*MODEL_SPACE
  1

  0
ENDBLK
  5
21
330
1F
100
AcDbEntity
  8
0
100
AcDbBlockEnd
  0
BLOCK
  5
1C
330
1B
100
AcDbEntity
 67
     1
  8
0
100
AcDbBlockBegin
  2
*PAPER_SPACE
 70
     0
 10
0.0
 20
0.0
 30
0.0
  3
*PAPER_SPACE
  1

  0
ENDBLK
  5
1D
330
1B
100
AcDbEntity
 67
     1
  8
0
100
AcDbBlockEnd
  0
BLOCK
  5
2F
330
2B
100
AcDbEntity
  8
0
 62
     0
100
AcDbBlockBegin
  2
_OPEN30
 70
     2
 10
0.0
 20
0.0
 30
0.0
  3
_OPEN30
  1

  0
LINE
  5
2C
330
2B
100
AcDbEntity
  8
0
  6
ByBlock
 62
     0
100
AcDbLine
 10
-1.0
 20
0.267949
 30
0.0
 11
0.0
 21
0.0
 31
0.0
  0
LINE
  5
2D
330
2B
100
AcDbEntity
  8
0
  6
ByBlock
 62
     0
100
AcDbLine
 10
0.0
 20
0.0
 30
0.0
 11
-1.0
 21
-0.267949
 31
0.0
  0
LINE
  5
2E
330
2B
100
AcDbEntity
  8
0
  6
ByBlock
 62
     0
100
AcDbLine
 10
0.0
 20
0.0
 30
0.0
 11
-1.0
 21
0.0
 31
0.0
  0
ENDBLK
  5
30
330
2B
100
AcDbEntity
  8
0
 62
     0
100
AcDbBlockEnd
  0
BLOCK
  5
703C
330
7037
100
AcDbEntity
  8
0
 62
     7
100
AcDbBlockBegin
  2
*G1051051111
 70
     0
 10
0.0
 20
0.0
 30
0.0
  3
*G1051051111
  1

  0
LINE
  5
7038
330
7037
100
AcDbEntity
  8
1
  6
Continuous
 62
     7
100
AcDbLine
 10
188.7675881061334
 20
401.3822771565329
 30
0.0
 11
188.7675881061334
 21
397.6679914422476
 31
0.0
  0
LINE
  5
7039
330
7037
100
AcDbEntity
  8
1
  6
Continuous
 62
     7
100
AcDbLine
 10
188.7675881061334
 20
397.6679914422476
 30
0.0
 11
192.4818738204188
 21
397.6679914422476
 31
0.0
  0
LINE
  5
703A
330
7037
100
AcDbEntity
  8
1
  6
Continuous
 62
     7
100
AcDbLine
 10
192.4818738204188
 20
397.6679914422476
 30
0.0
 11
192.4818738204188
 21
401.3822771565329
 31
0.0
  0
LINE
  5
703B
330
7037
100
AcDbEntity
  8
1
  6
Continuous
 62
     7
100
AcDbLine
 10
192.4818738204188
 20
401.3822771565329
 30
0.0
 11
188.7675881061334
 21
401.3822771565329
 31
0.0
  0
ENDBLK
  5
703D
330
7037
100
AcDbEntity
  8
0
100
AcDbBlockEnd
  0
BLOCK
  5
7043
330
703E
100
AcDbEntity
  8
0
 62
     7
100
AcDbBlockBegin
  2
*G1061062222
 70
     0
 10
0.0
 20
0.0
 30
0.0
  3
*G1061062222
  1

  0
LINE
  5
703F
330
703E
100
AcDbEntity
  8
1
  6
Continuous
 62
     7
100
AcDbLine
 10
188.7675881061334
 20
408.5251342993903
 30
0.0
 11
188.7675881061334
 21
404.8108485851048
 31
0.0
  0
LINE
  5
7040
330
703E
100
AcDbEntity
  8
1
  6
Continuous
 62
     7
100
AcDbLine
 10
188.7675881061334
 20
404.8108485851048
 30
0.0
 11
192.4818738204188
 21
404.8108485851048
 31
0.0
  0
LINE
  5
7041
330
703E
100
AcDbEntity
  8
1
  6
Continuous
 62
     7
100
AcDbLine
 10
192.4818738204188
 20
404.8108485851048
 30
0.0
 11
192.4818738204188
 21
408.5251342993903
 31
0.0
  0
LINE
  5
7042
330
703E
100
AcDbEntity
  8
1
  6
Continuous
 62
     7
100
AcDbLine
 10
192.4818738204188
 20
408.5251342993903
 30
0.0
 11
188.7675881061334
 21
408.5251342993903
 31
0.0
  0
ENDBLK
  5
7044
330
703E
100
AcDbEntity
  8
0
100
AcDbBlockEnd
  0
BLOCK
  5
704A
330
7045
100
AcDbEntity
  8
0
 62
     7
100
AcDbBlockBegin
  2
*G1071073333
 70
     0
 10
0.0
 20
0.0
 30
0.0
  3
*G1071073333
  1

  0
LINE
  5
7046
330
7045
100
AcDbEntity
  8
1
  6
Continuous
 62
     7
100
AcDbLine
 10
186.339016677562
 20
438.8108485851048
 30
0.0
 11
186.339016677562
 21
393.096562870819
 31
0.0
  0
LINE
  5
7047
330
7045
100
AcDbEntity
  8
1
  6
Continuous
 62
     7
100
AcDbLine
 10
186.339016677562
 20
393.096562870819
 30
0.0
 11
194.9104452489905
 21
393.096562870819
 31
0.0
  0
LINE
  5
7048
330
7045
100
AcDbEntity
  8
1
  6
Continuous
 62
     7
100
AcDbLine
 10
194.9104452489905
 20
393.096562870819
 30
0.0
 11
194.9104452489905
 21
438.8108485851048
 31
0.0
  0
LINE
  5
7049
330
7045
100
AcDbEntity
  8
1
  6
Continuous
 62
     7
100
AcDbLine
 10
194.9104452489905
 20
438.8108485851048
 30
0.0
 11
186.339016677562
 21
438.8108485851048
 31
0.0
  0
ENDBLK
  5
704B
330
7045
100
AcDbEntity
  8
0
100
AcDbBlockEnd
  0
BLOCK
  5
7051
330
704C
100
AcDbEntity
  8
0
 62
     7
100
AcDbBlockBegin
  2
*G1081084444
 70
     0
 10
0.0
 20
0.0
 30
0.0
  3
*G1081084444
  1

  0
LINE
  5
704D
330
704C
100
AcDbEntity
  8
1
  6
Continuous
 62
     7
100
AcDbLine
 10
180.1961595347048
 20
401.3822771565329
 30
0.0
 11
180.1961595347048
 21
397.6679914422476
 31
0.0
  0
LINE
  5
704E
330
704C
100
AcDbEntity
  8
1
  6
Continuous
 62
     7
100
AcDbLine
 10
180.1961595347048
 20
397.6679914422476
 30
0.0
 11
183.9104452489905
 21
397.6679914422476
 31
0.0
  0
LINE
  5
704F
330
704C
100
AcDbEntity
  8
1
  6
Continuous
 62
     7
100
AcDbLine
 10
183.9104452489905
 20
397.6679914422476
 30
0.0
 11
183.9104452489905
 21
401.3822771565329
 31
0.0
  0
LINE
  5
7050
330
704C
100
AcDbEntity
  8
1
  6
Continuous
 62
     7
100
AcDbLine
 10
183.9104452489905
 20
401.3822771565329
 30
0.0
 11
180.1961595347048
 21
401.3822771565329
 31
0.0
  0
ENDBLK
  5
7052
330
704C
100
AcDbEntity
  8
0
100
AcDbBlockEnd
  0
BLOCK
  5
7058
330
7053
100
AcDbEntity
  8
0
 62
     7
100
AcDbBlockBegin
  2
*G1091095555
 70
     0
 10
0.0
 20
0.0
 30
0.0
  3
*G1091095555
  1

  0
LINE
  5
7054
330
7053
100
AcDbEntity
  8
1
  6
Continuous
 62
     7
100
AcDbLine
 10
180.1961595347048
 20
408.5251342993903
 30
0.0
 11
180.1961595347048
 21
404.8108485851048
 31
0.0
  0
LINE
  5
7055
330
7053
100
AcDbEntity
  8
1
  6
Continuous
 62
     7
100
AcDbLine
 10
180.1961595347048
 20
404.8108485851048
 30
0.0
 11
183.9104452489905
 21
404.8108485851048
 31
0.0
  0
LINE
  5
7056
330
7053
100
AcDbEntity
  8
1
  6
Continuous
 62
     7
100
AcDbLine
 10
183.9104452489905
 20
404.8108485851048
 30
0.0
 11
183.9104452489905
 21
408.5251342993903
 31
0.0
  0
LINE
  5
7057
330
7053
100
AcDbEntity
  8
1
  6
Continuous
 62
     7
100
AcDbLine
 10
183.9104452489905
 20
408.5251342993903
 30
0.0
 11
180.1961595347048
 21
408.5251342993903
 31
0.0
  0
ENDBLK
  5
7059
330
7053
100
AcDbEntity
  8
0
100
AcDbBlockEnd
  0
BLOCK
  5
705F
330
705A
100
AcDbEntity
  8
0
 62
     7
100
AcDbBlockBegin
  2
*G1101106666
 70
     0
 10
0.0
 20
0.0
 30
0.0
  3
*G1101106666
  1

  0
LINE
  5
705B
330
705A
100
AcDbEntity
  8
1
  6
Continuous
 62
     7
100
AcDbLine
 10
177.7675881061334
 20
438.8108485851048
 30
0.0
 11
177.7675881061334
 21
393.096562870819
 31
0.0
  0
LINE
  5
705C
330
705A
100
AcDbEntity
  8
1
  6
Continuous
 62
     7
100
AcDbLine
 10
177.7675881061334
 20
393.096562870819
 30
0.0
 11
186.339016677562
 21
393.096562870819
 31
0.0
  0
LINE
  5
705D
330
705A
100
AcDbEntity
  8
1
  6
Continuous
 62
     7
100
AcDbLine
 10
186.339016677562
 20
393.096562870819
 30
0.0
 11
186.339016677562
 21
438.8108485851048
 31
0.0
  0
LINE
  5
705E
330
705A
100
AcDbEntity
  8
1
  6
Continuous
 62
     7
100
AcDbLine
 10
186.339016677562
 20
438.8108485851048
 30
0.0
 11
177.7675881061334
 21
438.8108485851048
 31
0.0
  0
ENDBLK
  5
7060
330
705A
100
AcDbEntity
  8
0
100
AcDbBlockEnd
  0
BLOCK
  5
7066
330
7061
100
AcDbEntity
  8
0
 62
     7
100
AcDbBlockBegin
  2
*G1111117777
 70
     0
 10
0.0
 20
0.0
 30
0.0
  3
*G1111117777
  1

  0
LINE
  5
7062
330
7061
100
AcDbEntity
  8
1
  6
Continuous
 62
     7
100
AcDbLine
 10
171.6247309632763
 20
401.3822771565329
 30
0.0
 11
171.6247309632763
 21
397.6679914422476
 31
0.0
  0
LINE
  5
7063
330
7061
100
AcDbEntity
  8
1
  6
Continuous
 62
     7
100
AcDbLine
 10
171.6247309632763
 20
397.6679914422476
 30
0.0
 11
175.3390166775619
 21
397.6679914422476
 31
0.0
  0
LINE
  5
7064
330
7061
100
AcDbEntity
  8
1
  6
Continuous
 62
     7
100
AcDbLine
 10
175.3390166775619
 20
397.6679914422476
 30
0.0
 11
175.3390166775619
 21
401.3822771565329
 31
0.0
  0
LINE
  5
7065
330
7061
100
AcDbEntity
  8
1
  6
Continuous
 62
     7
100
AcDbLine
 10
175.3390166775619
 20
401.3822771565329
 30
0.0
 11
171.6247309632763
 21
401.3822771565329
 31
0.0
  0
ENDBLK
  5
7067
330
7061
100
AcDbEntity
  8
0
100
AcDbBlockEnd
  0
BLOCK
  5
706D
330
7068
100
AcDbEntity
  8
0
 62
     7
100
AcDbBlockBegin
  2
*G1121128888
 70
     0
 10
0.0
 20
0.0
 30
0.0
  3
*G1121128888
  1

  0
LINE
  5
7069
330
7068
100
AcDbEntity
  8
1
  6
Continuous
 62
     7
100
AcDbLine
 10
171.6247309632763
 20
408.5251342993903
 30
0.0
 11
171.6247309632763
 21
404.8108485851048
 31
0.0
  0
LINE
  5
706A
330
7068
100
AcDbEntity
  8
1
  6
Continuous
 62
     7
100
AcDbLine
 10
171.6247309632763
 20
404.8108485851048
 30
0.0
 11
175.3390166775619
 21
404.8108485851048
 31
0.0
  0
LINE
  5
706B
330
7068
100
AcDbEntity
  8
1
  6
Continuous
 62
     7
100
AcDbLine
 10
175.3390166775619
 20
404.8108485851048
 30
0.0
 11
175.3390166775619
 21
408.5251342993903
 31
0.0
  0
LINE
  5
706C
330
7068
100
AcDbEntity
  8
1
  6
Continuous
 62
     7
100
AcDbLine
 10
175.3390166775619
 20
408.5251342993903
 30
0.0
 11
171.6247309632763
 21
408.5251342993903
 31
0.0
  0
ENDBLK
  5
706E
330
7068
100
AcDbEntity
  8
0
100
AcDbBlockEnd
  0
BLOCK
  5
7074
330
706F
100
AcDbEntity
  8
0
 62
     7
100
AcDbBlockBegin
  2
*G1131139999
 70
     0
 10
0.0
 20
0.0
 30
0.0
  3
*G1131139999
  1

  0
LINE
  5
7070
330
706F
100
AcDbEntity
  8
1
  6
Continuous
 62
     7
100
AcDbLine
 10
169.1961595347049
 20
438.8108485851048
 30
0.0
 11
169.1961595347049
 21
393.096562870819
 31
0.0
  0
LINE
  5
7071
330
706F
100
AcDbEntity
  8
1
  6
Continuous
 62
     7
100
AcDbLine
 10
169.1961595347049
 20
393.096562870819
 30
0.0
 11
177.7675881061334
 21
393.096562870819
 31
0.0
  0
LINE
  5
7072
330
706F
100
AcDbEntity
  8
1
  6
Continuous
 62
     7
100
AcDbLine
 10
177.7675881061334
 20
393.096562870819
 30
0.0
 11
177.7675881061334
 21
438.8108485851048
 31
0.0
  0
LINE
  5
7073
330
706F
100
AcDbEntity
  8
1
  6
Continuous
 62
     7
100
AcDbLine
 10
177.7675881061334
 20
438.8108485851048
 30
0.0
 11
169.1961595347049
 21
438.8108485851048
 31
0.0
  0
ENDBLK
  5
7075
330
706F
100
AcDbEntity
  8
0
100
AcDbBlockEnd
  0
BLOCK
  5
707B
330
7076
100
AcDbEntity
  8
0
 62
     7
100
AcDbBlockBegin
  2
*G11411410101010
 70
     0
 10
0.0
 20
0.0
 30
0.0
  3
*G11411410101010
  1

  0
LINE
  5
7077
330
7076
100
AcDbEntity
  8
1
  6
Continuous
 62
     7
100
AcDbLine
 10
163.0533023918478
 20
401.3822771565329
 30
0.0
 11
163.0533023918478
 21
397.6679914422476
 31
0.0
  0
LINE
  5
7078
330
7076
100
AcDbEntity
  8
1
  6
Continuous
 62
     7
100
AcDbLine
 10
163.0533023918478
 20
397.6679914422476
 30
0.0
 11
166.7675881061334
 21
397.6679914422476
 31
0.0
  0
LINE
  5
7079
330
7076
100
AcDbEntity
  8
1
  6
Continuous
 62
     7
100
AcDbLine
 10
166.7675881061334
 20
397.6679914422476
 30
0.0
 11
166.7675881061334
 21
401.3822771565329
 31
0.0
  0
LINE
  5
707A
330
7076
100
AcDbEntity
  8
1
  6
Continuous
 62
     7
100
AcDbLine
 10
166.7675881061334
 20
401.3822771565329
 30
0.0
 11
163.0533023918478
 21
401.3822771565329
 31
0.0
  0
ENDBLK
  5
707C
330
7076
100
AcDbEntity
  8
0
100
AcDbBlockEnd
  0
BLOCK
  5
7082
330
707D
100
AcDbEntity
  8
0
 62
     7
100
AcDbBlockBegin
  2
*G11511511111111
 70
     0
 10
0.0
 20
0.0
 30
0.0
  3
*G11511511111111
  1

  0
LINE
  5
707E
330
707D
100
AcDbEntity
  8
1
  6
Continuous
 62
     7
100
AcDbLine
 10
163.0533023918478
 20
408.5251342993903
 30
0.0
 11
163.0533023918478
 21
404.8108485851048
 31
0.0
  0
LINE
  5
707F
330
707D
100
AcDbEntity
  8
1
  6
Continuous
 62
     7
100
AcDbLine
 10
163.0533023918478
 20
404.8108485851048
 30
0.0
 11
166.7675881061334
 21
404.8108485851048
 31
0.0
  0
LINE
  5
7080
330
707D
100
AcDbEntity
  8
1
  6
Continuous
 62
     7
100
AcDbLine
 10
166.7675881061334
 20
404.8108485851048
 30
0.0
 11
166.7675881061334
 21
408.5251342993903
 31
0.0
  0
LINE
  5
7081
330
707D
100
AcDbEntity
  8
1
  6
Continuous
 62
     7
100
AcDbLine
 10
166.7675881061334
 20
408.5251342993903
 30
0.0
 11
163.0533023918478
 21
408.5251342993903
 31
0.0
  0
ENDBLK
  5
7083
330
707D
100
AcDbEntity
  8
0
100
AcDbBlockEnd
  0
BLOCK
  5
7089
330
7084
100
AcDbEntity
  8
0
 62
     7
100
AcDbBlockBegin
  2
*G11611612121212
 70
     0
 10
0.0
 20
0.0
 30
0.0
  3
*G11611612121212
  1

  0
LINE
  5
7085
330
7084
100
AcDbEntity
  8
1
  6
Continuous
 62
     7
100
AcDbLine
 10
160.6247309632763
 20
438.8108485851048
 30
0.0
 11
160.6247309632763
 21
393.096562870819
 31
0.0
  0
LINE
  5
7086
330
7084
100
AcDbEntity
  8
1
  6
Continuous
 62
     7
100
AcDbLine
 10
160.6247309632763
 20
393.096562870819
 30
0.0
 11
169.1961595347049
 21
393.096562870819
 31
0.0
  0
LINE
  5
7087
330
7084
100
AcDbEntity
  8
1
  6
Continuous
 62
     7
100
AcDbLine
 10
169.1961595347049
 20
393.096562870819
 30
0.0
 11
169.1961595347049
 21
438.8108485851048
 31
0.0
  0
LINE
  5
7088
330
7084
100
AcDbEntity
  8
1
  6
Continuous
 62
     7
100
AcDbLine
 10
169.1961595347049
 20
438.8108485851048
 30
0.0
 11
160.6247309632763
 21
438.8108485851048
 31
0.0
  0
ENDBLK
  5
708A
330
7084
100
AcDbEntity
  8
0
100
AcDbBlockEnd
  0
BLOCK
  5
7090
330
708B
100
AcDbEntity
  8
0
 62
     7
100
AcDbBlockBegin
  2
*G11711713131313
 70
     0
 10
0.0
 20
0.0
 30
0.0
  3
*G11711713131313
  1

  0
LINE
  5
708C
330
708B
100
AcDbEntity
  8
1
  6
Continuous
 62
     7
100
AcDbLine
 10
154.4818738204191
 20
401.3822771565329
 30
0.0
 11
154.4818738204191
 21
397.6679914422476
 31
0.0
  0
LINE
  5
708D
330
708B
100
AcDbEntity
  8
1
  6
Continuous
 62
     7
100
AcDbLine
 10
154.4818738204191
 20
397.6679914422476
 30
0.0
 11
158.1961595347049
 21
397.6679914422476
 31
0.0
  0
LINE
  5
708E
330
708B
100
AcDbEntity
  8
1
  6
Continuous
 62
     7
100
AcDbLine
 10
158.1961595347049
 20
397.6679914422476
 30
0.0
 11
158.1961595347049
 21
401.3822771565329
 31
0.0
  0
LINE
  5
708F
330
708B
100
AcDbEntity
  8
1
  6
Continuous
 62
     7
100
AcDbLine
 10
158.1961595347049
 20
401.3822771565329
 30
0.0
 11
154.4818738204191
 21
401.3822771565329
 31
0.0
  0
ENDBLK
  5
7091
330
708B
100
AcDbEntity
  8
0
100
AcDbBlockEnd
  0
BLOCK
  5
7097
330
7092
100
AcDbEntity
  8
0
 62
     7
100
AcDbBlockBegin
  2
*G11811814141414
 70
     0
 10
0.0
 20
0.0
 30
0.0
  3
*G11811814141414
  1

  0
LINE
  5
7093
330
7092
100
AcDbEntity
  8
1
  6
Continuous
 62
     7
100
AcDbLine
 10
154.4818738204191
 20
408.5251342993903
 30
0.0
 11
154.4818738204191
 21
404.8108485851048
 31
0.0
  0
LINE
  5
7094
330
7092
100
AcDbEntity
  8
1
  6
Continuous
 62
     7
100
AcDbLine
 10
154.4818738204191
 20
404.8108485851048
 30
0.0
 11
158.1961595347049
 21
404.8108485851048
 31
0.0
  0
LINE
  5
7095
330
7092
100
AcDbEntity
  8
1
  6
Continuous
 62
     7
100
AcDbLine
 10
158.1961595347049
 20
404.8108485851048
 30
0.0
 11
158.1961595347049
 21
408.5251342993903
 31
0.0
  0
LINE
  5
7096
330
7092
100
AcDbEntity
  8
1
  6
Continuous
 62
     7
100
AcDbLine
 10
158.1961595347049
 20
408.5251342993903
 30
0.0
 11
154.4818738204191
 21
408.5251342993903
 31
0.0
  0
ENDBLK
  5
7098
330
7092
100
AcDbEntity
  8
0
100
AcDbBlockEnd
  0
BLOCK
  5
709E
330
7099
100
AcDbEntity
  8
0
 62
     7
100
AcDbBlockBegin
  2
*G11911915151515
 70
     0
 10
0.0
 20
0.0
 30
0.0
  3
*G11911915151515
  1

  0
LINE
  5
709A
330
7099
100
AcDbEntity
  8
1
  6
Continuous
 62
     7
100
AcDbLine
 10
152.0533023918478
 20
438.8108485851048
 30
0.0
 11
152.0533023918478
 21
393.096562870819
 31
0.0
  0
LINE
  5
709B
330
7099
100
AcDbEntity
  8
1
  6
Continuous
 62
     7
100
AcDbLine
 10
152.0533023918478
 20
393.096562870819
 30
0.0
 11
160.6247309632763
 21
393.096562870819
 31
0.0
  0
LINE
  5
709C
330
7099
100
AcDbEntity
  8
1
  6
Continuous
 62
     7
100
AcDbLine
 10
160.6247309632763
 20
393.096562870819
 30
0.0
 11
160.6247309632763
 21
438.8108485851048
 31
0.0
  0
LINE
  5
709D
330
7099
100
AcDbEntity
  8
1
  6
Continuous
 62
     7
100
AcDbLine
 10
160.6247309632763
 20
438.8108485851048
 30
0.0
 11
152.0533023918478
 21
438.8108485851048
 31
0.0
  0
ENDBLK
  5
709F
330
7099
100
AcDbEntity
  8
0
100
AcDbBlockEnd
  0
BLOCK
  5
70A5
330
70A0
100
AcDbEntity
  8
0
 62
     7
100
AcDbBlockBegin
  2
*G12012016161616
 70
     0
 10
0.0
 20
0.0
 30
0.0
  3
*G12012016161616
  1

  0
LINE
  5
70A1
330
70A0
100
AcDbEntity
  8
1
  6
Continuous
 62
     7
100
AcDbLine
 10
188.0533023918478
 20
324.0965628708191
 30
0.0
 11
191.7675881061334
 21
324.0965628708191
 31
0.0
  0
LINE
  5
70A2
330
70A0
100
AcDbEntity
  8
1
  6
Continuous
 62
     7
100
AcDbLine
 10
191.7675881061334
 20
324.0965628708191
 30
0.0
 11
191.7675881061334
 21
327.8108485851048
 31
0.0
  0
LINE
  5
70A3
330
70A0
100
AcDbEntity
  8
1
  6
Continuous
 62
     7
100
AcDbLine
 10
191.7675881061334
 20
327.8108485851048
 30
0.0
 11
188.0533023918478
 21
327.8108485851048
 31
0.0
  0
LINE
  5
70A4
330
70A0
100
AcDbEntity
  8
1
  6
Continuous
 62
     7
100
AcDbLine
 10
188.0533023918478
 20
327.8108485851048
 30
0.0
 11
188.0533023918478
 21
324.0965628708191
 31
0.0
  0
ENDBLK
  5
70A6
330
70A0
100
AcDbEntity
  8
0
100
AcDbBlockEnd
  0
BLOCK
  5
70AC
330
70A7
100
AcDbEntity
  8
0
 62
     7
100
AcDbBlockBegin
  2
*G12112117171717
 70
     0
 10
0.0
 20
0.0
 30
0.0
  3
*G12112117171717
  1

  0
LINE
  5
70A8
330
70A7
100
AcDbEntity
  8
1
  6
Continuous
 62
     7
100
AcDbLine
 10
180.9104452489905
 20
324.0965628708191
 30
0.0
 11
184.6247309632763
 21
324.0965628708191
 31
0.0
  0
LINE
  5
70A9
330
70A7
100
AcDbEntity
  8
1
  6
Continuous
 62
     7
100
AcDbLine
 10
184.6247309632763
 20
324.0965628708191
 30
0.0
 11
184.6247309632763
 21
327.8108485851048
 31
0.0
  0
LINE
  5
70AA
330
70A7
100
AcDbEntity
  8
1
  6
Continuous
 62
     7
100
AcDbLine
 10
184.6247309632763
 20
327.8108485851048
 30
0.0
 11
180.9104452489905
 21
327.8108485851048
 31
0.0
  0
LINE
  5
70AB
330
70A7
100
AcDbEntity
  8
1
  6
Continuous
 62
     7
100
AcDbLine
 10
180.9104452489905
 20
327.8108485851048
 30
0.0
 11
180.9104452489905
 21
324.0965628708191
 31
0.0
  0
ENDBLK
  5
70AD
330
70A7
100
AcDbEntity
  8
0
100
AcDbBlockEnd
  0
BLOCK
  5
70B3
330
70AE
100
AcDbEntity
  8
0
 62
     7
100
AcDbBlockBegin
  2
*G12212218181818
 70
     0
 10
0.0
 20
0.0
 30
0.0
  3
*G12212218181818
  1

  0
LINE
  5
70AF
330
70AE
100
AcDbEntity
  8
1
  6
Continuous
 62
     7
100
AcDbLine
 10
150.6247309632763
 20
321.6679914422478
 30
0.0
 11
196.3390166775619
 21
321.6679914422476
 31
0.0
  0
LINE
  5
70B0
330
70AE
100
AcDbEntity
  8
1
  6
Continuous
 62
     7
100
AcDbLine
 10
196.3390166775619
 20
321.6679914422476
 30
0.0
 11
196.3390166775619
 21
330.2394200136763
 31
0.0
  0
LINE
  5
70B1
330
70AE
100
AcDbEntity
  8
1
  6
Continuous
 62
     7
100
AcDbLine
 10
196.3390166775619
 20
330.2394200136763
 30
0.0
 11
150.6247309632763
 21
330.2394200136763
 31
0.0
  0
LINE
  5
70B2
330
70AE
100
AcDbEntity
  8
1
  6
Continuous
 62
     7
100
AcDbLine
 10
150.6247309632763
 20
330.2394200136763
 30
0.0
 11
150.6247309632763
 21
321.6679914422478
 31
0.0
  0
ENDBLK
  5
70B4
330
70AE
100
AcDbEntity
  8
0
100
AcDbBlockEnd
  0
BLOCK
  5
70BA
330
70B5
100
AcDbEntity
  8
0
 62
     7
100
AcDbBlockBegin
  2
*G12312319191919
 70
     0
 10
0.0
 20
0.0
 30
0.0
  3
*G12312319191919
  1

  0
LINE
  5
70B6
330
70B5
100
AcDbEntity
  8
1
  6
Continuous
 62
     7
100
AcDbLine
 10
188.7675881061328
 20
347.096562870819
 30
0.0
 11
188.7675881061328
 21
343.3822771565335
 31
0.0
  0
LINE
  5
70B7
330
70B5
100
AcDbEntity
  8
1
  6
Continuous
 62
     7
100
AcDbLine
 10
188.7675881061328
 20
343.3822771565335
 30
0.0
 11
192.4818738204188
 21
343.3822771565335
 31
0.0
  0
LINE
  5
70B8
330
70B5
100
AcDbEntity
  8
1
  6
Continuous
 62
     7
100
AcDbLine
 10
192.4818738204188
 20
343.3822771565335
 30
0.0
 11
192.4818738204188
 21
347.096562870819
 31
0.0
  0
LINE
  5
70B9
330
70B5
100
AcDbEntity
  8
1
  6
Continuous
 62
     7
100
AcDbLine
 10
192.4818738204188
 20
347.096562870819
 30
0.0
 11
188.7675881061328
 21
347.096562870819
 31
0.0
  0
ENDBLK
  5
70BB
330
70B5
100
AcDbEntity
  8
0
100
AcDbBlockEnd
  0
BLOCK
  5
70C1
330
70BC
100
AcDbEntity
  8
0
 62
     7
100
AcDbBlockBegin
  2
*G12412420202020
 70
     0
 10
0.0
 20
0.0
 30
0.0
  3
*G12412420202020
  1

  0
LINE
  5
70BD
330
70BC
100
AcDbEntity
  8
1
  6
Continuous
 62
     7
100
AcDbLine
 10
188.7675881061328
 20
354.2394200136762
 30
0.0
 11
188.7675881061328
 21
350.5251342993905
 31
0.0
  0
LINE
  5
70BE
330
70BC
100
AcDbEntity
  8
1
  6
Continuous
 62
     7
100
AcDbLine
 10
188.7675881061328
 20
350.5251342993905
 30
0.0
 11
192.4818738204188
 21
350.5251342993905
 31
0.0
  0
LINE
  5
70BF
330
70BC
100
AcDbEntity
  8
1
  6
Continuous
 62
     7
100
AcDbLine
 10
192.4818738204188
 20
350.5251342993905
 30
0.0
 11
192.4818738204188
 21
354.2394200136762
 31
0.0
  0
LINE
  5
70C0
330
70BC
100
AcDbEntity
  8
1
  6
Continuous
 62
     7
100
AcDbLine
 10
192.4818738204188
 20
354.2394200136762
 30
0.0
 11
188.7675881061328
 21
354.2394200136762
 31
0.0
  0
ENDBLK
  5
70C2
330
70BC
100
AcDbEntity
  8
0
100
AcDbBlockEnd
  0
BLOCK
  5
70C8
330
70C3
100
AcDbEntity
  8
0
 62
     7
100
AcDbBlockBegin
  2
*G12512521212121
 70
     0
 10
0.0
 20
0.0
 30
0.0
  3
*G12512521212121
  1

  0
LINE
  5
70C4
330
70C3
100
AcDbEntity
  8
1
  6
Continuous
 62
     7
100
AcDbLine
 10
186.339016677562
 20
384.5251342993906
 30
0.0
 11
186.339016677562
 21
338.8108485851048
 31
0.0
  0
LINE
  5
70C5
330
70C3
100
AcDbEntity
  8
1
  6
Continuous
 62
     7
100
AcDbLine
 10
186.339016677562
 20
338.8108485851048
 30
0.0
 11
194.9104452489905
 21
338.8108485851048
 31
0.0
  0
LINE
  5
70C6
330
70C3
100
AcDbEntity
  8
1
  6
Continuous
 62
     7
100
AcDbLine
 10
194.9104452489905
 20
338.8108485851048
 30
0.0
 11
194.9104452489905
 21
384.5251342993906
 31
0.0
  0
LINE
  5
70C7
330
70C3
100
AcDbEntity
  8
1
  6
Continuous
 62
     7
100
AcDbLine
 10
194.9104452489905
 20
384.5251342993906
 30
0.0
 11
186.339016677562
 21
384.5251342993906
 31
0.0
  0
ENDBLK
  5
70C9
330
70C3
100
AcDbEntity
  8
0
100
AcDbBlockEnd
  0
BLOCK
  5
70CF
330
70CA
100
AcDbEntity
  8
0
 62
     7
100
AcDbBlockBegin
  2
*G12612622222222
 70
     0
 10
0.0
 20
0.0
 30
0.0
  3
*G12612622222222
  1

  0
LINE
  5
70CB
330
70CA
100
AcDbEntity
  8
1
  6
Continuous
 62
     7
100
AcDbLine
 10
180.1961595347048
 20
347.096562870819
 30
0.0
 11
180.1961595347048
 21
343.3822771565335
 31
0.0
  0
LINE
  5
70CC
330
70CA
100
AcDbEntity
  8
1
  6
Continuous
 62
     7
100
AcDbLine
 10
180.1961595347048
 20
343.3822771565335
 30
0.0
 11
183.9104452489905
 21
343.3822771565335
 31
0.0
  0
LINE
  5
70CD
330
70CA
100
AcDbEntity
  8
1
  6
Continuous
 62
     7
100
AcDbLine
 10
183.9104452489905
 20
343.3822771565335
 30
0.0
 11
183.9104452489905
 21
347.096562870819
 31
0.0
  0
LINE
  5
70CE
330
70CA
100
AcDbEntity
  8
1
  6
Continuous
 62
     7
100
AcDbLine
 10
183.9104452489905
 20
347.096562870819
 30
0.0
 11
180.1961595347048
 21
347.096562870819
 31
0.0
  0
ENDBLK
  5
70D0
330
70CA
100
AcDbEntity
  8
0
100
AcDbBlockEnd
  0
BLOCK
  5
70D6
330
70D1
100
AcDbEntity
  8
0
 62
     7
100
AcDbBlockBegin
  2
*G12712723232323
 70
     0
 10
0.0
 20
0.0
 30
0.0
  3
*G12712723232323
  1

  0
LINE
  5
70D2
330
70D1
100
AcDbEntity
  8
1
  6
Continuous
 62
     7
100
AcDbLine
 10
180.1961595347048
 20
354.2394200136762
 30
0.0
 11
180.1961595347048
 21
350.5251342993905
 31
0.0
  0
LINE
  5
70D3
330
70D1
100
AcDbEntity
  8
1
  6
Continuous
 62
     7
100
AcDbLine
 10
180.1961595347048
 20
350.5251342993905
 30
0.0
 11
183.9104452489905
 21
350.5251342993905
 31
0.0
  0
LINE
  5
70D4
330
70D1
100
AcDbEntity
  8
1
  6
Continuous
 62
     7
100
AcDbLine
 10
183.9104452489905
 20
350.5251342993905
 30
0.0
 11
183.9104452489905
 21
354.2394200136762
 31
0.0
  0
LINE
  5
70D5
330
70D1
100
AcDbEntity
  8
1
  6
Continuous
 62
     7
100
AcDbLine
 10
183.9104452489905
 20
354.2394200136762
 30
0.0
 11
180.1961595347048
 21
354.2394200136762
 31
0.0
  0
ENDBLK
  5
70D7
330
70D1
100
AcDbEntity
  8
0
100
AcDbBlockEnd
  0
BLOCK
  5
70DD
330
70D8
100
AcDbEntity
  8
0
 62
     7
100
AcDbBlockBegin
  2
*G12812824242424
 70
     0
 10
0.0
 20
0.0
 30
0.0
  3
*G12812824242424
  1

  0
LINE
  5
70D9
330
70D8
100
AcDbEntity
  8
1
  6
Continuous
 62
     7
100
AcDbLine
 10
177.7675881061334
 20
384.5251342993906
 30
0.0
 11
177.7675881061334
 21
338.8108485851048
 31
0.0
  0
LINE
  5
70DA
330
70D8
100
AcDbEntity
  8
1
  6
Continuous
 62
     7
100
AcDbLine
 10
177.7675881061334
 20
338.8108485851048
 30
0.0
 11
186.339016677562
 21
338.8108485851048
 31
0.0
  0
LINE
  5
70DB
330
70D8
100
AcDbEntity
  8
1
  6
Continuous
 62
     7
100
AcDbLine
 10
186.339016677562
 20
338.8108485851048
 30
0.0
 11
186.339016677562
 21
384.5251342993906
 31
0.0
  0
LINE
  5
70DC
330
70D8
100
AcDbEntity
  8
1
  6
Continuous
 62
     7
100
AcDbLine
 10
186.339016677562
 20
384.5251342993906
 30
0.0
 11
177.7675881061334
 21
384.5251342993906
 31
0.0
  0
ENDBLK
  5
70DE
330
70D8
100
AcDbEntity
  8
0
100
AcDbBlockEnd
  0
BLOCK
  5
70E4
330
70DF
100
AcDbEntity
  8
0
 62
     7
100
AcDbBlockBegin
  2
*G12912925252525
 70
     0
 10
0.0
 20
0.0
 30
0.0
  3
*G12912925252525
  1

  0
LINE
  5
70E0
330
70DF
100
AcDbEntity
  8
1
  6
Continuous
 62
     7
100
AcDbLine
 10
171.6247309632761
 20
347.096562870819
 30
0.0
 11
171.6247309632761
 21
343.3822771565335
 31
0.0
  0
LINE
  5
70E1
330
70DF
100
AcDbEntity
  8
1
  6
Continuous
 62
     7
100
AcDbLine
 10
171.6247309632761
 20
343.3822771565335
 30
0.0
 11
175.3390166775619
 21
343.3822771565335
 31
0.0
  0
LINE
  5
70E2
330
70DF
100
AcDbEntity
  8
1
  6
Continuous
 62
     7
100
AcDbLine
 10
175.3390166775619
 20
343.3822771565335
 30
0.0
 11
175.3390166775619
 21
347.096562870819
 31
0.0
  0
LINE
  5
70E3
330
70DF
100
AcDbEntity
  8
1
  6
Continuous
 62
     7
100
AcDbLine
 10
175.3390166775619
 20
347.096562870819
 30
0.0
 11
171.6247309632761
 21
347.096562870819
 31
0.0
  0
ENDBLK
  5
70E5
330
70DF
100
AcDbEntity
  8
0
100
AcDbBlockEnd
  0
BLOCK
  5
70EB
330
70E6
100
AcDbEntity
  8
0
 62
     7
100
AcDbBlockBegin
  2
*G13013026262626
 70
     0
 10
0.0
 20
0.0
 30
0.0
  3
*G13013026262626
  1

  0
LINE
  5
70E7
330
70E6
100
AcDbEntity
  8
1
  6
Continuous
 62
     7
100
AcDbLine
 10
171.6247309632761
 20
354.2394200136762
 30
0.0
 11
171.6247309632761
 21
350.5251342993905
 31
0.0
  0
LINE
  5
70E8
330
70E6
100
AcDbEntity
  8
1
  6
Continuous
 62
     7
100
AcDbLine
 10
171.6247309632761
 20
350.5251342993905
 30
0.0
 11
175.3390166775619
 21
350.5251342993905
 31
0.0
  0
LINE
  5
70E9
330
70E6
100
AcDbEntity
  8
1
  6
Continuous
 62
     7
100
AcDbLine
 10
175.3390166775619
 20
350.5251342993905
 30
0.0
 11
175.3390166775619
 21
354.2394200136762
 31
0.0
  0
LINE
  5
70EA
330
70E6
100
AcDbEntity
  8
1
  6
Continuous
 62
     7
100
AcDbLine
 10
175.3390166775619
 20
354.2394200136762
 30
0.0
 11
171.6247309632761
 21
354.2394200136762
 31
0.0
  0
ENDBLK
  5
70EC
330
70E6
100
AcDbEntity
  8
0
100
AcDbBlockEnd
  0
BLOCK
  5
70F2
330
70ED
100
AcDbEntity
  8
0
 62
     7
100
AcDbBlockBegin
  2
*G13113127272727
 70
     0
 10
0.0
 20
0.0
 30
0.0
  3
*G13113127272727
  1

  0
LINE
  5
70EE
330
70ED
100
AcDbEntity
  8
1
  6
Continuous
 62
     7
100
AcDbLine
 10
169.1961595347049
 20
384.5251342993906
 30
0.0
 11
169.1961595347049
 21
338.8108485851048
 31
0.0
  0
LINE
  5
70EF
330
70ED
100
AcDbEntity
  8
1
  6
Continuous
 62
     7
100
AcDbLine
 10
169.1961595347049
 20
338.8108485851048
 30
0.0
 11
177.7675881061334
 21
338.8108485851048
 31
0.0
  0
LINE
  5
70F0
330
70ED
100
AcDbEntity
  8
1
  6
Continuous
 62
     7
100
AcDbLine
 10
177.7675881061334
 20
338.8108485851048
 30
0.0
 11
177.7675881061334
 21
384.5251342993906
 31
0.0
  0
LINE
  5
70F1
330
70ED
100
AcDbEntity
  8
1
  6
Continuous
 62
     7
100
AcDbLine
 10
177.7675881061334
 20
384.5251342993906
 30
0.0
 11
169.1961595347049
 21
384.5251342993906
 31
0.0
  0
ENDBLK
  5
70F3
330
70ED
100
AcDbEntity
  8
0
100
AcDbBlockEnd
  0
BLOCK
  5
70F9
330
70F4
100
AcDbEntity
  8
0
 62
     7
100
AcDbBlockBegin
  2
*G13213228282828
 70
     0
 10
0.0
 20
0.0
 30
0.0
  3
*G13213228282828
  1

  0
LINE
  5
70F5
330
70F4
100
AcDbEntity
  8
1
  6
Continuous
 62
     7
100
AcDbLine
 10
163.0533023918474
 20
347.096562870819
 30
0.0
 11
163.0533023918474
 21
343.3822771565335
 31
0.0
  0
LINE
  5
70F6
330
70F4
100
AcDbEntity
  8
1
  6
Continuous
 62
     7
100
AcDbLine
 10
163.0533023918474
 20
343.3822771565335
 30
0.0
 11
166.7675881061334
 21
343.3822771565335
 31
0.0
  0
LINE
  5
70F7
330
70F4
100
AcDbEntity
  8
1
  6
Continuous
 62
     7
100
AcDbLine
 10
166.7675881061334
 20
343.3822771565335
 30
0.0
 11
166.7675881061334
 21
347.096562870819
 31
0.0
  0
LINE
  5
70F8
330
70F4
100
AcDbEntity
  8
1
  6
Continuous
 62
     7
100
AcDbLine
 10
166.7675881061334
 20
347.096562870819
 30
0.0
 11
163.0533023918474
 21
347.096562870819
 31
0.0
  0
ENDBLK
  5
70FA
330
70F4
100
AcDbEntity
  8
0
100
AcDbBlockEnd
  0
BLOCK
  5
7100
330
70FB
100
AcDbEntity
  8
0
 62
     7
100
AcDbBlockBegin
  2
*G13313329292929
 70
     0
 10
0.0
 20
0.0
 30
0.0
  3
*G13313329292929
  1

  0
LINE
  5
70FC
330
70FB
100
AcDbEntity
  8
1
  6
Continuous
 62
     7
100
AcDbLine
 10
163.0533023918474
 20
354.2394200136762
 30
0.0
 11
163.0533023918474
 21
350.5251342993905
 31
0.0
  0
LINE
  5
70FD
330
70FB
100
AcDbEntity
  8
1
  6
Continuous
 62
     7
100
AcDbLine
 10
163.0533023918474
 20
350.5251342993905
 30
0.0
 11
166.7675881061334
 21
350.5251342993905
 31
0.0
  0
LINE
  5
70FE
330
70FB
100
AcDbEntity
  8
1
  6
Continuous
 62
     7
100
AcDbLine
 10
166.7675881061334
 20
350.5251342993905
 30
0.0
 11
166.7675881061334
 21
354.2394200136762
 31
0.0
  0
LINE
  5
70FF
330
70FB
100
AcDbEntity
  8
1
  6
Continuous
 62
     7
100
AcDbLine
 10
166.7675881061334
 20
354.2394200136762
 30
0.0
 11
163.0533023918474
 21
354.2394200136762
 31
0.0
  0
ENDBLK
  5
7101
330
70FB
100
AcDbEntity
  8
0
100
AcDbBlockEnd
  0
BLOCK
  5
7107
330
7102
100
AcDbEntity
  8
0
 62
     7
100
AcDbBlockBegin
  2
*G13413430303030
 70
     0
 10
0.0
 20
0.0
 30
0.0
  3
*G13413430303030
  1

  0
LINE
  5
7103
330
7102
100
AcDbEntity
  8
1
  6
Continuous
 62
     7
100
AcDbLine
 10
160.6247309632761
 20
384.5251342993906
 30
0.0
 11
160.6247309632761
 21
338.8108485851048
 31
0.0
  0
LINE
  5
7104
330
7102
100
AcDbEntity
  8
1
  6
Continuous
 62
     7
100
AcDbLine
 10
160.6247309632761
 20
338.8108485851048
 30
0.0
 11
169.1961595347049
 21
338.8108485851048
 31
0.0
  0
LINE
  5
7105
330
7102
100
AcDbEntity
  8
1
  6
Continuous
 62
     7
100
AcDbLine
 10
169.1961595347049
 20
338.8108485851048
 30
0.0
 11
169.1961595347049
 21
384.5251342993906
 31
0.0
  0
LINE
  5
7106
330
7102
100
AcDbEntity
  8
1
  6
Continuous
 62
     7
100
AcDbLine
 10
169.1961595347049
 20
384.5251342993906
 30
0.0
 11
160.6247309632761
 21
384.5251342993906
 31
0.0
  0
ENDBLK
  5
7108
330
7102
100
AcDbEntity
  8
0
100
AcDbBlockEnd
  0
BLOCK
  5
710E
330
7109
100
AcDbEntity
  8
0
 62
     7
100
AcDbBlockBegin
  2
*G13513531313131
 70
     0
 10
0.0
 20
0.0
 30
0.0
  3
*G13513531313131
  1

  0
LINE
  5
710A
330
7109
100
AcDbEntity
  8
1
  6
Continuous
 62
     7
100
AcDbLine
 10
154.4818738204191
 20
347.096562870819
 30
0.0
 11
154.4818738204191
 21
343.3822771565335
 31
0.0
  0
LINE
  5
710B
330
7109
100
AcDbEntity
  8
1
  6
Continuous
 62
     7
100
AcDbLine
 10
154.4818738204191
 20
343.3822771565335
 30
0.0
 11
158.1961595347048
 21
343.3822771565335
 31
0.0
  0
LINE
  5
710C
330
7109
100
AcDbEntity
  8
1
  6
Continuous
 62
     7
100
AcDbLine
 10
158.1961595347048
 20
343.3822771565335
 30
0.0
 11
158.1961595347048
 21
347.096562870819
 31
0.0
  0
LINE
  5
710D
330
7109
100
AcDbEntity
  8
1
  6
Continuous
 62
     7
100
AcDbLine
 10
158.1961595347048
 20
347.096562870819
 30
0.0
 11
154.4818738204191
 21
347.096562870819
 31
0.0
  0
ENDBLK
  5
710F
330
7109
100
AcDbEntity
  8
0
100
AcDbBlockEnd
  0
BLOCK
  5
7115
330
7110
100
AcDbEntity
  8
0
 62
     7
100
AcDbBlockBegin
  2
*G13613632323232
 70
     0
 10
0.0
 20
0.0
 30
0.0
  3
*G13613632323232
  1

  0
LINE
  5
7111
330
7110
100
AcDbEntity
  8
1
  6
Continuous
 62
     7
100
AcDbLine
 10
154.4818738204191
 20
354.2394200136762
 30
0.0
 11
154.4818738204191
 21
350.5251342993905
 31
0.0
  0
LINE
  5
7112
330
7110
100
AcDbEntity
  8
1
  6
Continuous
 62
     7
100
AcDbLine
 10
154.4818738204191
 20
350.5251342993905
 30
0.0
 11
158.1961595347048
 21
350.5251342993905
 31
0.0
  0
LINE
  5
7113
330
7110
100
AcDbEntity
  8
1
  6
Continuous
 62
     7
100
AcDbLine
 10
158.1961595347048
 20
350.5251342993905
 30
0.0
 11
158.1961595347048
 21
354.2394200136762
 31
0.0
  0
LINE
  5
7114
330
7110
100
AcDbEntity
  8
1
  6
Continuous
 62
     7
100
AcDbLine
 10
158.1961595347048
 20
354.2394200136762
 30
0.0
 11
154.4818738204191
 21
354.2394200136762
 31
0.0
  0
ENDBLK
  5
7116
330
7110
100
AcDbEntity
  8
0
100
AcDbBlockEnd
  0
BLOCK
  5
711C
330
7117
100
AcDbEntity
  8
0
 62
     7
100
AcDbBlockBegin
  2
*G13713733333333
 70
     0
 10
0.0
 20
0.0
 30
0.0
  3
*G13713733333333
  1

  0
LINE
  5
7118
330
7117
100
AcDbEntity
  8
1
  6
Continuous
 62
     7
100
AcDbLine
 10
152.0533023918474
 20
384.5251342993906
 30
0.0
 11
152.0533023918474
 21
338.8108485851048
 31
0.0
  0
LINE
  5
7119
330
7117
100
AcDbEntity
  8
1
  6
Continuous
 62
     7
100
AcDbLine
 10
152.0533023918474
 20
338.8108485851048
 30
0.0
 11
160.6247309632761
 21
338.8108485851048
 31
0.0
  0
LINE
  5
711A
330
7117
100
AcDbEntity
  8
1
  6
Continuous
 62
     7
100
AcDbLine
 10
160.6247309632761
 20
338.8108485851048
 30
0.0
 11
160.6247309632761
 21
384.5251342993906
 31
0.0
  0
LINE
  5
711B
330
7117
100
AcDbEntity
  8
1
  6
Continuous
 62
     7
100
AcDbLine
 10
160.6247309632761
 20
384.5251342993906
 30
0.0
 11
152.0533023918474
 21
384.5251342993906
 31
0.0
  0
ENDBLK
  5
711D
330
7117
100
AcDbEntity
  8
0
100
AcDbBlockEnd
  0
BLOCK
  5
7127
330
711E
100
AcDbEntity
  8
0
 62
     7
100
AcDbBlockBegin
  2
*G13813834343434
 70
     0
 10
0.0
 20
0.0
 30
0.0
  3
*G13813834343434
  1

  0
ARC
  5
711F
330
711E
100
AcDbEntity
  8
1
  6
Continuous
 62
     7
100
AcDbCircle
 10
118.91044392914
 20
373.3394213573351
 30
0.0
 40
0.5714285714285714
100
AcDbArc
 50
179.9999999999998
 51
-89.99999999999991
  0
LINE
  5
7120
330
711E
100
AcDbEntity
  8
1
  6
Continuous
 62
     7
100
AcDbLine
 10
118.91044392914
 20
372.7679927859065
 30
0.0
 11
122.3390153577116
 21
372.7679927859065
 31
0.0
  0
ARC
  5
7121
330
711E
100
AcDbEntity
  8
1
  6
Continuous
 62
     7
100
AcDbCircle
 10
122.3390153577116
 20
373.3394213573351
 30
0.0
 40
0.5714285714285714
100
AcDbArc
 50
-89.99999999999991
 51
0.0
  0
LINE
  5
7122
330
711E
100
AcDbEntity
  8
1
  6
Continuous
 62
     7
100
AcDbLine
 10
118.3390153577116
 20
374.6296154344602
 30
0.0
 11
118.3390153577116
 21
373.3394213573351
 31
0.0
  0
ARC
  5
7123
330
711E
100
AcDbEntity
  8
1
  6
Continuous
 62
     7
100
AcDbCircle
 10
118.91044392914
 20
374.6296154344602
 30
0.0
 40
0.5714285714285714
100
AcDbArc
 50
89.99999999999991
 51
179.9999999999998
  0
LINE
  5
7124
330
711E
100
AcDbEntity
  8
1
  6
Continuous
 62
     7
100
AcDbLine
 10
122.3390153577116
 20
375.2010440058888
 30
0.0
 11
118.91044392914
 21
375.2010440058888
 31
0.0
  0
LINE
  5
7125
330
711E
100
AcDbEntity
  8
1
  6
Continuous
 62
     7
100
AcDbLine
 10
122.91044392914
 20
373.3394213573351
 30
0.0
 11
122.91044392914
 21
374.6296154344602
 31
0.0
  0
ARC
  5
7126
330
711E
100
AcDbEntity
  8
1
  6
Continuous
 62
     7
100
AcDbCircle
 10
122.3390153577116
 20
374.6296154344602
 30
0.0
 40
0.5714285714285714
100
AcDbArc
 50
0.0
 51
89.99999999999991
  0
ENDBLK
  5
7128
330
711E
100
AcDbEntity
  8
0
100
AcDbBlockEnd
  0
BLOCK
  5
712E
330
7129
100
AcDbEntity
  8
0
 62
     7
100
AcDbBlockBegin
  2
*G13913935353535
 70
     0
 10
0.0
 20
0.0
 30
0.0
  3
*G13913935353535
  1

  0
LINE
  5
712A
330
7129
100
AcDbEntity
  8
1
  6
Continuous
 62
     7
100
AcDbLine
 10
120.782292999908
 20
378.418129798778
 30
0.0
 11
120.782292999908
 21
376.8291150571838
 31
0.0
  0
LINE
  5
712B
330
7129
100
AcDbEntity
  8
1
  6
Continuous
 62
     7
100
AcDbLine
 10
120.782292999908
 20
376.8291150571838
 30
0.0
 11
120.4477635806252
 21
376.8291150571838
 31
0.0
  0
LINE
  5
712C
330
7129
100
AcDbEntity
  8
1
  6
Continuous
 62
     7
100
AcDbLine
 10
120.4477635806252
 20
376.8291150571838
 30
0.0
 11
120.4477635806252
 21
378.418129798778
 31
0.0
  0
LINE
  5
712D
330
7129
100
AcDbEntity
  8
1
  6
Continuous
 62
     7
100
AcDbLine
 10
120.4477635806252
 20
378.418129798778
 30
0.0
 11
120.782292999908
 21
378.418129798778
 31
0.0
  0
ENDBLK
  5
712F
330
7129
100
AcDbEntity
  8
0
100
AcDbBlockEnd
  0
BLOCK
  5
7895
330
788B
100
AcDbEntity
  8
0
100
AcDbBlockBegin
  2
*D36
 70
     1
 10
0.0
 20
0.0
 30
0.0
  3
*D36
  1

  0
LINE
  5
78AF
330
788B
100
AcDbEntity
  8
1
  6
Continuous
 62
     0
100
AcDbLine
 10
4501.313286040255
 20
21607.41733269574
 30
0.0
 11
4501.313286040255
 21
22613.01996726673
 31
0.0
  0
LINE
  5
78B0
330
788B
100
AcDbEntity
  8
1
  6
Continuous
 62
     0
100
AcDbLine
 10
13465.61126181902
 20
21611.23996726674
 30
0.0
 11
13465.61126181902
 21
22613.01996726673
 31
0.0
  0
LINE
  5
78B1
330
788B
100
AcDbEntity
  8
1
  6
Continuous
 62
     0
100
AcDbLine
 10
5001.313286040255
 20
22612.83996726676
 30
0.0
 11
12965.61126181902
 21
22612.83996726676
 31
0.0
  0
INSERT
  5
78B2
330
788B
100
AcDbEntity
  8
1
  6
Continuous
 62
     0
100
AcDbBlockReference
  2
_OPEN30
 10
4501.313286040255
 20
22612.83996726676
 30
0.0
 41
500.0
 42
500.0
 43
500.0
 50
180.0
  0
INSERT
  5
78B3
330
788B
100
AcDbEntity
  8
1
  6
Continuous
 62
     0
100
AcDbBlockReference
  2
_OPEN30
 10
13465.61126181902
 20
22612.83996726676
 30
0.0
 41
500.0
 42
500.0
 43
500.0
  0
MTEXT
  5
78B4
330
788B
100
AcDbEntity
  8
1
  6
Continuous
 62
     0
100
AcDbMText
 10
8983.462273929639
 20
22862.83996726675
 30
0.0
 40
400.0
 41
0.0
 71
     5
 72
     5
  1
\A1;600
 73
     1
 44
1.0
1001
ACAD
1000
MTEXTBEGIN
1070
    73
1070
     1
1070
    44
1040
1.0
1070
    74
1070
     0
1000
MTEXTEND
  0
POINT
  5
78B5
330
788B
100
AcDbEntity
  8
DEFPOINTS
  6
Continuous
 62
     0
100
AcDbPoint
 10
4501.313286040255
 20
21507.41733269573
 30
0.0
  0
POINT
  5
78B6
330
788B
100
AcDbEntity
  8
DEFPOINTS
  6
Continuous
 62
     0
100
AcDbPoint
 10
13465.61126181902
 20
21511.23996726675
 30
0.0
  0
POINT
  5
78B7
330
788B
100
AcDbEntity
  8
DEFPOINTS
  6
Continuous
 62
     0
100
AcDbPoint
 10
13465.61126181902
 20
22612.83996726676
 30
0.0
  0
ENDBLK
  5
7896
330
788B
100
AcDbEntity
  8
0
100
AcDbBlockEnd
  0
BLOCK
  5
78A1
330
7897
100
AcDbEntity
  8
0
100
AcDbBlockBegin
  2
*D37
 70
     1
 10
0.0
 20
0.0
 30
0.0
  3
*D37
  1

  0
LINE
  5
78B8
330
7897
100
AcDbEntity
  8
1
  6
Continuous
 62
     0
100
AcDbLine
 10
16470.06061351034
 20
21608.61942961131
 30
0.0
 11
16470.06061351034
 21
22595.19127106555
 31
0.0
  0
LINE
  5
78B9
330
7897
100
AcDbEntity
  8
1
  6
Continuous
 62
     0
100
AcDbLine
 10
18865.06519313915
 20
21614.2301437198
 30
0.0
 11
18865.06519313915
 21
22595.19127106555
 31
0.0
  0
LINE
  5
78BA
330
7897
100
AcDbEntity
  8
1
  6
Continuous
 62
     0
100
AcDbLine
 10
16970.06061351036
 20
22595.01127106555
 30
0.0
 11
18365.06519313915
 21
22595.01127106555
 31
0.0
  0
INSERT
  5
78BB
330
7897
100
AcDbEntity
  8
1
  6
Continuous
 62
     0
100
AcDbBlockReference
  2
_OPEN30
 10
16470.06061351034
 20
22595.01127106555
 30
0.0
 41
500.0
 42
500.0
 43
500.0
 50
180.0
  0
INSERT
  5
78BC
330
7897
100
AcDbEntity
  8
1
  6
Continuous
 62
     0
100
AcDbBlockReference
  2
_OPEN30
 10
18865.06519313915
 20
22595.01127106555
 30
0.0
 41
500.0
 42
500.0
 43
500.0
  0
MTEXT
  5
78BD
330
7897
100
AcDbEntity
  8
1
  6
Continuous
 62
     0
100
AcDbMText
 10
17667.56290332474
 20
22845.01127106555
 30
0.0
 40
400.0
 41
0.0
 71
     5
 72
     5
  1
\A1;160
 73
     1
 44
1.0
1001
ACAD
1000
MTEXTBEGIN
1070
    73
1070
     1
1070
    44
1040
1.0
1070
    74
1070
     0
1000
MTEXTEND
  0
POINT
  5
78BE
330
7897
100
AcDbEntity
  8
DEFPOINTS
  6
Continuous
 62
     0
100
AcDbPoint
 10
16470.06061351034
 20
21508.61942961131
 30
0.0
  0
POINT
  5
78BF
330
7897
100
AcDbEntity
  8
DEFPOINTS
  6
Continuous
 62
     0
100
AcDbPoint
 10
18865.06519313915
 20
21514.23014371979
 30
0.0
  0
POINT
  5
78C0
330
7897
100
AcDbEntity
  8
DEFPOINTS
  6
Continuous
 62
     0
100
AcDbPoint
 10
18865.06519313915
 20
22595.01127106555
 30
0.0
  0
ENDBLK
  5
78A2
330
7897
100
AcDbEntity
  8
0
100
AcDbBlockEnd
  0
BLOCK
  5
78AD
330
78A3
100
AcDbEntity
  8
0
100
AcDbBlockBegin
  2
*D38
 70
     1
 10
0.0
 20
0.0
 30
0.0
  3
*D38
  1

  0
LINE
  5
78C1
330
78A3
100
AcDbEntity
  8
1
  6
Continuous
 62
     0
100
AcDbLine
 10
13757.22350168034
 20
7854.019829754427
 30
0.0
 11
14761.79126181901
 21
7854.019829754427
 31
0.0
  0
LINE
  5
78C2
330
78A3
100
AcDbEntity
  8
1
  6
Continuous
 62
     0
100
AcDbLine
 10
13760.011261819
 20
21316.83996726674
 30
0.0
 11
14761.79126181901
 21
21316.83996726674
 31
0.0
  0
LINE
  5
78C3
330
78A3
100
AcDbEntity
  8
1
  6
Continuous
 62
     0
100
AcDbLine
 10
14761.61126181899
 20
8354.019829754426
 30
0.0
 11
14761.61126181899
 21
20816.83996726674
 31
0.0
  0
INSERT
  5
78C4
330
78A3
100
AcDbEntity
  8
1
  6
Continuous
 62
     0
100
AcDbBlockReference
  2
_OPEN30
 10
14761.61126181899
 20
7854.019829754427
 30
0.0
 41
500.0
 42
500.0
 43
500.0
 50
270.0
  0
INSERT
  5
78C5
330
78A3
100
AcDbEntity
  8
1
  6
Continuous
 62
     0
100
AcDbBlockReference
  2
_OPEN30
 10
14761.61126181899
 20
21316.83996726674
 30
0.0
 41
500.0
 42
500.0
 43
500.0
 50
90.0
  0
MTEXT
  5
78C6
330
78A3
100
AcDbEntity
  8
1
  6
Continuous
 62
     0
100
AcDbMText
 10
14511.61126181902
 20
14585.42989851058
 30
0.0
 40
400.0
 41
0.0
 71
     5
 72
     5
  1
\A1;900
 11
0.0000000000000001
 21
1.0
 31
0.0
 73
     1
 44
1.0
1001
ACAD
1000
MTEXTBEGIN
1070
    73
1070
     1
1070
    44
1040
1.0
1070
    74
1070
     0
1000
MTEXTEND
  0
POINT
  5
78C7
330
78A3
100
AcDbEntity
  8
DEFPOINTS
  6
Continuous
 62
     0
100
AcDbPoint
 10
13657.22350168034
 20
7854.019829754427
 30
0.0
  0
POINT
  5
78C8
330
78A3
100
AcDbEntity
  8
DEFPOINTS
  6
Continuous
 62
     0
100
AcDbPoint
 10
13660.011261819
 20
21316.83996726674
 30
0.0
  0
POINT
  5
78C9
330
78A3
100
AcDbEntity
  8
DEFPOINTS
  6
Continuous
 62
     0
100
AcDbPoint
 10
14761.61126181899
 20
21316.83996726674
 30
0.0
  0
ENDBLK
  5
78AE
330
78A3
100
AcDbEntity
  8
0
100
AcDbBlockEnd
  0
BLOCK
  5
78DA
330
78D0
100
AcDbEntity
  8
0
100
AcDbBlockBegin
  2
*D39
 70
     1
 10
0.0
 20
0.0
 30
0.0
  3
*D39
  1

  0
LINE
  5
78D1
330
78D0
100
AcDbEntity
  8
1
  6
Continuous
 62
     0
100
AcDbLine
 10
92237.55318070272
 20
111529.2888582996
 30
0.0
 11
92237.55318070272
 21
112317.1061049824
 31
0.0
  0
LINE
  5
78D2
330
78D0
100
AcDbEntity
  8
1
  6
Continuous
 62
     0
100
AcDbLine
 10
99151.52726312163
 20
111533.0732665249
 30
0.0
 11
99151.52726312163
 21
112317.1061049824
 31
0.0
  0
LINE
  5
78D3
330
78D0
100
AcDbEntity
  8
1
  6
Continuous
 62
     0
100
AcDbLine
 10
92737.5531807027
 20
112316.9261049824
 30
0.0
 11
98651.52726312162
 21
112316.9261049824
 31
0.0
  0
INSERT
  5
78D4
330
78D0
100
AcDbEntity
  8
1
  6
Continuous
 62
     0
100
AcDbBlockReference
  2
_OPEN30
 10
92237.55318070272
 20
112316.9261049824
 30
0.0
 41
500.0
 42
500.0
 43
500.0
 50
180.0
  0
INSERT
  5
78D5
330
78D0
100
AcDbEntity
  8
1
  6
Continuous
 62
     0
100
AcDbBlockReference
  2
_OPEN30
 10
99151.52726312163
 20
112316.9261049824
 30
0.0
 41
500.0
 42
500.0
 43
500.0
  0
MTEXT
  5
78D6
330
78D0
100
AcDbEntity
  8
1
  6
Continuous
 62
     0
100
AcDbMText
 10
95694.54022191218
 20
112566.9261049824
 30
0.0
 40
400.0
 41
0.0
 71
     5
 72
     5
  1
\A1;600
 73
     1
 44
1.0
1001
ACAD
1000
MTEXTBEGIN
1070
    73
1070
     1
1070
    44
1040
1.0
1070
    74
1070
     0
1000
MTEXTEND
  0
POINT
  5
78D7
330
78D0
100
AcDbEntity
  8
DEFPOINTS
  6
Continuous
 62
     0
100
AcDbPoint
 10
92237.55318070272
 20
111429.2888582996
 30
0.0
  0
POINT
  5
78D8
330
78D0
100
AcDbEntity
  8
DEFPOINTS
  6
Continuous
 62
     0
100
AcDbPoint
 10
99151.52726312163
 20
111433.0732665249
 30
0.0
  0
POINT
  5
78D9
330
78D0
100
AcDbEntity
  8
DEFPOINTS
  6
Continuous
 62
     0
100
AcDbPoint
 10
99151.52726312163
 20
112316.9261049824
 30
0.0
  0
ENDBLK
  5
78DB
330
78D0
100
AcDbEntity
  8
0
100
AcDbBlockEnd
  0
BLOCK
  5
78E6
330
78DC
100
AcDbEntity
  8
0
100
AcDbBlockBegin
  2
*D40
 70
     1
 10
0.0
 20
0.0
 30
0.0
  3
*D40
  1

  0
LINE
  5
78DD
330
78DC
100
AcDbEntity
  8
1
  6
Continuous
 62
     0
100
AcDbLine
 10
103875.9081629857
 20
111535.107107025
 30
0.0
 11
103875.9081629857
 21
112317.1061049824
 31
0.0
  0
LINE
  5
78DE
330
78DC
100
AcDbEntity
  8
1
  6
Continuous
 62
     0
100
AcDbLine
 10
105719.1843003301
 20
111536.0335412135
 30
0.0
 11
105719.1843003301
 21
112317.1061049824
 31
0.0
  0
LINE
  5
78DF
330
78DC
100
AcDbEntity
  8
1
  6
Continuous
 62
     0
100
AcDbLine
 10
104375.9081629857
 20
112316.9261049824
 30
0.0
 11
105219.1843003301
 21
112316.9261049824
 31
0.0
  0
INSERT
  5
78E0
330
78DC
100
AcDbEntity
  8
1
  6
Continuous
 62
     0
100
AcDbBlockReference
  2
_OPEN30
 10
103875.9081629857
 20
112316.9261049824
 30
0.0
 41
500.0
 42
500.0
 43
500.0
 50
180.0
  0
INSERT
  5
78E1
330
78DC
100
AcDbEntity
  8
1
  6
Continuous
 62
     0
100
AcDbBlockReference
  2
_OPEN30
 10
105719.1843003301
 20
112316.9261049824
 30
0.0
 41
500.0
 42
500.0
 43
500.0
  0
MTEXT
  5
78E2
330
78DC
100
AcDbEntity
  8
1
  6
Continuous
 62
     0
100
AcDbMText
 10
104797.5462316578
 20
112566.9261049824
 30
0.0
 40
400.0
 41
0.0
 71
     5
 72
     5
  1
\A1;160
 73
     1
 44
1.0
1001
ACAD
1000
MTEXTBEGIN
1070
    73
1070
     1
1070
    44
1040
1.0
1070
    74
1070
     0
1000
MTEXTEND
  0
POINT
  5
78E3
330
78DC
100
AcDbEntity
  8
DEFPOINTS
  6
Continuous
 62
     0
100
AcDbPoint
 10
103875.9081629857
 20
111435.1071070249
 30
0.0
  0
POINT
  5
78E4
330
78DC
100
AcDbEntity
  8
DEFPOINTS
  6
Continuous
 62
     0
100
AcDbPoint
 10
105719.1843003301
 20
111436.0335412134
 30
0.0
  0
POINT
  5
78E5
330
78DC
100
AcDbEntity
  8
DEFPOINTS
  6
Continuous
 62
     0
100
AcDbPoint
 10
105719.1843003301
 20
112316.9261049824
 30
0.0
  0
ENDBLK
  5
78E7
330
78DC
100
AcDbEntity
  8
0
100
AcDbBlockEnd
  0
BLOCK
  5
78F2
330
78E8
100
AcDbEntity
  8
0
100
AcDbBlockBegin
  2
*D41
 70
     1
 10
0.0
 20
0.0
 30
0.0
  3
*D41
  1

  0
LINE
  5
78E9
330
78E8
100
AcDbEntity
  8
1
  6
Continuous
 62
     0
100
AcDbLine
 10
99399.94375257668
 20
97413.44605812914
 30
0.0
 11
100393.4676351139
 21
97413.44605812914
 31
0.0
  0
LINE
  5
78EA
330
78E8
100
AcDbEntity
  8
1
  6
Continuous
 62
     0
100
AcDbLine
 10
99402.70363511396
 20
111240.6172665248
 30
0.0
 11
100393.4676351139
 21
111240.6172665248
 31
0.0
  0
LINE
  5
78EB
330
78E8
100
AcDbEntity
  8
1
  6
Continuous
 62
     0
100
AcDbLine
 10
100393.2876351139
 20
97913.44605812913
 30
0.0
 11
100393.2876351139
 21
110740.6172665249
 31
0.0
  0
INSERT
  5
78EC
330
78E8
100
AcDbEntity
  8
1
  6
Continuous
 62
     0
100
AcDbBlockReference
  2
_OPEN30
 10
100393.2876351139
 20
97413.44605812914
 30
0.0
 41
500.0
 42
500.0
 43
500.0
 50
270.0
  0
INSERT
  5
78ED
330
78E8
100
AcDbEntity
  8
1
  6
Continuous
 62
     0
100
AcDbBlockReference
  2
_OPEN30
 10
100393.2876351139
 20
111240.6172665248
 30
0.0
 41
500.0
 42
500.0
 43
500.0
 50
90.0
  0
MTEXT
  5
78EE
330
78E8
100
AcDbEntity
  8
1
  6
Continuous
 62
     0
100
AcDbMText
 10
100143.2876351139
 20
104327.0316623271
 30
0.0
 40
400.0
 41
0.0
 71
     5
 72
     5
  1
\A1;1200
 11
0.0000000000000001
 21
1.0
 31
0.0
 73
     1
 44
1.0
1001
ACAD
1000
MTEXTBEGIN
1070
    73
1070
     1
1070
    44
1040
1.0
1070
    74
1070
     0
1000
MTEXTEND
  0
POINT
  5
78EF
330
78E8
100
AcDbEntity
  8
DEFPOINTS
  6
Continuous
 62
     0
100
AcDbPoint
 10
99299.94375257669
 20
97413.44605812914
 30
0.0
  0
POINT
  5
78F0
330
78E8
100
AcDbEntity
  8
DEFPOINTS
  6
Continuous
 62
     0
100
AcDbPoint
 10
99302.70363511393
 20
111240.6172665248
 30
0.0
  0
POINT
  5
78F1
330
78E8
100
AcDbEntity
  8
DEFPOINTS
  6
Continuous
 62
     0
100
AcDbPoint
 10
100393.2876351139
 20
111240.6172665248
 30
0.0
  0
ENDBLK
  5
78F3
330
78E8
100
AcDbEntity
  8
0
100
AcDbBlockEnd
  0
BLOCK
  5
7FDA
330
7FD0
100
AcDbEntity
  8
0
100
AcDbBlockBegin
  2
*D42
 70
     1
 10
0.0
 20
0.0
 30
0.0
  3
*D42
  1

  0
LINE
  5
7FF4
330
7FD0
100
AcDbEntity
  8
1
  6
Continuous
 62
     0
100
AcDbLine
 10
5213.871118345735
 20
22193.38807278179
 30
0.0
 11
5213.871118345735
 21
22981.20531946456
 31
0.0
  0
LINE
  5
7FF5
330
7FD0
100
AcDbEntity
  8
1
  6
Continuous
 62
     0
100
AcDbLine
 10
12127.84520076465
 20
22197.17248100709
 30
0.0
 11
12127.84520076465
 21
22981.20531946456
 31
0.0
  0
LINE
  5
7FF6
330
7FD0
100
AcDbEntity
  8
1
  6
Continuous
 62
     0
100
AcDbLine
 10
5713.871118345735
 20
22981.02531946455
 30
0.0
 11
11627.84520076465
 21
22981.02531946455
 31
0.0
  0
INSERT
  5
7FF7
330
7FD0
100
AcDbEntity
  8
1
  6
Continuous
 62
     0
100
AcDbBlockReference
  2
_OPEN30
 10
5213.871118345735
 20
22981.02531946455
 30
0.0
 41
500.0
 42
500.0
 43
500.0
 50
180.0
  0
INSERT
  5
7FF8
330
7FD0
100
AcDbEntity
  8
1
  6
Continuous
 62
     0
100
AcDbBlockReference
  2
_OPEN30
 10
12127.84520076465
 20
22981.02531946455
 30
0.0
 41
500.0
 42
500.0
 43
500.0
  0
MTEXT
  5
7FF9
330
7FD0
100
AcDbEntity
  8
1
  6
Continuous
 62
     0
100
AcDbMText
 10
8670.858159555193
 20
23231.02531946456
 30
0.0
 40
400.0
 41
0.0
 71
     5
 72
     5
  1
\A1;600
 73
     1
 44
1.0
1001
ACAD
1000
MTEXTBEGIN
1070
    73
1070
     1
1070
    44
1040
1.0
1070
    74
1070
     0
1000
MTEXTEND
  0
POINT
  5
7FFA
330
7FD0
100
AcDbEntity
  8
DEFPOINTS
  6
Continuous
 62
     0
100
AcDbPoint
 10
5213.871118345735
 20
22093.38807278178
 30
0.0
  0
POINT
  5
7FFB
330
7FD0
100
AcDbEntity
  8
DEFPOINTS
  6
Continuous
 62
     0
100
AcDbPoint
 10
12127.84520076465
 20
22097.17248100708
 30
0.0
  0
POINT
  5
7FFC
330
7FD0
100
AcDbEntity
  8
DEFPOINTS
  6
Continuous
 62
     0
100
AcDbPoint
 10
12127.84520076465
 20
22981.02531946455
 30
0.0
  0
ENDBLK
  5
7FDB
330
7FD0
100
AcDbEntity
  8
0
100
AcDbBlockEnd
  0
BLOCK
  5
7FE6
330
7FDC
100
AcDbEntity
  8
0
100
AcDbBlockBegin
  2
*D43
 70
     1
 10
0.0
 20
0.0
 30
0.0
  3
*D43
  1

  0
LINE
  5
7FFD
330
7FDC
100
AcDbEntity
  8
1
  6
Continuous
 62
     0
100
AcDbLine
 10
16852.22610062877
 20
22199.20632150714
 30
0.0
 11
16852.22610062877
 21
22981.20531946456
 31
0.0
  0
LINE
  5
7FFE
330
7FDC
100
AcDbEntity
  8
1
  6
Continuous
 62
     0
100
AcDbLine
 10
18695.50223797313
 20
22200.13275569561
 30
0.0
 11
18695.50223797313
 21
22981.20531946456
 31
0.0
  0
LINE
  5
7FFF
330
7FDC
100
AcDbEntity
  8
1
  6
Continuous
 62
     0
100
AcDbLine
 10
17352.22610062877
 20
22981.02531946455
 30
0.0
 11
18195.50223797313
 21
22981.02531946455
 31
0.0
  0
INSERT
  5
8000
330
7FDC
100
AcDbEntity
  8
1
  6
Continuous
 62
     0
100
AcDbBlockReference
  2
_OPEN30
 10
16852.22610062877
 20
22981.02531946455
 30
0.0
 41
500.0
 42
500.0
 43
500.0
 50
180.0
  0
INSERT
  5
8001
330
7FDC
100
AcDbEntity
  8
1
  6
Continuous
 62
     0
100
AcDbBlockReference
  2
_OPEN30
 10
18695.50223797313
 20
22981.02531946455
 30
0.0
 41
500.0
 42
500.0
 43
500.0
  0
MTEXT
  5
8002
330
7FDC
100
AcDbEntity
  8
1
  6
Continuous
 62
     0
100
AcDbMText
 10
17773.86416930096
 20
23231.02531946456
 30
0.0
 40
400.0
 41
0.0
 71
     5
 72
     5
  1
\A1;160
 73
     1
 44
1.0
1001
ACAD
1000
MTEXTBEGIN
1070
    73
1070
     1
1070
    44
1040
1.0
1070
    74
1070
     0
1000
MTEXTEND
  0
POINT
  5
8003
330
7FDC
100
AcDbEntity
  8
DEFPOINTS
  6
Continuous
 62
     0
100
AcDbPoint
 10
16852.22610062877
 20
22099.20632150712
 30
0.0
  0
POINT
  5
8004
330
7FDC
100
AcDbEntity
  8
DEFPOINTS
  6
Continuous
 62
     0
100
AcDbPoint
 10
18695.50223797313
 20
22100.1327556956
 30
0.0
  0
POINT
  5
8005
330
7FDC
100
AcDbEntity
  8
DEFPOINTS
  6
Continuous
 62
     0
100
AcDbPoint
 10
18695.50223797313
 20
22981.02531946455
 30
0.0
  0
ENDBLK
  5
7FE7
330
7FDC
100
AcDbEntity
  8
0
100
AcDbBlockEnd
  0
BLOCK
  5
7FF2
330
7FE8
100
AcDbEntity
  8
0
100
AcDbBlockBegin
  2
*D44
 70
     1
 10
0.0
 20
0.0
 30
0.0
  3
*D44
  1

  0
LINE
  5
8006
330
7FE8
100
AcDbEntity
  8
1
  6
Continuous
 62
     0
100
AcDbLine
 10
12376.2616902197
 20
8077.545272611256
 30
0.0
 11
13369.78557275696
 21
8077.545272611256
 31
0.0
  0
LINE
  5
8007
330
7FE8
100
AcDbEntity
  8
1
  6
Continuous
 62
     0
100
AcDbLine
 10
12379.02157275697
 20
21904.71648100709
 30
0.0
 11
13369.78557275696
 21
21904.71648100709
 31
0.0
  0
LINE
  5
8008
330
7FE8
100
AcDbEntity
  8
1
  6
Continuous
 62
     0
100
AcDbLine
 10
13369.60557275697
 20
8577.545272611256
 30
0.0
 11
13369.60557275697
 21
21404.71648100708
 31
0.0
  0
INSERT
  5
8009
330
7FE8
100
AcDbEntity
  8
1
  6
Continuous
 62
     0
100
AcDbBlockReference
  2
_OPEN30
 10
13369.60557275697
 20
8077.545272611256
 30
0.0
 41
500.0
 42
500.0
 43
500.0
 50
270.0
  0
INSERT
  5
800A
330
7FE8
100
AcDbEntity
  8
1
  6
Continuous
 62
     0
100
AcDbBlockReference
  2
_OPEN30
 10
13369.60557275697
 20
21904.71648100709
 30
0.0
 41
500.0
 42
500.0
 43
500.0
 50
90.0
  0
MTEXT
  5
800B
330
7FE8
100
AcDbEntity
  8
1
  6
Continuous
 62
     0
100
AcDbMText
 10
13119.60557275697
 20
14991.13087680917
 30
0.0
 40
400.0
 41
0.0
 71
     5
 72
     5
  1
\A1;1200
 11
0.0000000000000001
 21
1.0
 31
0.0
 73
     1
 44
1.0
1001
ACAD
1000
MTEXTBEGIN
1070
    73
1070
     1
1070
    44
1040
1.0
1070
    74
1070
     0
1000
MTEXTEND
  0
POINT
  5
800C
330
7FE8
100
AcDbEntity
  8
DEFPOINTS
  6
Continuous
 62
     0
100
AcDbPoint
 10
12276.2616902197
 20
8077.545272611256
 30
0.0
  0
POINT
  5
800D
330
7FE8
100
AcDbEntity
  8
DEFPOINTS
  6
Continuous
 62
     0
100
AcDbPoint
 10
12279.02157275697
 20
21904.71648100709
 30
0.0
  0
POINT
  5
800E
330
7FE8
100
AcDbEntity
  8
DEFPOINTS
  6
Continuous
 62
     0
100
AcDbPoint
 10
13369.60557275697
 20
21904.71648100709
 30
0.0
  0
ENDBLK
  5
7FF3
330
7FE8
100
AcDbEntity
  8
0
100
AcDbBlockEnd
  0
BLOCK
  5
801F
330
8015
100
AcDbEntity
  8
0
100
AcDbBlockBegin
  2
*D45
 70
     1
 10
0.0
 20
0.0
 30
0.0
  3
*D45
  1

  0
LINE
  5
8016
330
8015
100
AcDbEntity
  8
1
  6
Continuous
 62
     0
100
AcDbLine
 10
118493.2918303051
 20
111529.2888582996
 30
0.0
 11
118493.2918303051
 21
112317.1061049824
 31
0.0
  0
LINE
  5
8017
330
8015
100
AcDbEntity
  8
1
  6
Continuous
 62
     0
100
AcDbLine
 10
125407.2659127242
 20
111533.0732665249
 30
0.0
 11
125407.2659127242
 21
112317.1061049824
 31
0.0
  0
LINE
  5
8018
330
8015
100
AcDbEntity
  8
1
  6
Continuous
 62
     0
100
AcDbLine
 10
118993.2918303052
 20
112316.9261049824
 30
0.0
 11
124907.2659127242
 21
112316.9261049824
 31
0.0
  0
INSERT
  5
8019
330
8015
100
AcDbEntity
  8
1
  6
Continuous
 62
     0
100
AcDbBlockReference
  2
_OPEN30
 10
118493.2918303051
 20
112316.9261049824
 30
0.0
 41
500.0
 42
500.0
 43
500.0
 50
180.0
  0
INSERT
  5
801A
330
8015
100
AcDbEntity
  8
1
  6
Continuous
 62
     0
100
AcDbBlockReference
  2
_OPEN30
 10
125407.2659127242
 20
112316.9261049824
 30
0.0
 41
500.0
 42
500.0
 43
500.0
  0
MTEXT
  5
801B
330
8015
100
AcDbEntity
  8
1
  6
Continuous
 62
     0
100
AcDbMText
 10
121950.2788715147
 20
112566.9261049824
 30
0.0
 40
400.0
 41
0.0
 71
     5
 72
     5
  1
\A1;600
 73
     1
 44
1.0
1001
ACAD
1000
MTEXTBEGIN
1070
    73
1070
     1
1070
    44
1040
1.0
1070
    74
1070
     0
1000
MTEXTEND
  0
POINT
  5
801C
330
8015
100
AcDbEntity
  8
DEFPOINTS
  6
Continuous
 62
     0
100
AcDbPoint
 10
118493.2918303051
 20
111429.2888582997
 30
0.0
  0
POINT
  5
801D
330
8015
100
AcDbEntity
  8
DEFPOINTS
  6
Continuous
 62
     0
100
AcDbPoint
 10
125407.2659127242
 20
111433.0732665249
 30
0.0
  0
POINT
  5
801E
330
8015
100
AcDbEntity
  8
DEFPOINTS
  6
Continuous
 62
     0
100
AcDbPoint
 10
125407.2659127242
 20
112316.9261049824
 30
0.0
  0
ENDBLK
  5
8020
330
8015
100
AcDbEntity
  8
0
100
AcDbBlockEnd
  0
BLOCK
  5
802B
330
8021
100
AcDbEntity
  8
0
100
AcDbBlockBegin
  2
*D46
 70
     1
 10
0.0
 20
0.0
 30
0.0
  3
*D46
  1

  0
LINE
  5
8022
330
8021
100
AcDbEntity
  8
1
  6
Continuous
 62
     0
100
AcDbLine
 10
130131.6468125883
 20
111535.107107025
 30
0.0
 11
130131.6468125883
 21
112317.1061049824
 31
0.0
  0
LINE
  5
8023
330
8021
100
AcDbEntity
  8
1
  6
Continuous
 62
     0
100
AcDbLine
 10
131974.9229499326
 20
111536.0335412135
 30
0.0
 11
131974.9229499326
 21
112317.1061049824
 31
0.0
  0
LINE
  5
8024
330
8021
100
AcDbEntity
  8
1
  6
Continuous
 62
     0
100
AcDbLine
 10
130631.6468125883
 20
112316.9261049824
 30
0.0
 11
131474.9229499327
 21
112316.9261049824
 31
0.0
  0
INSERT
  5
8025
330
8021
100
AcDbEntity
  8
1
  6
Continuous
 62
     0
100
AcDbBlockReference
  2
_OPEN30
 10
130131.6468125883
 20
112316.9261049824
 30
0.0
 41
500.0
 42
500.0
 43
500.0
 50
180.0
  0
INSERT
  5
8026
330
8021
100
AcDbEntity
  8
1
  6
Continuous
 62
     0
100
AcDbBlockReference
  2
_OPEN30
 10
131974.9229499326
 20
112316.9261049824
 30
0.0
 41
500.0
 42
500.0
 43
500.0
  0
MTEXT
  5
8027
330
8021
100
AcDbEntity
  8
1
  6
Continuous
 62
     0
100
AcDbMText
 10
131053.2848812605
 20
112566.9261049824
 30
0.0
 40
400.0
 41
0.0
 71
     5
 72
     5
  1
\A1;160
 73
     1
 44
1.0
1001
ACAD
1000
MTEXTBEGIN
1070
    73
1070
     1
1070
    44
1040
1.0
1070
    74
1070
     0
1000
MTEXTEND
  0
POINT
  5
8028
330
8021
100
AcDbEntity
  8
DEFPOINTS
  6
Continuous
 62
     0
100
AcDbPoint
 10
130131.6468125883
 20
111435.1071070249
 30
0.0
  0
POINT
  5
8029
330
8021
100
AcDbEntity
  8
DEFPOINTS
  6
Continuous
 62
     0
100
AcDbPoint
 10
131974.9229499326
 20
111436.0335412135
 30
0.0
  0
POINT
  5
802A
330
8021
100
AcDbEntity
  8
DEFPOINTS
  6
Continuous
 62
     0
100
AcDbPoint
 10
131974.9229499326
 20
112316.9261049824
 30
0.0
  0
ENDBLK
  5
802C
330
8021
100
AcDbEntity
  8
0
100
AcDbBlockEnd
  0
BLOCK
  5
8037
330
802D
100
AcDbEntity
  8
0
100
AcDbBlockBegin
  2
*D47
 70
     1
 10
0.0
 20
0.0
 30
0.0
  3
*D47
  1

  0
LINE
  5
802E
330
802D
100
AcDbEntity
  8
1
  6
Continuous
 62
     0
100
AcDbLine
 10
125655.6824021793
 20
97413.44605812916
 30
0.0
 11
126649.2062847165
 21
97413.44605812916
 31
0.0
  0
LINE
  5
802F
330
802D
100
AcDbEntity
  8
1
  6
Continuous
 62
     0
100
AcDbLine
 10
125658.4422847165
 20
111240.6172665248
 30
0.0
 11
126649.2062847165
 21
111240.6172665248
 31
0.0
  0
LINE
  5
8030
330
802D
100
AcDbEntity
  8
1
  6
Continuous
 62
     0
100
AcDbLine
 10
126649.0262847165
 20
97913.44605812913
 30
0.0
 11
126649.0262847165
 21
110740.6172665249
 31
0.0
  0
INSERT
  5
8031
330
802D
100
AcDbEntity
  8
1
  6
Continuous
 62
     0
100
AcDbBlockReference
  2
_OPEN30
 10
126649.0262847165
 20
97413.44605812916
 30
0.0
 41
500.0
 42
500.0
 43
500.0
 50
270.0
  0
INSERT
  5
8032
330
802D
100
AcDbEntity
  8
1
  6
Continuous
 62
     0
100
AcDbBlockReference
  2
_OPEN30
 10
126649.0262847165
 20
111240.6172665248
 30
0.0
 41
500.0
 42
500.0
 43
500.0
 50
90.0
  0
MTEXT
  5
8033
330
802D
100
AcDbEntity
  8
1
  6
Continuous
 62
     0
100
AcDbMText
 10
126399.0262847165
 20
104327.0316623269
 30
0.0
 40
400.0
 41
0.0
 71
     5
 72
     5
  1
\A1;1200
 11
0.0000000000000001
 21
1.0
 31
0.0
 73
     1
 44
1.0
1001
ACAD
1000
MTEXTBEGIN
1070
    73
1070
     1
1070
    44
1040
1.0
1070
    74
1070
     0
1000
MTEXTEND
  0
POINT
  5
8034
330
802D
100
AcDbEntity
  8
DEFPOINTS
  6
Continuous
 62
     0
100
AcDbPoint
 10
125555.6824021793
 20
97413.44605812916
 30
0.0
  0
POINT
  5
8035
330
802D
100
AcDbEntity
  8
DEFPOINTS
  6
Continuous
 62
     0
100
AcDbPoint
 10
125558.4422847165
 20
111240.6172665248
 30
0.0
  0
POINT
  5
8036
330
802D
100
AcDbEntity
  8
DEFPOINTS
  6
Continuous
 62
     0
100
AcDbPoint
 10
126649.0262847165
 20
111240.6172665248
 30
0.0
  0
ENDBLK
  5
8038
330
802D
100
AcDbEntity
  8
0
100
AcDbBlockEnd
  0
BLOCK
  5
880F
330
8805
100
AcDbEntity
  8
0
100
AcDbBlockBegin
  2
*D48
 70
     1
 10
0.0
 20
0.0
 30
0.0
  3
*D48
  1

  0
LINE
  5
8829
330
8805
100
AcDbEntity
  8
1
  6
Continuous
 62
     0
100
AcDbLine
 10
5157.621805632807
 20
22131.49232717048
 30
0.0
 11
5157.621805632807
 21
22919.30957385329
 31
0.0
  0
LINE
  5
882A
330
8805
100
AcDbEntity
  8
1
  6
Continuous
 62
     0
100
AcDbLine
 10
12071.59588805172
 20
22135.27673539581
 30
0.0
 11
12071.59588805172
 21
22919.30957385329
 31
0.0
  0
LINE
  5
882B
330
8805
100
AcDbEntity
  8
1
  6
Continuous
 62
     0
100
AcDbLine
 10
5657.621805632806
 20
22919.12957385329
 30
0.0
 11
11571.59588805172
 21
22919.12957385329
 31
0.0
  0
INSERT
  5
882C
330
8805
100
AcDbEntity
  8
1
  6
Continuous
 62
     0
100
AcDbBlockReference
  2
_OPEN30
 10
5157.621805632807
 20
22919.12957385329
 30
0.0
 41
500.0
 42
500.0
 43
500.0
 50
180.0
  0
INSERT
  5
882D
330
8805
100
AcDbEntity
  8
1
  6
Continuous
 62
     0
100
AcDbBlockReference
  2
_OPEN30
 10
12071.59588805172
 20
22919.12957385329
 30
0.0
 41
500.0
 42
500.0
 43
500.0
  0
MTEXT
  5
882E
330
8805
100
AcDbEntity
  8
1
  6
Continuous
 62
     0
100
AcDbMText
 10
8614.608846842267
 20
23169.12957385329
 30
0.0
 40
400.0
 41
0.0
 71
     5
 72
     5
  1
\A1;600
 73
     1
 44
1.0
1001
ACAD
1000
MTEXTBEGIN
1070
    73
1070
     1
1070
    44
1040
1.0
1070
    74
1070
     0
1000
MTEXTEND
  0
POINT
  5
882F
330
8805
100
AcDbEntity
  8
DEFPOINTS
  6
Continuous
 62
     0
100
AcDbPoint
 10
5157.621805632807
 20
22031.49232717052
 30
0.0
  0
POINT
  5
8830
330
8805
100
AcDbEntity
  8
DEFPOINTS
  6
Continuous
 62
     0
100
AcDbPoint
 10
12071.59588805172
 20
22035.27673539582
 30
0.0
  0
POINT
  5
8831
330
8805
100
AcDbEntity
  8
DEFPOINTS
  6
Continuous
 62
     0
100
AcDbPoint
 10
12071.59588805172
 20
22919.12957385329
 30
0.0
  0
ENDBLK
  5
8810
330
8805
100
AcDbEntity
  8
0
100
AcDbBlockEnd
  0
BLOCK
  5
881B
330
8811
100
AcDbEntity
  8
0
100
AcDbBlockBegin
  2
*D49
 70
     1
 10
0.0
 20
0.0
 30
0.0
  3
*D49
  1

  0
LINE
  5
8832
330
8811
100
AcDbEntity
  8
1
  6
Continuous
 62
     0
100
AcDbLine
 10
16795.97678791584
 20
22137.3105758959
 30
0.0
 11
16795.97678791584
 21
22919.30957385329
 31
0.0
  0
LINE
  5
8833
330
8811
100
AcDbEntity
  8
1
  6
Continuous
 62
     0
100
AcDbLine
 10
18639.25292526021
 20
22138.23701008434
 30
0.0
 11
18639.25292526021
 21
22919.30957385329
 31
0.0
  0
LINE
  5
8834
330
8811
100
AcDbEntity
  8
1
  6
Continuous
 62
     0
100
AcDbLine
 10
17295.97678791583
 20
22919.12957385329
 30
0.0
 11
18139.25292526021
 21
22919.12957385329
 31
0.0
  0
INSERT
  5
8835
330
8811
100
AcDbEntity
  8
1
  6
Continuous
 62
     0
100
AcDbBlockReference
  2
_OPEN30
 10
16795.97678791584
 20
22919.12957385329
 30
0.0
 41
500.0
 42
500.0
 43
500.0
 50
180.0
  0
INSERT
  5
8836
330
8811
100
AcDbEntity
  8
1
  6
Continuous
 62
     0
100
AcDbBlockReference
  2
_OPEN30
 10
18639.25292526021
 20
22919.12957385329
 30
0.0
 41
500.0
 42
500.0
 43
500.0
  0
MTEXT
  5
8837
330
8811
100
AcDbEntity
  8
1
  6
Continuous
 62
     0
100
AcDbMText
 10
17717.61485658803
 20
23169.12957385329
 30
0.0
 40
400.0
 41
0.0
 71
     5
 72
     5
  1
\A1;160
 73
     1
 44
1.0
1001
ACAD
1000
MTEXTBEGIN
1070
    73
1070
     1
1070
    44
1040
1.0
1070
    74
1070
     0
1000
MTEXTEND
  0
POINT
  5
8838
330
8811
100
AcDbEntity
  8
DEFPOINTS
  6
Continuous
 62
     0
100
AcDbPoint
 10
16795.97678791584
 20
22037.31057589587
 30
0.0
  0
POINT
  5
8839
330
8811
100
AcDbEntity
  8
DEFPOINTS
  6
Continuous
 62
     0
100
AcDbPoint
 10
18639.25292526021
 20
22038.23701008434
 30
0.0
  0
POINT
  5
883A
330
8811
100
AcDbEntity
  8
DEFPOINTS
  6
Continuous
 62
     0
100
AcDbPoint
 10
18639.25292526021
 20
22919.12957385329
 30
0.0
  0
ENDBLK
  5
881C
330
8811
100
AcDbEntity
  8
0
100
AcDbBlockEnd
  0
BLOCK
  5
8827
330
881D
100
AcDbEntity
  8
0
100
AcDbBlockBegin
  2
*D50
 70
     1
 10
0.0
 20
0.0
 30
0.0
  3
*D50
  1

  0
LINE
  5
883B
330
881D
100
AcDbEntity
  8
1
  6
Continuous
 62
     0
100
AcDbLine
 10
12320.01237750677
 20
8015.649526999986
 30
0.0
 11
13313.53626004404
 21
8015.649526999986
 31
0.0
  0
LINE
  5
883C
330
881D
100
AcDbEntity
  8
1
  6
Continuous
 62
     0
100
AcDbLine
 10
12322.77226004404
 20
21842.82073539581
 30
0.0
 11
13313.53626004404
 21
21842.82073539581
 31
0.0
  0
LINE
  5
883D
330
881D
100
AcDbEntity
  8
1
  6
Continuous
 62
     0
100
AcDbLine
 10
13313.35626004404
 20
8515.649526999986
 30
0.0
 11
13313.35626004404
 21
21342.82073539583
 31
0.0
  0
INSERT
  5
883E
330
881D
100
AcDbEntity
  8
1
  6
Continuous
 62
     0
100
AcDbBlockReference
  2
_OPEN30
 10
13313.35626004404
 20
8015.649526999986
 30
0.0
 41
500.0
 42
500.0
 43
500.0
 50
270.0
  0
INSERT
  5
883F
330
881D
100
AcDbEntity
  8
1
  6
Continuous
 62
     0
100
AcDbBlockReference
  2
_OPEN30
 10
13313.35626004404
 20
21842.82073539581
 30
0.0
 41
500.0
 42
500.0
 43
500.0
 50
90.0
  0
MTEXT
  5
8840
330
881D
100
AcDbEntity
  8
1
  6
Continuous
 62
     0
100
AcDbMText
 10
13063.35626004404
 20
14929.23513119791
 30
0.0
 40
400.0
 41
0.0
 71
     5
 72
     5
  1
\A1;1200
 11
0.0000000000000001
 21
1.0
 31
0.0
 73
     1
 44
1.0
1001
ACAD
1000
MTEXTBEGIN
1070
    73
1070
     1
1070
    44
1040
1.0
1070
    74
1070
     0
1000
MTEXTEND
  0
POINT
  5
8841
330
881D
100
AcDbEntity
  8
DEFPOINTS
  6
Continuous
 62
     0
100
AcDbPoint
 10
12220.01237750677
 20
8015.649526999986
 30
0.0
  0
POINT
  5
8842
330
881D
100
AcDbEntity
  8
DEFPOINTS
  6
Continuous
 62
     0
100
AcDbPoint
 10
12222.77226004404
 20
21842.82073539581
 30
0.0
  0
POINT
  5
8843
330
881D
100
AcDbEntity
  8
DEFPOINTS
  6
Continuous
 62
     0
100
AcDbPoint
 10
13313.35626004404
 20
21842.82073539581
 30
0.0
  0
ENDBLK
  5
8828
330
881D
100
AcDbEntity
  8
0
100
AcDbBlockEnd
  0
BLOCK
  5
884F
330
8845
100
AcDbEntity
  8
0
100
AcDbBlockBegin
  2
*D51
 70
     1
 10
0.0
 20
0.0
 30
0.0
  3
*D51
  1

  0
LINE
  5
8846
330
8845
100
AcDbEntity
  8
1
  6
Continuous
 62
     0
100
AcDbLine
 10
146136.1761952136
 20
110969.2468902583
 30
0.0
 11
146136.1761952136
 21
111757.0641369411
 31
0.0
  0
LINE
  5
8847
330
8845
100
AcDbEntity
  8
1
  6
Continuous
 62
     0
100
AcDbLine
 10
152923.3422673634
 20
110974.400174083
 30
0.0
 11
152923.3422673634
 21
111757.0641369411
 31
0.0
  0
LINE
  5
8848
330
8845
100
AcDbEntity
  8
1
  6
Continuous
 62
     0
100
AcDbLine
 10
146636.1761952136
 20
111756.8841369412
 30
0.0
 11
152423.3422673634
 21
111756.8841369412
 31
0.0
  0
INSERT
  5
8849
330
8845
100
AcDbEntity
  8
1
  6
Continuous
 62
     0
100
AcDbBlockReference
  2
_OPEN30
 10
146136.1761952136
 20
111756.8841369412
 30
0.0
 41
500.0
 42
500.0
 43
500.0
 50
180.0
  0
INSERT
  5
884A
330
8845
100
AcDbEntity
  8
1
  6
Continuous
 62
     0
100
AcDbBlockReference
  2
_OPEN30
 10
152923.3422673634
 20
111756.8841369412
 30
0.0
 41
500.0
 42
500.0
 43
500.0
  0
MTEXT
  5
884B
330
8845
100
AcDbEntity
  8
1
  6
Continuous
 62
     0
100
AcDbMText
 10
149593.1632364231
 20
112006.8841369411
 30
0.0
 40
400.0
 41
0.0
 71
     5
 72
     5
  1
\A1;800
 73
     1
 44
1.0
1001
ACAD
1000
MTEXTBEGIN
1070
    73
1070
     1
1070
    44
1040
1.0
1070
    74
1070
     0
1000
MTEXTEND
  0
POINT
  5
884C
330
8845
100
AcDbEntity
  8
DEFPOINTS
  6
Continuous
 62
     0
100
AcDbPoint
 10
146136.1761952136
 20
110869.2468902584
 30
0.0
  0
POINT
  5
884D
330
8845
100
AcDbEntity
  8
DEFPOINTS
  6
Continuous
 62
     0
100
AcDbPoint
 10
152923.3422673634
 20
110874.400174083
 30
0.0
  0
POINT
  5
884E
330
8845
100
AcDbEntity
  8
DEFPOINTS
  6
Continuous
 62
     0
100
AcDbPoint
 10
152923.3422673634
 20
111756.8841369412
 30
0.0
  0
ENDBLK
  5
8850
330
8845
100
AcDbEntity
  8
0
100
AcDbBlockEnd
  0
BLOCK
  5
885B
330
8851
100
AcDbEntity
  8
0
100
AcDbBlockBegin
  2
*D52
 70
     1
 10
0.0
 20
0.0
 30
0.0
  3
*D52
  1

  0
LINE
  5
8852
330
8851
100
AcDbEntity
  8
1
  6
Continuous
 62
     0
100
AcDbLine
 10
157596.17835488
 20
110986.6845835485
 30
0.0
 11
157596.17835488
 21
111765.0607784421
 31
0.0
  0
LINE
  5
8853
330
8851
100
AcDbEntity
  8
1
  6
Continuous
 62
     0
100
AcDbLine
 10
159291.6489259341
 20
110976.9348840456
 30
0.0
 11
159291.6489259341
 21
111765.0607784421
 31
0.0
  0
LINE
  5
8854
330
8851
100
AcDbEntity
  8
1
  6
Continuous
 62
     0
100
AcDbLine
 10
158096.1783548801
 20
111764.8807784421
 30
0.0
 11
158791.6489259341
 21
111764.8807784421
 31
0.0
  0
INSERT
  5
8855
330
8851
100
AcDbEntity
  8
1
  6
Continuous
 62
     0
100
AcDbBlockReference
  2
_OPEN30
 10
157596.17835488
 20
111764.8807784421
 30
0.0
 41
500.0
 42
500.0
 43
500.0
 50
180.0
  0
INSERT
  5
8856
330
8851
100
AcDbEntity
  8
1
  6
Continuous
 62
     0
100
AcDbBlockReference
  2
_OPEN30
 10
159291.6489259341
 20
111764.8807784421
 30
0.0
 41
500.0
 42
500.0
 43
500.0
  0
MTEXT
  5
8857
330
8851
100
AcDbEntity
  8
1
  6
Continuous
 62
     0
100
AcDbMText
 10
158443.9136404071
 20
112014.8807784421
 30
0.0
 40
400.0
 41
0.0
 71
     5
 72
     5
  1
\A1;200
 73
     1
 44
1.0
1001
ACAD
1000
MTEXTBEGIN
1070
    73
1070
     1
1070
    44
1040
1.0
1070
    74
1070
     0
1000
MTEXTEND
  0
POINT
  5
8858
330
8851
100
AcDbEntity
  8
DEFPOINTS
  6
Continuous
 62
     0
100
AcDbPoint
 10
157596.17835488
 20
110886.6845835485
 30
0.0
  0
POINT
  5
8859
330
8851
100
AcDbEntity
  8
DEFPOINTS
  6
Continuous
 62
     0
100
AcDbPoint
 10
159291.6489259341
 20
110876.9348840456
 30
0.0
  0
POINT
  5
885A
330
8851
100
AcDbEntity
  8
DEFPOINTS
  6
Continuous
 62
     0
100
AcDbPoint
 10
159291.6489259341
 20
111764.8807784421
 30
0.0
  0
ENDBLK
  5
885C
330
8851
100
AcDbEntity
  8
0
100
AcDbBlockEnd
  0
BLOCK
  5
8867
330
885D
100
AcDbEntity
  8
0
100
AcDbBlockBegin
  2
*D53
 70
     1
 10
0.0
 20
0.0
 30
0.0
  3
*D53
  1

  0
LINE
  5
885E
330
885D
100
AcDbEntity
  8
1
  6
Continuous
 62
     0
100
AcDbLine
 10
153298.5667670875
 20
97097.21654861461
 30
0.0
 11
154292.0906496249
 21
97097.21654861461
 31
0.0
  0
LINE
  5
885F
330
885D
100
AcDbEntity
  8
1
  6
Continuous
 62
     0
100
AcDbLine
 10
153301.3266496249
 20
110680.5752984836
 30
0.0
 11
154292.0906496249
 21
110680.5752984836
 31
0.0
  0
LINE
  5
8860
330
885D
100
AcDbEntity
  8
1
  6
Continuous
 62
     0
100
AcDbLine
 10
154291.9106496249
 20
97597.21654861461
 30
0.0
 11
154291.9106496249
 21
110180.5752984836
 31
0.0
  0
INSERT
  5
8861
330
885D
100
AcDbEntity
  8
1
  6
Continuous
 62
     0
100
AcDbBlockReference
  2
_OPEN30
 10
154291.9106496249
 20
97097.21654861461
 30
0.0
 41
500.0
 42
500.0
 43
500.0
 50
270.0
  0
INSERT
  5
8862
330
885D
100
AcDbEntity
  8
1
  6
Continuous
 62
     0
100
AcDbBlockReference
  2
_OPEN30
 10
154291.9106496249
 20
110680.5752984836
 30
0.0
 41
500.0
 42
500.0
 43
500.0
 50
90.0
  0
MTEXT
  5
8863
330
885D
100
AcDbEntity
  8
1
  6
Continuous
 62
     0
100
AcDbMText
 10
154041.9106496248
 20
103888.8959235491
 30
0.0
 40
400.0
 41
0.0
 71
     5
 72
     5
  1
\A1;1600
 11
0.0000000000000001
 21
1.0
 31
0.0
 73
     1
 44
1.0
1001
ACAD
1000
MTEXTBEGIN
1070
    73
1070
     1
1070
    44
1040
1.0
1070
    74
1070
     0
1000
MTEXTEND
  0
POINT
  5
8864
330
885D
100
AcDbEntity
  8
DEFPOINTS
  6
Continuous
 62
     0
100
AcDbPoint
 10
153198.5667670876
 20
97097.21654861461
 30
0.0
  0
POINT
  5
8865
330
885D
100
AcDbEntity
  8
DEFPOINTS
  6
Continuous
 62
     0
100
AcDbPoint
 10
153201.3266496249
 20
110680.5752984836
 30
0.0
  0
POINT
  5
8866
330
885D
100
AcDbEntity
  8
DEFPOINTS
  6
Continuous
 62
     0
100
AcDbPoint
 10
154291.9106496249
 20
110680.5752984836
 30
0.0
  0
ENDBLK
  5
8868
330
885D
100
AcDbEntity
  8
0
100
AcDbBlockEnd
  0
BLOCK
  5
9271
330
9267
100
AcDbEntity
  8
0
100
AcDbBlockBegin
  2
*D54
 70
     1
 10
0.0
 20
0.0
 30
0.0
  3
*D54
  1

  0
LINE
  5
928B
330
9267
100
AcDbEntity
  8
1
  6
Continuous
 62
     0
100
AcDbLine
 10
6237.922518146544
 20
21299.55188265622
 30
0.0
 11
6237.922518146544
 21
22087.36912933899
 31
0.0
  0
LINE
  5
928C
330
9267
100
AcDbEntity
  8
1
  6
Continuous
 62
     0
100
AcDbLine
 10
13025.08859029633
 20
21304.70516648079
 30
0.0
 11
13025.08859029633
 21
22087.36912933899
 31
0.0
  0
LINE
  5
928D
330
9267
100
AcDbEntity
  8
1
  6
Continuous
 62
     0
100
AcDbLine
 10
6737.922518146544
 20
22087.18912933897
 30
0.0
 11
12525.08859029633
 21
22087.18912933897
 31
0.0
  0
INSERT
  5
928E
330
9267
100
AcDbEntity
  8
1
  6
Continuous
 62
     0
100
AcDbBlockReference
  2
_OPEN30
 10
6237.922518146544
 20
22087.18912933897
 30
0.0
 41
500.0
 42
500.0
 43
500.0
 50
180.0
  0
INSERT
  5
928F
330
9267
100
AcDbEntity
  8
1
  6
Continuous
 62
     0
100
AcDbBlockReference
  2
_OPEN30
 10
13025.08859029633
 20
22087.18912933897
 30
0.0
 41
500.0
 42
500.0
 43
500.0
  0
MTEXT
  5
9290
330
9267
100
AcDbEntity
  8
1
  6
Continuous
 62
     0
100
AcDbMText
 10
9694.909559355993
 20
22337.18912933897
 30
0.0
 40
400.0
 41
0.0
 71
     5
 72
     5
  1
\A1;800
 73
     1
 44
1.0
1001
ACAD
1000
MTEXTBEGIN
1070
    73
1070
     1
1070
    44
1040
1.0
1070
    74
1070
     0
1000
MTEXTEND
  0
POINT
  5
9291
330
9267
100
AcDbEntity
  8
DEFPOINTS
  6
Continuous
 62
     0
100
AcDbPoint
 10
6237.922518146544
 20
21199.5518826562
 30
0.0
  0
POINT
  5
9292
330
9267
100
AcDbEntity
  8
DEFPOINTS
  6
Continuous
 62
     0
100
AcDbPoint
 10
13025.08859029633
 20
21204.70516648079
 30
0.0
  0
POINT
  5
9293
330
9267
100
AcDbEntity
  8
DEFPOINTS
  6
Continuous
 62
     0
100
AcDbPoint
 10
13025.08859029633
 20
22087.18912933897
 30
0.0
  0
ENDBLK
  5
9272
330
9267
100
AcDbEntity
  8
0
100
AcDbBlockEnd
  0
BLOCK
  5
927D
330
9273
100
AcDbEntity
  8
0
100
AcDbBlockBegin
  2
*D55
 70
     1
 10
0.0
 20
0.0
 30
0.0
  3
*D55
  1

  0
LINE
  5
9294
330
9273
100
AcDbEntity
  8
1
  6
Continuous
 62
     0
100
AcDbLine
 10
17697.92467781296
 20
21316.98957594629
 30
0.0
 11
17697.92467781296
 21
22095.36577083996
 31
0.0
  0
LINE
  5
9295
330
9273
100
AcDbEntity
  8
1
  6
Continuous
 62
     0
100
AcDbLine
 10
19393.39524886698
 20
21307.23987644346
 30
0.0
 11
19393.39524886698
 21
22095.36577083996
 31
0.0
  0
LINE
  5
9296
330
9273
100
AcDbEntity
  8
1
  6
Continuous
 62
     0
100
AcDbLine
 10
18197.92467781294
 20
22095.18577083996
 30
0.0
 11
18893.39524886699
 21
22095.18577083996
 31
0.0
  0
INSERT
  5
9297
330
9273
100
AcDbEntity
  8
1
  6
Continuous
 62
     0
100
AcDbBlockReference
  2
_OPEN30
 10
17697.92467781296
 20
22095.18577083996
 30
0.0
 41
500.0
 42
500.0
 43
500.0
 50
180.0
  0
INSERT
  5
9298
330
9273
100
AcDbEntity
  8
1
  6
Continuous
 62
     0
100
AcDbBlockReference
  2
_OPEN30
 10
19393.39524886698
 20
22095.18577083996
 30
0.0
 41
500.0
 42
500.0
 43
500.0
  0
MTEXT
  5
9299
330
9273
100
AcDbEntity
  8
1
  6
Continuous
 62
     0
100
AcDbMText
 10
18545.65996333995
 20
22345.18577083996
 30
0.0
 40
400.0
 41
0.0
 71
     5
 72
     5
  1
\A1;200
 73
     1
 44
1.0
1001
ACAD
1000
MTEXTBEGIN
1070
    73
1070
     1
1070
    44
1040
1.0
1070
    74
1070
     0
1000
MTEXTEND
  0
POINT
  5
929A
330
9273
100
AcDbEntity
  8
DEFPOINTS
  6
Continuous
 62
     0
100
AcDbPoint
 10
17697.92467781296
 20
21216.98957594629
 30
0.0
  0
POINT
  5
929B
330
9273
100
AcDbEntity
  8
DEFPOINTS
  6
Continuous
 62
     0
100
AcDbPoint
 10
19393.39524886698
 20
21207.23987644345
 30
0.0
  0
POINT
  5
929C
330
9273
100
AcDbEntity
  8
DEFPOINTS
  6
Continuous
 62
     0
100
AcDbPoint
 10
19393.39524886698
 20
22095.18577083996
 30
0.0
  0
ENDBLK
  5
927E
330
9273
100
AcDbEntity
  8
0
100
AcDbBlockEnd
  0
BLOCK
  5
9289
330
927F
100
AcDbEntity
  8
0
100
AcDbBlockBegin
  2
*D56
 70
     1
 10
0.0
 20
0.0
 30
0.0
  3
*D56
  1

  0
LINE
  5
929D
330
927F
100
AcDbEntity
  8
1
  6
Continuous
 62
     0
100
AcDbLine
 10
13400.31309002049
 20
7427.521541012393
 30
0.0
 11
14393.83697255776
 21
7427.521541012393
 31
0.0
  0
LINE
  5
929E
330
927F
100
AcDbEntity
  8
1
  6
Continuous
 62
     0
100
AcDbLine
 10
13403.07297255779
 20
21010.88029088152
 30
0.0
 11
14393.83697255776
 21
21010.88029088152
 31
0.0
  0
LINE
  5
929F
330
927F
100
AcDbEntity
  8
1
  6
Continuous
 62
     0
100
AcDbLine
 10
14393.65697255776
 20
7927.521541012393
 30
0.0
 11
14393.65697255776
 21
20510.88029088151
 31
0.0
  0
INSERT
  5
92A0
330
927F
100
AcDbEntity
  8
1
  6
Continuous
 62
     0
100
AcDbBlockReference
  2
_OPEN30
 10
14393.65697255776
 20
7427.521541012393
 30
0.0
 41
500.0
 42
500.0
 43
500.0
 50
270.0
  0
INSERT
  5
92A1
330
927F
100
AcDbEntity
  8
1
  6
Continuous
 62
     0
100
AcDbBlockReference
  2
_OPEN30
 10
14393.65697255776
 20
21010.88029088152
 30
0.0
 41
500.0
 42
500.0
 43
500.0
 50
90.0
  0
MTEXT
  5
92A2
330
927F
100
AcDbEntity
  8
1
  6
Continuous
 62
     0
100
AcDbMText
 10
14143.65697255776
 20
14219.20091594696
 30
0.0
 40
400.0
 41
0.0
 71
     5
 72
     5
  1
\A1;1600
 11
0.0000000000000001
 21
1.0
 31
0.0
 73
     1
 44
1.0
1001
ACAD
1000
MTEXTBEGIN
1070
    73
1070
     1
1070
    44
1040
1.0
1070
    74
1070
     0
1000
MTEXTEND
  0
POINT
  5
92A3
330
927F
100
AcDbEntity
  8
DEFPOINTS
  6
Continuous
 62
     0
100
AcDbPoint
 10
13300.3130900205
 20
7427.521541012393
 30
0.0
  0
POINT
  5
92A4
330
927F
100
AcDbEntity
  8
DEFPOINTS
  6
Continuous
 62
     0
100
AcDbPoint
 10
13303.07297255779
 20
21010.88029088152
 30
0.0
  0
POINT
  5
92A5
330
927F
100
AcDbEntity
  8
DEFPOINTS
  6
Continuous
 62
     0
100
AcDbPoint
 10
14393.65697255776
 20
21010.88029088152
 30
0.0
  0
ENDBLK
  5
928A
330
927F
100
AcDbEntity
  8
0
100
AcDbBlockEnd
  0
BLOCK
  5
92B1
330
92A7
100
AcDbEntity
  8
0
100
AcDbBlockBegin
  2
*D57
 70
     1
 10
0.0
 20
0.0
 30
0.0
  3
*D57
  1

  0
LINE
  5
92A8
330
92A7
100
AcDbEntity
  8
1
  6
Continuous
 62
     0
100
AcDbLine
 10
15062.07813085123
 20
82658.47605044516
 30
0.0
 11
15062.07813085123
 21
83912.54186282534
 31
0.0
  0
LINE
  5
92A9
330
92A7
100
AcDbEntity
  8
1
  6
Continuous
 62
     0
100
AcDbLine
 10
21139.58355659339
 20
82663.62933426975
 30
0.0
 11
21139.58355659339
 21
83912.54186282534
 31
0.0
  0
LINE
  5
92AA
330
92A7
100
AcDbEntity
  8
1
  6
Continuous
 62
     0
100
AcDbLine
 10
15562.07813085123
 20
83912.36186282535
 30
0.0
 11
20639.58355659339
 21
83912.36186282535
 31
0.0
  0
INSERT
  5
92AB
330
92A7
100
AcDbEntity
  8
1
  6
Continuous
 62
     0
100
AcDbBlockReference
  2
_OPEN30
 10
15062.07813085123
 20
83912.36186282535
 30
0.0
 41
500.0
 42
500.0
 43
500.0
 50
180.0
  0
INSERT
  5
92AC
330
92A7
100
AcDbEntity
  8
1
  6
Continuous
 62
     0
100
AcDbBlockReference
  2
_OPEN30
 10
21139.58355659339
 20
83912.36186282535
 30
0.0
 41
500.0
 42
500.0
 43
500.0
  0
MTEXT
  5
92AD
330
92A7
100
AcDbEntity
  8
1
  6
Continuous
 62
     0
100
AcDbMText
 10
18100.83084372229
 20
84162.36186282535
 30
0.0
 40
400.0
 41
0.0
 71
     5
 72
     5
  1
\A1;900
 73
     1
 44
1.0
1001
ACAD
1000
MTEXTBEGIN
1070
    73
1070
     1
1070
    44
1040
1.0
1070
    74
1070
     0
1000
MTEXTEND
  0
POINT
  5
92AE
330
92A7
100
AcDbEntity
  8
DEFPOINTS
  6
Continuous
 62
     0
100
AcDbPoint
 10
15062.07813085123
 20
82558.47605044516
 30
0.0
  0
POINT
  5
92AF
330
92A7
100
AcDbEntity
  8
DEFPOINTS
  6
Continuous
 62
     0
100
AcDbPoint
 10
21139.58355659339
 20
82563.62933426975
 30
0.0
  0
POINT
  5
92B0
330
92A7
100
AcDbEntity
  8
DEFPOINTS
  6
Continuous
 62
     0
100
AcDbPoint
 10
21139.58355659339
 20
83912.36186282535
 30
0.0
  0
ENDBLK
  5
92B2
330
92A7
100
AcDbEntity
  8
0
100
AcDbBlockEnd
  0
BLOCK
  5
92BD
330
92B3
100
AcDbEntity
  8
0
100
AcDbBlockBegin
  2
*D58
 70
     1
 10
0.0
 20
0.0
 30
0.0
  3
*D58
  1

  0
LINE
  5
92B4
330
92B3
100
AcDbEntity
  8
1
  6
Continuous
 62
     0
100
AcDbLine
 10
23904.14021262689
 20
82675.91374373525
 30
0.0
 11
23904.14021262689
 21
83912.54186282534
 31
0.0
  0
LINE
  5
92B5
330
92B3
100
AcDbEntity
  8
1
  6
Continuous
 62
     0
100
AcDbLine
 10
26265.96151327982
 20
82666.16404423242
 30
0.0
 11
26265.96151327982
 21
83912.54186282534
 31
0.0
  0
LINE
  5
92B6
330
92B3
100
AcDbEntity
  8
1
  6
Continuous
 62
     0
100
AcDbLine
 10
24404.14021262689
 20
83912.36186282535
 30
0.0
 11
25765.96151327982
 21
83912.36186282535
 31
0.0
  0
INSERT
  5
92B7
330
92B3
100
AcDbEntity
  8
1
  6
Continuous
 62
     0
100
AcDbBlockReference
  2
_OPEN30
 10
23904.14021262689
 20
83912.36186282535
 30
0.0
 41
500.0
 42
500.0
 43
500.0
 50
180.0
  0
INSERT
  5
92B8
330
92B3
100
AcDbEntity
  8
1
  6
Continuous
 62
     0
100
AcDbBlockReference
  2
_OPEN30
 10
26265.96151327982
 20
83912.36186282535
 30
0.0
 41
500.0
 42
500.0
 43
500.0
  0
MTEXT
  5
92B9
330
92B3
100
AcDbEntity
  8
1
  6
Continuous
 62
     0
100
AcDbMText
 10
25085.05086295335
 20
84162.36186282535
 30
0.0
 40
400.0
 41
0.0
 71
     5
 72
     5
  1
\A1;350
 73
     1
 44
1.0
1001
ACAD
1000
MTEXTBEGIN
1070
    73
1070
     1
1070
    44
1040
1.0
1070
    74
1070
     0
1000
MTEXTEND
  0
POINT
  5
92BA
330
92B3
100
AcDbEntity
  8
DEFPOINTS
  6
Continuous
 62
     0
100
AcDbPoint
 10
23904.14021262689
 20
82575.91374373525
 30
0.0
  0
POINT
  5
92BB
330
92B3
100
AcDbEntity
  8
DEFPOINTS
  6
Continuous
 62
     0
100
AcDbPoint
 10
26265.96151327982
 20
82566.1640442324
 30
0.0
  0
POINT
  5
92BC
330
92B3
100
AcDbEntity
  8
DEFPOINTS
  6
Continuous
 62
     0
100
AcDbPoint
 10
26265.96151327982
 20
83912.36186282535
 30
0.0
  0
ENDBLK
  5
92BE
330
92B3
100
AcDbEntity
  8
0
100
AcDbBlockEnd
  0
BLOCK
  5
92C9
330
92BF
100
AcDbEntity
  8
0
100
AcDbBlockBegin
  2
*D59
 70
     1
 10
0.0
 20
0.0
 30
0.0
  3
*D59
  1

  0
LINE
  5
92C0
330
92BF
100
AcDbEntity
  8
1
  6
Continuous
 62
     0
100
AcDbLine
 10
21345.90442619405
 20
69209.71772733888
 30
0.0
 11
22339.42830873131
 21
69209.71772733888
 31
0.0
  0
LINE
  5
92C1
330
92BF
100
AcDbEntity
  8
1
  6
Continuous
 62
     0
100
AcDbLine
 10
21348.66430873135
 20
82369.80445867049
 30
0.0
 11
22339.42830873131
 21
82369.80445867049
 31
0.0
  0
LINE
  5
92C2
330
92BF
100
AcDbEntity
  8
1
  6
Continuous
 62
     0
100
AcDbLine
 10
22339.24830873132
 20
69709.71772733888
 30
0.0
 11
22339.24830873132
 21
81869.80445867048
 31
0.0
  0
INSERT
  5
92C3
330
92BF
100
AcDbEntity
  8
1
  6
Continuous
 62
     0
100
AcDbBlockReference
  2
_OPEN30
 10
22339.24830873132
 20
69209.71772733888
 30
0.0
 41
500.0
 42
500.0
 43
500.0
 50
270.0
  0
INSERT
  5
92C4
330
92BF
100
AcDbEntity
  8
1
  6
Continuous
 62
     0
100
AcDbBlockReference
  2
_OPEN30
 10
22339.24830873132
 20
82369.80445867049
 30
0.0
 41
500.0
 42
500.0
 43
500.0
 50
90.0
  0
MTEXT
  5
92C5
330
92BF
100
AcDbEntity
  8
1
  6
Continuous
 62
     0
100
AcDbMText
 10
22089.24830873129
 20
75789.76109300469
 30
0.0
 40
400.0
 41
0.0
 71
     5
 72
     5
  1
\A1;1950
 11
0.0000000000000001
 21
1.0
 31
0.0
 73
     1
 44
1.0
1001
ACAD
1000
MTEXTBEGIN
1070
    73
1070
     1
1070
    44
1040
1.0
1070
    74
1070
     0
1000
MTEXTEND
  0
POINT
  5
92C6
330
92BF
100
AcDbEntity
  8
DEFPOINTS
  6
Continuous
 62
     0
100
AcDbPoint
 10
21245.90442619405
 20
69209.71772733888
 30
0.0
  0
POINT
  5
92C7
330
92BF
100
AcDbEntity
  8
DEFPOINTS
  6
Continuous
 62
     0
100
AcDbPoint
 10
21248.66430873133
 20
82369.80445867049
 30
0.0
  0
POINT
  5
92C8
330
92BF
100
AcDbEntity
  8
DEFPOINTS
  6
Continuous
 62
     0
100
AcDbPoint
 10
22339.24830873132
 20
82369.80445867049
 30
0.0
  0
ENDBLK
  5
92CA
330
92BF
100
AcDbEntity
  8
0
100
AcDbBlockEnd
  0
BLOCK
  5
92D5
330
92CB
100
AcDbEntity
  8
0
100
AcDbBlockBegin
  2
*D60
 70
     1
 10
0.0
 20
0.0
 30
0.0
  3
*D60
  1

  0
LINE
  5
92CC
330
92CB
100
AcDbEntity
  8
1
  6
Continuous
 62
     0
100
AcDbLine
 10
24143.20560976642
 20
82675.91374373525
 30
0.0
 11
24143.20560976642
 21
83065.28184118208
 31
0.0
  0
LINE
  5
92CD
330
92CB
100
AcDbEntity
  8
1
  6
Continuous
 62
     0
100
AcDbLine
 10
26265.96151327982
 20
82666.61484742735
 30
0.0
 11
26265.96151327982
 21
83065.28184118208
 31
0.0
  0
LINE
  5
92CE
330
92CB
100
AcDbEntity
  8
1
  6
Continuous
 62
     0
100
AcDbLine
 10
24643.2056097664
 20
83065.10184118208
 30
0.0
 11
25765.96151327982
 21
83065.10184118208
 31
0.0
  0
INSERT
  5
92CF
330
92CB
100
AcDbEntity
  8
1
  6
Continuous
 62
     0
100
AcDbBlockReference
  2
_OPEN30
 10
24143.20560976642
 20
83065.10184118208
 30
0.0
 41
500.0
 42
500.0
 43
500.0
 50
180.0
  0
INSERT
  5
92D0
330
92CB
100
AcDbEntity
  8
1
  6
Continuous
 62
     0
100
AcDbBlockReference
  2
_OPEN30
 10
26265.96151327982
 20
83065.10184118208
 30
0.0
 41
500.0
 42
500.0
 43
500.0
  0
MTEXT
  5
92D1
330
92CB
100
AcDbEntity
  8
1
  6
Continuous
 62
     0
100
AcDbMText
 10
25204.58356152312
 20
83315.10184118206
 30
0.0
 40
400.0
 41
0.0
 71
     5
 72
     5
  1
\A1;315
 73
     1
 44
1.0
1001
ACAD
1000
MTEXTBEGIN
1070
    73
1070
     1
1070
    44
1040
1.0
1070
    74
1070
     0
1000
MTEXTEND
  0
POINT
  5
92D2
330
92CB
100
AcDbEntity
  8
DEFPOINTS
  6
Continuous
 62
     0
100
AcDbPoint
 10
24143.20560976642
 20
82575.91374373525
 30
0.0
  0
POINT
  5
92D3
330
92CB
100
AcDbEntity
  8
DEFPOINTS
  6
Continuous
 62
     0
100
AcDbPoint
 10
26265.96151327982
 20
82566.61484742735
 30
0.0
  0
POINT
  5
92D4
330
92CB
100
AcDbEntity
  8
DEFPOINTS
  6
Continuous
 62
     0
100
AcDbPoint
 10
26265.96151327982
 20
83065.10184118208
 30
0.0
  0
ENDBLK
  5
92D6
330
92CB
100
AcDbEntity
  8
0
100
AcDbBlockEnd
  0
BLOCK
  5
9F67
330
9F5D
100
AcDbEntity
  8
0
100
AcDbBlockBegin
  2
*D61
 70
     1
 10
0.0
 20
0.0
 30
0.0
  3
*D61
  1

  0
LINE
  5
9FB4
330
9F5D
100
AcDbEntity
  8
1
  6
Continuous
 62
     0
100
AcDbLine
 10
6897.092690740217
 20
21299.45522357087
 30
0.0
 11
6897.092690740217
 21
22553.52103595103
 31
0.0
  0
LINE
  5
9FB5
330
9F5D
100
AcDbEntity
  8
1
  6
Continuous
 62
     0
100
AcDbLine
 10
12974.59811648235
 20
21304.60850739543
 30
0.0
 11
12974.59811648235
 21
22553.52103595103
 31
0.0
  0
LINE
  5
9FB6
330
9F5D
100
AcDbEntity
  8
1
  6
Continuous
 62
     0
100
AcDbLine
 10
7397.092690740217
 20
22553.34103595104
 30
0.0
 11
12474.59811648236
 21
22553.34103595104
 31
0.0
  0
INSERT
  5
9FB7
330
9F5D
100
AcDbEntity
  8
1
  6
Continuous
 62
     0
100
AcDbBlockReference
  2
_OPEN30
 10
6897.092690740217
 20
22553.34103595104
 30
0.0
 41
500.0
 42
500.0
 43
500.0
 50
180.0
  0
INSERT
  5
9FB8
330
9F5D
100
AcDbEntity
  8
1
  6
Continuous
 62
     0
100
AcDbBlockReference
  2
_OPEN30
 10
12974.59811648235
 20
22553.34103595104
 30
0.0
 41
500.0
 42
500.0
 43
500.0
  0
MTEXT
  5
9FB9
330
9F5D
100
AcDbEntity
  8
1
  6
Continuous
 62
     0
100
AcDbMText
 10
9935.845403611295
 20
22803.34103595104
 30
0.0
 40
400.0
 41
0.0
 71
     5
 72
     5
  1
\A1;900
 73
     1
 44
1.0
  0
POINT
  5
9FBA
330
9F5D
100
AcDbEntity
  8
DEFPOINTS
  6
Continuous
 62
     0
100
AcDbPoint
 10
6897.092690740217
 20
21199.45522357085
 30
0.0
  0
POINT
  5
9FBB
330
9F5D
100
AcDbEntity
  8
DEFPOINTS
  6
Continuous
 62
     0
100
AcDbPoint
 10
12974.59811648235
 20
21204.60850739543
 30
0.0
  0
POINT
  5
9FBC
330
9F5D
100
AcDbEntity
  8
DEFPOINTS
  6
Continuous
 62
     0
100
AcDbPoint
 10
12974.59811648235
 20
22553.34103595104
 30
0.0
  0
ENDBLK
  5
9F68
330
9F5D
100
AcDbEntity
  8
0
100
AcDbBlockEnd
  0
BLOCK
  5
9F73
330
9F69
100
AcDbEntity
  8
0
100
AcDbBlockBegin
  2
*D62
 70
     1
 10
0.0
 20
0.0
 30
0.0
  3
*D62
  1

  0
LINE
  5
9FBD
330
9F69
100
AcDbEntity
  8
1
  6
Continuous
 62
     0
100
AcDbLine
 10
15739.15477251586
 20
21316.89291686094
 30
0.0
 11
15739.15477251586
 21
22553.52103595103
 31
0.0
  0
LINE
  5
9FBE
330
9F69
100
AcDbEntity
  8
1
  6
Continuous
 62
     0
100
AcDbLine
 10
18100.9760731688
 20
21307.14321735811
 30
0.0
 11
18100.9760731688
 21
22553.52103595103
 31
0.0
  0
LINE
  5
9FBF
330
9F69
100
AcDbEntity
  8
1
  6
Continuous
 62
     0
100
AcDbLine
 10
16239.15477251586
 20
22553.34103595104
 30
0.0
 11
17600.9760731688
 21
22553.34103595104
 31
0.0
  0
INSERT
  5
9FC0
330
9F69
100
AcDbEntity
  8
1
  6
Continuous
 62
     0
100
AcDbBlockReference
  2
_OPEN30
 10
15739.15477251586
 20
22553.34103595104
 30
0.0
 41
500.0
 42
500.0
 43
500.0
 50
180.0
  0
INSERT
  5
9FC1
330
9F69
100
AcDbEntity
  8
1
  6
Continuous
 62
     0
100
AcDbBlockReference
  2
_OPEN30
 10
18100.9760731688
 20
22553.34103595104
 30
0.0
 41
500.0
 42
500.0
 43
500.0
  0
MTEXT
  5
9FC2
330
9F69
100
AcDbEntity
  8
1
  6
Continuous
 62
     0
100
AcDbMText
 10
16920.06542284232
 20
22803.34103595104
 30
0.0
 40
400.0
 41
0.0
 71
     5
 72
     5
  1
\A1;350
 73
     1
 44
1.0
  0
POINT
  5
9FC3
330
9F69
100
AcDbEntity
  8
DEFPOINTS
  6
Continuous
 62
     0
100
AcDbPoint
 10
15739.15477251586
 20
21216.89291686091
 30
0.0
  0
POINT
  5
9FC4
330
9F69
100
AcDbEntity
  8
DEFPOINTS
  6
Continuous
 62
     0
100
AcDbPoint
 10
18100.9760731688
 20
21207.1432173581
 30
0.0
  0
POINT
  5
9FC5
330
9F69
100
AcDbEntity
  8
DEFPOINTS
  6
Continuous
 62
     0
100
AcDbPoint
 10
18100.9760731688
 20
22553.34103595104
 30
0.0
  0
ENDBLK
  5
9F74
330
9F69
100
AcDbEntity
  8
0
100
AcDbBlockEnd
  0
BLOCK
  5
9F7F
330
9F75
100
AcDbEntity
  8
0
100
AcDbBlockBegin
  2
*D63
 70
     1
 10
0.0
 20
0.0
 30
0.0
  3
*D63
  1

  0
LINE
  5
9FC6
330
9F75
100
AcDbEntity
  8
1
  6
Continuous
 62
     0
100
AcDbLine
 10
13180.91898608303
 20
7850.696900464594
 30
0.0
 11
14174.4428686203
 21
7850.696900464594
 31
0.0
  0
LINE
  5
9FC7
330
9F75
100
AcDbEntity
  8
1
  6
Continuous
 62
     0
100
AcDbLine
 10
13183.67886862032
 20
21010.78363179617
 30
0.0
 11
14174.4428686203
 21
21010.78363179617
 31
0.0
  0
LINE
  5
9FC8
330
9F75
100
AcDbEntity
  8
1
  6
Continuous
 62
     0
100
AcDbLine
 10
14174.26286862029
 20
8350.696900464594
 30
0.0
 11
14174.2628686203
 21
20510.78363179617
 31
0.0
  0
INSERT
  5
9FC9
330
9F75
100
AcDbEntity
  8
1
  6
Continuous
 62
     0
100
AcDbBlockReference
  2
_OPEN30
 10
14174.26286862029
 20
7850.696900464594
 30
0.0
 41
500.0
 42
500.0
 43
500.0
 50
270.0
  0
INSERT
  5
9FCA
330
9F75
100
AcDbEntity
  8
1
  6
Continuous
 62
     0
100
AcDbBlockReference
  2
_OPEN30
 10
14174.2628686203
 20
21010.78363179617
 30
0.0
 41
500.0
 42
500.0
 43
500.0
 50
90.0
  0
MTEXT
  5
9FCB
330
9F75
100
AcDbEntity
  8
1
  6
Continuous
 62
     0
100
AcDbMText
 10
13924.26286862028
 20
14430.74026613039
 30
0.0
 40
400.0
 41
0.0
 71
     5
 72
     5
  1
\A1;1950
 11
0.0000000000000001
 21
1.0
 31
0.0
 73
     1
 44
1.0
  0
POINT
  5
9FCC
330
9F75
100
AcDbEntity
  8
DEFPOINTS
  6
Continuous
 62
     0
100
AcDbPoint
 10
13080.918986083
 20
7850.696900464594
 30
0.0
  0
POINT
  5
9FCD
330
9F75
100
AcDbEntity
  8
DEFPOINTS
  6
Continuous
 62
     0
100
AcDbPoint
 10
13083.67886862032
 20
21010.78363179617
 30
0.0
  0
POINT
  5
9FCE
330
9F75
100
AcDbEntity
  8
DEFPOINTS
  6
Continuous
 62
     0
100
AcDbPoint
 10
14174.2628686203
 20
21010.78363179617
 30
0.0
  0
ENDBLK
  5
9F80
330
9F75
100
AcDbEntity
  8
0
100
AcDbBlockEnd
  0
BLOCK
  5
9F8B
330
9F81
100
AcDbEntity
  8
0
100
AcDbBlockBegin
  2
*D64
 70
     1
 10
0.0
 20
0.0
 30
0.0
  3
*D64
  1

  0
LINE
  5
9FCF
330
9F81
100
AcDbEntity
  8
1
  6
Continuous
 62
     0
100
AcDbLine
 10
15978.22016965539
 20
21316.89291686094
 30
0.0
 11
15978.22016965539
 21
21706.26101430777
 31
0.0
  0
LINE
  5
9FD0
330
9F81
100
AcDbEntity
  8
1
  6
Continuous
 62
     0
100
AcDbLine
 10
18100.9760731688
 20
21307.59402055304
 30
0.0
 11
18100.9760731688
 21
21706.26101430777
 31
0.0
  0
LINE
  5
9FD1
330
9F81
100
AcDbEntity
  8
1
  6
Continuous
 62
     0
100
AcDbLine
 10
16478.22016965539
 20
21706.08101430777
 30
0.0
 11
17600.9760731688
 21
21706.08101430777
 31
0.0
  0
INSERT
  5
9FD2
330
9F81
100
AcDbEntity
  8
1
  6
Continuous
 62
     0
100
AcDbBlockReference
  2
_OPEN30
 10
15978.22016965539
 20
21706.08101430777
 30
0.0
 41
500.0
 42
500.0
 43
500.0
 50
180.0
  0
INSERT
  5
9FD3
330
9F81
100
AcDbEntity
  8
1
  6
Continuous
 62
     0
100
AcDbBlockReference
  2
_OPEN30
 10
18100.9760731688
 20
21706.08101430777
 30
0.0
 41
500.0
 42
500.0
 43
500.0
  0
MTEXT
  5
9FD4
330
9F81
100
AcDbEntity
  8
1
  6
Continuous
 62
     0
100
AcDbMText
 10
17039.59812141209
 20
21956.08101430777
 30
0.0
 40
400.0
 41
0.0
 71
     5
 72
     5
  1
\A1;315
 73
     1
 44
1.0
  0
POINT
  5
9FD5
330
9F81
100
AcDbEntity
  8
DEFPOINTS
  6
Continuous
 62
     0
100
AcDbPoint
 10
15978.22016965539
 20
21216.89291686091
 30
0.0
  0
POINT
  5
9FD6
330
9F81
100
AcDbEntity
  8
DEFPOINTS
  6
Continuous
 62
     0
100
AcDbPoint
 10
18100.9760731688
 20
21207.59402055305
 30
0.0
  0
POINT
  5
9FD7
330
9F81
100
AcDbEntity
  8
DEFPOINTS
  6
Continuous
 62
     0
100
AcDbPoint
 10
18100.9760731688
 20
21706.08101430777
 30
0.0
  0
ENDBLK
  5
9F8C
330
9F81
100
AcDbEntity
  8
0
100
AcDbBlockEnd
  0
BLOCK
  5
9FEB
330
9FE1
100
AcDbEntity
  8
0
100
AcDbBlockBegin
  2
*D65
 70
     1
 10
0.0
 20
0.0
 30
0.0
  3
*D65
  1

  0
LINE
  5
9FE2
330
9FE1
100
AcDbEntity
  8
1
  6
Continuous
 62
     0
370
    -2
100
AcDbLine
 10
40496.5503771974
 20
80997.29639803399
 30
0.0
 11
40496.5503771974
 21
81802.21415654413
 31
0.0
  0
LINE
  5
9FE3
330
9FE1
100
AcDbEntity
  8
1
  6
Continuous
 62
     0
370
    -2
100
AcDbLine
 10
47901.51537651499
 20
80997.29639803399
 30
0.0
 11
47901.51537651499
 21
81802.21415654413
 31
0.0
  0
LINE
  5
9FE4
330
9FE1
100
AcDbEntity
  8
1
  6
Continuous
 62
     0
370
    -2
100
AcDbLine
 10
40996.5503771974
 20
81802.03415654414
 30
0.0
 11
47401.51537651499
 21
81802.03415654414
 31
0.0
  0
INSERT
  5
9FE5
330
9FE1
100
AcDbEntity
  8
1
  6
Continuous
 62
     0
370
    -2
100
AcDbBlockReference
  2
_OPEN30
 10
40496.5503771974
 20
81802.03415654414
 30
0.0
 41
500.0
 42
500.0
 43
500.0
 50
180.0
  0
INSERT
  5
9FE6
330
9FE1
100
AcDbEntity
  8
1
  6
Continuous
 62
     0
370
    -2
100
AcDbBlockReference
  2
_OPEN30
 10
47901.51537651499
 20
81802.03415654414
 30
0.0
 41
500.0
 42
500.0
 43
500.0
  0
MTEXT
  5
9FE7
330
9FE1
100
AcDbEntity
  8
1
  6
Continuous
 62
     0
370
    13
100
AcDbMText
 10
44199.03287685619
 20
82052.03415654413
 30
0.0
 40
400.0
 41
0.0
 71
     5
 72
     1
  1
\A1;400
 73
     1
 44
1.0
  0
POINT
  5
9FE8
330
9FE1
100
AcDbEntity
  8
DEFPOINTS
  6
Continuous
 62
     0
100
AcDbPoint
 10
40496.5503771974
 20
80897.29639803397
 30
0.0
  0
POINT
  5
9FE9
330
9FE1
100
AcDbEntity
  8
DEFPOINTS
  6
Continuous
 62
     0
100
AcDbPoint
 10
47901.51537651499
 20
80897.29639803397
 30
0.0
  0
POINT
  5
9FEA
330
9FE1
100
AcDbEntity
  8
DEFPOINTS
  6
Continuous
 62
     0
100
AcDbPoint
 10
47901.51537651499
 20
81802.03415654414
 30
0.0
  0
ENDBLK
  5
9FEC
330
9FE1
100
AcDbEntity
  8
0
100
AcDbBlockEnd
  0
BLOCK
  5
9FF7
330
9FED
100
AcDbEntity
  8
0
100
AcDbBlockBegin
  2
*D66
 70
     1
 10
0.0
 20
0.0
 30
0.0
  3
*D66
  1

  0
LINE
  5
9FEE
330
9FED
100
AcDbEntity
  8
1
  6
Continuous
 62
     0
370
    -2
100
AcDbLine
 10
48002.2608211974
 20
80897.29639803397
 30
0.0
 11
48922.63863984635
 21
80897.29639803397
 31
0.0
  0
LINE
  5
9FEF
330
9FED
100
AcDbEntity
  8
1
  6
Continuous
 62
     0
370
    -2
100
AcDbLine
 10
48002.2608211974
 20
71640.15793803399
 30
0.0
 11
48922.63863984635
 21
71640.15793803399
 31
0.0
  0
LINE
  5
9FF0
330
9FED
100
AcDbEntity
  8
1
  6
Continuous
 62
     0
370
    -2
100
AcDbLine
 10
48922.45863984634
 20
80397.296398034
 30
0.0
 11
48922.45863984634
 21
72140.15793803397
 31
0.0
  0
INSERT
  5
9FF1
330
9FED
100
AcDbEntity
  8
1
  6
Continuous
 62
     0
370
    -2
100
AcDbBlockReference
  2
_OPEN30
 10
48922.45863984634
 20
80897.29639803397
 30
0.0
 41
500.0
 42
500.0
 43
500.0
 50
90.0
  0
INSERT
  5
9FF2
330
9FED
100
AcDbEntity
  8
1
  6
Continuous
 62
     0
370
    -2
100
AcDbBlockReference
  2
_OPEN30
 10
48922.45863984634
 20
71640.15793803399
 30
0.0
 41
500.0
 42
500.0
 43
500.0
 50
270.0
  0
MTEXT
  5
9FF3
330
9FED
100
AcDbEntity
  8
1
  6
Continuous
 62
     0
370
    13
100
AcDbMText
 10
48672.45863984635
 20
76268.72716803402
 30
0.0
 40
400.0
 41
0.0
 71
     5
 72
     1
  1
\A1;500
 11
0.0000000000000001
 21
1.0
 31
0.0
 73
     1
 44
1.0
  0
POINT
  5
9FF4
330
9FED
100
AcDbEntity
  8
DEFPOINTS
  6
Continuous
 62
     0
100
AcDbPoint
 10
47902.26082119739
 20
80897.29639803397
 30
0.0
  0
POINT
  5
9FF5
330
9FED
100
AcDbEntity
  8
DEFPOINTS
  6
Continuous
 62
     0
100
AcDbPoint
 10
47902.26082119739
 20
71640.15793803399
 30
0.0
  0
POINT
  5
9FF6
330
9FED
100
AcDbEntity
  8
DEFPOINTS
  6
Continuous
 62
     0
100
AcDbPoint
 10
48922.45863984634
 20
71640.15793803399
 30
0.0
  0
ENDBLK
  5
9FF8
330
9FED
100
AcDbEntity
  8
0
100
AcDbBlockEnd
  0
BLOCK
  5
A003
330
9FF9
100
AcDbEntity
  8
0
100
AcDbBlockBegin
  2
*D67
 70
     1
 10
0.0
 20
0.0
 30
0.0
  3
*D67
  1

  0
LINE
  5
9FFA
330
9FF9
100
AcDbEntity
  8
1
  6
Continuous
 62
     0
370
    -2
100
AcDbLine
 10
51481.56326499456
 20
80932.69377348605
 30
0.0
 11
51481.56326499456
 21
81774.44275574417
 31
0.0
  0
LINE
  5
9FFB
330
9FF9
100
AcDbEntity
  8
1
  6
Continuous
 62
     0
370
    -2
100
AcDbLine
 10
53704.38006531498
 20
80969.52499723402
 30
0.0
 11
53704.38006531498
 21
81774.44275574417
 31
0.0
  0
LINE
  5
9FFC
330
9FF9
100
AcDbEntity
  8
1
  6
Continuous
 62
     0
370
    -2
100
AcDbLine
 10
51981.56326499456
 20
81774.26275574417
 30
0.0
 11
53204.380065315
 21
81774.26275574417
 31
0.0
  0
INSERT
  5
9FFD
330
9FF9
100
AcDbEntity
  8
1
  6
Continuous
 62
     0
370
    -2
100
AcDbBlockReference
  2
_OPEN30
 10
51481.56326499456
 20
81774.26275574417
 30
0.0
 41
500.0
 42
500.0
 43
500.0
 50
180.0
  0
INSERT
  5
9FFE
330
9FF9
100
AcDbEntity
  8
1
  6
Continuous
 62
     0
370
    -2
100
AcDbBlockReference
  2
_OPEN30
 10
53704.38006531498
 20
81774.26275574417
 30
0.0
 41
500.0
 42
500.0
 43
500.0
  0
MTEXT
  5
9FFF
330
9FF9
100
AcDbEntity
  8
1
  6
Continuous
 62
     0
370
    13
100
AcDbMText
 10
52592.97166515477
 20
82024.26275574415
 30
0.0
 40
400.0
 41
0.0
 71
     5
 72
     1
  1
\A1;120
 73
     1
 44
1.0
  0
POINT
  5
A000
330
9FF9
100
AcDbEntity
  8
DEFPOINTS
  6
Continuous
 62
     0
100
AcDbPoint
 10
51481.56326499456
 20
80832.69377348605
 30
0.0
  0
POINT
  5
A001
330
9FF9
100
AcDbEntity
  8
DEFPOINTS
  6
Continuous
 62
     0
100
AcDbPoint
 10
53704.38006531498
 20
80869.52499723402
 30
0.0
  0
POINT
  5
A002
330
9FF9
100
AcDbEntity
  8
DEFPOINTS
  6
Continuous
 62
     0
100
AcDbPoint
 10
53704.38006531498
 20
81774.26275574417
 30
0.0
  0
ENDBLK
  5
A004
330
9FF9
100
AcDbEntity
  8
0
100
AcDbBlockEnd
  0
BLOCK
  5
E6E9
330
E6DF
100
AcDbEntity
  8
0
100
AcDbBlockBegin
  2
*D68
 70
     1
 10
0.0
 20
0.0
 30
0.0
  3
*D68
  1

  0
LINE
  5
E703
330
E6DF
100
AcDbEntity
  8
1
  6
Continuous
 62
     0
370
    -2
100
AcDbLine
 10
5933.871017856858
 20
19627.51142648304
 30
0.0
 11
5933.871017856858
 21
20432.42918499318
 31
0.0
  0
LINE
  5
E704
330
E6DF
100
AcDbEntity
  8
1
  6
Continuous
 62
     0
370
    -2
100
AcDbLine
 10
13338.83601717444
 20
19627.51142648304
 30
0.0
 11
13338.83601717444
 21
20432.42918499318
 31
0.0
  0
LINE
  5
E705
330
E6DF
100
AcDbEntity
  8
1
  6
Continuous
 62
     0
370
    -2
100
AcDbLine
 10
6433.871017856858
 20
20432.24918499316
 30
0.0
 11
12838.83601717444
 21
20432.24918499316
 31
0.0
  0
INSERT
  5
E706
330
E6DF
100
AcDbEntity
  8
1
  6
Continuous
 62
     0
370
    -2
100
AcDbBlockReference
  2
_OPEN30
 10
5933.871017856858
 20
20432.24918499316
 30
0.0
 41
500.0
 42
500.0
 43
500.0
 50
180.0
  0
INSERT
  5
E707
330
E6DF
100
AcDbEntity
  8
1
  6
Continuous
 62
     0
370
    -2
100
AcDbBlockReference
  2
_OPEN30
 10
13338.83601717444
 20
20432.24918499316
 30
0.0
 41
500.0
 42
500.0
 43
500.0
  0
MTEXT
  5
E708
330
E6DF
100
AcDbEntity
  8
1
  6
Continuous
 62
     0
370
    13
100
AcDbMText
 10
9636.353517515653
 20
20682.24918499318
 30
0.0
 40
400.0
 41
0.0
 71
     5
 72
     1
  1
\A1;400
 73
     1
 44
1.0
  0
POINT
  5
E709
330
E6DF
100
AcDbEntity
  8
DEFPOINTS
  6
Continuous
 62
     0
100
AcDbPoint
 10
5933.871017856858
 20
19527.51142648304
 30
0.0
  0
POINT
  5
E70A
330
E6DF
100
AcDbEntity
  8
DEFPOINTS
  6
Continuous
 62
     0
100
AcDbPoint
 10
13338.83601717444
 20
19527.51142648304
 30
0.0
  0
POINT
  5
E70B
330
E6DF
100
AcDbEntity
  8
DEFPOINTS
  6
Continuous
 62
     0
100
AcDbPoint
 10
13338.83601717444
 20
20432.24918499316
 30
0.0
  0
ENDBLK
  5
E6EA
330
E6DF
100
AcDbEntity
  8
0
100
AcDbBlockEnd
  0
BLOCK
  5
E6F5
330
E6EB
100
AcDbEntity
  8
0
100
AcDbBlockBegin
  2
*D69
 70
     1
 10
0.0
 20
0.0
 30
0.0
  3
*D69
  1

  0
LINE
  5
E70C
330
E6EB
100
AcDbEntity
  8
1
  6
Continuous
 62
     0
370
    -2
100
AcDbLine
 10
13439.58146185685
 20
19527.51142648304
 30
0.0
 11
14359.95928050581
 21
19527.51142648304
 31
0.0
  0
LINE
  5
E70D
330
E6EB
100
AcDbEntity
  8
1
  6
Continuous
 62
     0
370
    -2
100
AcDbLine
 10
13439.58146185685
 20
10270.37296648303
 30
0.0
 11
14359.95928050581
 21
10270.37296648303
 31
0.0
  0
LINE
  5
E70E
330
E6EB
100
AcDbEntity
  8
1
  6
Continuous
 62
     0
370
    -2
100
AcDbLine
 10
14359.77928050581
 20
19027.51142648304
 30
0.0
 11
14359.77928050581
 21
10770.37296648303
 31
0.0
  0
INSERT
  5
E70F
330
E6EB
100
AcDbEntity
  8
1
  6
Continuous
 62
     0
370
    -2
100
AcDbBlockReference
  2
_OPEN30
 10
14359.77928050581
 20
19527.51142648304
 30
0.0
 41
500.0
 42
500.0
 43
500.0
 50
90.0
  0
INSERT
  5
E710
330
E6EB
100
AcDbEntity
  8
1
  6
Continuous
 62
     0
370
    -2
100
AcDbBlockReference
  2
_OPEN30
 10
14359.77928050581
 20
10270.37296648303
 30
0.0
 41
500.0
 42
500.0
 43
500.0
 50
270.0
  0
MTEXT
  5
E711
330
E6EB
100
AcDbEntity
  8
1
  6
Continuous
 62
     0
370
    13
100
AcDbMText
 10
14109.77928050581
 20
14898.94219648304
 30
0.0
 40
400.0
 41
0.0
 71
     5
 72
     1
  1
\A1;500
 11
0.0000000000000001
 21
1.0
 31
0.0
 73
     1
 44
1.0
  0
POINT
  5
E712
330
E6EB
100
AcDbEntity
  8
DEFPOINTS
  6
Continuous
 62
     0
100
AcDbPoint
 10
13339.58146185685
 20
19527.51142648304
 30
0.0
  0
POINT
  5
E713
330
E6EB
100
AcDbEntity
  8
DEFPOINTS
  6
Continuous
 62
     0
100
AcDbPoint
 10
13339.58146185685
 20
10270.37296648303
 30
0.0
  0
POINT
  5
E714
330
E6EB
100
AcDbEntity
  8
DEFPOINTS
  6
Continuous
 62
     0
100
AcDbPoint
 10
14359.77928050581
 20
10270.37296648303
 30
0.0
  0
ENDBLK
  5
E6F6
330
E6EB
100
AcDbEntity
  8
0
100
AcDbBlockEnd
  0
BLOCK
  5
E701
330
E6F7
100
AcDbEntity
  8
0
100
AcDbBlockBegin
  2
*D70
 70
     1
 10
0.0
 20
0.0
 30
0.0
  3
*D70
  1

  0
LINE
  5
E715
330
E6F7
100
AcDbEntity
  8
1
  6
Continuous
 62
     0
370
    -2
100
AcDbLine
 10
16918.88390565402
 20
19562.9088019351
 30
0.0
 11
16918.88390565402
 21
20404.6577841932
 31
0.0
  0
LINE
  5
E716
330
E6F7
100
AcDbEntity
  8
1
  6
Continuous
 62
     0
370
    -2
100
AcDbLine
 10
19141.70070597445
 20
19599.74002568307
 30
0.0
 11
19141.70070597445
 21
20404.6577841932
 31
0.0
  0
LINE
  5
E717
330
E6F7
100
AcDbEntity
  8
1
  6
Continuous
 62
     0
370
    -2
100
AcDbLine
 10
17418.88390565402
 20
20404.4777841932
 30
0.0
 11
18641.70070597445
 21
20404.4777841932
 31
0.0
  0
INSERT
  5
E718
330
E6F7
100
AcDbEntity
  8
1
  6
Continuous
 62
     0
370
    -2
100
AcDbBlockReference
  2
_OPEN30
 10
16918.88390565402
 20
20404.4777841932
 30
0.0
 41
500.0
 42
500.0
 43
500.0
 50
180.0
  0
INSERT
  5
E719
330
E6F7
100
AcDbEntity
  8
1
  6
Continuous
 62
     0
370
    -2
100
AcDbBlockReference
  2
_OPEN30
 10
19141.70070597445
 20
20404.4777841932
 30
0.0
 41
500.0
 42
500.0
 43
500.0
  0
MTEXT
  5
E71A
330
E6F7
100
AcDbEntity
  8
1
  6
Continuous
 62
     0
370
    13
100
AcDbMText
 10
18030.29230581423
 20
20654.4777841932
 30
0.0
 40
400.0
 41
0.0
 71
     5
 72
     1
  1
\A1;120
 73
     1
 44
1.0
  0
POINT
  5
E71B
330
E6F7
100
AcDbEntity
  8
DEFPOINTS
  6
Continuous
 62
     0
100
AcDbPoint
 10
16918.88390565402
 20
19462.9088019351
 30
0.0
  0
POINT
  5
E71C
330
E6F7
100
AcDbEntity
  8
DEFPOINTS
  6
Continuous
 62
     0
100
AcDbPoint
 10
19141.70070597445
 20
19499.74002568307
 30
0.0
  0
POINT
  5
E71D
330
E6F7
100
AcDbEntity
  8
DEFPOINTS
  6
Continuous
 62
     0
100
AcDbPoint
 10
19141.70070597445
 20
20404.4777841932
 30
0.0
  0
ENDBLK
  5
E702
330
E6F7
100
AcDbEntity
  8
0
100
AcDbBlockEnd
  0
BLOCK
  5
E730
330
E726
100
AcDbEntity
  8
0
100
AcDbBlockBegin
  2
*D71
 70
     1
 10
0.0
 20
0.0
 30
0.0
  3
*D71
  1

  0
LINE
  5
E727
330
E726
100
AcDbEntity
  8
1
  6
Continuous
 62
     0
370
    -2
100
AcDbLine
 10
66151.1463656001
 20
80997.29639803399
 30
0.0
 11
66151.1463656001
 21
81802.21415654413
 31
0.0
  0
LINE
  5
E728
330
E726
100
AcDbEntity
  8
1
  6
Continuous
 62
     0
370
    -2
100
AcDbLine
 10
75408.28495520008
 20
80997.29639803399
 30
0.0
 11
75408.28495520008
 21
81802.21415654413
 31
0.0
  0
LINE
  5
E729
330
E726
100
AcDbEntity
  8
1
  6
Continuous
 62
     0
370
    -2
100
AcDbLine
 10
66651.1463656001
 20
81802.03415654414
 30
0.0
 11
74908.28495520008
 21
81802.03415654414
 31
0.0
  0
INSERT
  5
E72A
330
E726
100
AcDbEntity
  8
1
  6
Continuous
 62
     0
370
    -2
100
AcDbBlockReference
  2
_OPEN30
 10
66151.1463656001
 20
81802.03415654414
 30
0.0
 41
500.0
 42
500.0
 43
500.0
 50
180.0
  0
INSERT
  5
E72B
330
E726
100
AcDbEntity
  8
1
  6
Continuous
 62
     0
370
    -2
100
AcDbBlockReference
  2
_OPEN30
 10
75408.28495520008
 20
81802.03415654414
 30
0.0
 41
500.0
 42
500.0
 43
500.0
  0
MTEXT
  5
E72C
330
E726
100
AcDbEntity
  8
1
  6
Continuous
 62
     0
370
    13
100
AcDbMText
 10
70779.71566040009
 20
82052.03415654413
 30
0.0
 40
400.0
 41
0.0
 71
     5
 72
     1
  1
\A1;500
 73
     1
 44
1.0
  0
POINT
  5
E72D
330
E726
100
AcDbEntity
  8
DEFPOINTS
  6
Continuous
 62
     0
100
AcDbPoint
 10
66151.1463656001
 20
80897.29639803397
 30
0.0
  0
POINT
  5
E72E
330
E726
100
AcDbEntity
  8
DEFPOINTS
  6
Continuous
 62
     0
100
AcDbPoint
 10
75408.28495520008
 20
80897.29639803397
 30
0.0
  0
POINT
  5
E72F
330
E726
100
AcDbEntity
  8
DEFPOINTS
  6
Continuous
 62
     0
100
AcDbPoint
 10
75408.28495520008
 20
81802.03415654414
 30
0.0
  0
ENDBLK
  5
E731
330
E726
100
AcDbEntity
  8
0
100
AcDbBlockEnd
  0
BLOCK
  5
E73C
330
E732
100
AcDbEntity
  8
0
100
AcDbBlockBegin
  2
*D72
 70
     1
 10
0.0
 20
0.0
 30
0.0
  3
*D72
  1

  0
LINE
  5
E733
330
E732
100
AcDbEntity
  8
1
  6
Continuous
 62
     0
370
    -2
100
AcDbLine
 10
75508.20324228086
 20
80897.29551942582
 30
0.0
 11
76428.58106092982
 21
80897.29551942582
 31
0.0
  0
LINE
  5
E734
330
E732
100
AcDbEntity
  8
1
  6
Continuous
 62
     0
370
    -2
100
AcDbLine
 10
75508.20324228086
 20
71640.15705942579
 30
0.0
 11
76428.58106092982
 21
71640.15705942579
 31
0.0
  0
LINE
  5
E735
330
E732
100
AcDbEntity
  8
1
  6
Continuous
 62
     0
370
    -2
100
AcDbLine
 10
76428.40106092982
 20
80397.29551942583
 30
0.0
 11
76428.40106092982
 21
72140.15705942581
 31
0.0
  0
INSERT
  5
E736
330
E732
100
AcDbEntity
  8
1
  6
Continuous
 62
     0
370
    -2
100
AcDbBlockReference
  2
_OPEN30
 10
76428.40106092982
 20
80897.29551942582
 30
0.0
 41
500.0
 42
500.0
 43
500.0
 50
90.0
  0
INSERT
  5
E737
330
E732
100
AcDbEntity
  8
1
  6
Continuous
 62
     0
370
    -2
100
AcDbBlockReference
  2
_OPEN30
 10
76428.40106092982
 20
71640.15705942579
 30
0.0
 41
500.0
 42
500.0
 43
500.0
 50
270.0
  0
MTEXT
  5
E738
330
E732
100
AcDbEntity
  8
1
  6
Continuous
 62
     0
370
    13
100
AcDbMText
 10
76178.40106092981
 20
76268.72628942582
 30
0.0
 40
400.0
 41
0.0
 71
     5
 72
     1
  1
\A1;500
 11
0.0000000000000001
 21
1.0
 31
0.0
 73
     1
 44
1.0
  0
POINT
  5
E739
330
E732
100
AcDbEntity
  8
DEFPOINTS
  6
Continuous
 62
     0
100
AcDbPoint
 10
75408.20324228088
 20
80897.29551942582
 30
0.0
  0
POINT
  5
E73A
330
E732
100
AcDbEntity
  8
DEFPOINTS
  6
Continuous
 62
     0
100
AcDbPoint
 10
75408.20324228088
 20
71640.15705942579
 30
0.0
  0
POINT
  5
E73B
330
E732
100
AcDbEntity
  8
DEFPOINTS
  6
Continuous
 62
     0
100
AcDbPoint
 10
76428.40106092982
 20
71640.15705942579
 30
0.0
  0
ENDBLK
  5
E73D
330
E732
100
AcDbEntity
  8
0
100
AcDbBlockEnd
  0
BLOCK
  5
E748
330
E73E
100
AcDbEntity
  8
0
100
AcDbBlockBegin
  2
*D73
 70
     1
 10
0.0
 20
0.0
 30
0.0
  3
*D73
  1

  0
LINE
  5
E73F
330
E73E
100
AcDbEntity
  8
1
  6
Continuous
 62
     0
370
    -2
100
AcDbLine
 10
77997.07353199996
 20
80932.65703611777
 30
0.0
 11
77997.07353199996
 21
81774.40601837588
 31
0.0
  0
LINE
  5
E740
330
E73E
100
AcDbEntity
  8
1
  6
Continuous
 62
     0
370
    -2
100
AcDbLine
 10
80220.63881120006
 20
80969.52499723402
 30
0.0
 11
80220.63881120006
 21
81774.40601837588
 31
0.0
  0
LINE
  5
E741
330
E73E
100
AcDbEntity
  8
1
  6
Continuous
 62
     0
370
    -2
100
AcDbLine
 10
78497.07353199996
 20
81774.22601837589
 30
0.0
 11
79720.63881120004
 21
81774.22601837589
 31
0.0
  0
INSERT
  5
E742
330
E73E
100
AcDbEntity
  8
1
  6
Continuous
 62
     0
370
    -2
100
AcDbBlockReference
  2
_OPEN30
 10
77997.07353199996
 20
81774.22601837589
 30
0.0
 41
500.0
 42
500.0
 43
500.0
 50
180.0
  0
INSERT
  5
E743
330
E73E
100
AcDbEntity
  8
1
  6
Continuous
 62
     0
370
    -2
100
AcDbBlockReference
  2
_OPEN30
 10
80220.63881120006
 20
81774.22601837589
 30
0.0
 41
500.0
 42
500.0
 43
500.0
  0
MTEXT
  5
E744
330
E73E
100
AcDbEntity
  8
1
  6
Continuous
 62
     0
370
    13
100
AcDbMText
 10
79108.85617160001
 20
82024.22601837589
 30
0.0
 40
400.0
 41
0.0
 71
     5
 72
     1
  1
\A1;120
 73
     1
 44
1.0
  0
POINT
  5
E745
330
E73E
100
AcDbEntity
  8
DEFPOINTS
  6
Continuous
 62
     0
100
AcDbPoint
 10
77997.07353199996
 20
80832.65703611777
 30
0.0
  0
POINT
  5
E746
330
E73E
100
AcDbEntity
  8
DEFPOINTS
  6
Continuous
 62
     0
100
AcDbPoint
 10
80220.63881120006
 20
80869.52499723404
 30
0.0
  0
POINT
  5
E747
330
E73E
100
AcDbEntity
  8
DEFPOINTS
  6
Continuous
 62
     0
100
AcDbPoint
 10
80220.63881120006
 20
81774.22601837589
 30
0.0
  0
ENDBLK
  5
E749
330
E73E
100
AcDbEntity
  8
0
100
AcDbBlockEnd
  0
BLOCK
  5
12F82
330
12F78
100
AcDbEntity
  8
0
100
AcDbBlockBegin
  2
*D74
 70
     1
 10
0.0
 20
0.0
 30
0.0
  3
*D74
  1

  0
LINE
  5
12F9C
330
12F78
100
AcDbEntity
  8
1
  6
Continuous
 62
     0
370
    -2
100
AcDbLine
 10
5045.384962008
 20
19414.91828801434
 30
0.0
 11
5045.384962008
 21
20219.83604652448
 31
0.0
  0
LINE
  5
12F9D
330
12F78
100
AcDbEntity
  8
1
  6
Continuous
 62
     0
370
    -2
100
AcDbLine
 10
14302.52355160798
 20
19414.91828801434
 30
0.0
 11
14302.52355160798
 21
20219.83604652448
 31
0.0
  0
LINE
  5
12F9E
330
12F78
100
AcDbEntity
  8
1
  6
Continuous
 62
     0
370
    -2
100
AcDbLine
 10
5545.384962008
 20
20219.65604652448
 30
0.0
 11
13802.52355160797
 21
20219.65604652448
 31
0.0
  0
INSERT
  5
12F9F
330
12F78
100
AcDbEntity
  8
1
  6
Continuous
 62
     0
370
    -2
100
AcDbBlockReference
  2
_OPEN30
 10
5045.384962008
 20
20219.65604652448
 30
0.0
 41
500.0
 42
500.0
 43
500.0
 50
180.0
  0
INSERT
  5
12FA0
330
12F78
100
AcDbEntity
  8
1
  6
Continuous
 62
     0
370
    -2
100
AcDbBlockReference
  2
_OPEN30
 10
14302.52355160798
 20
20219.65604652448
 30
0.0
 41
500.0
 42
500.0
 43
500.0
  0
MTEXT
  5
12FA1
330
12F78
100
AcDbEntity
  8
1
  6
Continuous
 62
     0
370
    13
100
AcDbMText
 10
9673.954256807993
 20
20469.65604652448
 30
0.0
 40
400.0
 41
0.0
 71
     5
 72
     1
  1
\A1;500
 73
     1
 44
1.0
  0
POINT
  5
12FA2
330
12F78
100
AcDbEntity
  8
DEFPOINTS
  6
Continuous
 62
     0
100
AcDbPoint
 10
5045.384962008
 20
19314.91828801434
 30
0.0
  0
POINT
  5
12FA3
330
12F78
100
AcDbEntity
  8
DEFPOINTS
  6
Continuous
 62
     0
100
AcDbPoint
 10
14302.52355160798
 20
19314.91828801434
 30
0.0
  0
POINT
  5
12FA4
330
12F78
100
AcDbEntity
  8
DEFPOINTS
  6
Continuous
 62
     0
100
AcDbPoint
 10
14302.52355160798
 20
20219.65604652448
 30
0.0
  0
ENDBLK
  5
12F83
330
12F78
100
AcDbEntity
  8
0
100
AcDbBlockEnd
  0
BLOCK
  5
12F8E
330
12F84
100
AcDbEntity
  8
0
100
AcDbBlockBegin
  2
*D75
 70
     1
 10
0.0
 20
0.0
 30
0.0
  3
*D75
  1

  0
LINE
  5
12FA5
330
12F84
100
AcDbEntity
  8
1
  6
Continuous
 62
     0
370
    -2
100
AcDbLine
 10
14402.44183868877
 20
19314.91740940617
 30
0.0
 11
15322.81965733773
 21
19314.91740940617
 31
0.0
  0
LINE
  5
12FA6
330
12F84
100
AcDbEntity
  8
1
  6
Continuous
 62
     0
370
    -2
100
AcDbLine
 10
14402.44183868877
 20
10057.77894940615
 30
0.0
 11
15322.81965733772
 21
10057.77894940615
 31
0.0
  0
LINE
  5
12FA7
330
12F84
100
AcDbEntity
  8
1
  6
Continuous
 62
     0
370
    -2
100
AcDbLine
 10
15322.63965733773
 20
18814.91740940617
 30
0.0
 11
15322.63965733772
 21
10557.77894940615
 31
0.0
  0
INSERT
  5
12FA8
330
12F84
100
AcDbEntity
  8
1
  6
Continuous
 62
     0
370
    -2
100
AcDbBlockReference
  2
_OPEN30
 10
15322.63965733773
 20
19314.91740940617
 30
0.0
 41
500.0
 42
500.0
 43
500.0
 50
90.0
  0
INSERT
  5
12FA9
330
12F84
100
AcDbEntity
  8
1
  6
Continuous
 62
     0
370
    -2
100
AcDbBlockReference
  2
_OPEN30
 10
15322.63965733772
 20
10057.77894940615
 30
0.0
 41
500.0
 42
500.0
 43
500.0
 50
270.0
  0
MTEXT
  5
12FAA
330
12F84
100
AcDbEntity
  8
1
  6
Continuous
 62
     0
370
    13
100
AcDbMText
 10
15072.63965733772
 20
14686.34817940615
 30
0.0
 40
400.0
 41
0.0
 71
     5
 72
     1
  1
\A1;500
 11
0.0000000000000001
 21
1.0
 31
0.0
 73
     1
 44
1.0
  0
POINT
  5
12FAB
330
12F84
100
AcDbEntity
  8
DEFPOINTS
  6
Continuous
 62
     0
100
AcDbPoint
 10
14302.44183868877
 20
19314.91740940617
 30
0.0
  0
POINT
  5
12FAC
330
12F84
100
AcDbEntity
  8
DEFPOINTS
  6
Continuous
 62
     0
100
AcDbPoint
 10
14302.44183868877
 20
10057.77894940615
 30
0.0
  0
POINT
  5
12FAD
330
12F84
100
AcDbEntity
  8
DEFPOINTS
  6
Continuous
 62
     0
100
AcDbPoint
 10
15322.63965733772
 20
10057.77894940615
 30
0.0
  0
ENDBLK
  5
12F8F
330
12F84
100
AcDbEntity
  8
0
100
AcDbBlockEnd
  0
BLOCK
  5
12F9A
330
12F90
100
AcDbEntity
  8
0
100
AcDbBlockBegin
  2
*D76
 70
     1
 10
0.0
 20
0.0
 30
0.0
  3
*D76
  1

  0
LINE
  5
12FAE
330
12F90
100
AcDbEntity
  8
1
  6
Continuous
 62
     0
370
    -2
100
AcDbLine
 10
16891.31212840786
 20
19350.27892609811
 30
0.0
 11
16891.31212840786
 21
20192.02790835624
 31
0.0
  0
LINE
  5
12FAF
330
12F90
100
AcDbEntity
  8
1
  6
Continuous
 62
     0
370
    -2
100
AcDbLine
 10
19114.87740760795
 20
19387.14688721439
 30
0.0
 11
19114.87740760795
 21
20192.02790835624
 31
0.0
  0
LINE
  5
12FB0
330
12F90
100
AcDbEntity
  8
1
  6
Continuous
 62
     0
370
    -2
100
AcDbLine
 10
17391.31212840785
 20
20191.84790835624
 30
0.0
 11
18614.87740760795
 21
20191.84790835624
 31
0.0
  0
INSERT
  5
12FB1
330
12F90
100
AcDbEntity
  8
1
  6
Continuous
 62
     0
370
    -2
100
AcDbBlockReference
  2
_OPEN30
 10
16891.31212840786
 20
20191.84790835624
 30
0.0
 41
500.0
 42
500.0
 43
500.0
 50
180.0
  0
INSERT
  5
12FB2
330
12F90
100
AcDbEntity
  8
1
  6
Continuous
 62
     0
370
    -2
100
AcDbBlockReference
  2
_OPEN30
 10
19114.87740760795
 20
20191.84790835624
 30
0.0
 41
500.0
 42
500.0
 43
500.0
  0
MTEXT
  5
12FB3
330
12F90
100
AcDbEntity
  8
1
  6
Continuous
 62
     0
370
    13
100
AcDbMText
 10
18003.09476800791
 20
20441.84790835624
 30
0.0
 40
400.0
 41
0.0
 71
     5
 72
     1
  1
\A1;120
 73
     1
 44
1.0
  0
POINT
  5
12FB4
330
12F90
100
AcDbEntity
  8
DEFPOINTS
  6
Continuous
 62
     0
100
AcDbPoint
 10
16891.31212840786
 20
19250.27892609811
 30
0.0
  0
POINT
  5
12FB5
330
12F90
100
AcDbEntity
  8
DEFPOINTS
  6
Continuous
 62
     0
100
AcDbPoint
 10
19114.87740760795
 20
19287.14688721439
 30
0.0
  0
POINT
  5
12FB6
330
12F90
100
AcDbEntity
  8
DEFPOINTS
  6
Continuous
 62
     0
100
AcDbPoint
 10
19114.87740760795
 20
20191.84790835624
 30
0.0
  0
ENDBLK
  5
12F9B
330
12F90
100
AcDbEntity
  8
0
100
AcDbBlockEnd
  0
BLOCK
  5
12FC2
330
12FB8
100
AcDbEntity
  8
0
100
AcDbBlockBegin
  2
*D77
 70
     1
 10
0.0
 20
0.0
 30
0.0
  3
*D77
  1

  0
LINE
  5
12FB9
330
12FB8
100
AcDbEntity
  8
1
  6
Continuous
 62
     0
370
    -2
100
AcDbLine
 10
92128.55943827626
 20
80997.29639803399
 30
0.0
 11
92128.55943827626
 21
81802.21415654413
 31
0.0
  0
LINE
  5
12FBA
330
12FB8
100
AcDbEntity
  8
1
  6
Continuous
 62
     0
370
    -2
100
AcDbLine
 10
101385.6980278762
 20
80997.29639803399
 30
0.0
 11
101385.6980278762
 21
81802.21415654413
 31
0.0
  0
LINE
  5
12FBB
330
12FB8
100
AcDbEntity
  8
1
  6
Continuous
 62
     0
370
    -2
100
AcDbLine
 10
92628.55943827627
 20
81802.03415654414
 30
0.0
 11
100885.6980278761
 21
81802.03415654414
 31
0.0
  0
INSERT
  5
12FBC
330
12FB8
100
AcDbEntity
  8
1
  6
Continuous
 62
     0
370
    -2
100
AcDbBlockReference
  2
_OPEN30
 10
92128.55943827626
 20
81802.03415654414
 30
0.0
 41
500.0
 42
500.0
 43
500.0
 50
180.0
  0
INSERT
  5
12FBD
330
12FB8
100
AcDbEntity
  8
1
  6
Continuous
 62
     0
370
    -2
100
AcDbBlockReference
  2
_OPEN30
 10
101385.6980278762
 20
81802.03415654414
 30
0.0
 41
500.0
 42
500.0
 43
500.0
  0
MTEXT
  5
12FBE
330
12FB8
100
AcDbEntity
  8
1
  6
Continuous
 62
     0
370
    13
100
AcDbMText
 10
96757.12873307627
 20
82052.03415654413
 30
0.0
 40
400.0
 41
0.0
 71
     5
 72
     1
  1
\A1;500
 73
     1
 44
1.0
  0
POINT
  5
12FBF
330
12FB8
100
AcDbEntity
  8
DEFPOINTS
  6
Continuous
 62
     0
100
AcDbPoint
 10
92128.55943827626
 20
80897.29639803397
 30
0.0
  0
POINT
  5
12FC0
330
12FB8
100
AcDbEntity
  8
DEFPOINTS
  6
Continuous
 62
     0
100
AcDbPoint
 10
101385.6980278762
 20
80897.29639803397
 30
0.0
  0
POINT
  5
12FC1
330
12FB8
100
AcDbEntity
  8
DEFPOINTS
  6
Continuous
 62
     0
100
AcDbPoint
 10
101385.6980278762
 20
81802.03415654414
 30
0.0
  0
ENDBLK
  5
12FC3
330
12FB8
100
AcDbEntity
  8
0
100
AcDbBlockEnd
  0
BLOCK
  5
12FCE
330
12FC4
100
AcDbEntity
  8
0
100
AcDbBlockBegin
  2
*D78
 70
     1
 10
0.0
 20
0.0
 30
0.0
  3
*D78
  1

  0
LINE
  5
12FC5
330
12FC4
100
AcDbEntity
  8
1
  6
Continuous
 62
     0
370
    -2
100
AcDbLine
 10
101485.616314957
 20
80897.29551942582
 30
0.0
 11
102405.9941336058
 21
80897.29551942582
 31
0.0
  0
LINE
  5
12FC6
330
12FC4
100
AcDbEntity
  8
1
  6
Continuous
 62
     0
370
    -2
100
AcDbLine
 10
101485.616314957
 20
71640.15705942579
 30
0.0
 11
102405.9941336058
 21
71640.15705942579
 31
0.0
  0
LINE
  5
12FC7
330
12FC4
100
AcDbEntity
  8
1
  6
Continuous
 62
     0
370
    -2
100
AcDbLine
 10
102405.814133606
 20
80397.29551942583
 30
0.0
 11
102405.814133606
 21
72140.15705942581
 31
0.0
  0
INSERT
  5
12FC8
330
12FC4
100
AcDbEntity
  8
1
  6
Continuous
 62
     0
370
    -2
100
AcDbBlockReference
  2
_OPEN30
 10
102405.814133606
 20
80897.29551942582
 30
0.0
 41
500.0
 42
500.0
 43
500.0
 50
90.0
  0
INSERT
  5
12FC9
330
12FC4
100
AcDbEntity
  8
1
  6
Continuous
 62
     0
370
    -2
100
AcDbBlockReference
  2
_OPEN30
 10
102405.814133606
 20
71640.15705942579
 30
0.0
 41
500.0
 42
500.0
 43
500.0
 50
270.0
  0
MTEXT
  5
12FCA
330
12FC4
100
AcDbEntity
  8
1
  6
Continuous
 62
     0
370
    13
100
AcDbMText
 10
102155.8141336059
 20
76268.72628942584
 30
0.0
 40
400.0
 41
0.0
 71
     5
 72
     1
  1
\A1;500
 11
0.0000000000000001
 21
1.0
 31
0.0
 73
     1
 44
1.0
  0
POINT
  5
12FCB
330
12FC4
100
AcDbEntity
  8
DEFPOINTS
  6
Continuous
 62
     0
100
AcDbPoint
 10
101385.6163149569
 20
80897.29551942582
 30
0.0
  0
POINT
  5
12FCC
330
12FC4
100
AcDbEntity
  8
DEFPOINTS
  6
Continuous
 62
     0
100
AcDbPoint
 10
101385.6163149569
 20
71640.15705942579
 30
0.0
  0
POINT
  5
12FCD
330
12FC4
100
AcDbEntity
  8
DEFPOINTS
  6
Continuous
 62
     0
100
AcDbPoint
 10
102405.814133606
 20
71640.15705942579
 30
0.0
  0
ENDBLK
  5
12FCF
330
12FC4
100
AcDbEntity
  8
0
100
AcDbBlockEnd
  0
BLOCK
  5
12FDA
330
12FD0
100
AcDbEntity
  8
0
100
AcDbBlockBegin
  2
*D79
 70
     1
 10
0.0
 20
0.0
 30
0.0
  3
*D79
  1

  0
LINE
  5
12FD1
330
12FD0
100
AcDbEntity
  8
1
  6
Continuous
 62
     0
370
    -2
100
AcDbLine
 10
103974.486604676
 20
80932.65703611777
 30
0.0
 11
103974.486604676
 21
81774.40601837588
 31
0.0
  0
LINE
  5
12FD2
330
12FD0
100
AcDbEntity
  8
1
  6
Continuous
 62
     0
370
    -2
100
AcDbLine
 10
106198.0518838762
 20
80969.52499723402
 30
0.0
 11
106198.0518838762
 21
81774.40601837588
 31
0.0
  0
LINE
  5
12FD3
330
12FD0
100
AcDbEntity
  8
1
  6
Continuous
 62
     0
370
    -2
100
AcDbLine
 10
104474.486604676
 20
81774.22601837589
 30
0.0
 11
105698.0518838761
 21
81774.22601837589
 31
0.0
  0
INSERT
  5
12FD4
330
12FD0
100
AcDbEntity
  8
1
  6
Continuous
 62
     0
370
    -2
100
AcDbBlockReference
  2
_OPEN30
 10
103974.486604676
 20
81774.22601837589
 30
0.0
 41
500.0
 42
500.0
 43
500.0
 50
180.0
  0
INSERT
  5
12FD5
330
12FD0
100
AcDbEntity
  8
1
  6
Continuous
 62
     0
370
    -2
100
AcDbBlockReference
  2
_OPEN30
 10
106198.0518838762
 20
81774.22601837589
 30
0.0
 41
500.0
 42
500.0
 43
500.0
  0
MTEXT
  5
12FD6
330
12FD0
100
AcDbEntity
  8
1
  6
Continuous
 62
     0
370
    13
100
AcDbMText
 10
105086.2692442761
 20
82024.22601837589
 30
0.0
 40
400.0
 41
0.0
 71
     5
 72
     1
  1
\A1;120
 73
     1
 44
1.0
  0
POINT
  5
12FD7
330
12FD0
100
AcDbEntity
  8
DEFPOINTS
  6
Continuous
 62
     0
100
AcDbPoint
 10
103974.486604676
 20
80832.65703611777
 30
0.0
  0
POINT
  5
12FD8
330
12FD0
100
AcDbEntity
  8
DEFPOINTS
  6
Continuous
 62
     0
100
AcDbPoint
 10
106198.0518838762
 20
80869.52499723404
 30
0.0
  0
POINT
  5
12FD9
330
12FD0
100
AcDbEntity
  8
DEFPOINTS
  6
Continuous
 62
     0
100
AcDbPoint
 10
106198.0518838762
 20
81774.22601837589
 30
0.0
  0
ENDBLK
  5
12FDB
330
12FD0
100
AcDbEntity
  8
0
100
AcDbBlockEnd
  0
BLOCK
  5
178F2
330
178E8
100
AcDbEntity
  8
0
100
AcDbBlockBegin
  2
*D80
 70
     1
 10
0.0
 20
0.0
 30
0.0
  3
*D80
  1

  0
LINE
  5
1790C
330
178E8
100
AcDbEntity
  8
1
  6
Continuous
 62
     0
370
    -2
100
AcDbLine
 10
4936.927194097763
 20
19471.55629334804
 30
0.0
 11
4936.927194097763
 21
20276.47405185816
 31
0.0
  0
LINE
  5
1790D
330
178E8
100
AcDbEntity
  8
1
  6
Continuous
 62
     0
370
    -2
100
AcDbLine
 10
14194.06578369774
 20
19471.55629334804
 30
0.0
 11
14194.06578369774
 21
20276.47405185816
 31
0.0
  0
LINE
  5
1790E
330
178E8
100
AcDbEntity
  8
1
  6
Continuous
 62
     0
370
    -2
100
AcDbLine
 10
5436.927194097763
 20
20276.29405185817
 30
0.0
 11
13694.06578369774
 21
20276.29405185817
 31
0.0
  0
INSERT
  5
1790F
330
178E8
100
AcDbEntity
  8
1
  6
Continuous
 62
     0
370
    -2
100
AcDbBlockReference
  2
_OPEN30
 10
4936.927194097763
 20
20276.29405185817
 30
0.0
 41
500.0
 42
500.0
 43
500.0
 50
180.0
  0
INSERT
  5
17910
330
178E8
100
AcDbEntity
  8
1
  6
Continuous
 62
     0
370
    -2
100
AcDbBlockReference
  2
_OPEN30
 10
14194.06578369774
 20
20276.29405185817
 30
0.0
 41
500.0
 42
500.0
 43
500.0
  0
MTEXT
  5
17911
330
178E8
100
AcDbEntity
  8
1
  6
Continuous
 62
     0
370
    13
100
AcDbMText
 10
9565.496488897755
 20
20526.29405185816
 30
0.0
 40
400.0
 41
0.0
 71
     5
 72
     1
  1
\A1;500
 73
     1
 44
1.0
  0
POINT
  5
17912
330
178E8
100
AcDbEntity
  8
DEFPOINTS
  6
Continuous
 62
     0
100
AcDbPoint
 10
4936.927194097763
 20
19371.55629334803
 30
0.0
  0
POINT
  5
17913
330
178E8
100
AcDbEntity
  8
DEFPOINTS
  6
Continuous
 62
     0
100
AcDbPoint
 10
14194.06578369774
 20
19371.55629334803
 30
0.0
  0
POINT
  5
17914
330
178E8
100
AcDbEntity
  8
DEFPOINTS
  6
Continuous
 62
     0
100
AcDbPoint
 10
14194.06578369774
 20
20276.29405185817
 30
0.0
  0
ENDBLK
  5
178F3
330
178E8
100
AcDbEntity
  8
0
100
AcDbBlockEnd
  0
BLOCK
  5
178FE
330
178F4
100
AcDbEntity
  8
0
100
AcDbBlockBegin
  2
*D81
 70
     1
 10
0.0
 20
0.0
 30
0.0
  3
*D81
  1

  0
LINE
  5
17915
330
178F4
100
AcDbEntity
  8
1
  6
Continuous
 62
     0
370
    -2
100
AcDbLine
 10
14293.98407077853
 20
19371.55541473985
 30
0.0
 11
15214.36188942749
 21
19371.55541473985
 31
0.0
  0
LINE
  5
17916
330
178F4
100
AcDbEntity
  8
1
  6
Continuous
 62
     0
370
    -2
100
AcDbLine
 10
14293.98407077853
 20
10114.41695473983
 30
0.0
 11
15214.36188942749
 21
10114.41695473983
 31
0.0
  0
LINE
  5
17917
330
178F4
100
AcDbEntity
  8
1
  6
Continuous
 62
     0
370
    -2
100
AcDbLine
 10
15214.18188942749
 20
18871.55541473985
 30
0.0
 11
15214.18188942749
 21
10614.41695473984
 31
0.0
  0
INSERT
  5
17918
330
178F4
100
AcDbEntity
  8
1
  6
Continuous
 62
     0
370
    -2
100
AcDbBlockReference
  2
_OPEN30
 10
15214.18188942749
 20
19371.55541473985
 30
0.0
 41
500.0
 42
500.0
 43
500.0
 50
90.0
  0
INSERT
  5
17919
330
178F4
100
AcDbEntity
  8
1
  6
Continuous
 62
     0
370
    -2
100
AcDbBlockReference
  2
_OPEN30
 10
15214.18188942749
 20
10114.41695473983
 30
0.0
 41
500.0
 42
500.0
 43
500.0
 50
270.0
  0
MTEXT
  5
1791A
330
178F4
100
AcDbEntity
  8
1
  6
Continuous
 62
     0
370
    13
100
AcDbMText
 10
14964.18188942748
 20
14742.98618473985
 30
0.0
 40
400.0
 41
0.0
 71
     5
 72
     1
  1
\A1;500
 11
0.0000000000000001
 21
1.0
 31
0.0
 73
     1
 44
1.0
  0
POINT
  5
1791B
330
178F4
100
AcDbEntity
  8
DEFPOINTS
  6
Continuous
 62
     0
100
AcDbPoint
 10
14193.98407077853
 20
19371.55541473985
 30
0.0
  0
POINT
  5
1791C
330
178F4
100
AcDbEntity
  8
DEFPOINTS
  6
Continuous
 62
     0
100
AcDbPoint
 10
14193.98407077853
 20
10114.41695473983
 30
0.0
  0
POINT
  5
1791D
330
178F4
100
AcDbEntity
  8
DEFPOINTS
  6
Continuous
 62
     0
100
AcDbPoint
 10
15214.18188942749
 20
10114.41695473983
 30
0.0
  0
ENDBLK
  5
178FF
330
178F4
100
AcDbEntity
  8
0
100
AcDbBlockEnd
  0
BLOCK
  5
1790A
330
17900
100
AcDbEntity
  8
0
100
AcDbBlockBegin
  2
*D82
 70
     1
 10
0.0
 20
0.0
 30
0.0
  3
*D82
  1

  0
LINE
  5
1791E
330
17900
100
AcDbEntity
  8
1
  6
Continuous
 62
     0
370
    -2
100
AcDbLine
 10
16782.85436049763
 20
19406.91693143181
 30
0.0
 11
16782.85436049763
 21
20248.66591368993
 31
0.0
  0
LINE
  5
1791F
330
17900
100
AcDbEntity
  8
1
  6
Continuous
 62
     0
370
    -2
100
AcDbLine
 10
19006.41963969771
 20
19443.78489254806
 30
0.0
 11
19006.41963969771
 21
20248.66591368993
 31
0.0
  0
LINE
  5
17920
330
17900
100
AcDbEntity
  8
1
  6
Continuous
 62
     0
370
    -2
100
AcDbLine
 10
17282.85436049763
 20
20248.48591368993
 30
0.0
 11
18506.41963969772
 21
20248.48591368993
 31
0.0
  0
INSERT
  5
17921
330
17900
100
AcDbEntity
  8
1
  6
Continuous
 62
     0
370
    -2
100
AcDbBlockReference
  2
_OPEN30
 10
16782.85436049763
 20
20248.48591368993
 30
0.0
 41
500.0
 42
500.0
 43
500.0
 50
180.0
  0
INSERT
  5
17922
330
17900
100
AcDbEntity
  8
1
  6
Continuous
 62
     0
370
    -2
100
AcDbBlockReference
  2
_OPEN30
 10
19006.41963969771
 20
20248.48591368993
 30
0.0
 41
500.0
 42
500.0
 43
500.0
  0
MTEXT
  5
17923
330
17900
100
AcDbEntity
  8
1
  6
Continuous
 62
     0
370
    13
100
AcDbMText
 10
17894.63700009766
 20
20498.48591368993
 30
0.0
 40
400.0
 41
0.0
 71
     5
 72
     1
  1
\A1;120
 73
     1
 44
1.0
  0
POINT
  5
17924
330
17900
100
AcDbEntity
  8
DEFPOINTS
  6
Continuous
 62
     0
100
AcDbPoint
 10
16782.85436049763
 20
19306.91693143181
 30
0.0
  0
POINT
  5
17925
330
17900
100
AcDbEntity
  8
DEFPOINTS
  6
Continuous
 62
     0
100
AcDbPoint
 10
19006.41963969771
 20
19343.78489254807
 30
0.0
  0
POINT
  5
17926
330
17900
100
AcDbEntity
  8
DEFPOINTS
  6
Continuous
 62
     0
100
AcDbPoint
 10
19006.41963969771
 20
20248.48591368993
 30
0.0
  0
ENDBLK
  5
1790B
330
17900
100
AcDbEntity
  8
0
100
AcDbBlockEnd
  0
BLOCK
  5
17932
330
17928
100
AcDbEntity
  8
0
100
AcDbBlockBegin
  2
*D83
 70
     1
 10
0.0
 20
0.0
 30
0.0
  3
*D83
  1

  0
LINE
  5
17929
330
17928
100
AcDbEntity
  8
1
  6
Continuous
 62
     0
370
    -2
100
AcDbLine
 10
118783.676756
 20
82313.1898952
 30
0.0
 11
118783.676756
 21
83118.10765371014
 31
0.0
  0
LINE
  5
1792A
330
17928
100
AcDbEntity
  8
1
  6
Continuous
 62
     0
370
    -2
100
AcDbLine
 10
128020.6367181965
 20
82313.1898952
 30
0.0
 11
128020.6367181965
 21
83118.10765371014
 31
0.0
  0
LINE
  5
1792B
330
17928
100
AcDbEntity
  8
1
  6
Continuous
 62
     0
370
    -2
100
AcDbLine
 10
119283.676756
 20
83117.92765371013
 30
0.0
 11
127520.6367181965
 21
83117.92765371013
 31
0.0
  0
INSERT
  5
1792C
330
17928
100
AcDbEntity
  8
1
  6
Continuous
 62
     0
370
    -2
100
AcDbBlockReference
  2
_OPEN30
 10
118783.676756
 20
83117.92765371013
 30
0.0
 41
500.0
 42
500.0
 43
500.0
 50
180.0
  0
INSERT
  5
1792D
330
17928
100
AcDbEntity
  8
1
  6
Continuous
 62
     0
370
    -2
100
AcDbBlockReference
  2
_OPEN30
 10
128020.6367181965
 20
83117.92765371013
 30
0.0
 41
500.0
 42
500.0
 43
500.0
  0
MTEXT
  5
1792E
330
17928
100
AcDbEntity
  8
1
  6
Continuous
 62
     0
370
    13
100
AcDbMText
 10
123412.2460507999
 20
83367.92765371013
 30
0.0
 40
400.0
 41
0.0
 71
     5
 72
     1
  1
\A1;500
 73
     1
 44
1.0
  0
POINT
  5
1792F
330
17928
100
AcDbEntity
  8
DEFPOINTS
  6
Continuous
 62
     0
100
AcDbPoint
 10
118783.676756
 20
82213.1898952
 30
0.0
  0
POINT
  5
17930
330
17928
100
AcDbEntity
  8
DEFPOINTS
  6
Continuous
 62
     0
100
AcDbPoint
 10
128020.6367181965
 20
82213.1898952
 30
0.0
  0
POINT
  5
17931
330
17928
100
AcDbEntity
  8
DEFPOINTS
  6
Continuous
 62
     0
100
AcDbPoint
 10
128020.6367181965
 20
83117.92765371013
 30
0.0
  0
ENDBLK
  5
17933
330
17928
100
AcDbEntity
  8
0
100
AcDbBlockEnd
  0
BLOCK
  5
1793E
330
17934
100
AcDbEntity
  8
0
100
AcDbBlockBegin
  2
*D84
 70
     1
 10
0.0
 20
0.0
 30
0.0
  3
*D84
  1

  0
LINE
  5
17935
330
17934
100
AcDbEntity
  8
1
  6
Continuous
 62
     0
370
    -2
100
AcDbLine
 10
128120.6367181964
 20
82213.18901659181
 30
0.0
 11
129061.1114513297
 21
82213.18901659181
 31
0.0
  0
LINE
  5
17936
330
17934
100
AcDbEntity
  8
1
  6
Continuous
 62
     0
370
    -2
100
AcDbLine
 10
128120.6367181964
 20
69281.44304771818
 30
0.0
 11
129061.1114513297
 21
69281.44304771818
 31
0.0
  0
LINE
  5
17937
330
17934
100
AcDbEntity
  8
1
  6
Continuous
 62
     0
370
    -2
100
AcDbLine
 10
129060.9314513297
 20
81713.18901659184
 30
0.0
 11
129060.9314513297
 21
69781.44304771817
 31
0.0
  0
INSERT
  5
17938
330
17934
100
AcDbEntity
  8
1
  6
Continuous
 62
     0
370
    -2
100
AcDbBlockReference
  2
_OPEN30
 10
129060.9314513297
 20
82213.18901659181
 30
0.0
 41
500.0
 42
500.0
 43
500.0
 50
90.0
  0
INSERT
  5
17939
330
17934
100
AcDbEntity
  8
1
  6
Continuous
 62
     0
370
    -2
100
AcDbBlockReference
  2
_OPEN30
 10
129060.9314513297
 20
69281.44304771818
 30
0.0
 41
500.0
 42
500.0
 43
500.0
 50
270.0
  0
MTEXT
  5
1793A
330
17934
100
AcDbEntity
  8
1
  6
Continuous
 62
     0
370
    13
100
AcDbMText
 10
128810.9314513297
 20
75747.31603215501
 30
0.0
 40
400.0
 41
0.0
 71
     5
 72
     1
  1
\A1;700
 11
0.0000000000000001
 21
1.0
 31
0.0
 73
     1
 44
1.0
  0
POINT
  5
1793B
330
17934
100
AcDbEntity
  8
DEFPOINTS
  6
Continuous
 62
     0
100
AcDbPoint
 10
128020.6367181964
 20
82213.18901659181
 30
0.0
  0
POINT
  5
1793C
330
17934
100
AcDbEntity
  8
DEFPOINTS
  6
Continuous
 62
     0
100
AcDbPoint
 10
128020.6367181965
 20
69281.44304771818
 30
0.0
  0
POINT
  5
1793D
330
17934
100
AcDbEntity
  8
DEFPOINTS
  6
Continuous
 62
     0
100
AcDbPoint
 10
129060.9314513297
 20
69281.44304771818
 30
0.0
  0
ENDBLK
  5
1793F
330
17934
100
AcDbEntity
  8
0
100
AcDbBlockEnd
  0
BLOCK
  5
1794A
330
17940
100
AcDbEntity
  8
0
100
AcDbBlockBegin
  2
*D85
 70
     1
 10
0.0
 20
0.0
 30
0.0
  3
*D85
  1

  0
LINE
  5
17941
330
17940
100
AcDbEntity
  8
1
  6
Continuous
 62
     0
370
    -2
100
AcDbLine
 10
130697.1207795525
 20
82248.53114330331
 30
0.0
 11
130697.1207795525
 21
83118.10765371014
 31
0.0
  0
LINE
  5
17942
330
17940
100
AcDbEntity
  8
1
  6
Continuous
 62
     0
370
    -2
100
AcDbLine
 10
132915.8392136041
 20
82285.41849440002
 30
0.0
 11
132915.8392136041
 21
83118.10765371014
 31
0.0
  0
LINE
  5
17943
330
17940
100
AcDbEntity
  8
1
  6
Continuous
 62
     0
370
    -2
100
AcDbLine
 10
131197.1207795525
 20
83117.92765371013
 30
0.0
 11
132415.8392136041
 21
83117.92765371013
 31
0.0
  0
INSERT
  5
17944
330
17940
100
AcDbEntity
  8
1
  6
Continuous
 62
     0
370
    -2
100
AcDbBlockReference
  2
_OPEN30
 10
130697.1207795525
 20
83117.92765371013
 30
0.0
 41
500.0
 42
500.0
 43
500.0
 50
180.0
  0
INSERT
  5
17945
330
17940
100
AcDbEntity
  8
1
  6
Continuous
 62
     0
370
    -2
100
AcDbBlockReference
  2
_OPEN30
 10
132915.8392136041
 20
83117.92765371013
 30
0.0
 41
500.0
 42
500.0
 43
500.0
  0
MTEXT
  5
17946
330
17940
100
AcDbEntity
  8
1
  6
Continuous
 62
     0
370
    13
100
AcDbMText
 10
131741.3865619999
 20
83367.92765371013
 30
0.0
 40
400.0
 41
0.0
 71
     5
 72
     1
  1
\A1;120
 73
     1
 44
1.0
  0
POINT
  5
17947
330
17940
100
AcDbEntity
  8
DEFPOINTS
  6
Continuous
 62
     0
100
AcDbPoint
 10
130697.1207795525
 20
82148.53114330331
 30
0.0
  0
POINT
  5
17948
330
17940
100
AcDbEntity
  8
DEFPOINTS
  6
Continuous
 62
     0
100
AcDbPoint
 10
132915.8392136041
 20
82185.41849440002
 30
0.0
  0
POINT
  5
17949
330
17940
100
AcDbEntity
  8
DEFPOINTS
  6
Continuous
 62
     0
100
AcDbPoint
 10
132915.8392136041
 20
83117.92765371013
 30
0.0
  0
ENDBLK
  5
1794B
330
17940
100
AcDbEntity
  8
0
100
AcDbBlockEnd
  0
BLOCK
  5
1C3B4
330
1C3AA
100
AcDbEntity
  8
0
100
AcDbBlockBegin
  2
*D86
 70
     1
 10
0.0
 20
0.0
 30
0.0
  3
*D86
  1

  0
LINE
  5
1C3CE
330
1C3AA
100
AcDbEntity
  8
1
  6
Continuous
 62
     0
370
    -2
100
AcDbLine
 10
5223.060605182386
 20
20674.1738744483
 30
0.0
 11
5223.060605182386
 21
21479.09163295842
 31
0.0
  0
LINE
  5
1C3CF
330
1C3AA
100
AcDbEntity
  8
1
  6
Continuous
 62
     0
370
    -2
100
AcDbLine
 10
14460.02056737888
 20
20674.1738744483
 30
0.0
 11
14460.02056737888
 21
21479.09163295842
 31
0.0
  0
LINE
  5
1C3D0
330
1C3AA
100
AcDbEntity
  8
1
  6
Continuous
 62
     0
370
    -2
100
AcDbLine
 10
5723.060605182386
 20
21478.91163295843
 30
0.0
 11
13960.02056737887
 21
21478.91163295843
 31
0.0
  0
INSERT
  5
1C3D1
330
1C3AA
100
AcDbEntity
  8
1
  6
Continuous
 62
     0
370
    -2
100
AcDbBlockReference
  2
_OPEN30
 10
5223.060605182386
 20
21478.91163295843
 30
0.0
 41
500.0
 42
500.0
 43
500.0
 50
180.0
  0
INSERT
  5
1C3D2
330
1C3AA
100
AcDbEntity
  8
1
  6
Continuous
 62
     0
370
    -2
100
AcDbBlockReference
  2
_OPEN30
 10
14460.02056737888
 20
21478.91163295843
 30
0.0
 41
500.0
 42
500.0
 43
500.0
  0
MTEXT
  5
1C3D3
330
1C3AA
100
AcDbEntity
  8
1
  6
Continuous
 62
     0
370
    13
100
AcDbMText
 10
9851.629899982377
 20
21728.91163295842
 30
0.0
 40
400.0
 41
0.0
 71
     5
 72
     1
  1
\A1;500
 73
     1
 44
1.0
  0
POINT
  5
1C3D4
330
1C3AA
100
AcDbEntity
  8
DEFPOINTS
  6
Continuous
 62
     0
100
AcDbPoint
 10
5223.060605182386
 20
20574.1738744483
 30
0.0
  0
POINT
  5
1C3D5
330
1C3AA
100
AcDbEntity
  8
DEFPOINTS
  6
Continuous
 62
     0
100
AcDbPoint
 10
14460.02056737888
 20
20574.1738744483
 30
0.0
  0
POINT
  5
1C3D6
330
1C3AA
100
AcDbEntity
  8
DEFPOINTS
  6
Continuous
 62
     0
100
AcDbPoint
 10
14460.02056737888
 20
21478.91163295843
 30
0.0
  0
ENDBLK
  5
1C3B5
330
1C3AA
100
AcDbEntity
  8
0
100
AcDbBlockEnd
  0
BLOCK
  5
1C3C0
330
1C3B6
100
AcDbEntity
  8
0
100
AcDbBlockBegin
  2
*D87
 70
     1
 10
0.0
 20
0.0
 30
0.0
  3
*D87
  1

  0
LINE
  5
1C3D7
330
1C3B6
100
AcDbEntity
  8
1
  6
Continuous
 62
     0
370
    -2
100
AcDbLine
 10
14560.02056737887
 20
20574.17299584011
 30
0.0
 11
15500.4953005121
 21
20574.17299584011
 31
0.0
  0
LINE
  5
1C3D8
330
1C3B6
100
AcDbEntity
  8
1
  6
Continuous
 62
     0
370
    -2
100
AcDbLine
 10
14560.02056737888
 20
7642.427026966484
 30
0.0
 11
15500.4953005121
 21
7642.427026966484
 31
0.0
  0
LINE
  5
1C3D9
330
1C3B6
100
AcDbEntity
  8
1
  6
Continuous
 62
     0
370
    -2
100
AcDbLine
 10
15500.31530051211
 20
20074.17299584012
 30
0.0
 11
15500.31530051211
 21
8142.427026966485
 31
0.0
  0
INSERT
  5
1C3DA
330
1C3B6
100
AcDbEntity
  8
1
  6
Continuous
 62
     0
370
    -2
100
AcDbBlockReference
  2
_OPEN30
 10
15500.31530051211
 20
20574.17299584011
 30
0.0
 41
500.0
 42
500.0
 43
500.0
 50
90.0
  0
INSERT
  5
1C3DB
330
1C3B6
100
AcDbEntity
  8
1
  6
Continuous
 62
     0
370
    -2
100
AcDbBlockReference
  2
_OPEN30
 10
15500.31530051211
 20
7642.427026966484
 30
0.0
 41
500.0
 42
500.0
 43
500.0
 50
270.0
  0
MTEXT
  5
1C3DC
330
1C3B6
100
AcDbEntity
  8
1
  6
Continuous
 62
     0
370
    13
100
AcDbMText
 10
15250.3153005121
 20
14108.3000114033
 30
0.0
 40
400.0
 41
0.0
 71
     5
 72
     1
  1
\A1;700
 11
0.0000000000000001
 21
1.0
 31
0.0
 73
     1
 44
1.0
  0
POINT
  5
1C3DD
330
1C3B6
100
AcDbEntity
  8
DEFPOINTS
  6
Continuous
 62
     0
100
AcDbPoint
 10
14460.02056737887
 20
20574.17299584011
 30
0.0
  0
POINT
  5
1C3DE
330
1C3B6
100
AcDbEntity
  8
DEFPOINTS
  6
Continuous
 62
     0
100
AcDbPoint
 10
14460.02056737888
 20
7642.427026966484
 30
0.0
  0
POINT
  5
1C3DF
330
1C3B6
100
AcDbEntity
  8
DEFPOINTS
  6
Continuous
 62
     0
100
AcDbPoint
 10
15500.31530051211
 20
7642.427026966484
 30
0.0
  0
ENDBLK
  5
1C3C1
330
1C3B6
100
AcDbEntity
  8
0
100
AcDbBlockEnd
  0
BLOCK
  5
1C3CC
330
1C3C2
100
AcDbEntity
  8
0
100
AcDbBlockBegin
  2
*D88
 70
     1
 10
0.0
 20
0.0
 30
0.0
  3
*D88
  1

  0
LINE
  5
1C3E0
330
1C3C2
100
AcDbEntity
  8
1
  6
Continuous
 62
     0
370
    -2
100
AcDbLine
 10
17136.50462873491
 20
20609.51512255161
 30
0.0
 11
17136.50462873491
 21
21479.09163295842
 31
0.0
  0
LINE
  5
1C3E1
330
1C3C2
100
AcDbEntity
  8
1
  6
Continuous
 62
     0
370
    -2
100
AcDbLine
 10
19355.22306278656
 20
20646.40247364834
 30
0.0
 11
19355.22306278656
 21
21479.09163295842
 31
0.0
  0
LINE
  5
1C3E2
330
1C3C2
100
AcDbEntity
  8
1
  6
Continuous
 62
     0
370
    -2
100
AcDbLine
 10
17636.50462873491
 20
21478.91163295843
 30
0.0
 11
18855.22306278656
 21
21478.91163295843
 31
0.0
  0
INSERT
  5
1C3E3
330
1C3C2
100
AcDbEntity
  8
1
  6
Continuous
 62
     0
370
    -2
100
AcDbBlockReference
  2
_OPEN30
 10
17136.50462873491
 20
21478.91163295843
 30
0.0
 41
500.0
 42
500.0
 43
500.0
 50
180.0
  0
INSERT
  5
1C3E4
330
1C3C2
100
AcDbEntity
  8
1
  6
Continuous
 62
     0
370
    -2
100
AcDbBlockReference
  2
_OPEN30
 10
19355.22306278656
 20
21478.91163295843
 30
0.0
 41
500.0
 42
500.0
 43
500.0
  0
MTEXT
  5
1C3E5
330
1C3C2
100
AcDbEntity
  8
1
  6
Continuous
 62
     0
370
    13
100
AcDbMText
 10
18180.77041118231
 20
21728.91163295842
 30
0.0
 40
400.0
 41
0.0
 71
     5
 72
     1
  1
\A1;120
 73
     1
 44
1.0
  0
POINT
  5
1C3E6
330
1C3C2
100
AcDbEntity
  8
DEFPOINTS
  6
Continuous
 62
     0
100
AcDbPoint
 10
17136.50462873491
 20
20509.5151225516
 30
0.0
  0
POINT
  5
1C3E7
330
1C3C2
100
AcDbEntity
  8
DEFPOINTS
  6
Continuous
 62
     0
100
AcDbPoint
 10
19355.22306278656
 20
20546.40247364833
 30
0.0
  0
POINT
  5
1C3E8
330
1C3C2
100
AcDbEntity
  8
DEFPOINTS
  6
Continuous
 62
     0
100
AcDbPoint
 10
19355.22306278656
 20
21478.91163295843
 30
0.0
  0
ENDBLK
  5
1C3CD
330
1C3C2
100
AcDbEntity
  8
0
100
AcDbBlockEnd
  0
BLOCK
  5
1C3F4
330
1C3EA
100
AcDbEntity
  8
0
100
AcDbBlockBegin
  2
*D89
 70
     1
 10
0.0
 20
0.0
 30
0.0
  3
*D89
  1

  0
LINE
  5
1C3EB
330
1C3EA
100
AcDbEntity
  8
1
  6
Continuous
 62
     0
370
    -2
100
AcDbLine
 10
144969.4154056026
 20
82313.1898952
 30
0.0
 11
144969.4154056026
 21
83118.10765371014
 31
0.0
  0
LINE
  5
1C3EC
330
1C3EA
100
AcDbEntity
  8
1
  6
Continuous
 62
     0
370
    -2
100
AcDbLine
 10
154206.3753677991
 20
82313.1898952
 30
0.0
 11
154206.3753677991
 21
83118.10765371014
 31
0.0
  0
LINE
  5
1C3ED
330
1C3EA
100
AcDbEntity
  8
1
  6
Continuous
 62
     0
370
    -2
100
AcDbLine
 10
145469.4154056026
 20
83117.92765371013
 30
0.0
 11
153706.3753677991
 21
83117.92765371013
 31
0.0
  0
INSERT
  5
1C3EE
330
1C3EA
100
AcDbEntity
  8
1
  6
Continuous
 62
     0
370
    -2
100
AcDbBlockReference
  2
_OPEN30
 10
144969.4154056026
 20
83117.92765371013
 30
0.0
 41
500.0
 42
500.0
 43
500.0
 50
180.0
  0
INSERT
  5
1C3EF
330
1C3EA
100
AcDbEntity
  8
1
  6
Continuous
 62
     0
370
    -2
100
AcDbBlockReference
  2
_OPEN30
 10
154206.3753677991
 20
83117.92765371013
 30
0.0
 41
500.0
 42
500.0
 43
500.0
  0
MTEXT
  5
1C3F0
330
1C3EA
100
AcDbEntity
  8
1
  6
Continuous
 62
     0
370
    13
100
AcDbMText
 10
149597.9847004026
 20
83367.92765371013
 30
0.0
 40
400.0
 41
0.0
 71
     5
 72
     1
  1
\A1;500
 73
     1
 44
1.0
  0
POINT
  5
1C3F1
330
1C3EA
100
AcDbEntity
  8
DEFPOINTS
  6
Continuous
 62
     0
100
AcDbPoint
 10
144969.4154056026
 20
82213.1898952
 30
0.0
  0
POINT
  5
1C3F2
330
1C3EA
100
AcDbEntity
  8
DEFPOINTS
  6
Continuous
 62
     0
100
AcDbPoint
 10
154206.3753677991
 20
82213.1898952
 30
0.0
  0
POINT
  5
1C3F3
330
1C3EA
100
AcDbEntity
  8
DEFPOINTS
  6
Continuous
 62
     0
100
AcDbPoint
 10
154206.3753677991
 20
83117.92765371013
 30
0.0
  0
ENDBLK
  5
1C3F5
330
1C3EA
100
AcDbEntity
  8
0
100
AcDbBlockEnd
  0
BLOCK
  5
1C400
330
1C3F6
100
AcDbEntity
  8
0
100
AcDbBlockBegin
  2
*D90
 70
     1
 10
0.0
 20
0.0
 30
0.0
  3
*D90
  1

  0
LINE
  5
1C3F7
330
1C3F6
100
AcDbEntity
  8
1
  6
Continuous
 62
     0
370
    -2
100
AcDbLine
 10
154306.3753677991
 20
82213.18901659181
 30
0.0
 11
155246.8501009323
 21
82213.18901659181
 31
0.0
  0
LINE
  5
1C3F8
330
1C3F6
100
AcDbEntity
  8
1
  6
Continuous
 62
     0
370
    -2
100
AcDbLine
 10
154306.3753677991
 20
69281.44304771818
 30
0.0
 11
155246.8501009323
 21
69281.44304771818
 31
0.0
  0
LINE
  5
1C3F9
330
1C3F6
100
AcDbEntity
  8
1
  6
Continuous
 62
     0
370
    -2
100
AcDbLine
 10
155246.6701009323
 20
81713.18901659184
 30
0.0
 11
155246.6701009323
 21
69781.44304771817
 31
0.0
  0
INSERT
  5
1C3FA
330
1C3F6
100
AcDbEntity
  8
1
  6
Continuous
 62
     0
370
    -2
100
AcDbBlockReference
  2
_OPEN30
 10
155246.6701009323
 20
82213.18901659181
 30
0.0
 41
500.0
 42
500.0
 43
500.0
 50
90.0
  0
INSERT
  5
1C3FB
330
1C3F6
100
AcDbEntity
  8
1
  6
Continuous
 62
     0
370
    -2
100
AcDbBlockReference
  2
_OPEN30
 10
155246.6701009323
 20
69281.44304771818
 30
0.0
 41
500.0
 42
500.0
 43
500.0
 50
270.0
  0
MTEXT
  5
1C3FC
330
1C3F6
100
AcDbEntity
  8
1
  6
Continuous
 62
     0
370
    13
100
AcDbMText
 10
154996.6701009323
 20
75747.31603215501
 30
0.0
 40
400.0
 41
0.0
 71
     5
 72
     1
  1
\A1;700
 11
0.0000000000000001
 21
1.0
 31
0.0
 73
     1
 44
1.0
  0
POINT
  5
1C3FD
330
1C3F6
100
AcDbEntity
  8
DEFPOINTS
  6
Continuous
 62
     0
100
AcDbPoint
 10
154206.3753677991
 20
82213.18901659181
 30
0.0
  0
POINT
  5
1C3FE
330
1C3F6
100
AcDbEntity
  8
DEFPOINTS
  6
Continuous
 62
     0
100
AcDbPoint
 10
154206.3753677991
 20
69281.44304771818
 30
0.0
  0
POINT
  5
1C3FF
330
1C3F6
100
AcDbEntity
  8
DEFPOINTS
  6
Continuous
 62
     0
100
AcDbPoint
 10
155246.6701009323
 20
69281.44304771818
 30
0.0
  0
ENDBLK
  5
1C401
330
1C3F6
100
AcDbEntity
  8
0
100
AcDbBlockEnd
  0
BLOCK
  5
1C40C
330
1C402
100
AcDbEntity
  8
0
100
AcDbBlockBegin
  2
*D91
 70
     1
 10
0.0
 20
0.0
 30
0.0
  3
*D91
  1

  0
LINE
  5
1C403
330
1C402
100
AcDbEntity
  8
1
  6
Continuous
 62
     0
370
    -2
100
AcDbLine
 10
156882.859429155
 20
82248.53114330331
 30
0.0
 11
156882.859429155
 21
83118.10765371014
 31
0.0
  0
LINE
  5
1C404
330
1C402
100
AcDbEntity
  8
1
  6
Continuous
 62
     0
370
    -2
100
AcDbLine
 10
159101.5778632067
 20
82285.41849440002
 30
0.0
 11
159101.5778632067
 21
83118.10765371014
 31
0.0
  0
LINE
  5
1C405
330
1C402
100
AcDbEntity
  8
1
  6
Continuous
 62
     0
370
    -2
100
AcDbLine
 10
157382.8594291551
 20
83117.92765371013
 30
0.0
 11
158601.5778632068
 21
83117.92765371013
 31
0.0
  0
INSERT
  5
1C406
330
1C402
100
AcDbEntity
  8
1
  6
Continuous
 62
     0
370
    -2
100
AcDbBlockReference
  2
_OPEN30
 10
156882.859429155
 20
83117.92765371013
 30
0.0
 41
500.0
 42
500.0
 43
500.0
 50
180.0
  0
INSERT
  5
1C407
330
1C402
100
AcDbEntity
  8
1
  6
Continuous
 62
     0
370
    -2
100
AcDbBlockReference
  2
_OPEN30
 10
159101.5778632067
 20
83117.92765371013
 30
0.0
 41
500.0
 42
500.0
 43
500.0
  0
MTEXT
  5
1C408
330
1C402
100
AcDbEntity
  8
1
  6
Continuous
 62
     0
370
    13
100
AcDbMText
 10
157927.1252116025
 20
83367.92765371013
 30
0.0
 40
400.0
 41
0.0
 71
     5
 72
     1
  1
\A1;120
 73
     1
 44
1.0
  0
POINT
  5
1C409
330
1C402
100
AcDbEntity
  8
DEFPOINTS
  6
Continuous
 62
     0
100
AcDbPoint
 10
156882.859429155
 20
82148.53114330331
 30
0.0
  0
POINT
  5
1C40A
330
1C402
100
AcDbEntity
  8
DEFPOINTS
  6
Continuous
 62
     0
100
AcDbPoint
 10
159101.5778632067
 20
82185.41849440002
 30
0.0
  0
POINT
  5
1C40B
330
1C402
100
AcDbEntity
  8
DEFPOINTS
  6
Continuous
 62
     0
100
AcDbPoint
 10
159101.5778632067
 20
83117.92765371013
 30
0.0
  0
ENDBLK
  5
1C40D
330
1C402
100
AcDbEntity
  8
0
100
AcDbBlockEnd
  0
BLOCK
  5
20F2E
330
20F24
100
AcDbEntity
  8
0
100
AcDbBlockBegin
  2
*D92
 70
     1
 10
0.0
 20
0.0
 30
0.0
  3
*D92
  1

  0
LINE
  5
20F48
330
20F24
100
AcDbEntity
  8
1
  6
Continuous
 62
     0
370
    -2
100
AcDbLine
 10
5096.438059678913
 20
20900.72561197811
 30
0.0
 11
5096.438059678913
 21
21705.64337048825
 31
0.0
  0
LINE
  5
20F49
330
20F24
100
AcDbEntity
  8
1
  6
Continuous
 62
     0
370
    -2
100
AcDbLine
 10
14333.39802187543
 20
20900.72561197811
 30
0.0
 11
14333.39802187543
 21
21705.64337048825
 31
0.0
  0
LINE
  5
20F4A
330
20F24
100
AcDbEntity
  8
1
  6
Continuous
 62
     0
370
    -2
100
AcDbLine
 10
5596.438059678913
 20
21705.46337048826
 30
0.0
 11
13833.39802187543
 21
21705.46337048826
 31
0.0
  0
INSERT
  5
20F4B
330
20F24
100
AcDbEntity
  8
1
  6
Continuous
 62
     0
370
    -2
100
AcDbBlockReference
  2
_OPEN30
 10
5096.438059678913
 20
21705.46337048826
 30
0.0
 41
500.0
 42
500.0
 43
500.0
 50
180.0
  0
INSERT
  5
20F4C
330
20F24
100
AcDbEntity
  8
1
  6
Continuous
 62
     0
370
    -2
100
AcDbBlockReference
  2
_OPEN30
 10
14333.39802187543
 20
21705.46337048826
 30
0.0
 41
500.0
 42
500.0
 43
500.0
  0
MTEXT
  5
20F4D
330
20F24
100
AcDbEntity
  8
1
  6
Continuous
 62
     0
370
    13
100
AcDbMText
 10
9725.007354478904
 20
21955.46337048825
 30
0.0
 40
400.0
 41
0.0
 71
     5
 72
     1
  1
\A1;500
 73
     1
 44
1.0
  0
POINT
  5
20F4E
330
20F24
100
AcDbEntity
  8
DEFPOINTS
  6
Continuous
 62
     0
100
AcDbPoint
 10
5096.438059678913
 20
20800.72561197811
 30
0.0
  0
POINT
  5
20F4F
330
20F24
100
AcDbEntity
  8
DEFPOINTS
  6
Continuous
 62
     0
100
AcDbPoint
 10
14333.39802187543
 20
20800.72561197811
 30
0.0
  0
POINT
  5
20F50
330
20F24
100
AcDbEntity
  8
DEFPOINTS
  6
Continuous
 62
     0
100
AcDbPoint
 10
14333.39802187543
 20
21705.46337048826
 30
0.0
  0
ENDBLK
  5
20F2F
330
20F24
100
AcDbEntity
  8
0
100
AcDbBlockEnd
  0
BLOCK
  5
20F3A
330
20F30
100
AcDbEntity
  8
0
100
AcDbBlockBegin
  2
*D93
 70
     1
 10
0.0
 20
0.0
 30
0.0
  3
*D93
  1

  0
LINE
  5
20F51
330
20F30
100
AcDbEntity
  8
1
  6
Continuous
 62
     0
370
    -2
100
AcDbLine
 10
14433.39802187541
 20
20800.72473336994
 30
0.0
 11
15373.87275500867
 21
20800.72473336994
 31
0.0
  0
LINE
  5
20F52
330
20F30
100
AcDbEntity
  8
1
  6
Continuous
 62
     0
370
    -2
100
AcDbLine
 10
14433.39802187543
 20
7868.978764496306
 30
0.0
 11
15373.87275500867
 21
7868.978764496306
 31
0.0
  0
LINE
  5
20F53
330
20F30
100
AcDbEntity
  8
1
  6
Continuous
 62
     0
370
    -2
100
AcDbLine
 10
15373.69275500866
 20
20300.72473336995
 30
0.0
 11
15373.69275500866
 21
8368.97876449631
 31
0.0
  0
INSERT
  5
20F54
330
20F30
100
AcDbEntity
  8
1
  6
Continuous
 62
     0
370
    -2
100
AcDbBlockReference
  2
_OPEN30
 10
15373.69275500866
 20
20800.72473336994
 30
0.0
 41
500.0
 42
500.0
 43
500.0
 50
90.0
  0
INSERT
  5
20F55
330
20F30
100
AcDbEntity
  8
1
  6
Continuous
 62
     0
370
    -2
100
AcDbBlockReference
  2
_OPEN30
 10
15373.69275500866
 20
7868.978764496306
 30
0.0
 41
500.0
 42
500.0
 43
500.0
 50
270.0
  0
MTEXT
  5
20F56
330
20F30
100
AcDbEntity
  8
1
  6
Continuous
 62
     0
370
    13
100
AcDbMText
 10
15123.69275500866
 20
14334.85174893313
 30
0.0
 40
400.0
 41
0.0
 71
     5
 72
     1
  1
\A1;700
 11
0.0000000000000001
 21
1.0
 31
0.0
 73
     1
 44
1.0
  0
POINT
  5
20F57
330
20F30
100
AcDbEntity
  8
DEFPOINTS
  6
Continuous
 62
     0
100
AcDbPoint
 10
14333.3980218754
 20
20800.72473336994
 30
0.0
  0
POINT
  5
20F58
330
20F30
100
AcDbEntity
  8
DEFPOINTS
  6
Continuous
 62
     0
100
AcDbPoint
 10
14333.39802187543
 20
7868.978764496309
 30
0.0
  0
POINT
  5
20F59
330
20F30
100
AcDbEntity
  8
DEFPOINTS
  6
Continuous
 62
     0
100
AcDbPoint
 10
15373.69275500866
 20
7868.978764496306
 30
0.0
  0
ENDBLK
  5
20F3B
330
20F30
100
AcDbEntity
  8
0
100
AcDbBlockEnd
  0
BLOCK
  5
20F46
330
20F3C
100
AcDbEntity
  8
0
100
AcDbBlockBegin
  2
*D94
 70
     1
 10
0.0
 20
0.0
 30
0.0
  3
*D94
  1

  0
LINE
  5
20F5A
330
20F3C
100
AcDbEntity
  8
1
  6
Continuous
 62
     0
370
    -2
100
AcDbLine
 10
17009.88208323146
 20
20836.06686008144
 30
0.0
 11
17009.88208323146
 21
21705.64337048825
 31
0.0
  0
LINE
  5
20F5B
330
20F3C
100
AcDbEntity
  8
1
  6
Continuous
 62
     0
370
    -2
100
AcDbLine
 10
19228.6005172831
 20
20872.95421117815
 30
0.0
 11
19228.6005172831
 21
21705.64337048825
 31
0.0
  0
LINE
  5
20F5C
330
20F3C
100
AcDbEntity
  8
1
  6
Continuous
 62
     0
370
    -2
100
AcDbLine
 10
17509.88208323146
 20
21705.46337048826
 30
0.0
 11
18728.6005172831
 21
21705.46337048826
 31
0.0
  0
INSERT
  5
20F5D
330
20F3C
100
AcDbEntity
  8
1
  6
Continuous
 62
     0
370
    -2
100
AcDbBlockReference
  2
_OPEN30
 10
17009.88208323146
 20
21705.46337048826
 30
0.0
 41
500.0
 42
500.0
 43
500.0
 50
180.0
  0
INSERT
  5
20F5E
330
20F3C
100
AcDbEntity
  8
1
  6
Continuous
 62
     0
370
    -2
100
AcDbBlockReference
  2
_OPEN30
 10
19228.6005172831
 20
21705.46337048826
 30
0.0
 41
500.0
 42
500.0
 43
500.0
  0
MTEXT
  5
20F5F
330
20F3C
100
AcDbEntity
  8
1
  6
Continuous
 62
     0
370
    13
100
AcDbMText
 10
18054.14786567885
 20
21955.46337048825
 30
0.0
 40
400.0
 41
0.0
 71
     5
 72
     1
  1
\A1;120
 73
     1
 44
1.0
  0
POINT
  5
20F60
330
20F3C
100
AcDbEntity
  8
DEFPOINTS
  6
Continuous
 62
     0
100
AcDbPoint
 10
17009.88208323146
 20
20736.06686008143
 30
0.0
  0
POINT
  5
20F61
330
20F3C
100
AcDbEntity
  8
DEFPOINTS
  6
Continuous
 62
     0
100
AcDbPoint
 10
19228.6005172831
 20
20772.95421117816
 30
0.0
  0
POINT
  5
20F62
330
20F3C
100
AcDbEntity
  8
DEFPOINTS
  6
Continuous
 62
     0
100
AcDbPoint
 10
19228.6005172831
 20
21705.46337048826
 30
0.0
  0
ENDBLK
  5
20F47
330
20F3C
100
AcDbEntity
  8
0
100
AcDbBlockEnd
  0
BLOCK
  5
20F6E
330
20F64
100
AcDbEntity
  8
0
100
AcDbBlockBegin
  2
*D95
 70
     1
 10
0.0
 20
0.0
 30
0.0
  3
*D95
  1

  0
LINE
  5
20F65
330
20F64
100
AcDbEntity
  8
1
  6
Continuous
 62
     0
370
    -2
100
AcDbLine
 10
14162.40077932396
 20
54672.37118420344
 30
0.0
 11
14162.40077932396
 21
55477.28894271356
 31
0.0
  0
LINE
  5
20F66
330
20F64
100
AcDbEntity
  8
1
  6
Continuous
 62
     0
370
    -2
100
AcDbLine
 10
22000.60877932396
 20
54672.37118420344
 30
0.0
 11
22000.60877932396
 21
55477.28894271356
 31
0.0
  0
LINE
  5
20F67
330
20F64
100
AcDbEntity
  8
1
  6
Continuous
 62
     0
370
    -2
100
AcDbLine
 10
14662.40077932396
 20
55477.10894271356
 30
0.0
 11
21500.60877932395
 21
55477.10894271356
 31
0.0
  0
INSERT
  5
20F68
330
20F64
100
AcDbEntity
  8
1
  6
Continuous
 62
     0
370
    -2
100
AcDbBlockReference
  2
_OPEN30
 10
14162.40077932396
 20
55477.10894271356
 30
0.0
 41
500.0
 42
500.0
 43
500.0
 50
180.0
  0
INSERT
  5
20F69
330
20F64
100
AcDbEntity
  8
1
  6
Continuous
 62
     0
370
    -2
100
AcDbBlockReference
  2
_OPEN30
 10
22000.60877932396
 20
55477.10894271356
 30
0.0
 41
500.0
 42
500.0
 43
500.0
  0
MTEXT
  5
20F6A
330
20F64
100
AcDbEntity
  8
1
  6
Continuous
 62
     0
370
    13
100
AcDbMText
 10
18081.50477932396
 20
55727.10894271357
 30
0.0
 40
400.0
 41
0.0
 71
     5
 72
     1
  1
\A1;600
 73
     1
 44
1.0
  0
POINT
  5
20F6B
330
20F64
100
AcDbEntity
  8
DEFPOINTS
  6
Continuous
 62
     0
100
AcDbPoint
 10
14162.40077932396
 20
54572.37118420342
 30
0.0
  0
POINT
  5
20F6C
330
20F64
100
AcDbEntity
  8
DEFPOINTS
  6
Continuous
 62
     0
100
AcDbPoint
 10
22000.60877932396
 20
54572.37118420342
 30
0.0
  0
POINT
  5
20F6D
330
20F64
100
AcDbEntity
  8
DEFPOINTS
  6
Continuous
 62
     0
100
AcDbPoint
 10
22000.60877932396
 20
55477.10894271356
 30
0.0
  0
ENDBLK
  5
20F6F
330
20F64
100
AcDbEntity
  8
0
100
AcDbBlockEnd
  0
BLOCK
  5
20F7A
330
20F70
100
AcDbEntity
  8
0
100
AcDbBlockBegin
  2
*D96
 70
     1
 10
0.0
 20
0.0
 30
0.0
  3
*D96
  1

  0
LINE
  5
20F71
330
20F70
100
AcDbEntity
  8
1
  6
Continuous
 62
     0
370
    -2
100
AcDbLine
 10
22100.60877932396
 20
54572.37030559525
 30
0.0
 11
23000.17288632729
 21
54572.37030559525
 31
0.0
  0
LINE
  5
20F72
330
20F70
100
AcDbEntity
  8
1
  6
Continuous
 62
     0
370
    -2
100
AcDbLine
 10
22100.60877932396
 20
41508.69118420345
 30
0.0
 11
23000.17288632729
 21
41508.69118420345
 31
0.0
  0
LINE
  5
20F73
330
20F70
100
AcDbEntity
  8
1
  6
Continuous
 62
     0
370
    -2
100
AcDbLine
 10
22999.99288632729
 20
54072.37030559525
 30
0.0
 11
22999.99288632729
 21
42008.69118420345
 31
0.0
  0
INSERT
  5
20F74
330
20F70
100
AcDbEntity
  8
1
  6
Continuous
 62
     0
370
    -2
100
AcDbBlockReference
  2
_OPEN30
 10
22999.99288632729
 20
54572.37030559525
 30
0.0
 41
500.0
 42
500.0
 43
500.0
 50
90.0
  0
INSERT
  5
20F75
330
20F70
100
AcDbEntity
  8
1
  6
Continuous
 62
     0
370
    -2
100
AcDbBlockReference
  2
_OPEN30
 10
22999.99288632729
 20
41508.69118420345
 30
0.0
 41
500.0
 42
500.0
 43
500.0
 50
270.0
  0
MTEXT
  5
20F76
330
20F70
100
AcDbEntity
  8
1
  6
Continuous
 62
     0
370
    13
100
AcDbMText
 10
22749.99288632728
 20
48040.53074489936
 30
0.0
 40
400.0
 41
0.0
 71
     5
 72
     1
  1
\A1;1000
 11
0.0000000000000001
 21
1.0
 31
0.0
 73
     1
 44
1.0
  0
POINT
  5
20F77
330
20F70
100
AcDbEntity
  8
DEFPOINTS
  6
Continuous
 62
     0
100
AcDbPoint
 10
22000.60877932396
 20
54572.37030559525
 30
0.0
  0
POINT
  5
20F78
330
20F70
100
AcDbEntity
  8
DEFPOINTS
  6
Continuous
 62
     0
100
AcDbPoint
 10
22000.60877932396
 20
41508.69118420345
 30
0.0
  0
POINT
  5
20F79
330
20F70
100
AcDbEntity
  8
DEFPOINTS
  6
Continuous
 62
     0
100
AcDbPoint
 10
22999.99288632729
 20
41508.69118420345
 30
0.0
  0
ENDBLK
  5
20F7B
330
20F70
100
AcDbEntity
  8
0
100
AcDbBlockEnd
  0
BLOCK
  5
20F86
330
20F7C
100
AcDbEntity
  8
0
100
AcDbBlockBegin
  2
*D97
 70
     1
 10
0.0
 20
0.0
 30
0.0
  3
*D97
  1

  0
LINE
  5
20F7D
330
20F7C
100
AcDbEntity
  8
1
  6
Continuous
 62
     0
370
    -2
100
AcDbLine
 10
25266.52877932396
 20
54672.37118420344
 30
0.0
 11
25266.52877932396
 21
55477.28894271356
 31
0.0
  0
LINE
  5
20F7E
330
20F7C
100
AcDbEntity
  8
1
  6
Continuous
 62
     0
370
    -2
100
AcDbLine
 10
27356.71757932395
 20
54672.37118420344
 30
0.0
 11
27356.71757932395
 21
55477.28894271356
 31
0.0
  0
LINE
  5
20F7F
330
20F7C
100
AcDbEntity
  8
1
  6
Continuous
 62
     0
370
    -2
100
AcDbLine
 10
25766.52877932395
 20
55477.10894271356
 30
0.0
 11
26856.71757932395
 21
55477.10894271356
 31
0.0
  0
INSERT
  5
20F80
330
20F7C
100
AcDbEntity
  8
1
  6
Continuous
 62
     0
370
    -2
100
AcDbBlockReference
  2
_OPEN30
 10
25266.52877932396
 20
55477.10894271356
 30
0.0
 41
500.0
 42
500.0
 43
500.0
 50
180.0
  0
INSERT
  5
20F81
330
20F7C
100
AcDbEntity
  8
1
  6
Continuous
 62
     0
370
    -2
100
AcDbBlockReference
  2
_OPEN30
 10
27356.71757932395
 20
55477.10894271356
 30
0.0
 41
500.0
 42
500.0
 43
500.0
  0
MTEXT
  5
20F82
330
20F7C
100
AcDbEntity
  8
1
  6
Continuous
 62
     0
370
    13
100
AcDbMText
 10
26311.62317932394
 20
55727.10894271357
 30
0.0
 40
400.0
 41
0.0
 71
     5
 72
     1
  1
\A1;160
 73
     1
 44
1.0
  0
POINT
  5
20F83
330
20F7C
100
AcDbEntity
  8
DEFPOINTS
  6
Continuous
 62
     0
100
AcDbPoint
 10
25266.52877932396
 20
54572.37118420342
 30
0.0
  0
POINT
  5
20F84
330
20F7C
100
AcDbEntity
  8
DEFPOINTS
  6
Continuous
 62
     0
100
AcDbPoint
 10
27356.71757932395
 20
54572.37118420342
 30
0.0
  0
POINT
  5
20F85
330
20F7C
100
AcDbEntity
  8
DEFPOINTS
  6
Continuous
 62
     0
100
AcDbPoint
 10
27356.71757932395
 20
55477.10894271356
 30
0.0
  0
ENDBLK
  5
20F87
330
20F7C
100
AcDbEntity
  8
0
100
AcDbBlockEnd
  0
BLOCK
  5
2198A
330
21980
100
AcDbEntity
  8
0
100
AcDbBlockBegin
  2
*D98
 70
     1
 10
0.0
 20
0.0
 30
0.0
  3
*D98
  1

  0
LINE
  5
219A4
330
21980
100
AcDbEntity
  8
1
  6
Continuous
 62
     0
370
    -2
100
AcDbLine
 10
5567.071667591168
 20
21114.97322081123
 30
0.0
 11
5567.071667591168
 21
21919.89097932137
 31
0.0
  0
LINE
  5
219A5
330
21980
100
AcDbEntity
  8
1
  6
Continuous
 62
     0
370
    -2
100
AcDbLine
 10
13405.27966759115
 20
21114.97322081123
 30
0.0
 11
13405.27966759115
 21
21919.89097932137
 31
0.0
  0
LINE
  5
219A6
330
21980
100
AcDbEntity
  8
1
  6
Continuous
 62
     0
370
    -2
100
AcDbLine
 10
6067.071667591168
 20
21919.71097932137
 30
0.0
 11
12905.27966759115
 21
21919.71097932137
 31
0.0
  0
INSERT
  5
219A7
330
21980
100
AcDbEntity
  8
1
  6
Continuous
 62
     0
370
    -2
100
AcDbBlockReference
  2
_OPEN30
 10
5567.071667591168
 20
21919.71097932137
 30
0.0
 41
500.0
 42
500.0
 43
500.0
 50
180.0
  0
INSERT
  5
219A8
330
21980
100
AcDbEntity
  8
1
  6
Continuous
 62
     0
370
    -2
100
AcDbBlockReference
  2
_OPEN30
 10
13405.27966759115
 20
21919.71097932137
 30
0.0
 41
500.0
 42
500.0
 43
500.0
  0
MTEXT
  5
219A9
330
21980
100
AcDbEntity
  8
1
  6
Continuous
 62
     0
370
    13
100
AcDbMText
 10
9486.17566759116
 20
22169.71097932137
 30
0.0
 40
400.0
 41
0.0
 71
     5
 72
     1
  1
\A1;600
 73
     1
 44
1.0
  0
POINT
  5
219AA
330
21980
100
AcDbEntity
  8
DEFPOINTS
  6
Continuous
 62
     0
100
AcDbPoint
 10
5567.071667591168
 20
21014.97322081124
 30
0.0
  0
POINT
  5
219AB
330
21980
100
AcDbEntity
  8
DEFPOINTS
  6
Continuous
 62
     0
100
AcDbPoint
 10
13405.27966759115
 20
21014.97322081124
 30
0.0
  0
POINT
  5
219AC
330
21980
100
AcDbEntity
  8
DEFPOINTS
  6
Continuous
 62
     0
100
AcDbPoint
 10
13405.27966759115
 20
21919.71097932137
 30
0.0
  0
ENDBLK
  5
2198B
330
21980
100
AcDbEntity
  8
0
100
AcDbBlockEnd
  0
BLOCK
  5
21996
330
2198C
100
AcDbEntity
  8
0
100
AcDbBlockBegin
  2
*D99
 70
     1
 10
0.0
 20
0.0
 30
0.0
  3
*D99
  1

  0
LINE
  5
219AD
330
2198C
100
AcDbEntity
  8
1
  6
Continuous
 62
     0
370
    -2
100
AcDbLine
 10
13505.27966759115
 20
21014.97234220305
 30
0.0
 11
14404.84377459449
 21
21014.97234220305
 31
0.0
  0
LINE
  5
219AE
330
2198C
100
AcDbEntity
  8
1
  6
Continuous
 62
     0
370
    -2
100
AcDbLine
 10
13505.27966759115
 20
7951.293220811256
 30
0.0
 11
14404.84377459449
 21
7951.293220811253
 31
0.0
  0
LINE
  5
219AF
330
2198C
100
AcDbEntity
  8
1
  6
Continuous
 62
     0
370
    -2
100
AcDbLine
 10
14404.66377459449
 20
20514.97234220305
 30
0.0
 11
14404.66377459449
 21
8451.293220811255
 31
0.0
  0
INSERT
  5
219B0
330
2198C
100
AcDbEntity
  8
1
  6
Continuous
 62
     0
370
    -2
100
AcDbBlockReference
  2
_OPEN30
 10
14404.66377459449
 20
21014.97234220305
 30
0.0
 41
500.0
 42
500.0
 43
500.0
 50
90.0
  0
INSERT
  5
219B1
330
2198C
100
AcDbEntity
  8
1
  6
Continuous
 62
     0
370
    -2
100
AcDbBlockReference
  2
_OPEN30
 10
14404.66377459449
 20
7951.293220811253
 30
0.0
 41
500.0
 42
500.0
 43
500.0
 50
270.0
  0
MTEXT
  5
219B2
330
2198C
100
AcDbEntity
  8
1
  6
Continuous
 62
     0
370
    13
100
AcDbMText
 10
14154.66377459448
 20
14483.13278150715
 30
0.0
 40
400.0
 41
0.0
 71
     5
 72
     1
  1
\A1;1000
 11
0.0000000000000001
 21
1.0
 31
0.0
 73
     1
 44
1.0
  0
POINT
  5
219B3
330
2198C
100
AcDbEntity
  8
DEFPOINTS
  6
Continuous
 62
     0
100
AcDbPoint
 10
13405.27966759115
 20
21014.97234220305
 30
0.0
  0
POINT
  5
219B4
330
2198C
100
AcDbEntity
  8
DEFPOINTS
  6
Continuous
 62
     0
100
AcDbPoint
 10
13405.27966759115
 20
7951.293220811256
 30
0.0
  0
POINT
  5
219B5
330
2198C
100
AcDbEntity
  8
DEFPOINTS
  6
Continuous
 62
     0
100
AcDbPoint
 10
14404.66377459449
 20
7951.293220811253
 30
0.0
  0
ENDBLK
  5
21997
330
2198C
100
AcDbEntity
  8
0
100
AcDbBlockEnd
  0
BLOCK
  5
219A2
330
21998
100
AcDbEntity
  8
0
100
AcDbBlockBegin
  2
*D100
 70
     1
 10
0.0
 20
0.0
 30
0.0
  3
*D100
  1

  0
LINE
  5
219B6
330
21998
100
AcDbEntity
  8
1
  6
Continuous
 62
     0
370
    -2
100
AcDbLine
 10
16671.19966759115
 20
21114.97322081123
 30
0.0
 11
16671.19966759115
 21
21919.89097932137
 31
0.0
  0
LINE
  5
219B7
330
21998
100
AcDbEntity
  8
1
  6
Continuous
 62
     0
370
    -2
100
AcDbLine
 10
18761.38846759115
 20
21114.97322081123
 30
0.0
 11
18761.38846759115
 21
21919.89097932137
 31
0.0
  0
LINE
  5
219B8
330
21998
100
AcDbEntity
  8
1
  6
Continuous
 62
     0
370
    -2
100
AcDbLine
 10
17171.19966759115
 20
21919.71097932137
 30
0.0
 11
18261.38846759113
 21
21919.71097932137
 31
0.0
  0
INSERT
  5
219B9
330
21998
100
AcDbEntity
  8
1
  6
Continuous
 62
     0
370
    -2
100
AcDbBlockReference
  2
_OPEN30
 10
16671.19966759115
 20
21919.71097932137
 30
0.0
 41
500.0
 42
500.0
 43
500.0
 50
180.0
  0
INSERT
  5
219BA
330
21998
100
AcDbEntity
  8
1
  6
Continuous
 62
     0
370
    -2
100
AcDbBlockReference
  2
_OPEN30
 10
18761.38846759115
 20
21919.71097932137
 30
0.0
 41
500.0
 42
500.0
 43
500.0
  0
MTEXT
  5
219BB
330
21998
100
AcDbEntity
  8
1
  6
Continuous
 62
     0
370
    13
100
AcDbMText
 10
17716.29406759114
 20
22169.71097932137
 30
0.0
 40
400.0
 41
0.0
 71
     5
 72
     1
  1
\A1;160
 73
     1
 44
1.0
  0
POINT
  5
219BC
330
21998
100
AcDbEntity
  8
DEFPOINTS
  6
Continuous
 62
     0
100
AcDbPoint
 10
16671.19966759115
 20
21014.97322081124
 30
0.0
  0
POINT
  5
219BD
330
21998
100
AcDbEntity
  8
DEFPOINTS
  6
Continuous
 62
     0
100
AcDbPoint
 10
18761.38846759115
 20
21014.97322081124
 30
0.0
  0
POINT
  5
219BE
330
21998
100
AcDbEntity
  8
DEFPOINTS
  6
Continuous
 62
     0
100
AcDbPoint
 10
18761.38846759115
 20
21919.71097932137
 30
0.0
  0
ENDBLK
  5
219A3
330
21998
100
AcDbEntity
  8
0
100
AcDbBlockEnd
  0
BLOCK
  5
219CA
330
219C0
100
AcDbEntity
  8
0
100
AcDbBlockBegin
  2
*D101
 70
     1
 10
0.0
 20
0.0
 30
0.0
  3
*D101
  1

  0
LINE
  5
219C1
330
219C0
100
AcDbEntity
  8
1
  6
Continuous
 62
     0
370
    -2
100
AcDbLine
 10
40818.95999999988
 20
54941.6544
 30
0.0
 11
40818.95999999988
 21
55746.57215851012
 31
0.0
  0
LINE
  5
219C2
330
219C0
100
AcDbEntity
  8
1
  6
Continuous
 62
     0
370
    -2
100
AcDbLine
 10
47661.83999999999
 20
54941.6544
 30
0.0
 11
47661.83999999999
 21
55746.57215851012
 31
0.0
  0
LINE
  5
219C3
330
219C0
100
AcDbEntity
  8
1
  6
Continuous
 62
     0
370
    -2
100
AcDbLine
 10
41318.95999999989
 20
55746.39215851012
 30
0.0
 11
47161.84000000001
 21
55746.39215851012
 31
0.0
  0
INSERT
  5
219C4
330
219C0
100
AcDbEntity
  8
1
  6
Continuous
 62
     0
370
    -2
100
AcDbBlockReference
  2
_OPEN30
 10
40818.95999999988
 20
55746.39215851012
 30
0.0
 41
500.0
 42
500.0
 43
500.0
 50
180.0
  0
INSERT
  5
219C5
330
219C0
100
AcDbEntity
  8
1
  6
Continuous
 62
     0
370
    -2
100
AcDbBlockReference
  2
_OPEN30
 10
47661.83999999999
 20
55746.39215851012
 30
0.0
 41
500.0
 42
500.0
 43
500.0
  0
MTEXT
  5
219C6
330
219C0
100
AcDbEntity
  8
1
  6
Continuous
 62
     0
370
    13
100
AcDbMText
 10
44240.39999999995
 20
55996.39215851013
 30
0.0
 40
400.0
 41
0.0
 71
     5
 72
     1
  1
\A1;600
 73
     1
 44
1.0
  0
POINT
  5
219C7
330
219C0
100
AcDbEntity
  8
DEFPOINTS
  6
Continuous
 62
     0
100
AcDbPoint
 10
40818.95999999988
 20
54841.65439999999
 30
0.0
  0
POINT
  5
219C8
330
219C0
100
AcDbEntity
  8
DEFPOINTS
  6
Continuous
 62
     0
100
AcDbPoint
 10
47661.83999999999
 20
54841.65439999999
 30
0.0
  0
POINT
  5
219C9
330
219C0
100
AcDbEntity
  8
DEFPOINTS
  6
Continuous
 62
     0
100
AcDbPoint
 10
47661.83999999999
 20
55746.39215851012
 30
0.0
  0
ENDBLK
  5
219CB
330
219C0
100
AcDbEntity
  8
0
100
AcDbBlockEnd
  0
BLOCK
  5
219D6
330
219CC
100
AcDbEntity
  8
0
100
AcDbBlockBegin
  2
*D102
 70
     1
 10
0.0
 20
0.0
 30
0.0
  3
*D102
  1

  0
LINE
  5
219CD
330
219CC
100
AcDbEntity
  8
1
  6
Continuous
 62
     0
370
    -2
100
AcDbLine
 10
47761.83999999999
 20
54841.65439999999
 30
0.0
 11
48938.21076914186
 21
54841.65439999999
 31
0.0
  0
LINE
  5
219CE
330
219CC
100
AcDbEntity
  8
1
  6
Continuous
 62
     0
370
    -2
100
AcDbLine
 10
47761.83999999999
 20
41155.89439999998
 30
0.0
 11
48938.21076914186
 21
41155.89439999998
 31
0.0
  0
LINE
  5
219CF
330
219CC
100
AcDbEntity
  8
1
  6
Continuous
 62
     0
370
    -2
100
AcDbLine
 10
48938.03076914186
 20
54341.6544
 30
0.0
 11
48938.03076914186
 21
41655.89439999998
 31
0.0
  0
INSERT
  5
219D0
330
219CC
100
AcDbEntity
  8
1
  6
Continuous
 62
     0
370
    -2
100
AcDbBlockReference
  2
_OPEN30
 10
48938.03076914186
 20
54841.65439999999
 30
0.0
 41
500.0
 42
500.0
 43
500.0
 50
90.0
  0
INSERT
  5
219D1
330
219CC
100
AcDbEntity
  8
1
  6
Continuous
 62
     0
370
    -2
100
AcDbBlockReference
  2
_OPEN30
 10
48938.03076914186
 20
41155.89439999998
 30
0.0
 41
500.0
 42
500.0
 43
500.0
 50
270.0
  0
MTEXT
  5
219D2
330
219CC
100
AcDbEntity
  8
1
  6
Continuous
 62
     0
370
    13
100
AcDbMText
 10
48688.03076914185
 20
47998.7744
 30
0.0
 40
400.0
 41
0.0
 71
     5
 72
     1
  1
\A1;1200
 11
0.0000000000000001
 21
1.0
 31
0.0
 73
     1
 44
1.0
  0
POINT
  5
219D3
330
219CC
100
AcDbEntity
  8
DEFPOINTS
  6
Continuous
 62
     0
100
AcDbPoint
 10
47661.83999999999
 20
54841.65439999999
 30
0.0
  0
POINT
  5
219D4
330
219CC
100
AcDbEntity
  8
DEFPOINTS
  6
Continuous
 62
     0
100
AcDbPoint
 10
47661.83999999999
 20
41155.89439999998
 30
0.0
  0
POINT
  5
219D5
330
219CC
100
AcDbEntity
  8
DEFPOINTS
  6
Continuous
 62
     0
100
AcDbPoint
 10
48938.03076914186
 20
41155.89439999998
 30
0.0
  0
ENDBLK
  5
219D7
330
219CC
100
AcDbEntity
  8
0
100
AcDbBlockEnd
  0
BLOCK
  5
219E2
330
219D8
100
AcDbEntity
  8
0
100
AcDbBlockBegin
  2
*D103
 70
     1
 10
0.0
 20
0.0
 30
0.0
  3
*D103
  1

  0
LINE
  5
219D9
330
219D8
100
AcDbEntity
  8
1
  6
Continuous
 62
     0
370
    -2
100
AcDbLine
 10
50513.03999999988
 20
54941.65439999999
 30
0.0
 11
50513.03999999988
 21
55746.57215851012
 31
0.0
  0
LINE
  5
219DA
330
219D8
100
AcDbEntity
  8
1
  6
Continuous
 62
     0
370
    -2
100
AcDbLine
 10
52337.80799999988
 20
54941.6544
 30
0.0
 11
52337.80799999988
 21
55746.57215851012
 31
0.0
  0
LINE
  5
219DB
330
219D8
100
AcDbEntity
  8
1
  6
Continuous
 62
     0
370
    -2
100
AcDbLine
 10
51013.03999999988
 20
55746.39215851012
 30
0.0
 11
51837.80799999988
 21
55746.39215851012
 31
0.0
  0
INSERT
  5
219DC
330
219D8
100
AcDbEntity
  8
1
  6
Continuous
 62
     0
370
    -2
100
AcDbBlockReference
  2
_OPEN30
 10
50513.03999999988
 20
55746.39215851012
 30
0.0
 41
500.0
 42
500.0
 43
500.0
 50
180.0
  0
INSERT
  5
219DD
330
219D8
100
AcDbEntity
  8
1
  6
Continuous
 62
     0
370
    -2
100
AcDbBlockReference
  2
_OPEN30
 10
52337.80799999988
 20
55746.39215851012
 30
0.0
 41
500.0
 42
500.0
 43
500.0
  0
MTEXT
  5
219DE
330
219D8
100
AcDbEntity
  8
1
  6
Continuous
 62
     0
370
    13
100
AcDbMText
 10
51425.42399999988
 20
55996.39215851013
 30
0.0
 40
400.0
 41
0.0
 71
     5
 72
     1
  1
\A1;160
 73
     1
 44
1.0
  0
POINT
  5
219DF
330
219D8
100
AcDbEntity
  8
DEFPOINTS
  6
Continuous
 62
     0
100
AcDbPoint
 10
50513.03999999988
 20
54841.65439999999
 30
0.0
  0
POINT
  5
219E0
330
219D8
100
AcDbEntity
  8
DEFPOINTS
  6
Continuous
 62
     0
100
AcDbPoint
 10
52337.80799999988
 20
54841.65439999999
 30
0.0
  0
POINT
  5
219E1
330
219D8
100
AcDbEntity
  8
DEFPOINTS
  6
Continuous
 62
     0
100
AcDbPoint
 10
52337.80799999988
 20
55746.39215851012
 30
0.0
  0
ENDBLK
  5
219E3
330
219D8
100
AcDbEntity
  8
0
100
AcDbBlockEnd
  0
BLOCK
  5
22626
330
2261C
100
AcDbEntity
  8
0
100
AcDbBlockBegin
  2
*D104
 70
     1
 10
0.0
 20
0.0
 30
0.0
  3
*D104
  1

  0
LINE
  5
22640
330
2261C
100
AcDbEntity
  8
1
  6
Continuous
 62
     0
370
    -2
100
AcDbLine
 10
6021.189689465296
 20
21384.33609119354
 30
0.0
 11
6021.189689465296
 21
22189.25384970369
 31
0.0
  0
LINE
  5
22641
330
2261C
100
AcDbEntity
  8
1
  6
Continuous
 62
     0
370
    -2
100
AcDbLine
 10
12864.0696894654
 20
21384.33609119354
 30
0.0
 11
12864.0696894654
 21
22189.25384970369
 31
0.0
  0
LINE
  5
22642
330
2261C
100
AcDbEntity
  8
1
  6
Continuous
 62
     0
370
    -2
100
AcDbLine
 10
6521.189689465295
 20
22189.07384970369
 30
0.0
 11
12364.0696894654
 21
22189.07384970369
 31
0.0
  0
INSERT
  5
22643
330
2261C
100
AcDbEntity
  8
1
  6
Continuous
 62
     0
370
    -2
100
AcDbBlockReference
  2
_OPEN30
 10
6021.189689465296
 20
22189.07384970369
 30
0.0
 41
500.0
 42
500.0
 43
500.0
 50
180.0
  0
INSERT
  5
22644
330
2261C
100
AcDbEntity
  8
1
  6
Continuous
 62
     0
370
    -2
100
AcDbBlockReference
  2
_OPEN30
 10
12864.0696894654
 20
22189.07384970369
 30
0.0
 41
500.0
 42
500.0
 43
500.0
  0
MTEXT
  5
22645
330
2261C
100
AcDbEntity
  8
1
  6
Continuous
 62
     0
370
    13
100
AcDbMText
 10
9442.62968946535
 20
22439.07384970369
 30
0.0
 40
400.0
 41
0.0
 71
     5
 72
     1
  1
\A1;600
 73
     1
 44
1.0
  0
POINT
  5
22646
330
2261C
100
AcDbEntity
  8
DEFPOINTS
  6
Continuous
 62
     0
100
AcDbPoint
 10
6021.189689465296
 20
21284.33609119356
 30
0.0
  0
POINT
  5
22647
330
2261C
100
AcDbEntity
  8
DEFPOINTS
  6
Continuous
 62
     0
100
AcDbPoint
 10
12864.0696894654
 20
21284.33609119356
 30
0.0
  0
POINT
  5
22648
330
2261C
100
AcDbEntity
  8
DEFPOINTS
  6
Continuous
 62
     0
100
AcDbPoint
 10
12864.0696894654
 20
22189.07384970369
 30
0.0
  0
ENDBLK
  5
22627
330
2261C
100
AcDbEntity
  8
0
100
AcDbBlockEnd
  0
BLOCK
  5
22632
330
22628
100
AcDbEntity
  8
0
100
AcDbBlockBegin
  2
*D105
 70
     1
 10
0.0
 20
0.0
 30
0.0
  3
*D105
  1

  0
LINE
  5
22649
330
22628
100
AcDbEntity
  8
1
  6
Continuous
 62
     0
370
    -2
100
AcDbLine
 10
12964.0696894654
 20
21284.33609119356
 30
0.0
 11
14140.44045860725
 21
21284.33609119356
 31
0.0
  0
LINE
  5
2264A
330
22628
100
AcDbEntity
  8
1
  6
Continuous
 62
     0
370
    -2
100
AcDbLine
 10
12964.0696894654
 20
7598.57609119355
 30
0.0
 11
14140.44045860725
 21
7598.57609119355
 31
0.0
  0
LINE
  5
2264B
330
22628
100
AcDbEntity
  8
1
  6
Continuous
 62
     0
370
    -2
100
AcDbLine
 10
14140.26045860725
 20
20784.33609119356
 30
0.0
 11
14140.26045860724
 21
8098.57609119355
 31
0.0
  0
INSERT
  5
2264C
330
22628
100
AcDbEntity
  8
1
  6
Continuous
 62
     0
370
    -2
100
AcDbBlockReference
  2
_OPEN30
 10
14140.26045860725
 20
21284.33609119356
 30
0.0
 41
500.0
 42
500.0
 43
500.0
 50
90.0
  0
INSERT
  5
2264D
330
22628
100
AcDbEntity
  8
1
  6
Continuous
 62
     0
370
    -2
100
AcDbBlockReference
  2
_OPEN30
 10
14140.26045860724
 20
7598.57609119355
 30
0.0
 41
500.0
 42
500.0
 43
500.0
 50
270.0
  0
MTEXT
  5
2264E
330
22628
100
AcDbEntity
  8
1
  6
Continuous
 62
     0
370
    13
100
AcDbMText
 10
13890.26045860725
 20
14441.45609119355
 30
0.0
 40
400.0
 41
0.0
 71
     5
 72
     1
  1
\A1;1200
 11
0.0000000000000001
 21
1.0
 31
0.0
 73
     1
 44
1.0
  0
POINT
  5
2264F
330
22628
100
AcDbEntity
  8
DEFPOINTS
  6
Continuous
 62
     0
100
AcDbPoint
 10
12864.0696894654
 20
21284.33609119356
 30
0.0
  0
POINT
  5
22650
330
22628
100
AcDbEntity
  8
DEFPOINTS
  6
Continuous
 62
     0
100
AcDbPoint
 10
12864.0696894654
 20
7598.57609119355
 30
0.0
  0
POINT
  5
22651
330
22628
100
AcDbEntity
  8
DEFPOINTS
  6
Continuous
 62
     0
100
AcDbPoint
 10
14140.26045860724
 20
7598.57609119355
 30
0.0
  0
ENDBLK
  5
22633
330
22628
100
AcDbEntity
  8
0
100
AcDbBlockEnd
  0
BLOCK
  5
2263E
330
22634
100
AcDbEntity
  8
0
100
AcDbBlockBegin
  2
*D106
 70
     1
 10
0.0
 20
0.0
 30
0.0
  3
*D106
  1

  0
LINE
  5
22652
330
22634
100
AcDbEntity
  8
1
  6
Continuous
 62
     0
370
    -2
100
AcDbLine
 10
15715.26968946529
 20
21384.33609119354
 30
0.0
 11
15715.26968946529
 21
22189.25384970369
 31
0.0
  0
LINE
  5
22653
330
22634
100
AcDbEntity
  8
1
  6
Continuous
 62
     0
370
    -2
100
AcDbLine
 10
17540.03768946527
 20
21384.33609119354
 30
0.0
 11
17540.03768946527
 21
22189.25384970369
 31
0.0
  0
LINE
  5
22654
330
22634
100
AcDbEntity
  8
1
  6
Continuous
 62
     0
370
    -2
100
AcDbLine
 10
16215.26968946529
 20
22189.07384970369
 30
0.0
 11
17040.03768946528
 21
22189.07384970369
 31
0.0
  0
INSERT
  5
22655
330
22634
100
AcDbEntity
  8
1
  6
Continuous
 62
     0
370
    -2
100
AcDbBlockReference
  2
_OPEN30
 10
15715.26968946529
 20
22189.07384970369
 30
0.0
 41
500.0
 42
500.0
 43
500.0
 50
180.0
  0
INSERT
  5
22656
330
22634
100
AcDbEntity
  8
1
  6
Continuous
 62
     0
370
    -2
100
AcDbBlockReference
  2
_OPEN30
 10
17540.03768946527
 20
22189.07384970369
 30
0.0
 41
500.0
 42
500.0
 43
500.0
  0
MTEXT
  5
22657
330
22634
100
AcDbEntity
  8
1
  6
Continuous
 62
     0
370
    13
100
AcDbMText
 10
16627.65368946528
 20
22439.07384970369
 30
0.0
 40
400.0
 41
0.0
 71
     5
 72
     1
  1
\A1;160
 73
     1
 44
1.0
  0
POINT
  5
22658
330
22634
100
AcDbEntity
  8
DEFPOINTS
  6
Continuous
 62
     0
100
AcDbPoint
 10
15715.26968946529
 20
21284.33609119355
 30
0.0
  0
POINT
  5
22659
330
22634
100
AcDbEntity
  8
DEFPOINTS
  6
Continuous
 62
     0
100
AcDbPoint
 10
17540.03768946527
 20
21284.33609119356
 30
0.0
  0
POINT
  5
2265A
330
22634
100
AcDbEntity
  8
DEFPOINTS
  6
Continuous
 62
     0
100
AcDbPoint
 10
17540.03768946527
 20
22189.07384970369
 30
0.0
  0
ENDBLK
  5
2263F
330
22634
100
AcDbEntity
  8
0
100
AcDbBlockEnd
  0
BLOCK
  5
22666
330
2265C
100
AcDbEntity
  8
0
100
AcDbBlockBegin
  2
*D107
 70
     1
 10
0.0
 20
0.0
 30
0.0
  3
*D107
  1

  0
LINE
  5
2265D
330
2265C
100
AcDbEntity
  8
1
  6
Continuous
 62
     0
370
    -2
100
AcDbLine
 10
72219.80307192242
 20
53426.6766377264
 30
0.0
 11
74279.98307192241
 21
53426.6766377264
 31
0.0
  0
LINE
  5
2265E
330
2265C
100
AcDbEntity
  8
1
  6
Continuous
 62
     0
370
    -2
100
AcDbLine
 10
72219.80307192242
 20
43058.6766377264
 30
0.0
 11
74279.98307192241
 21
43058.6766377264
 31
0.0
  0
LINE
  5
2265F
330
2265C
100
AcDbEntity
  8
1
  6
Continuous
 62
     0
370
    -2
100
AcDbLine
 10
74279.80307192242
 20
52926.6766377264
 30
0.0
 11
74279.80307192242
 21
43558.6766377264
 31
0.0
  0
INSERT
  5
22660
330
2265C
100
AcDbEntity
  8
1
  6
Continuous
 62
     0
370
    -2
100
AcDbBlockReference
  2
_OPEN30
 10
74279.80307192242
 20
53426.6766377264
 30
0.0
 41
500.0
 42
500.0
 43
500.0
 50
90.0
  0
INSERT
  5
22661
330
2265C
100
AcDbEntity
  8
1
  6
Continuous
 62
     0
370
    -2
100
AcDbBlockReference
  2
_OPEN30
 10
74279.80307192242
 20
43058.6766377264
 30
0.0
 41
500.0
 42
500.0
 43
500.0
 50
270.0
  0
MTEXT
  5
22662
330
2265C
100
AcDbEntity
  8
1
  6
Continuous
 62
     0
370
    13
100
AcDbMText
 10
74029.8030719224
 20
48242.67663772642
 30
0.0
 40
400.0
 41
0.0
 71
     5
 72
     1
  1
\A1;120
 11
0.0000000000000001
 21
1.0
 31
0.0
 73
     1
 44
1.0
  0
POINT
  5
22663
330
2265C
100
AcDbEntity
  8
DEFPOINTS
  6
Continuous
 62
     0
100
AcDbPoint
 10
72119.80307192241
 20
53426.6766377264
 30
0.0
  0
POINT
  5
22664
330
2265C
100
AcDbEntity
  8
DEFPOINTS
  6
Continuous
 62
     0
100
AcDbPoint
 10
72119.80307192241
 20
43058.6766377264
 30
0.0
  0
POINT
  5
22665
330
2265C
100
AcDbEntity
  8
DEFPOINTS
  6
Continuous
 62
     0
100
AcDbPoint
 10
74279.80307192242
 20
43058.6766377264
 30
0.0
  0
ENDBLK
  5
22667
330
2265C
100
AcDbEntity
  8
0
100
AcDbBlockEnd
  0
BLOCK
  5
22672
330
22668
100
AcDbEntity
  8
0
100
AcDbBlockBegin
  2
*D108
 70
     1
 10
0.0
 20
0.0
 30
0.0
  3
*D108
  1

  0
LINE
  5
22669
330
22668
100
AcDbEntity
  8
1
  6
Continuous
 62
     0
370
    -2
100
AcDbLine
 10
66935.80307192242
 20
52662.6766377264
 30
0.0
 11
66935.80307192242
 21
54722.85663772638
 31
0.0
  0
LINE
  5
2266A
330
22668
100
AcDbEntity
  8
1
  6
Continuous
 62
     0
370
    -2
100
AcDbLine
 10
72983.80307192242
 20
52662.6766377264
 30
0.0
 11
72983.80307192242
 21
54722.85663772638
 31
0.0
  0
LINE
  5
2266B
330
22668
100
AcDbEntity
  8
1
  6
Continuous
 62
     0
370
    -2
100
AcDbLine
 10
67435.80307192241
 20
54722.67663772639
 30
0.0
 11
72483.80307192242
 21
54722.67663772639
 31
0.0
  0
INSERT
  5
2266C
330
22668
100
AcDbEntity
  8
1
  6
Continuous
 62
     0
370
    -2
100
AcDbBlockReference
  2
_OPEN30
 10
66935.80307192242
 20
54722.67663772639
 30
0.0
 41
500.0
 42
500.0
 43
500.0
 50
180.0
  0
INSERT
  5
2266D
330
22668
100
AcDbEntity
  8
1
  6
Continuous
 62
     0
370
    -2
100
AcDbBlockReference
  2
_OPEN30
 10
72983.80307192242
 20
54722.67663772639
 30
0.0
 41
500.0
 42
500.0
 43
500.0
  0
MTEXT
  5
2266E
330
22668
100
AcDbEntity
  8
1
  6
Continuous
 62
     0
370
    13
100
AcDbMText
 10
69959.80307192242
 20
54972.6766377264
 30
0.0
 40
400.0
 41
0.0
 71
     5
 72
     1
  1
\A1;70
 73
     1
 44
1.0
  0
POINT
  5
2266F
330
22668
100
AcDbEntity
  8
DEFPOINTS
  6
Continuous
 62
     0
100
AcDbPoint
 10
66935.80307192242
 20
52562.67663772638
 30
0.0
  0
POINT
  5
22670
330
22668
100
AcDbEntity
  8
DEFPOINTS
  6
Continuous
 62
     0
100
AcDbPoint
 10
72983.80307192242
 20
52562.67663772638
 30
0.0
  0
POINT
  5
22671
330
22668
100
AcDbEntity
  8
DEFPOINTS
  6
Continuous
 62
     0
100
AcDbPoint
 10
72983.80307192242
 20
54722.67663772639
 30
0.0
  0
ENDBLK
  5
22673
330
22668
100
AcDbEntity
  8
0
100
AcDbBlockEnd
  0
BLOCK
  5
2267E
330
22674
100
AcDbEntity
  8
0
100
AcDbBlockBegin
  2
*D109
 70
     1
 10
0.0
 20
0.0
 30
0.0
  3
*D109
  1

  0
LINE
  5
22675
330
22674
100
AcDbEntity
  8
1
  6
Continuous
 62
     0
370
    -2
100
AcDbLine
 10
79261.40307192242
 20
51007.47663772639
 30
0.0
 11
80457.58307192242
 21
51007.47663772639
 31
0.0
  0
LINE
  5
22676
330
22674
100
AcDbEntity
  8
1
  6
Continuous
 62
     0
370
    -2
100
AcDbLine
 10
79261.40307192242
 20
45305.07663772641
 30
0.0
 11
80457.58307192242
 21
45305.07663772641
 31
0.0
  0
LINE
  5
22677
330
22674
100
AcDbEntity
  8
1
  6
Continuous
 62
     0
370
    -2
100
AcDbLine
 10
80457.40307192243
 20
50507.47663772639
 30
0.0
 11
80457.40307192243
 21
45805.07663772642
 31
0.0
  0
INSERT
  5
22678
330
22674
100
AcDbEntity
  8
1
  6
Continuous
 62
     0
370
    -2
100
AcDbBlockReference
  2
_OPEN30
 10
80457.40307192243
 20
51007.47663772639
 30
0.0
 41
500.0
 42
500.0
 43
500.0
 50
90.0
  0
INSERT
  5
22679
330
22674
100
AcDbEntity
  8
1
  6
Continuous
 62
     0
370
    -2
100
AcDbBlockReference
  2
_OPEN30
 10
80457.40307192243
 20
45305.07663772641
 30
0.0
 41
500.0
 42
500.0
 43
500.0
 50
270.0
  0
MTEXT
  5
2267A
330
22674
100
AcDbEntity
  8
1
  6
Continuous
 62
     0
370
    13
100
AcDbMText
 10
80207.40307192241
 20
48156.27663772641
 30
0.0
 40
400.0
 41
0.0
 71
     5
 72
     1
  1
\A1;（66）
 11
0.0000000000000001
 21
1.0
 31
0.0
 73
     1
 44
1.0
  0
POINT
  5
2267B
330
22674
100
AcDbEntity
  8
DEFPOINTS
  6
Continuous
 62
     0
100
AcDbPoint
 10
79161.40307192242
 20
51007.47663772639
 30
0.0
  0
POINT
  5
2267C
330
22674
100
AcDbEntity
  8
DEFPOINTS
  6
Continuous
 62
     0
100
AcDbPoint
 10
79161.40307192242
 20
45305.07663772641
 30
0.0
  0
POINT
  5
2267D
330
22674
100
AcDbEntity
  8
DEFPOINTS
  6
Continuous
 62
     0
100
AcDbPoint
 10
80457.40307192243
 20
45305.07663772641
 30
0.0
  0
ENDBLK
  5
2267F
330
22674
100
AcDbEntity
  8
0
100
AcDbBlockEnd
  0
BLOCK
  5
2268A
330
22680
100
AcDbEntity
  8
0
100
AcDbBlockBegin
  2
*D110
 70
     1
 10
0.0
 20
0.0
 30
0.0
  3
*D110
  1

  0
LINE
  5
22681
330
22680
100
AcDbEntity
  8
1
  6
Continuous
 62
     0
370
    -2
100
AcDbLine
 10
79161.40307192242
 20
51107.47663772639
 30
0.0
 11
79161.40307192242
 21
54722.85663772638
 31
0.0
  0
LINE
  5
22682
330
22680
100
AcDbEntity
  8
1
  6
Continuous
 62
     0
370
    -2
100
AcDbLine
 10
76768.12307192243
 20
53699.47663772639
 30
0.0
 11
76768.12307192243
 21
54722.85663772638
 31
0.0
  0
LINE
  5
22683
330
22680
100
AcDbEntity
  8
1
  6
Continuous
 62
     0
370
    -2
100
AcDbLine
 10
78661.40307192242
 20
54722.67663772639
 30
0.0
 11
77268.12307192242
 21
54722.67663772639
 31
0.0
  0
INSERT
  5
22684
330
22680
100
AcDbEntity
  8
1
  6
Continuous
 62
     0
370
    -2
100
AcDbBlockReference
  2
_OPEN30
 10
79161.40307192242
 20
54722.67663772639
 30
0.0
 41
500.0
 42
500.0
 43
500.0
  0
INSERT
  5
22685
330
22680
100
AcDbEntity
  8
1
  6
Continuous
 62
     0
370
    -2
100
AcDbBlockReference
  2
_OPEN30
 10
76768.12307192243
 20
54722.67663772639
 30
0.0
 41
500.0
 42
500.0
 43
500.0
 50
180.0
  0
MTEXT
  5
22686
330
22680
100
AcDbEntity
  8
1
  6
Continuous
 62
     0
370
    13
100
AcDbMText
 10
77964.76307192242
 20
54972.6766377264
 30
0.0
 40
400.0
 41
0.0
 71
     5
 72
     1
  1
\A1;（27.7）
 73
     1
 44
1.0
  0
POINT
  5
22687
330
22680
100
AcDbEntity
  8
DEFPOINTS
  6
Continuous
 62
     0
100
AcDbPoint
 10
79161.40307192242
 20
51007.47663772639
 30
0.0
  0
POINT
  5
22688
330
22680
100
AcDbEntity
  8
DEFPOINTS
  6
Continuous
 62
     0
100
AcDbPoint
 10
76768.12307192243
 20
53599.47663772639
 30
0.0
  0
POINT
  5
22689
330
22680
100
AcDbEntity
  8
DEFPOINTS
  6
Continuous
 62
     0
100
AcDbPoint
 10
76768.12307192243
 20
54722.67663772639
 30
0.0
  0
ENDBLK
  5
2268B
330
22680
100
AcDbEntity
  8
0
100
AcDbBlockEnd
  0
BLOCK
  5
22697
330
2268C
100
AcDbEntity
  8
0
100
AcDbBlockBegin
  2
*D111
 70
     1
 10
0.0
 20
0.0
 30
0.0
  3
*D111
  1

  0
LINE
  5
2268D
330
2268C
100
AcDbEntity
  8
1
  6
Continuous
 62
     0
370
    -2
100
AcDbLine
 10
75964.6030719224
 20
52291.15663772642
 30
0.0
 11
75964.6030719224
 21
54722.85663772638
 31
0.0
  0
LINE
  5
2268E
330
2268C
100
AcDbEntity
  8
1
  6
Continuous
 62
     0
370
    -2
100
AcDbLine
 10
76768.12307192241
 20
53526.67663772638
 30
0.0
 11
76768.12307192241
 21
54722.85663772638
 31
0.0
  0
LINE
  5
2268F
330
2268C
100
AcDbEntity
  8
1
  6
Continuous
 62
     0
370
    -2
100
AcDbLine
 10
77268.12307192241
 20
54722.67663772639
 30
0.0
 11
77768.12307192241
 21
54722.67663772639
 31
0.0
  0
LINE
  5
22690
330
2268C
100
AcDbEntity
  8
1
  6
Continuous
 62
     0
370
    -2
100
AcDbLine
 10
75464.60307192241
 20
54722.67663772639
 30
0.0
 11
74064.60307192241
 21
54722.67663772639
 31
0.0
  0
INSERT
  5
22691
330
2268C
100
AcDbEntity
  8
1
  6
Continuous
 62
     0
370
    -2
100
AcDbBlockReference
  2
_OPEN30
 10
76768.12307192241
 20
54722.67663772639
 30
0.0
 41
500.0
 42
500.0
 43
500.0
 50
180.0
  0
INSERT
  5
22692
330
2268C
100
AcDbEntity
  8
1
  6
Continuous
 62
     0
370
    -2
100
AcDbBlockReference
  2
_OPEN30
 10
75964.6030719224
 20
54722.67663772639
 30
0.0
 41
500.0
 42
500.0
 43
500.0
  0
MTEXT
  5
22693
330
2268C
100
AcDbEntity
  8
1
  6
Continuous
 62
     0
370
    13
100
AcDbMText
 10
74514.60307192241
 20
54972.6766377264
 30
0.0
 40
400.0
 41
0.0
 71
     5
 72
     1
  1
\A1;8.8
 73
     1
 44
1.0
  0
POINT
  5
22694
330
2268C
100
AcDbEntity
  8
DEFPOINTS
  6
Continuous
 62
     0
100
AcDbPoint
 10
75964.6030719224
 20
52191.15663772639
 30
0.0
  0
POINT
  5
22695
330
2268C
100
AcDbEntity
  8
DEFPOINTS
  6
Continuous
 62
     0
100
AcDbPoint
 10
76768.12307192241
 20
53426.6766377264
 30
0.0
  0
POINT
  5
22696
330
2268C
100
AcDbEntity
  8
DEFPOINTS
  6
Continuous
 62
     0
100
AcDbPoint
 10
76768.12307192241
 20
54722.67663772639
 30
0.0
  0
ENDBLK
  5
22698
330
2268C
100
AcDbEntity
  8
0
100
AcDbBlockEnd
  0
BLOCK
  5
227E6
330
227DC
100
AcDbEntity
  8
0
100
AcDbBlockBegin
  2
*D112
 70
     1
 10
0.0
 20
0.0
 30
0.0
  3
*D112
  1

  0
LINE
  5
22819
330
227DC
100
AcDbEntity
  8
1
  6
Continuous
 62
     0
370
    -2
100
AcDbLine
 10
11166.29411394399
 20
19925.99623965199
 30
0.0
 11
13226.47411394399
 21
19925.99623965199
 31
0.0
  0
LINE
  5
2281A
330
227DC
100
AcDbEntity
  8
1
  6
Continuous
 62
     0
370
    -2
100
AcDbLine
 10
11166.29411394399
 20
9557.996239651998
 30
0.0
 11
13226.47411394399
 21
9557.996239651995
 31
0.0
  0
LINE
  5
2281B
330
227DC
100
AcDbEntity
  8
1
  6
Continuous
 62
     0
370
    -2
100
AcDbLine
 10
13226.29411394399
 20
19425.99623965199
 30
0.0
 11
13226.29411394399
 21
10057.99623965199
 31
0.0
  0
INSERT
  5
2281C
330
227DC
100
AcDbEntity
  8
1
  6
Continuous
 62
     0
370
    -2
100
AcDbBlockReference
  2
_OPEN30
 10
13226.29411394399
 20
19925.99623965199
 30
0.0
 41
500.0
 42
500.0
 43
500.0
 50
90.0
  0
INSERT
  5
2281D
330
227DC
100
AcDbEntity
  8
1
  6
Continuous
 62
     0
370
    -2
100
AcDbBlockReference
  2
_OPEN30
 10
13226.29411394399
 20
9557.996239651995
 30
0.0
 41
500.0
 42
500.0
 43
500.0
 50
270.0
  0
MTEXT
  5
2281E
330
227DC
100
AcDbEntity
  8
1
  6
Continuous
 62
     0
370
    13
100
AcDbMText
 10
12976.29411394399
 20
14741.99623965199
 30
0.0
 40
400.0
 41
0.0
 71
     5
 72
     1
  1
\A1;120
 11
0.0000000000000001
 21
1.0
 31
0.0
 73
     1
 44
1.0
  0
POINT
  5
2281F
330
227DC
100
AcDbEntity
  8
DEFPOINTS
  6
Continuous
 62
     0
100
AcDbPoint
 10
11066.29411394399
 20
19925.99623965199
 30
0.0
  0
POINT
  5
22820
330
227DC
100
AcDbEntity
  8
DEFPOINTS
  6
Continuous
 62
     0
100
AcDbPoint
 10
11066.29411394399
 20
9557.996239651998
 30
0.0
  0
POINT
  5
22821
330
227DC
100
AcDbEntity
  8
DEFPOINTS
  6
Continuous
 62
     0
100
AcDbPoint
 10
13226.29411394399
 20
9557.996239651995
 30
0.0
  0
ENDBLK
  5
227E7
330
227DC
100
AcDbEntity
  8
0
100
AcDbBlockEnd
  0
BLOCK
  5
227F2
330
227E8
100
AcDbEntity
  8
0
100
AcDbBlockBegin
  2
*D113
 70
     1
 10
0.0
 20
0.0
 30
0.0
  3
*D113
  1

  0
LINE
  5
22822
330
227E8
100
AcDbEntity
  8
1
  6
Continuous
 62
     0
370
    -2
100
AcDbLine
 10
5882.294113943992
 20
19161.99623965199
 30
0.0
 11
5882.294113943992
 21
21222.17623965199
 31
0.0
  0
LINE
  5
22823
330
227E8
100
AcDbEntity
  8
1
  6
Continuous
 62
     0
370
    -2
100
AcDbLine
 10
11930.29411394399
 20
19161.99623965199
 30
0.0
 11
11930.29411394399
 21
21222.17623965199
 31
0.0
  0
LINE
  5
22824
330
227E8
100
AcDbEntity
  8
1
  6
Continuous
 62
     0
370
    -2
100
AcDbLine
 10
6382.294113943995
 20
21221.996239652
 30
0.0
 11
11430.29411394399
 21
21221.996239652
 31
0.0
  0
INSERT
  5
22825
330
227E8
100
AcDbEntity
  8
1
  6
Continuous
 62
     0
370
    -2
100
AcDbBlockReference
  2
_OPEN30
 10
5882.294113943992
 20
21221.996239652
 30
0.0
 41
500.0
 42
500.0
 43
500.0
 50
180.0
  0
INSERT
  5
22826
330
227E8
100
AcDbEntity
  8
1
  6
Continuous
 62
     0
370
    -2
100
AcDbBlockReference
  2
_OPEN30
 10
11930.29411394399
 20
21221.996239652
 30
0.0
 41
500.0
 42
500.0
 43
500.0
  0
MTEXT
  5
22827
330
227E8
100
AcDbEntity
  8
1
  6
Continuous
 62
     0
370
    13
100
AcDbMText
 10
8906.294113943994
 20
21471.996239652
 30
0.0
 40
400.0
 41
0.0
 71
     5
 72
     1
  1
\A1;70
 73
     1
 44
1.0
  0
POINT
  5
22828
330
227E8
100
AcDbEntity
  8
DEFPOINTS
  6
Continuous
 62
     0
100
AcDbPoint
 10
5882.294113943992
 20
19061.996239652
 30
0.0
  0
POINT
  5
22829
330
227E8
100
AcDbEntity
  8
DEFPOINTS
  6
Continuous
 62
     0
100
AcDbPoint
 10
11930.29411394399
 20
19061.996239652
 30
0.0
  0
POINT
  5
2282A
330
227E8
100
AcDbEntity
  8
DEFPOINTS
  6
Continuous
 62
     0
100
AcDbPoint
 10
11930.29411394399
 20
21221.996239652
 30
0.0
  0
ENDBLK
  5
227F3
330
227E8
100
AcDbEntity
  8
0
100
AcDbBlockEnd
  0
BLOCK
  5
227FE
330
227F4
100
AcDbEntity
  8
0
100
AcDbBlockBegin
  2
*D114
 70
     1
 10
0.0
 20
0.0
 30
0.0
  3
*D114
  1

  0
LINE
  5
2282B
330
227F4
100
AcDbEntity
  8
1
  6
Continuous
 62
     0
370
    -2
100
AcDbLine
 10
18207.894113944
 20
17506.79623965199
 30
0.0
 11
19404.074113944
 21
17506.79623965199
 31
0.0
  0
LINE
  5
2282C
330
227F4
100
AcDbEntity
  8
1
  6
Continuous
 62
     0
370
    -2
100
AcDbLine
 10
18207.894113944
 20
11804.39623965199
 30
0.0
 11
19404.074113944
 21
11804.39623965199
 31
0.0
  0
LINE
  5
2282D
330
227F4
100
AcDbEntity
  8
1
  6
Continuous
 62
     0
370
    -2
100
AcDbLine
 10
19403.894113944
 20
17006.79623965199
 30
0.0
 11
19403.894113944
 21
12304.396239652
 31
0.0
  0
INSERT
  5
2282E
330
227F4
100
AcDbEntity
  8
1
  6
Continuous
 62
     0
370
    -2
100
AcDbBlockReference
  2
_OPEN30
 10
19403.894113944
 20
17506.79623965199
 30
0.0
 41
500.0
 42
500.0
 43
500.0
 50
90.0
  0
INSERT
  5
2282F
330
227F4
100
AcDbEntity
  8
1
  6
Continuous
 62
     0
370
    -2
100
AcDbBlockReference
  2
_OPEN30
 10
19403.894113944
 20
11804.39623965199
 30
0.0
 41
500.0
 42
500.0
 43
500.0
 50
270.0
  0
MTEXT
  5
22830
330
227F4
100
AcDbEntity
  8
1
  6
Continuous
 62
     0
370
    13
100
AcDbMText
 10
19153.89411394399
 20
14655.596239652
 30
0.0
 40
400.0
 41
0.0
 71
     5
 72
     1
  1
\A1;（66）
 11
0.0000000000000001
 21
1.0
 31
0.0
 73
     1
 44
1.0
  0
POINT
  5
22831
330
227F4
100
AcDbEntity
  8
DEFPOINTS
  6
Continuous
 62
     0
100
AcDbPoint
 10
18107.894113944
 20
17506.79623965199
 30
0.0
  0
POINT
  5
22832
330
227F4
100
AcDbEntity
  8
DEFPOINTS
  6
Continuous
 62
     0
100
AcDbPoint
 10
18107.894113944
 20
11804.39623965199
 30
0.0
  0
POINT
  5
22833
330
227F4
100
AcDbEntity
  8
DEFPOINTS
  6
Continuous
 62
     0
100
AcDbPoint
 10
19403.894113944
 20
11804.39623965199
 30
0.0
  0
ENDBLK
  5
227FF
330
227F4
100
AcDbEntity
  8
0
100
AcDbBlockEnd
  0
BLOCK
  5
2280A
330
22800
100
AcDbEntity
  8
0
100
AcDbBlockBegin
  2
*D115
 70
     1
 10
0.0
 20
0.0
 30
0.0
  3
*D115
  1

  0
LINE
  5
22834
330
22800
100
AcDbEntity
  8
1
  6
Continuous
 62
     0
370
    -2
100
AcDbLine
 10
18107.894113944
 20
17606.79623965199
 30
0.0
 11
18107.894113944
 21
21222.17623965199
 31
0.0
  0
LINE
  5
22835
330
22800
100
AcDbEntity
  8
1
  6
Continuous
 62
     0
370
    -2
100
AcDbLine
 10
15714.61411394399
 20
20198.79623965199
 30
0.0
 11
15714.61411394399
 21
21222.17623965199
 31
0.0
  0
LINE
  5
22836
330
22800
100
AcDbEntity
  8
1
  6
Continuous
 62
     0
370
    -2
100
AcDbLine
 10
17607.894113944
 20
21221.996239652
 30
0.0
 11
16214.61411394399
 21
21221.996239652
 31
0.0
  0
INSERT
  5
22837
330
22800
100
AcDbEntity
  8
1
  6
Continuous
 62
     0
370
    -2
100
AcDbBlockReference
  2
_OPEN30
 10
18107.894113944
 20
21221.996239652
 30
0.0
 41
500.0
 42
500.0
 43
500.0
  0
INSERT
  5
22838
330
22800
100
AcDbEntity
  8
1
  6
Continuous
 62
     0
370
    -2
100
AcDbBlockReference
  2
_OPEN30
 10
15714.61411394399
 20
21221.996239652
 30
0.0
 41
500.0
 42
500.0
 43
500.0
 50
180.0
  0
MTEXT
  5
22839
330
22800
100
AcDbEntity
  8
1
  6
Continuous
 62
     0
370
    13
100
AcDbMText
 10
16911.254113944
 20
21471.996239652
 30
0.0
 40
400.0
 41
0.0
 71
     5
 72
     1
  1
\A1;（27.7）
 73
     1
 44
1.0
  0
POINT
  5
2283A
330
22800
100
AcDbEntity
  8
DEFPOINTS
  6
Continuous
 62
     0
100
AcDbPoint
 10
18107.894113944
 20
17506.79623965199
 30
0.0
  0
POINT
  5
2283B
330
22800
100
AcDbEntity
  8
DEFPOINTS
  6
Continuous
 62
     0
100
AcDbPoint
 10
15714.61411394399
 20
20098.79623965199
 30
0.0
  0
POINT
  5
2283C
330
22800
100
AcDbEntity
  8
DEFPOINTS
  6
Continuous
 62
     0
100
AcDbPoint
 10
15714.61411394399
 20
21221.996239652
 30
0.0
  0
ENDBLK
  5
2280B
330
22800
100
AcDbEntity
  8
0
100
AcDbBlockEnd
  0
BLOCK
  5
22817
330
2280C
100
AcDbEntity
  8
0
100
AcDbBlockBegin
  2
*D116
 70
     1
 10
0.0
 20
0.0
 30
0.0
  3
*D116
  1

  0
LINE
  5
2283D
330
2280C
100
AcDbEntity
  8
1
  6
Continuous
 62
     0
370
    -2
100
AcDbLine
 10
14911.09411394398
 20
18790.47623965201
 30
0.0
 11
14911.09411394398
 21
21222.17623965199
 31
0.0
  0
LINE
  5
2283E
330
2280C
100
AcDbEntity
  8
1
  6
Continuous
 62
     0
370
    -2
100
AcDbLine
 10
15714.61411394398
 20
20025.99623965199
 30
0.0
 11
15714.61411394398
 21
21222.17623965199
 31
0.0
  0
LINE
  5
2283F
330
2280C
100
AcDbEntity
  8
1
  6
Continuous
 62
     0
370
    -2
100
AcDbLine
 10
16214.61411394398
 20
21221.996239652
 30
0.0
 11
16714.61411394398
 21
21221.996239652
 31
0.0
  0
LINE
  5
22840
330
2280C
100
AcDbEntity
  8
1
  6
Continuous
 62
     0
370
    -2
100
AcDbLine
 10
14411.09411394398
 20
21221.996239652
 30
0.0
 11
13011.09411394398
 21
21221.996239652
 31
0.0
  0
INSERT
  5
22841
330
2280C
100
AcDbEntity
  8
1
  6
Continuous
 62
     0
370
    -2
100
AcDbBlockReference
  2
_OPEN30
 10
15714.61411394398
 20
21221.996239652
 30
0.0
 41
500.0
 42
500.0
 43
500.0
 50
180.0
  0
INSERT
  5
22842
330
2280C
100
AcDbEntity
  8
1
  6
Continuous
 62
     0
370
    -2
100
AcDbBlockReference
  2
_OPEN30
 10
14911.09411394398
 20
21221.996239652
 30
0.0
 41
500.0
 42
500.0
 43
500.0
  0
MTEXT
  5
22843
330
2280C
100
AcDbEntity
  8
1
  6
Continuous
 62
     0
370
    13
100
AcDbMText
 10
13461.09411394398
 20
21471.996239652
 30
0.0
 40
400.0
 41
0.0
 71
     5
 72
     1
  1
\A1;8.8
 73
     1
 44
1.0
  0
POINT
  5
22844
330
2280C
100
AcDbEntity
  8
DEFPOINTS
  6
Continuous
 62
     0
100
AcDbPoint
 10
14911.09411394398
 20
18690.47623965201
 30
0.0
  0
POINT
  5
22845
330
2280C
100
AcDbEntity
  8
DEFPOINTS
  6
Continuous
 62
     0
100
AcDbPoint
 10
15714.61411394398
 20
19925.99623965199
 30
0.0
  0
POINT
  5
22846
330
2280C
100
AcDbEntity
  8
DEFPOINTS
  6
Continuous
 62
     0
100
AcDbPoint
 10
15714.61411394398
 20
21221.996239652
 30
0.0
  0
ENDBLK
  5
22818
330
2280C
100
AcDbEntity
  8
0
100
AcDbBlockEnd
  0
ENDSEC
  0
SECTION
  2
ENTITIES
  0
LINE
  5
2273D
330
1F
100
AcDbEntity
  8
0
370
    13
100
AcDbLine
 10
311.0155872026006
 20
25361.2377765082
 30
0.0
 11
22891.47325924727
 21
25361.2377765082
 31
0.0
  0
LINE
  5
2273E
330
1F
100
AcDbEntity
  8
1
  6
Continuous
 62
     7
370
    13
100
AcDbLine
 10
3066.714364765189
 20
25361.2377765082
 30
0.0
 11
3066.714364765189
 21
23524.10525813324
 31
0.0
  0
LINE
  5
2273F
330
1F
100
AcDbEntity
  8
1
  6
Continuous
 62
     7
370
    13
100
AcDbLine
 10
311.0155872026006
 20
23524.10525813324
 30
0.0
 11
22891.47325924564
 21
23524.10525813324
 31
0.0
  0
LINE
  5
22740
330
1F
100
AcDbEntity
  8
1
  6
Continuous
 62
     7
370
    13
100
AcDbLine
 10
311.0155872026006
 20
25361.2377765082
 30
0.0
 11
311.0155872026006
 21
281.2817517180955
 31
0.0
  0
LINE
  5
22741
330
1F
100
AcDbEntity
  8
0
370
    13
100
AcDbLine
 10
311.0155872026006
 20
281.2817517180955
 30
0.0
 11
22891.47325924727
 21
281.2817517180955
 31
0.0
  0
LINE
  5
22742
330
1F
100
AcDbEntity
  8
1
  6
Continuous
 62
     7
370
    13
100
AcDbLine
 10
22891.47325924727
 20
25361.2377765082
 30
0.0
 11
22891.47325924727
 21
281.2817517180955
 31
0.0
  0
TEXT
  5
22743
330
1F
100
AcDbEntity
  8
1
  6
Continuous
 62
     7
370
    13
100
AcDbText
 10
3650.324603859429
 20
24052.19053320883
 30
0.0
 40
741.8776780800003
  1
スリーキー　Ｔ－３３１２Ａ
 41
0.8
  7
KANJI
100
AcDbText
  0
TEXT
  5
22744
330
1F
100
AcDbEntity
  8
1
  6
Continuous
 62
     7
370
    13
100
AcDbText
 10
2799.818292121416
 20
5082.785032925145
 30
0.0
 40
447.9946116360424
  1
項　目
 41
0.944444
  7
KANJI
100
AcDbText
  0
TEXT
  5
22745
330
1F
100
AcDbEntity
  8
1
  6
Continuous
 62
     7
370
    13
100
AcDbText
 10
11884.14800132731
 20
5082.785032925145
 30
0.0
 40
447.9946116360424
  1
内　容
 41
0.944444
  7
KANJI
100
AcDbText
  0
TEXT
  5
22746
330
1F
100
AcDbEntity
  8
1
  6
Continuous
 62
     7
370
    13
100
AcDbText
 10
2392.904948005838
 20
3760.630780725026
 30
0.0
 40
447.9946116360424
  1
彩　色
 41
0.944444
  7
KANJI
100
AcDbText
  0
LINE
  5
22747
330
1F
100
AcDbEntity
  8
1
  6
Continuous
 62
     7
370
    13
100
AcDbLine
 10
4876.619019672538
 20
5624.634318244511
 30
0.0
 11
4876.619019672769
 21
1065.591174502653
 31
0.0
  0
LINE
  5
22748
330
1F
100
AcDbEntity
  8
1
  6
Continuous
 62
     7
370
    13
100
AcDbLine
 10
21133.93085752878
 20
5624.634318241458
 30
0.0
 11
21133.93085752901
 21
1065.591174502653
 31
0.0
  0
LINE
  5
22749
330
1F
100
AcDbEntity
  8
1
  6
Continuous
 62
     7
370
    13
100
AcDbLine
 10
2068.557988920102
 20
5624.634318245036
 30
0.0
 11
2068.557988920343
 21
1065.591174502653
 31
0.0
  0
TEXT
  5
2274A
330
1F
100
AcDbEntity
  8
1
  6
Continuous
 62
     7
370
    13
100
AcDbText
 10
5081.104607755349
 20
3760.630780725026
 30
0.0
 40
447.9946116360424
  1
本　体：白　色　操作釦：黒　色
 41
0.8872049999999999
  7
KANJI
100
AcDbText
  0
LINE
  5
2274B
330
1F
100
AcDbEntity
  8
1
  6
Continuous
 62
     7
370
    13
100
AcDbLine
 10
2068.557988920343
 20
5624.634318245036
 30
0.0
 11
21133.93085752901
 21
5624.634318241458
 31
0.0
  0
LINE
  5
2274C
330
1F
100
AcDbEntity
  8
1
  6
Continuous
 62
     7
370
    13
100
AcDbLine
 10
2068.557988920343
 20
4973.342440564098
 30
0.0
 11
21133.93085752901
 21
4973.342440564098
 31
0.0
  0
TEXT
  5
2274D
330
1F
100
AcDbEntity
  8
1
  6
Continuous
 62
     7
370
    13
100
AcDbText
 10
2392.904948005838
 20
4432.141816467541
 30
0.0
 40
447.9946116360424
  1
材　質
 41
0.944444
  7
KANJI
100
AcDbText
  0
TEXT
  5
2274E
330
1F
100
AcDbEntity
  8
1
  6
Continuous
 62
     7
370
    13
100
AcDbText
 10
5081.104607755349
 20
4432.141816467541
 30
0.0
 40
447.9946116360424
  1
樹　脂
 41
0.8872049999999999
  7
KANJI
100
AcDbText
  0
ARC
  5
2274F
330
1F
100
AcDbEntity
  8
1
  6
Continuous
 62
     7
370
    13
100
AcDbCircle
 10
6746.294113943993
 20
19061.996239652
 30
0.0
 40
864.0
100
AcDbArc
 50
90.0
 51
180.0
  0
LINE
  5
22750
330
1F
100
AcDbEntity
  8
1
  6
Continuous
 62
     7
370
    13
100
AcDbLine
 10
5882.294113943992
 20
10421.99623965199
 30
0.0
 11
5882.294113943992
 21
19061.996239652
 31
0.0
  0
ARC
  5
22751
330
1F
100
AcDbEntity
  8
1
  6
Continuous
 62
     7
370
    13
100
AcDbCircle
 10
6746.294113943993
 20
10421.99623965199
 30
0.0
 40
864.0
100
AcDbArc
 50
180.0
 51
270.0
  0
LINE
  5
22752
330
1F
100
AcDbEntity
  8
1
  6
Continuous
 62
     7
370
    13
100
AcDbLine
 10
6746.294113943993
 20
19925.99623965199
 30
0.0
 11
11066.29411394399
 21
19925.99623965199
 31
0.0
  0
ARC
  5
22753
330
1F
100
AcDbEntity
  8
1
  6
Continuous
 62
     7
370
    13
100
AcDbCircle
 10
11066.29411394399
 20
19061.996239652
 30
0.0
 40
864.0
100
AcDbArc
 50
0.0
 51
90.0
  0
LINE
  5
22754
330
1F
100
AcDbEntity
  8
1
  6
Continuous
 62
     7
370
    13
100
AcDbLine
 10
11066.29411394399
 20
9557.996239651998
 30
0.0
 11
6746.294113943993
 21
9557.996239651998
 31
0.0
  0
LINE
  5
22755
330
1F
100
AcDbEntity
  8
1
  6
Continuous
 62
     7
370
    13
100
AcDbLine
 10
11930.29411394399
 20
19061.996239652
 30
0.0
 11
11930.29411394399
 21
10421.99623965199
 31
0.0
  0
ARC
  5
22756
330
1F
100
AcDbEntity
  8
1
  6
Continuous
 62
     7
370
    13
100
AcDbCircle
 10
11066.29411394399
 20
10421.99623965199
 30
0.0
 40
864.0
100
AcDbArc
 50
270.0
 51
0.0
  0
CIRCLE
  5
22757
330
1F
100
AcDbEntity
  8
1
  6
Continuous
 62
     7
370
    13
100
AcDbCircle
 10
8906.294113943994
 20
17221.676239652
 30
0.0
 40
120.96
  0
ARC
  5
22758
330
1F
100
AcDbEntity
  8
1
  6
Continuous
 62
     7
370
    13
100
AcDbCircle
 10
7135.094113943982
 20
18629.99623965199
 30
0.0
 40
86.39999999999998
100
AcDbArc
 50
90.0
 51
180.0
  0
ARC
  5
22759
330
1F
100
AcDbEntity
  8
1
  6
Continuous
 62
     7
370
    13
100
AcDbCircle
 10
7156.694113943988
 20
18604.076239652
 30
0.0
 40
86.39999999999998
100
AcDbArc
 50
90.0
 51
180.0
  0
LINE
  5
2275A
330
1F
100
AcDbEntity
  8
1
  6
Continuous
 62
     7
370
    13
100
AcDbLine
 10
10655.89411394399
 20
18690.47623965201
 30
0.0
 11
7156.694113943988
 21
18690.47623965201
 31
0.0
  0
ARC
  5
2275B
330
1F
100
AcDbEntity
  8
1
  6
Continuous
 62
     7
370
    13
100
AcDbCircle
 10
10655.89411394399
 20
18604.076239652
 30
0.0
 40
86.39999999999998
100
AcDbArc
 50
0.0
 51
90.0
  0
LINE
  5
2275C
330
1F
100
AcDbEntity
  8
1
  6
Continuous
 62
     7
370
    13
100
AcDbLine
 10
7135.094113943982
 20
18716.39623965199
 30
0.0
 11
10677.49411394399
 21
18716.39623965199
 31
0.0
  0
ARC
  5
2275D
330
1F
100
AcDbEntity
  8
1
  6
Continuous
 62
     7
370
    13
100
AcDbCircle
 10
10677.49411394399
 20
18629.99623965199
 30
0.0
 40
86.39999999999998
100
AcDbArc
 50
0.0
 51
90.0
  0
LINE
  5
2275E
330
1F
100
AcDbEntity
  8
1
  6
Continuous
 62
     7
370
    13
100
AcDbLine
 10
10742.29411394399
 20
18604.076239652
 30
0.0
 11
10742.29411394399
 21
10879.916239652
 31
0.0
  0
ARC
  5
2275F
330
1F
100
AcDbEntity
  8
1
  6
Continuous
 62
     7
370
    13
100
AcDbCircle
 10
10655.89411394399
 20
10879.916239652
 30
0.0
 40
86.39999999999998
100
AcDbArc
 50
270.0
 51
0.0
  0
LINE
  5
22760
330
1F
100
AcDbEntity
  8
1
  6
Continuous
 62
     7
370
    13
100
AcDbLine
 10
10763.89411394399
 20
18629.99623965199
 30
0.0
 11
10763.89411394399
 21
10853.99623965199
 31
0.0
  0
ARC
  5
22761
330
1F
100
AcDbEntity
  8
1
  6
Continuous
 62
     7
370
    13
100
AcDbCircle
 10
10677.49411394399
 20
10853.99623965199
 30
0.0
 40
86.39999999999998
100
AcDbArc
 50
270.0
 51
0.0
  0
LINE
  5
22762
330
1F
100
AcDbEntity
  8
1
  6
Continuous
 62
     7
370
    13
100
AcDbLine
 10
7070.294113943994
 20
10879.916239652
 30
0.0
 11
7070.294113943994
 21
18604.076239652
 31
0.0
  0
LINE
  5
22763
330
1F
100
AcDbEntity
  8
1
  6
Continuous
 62
     7
370
    13
100
AcDbLine
 10
10655.89411394399
 20
10793.51623965199
 30
0.0
 11
7156.694113943988
 21
10793.51623965199
 31
0.0
  0
ARC
  5
22764
330
1F
100
AcDbEntity
  8
1
  6
Continuous
 62
     7
370
    13
100
AcDbCircle
 10
7156.694113943988
 20
10879.916239652
 30
0.0
 40
86.39999999999998
100
AcDbArc
 50
180.0
 51
270.0
  0
LINE
  5
22765
330
1F
100
AcDbEntity
  8
1
  6
Continuous
 62
     7
370
    13
100
AcDbLine
 10
7048.694113943986
 20
10853.99623965199
 30
0.0
 11
7048.694113943986
 21
18629.99623965199
 31
0.0
  0
LINE
  5
22766
330
1F
100
AcDbEntity
  8
1
  6
Continuous
 62
     7
370
    13
100
AcDbLine
 10
10677.49411394399
 20
10767.59623965199
 30
0.0
 11
7135.094113943982
 21
10767.59623965199
 31
0.0
  0
ARC
  5
22767
330
1F
100
AcDbEntity
  8
1
  6
Continuous
 62
     7
370
    13
100
AcDbCircle
 10
7135.094113943982
 20
10853.99623965199
 30
0.0
 40
86.39999999999998
100
AcDbArc
 50
180.0
 51
270.0
  0
ARC
  5
22768
330
1F
100
AcDbEntity
  8
1
  6
Continuous
 62
     7
370
    13
100
AcDbCircle
 10
8431.094113943983
 20
16236.716239652
 30
0.0
 40
86.39999999999998
100
AcDbArc
 50
90.0
 51
180.0
  0
LINE
  5
22769
330
1F
100
AcDbEntity
  8
1
  6
Continuous
 62
     7
370
    13
100
AcDbLine
 10
8431.094113943983
 20
16323.116239652
 30
0.0
 11
9381.494113944006
 21
16323.116239652
 31
0.0
  0
ARC
  5
2276A
330
1F
100
AcDbEntity
  8
1
  6
Continuous
 62
     7
370
    13
100
AcDbCircle
 10
9381.494113944006
 20
16236.716239652
 30
0.0
 40
86.39999999999998
100
AcDbArc
 50
0.0
 51
90.0
  0
LINE
  5
2276B
330
1F
100
AcDbEntity
  8
1
  6
Continuous
 62
     7
370
    13
100
AcDbLine
 10
8344.694113943988
 20
15286.316239652
 30
0.0
 11
8344.694113943988
 21
16236.716239652
 31
0.0
  0
ARC
  5
2276C
330
1F
100
AcDbEntity
  8
1
  6
Continuous
 62
     7
370
    13
100
AcDbCircle
 10
8431.094113943983
 20
15286.316239652
 30
0.0
 40
86.39999999999998
100
AcDbArc
 50
180.0
 51
270.0
  0
LINE
  5
2276D
330
1F
100
AcDbEntity
  8
1
  6
Continuous
 62
     7
370
    13
100
AcDbLine
 10
9381.494113944006
 20
15199.916239652
 30
0.0
 11
8431.094113943983
 21
15199.916239652
 31
0.0
  0
LINE
  5
2276E
330
1F
100
AcDbEntity
  8
1
  6
Continuous
 62
     7
370
    13
100
AcDbLine
 10
9467.894113944
 20
16236.716239652
 30
0.0
 11
9467.894113944
 21
15286.316239652
 31
0.0
  0
ARC
  5
2276F
330
1F
100
AcDbEntity
  8
1
  6
Continuous
 62
     7
370
    13
100
AcDbCircle
 10
9381.494113944006
 20
15286.316239652
 30
0.0
 40
86.39999999999998
100
AcDbArc
 50
270.0
 51
0.0
  0
ARC
  5
22770
330
1F
100
AcDbEntity
  8
1
  6
Continuous
 62
     7
370
    13
100
AcDbCircle
 10
8431.094113943983
 20
14681.51623965199
 30
0.0
 40
86.39999999999998
100
AcDbArc
 50
90.0
 51
180.0
  0
LINE
  5
22771
330
1F
100
AcDbEntity
  8
1
  6
Continuous
 62
     7
370
    13
100
AcDbLine
 10
8344.694113943988
 20
13731.11623965199
 30
0.0
 11
8344.694113943988
 21
14681.51623965199
 31
0.0
  0
ARC
  5
22772
330
1F
100
AcDbEntity
  8
1
  6
Continuous
 62
     7
370
    13
100
AcDbCircle
 10
8431.094113943983
 20
13731.11623965199
 30
0.0
 40
86.39999999999998
100
AcDbArc
 50
180.0
 51
270.0
  0
LINE
  5
22773
330
1F
100
AcDbEntity
  8
1
  6
Continuous
 62
     7
370
    13
100
AcDbLine
 10
9381.494113944006
 20
13644.71623965201
 30
0.0
 11
8431.094113943983
 21
13644.71623965201
 31
0.0
  0
ARC
  5
22774
330
1F
100
AcDbEntity
  8
1
  6
Continuous
 62
     7
370
    13
100
AcDbCircle
 10
9381.494113944006
 20
13731.11623965199
 30
0.0
 40
86.39999999999998
100
AcDbArc
 50
270.0
 51
0.0
  0
LINE
  5
22775
330
1F
100
AcDbEntity
  8
1
  6
Continuous
 62
     7
370
    13
100
AcDbLine
 10
8431.094113943983
 20
14767.916239652
 30
0.0
 11
9381.494113944006
 21
14767.916239652
 31
0.0
  0
LINE
  5
22776
330
1F
100
AcDbEntity
  8
1
  6
Continuous
 62
     7
370
    13
100
AcDbLine
 10
9467.894113944
 20
14681.51623965199
 30
0.0
 11
9467.894113944
 21
13731.11623965199
 31
0.0
  0
ARC
  5
22777
330
1F
100
AcDbEntity
  8
1
  6
Continuous
 62
     7
370
    13
100
AcDbCircle
 10
9381.494113944006
 20
14681.51623965199
 30
0.0
 40
86.39999999999998
100
AcDbArc
 50
0.0
 51
90.0
  0
ARC
  5
22778
330
1F
100
AcDbEntity
  8
1
  6
Continuous
 62
     7
370
    13
100
AcDbCircle
 10
8431.094113943983
 20
13126.316239652
 30
0.0
 40
86.39999999999998
100
AcDbArc
 50
90.0
 51
180.0
  0
LINE
  5
22779
330
1F
100
AcDbEntity
  8
1
  6
Continuous
 62
     7
370
    13
100
AcDbLine
 10
8431.094113943983
 20
13212.716239652
 30
0.0
 11
9381.494113944006
 21
13212.716239652
 31
0.0
  0
ARC
  5
2277A
330
1F
100
AcDbEntity
  8
1
  6
Continuous
 62
     7
370
    13
100
AcDbCircle
 10
9381.494113944006
 20
13126.316239652
 30
0.0
 40
86.39999999999998
100
AcDbArc
 50
0.0
 51
90.0
  0
LINE
  5
2277B
330
1F
100
AcDbEntity
  8
1
  6
Continuous
 62
     7
370
    13
100
AcDbLine
 10
9467.894113944
 20
13126.316239652
 30
0.0
 11
9467.894113944
 21
12175.916239652
 31
0.0
  0
ARC
  5
2277C
330
1F
100
AcDbEntity
  8
1
  6
Continuous
 62
     7
370
    13
100
AcDbCircle
 10
9381.494113944006
 20
12175.916239652
 30
0.0
 40
86.39999999999998
100
AcDbArc
 50
270.0
 51
0.0
  0
LINE
  5
2277D
330
1F
100
AcDbEntity
  8
1
  6
Continuous
 62
     7
370
    13
100
AcDbLine
 10
8344.694113943988
 20
12175.916239652
 30
0.0
 11
8344.694113943988
 21
13126.316239652
 31
0.0
  0
LINE
  5
2277E
330
1F
100
AcDbEntity
  8
1
  6
Continuous
 62
     7
370
    13
100
AcDbLine
 10
9381.494113944006
 20
12089.516239652
 30
0.0
 11
8431.094113943983
 21
12089.516239652
 31
0.0
  0
ARC
  5
2277F
330
1F
100
AcDbEntity
  8
1
  6
Continuous
 62
     7
370
    13
100
AcDbCircle
 10
8431.094113943983
 20
12175.916239652
 30
0.0
 40
86.39999999999998
100
AcDbArc
 50
180.0
 51
270.0
  0
ARC
  5
22780
330
1F
100
AcDbEntity
  8
1
  6
Continuous
 62
     7
370
    13
100
AcDbCircle
 10
8489.706917839532
 20
16178.10343575659
 30
0.0
 40
86.39999999999998
100
AcDbArc
 50
94.23770110096
 51
175.76229889904
  0
ARC
  5
22781
330
1F
100
AcDbEntity
  8
1
  6
Continuous
 62
     7
370
    13
100
AcDbCircle
 10
14111.89411394373
 20
15761.51623965199
 30
0.0
 40
5723.999999999676
100
AcDbArc
 50
175.76229889904
 51
184.23770110096
  0
ARC
  5
22782
330
1F
100
AcDbEntity
  8
1
  6
Continuous
 62
     7
370
    13
100
AcDbCircle
 10
8489.706917839532
 20
15344.92904354749
 30
0.0
 40
86.39999999999998
100
AcDbArc
 50
184.23770110096
 51
265.76229889904
  0
ARC
  5
22783
330
1F
100
AcDbEntity
  8
1
  6
Continuous
 62
     7
370
    13
100
AcDbCircle
 10
8906.294113944168
 20
20967.11623964945
 30
0.0
 40
5723.999999997407
100
AcDbArc
 50
265.76229889904
 51
274.23770110096
  0
ARC
  5
22784
330
1F
100
AcDbEntity
  8
1
  6
Continuous
 62
     7
370
    13
100
AcDbCircle
 10
9322.881310048627
 20
15344.92904354749
 30
0.0
 40
86.39999999999998
100
AcDbArc
 50
274.23770110096
 51
355.76229889904
  0
ARC
  5
22785
330
1F
100
AcDbEntity
  8
1
  6
Continuous
 62
     7
370
    13
100
AcDbCircle
 10
8906.294113943994
 20
10555.91623965201
 30
0.0
 40
5724.0
100
AcDbArc
 50
85.76229889904002
 51
94.23770110096
  0
ARC
  5
22786
330
1F
100
AcDbEntity
  8
1
  6
Continuous
 62
     7
370
    13
100
AcDbCircle
 10
3700.694113943988
 20
15761.51623965199
 30
0.0
 40
5724.0
100
AcDbArc
 50
355.76229889904
 51
4.237701100960006
  0
ARC
  5
22787
330
1F
100
AcDbEntity
  8
1
  6
Continuous
 62
     7
370
    13
100
AcDbCircle
 10
9322.881310048627
 20
16178.10343575659
 30
0.0
 40
86.39999999999998
100
AcDbArc
 50
4.237701100960006
 51
85.76229889904002
  0
ARC
  5
22788
330
1F
100
AcDbEntity
  8
1
  6
Continuous
 62
     7
370
    13
100
AcDbCircle
 10
8489.706917839532
 20
14622.9034357565
 30
0.0
 40
86.39999999999998
100
AcDbArc
 50
94.23770110096
 51
175.76229889904
  0
ARC
  5
22789
330
1F
100
AcDbEntity
  8
1
  6
Continuous
 62
     7
370
    13
100
AcDbCircle
 10
14111.89411394373
 20
14206.316239652
 30
0.0
 40
5723.999999999676
100
AcDbArc
 50
175.76229889904
 51
184.23770110096
  0
ARC
  5
2278A
330
1F
100
AcDbEntity
  8
1
  6
Continuous
 62
     7
370
    13
100
AcDbCircle
 10
8489.706917839532
 20
13789.7290435475
 30
0.0
 40
86.39999999999998
100
AcDbArc
 50
184.23770110096
 51
265.76229889904
  0
ARC
  5
2278B
330
1F
100
AcDbEntity
  8
1
  6
Continuous
 62
     7
370
    13
100
AcDbCircle
 10
8906.294113944168
 20
19411.91623964943
 30
0.0
 40
5723.999999997407
100
AcDbArc
 50
265.76229889904
 51
274.23770110096
  0
ARC
  5
2278C
330
1F
100
AcDbEntity
  8
1
  6
Continuous
 62
     7
370
    13
100
AcDbCircle
 10
9322.881310048627
 20
13789.7290435475
 30
0.0
 40
86.39999999999998
100
AcDbArc
 50
274.23770110096
 51
355.76229889904
  0
ARC
  5
2278D
330
1F
100
AcDbEntity
  8
1
  6
Continuous
 62
     7
370
    13
100
AcDbCircle
 10
8906.294113943994
 20
9000.716239652014
 30
0.0
 40
5724.0
100
AcDbArc
 50
85.76229889904002
 51
94.23770110096
  0
ARC
  5
2278E
330
1F
100
AcDbEntity
  8
1
  6
Continuous
 62
     7
370
    13
100
AcDbCircle
 10
3700.694113943988
 20
14206.316239652
 30
0.0
 40
5724.0
100
AcDbArc
 50
355.76229889904
 51
4.237701100960006
  0
ARC
  5
2278F
330
1F
100
AcDbEntity
  8
1
  6
Continuous
 62
     7
370
    13
100
AcDbCircle
 10
9322.881310048627
 20
14622.9034357565
 30
0.0
 40
86.39999999999998
100
AcDbArc
 50
4.237701100960006
 51
85.76229889904002
  0
ARC
  5
22790
330
1F
100
AcDbEntity
  8
1
  6
Continuous
 62
     7
370
    13
100
AcDbCircle
 10
8489.706917839532
 20
13067.70343575657
 30
0.0
 40
86.39999999999998
100
AcDbArc
 50
94.23770110096
 51
175.76229889904
  0
ARC
  5
22791
330
1F
100
AcDbEntity
  8
1
  6
Continuous
 62
     7
370
    13
100
AcDbCircle
 10
14111.89411394373
 20
12651.116239652
 30
0.0
 40
5723.999999999676
100
AcDbArc
 50
175.76229889904
 51
184.23770110096
  0
ARC
  5
22792
330
1F
100
AcDbEntity
  8
1
  6
Continuous
 62
     7
370
    13
100
AcDbCircle
 10
8489.706917839532
 20
12234.52904354747
 30
0.0
 40
86.39999999999998
100
AcDbArc
 50
184.23770110096
 51
265.76229889904
  0
ARC
  5
22793
330
1F
100
AcDbEntity
  8
1
  6
Continuous
 62
     7
370
    13
100
AcDbCircle
 10
8906.294113944168
 20
17856.71623964943
 30
0.0
 40
5723.999999997407
100
AcDbArc
 50
265.76229889904
 51
274.23770110096
  0
ARC
  5
22794
330
1F
100
AcDbEntity
  8
1
  6
Continuous
 62
     7
370
    13
100
AcDbCircle
 10
9322.881310048627
 20
12234.52904354747
 30
0.0
 40
86.39999999999998
100
AcDbArc
 50
274.23770110096
 51
355.76229889904
  0
ARC
  5
22795
330
1F
100
AcDbEntity
  8
1
  6
Continuous
 62
     7
370
    13
100
AcDbCircle
 10
8906.294113943994
 20
7445.516239652002
 30
0.0
 40
5724.0
100
AcDbArc
 50
85.76229889904002
 51
94.23770110096
  0
ARC
  5
22796
330
1F
100
AcDbEntity
  8
1
  6
Continuous
 62
     7
370
    13
100
AcDbCircle
 10
3700.694113943988
 20
12651.116239652
 30
0.0
 40
5724.0
100
AcDbArc
 50
355.76229889904
 51
4.237701100960006
  0
ARC
  5
22797
330
1F
100
AcDbEntity
  8
1
  6
Continuous
 62
     7
370
    13
100
AcDbCircle
 10
9322.881310048627
 20
13067.70343575657
 30
0.0
 40
86.39999999999998
100
AcDbArc
 50
4.237701100960006
 51
85.76229889904002
  0
TEXT
  5
22798
330
1F
100
AcDbEntity
  8
1
  6
Continuous
 62
     7
370
    13
100
AcDbText
 10
8776.694113943987
 20
15675.116239652
 30
0.0
 40
518.4
  1
1
 41
0.5
 11
8776.694113943987
 21
15502.316239652
 31
0.0
100
AcDbText
 73
     1
  0
TEXT
  5
22799
330
1F
100
AcDbEntity
  8
1
  6
Continuous
 62
     7
370
    13
100
AcDbText
 10
8776.694113943987
 20
14119.91623965199
 30
0.0
 40
518.4
  1
2
 41
0.5
 11
8776.694113943987
 21
13947.11623965199
 31
0.0
100
AcDbText
 73
     1
  0
TEXT
  5
2279A
330
1F
100
AcDbEntity
  8
1
  6
Continuous
 62
     7
370
    13
100
AcDbText
 10
8776.694113943987
 20
12564.716239652
 30
0.0
 40
518.4
  1
3
 41
0.5
 11
8776.694113943987
 21
12391.916239652
 31
0.0
100
AcDbText
 73
     1
  0
ARC
  5
2279B
330
1F
100
AcDbEntity
  8
1
  6
Continuous
 62
     7
370
    13
100
AcDbCircle
 10
8344.694113943988
 20
18137.516239652
 30
0.0
 40
86.39999999999998
100
AcDbArc
 50
90.0
 51
180.0
  0
LINE
  5
2279C
330
1F
100
AcDbEntity
  8
1
  6
Continuous
 62
     7
370
    13
100
AcDbLine
 10
8258.294113943994
 20
18137.516239652
 30
0.0
 11
8258.294113943994
 21
17835.116239652
 31
0.0
  0
ARC
  5
2279D
330
1F
100
AcDbEntity
  8
1
  6
Continuous
 62
     7
370
    13
100
AcDbCircle
 10
8344.694113943988
 20
17835.116239652
 30
0.0
 40
86.39999999999998
100
AcDbArc
 50
180.0
 51
270.0
  0
LINE
  5
2279E
330
1F
100
AcDbEntity
  8
1
  6
Continuous
 62
     7
370
    13
100
AcDbLine
 10
8344.694113943988
 20
17748.71623965201
 30
0.0
 11
9467.894113944
 21
17748.71623965201
 31
0.0
  0
ARC
  5
2279F
330
1F
100
AcDbEntity
  8
1
  6
Continuous
 62
     7
370
    13
100
AcDbCircle
 10
9467.894113944
 20
17835.116239652
 30
0.0
 40
86.39999999999998
100
AcDbArc
 50
270.0
 51
0.0
  0
LINE
  5
227A0
330
1F
100
AcDbEntity
  8
1
  6
Continuous
 62
     7
370
    13
100
AcDbLine
 10
9467.894113944
 20
18223.916239652
 30
0.0
 11
8344.694113943988
 21
18223.916239652
 31
0.0
  0
LINE
  5
227A1
330
1F
100
AcDbEntity
  8
1
  6
Continuous
 62
     7
370
    13
100
AcDbLine
 10
9554.294113943994
 20
17835.116239652
 30
0.0
 11
9554.294113943994
 21
18137.516239652
 31
0.0
  0
ARC
  5
227A2
330
1F
100
AcDbEntity
  8
1
  6
Continuous
 62
     7
370
    13
100
AcDbCircle
 10
9467.894113944
 20
18137.516239652
 30
0.0
 40
86.39999999999998
100
AcDbArc
 50
0.0
 51
90.0
  0
DIMENSION
  5
227A3
330
1F
100
AcDbEntity
  8
1
  6
Continuous
 62
     7
370
    13
100
AcDbDimension
  2
*D112
 10
13226.29411394399
 20
9557.996239651995
 30
0.0
 11
12976.29411394399
 21
14741.99623965199
 31
0.0
 70
    32
  1
120
 71
     5
 42
10368.0
  3
STANDARD
100
AcDbAlignedDimension
 13
11066.29411394399
 23
19925.99623965199
 33
0.0
 14
11066.29411394399
 24
9557.996239651998
 34
0.0
 50
90.0
100
AcDbRotatedDimension
1001
ACAD
1000
DSTYLE
1002
{
1070
    41
1040
500.0
1070
    42
1040
100.0
1070
    73
1070
     0
1070
    77
1070
     1
1070
   140
1040
400.0
1070
   147
1040
50.0
1070
   173
1070
     1
1070
   343
1005
2B
1070
   344
1005
2B
1002
}
  0
DIMENSION
  5
227A4
330
1F
100
AcDbEntity
  8
1
  6
Continuous
 62
     7
370
    13
100
AcDbDimension
  2
*D113
 10
11930.29411394399
 20
21221.996239652
 30
0.0
 11
8906.294113943994
 21
21471.996239652
 31
0.0
 70
    32
  1
70
 71
     5
 42
6048.0
  3
STANDARD
100
AcDbAlignedDimension
 13
5882.294113943992
 23
19061.996239652
 33
0.0
 14
11930.29411394399
 24
19061.996239652
 34
0.0
100
AcDbRotatedDimension
1001
ACAD
1000
DSTYLE
1002
{
1070
    41
1040
500.0
1070
    42
1040
100.0
1070
    73
1070
     0
1070
    77
1070
     1
1070
   140
1040
400.0
1070
   147
1040
50.0
1070
   173
1070
     1
1070
   343
1005
2B
1070
   344
1005
2B
1002
}
  0
LINE
  5
227A5
330
1F
100
AcDbEntity
  8
1
  6
Continuous
 62
     7
370
    13
100
AcDbLine
 10
15714.61411394399
 20
19925.99623965199
 30
0.0
 11
15714.61411394399
 21
9557.996239651998
 31
0.0
  0
LINE
  5
227A6
330
1F
100
AcDbEntity
  8
1
  6
Continuous
 62
     7
370
    13
100
AcDbLine
 10
14954.29411394399
 20
18690.47623965201
 30
0.0
 11
14911.09411394398
 21
18690.47623965201
 31
0.0
  0
LINE
  5
227A7
330
1F
100
AcDbEntity
  8
1
  6
Continuous
 62
     7
370
    13
100
AcDbLine
 10
14911.09411394398
 20
18690.47623965201
 30
0.0
 11
14911.09411394398
 21
10793.51623965199
 31
0.0
  0
LINE
  5
227A8
330
1F
100
AcDbEntity
  8
1
  6
Continuous
 62
     7
370
    13
100
AcDbLine
 10
14911.09411394398
 20
10793.51623965199
 30
0.0
 11
14954.29411394399
 21
10793.51623965199
 31
0.0
  0
LINE
  5
227A9
330
1F
100
AcDbEntity
  8
1
  6
Continuous
 62
     7
370
    13
100
AcDbLine
 10
14911.09411394398
 20
16279.91623965201
 30
0.0
 11
14790.13411394396
 21
16279.91623965201
 31
0.0
  0
LINE
  5
227AA
330
1F
100
AcDbEntity
  8
1
  6
Continuous
 62
     7
370
    13
100
AcDbLine
 10
14790.13411394396
 20
16279.91623965201
 30
0.0
 11
14790.13411394396
 21
15243.11623965201
 31
0.0
  0
LINE
  5
227AB
330
1F
100
AcDbEntity
  8
1
  6
Continuous
 62
     7
370
    13
100
AcDbLine
 10
14790.13411394396
 20
15243.11623965201
 30
0.0
 11
14911.09411394398
 21
15243.11623965201
 31
0.0
  0
LINE
  5
227AC
330
1F
100
AcDbEntity
  8
1
  6
Continuous
 62
     7
370
    13
100
AcDbLine
 10
14911.09411394398
 20
14724.716239652
 30
0.0
 11
14790.13411394396
 21
14724.716239652
 31
0.0
  0
LINE
  5
227AD
330
1F
100
AcDbEntity
  8
1
  6
Continuous
 62
     7
370
    13
100
AcDbLine
 10
14790.13411394396
 20
14724.716239652
 30
0.0
 11
14790.13411394396
 21
13687.916239652
 31
0.0
  0
LINE
  5
227AE
330
1F
100
AcDbEntity
  8
1
  6
Continuous
 62
     7
370
    13
100
AcDbLine
 10
14790.13411394396
 20
13687.916239652
 30
0.0
 11
14911.09411394398
 21
13687.916239652
 31
0.0
  0
LINE
  5
227AF
330
1F
100
AcDbEntity
  8
1
  6
Continuous
 62
     7
370
    13
100
AcDbLine
 10
14911.09411394398
 20
13169.51623965199
 30
0.0
 11
14790.13411394396
 21
13169.51623965199
 31
0.0
  0
LINE
  5
227B0
330
1F
100
AcDbEntity
  8
1
  6
Continuous
 62
     7
370
    13
100
AcDbLine
 10
14790.13411394396
 20
13169.51623965199
 30
0.0
 11
14790.13411394396
 21
12132.71623965201
 31
0.0
  0
LINE
  5
227B1
330
1F
100
AcDbEntity
  8
1
  6
Continuous
 62
     7
370
    13
100
AcDbLine
 10
14790.13411394396
 20
12132.71623965201
 30
0.0
 11
14911.09411394398
 21
12132.71623965201
 31
0.0
  0
ARC
  5
227B2
330
1F
100
AcDbEntity
  8
1
  6
Continuous
 62
     7
370
    13
100
AcDbCircle
 10
14902.74211394408
 20
17221.676239652
 30
0.0
 40
121.248
100
AcDbArc
 50
86.05013197814605
 51
273.9498680218539
  0
ELLIPSE
  5
227B3
330
1F
100
AcDbEntity
  8
1
  6
Continuous
 62
     7
370
    13
100
AcDbEllipse
 10
15282.61411394399
 20
18716.39623965199
 30
0.0
 11
0.0000000000019542
 21
1209.6
 31
0.0
210
0.0
220
0.0
230
1.0
 40
0.2714285714285722
 41
-0.0000000000000018
 42
1.570796326794894
  0
LINE
  5
227B4
330
1F
100
AcDbEntity
  8
1
  6
Continuous
 62
     7
370
    13
100
AcDbLine
 10
15282.61411394399
 20
19925.99623965199
 30
0.0
 11
15714.61411394399
 21
19925.99623965199
 31
0.0
  0
ELLIPSE
  5
227B5
330
1F
100
AcDbEntity
  8
1
  6
Continuous
 62
     7
370
    13
100
AcDbEllipse
 10
15282.61411394399
 20
10767.59623965199
 30
0.0
 11
0.0000000000019542
 21
-1209.599999999998
 31
0.0
210
0.0
220
0.0
230
0.9999999999999998
 40
0.2714285714285726
 41
-1.570796326794894
 42
0.0
  0
LINE
  5
227B6
330
1F
100
AcDbEntity
  8
1
  6
Continuous
 62
     7
370
    13
100
AcDbLine
 10
14954.29411394399
 20
10767.59623965199
 30
0.0
 11
14954.29411394399
 21
18716.39623965199
 31
0.0
  0
LINE
  5
227B7
330
1F
100
AcDbEntity
  8
1
  6
Continuous
 62
     7
370
    13
100
AcDbLine
 10
15714.61411394399
 20
9557.996239651998
 30
0.0
 11
15282.61411394399
 21
9557.996239651998
 31
0.0
  0
LINE
  5
227B8
330
1F
100
AcDbEntity
  8
1
  6
Continuous
 62
     7
370
    13
100
AcDbLine
 10
16336.69411394398
 20
17506.79623965199
 30
0.0
 11
18107.894113944
 21
17506.79623965199
 31
0.0
  0
LINE
  5
227B9
330
1F
100
AcDbEntity
  8
1
  6
Continuous
 62
     7
370
    13
100
AcDbLine
 10
18107.894113944
 20
17506.79623965199
 30
0.0
 11
18107.894113944
 21
11804.39623965199
 31
0.0
  0
LINE
  5
227BA
330
1F
100
AcDbEntity
  8
1
  6
Continuous
 62
     7
370
    13
100
AcDbLine
 10
18107.894113944
 20
11804.39623965199
 30
0.0
 11
16336.69411394398
 21
11804.39623965199
 31
0.0
  0
LINE
  5
227BB
330
1F
100
AcDbEntity
  8
1
  6
Continuous
 62
     7
370
    13
100
AcDbLine
 10
16336.69411394398
 20
11804.39623965199
 30
0.0
 11
16336.69411394398
 21
17506.79623965199
 31
0.0
  0
LINE
  5
227BC
330
1F
100
AcDbEntity
  8
1
  6
Continuous
 62
     7
370
    13
100
AcDbLine
 10
16120.69411394398
 20
11631.596239652
 30
0.0
 11
15714.61411394399
 21
11631.596239652
 31
0.0
  0
ARC
  5
227BD
330
1F
100
AcDbEntity
  8
1
  6
Continuous
 62
     7
370
    13
100
AcDbCircle
 10
16120.69411394398
 20
11717.99623965199
 30
0.0
 40
86.39999999999998
100
AcDbArc
 50
270.0
 51
0.0
  0
LINE
  5
227BE
330
1F
100
AcDbEntity
  8
1
  6
Continuous
 62
     7
370
    13
100
AcDbLine
 10
15714.61411394399
 20
17852.396239652
 30
0.0
 11
16120.69411394398
 21
17852.396239652
 31
0.0
  0
LINE
  5
227BF
330
1F
100
AcDbEntity
  8
1
  6
Continuous
 62
     7
370
    13
100
AcDbLine
 10
16207.09411394398
 20
17765.99623965199
 30
0.0
 11
16207.09411394398
 21
11717.99623965199
 31
0.0
  0
ARC
  5
227C0
330
1F
100
AcDbEntity
  8
1
  6
Continuous
 62
     7
370
    13
100
AcDbCircle
 10
16120.69411394398
 20
17765.99623965199
 30
0.0
 40
86.39999999999998
100
AcDbArc
 50
0.0
 51
90.0
  0
LINE
  5
227C1
330
1F
100
AcDbEntity
  8
1
  6
Continuous
 62
     7
370
    13
100
AcDbLine
 10
16207.09411394398
 20
17463.596239652
 30
0.0
 11
16336.69411394398
 21
17463.596239652
 31
0.0
  0
LINE
  5
227C2
330
1F
100
AcDbEntity
  8
1
  6
Continuous
 62
     7
370
    13
100
AcDbLine
 10
16336.69411394398
 20
17463.596239652
 30
0.0
 11
16336.69411394398
 21
16945.19623965198
 31
0.0
  0
LINE
  5
227C3
330
1F
100
AcDbEntity
  8
1
  6
Continuous
 62
     7
370
    13
100
AcDbLine
 10
16336.69411394398
 20
16945.19623965198
 30
0.0
 11
16207.09411394398
 21
16945.19623965198
 31
0.0
  0
LINE
  5
227C4
330
1F
100
AcDbEntity
  8
1
  6
Continuous
 62
     7
370
    13
100
AcDbLine
 10
16207.09411394398
 20
12538.796239652
 30
0.0
 11
16336.69411394398
 21
12538.796239652
 31
0.0
  0
LINE
  5
227C5
330
1F
100
AcDbEntity
  8
1
  6
Continuous
 62
     7
370
    13
100
AcDbLine
 10
16336.69411394398
 20
12538.796239652
 30
0.0
 11
16336.69411394398
 21
12020.396239652
 31
0.0
  0
LINE
  5
227C6
330
1F
100
AcDbEntity
  8
1
  6
Continuous
 62
     7
370
    13
100
AcDbLine
 10
16336.69411394398
 20
12020.396239652
 30
0.0
 11
16207.09411394398
 21
12020.396239652
 31
0.0
  0
LINE
  5
227C7
330
1F
100
AcDbEntity
  8
1
  6
CENTER
 62
     7
370
    13
100
AcDbLine
 10
14301.8013139441
 20
14741.99623965199
 30
0.0
 11
18339.44611394405
 21
14741.99623965199
 31
0.0
  0
DIMENSION
  5
227C8
330
1F
100
AcDbEntity
  8
1
  6
Continuous
 62
     7
370
    13
100
AcDbDimension
  2
*D114
 10
19403.894113944
 20
11804.39623965199
 30
0.0
 11
19153.89411394399
 21
14655.596239652
 31
0.0
 70
    32
  1
（66）
 71
     5
 42
5702.399999999994
  3
STANDARD
100
AcDbAlignedDimension
 13
18107.894113944
 23
17506.79623965199
 33
0.0
 14
18107.894113944
 24
11804.39623965199
 34
0.0
 50
90.0
100
AcDbRotatedDimension
1001
ACAD
1000
DSTYLE
1002
{
1070
    41
1040
500.0
1070
    42
1040
100.0
1070
    73
1070
     0
1070
    77
1070
     1
1070
   140
1040
400.0
1070
   147
1040
50.0
1070
   173
1070
     1
1070
   343
1005
2B
1070
   344
1005
2B
1002
}
  0
DIMENSION
  5
227C9
330
1F
100
AcDbEntity
  8
1
  6
Continuous
 62
     7
370
    13
100
AcDbDimension
  2
*D115
 10
15714.61411394399
 20
21221.996239652
 30
0.0
 11
16911.254113944
 21
21471.996239652
 31
0.0
 70
    32
  1
（27.7）
 71
     5
 42
2393.279999999998
  3
STANDARD
100
AcDbAlignedDimension
 13
18107.894113944
 23
17506.79623965199
 33
0.0
 14
15714.61411394399
 24
20098.79623965199
 34
0.0
100
AcDbRotatedDimension
1001
ACAD
1000
DSTYLE
1002
{
1070
    41
1040
500.0
1070
    42
1040
100.0
1070
    73
1070
     0
1070
    77
1070
     1
1070
   140
1040
400.0
1070
   147
1040
50.0
1070
   173
1070
     1
1070
   343
1005
2B
1070
   344
1005
2B
1002
}
  0
DIMENSION
  5
227CA
330
1F
100
AcDbEntity
  8
1
  6
Continuous
 62
     7
370
    13
100
AcDbDimension
  2
*D116
 10
15714.61411394398
 20
21221.996239652
 30
0.0
 11
13461.09411394398
 21
21221.996239652
 31
0.0
 70
   160
  1
8.8
 71
     5
 42
803.520000000004
  3
STANDARD
100
AcDbAlignedDimension
 13
14911.09411394398
 23
18690.47623965201
 33
0.0
 14
15714.61411394398
 24
19925.99623965199
 34
0.0
100
AcDbRotatedDimension
1001
ACAD
1000
DSTYLE
1002
{
1070
    41
1040
500.0
1070
    42
1040
100.0
1070
    73
1070
     0
1070
    77
1070
     1
1070
   140
1040
400.0
1070
   147
1040
50.0
1070
   173
1070
     1
1070
   343
1005
2B
1070
   344
1005
2B
1002
}
  0
TEXT
  5
227CB
330
1F
100
AcDbEntity
  8
1
  6
Continuous
 62
     7
370
    13
100
AcDbText
 10
2392.904948005838
 20
1806.755147694303
 30
0.0
 40
447.9946116360424
  1
電　源
 41
0.944444
  7
KANJI
100
AcDbText
  0
TEXT
  5
227CC
330
1F
100
AcDbEntity
  8
1
  6
Continuous
 62
     7
370
    13
100
AcDbText
 10
5081.104607755349
 20
1806.755147694303
 30
0.0
 40
447.9946116360424
  1
ＤＣ２４Ｖ%%P１０％　電気錠制御盤より供給
 41
0.8872049999999999
  7
KANJI
100
AcDbText
  0
LINE
  5
227CD
330
1F
100
AcDbEntity
  8
1
  6
Continuous
 62
     7
370
    13
100
AcDbLine
 10
2068.557988920343
 20
3670.758685214314
 30
0.0
 11
21133.93085752901
 21
3670.758685210734
 31
0.0
  0
LINE
  5
227CE
330
1F
100
AcDbEntity
  8
1
  6
Continuous
 62
     7
370
    13
100
AcDbLine
 10
2068.557988920343
 20
3019.466807533376
 30
0.0
 11
21133.93085752901
 21
3019.466807533376
 31
0.0
  0
LINE
  5
227CF
330
1F
100
AcDbEntity
  8
1
  6
Continuous
 62
     7
370
    13
100
AcDbLine
 10
2068.557988920488
 20
4322.050562894728
 30
0.0
 11
21133.93085752916
 21
4322.050562891148
 31
0.0
  0
TEXT
  5
227D0
330
1F
100
AcDbEntity
  8
1
  6
Continuous
 62
     7
370
    13
100
AcDbText
 10
2392.904948005838
 20
2478.266183436819
 30
0.0
 40
447.9946116360424
  1
重　量
 41
0.944444
  7
KANJI
100
AcDbText
  0
TEXT
  5
227D1
330
1F
100
AcDbEntity
  8
1
  6
Continuous
 62
     7
370
    13
100
AcDbText
 10
5081.104607755349
 20
2478.266183436819
 30
0.0
 40
447.9946116360424
  1
約100ｇ
 41
0.8872049999999999
  7
KANJI
100
AcDbText
  0
TEXT
  5
227D2
330
1F
100
AcDbEntity
  8
1
  6
Continuous
 62
     7
370
    13
100
AcDbText
 10
2392.904948005838
 20
3129.558061117233
 30
0.0
 40
447.9946116360424
  1
パネル
 41
0.944444
  7
KANJI
100
AcDbText
  0
TEXT
  5
227D3
330
1F
100
AcDbEntity
  8
1
  6
Continuous
 62
     7
370
    13
100
AcDbText
 10
5081.104607755349
 20
3129.558061117233
 30
0.0
 40
447.9946116360424
  1
スイッチプレート（ＷＴＣ７１０１）
 41
0.8872049999999999
  7
KANJI
100
AcDbText
  0
LINE
  5
227D4
330
1F
100
AcDbEntity
  8
1
  6
Continuous
 62
     7
370
    13
100
AcDbLine
 10
2068.557988920343
 20
3019.466807533376
 30
0.0
 11
21133.93085752901
 21
3019.466807533376
 31
0.0
  0
LINE
  5
227D5
330
1F
100
AcDbEntity
  8
1
  6
Continuous
 62
     7
370
    13
100
AcDbLine
 10
2068.557988920343
 20
1716.883052183591
 30
0.0
 11
21133.93085752901
 21
1716.883052180011
 31
0.0
  0
LINE
  5
227D6
330
1F
100
AcDbEntity
  8
1
  6
Continuous
 62
     7
370
    13
100
AcDbLine
 10
2068.557988920343
 20
1065.591174502653
 30
0.0
 11
21133.93085752901
 21
1065.591174502653
 31
0.0
  0
LINE
  5
227D7
330
1F
100
AcDbEntity
  8
1
  6
Continuous
 62
     7
370
    13
100
AcDbLine
 10
2068.557988920488
 20
2368.174929864006
 30
0.0
 11
21133.93085752916
 21
2368.174929860426
 31
0.0
  0
TEXT
  5
227D8
330
1F
100
AcDbEntity
  8
1
  6
Continuous
 62
     7
370
    13
100
AcDbText
 10
2392.904948005838
 20
1175.682428086511
 30
0.0
 40
447.9946116360424
  1
操作釦耐久性
 41
0.7
  7
KANJI
100
AcDbText
  0
TEXT
  5
227D9
330
1F
100
AcDbEntity
  8
1
  6
Continuous
 62
     7
370
    13
100
AcDbText
 10
5081.104607755349
 20
1175.682428086511
 30
0.0
 40
447.9946116360424
  1
30万回
 41
0.8872049999999999
  7
KANJI
100
AcDbText
  0
LWPOLYLINE
  5
227DA
330
1F
100
AcDbEntity
  8
0
370
    13
100
AcDbPolyline
 90
        4
 70
     1
 43
0.0
 10
1126.645408912474
 20
24861.91643630379
 10
2117.832141456689
 20
24861.91643630379
 10
2117.832141456689
 20
23931.13376700626
 10
1126.645408912474
 20
23931.13376700626
  0
TEXT
  5
227DB
330
1F
100
AcDbEntity
  8
1
  6
Continuous
 62
     7
370
    13
100
AcDbText
 10
1357.459101188091
 20
24028.3243603686
 30
0.0
 40
735.5708998221611
  1
３
 41
0.8
  7
KANJI
100
AcDbText
  0
ENDSEC
  0
SECTION
  2
OBJECTS
  0
DICTIONARY
  5
C
330
0
100
AcDbDictionary
281
     1
  3
ACAD_GROUP
350
D
  3
ACAD_LAYOUT
350
1A
  3
ACAD_MLINESTYLE
350
17
  3
ACAD_PLOTSETTINGS
350
19
  3
ACAD_PLOTSTYLENAME
350
9FDC
  3
AcDbVariableDictionary
350
E71E
1001
ACAD
1000
TREAT_AS_HARD
1070
     0
  0
DICTIONARY
  5
73
330
2
100
AcDbDictionary
281
     1
  3
ACAD_LAYERSTATES
350
74
1001
ACAD
1000
TREAT_AS_HARD
1070
     1
  0
DICTIONARY
  5
2CF6
330
1F
100
AcDbDictionary
281
     1
  3
ACAD_LAYOUTSELFREF
350
9FB3
1001
ACAD
1000
TREAT_AS_HARD
1070
     1
  0
DICTIONARY
  5
2CF4
330
1B
100
AcDbDictionary
281
     1
  3
ACAD_LAYOUTSELFREF
350
9FB2
1001
ACAD
1000
TREAT_AS_HARD
1070
     1
  0
DICTIONARY
  5
D
102
{ACAD_REACTORS
330
C
102
}
330
C
100
AcDbDictionary
281
     1
1001
ACAD
1000
TREAT_AS_HARD
1070
     0
  0
DICTIONARY
  5
1A
102
{ACAD_REACTORS
330
C
102
}
330
C
100
AcDbDictionary
281
     1
  3
Model
350
9FDE
  3
ﾚｲｱｳﾄ1
350
9FDF
1001
ACAD
1000
TREAT_AS_HARD
1070
     0
  0
DICTIONARY
  5
17
102
{ACAD_REACTORS
330
C
102
}
330
C
100
AcDbDictionary
281
     1
  3
STANDARD
350
18
1001
ACAD
1000
TREAT_AS_HARD
1070
     0
  0
DICTIONARY
  5
19
102
{ACAD_REACTORS
330
C
102
}
330
C
100
AcDbDictionary
281
     1
1001
ACAD
1000
TREAT_AS_HARD
1070
     0
  0
ACDBDICTIONARYWDFLT
  5
9FDC
102
{ACAD_REACTORS
330
C
102
}
330
C
100
AcDbDictionary
281
     1
  3
Normal
350
9FDD
100
AcDbDictionaryWithDefault
340
9FDD
  0
DICTIONARY
  5
E71E
102
{ACAD_REACTORS
330
C
102
}
330
C
100
AcDbDictionary
281
     1
  3
DIMASSOC
350
E71F
  0
DICTIONARY
  5
74
102
{ACAD_REACTORS
330
73
102
}
330
73
100
AcDbDictionary
281
     1
1001
ACAD
1000
TREAT_AS_HARD
1070
     0
  0
XRECORD
  5
9FB3
102
{ACAD_REACTORS
330
2CF6
102
}
330
2CF6
100
AcDbXrecord
280
     1
340
1F
  0
XRECORD
  5
9FB2
102
{ACAD_REACTORS
330
2CF4
102
}
330
2CF4
100
AcDbXrecord
280
     1
340
1B
  0
LAYOUT
  5
9FDE
102
{ACAD_REACTORS
330
1A
102
}
330
1A
100
AcDbPlotSettings
  1

  2
NEC MultiWriter2360/2360N
  4

  6

 40
0.0
 41
0.0
 42
0.0
 43
0.0
 44
0.0
 45
0.0
 46
0.0
 47
0.0
 48
0.0
 49
0.0
140
0.0
141
0.0
142
1.0
143
1.0
 70
  1712
 72
     0
 73
     0
 74
     0
  7

 75
     0
147
1.0
148
0.0
149
0.0
100
AcDbLayout
  1
Model
 70
     1
 71
     0
 10
0.0
 20
0.0
 11
12.0
 21
9.0
 12
0.0
 22
0.0
 32
0.0
 14
0.0
 24
0.0
 34
0.0
 15
0.0
 25
0.0
 35
0.0
146
0.0
 13
0.0
 23
0.0
 33
0.0
 16
1.0
 26
0.0
 36
0.0
 17
0.0
 27
1.0
 37
0.0
 76
     0
330
1F
  0
LAYOUT
  5
9FDF
102
{ACAD_REACTORS
330
1A
102
}
330
1A
100
AcDbPlotSettings
  1

  2
NEC MultiWriter2360/2360N
  4

  6

 40
0.0
 41
0.0
 42
0.0
 43
0.0
 44
0.0
 45
0.0
 46
0.0
 47
0.0
 48
0.0
 49
0.0
140
0.0
141
0.0
142
1.0
143
1.0
 70
   688
 72
     0
 73
     0
 74
     5
  7

 75
    16
147
1.0
148
0.0
149
0.0
100
AcDbLayout
  1
ﾚｲｱｳﾄ1
 70
     1
 71
     1
 10
0.0
 20
0.0
 11
420.0
 21
297.0
 12
0.0
 22
0.0
 32
0.0
 14
1.000000000000000E+20
 24
1.000000000000000E+20
 34
1.000000000000000E+20
 15
-1.000000000000000E+20
 25
-1.000000000000000E+20
 35
-1.000000000000000E+20
146
0.0
 13
0.0
 23
0.0
 33
0.0
 16
1.0
 26
0.0
 36
0.0
 17
0.0
 27
1.0
 37
0.0
 76
     0
330
1B
  0
MLINESTYLE
  5
18
102
{ACAD_REACTORS
330
17
102
}
330
17
100
AcDbMlineStyle
  2
STANDARD
 70
     0
  3

 62
   256
 51
90.0
 52
90.0
 71
     2
 49
0.5
 62
   256
  6
BYLAYER
 49
-0.5
 62
   256
  6
BYLAYER
  0
ACDBPLACEHOLDER
  5
9FDD
102
{ACAD_REACTORS
330
9FDC
102
}
330
9FDC
  0
DICTIONARYVAR
  5
E71F
102
{ACAD_REACTORS
330
E71E
102
}
330
E71E
100
DictionaryVariables
280
     0
  1
1
  0
ENDSEC
  0
EOF
