  0
SECTION
  2
HEADER
  9
$ACADVER
  1
AC1015
  9
$ACADMAINTVER
 70
    20
  9
$DWGCODEPAGE
  3
ANSI_932
  9
$INSBASE
 10
0.0
 20
0.0
 30
0.0
  9
$EXTMIN
 10
544.4990866661901
 20
435.2980254736904
 30
-0.0015258207003583
  9
$EXTMAX
 10
23127.27002885908
 20
25517.49385782193
 30
0.0000000349246037
  9
$LIMMIN
 10
0.0
 20
0.0
  9
$LIMMAX
 10
420.0
 20
297.0
  9
$ORTHOMODE
 70
     1
  9
$REGENMODE
 70
     1
  9
$FILLMODE
 70
     1
  9
$QTEXTMODE
 70
     0
  9
$MIRRTEXT
 70
     1
  9
$LTSCALE
 40
1.0
  9
$ATTMODE
 70
     1
  9
$TEXTSIZE
 40
2.5
  9
$TRACEWID
 40
1.0
  9
$TEXTSTYLE
  7
STANDARD
  9
$CLAYER
  8
0
  9
$CELTYPE
  6
BYLAYER
  9
$CECOLOR
 62
   256
  9
$CELTSCALE
 40
1.0
  9
$DISPSILH
 70
     0
  9
$DIMSCALE
 40
1.0
  9
$DIMASZ
 40
2.5
  9
$DIMEXO
 40
0.625
  9
$DIMDLI
 40
3.75
  9
$DIMRND
 40
0.0
  9
$DIMDLE
 40
0.0
  9
$DIMEXE
 40
1.25
  9
$DIMTP
 40
0.0
  9
$DIMTM
 40
0.0
  9
$DIMTXT
 40
2.5
  9
$DIMCEN
 40
2.5
  9
$DIMTSZ
 40
0.0
  9
$DIMTOL
 70
     0
  9
$DIMLIM
 70
     0
  9
$DIMTIH
 70
     0
  9
$DIMTOH
 70
     0
  9
$DIMSE1
 70
     0
  9
$DIMSE2
 70
     0
  9
$DIMTAD
 70
     1
  9
$DIMZIN
 70
     8
  9
$DIMBLK
  1

  9
$DIMASO
 70
     1
  9
$DIMSHO
 70
     1
  9
$DIMPOST
  1

  9
$DIMAPOST
  1

  9
$DIMALT
 70
     0
  9
$DIMALTD
 70
     3
  9
$DIMALTF
 40
0.03937007874016
  9
$DIMLFAC
 40
1.0
  9
$DIMTOFL
 70
     1
  9
$DIMTVP
 40
0.0
  9
$DIMTIX
 70
     0
  9
$DIMSOXD
 70
     0
  9
$DIMSAH
 70
     0
  9
$DIMBLK1
  1

  9
$DIMBLK2
  1

  9
$DIMSTYLE
  2
ISO-25
  9
$DIMCLRD
 70
     0
  9
$DIMCLRE
 70
     0
  9
$DIMCLRT
 70
     0
  9
$DIMTFAC
 40
1.0
  9
$DIMGAP
 40
0.625
  9
$DIMJUST
 70
     0
  9
$DIMSD1
 70
     0
  9
$DIMSD2
 70
     0
  9
$DIMTOLJ
 70
     0
  9
$DIMTZIN
 70
     8
  9
$DIMALTZ
 70
     0
  9
$DIMALTTZ
 70
     0
  9
$DIMUPT
 70
     0
  9
$DIMDEC
 70
     2
  9
$DIMTDEC
 70
     2
  9
$DIMALTU
 70
     2
  9
$DIMALTTD
 70
     3
  9
$DIMTXSTY
  7
STANDARD
  9
$DIMAUNIT
 70
     0
  9
$DIMADEC
 70
     0
  9
$DIMALTRND
 40
0.0
  9
$DIMAZIN
 70
     0
  9
$DIMDSEP
 70
    46
  9
$DIMATFIT
 70
     3
  9
$DIMFRAC
 70
     0
  9
$DIMLDRBLK
  1

  9
$DIMLUNIT
 70
     2
  9
$DIMLWD
 70
    -2
  9
$DIMLWE
 70
    -2
  9
$DIMTMOVE
 70
     0
  9
$LUNITS
 70
     2
  9
$LUPREC
 70
     4
  9
$SKETCHINC
 40
1.0
  9
$FILLETRAD
 40
10.0
  9
$AUNITS
 70
     0
  9
$AUPREC
 70
     0
  9
$MENU
  1
.
  9
$ELEVATION
 40
0.0
  9
$PELEVATION
 40
0.0
  9
$THICKNESS
 40
0.0
  9
$LIMCHECK
 70
     0
  9
$CHAMFERA
 40
10.0
  9
$CHAMFERB
 40
10.0
  9
$CHAMFERC
 40
20.0
  9
$CHAMFERD
 40
0.0
  9
$SKPOLY
 70
     0
  9
$TDCREATE
 40
2455236.663553241
  9
$TDUCREATE
 40
2455236.288561528
  9
$TDUPDATE
 40
2459046.730428241
  9
$TDUUPDATE
 40
2459046.355428241
  9
$TDINDWG
 40
0.0338889236
  9
$TDUSRTIMER
 40
0.0338883681
  9
$USRTIMER
 70
     1
  9
$ANGBASE
 50
0.0
  9
$ANGDIR
 70
     0
  9
$PDMODE
 70
     0
  9
$PDSIZE
 40
0.0
  9
$PLINEWID
 40
0.0
  9
$SPLFRAME
 70
     0
  9
$SPLINETYPE
 70
     6
  9
$SPLINESEGS
 70
     8
  9
$HANDSEED
  5
F5A0
  9
$SURFTAB1
 70
     6
  9
$SURFTAB2
 70
     6
  9
$SURFTYPE
 70
     6
  9
$SURFU
 70
     6
  9
$SURFV
 70
     6
  9
$UCSBASE
  2

  9
$UCSNAME
  2

  9
$UCSORG
 10
0.0
 20
0.0
 30
0.0
  9
$UCSXDIR
 10
1.0
 20
0.0
 30
0.0
  9
$UCSYDIR
 10
0.0
 20
1.0
 30
0.0
  9
$UCSORTHOREF
  2

  9
$UCSORTHOVIEW
 70
     0
  9
$UCSORGTOP
 10
0.0
 20
0.0
 30
0.0
  9
$UCSORGBOTTOM
 10
0.0
 20
0.0
 30
0.0
  9
$UCSORGLEFT
 10
0.0
 20
0.0
 30
0.0
  9
$UCSORGRIGHT
 10
0.0
 20
0.0
 30
0.0
  9
$UCSORGFRONT
 10
0.0
 20
0.0
 30
0.0
  9
$UCSORGBACK
 10
0.0
 20
0.0
 30
0.0
  9
$PUCSBASE
  2

  9
$PUCSNAME
  2

  9
$PUCSORG
 10
0.0
 20
0.0
 30
0.0
  9
$PUCSXDIR
 10
1.0
 20
0.0
 30
0.0
  9
$PUCSYDIR
 10
0.0
 20
1.0
 30
0.0
  9
$PUCSORTHOREF
  2

  9
$PUCSORTHOVIEW
 70
     0
  9
$PUCSORGTOP
 10
0.0
 20
0.0
 30
0.0
  9
$PUCSORGBOTTOM
 10
0.0
 20
0.0
 30
0.0
  9
$PUCSORGLEFT
 10
0.0
 20
0.0
 30
0.0
  9
$PUCSORGRIGHT
 10
0.0
 20
0.0
 30
0.0
  9
$PUCSORGFRONT
 10
0.0
 20
0.0
 30
0.0
  9
$PUCSORGBACK
 10
0.0
 20
0.0
 30
0.0
  9
$USERI1
 70
     0
  9
$USERI2
 70
     0
  9
$USERI3
 70
     0
  9
$USERI4
 70
     0
  9
$USERI5
 70
     0
  9
$USERR1
 40
0.0
  9
$USERR2
 40
0.0
  9
$USERR3
 40
0.0
  9
$USERR4
 40
0.0
  9
$USERR5
 40
0.0
  9
$WORLDVIEW
 70
     1
  9
$SHADEDGE
 70
     3
  9
$SHADEDIF
 70
    70
  9
$TILEMODE
 70
     1
  9
$MAXACTVP
 70
    64
  9
$PINSBASE
 10
0.0
 20
0.0
 30
0.0
  9
$PLIMCHECK
 70
     0
  9
$PEXTMIN
 10
1.000000000000000E+20
 20
1.000000000000000E+20
 30
1.000000000000000E+20
  9
$PEXTMAX
 10
-1.000000000000000E+20
 20
-1.000000000000000E+20
 30
-1.000000000000000E+20
  9
$PLIMMIN
 10
0.0
 20
0.0
  9
$PLIMMAX
 10
420.0
 20
297.0
  9
$UNITMODE
 70
     0
  9
$VISRETAIN
 70
     1
  9
$PLINEGEN
 70
     0
  9
$PSLTSCALE
 70
     1
  9
$TREEDEPTH
 70
  3020
  9
$CMLSTYLE
  2
STANDARD
  9
$CMLJUST
 70
     0
  9
$CMLSCALE
 40
20.0
  9
$PROXYGRAPHICS
 70
     1
  9
$MEASUREMENT
 70
     0
  9
$CELWEIGHT
370
    -1
  9
$ENDCAPS
280
     0
  9
$JOINSTYLE
280
     0
  9
$LWDISPLAY
290
     0
  9
$INSUNITS
 70
     0
  9
$HYPERLINKBASE
  1

  9
$STYLESHEET
  1

  9
$XEDIT
290
     1
  9
$CEPSNTYPE
380
     0
  9
$PSTYLEMODE
290
     1
  9
$FINGERPRINTGUID
  2
{E923DD06-A5D2-4033-A387-0BD564AE0CF6}
  9
$VERSIONGUID
  2
{723818D9-8501-9648-98C7-C30C2C1C5696}
  9
$EXTNAMES
290
     1
  9
$PSVPSCALE
 40
0.0
  9
$OLESTARTUP
290
     0
  0
ENDSEC
  0
SECTION
  2
CLASSES
  0
CLASS
  1
ACDBDICTIONARYWDFLT
  2
AcDbDictionaryWithDefault
  3
ObjectDBX Classes
 90
        0
280
     0
281
     0
  0
CLASS
  1
ACDBPLACEHOLDER
  2
AcDbPlaceHolder
  3
ObjectDBX Classes
 90
        0
280
     0
281
     0
  0
CLASS
  1
LAYOUT
  2
AcDbLayout
  3
ObjectDBX Classes
 90
        0
280
     0
281
     0
  0
CLASS
  1
DICTIONARYVAR
  2
AcDbDictionaryVar
  3
ObjectDBX Classes
 90
        0
280
     0
281
     0
  0
CLASS
  1
MATERIAL
  2
AcDbMaterial
  3
ObjectDBX Classes
 90
     1153
280
     0
281
     0
  0
CLASS
  1
VISUALSTYLE
  2
AcDbVisualStyle
  3
ObjectDBX Classes
 90
     4095
280
     0
281
     0
  0
CLASS
  1
TABLESTYLE
  2
AcDbTableStyle
  3
ObjectDBX Classes
 90
     4095
280
     0
281
     0
  0
CLASS
  1
SCALE
  2
AcDbScale
  3
ObjectDBX Classes
 90
     1153
280
     0
281
     0
  0
CLASS
  1
MLEADERSTYLE
  2
AcDbMLeaderStyle
  3
ACDB_MLEADERSTYLE_CLASS
 90
     4095
280
     0
281
     0
  0
CLASS
  1
ACDBSECTIONVIEWSTYLE
  2
AcDbSectionViewStyle
  3
ObjectDBX Classes
 90
     1025
280
     0
281
     0
  0
CLASS
  1
ACDBDETAILVIEWSTYLE
  2
AcDbDetailViewStyle
  3
ObjectDBX Classes
 90
     1025
280
     0
281
     0
  0
CLASS
  1
CELLSTYLEMAP
  2
AcDbCellStyleMap
  3
ObjectDBX Classes
 90
     1152
280
     0
281
     0
  0
CLASS
  1
SORTENTSTABLE
  2
AcDbSortentsTable
  3
ObjectDBX Classes
 90
        0
280
     0
281
     0
  0
ENDSEC
  0
SECTION
  2
TABLES
  0
TABLE
  2
VPORT
  5
8
330
0
100
AcDbSymbolTable
 70
     1
  0
VPORT
  5
E720
330
8
100
AcDbSymbolTableRecord
100
AcDbViewportTableRecord
  2
*Active
 70
     0
 10
0.0
 20
0.0
 11
1.0
 21
1.0
 12
11835.88455776263
 22
12976.39594164781
 13
0.0
 23
0.0
 14
10.0
 24
10.0
 15
10.0
 25
10.0
 16
0.0
 26
0.0
 36
1.0
 17
0.0
 27
0.0
 37
0.0
 40
25294.75681397831
 41
2.198019801980198
 42
50.0
 43
0.0
 44
0.0
 50
0.0
 51
0.0
 71
     0
 72
   100
 73
     1
 74
     3
 75
     0
 76
     0
 77
     0
 78
     0
281
     0
 65
     1
110
0.0
120
0.0
130
0.0
111
1.0
121
0.0
131
0.0
112
0.0
122
1.0
132
0.0
 79
     0
146
0.0
1001
ACAD_NAV_VCDISPLAY
1070
     3
  0
ENDTAB
  0
TABLE
  2
LTYPE
  5
5
330
0
100
AcDbSymbolTable
 70
     8
  0
LTYPE
  5
14
330
5
100
AcDbSymbolTableRecord
100
AcDbLinetypeTableRecord
  2
BYBLOCK
 70
     0
  3

 72
    65
 73
     0
 40
0.0
  0
LTYPE
  5
15
330
5
100
AcDbSymbolTableRecord
100
AcDbLinetypeTableRecord
  2
BYLAYER
 70
     0
  3

 72
    65
 73
     0
 40
0.0
  0
LTYPE
  5
16
330
5
100
AcDbSymbolTableRecord
100
AcDbLinetypeTableRecord
  2
CONTINUOUS
 70
     0
  3
Solid line
 72
    65
 73
     0
 40
0.0
  0
LTYPE
  5
373
330
5
100
AcDbSymbolTableRecord
100
AcDbLinetypeTableRecord
  2
DOT
 70
     0
  3
\U+FF65\U+FF65\U+FF65\U+FF65\U+FF65\U+FF65\U+FF65\U+FF65\U+FF65\U+FF65\U+FF65\U+FF65\U+FF65\U+FF65\U+FF65\U+FF65\U+FF65\U+FF65\U+FF65\U+FF65\U+FF65\U+FF65\U+FF65\U+FF65
 72
    65
 73
     2
 40
8.0
 49
6.0
 74
     0
 49
-2.0
 74
     0
  0
ENDTAB
  0
TABLE
  2
LAYER
  5
2
102
{ACAD_XDICTIONARY
360
73
102
}
330
0
100
AcDbSymbolTable
 70
     9
  0
LAYER
  5
10
102
{ACAD_XDICTIONARY
360
F2A5
102
}
330
2
100
AcDbSymbolTableRecord
100
AcDbLayerTableRecord
  2
0
 70
     0
 62
     7
  6
CONTINUOUS
370
    -3
390
9FDD
  0
LAYER
  5
6F
330
2
100
AcDbSymbolTableRecord
100
AcDbLayerTableRecord
  2
DEFPOINTS
 70
     0
 62
     7
  6
CONTINUOUS
290
     0
370
    -3
390
9FDD
  0
LAYER
  5
E939
102
{ACAD_XDICTIONARY
360
E93A
102
}
330
2
100
AcDbSymbolTableRecord
100
AcDbLayerTableRecord
  2
本体・寸法
 70
     0
 62
     7
  6
CONTINUOUS
370
    -3
390
9FDD
  0
LAYER
  5
F322
102
{ACAD_XDICTIONARY
360
F323
102
}
330
2
100
AcDbSymbolTableRecord
100
AcDbLayerTableRecord
  2
電気錠制御盤　（株）アート
 70
     0
 62
    40
  6
CONTINUOUS
370
    -3
390
9FDD
  0
ENDTAB
  0
TABLE
  2
STYLE
  5
3
330
0
100
AcDbSymbolTable
 70
     3
  0
STYLE
  5
11
330
3
100
AcDbSymbolTableRecord
100
AcDbTextStyleTableRecord
  2
STANDARD
 70
     0
 40
0.0
 41
1.0
 50
0.0
 71
     0
 42
2.5
  3
txt
  4

  0
STYLE
  5
70
330
3
100
AcDbSymbolTableRecord
100
AcDbTextStyleTableRecord
  2
KANJI
 70
     0
 40
0.0
 41
1.0
 50
0.0
 71
     0
 42
0.2
  3
TXT
  4
BIGFONT
  0
ENDTAB
  0
TABLE
  2
VIEW
  5
6
330
0
100
AcDbSymbolTable
 70
     0
  0
ENDTAB
  0
TABLE
  2
UCS
  5
7
330
0
100
AcDbSymbolTable
 70
     0
  0
ENDTAB
  0
TABLE
  2
APPID
  5
9
330
0
100
AcDbSymbolTable
 70
     5
  0
APPID
  5
12
330
9
100
AcDbSymbolTableRecord
100
AcDbRegAppTableRecord
  2
ACAD
 70
     0
  0
APPID
  5
72
330
9
100
AcDbSymbolTableRecord
100
AcDbRegAppTableRecord
  2
ACAD_PSEXT
 70
     0
  0
APPID
  5
E942
330
9
100
AcDbSymbolTableRecord
100
AcDbRegAppTableRecord
  2
ACAD_NAV_VCDISPLAY
 70
     0
  0
APPID
  5
F2A3
330
9
100
AcDbSymbolTableRecord
100
AcDbRegAppTableRecord
  2
ACAD_EXEMPT_FROM_CAD_STANDARDS
 70
     0
  0
APPID
  5
F2F3
330
9
100
AcDbSymbolTableRecord
100
AcDbRegAppTableRecord
  2
ACAD_MLEADERVER
 70
     0
  0
ENDTAB
  0
TABLE
  2
DIMSTYLE
  5
A
330
0
100
AcDbSymbolTable
 70
     2
100
AcDbDimStyleTable
 71
     1
340
71
  0
DIMSTYLE
105
27
330
A
100
AcDbSymbolTableRecord
100
AcDbDimStyleTableRecord
  2
ISO-25
 70
     0
 41
2.5
 42
0.625
 43
3.75
 44
1.25
 73
     0
 74
     0
 77
     1
 78
     8
140
2.5
141
2.5
143
0.03937007874016
147
0.625
171
     3
172
     1
271
     2
272
     2
274
     3
283
     0
284
     8
340
11
  0
DIMSTYLE
105
71
102
{ACAD_REACTORS
330
EFFA
330
EFFB
330
F011
102
}
330
A
100
AcDbSymbolTableRecord
100
AcDbDimStyleTableRecord
  2
STANDARD
 70
     0
340
11
  0
ENDTAB
  0
TABLE
  2
BLOCK_RECORD
  5
1
330
0
100
AcDbSymbolTable
 70
   140
  0
BLOCK_RECORD
  5
1F
102
{ACAD_XDICTIONARY
360
2CF6
102
}
330
1
100
AcDbSymbolTableRecord
100
AcDbBlockTableRecord
  2
*MODEL_SPACE
340
9FDE
  0
BLOCK_RECORD
  5
1B
102
{ACAD_XDICTIONARY
360
2CF4
102
}
330
1
100
AcDbSymbolTableRecord
100
AcDbBlockTableRecord
  2
*PAPER_SPACE
340
9FDF
  0
BLOCK_RECORD
  5
2B
330
1
100
AcDbSymbolTableRecord
100
AcDbBlockTableRecord
  2
_OPEN30
340
0
102
{BLKREFS
331
F54B
331
F54C
331
F554
331
F555
331
F55D
331
F55E
102
}
  0
BLOCK_RECORD
  5
E778
330
1
100
AcDbSymbolTableRecord
100
AcDbBlockTableRecord
  2
*G27272
340
0
102
{BLKREFS
331
EF20
102
}
  0
BLOCK_RECORD
  5
E77F
330
1
100
AcDbSymbolTableRecord
100
AcDbBlockTableRecord
  2
*G37373
340
0
102
{BLKREFS
331
EF21
102
}
  0
BLOCK_RECORD
  5
E786
330
1
100
AcDbSymbolTableRecord
100
AcDbBlockTableRecord
  2
*G47474
340
0
102
{BLKREFS
331
EF25
102
}
  0
BLOCK_RECORD
  5
E78D
330
1
100
AcDbSymbolTableRecord
100
AcDbBlockTableRecord
  2
*G57575
340
0
102
{BLKREFS
331
EF34
102
}
  0
BLOCK_RECORD
  5
E794
330
1
100
AcDbSymbolTableRecord
100
AcDbBlockTableRecord
  2
*G67676
340
0
102
{BLKREFS
331
EF35
102
}
  0
BLOCK_RECORD
  5
E79B
330
1
100
AcDbSymbolTableRecord
100
AcDbBlockTableRecord
  2
*G77777
340
0
102
{BLKREFS
331
EF39
102
}
  0
BLOCK_RECORD
  5
E7A2
330
1
100
AcDbSymbolTableRecord
100
AcDbBlockTableRecord
  2
*G87878
340
0
102
{BLKREFS
331
EF47
102
}
  0
BLOCK_RECORD
  5
E7A9
330
1
100
AcDbSymbolTableRecord
100
AcDbBlockTableRecord
  2
*G97979
340
0
102
{BLKREFS
331
EF48
102
}
  0
BLOCK_RECORD
  5
E7B0
330
1
100
AcDbSymbolTableRecord
100
AcDbBlockTableRecord
  2
*G108080
340
0
102
{BLKREFS
331
EF4C
102
}
  0
BLOCK_RECORD
  5
E7B7
330
1
100
AcDbSymbolTableRecord
100
AcDbBlockTableRecord
  2
*G118181
340
0
102
{BLKREFS
331
EF5A
102
}
  0
BLOCK_RECORD
  5
E7BE
330
1
100
AcDbSymbolTableRecord
100
AcDbBlockTableRecord
  2
*G128282
340
0
102
{BLKREFS
331
EF5B
102
}
  0
BLOCK_RECORD
  5
E7C5
330
1
100
AcDbSymbolTableRecord
100
AcDbBlockTableRecord
  2
*G138383
340
0
102
{BLKREFS
331
EF5F
102
}
  0
BLOCK_RECORD
  5
E7CC
330
1
100
AcDbSymbolTableRecord
100
AcDbBlockTableRecord
  2
*G148484
340
0
102
{BLKREFS
331
EF6D
102
}
  0
BLOCK_RECORD
  5
E7D3
330
1
100
AcDbSymbolTableRecord
100
AcDbBlockTableRecord
  2
*G158585
340
0
102
{BLKREFS
331
EF6E
102
}
  0
BLOCK_RECORD
  5
E7DA
330
1
100
AcDbSymbolTableRecord
100
AcDbBlockTableRecord
  2
*G168686
340
0
102
{BLKREFS
331
EF72
102
}
  0
BLOCK_RECORD
  5
E7E1
330
1
100
AcDbSymbolTableRecord
100
AcDbBlockTableRecord
  2
*G178787
340
0
102
{BLKREFS
331
EF7E
102
}
  0
BLOCK_RECORD
  5
E7E8
330
1
100
AcDbSymbolTableRecord
100
AcDbBlockTableRecord
  2
*G188888
340
0
102
{BLKREFS
331
EF7F
102
}
  0
BLOCK_RECORD
  5
E7EF
330
1
100
AcDbSymbolTableRecord
100
AcDbBlockTableRecord
  2
*G198989
340
0
102
{BLKREFS
331
EF83
102
}
  0
BLOCK_RECORD
  5
E7F6
330
1
100
AcDbSymbolTableRecord
100
AcDbBlockTableRecord
  2
*G209090
340
0
102
{BLKREFS
331
EF93
102
}
  0
BLOCK_RECORD
  5
E7FD
330
1
100
AcDbSymbolTableRecord
100
AcDbBlockTableRecord
  2
*G219191
340
0
102
{BLKREFS
331
EF94
102
}
  0
BLOCK_RECORD
  5
E804
330
1
100
AcDbSymbolTableRecord
100
AcDbBlockTableRecord
  2
*G229292
340
0
102
{BLKREFS
331
EF98
102
}
  0
BLOCK_RECORD
  5
E80B
330
1
100
AcDbSymbolTableRecord
100
AcDbBlockTableRecord
  2
*G239393
340
0
102
{BLKREFS
331
EFA6
102
}
  0
BLOCK_RECORD
  5
E812
330
1
100
AcDbSymbolTableRecord
100
AcDbBlockTableRecord
  2
*G249494
340
0
102
{BLKREFS
331
EFA7
102
}
  0
BLOCK_RECORD
  5
E819
330
1
100
AcDbSymbolTableRecord
100
AcDbBlockTableRecord
  2
*G259595
340
0
102
{BLKREFS
331
EFAB
102
}
  0
BLOCK_RECORD
  5
E820
330
1
100
AcDbSymbolTableRecord
100
AcDbBlockTableRecord
  2
*G269696
340
0
102
{BLKREFS
331
EFB9
102
}
  0
BLOCK_RECORD
  5
E827
330
1
100
AcDbSymbolTableRecord
100
AcDbBlockTableRecord
  2
*G279797
340
0
102
{BLKREFS
331
EFBA
102
}
  0
BLOCK_RECORD
  5
E82E
330
1
100
AcDbSymbolTableRecord
100
AcDbBlockTableRecord
  2
*G289898
340
0
102
{BLKREFS
331
EFBE
102
}
  0
BLOCK_RECORD
  5
E835
330
1
100
AcDbSymbolTableRecord
100
AcDbBlockTableRecord
  2
*G299999
340
0
102
{BLKREFS
331
EFCC
102
}
  0
BLOCK_RECORD
  5
E83C
330
1
100
AcDbSymbolTableRecord
100
AcDbBlockTableRecord
  2
*G30100100
340
0
102
{BLKREFS
331
EFCD
102
}
  0
BLOCK_RECORD
  5
E843
330
1
100
AcDbSymbolTableRecord
100
AcDbBlockTableRecord
  2
*G31101101
340
0
102
{BLKREFS
331
EFD1
102
}
  0
BLOCK_RECORD
  5
E84A
330
1
100
AcDbSymbolTableRecord
100
AcDbBlockTableRecord
  2
*G32102102
340
0
102
{BLKREFS
331
EFDD
102
}
  0
BLOCK_RECORD
  5
E851
330
1
100
AcDbSymbolTableRecord
100
AcDbBlockTableRecord
  2
*G33103103
340
0
102
{BLKREFS
331
EFDE
102
}
  0
BLOCK_RECORD
  5
E858
330
1
100
AcDbSymbolTableRecord
100
AcDbBlockTableRecord
  2
*G34104104
340
0
102
{BLKREFS
331
EFE2
102
}
  0
BLOCK_RECORD
  5
F179
330
1
100
AcDbSymbolTableRecord
100
AcDbBlockTableRecord
  2
*D130
340
0
  0
BLOCK_RECORD
  5
F185
330
1
100
AcDbSymbolTableRecord
100
AcDbBlockTableRecord
  2
*D131
340
0
  0
BLOCK_RECORD
  5
F1A9
330
1
100
AcDbSymbolTableRecord
100
AcDbBlockTableRecord
  2
*D134
340
0
  0
ENDTAB
  0
ENDSEC
  0
SECTION
  2
BLOCKS
  0
BLOCK
  5
20
330
1F
100
AcDbEntity
  8
0
100
AcDbBlockBegin
  2
*MODEL_SPACE
 70
     0
 10
0.0
 20
0.0
 30
0.0
  3
*MODEL_SPACE
  1

  0
ENDBLK
  5
21
330
1F
100
AcDbEntity
  8
0
100
AcDbBlockEnd
  0
BLOCK
  5
1C
330
1B
100
AcDbEntity
 67
     1
  8
0
100
AcDbBlockBegin
  2
*PAPER_SPACE
 70
     0
 10
0.0
 20
0.0
 30
0.0
  3
*PAPER_SPACE
  1

  0
ENDBLK
  5
1D
330
1B
100
AcDbEntity
 67
     1
  8
0
100
AcDbBlockEnd
  0
BLOCK
  5
2F
330
2B
100
AcDbEntity
  8
0
 62
     0
100
AcDbBlockBegin
  2
_OPEN30
 70
     2
 10
0.0
 20
0.0
 30
0.0
  3
_OPEN30
  1

  0
LINE
  5
2C
330
2B
100
AcDbEntity
  8
0
  6
ByBlock
 62
     0
100
AcDbLine
 10
-1.0
 20
0.267949
 30
0.0
 11
0.0
 21
0.0
 31
0.0
  0
LINE
  5
2D
330
2B
100
AcDbEntity
  8
0
  6
ByBlock
 62
     0
100
AcDbLine
 10
0.0
 20
0.0
 30
0.0
 11
-1.0
 21
-0.267949
 31
0.0
  0
LINE
  5
2E
330
2B
100
AcDbEntity
  8
0
  6
ByBlock
 62
     0
100
AcDbLine
 10
0.0
 20
0.0
 30
0.0
 11
-1.0
 21
0.0
 31
0.0
  0
ENDBLK
  5
30
330
2B
100
AcDbEntity
  8
0
 62
     0
100
AcDbBlockEnd
  0
BLOCK
  5
E779
330
E778
100
AcDbEntity
  8
0
  6
Continuous
 62
     7
370
    30
100
AcDbBlockBegin
  2
*G27272
 70
     0
 10
0.0
 20
0.0
 30
0.0
  3
*G27272
  1

  0
LINE
  5
E77A
330
E778
100
AcDbEntity
  8
本体・寸法
  6
Continuous
 62
     7
370
    30
100
AcDbLine
 10
606.242695
 20
1180.50996
 30
0.0
 11
619.242695
 21
1180.50996
 31
0.0
  0
LINE
  5
E77B
330
E778
100
AcDbEntity
  8
本体・寸法
  6
Continuous
 62
     7
370
    30
100
AcDbLine
 10
619.242695
 20
1180.50996
 30
0.0
 11
619.242695
 21
1193.50996
 31
0.0
  0
LINE
  5
E77C
330
E778
100
AcDbEntity
  8
本体・寸法
  6
Continuous
 62
     7
370
    30
100
AcDbLine
 10
619.242695
 20
1193.50996
 30
0.0
 11
606.242695
 21
1193.50996
 31
0.0
  0
LINE
  5
E77D
330
E778
100
AcDbEntity
  8
本体・寸法
  6
Continuous
 62
     7
370
    30
100
AcDbLine
 10
606.242695
 20
1193.50996
 30
0.0
 11
606.242695
 21
1180.50996
 31
0.0
  0
ENDBLK
  5
E77E
330
E778
100
AcDbEntity
  8
0
100
AcDbBlockEnd
  0
BLOCK
  5
E780
330
E77F
100
AcDbEntity
  8
0
  6
Continuous
 62
     7
370
    30
100
AcDbBlockBegin
  2
*G37373
 70
     0
 10
0.0
 20
0.0
 30
0.0
  3
*G37373
  1

  0
LINE
  5
E781
330
E77F
100
AcDbEntity
  8
本体・寸法
  6
Continuous
 62
     7
370
    30
100
AcDbLine
 10
581.242695
 20
1180.50996
 30
0.0
 11
594.242695
 21
1180.50996
 31
0.0
  0
LINE
  5
E782
330
E77F
100
AcDbEntity
  8
本体・寸法
  6
Continuous
 62
     7
370
    30
100
AcDbLine
 10
594.242695
 20
1180.50996
 30
0.0
 11
594.242695
 21
1193.50996
 31
0.0
  0
LINE
  5
E783
330
E77F
100
AcDbEntity
  8
本体・寸法
  6
Continuous
 62
     7
370
    30
100
AcDbLine
 10
594.242695
 20
1193.50996
 30
0.0
 11
581.242695
 21
1193.50996
 31
0.0
  0
LINE
  5
E784
330
E77F
100
AcDbEntity
  8
本体・寸法
  6
Continuous
 62
     7
370
    30
100
AcDbLine
 10
581.242695
 20
1193.50996
 30
0.0
 11
581.242695
 21
1180.50996
 31
0.0
  0
ENDBLK
  5
E785
330
E77F
100
AcDbEntity
  8
0
100
AcDbBlockEnd
  0
BLOCK
  5
E787
330
E786
100
AcDbEntity
  8
0
  6
Continuous
 62
     7
370
    30
100
AcDbBlockBegin
  2
*G47474
 70
     0
 10
0.0
 20
0.0
 30
0.0
  3
*G47474
  1

  0
LINE
  5
E788
330
E786
100
AcDbEntity
  8
本体・寸法
  6
Continuous
 62
     7
370
    30
100
AcDbLine
 10
475.242695
 20
1172.00996
 30
0.0
 11
635.242695
 21
1172.00996
 31
0.0
  0
LINE
  5
E789
330
E786
100
AcDbEntity
  8
本体・寸法
  6
Continuous
 62
     7
370
    30
100
AcDbLine
 10
635.242695
 20
1172.00996
 30
0.0
 11
635.242695
 21
1202.00996
 31
0.0
  0
LINE
  5
E78A
330
E786
100
AcDbEntity
  8
本体・寸法
  6
Continuous
 62
     7
370
    30
100
AcDbLine
 10
635.242695
 20
1202.00996
 30
0.0
 11
475.242695
 21
1202.00996
 31
0.0
  0
LINE
  5
E78B
330
E786
100
AcDbEntity
  8
本体・寸法
  6
Continuous
 62
     7
370
    30
100
AcDbLine
 10
475.242695
 20
1202.00996
 30
0.0
 11
475.242695
 21
1172.00996
 31
0.0
  0
ENDBLK
  5
E78C
330
E786
100
AcDbEntity
  8
0
100
AcDbBlockEnd
  0
BLOCK
  5
E78E
330
E78D
100
AcDbEntity
  8
0
  6
Continuous
 62
     7
370
    30
100
AcDbBlockBegin
  2
*G57575
 70
     0
 10
0.0
 20
0.0
 30
0.0
  3
*G57575
  1

  0
LINE
  5
E78F
330
E78D
100
AcDbEntity
  8
本体・寸法
  6
Continuous
 62
     7
370
    30
100
AcDbLine
 10
608.742695
 20
1430.510295
 30
0.0
 11
608.742695
 21
1417.510295
 31
0.0
  0
LINE
  5
E790
330
E78D
100
AcDbEntity
  8
本体・寸法
  6
Continuous
 62
     7
370
    30
100
AcDbLine
 10
608.742695
 20
1417.510295
 30
0.0
 11
621.742695
 21
1417.510295
 31
0.0
  0
LINE
  5
E791
330
E78D
100
AcDbEntity
  8
本体・寸法
  6
Continuous
 62
     7
370
    30
100
AcDbLine
 10
621.742695
 20
1417.510295
 30
0.0
 11
621.742695
 21
1430.510295
 31
0.0
  0
LINE
  5
E792
330
E78D
100
AcDbEntity
  8
本体・寸法
  6
Continuous
 62
     7
370
    30
100
AcDbLine
 10
621.742695
 20
1430.510295
 30
0.0
 11
608.742695
 21
1430.510295
 31
0.0
  0
ENDBLK
  5
E793
330
E78D
100
AcDbEntity
  8
0
100
AcDbBlockEnd
  0
BLOCK
  5
E795
330
E794
100
AcDbEntity
  8
0
  6
Continuous
 62
     7
370
    30
100
AcDbBlockBegin
  2
*G67676
 70
     0
 10
0.0
 20
0.0
 30
0.0
  3
*G67676
  1

  0
LINE
  5
E796
330
E794
100
AcDbEntity
  8
本体・寸法
  6
Continuous
 62
     7
370
    30
100
AcDbLine
 10
608.742695
 20
1455.510295
 30
0.0
 11
608.742695
 21
1442.510295
 31
0.0
  0
LINE
  5
E797
330
E794
100
AcDbEntity
  8
本体・寸法
  6
Continuous
 62
     7
370
    30
100
AcDbLine
 10
608.742695
 20
1442.510295
 30
0.0
 11
621.742695
 21
1442.510295
 31
0.0
  0
LINE
  5
E798
330
E794
100
AcDbEntity
  8
本体・寸法
  6
Continuous
 62
     7
370
    30
100
AcDbLine
 10
621.742695
 20
1442.510295
 30
0.0
 11
621.742695
 21
1455.510295
 31
0.0
  0
LINE
  5
E799
330
E794
100
AcDbEntity
  8
本体・寸法
  6
Continuous
 62
     7
370
    30
100
AcDbLine
 10
621.742695
 20
1455.510295
 30
0.0
 11
608.742695
 21
1455.510295
 31
0.0
  0
ENDBLK
  5
E79A
330
E794
100
AcDbEntity
  8
0
100
AcDbBlockEnd
  0
BLOCK
  5
E79C
330
E79B
100
AcDbEntity
  8
0
  6
Continuous
 62
     7
370
    30
100
AcDbBlockBegin
  2
*G77777
 70
     0
 10
0.0
 20
0.0
 30
0.0
  3
*G77777
  1

  0
LINE
  5
E79D
330
E79B
100
AcDbEntity
  8
本体・寸法
  6
Continuous
 62
     7
370
    30
100
AcDbLine
 10
600.242695
 20
1561.510295
 30
0.0
 11
600.242695
 21
1401.510295
 31
0.0
  0
LINE
  5
E79E
330
E79B
100
AcDbEntity
  8
本体・寸法
  6
Continuous
 62
     7
370
    30
100
AcDbLine
 10
600.242695
 20
1401.510295
 30
0.0
 11
630.242695
 21
1401.510295
 31
0.0
  0
LINE
  5
E79F
330
E79B
100
AcDbEntity
  8
本体・寸法
  6
Continuous
 62
     7
370
    30
100
AcDbLine
 10
630.242695
 20
1401.510295
 30
0.0
 11
630.242695
 21
1561.510295
 31
0.0
  0
LINE
  5
E7A0
330
E79B
100
AcDbEntity
  8
本体・寸法
  6
Continuous
 62
     7
370
    30
100
AcDbLine
 10
630.242695
 20
1561.510295
 30
0.0
 11
600.242695
 21
1561.510295
 31
0.0
  0
ENDBLK
  5
E7A1
330
E79B
100
AcDbEntity
  8
0
100
AcDbBlockEnd
  0
BLOCK
  5
E7A3
330
E7A2
100
AcDbEntity
  8
0
  6
Continuous
 62
     7
370
    30
100
AcDbBlockBegin
  2
*G87878
 70
     0
 10
0.0
 20
0.0
 30
0.0
  3
*G87878
  1

  0
LINE
  5
E7A4
330
E7A2
100
AcDbEntity
  8
本体・寸法
  6
Continuous
 62
     7
370
    30
100
AcDbLine
 10
578.742695
 20
1430.510295
 30
0.0
 11
578.742695
 21
1417.510295
 31
0.0
  0
LINE
  5
E7A5
330
E7A2
100
AcDbEntity
  8
本体・寸法
  6
Continuous
 62
     7
370
    30
100
AcDbLine
 10
578.742695
 20
1417.510295
 30
0.0
 11
591.742695
 21
1417.510295
 31
0.0
  0
LINE
  5
E7A6
330
E7A2
100
AcDbEntity
  8
本体・寸法
  6
Continuous
 62
     7
370
    30
100
AcDbLine
 10
591.742695
 20
1417.510295
 30
0.0
 11
591.742695
 21
1430.510295
 31
0.0
  0
LINE
  5
E7A7
330
E7A2
100
AcDbEntity
  8
本体・寸法
  6
Continuous
 62
     7
370
    30
100
AcDbLine
 10
591.742695
 20
1430.510295
 30
0.0
 11
578.742695
 21
1430.510295
 31
0.0
  0
ENDBLK
  5
E7A8
330
E7A2
100
AcDbEntity
  8
0
100
AcDbBlockEnd
  0
BLOCK
  5
E7AA
330
E7A9
100
AcDbEntity
  8
0
  6
Continuous
 62
     7
370
    30
100
AcDbBlockBegin
  2
*G97979
 70
     0
 10
0.0
 20
0.0
 30
0.0
  3
*G97979
  1

  0
LINE
  5
E7AB
330
E7A9
100
AcDbEntity
  8
本体・寸法
  6
Continuous
 62
     7
370
    30
100
AcDbLine
 10
578.742695
 20
1455.510295
 30
0.0
 11
578.742695
 21
1442.510295
 31
0.0
  0
LINE
  5
E7AC
330
E7A9
100
AcDbEntity
  8
本体・寸法
  6
Continuous
 62
     7
370
    30
100
AcDbLine
 10
578.742695
 20
1442.510295
 30
0.0
 11
591.742695
 21
1442.510295
 31
0.0
  0
LINE
  5
E7AD
330
E7A9
100
AcDbEntity
  8
本体・寸法
  6
Continuous
 62
     7
370
    30
100
AcDbLine
 10
591.742695
 20
1442.510295
 30
0.0
 11
591.742695
 21
1455.510295
 31
0.0
  0
LINE
  5
E7AE
330
E7A9
100
AcDbEntity
  8
本体・寸法
  6
Continuous
 62
     7
370
    30
100
AcDbLine
 10
591.742695
 20
1455.510295
 30
0.0
 11
578.742695
 21
1455.510295
 31
0.0
  0
ENDBLK
  5
E7AF
330
E7A9
100
AcDbEntity
  8
0
100
AcDbBlockEnd
  0
BLOCK
  5
E7B1
330
E7B0
100
AcDbEntity
  8
0
  6
Continuous
 62
     7
370
    30
100
AcDbBlockBegin
  2
*G108080
 70
     0
 10
0.0
 20
0.0
 30
0.0
  3
*G108080
  1

  0
LINE
  5
E7B2
330
E7B0
100
AcDbEntity
  8
本体・寸法
  6
Continuous
 62
     7
370
    30
100
AcDbLine
 10
570.242695
 20
1561.510295
 30
0.0
 11
570.242695
 21
1401.510295
 31
0.0
  0
LINE
  5
E7B3
330
E7B0
100
AcDbEntity
  8
本体・寸法
  6
Continuous
 62
     7
370
    30
100
AcDbLine
 10
570.242695
 20
1401.510295
 30
0.0
 11
600.242695
 21
1401.510295
 31
0.0
  0
LINE
  5
E7B4
330
E7B0
100
AcDbEntity
  8
本体・寸法
  6
Continuous
 62
     7
370
    30
100
AcDbLine
 10
600.242695
 20
1401.510295
 30
0.0
 11
600.242695
 21
1561.510295
 31
0.0
  0
LINE
  5
E7B5
330
E7B0
100
AcDbEntity
  8
本体・寸法
  6
Continuous
 62
     7
370
    30
100
AcDbLine
 10
600.242695
 20
1561.510295
 30
0.0
 11
570.242695
 21
1561.510295
 31
0.0
  0
ENDBLK
  5
E7B6
330
E7B0
100
AcDbEntity
  8
0
100
AcDbBlockEnd
  0
BLOCK
  5
E7B8
330
E7B7
100
AcDbEntity
  8
0
  6
Continuous
 62
     7
370
    30
100
AcDbBlockBegin
  2
*G118181
 70
     0
 10
0.0
 20
0.0
 30
0.0
  3
*G118181
  1

  0
LINE
  5
E7B9
330
E7B7
100
AcDbEntity
  8
本体・寸法
  6
Continuous
 62
     7
370
    30
100
AcDbLine
 10
548.742695
 20
1430.510295
 30
0.0
 11
548.742695
 21
1417.510295
 31
0.0
  0
LINE
  5
E7BA
330
E7B7
100
AcDbEntity
  8
本体・寸法
  6
Continuous
 62
     7
370
    30
100
AcDbLine
 10
548.742695
 20
1417.510295
 30
0.0
 11
561.742695
 21
1417.510295
 31
0.0
  0
LINE
  5
E7BB
330
E7B7
100
AcDbEntity
  8
本体・寸法
  6
Continuous
 62
     7
370
    30
100
AcDbLine
 10
561.742695
 20
1417.510295
 30
0.0
 11
561.742695
 21
1430.510295
 31
0.0
  0
LINE
  5
E7BC
330
E7B7
100
AcDbEntity
  8
本体・寸法
  6
Continuous
 62
     7
370
    30
100
AcDbLine
 10
561.742695
 20
1430.510295
 30
0.0
 11
548.742695
 21
1430.510295
 31
0.0
  0
ENDBLK
  5
E7BD
330
E7B7
100
AcDbEntity
  8
0
100
AcDbBlockEnd
  0
BLOCK
  5
E7BF
330
E7BE
100
AcDbEntity
  8
0
  6
Continuous
 62
     7
370
    30
100
AcDbBlockBegin
  2
*G128282
 70
     0
 10
0.0
 20
0.0
 30
0.0
  3
*G128282
  1

  0
LINE
  5
E7C0
330
E7BE
100
AcDbEntity
  8
本体・寸法
  6
Continuous
 62
     7
370
    30
100
AcDbLine
 10
548.742695
 20
1455.510295
 30
0.0
 11
548.742695
 21
1442.510295
 31
0.0
  0
LINE
  5
E7C1
330
E7BE
100
AcDbEntity
  8
本体・寸法
  6
Continuous
 62
     7
370
    30
100
AcDbLine
 10
548.742695
 20
1442.510295
 30
0.0
 11
561.742695
 21
1442.510295
 31
0.0
  0
LINE
  5
E7C2
330
E7BE
100
AcDbEntity
  8
本体・寸法
  6
Continuous
 62
     7
370
    30
100
AcDbLine
 10
561.742695
 20
1442.510295
 30
0.0
 11
561.742695
 21
1455.510295
 31
0.0
  0
LINE
  5
E7C3
330
E7BE
100
AcDbEntity
  8
本体・寸法
  6
Continuous
 62
     7
370
    30
100
AcDbLine
 10
561.742695
 20
1455.510295
 30
0.0
 11
548.742695
 21
1455.510295
 31
0.0
  0
ENDBLK
  5
E7C4
330
E7BE
100
AcDbEntity
  8
0
100
AcDbBlockEnd
  0
BLOCK
  5
E7C6
330
E7C5
100
AcDbEntity
  8
0
  6
Continuous
 62
     7
370
    30
100
AcDbBlockBegin
  2
*G138383
 70
     0
 10
0.0
 20
0.0
 30
0.0
  3
*G138383
  1

  0
LINE
  5
E7C7
330
E7C5
100
AcDbEntity
  8
本体・寸法
  6
Continuous
 62
     7
370
    30
100
AcDbLine
 10
540.242695
 20
1561.510295
 30
0.0
 11
540.242695
 21
1401.510295
 31
0.0
  0
LINE
  5
E7C8
330
E7C5
100
AcDbEntity
  8
本体・寸法
  6
Continuous
 62
     7
370
    30
100
AcDbLine
 10
540.242695
 20
1401.510295
 30
0.0
 11
570.242695
 21
1401.510295
 31
0.0
  0
LINE
  5
E7C9
330
E7C5
100
AcDbEntity
  8
本体・寸法
  6
Continuous
 62
     7
370
    30
100
AcDbLine
 10
570.242695
 20
1401.510295
 30
0.0
 11
570.242695
 21
1561.510295
 31
0.0
  0
LINE
  5
E7CA
330
E7C5
100
AcDbEntity
  8
本体・寸法
  6
Continuous
 62
     7
370
    30
100
AcDbLine
 10
570.242695
 20
1561.510295
 30
0.0
 11
540.242695
 21
1561.510295
 31
0.0
  0
ENDBLK
  5
E7CB
330
E7C5
100
AcDbEntity
  8
0
100
AcDbBlockEnd
  0
BLOCK
  5
E7CD
330
E7CC
100
AcDbEntity
  8
0
  6
Continuous
 62
     7
370
    30
100
AcDbBlockBegin
  2
*G148484
 70
     0
 10
0.0
 20
0.0
 30
0.0
  3
*G148484
  1

  0
LINE
  5
E7CE
330
E7CC
100
AcDbEntity
  8
本体・寸法
  6
Continuous
 62
     7
370
    30
100
AcDbLine
 10
518.742695
 20
1430.510295
 30
0.0
 11
518.742695
 21
1417.510295
 31
0.0
  0
LINE
  5
E7CF
330
E7CC
100
AcDbEntity
  8
本体・寸法
  6
Continuous
 62
     7
370
    30
100
AcDbLine
 10
518.742695
 20
1417.510295
 30
0.0
 11
531.742695
 21
1417.510295
 31
0.0
  0
LINE
  5
E7D0
330
E7CC
100
AcDbEntity
  8
本体・寸法
  6
Continuous
 62
     7
370
    30
100
AcDbLine
 10
531.742695
 20
1417.510295
 30
0.0
 11
531.742695
 21
1430.510295
 31
0.0
  0
LINE
  5
E7D1
330
E7CC
100
AcDbEntity
  8
本体・寸法
  6
Continuous
 62
     7
370
    30
100
AcDbLine
 10
531.742695
 20
1430.510295
 30
0.0
 11
518.742695
 21
1430.510295
 31
0.0
  0
ENDBLK
  5
E7D2
330
E7CC
100
AcDbEntity
  8
0
100
AcDbBlockEnd
  0
BLOCK
  5
E7D4
330
E7D3
100
AcDbEntity
  8
0
  6
Continuous
 62
     7
370
    30
100
AcDbBlockBegin
  2
*G158585
 70
     0
 10
0.0
 20
0.0
 30
0.0
  3
*G158585
  1

  0
LINE
  5
E7D5
330
E7D3
100
AcDbEntity
  8
本体・寸法
  6
Continuous
 62
     7
370
    30
100
AcDbLine
 10
518.742695
 20
1455.510295
 30
0.0
 11
518.742695
 21
1442.510295
 31
0.0
  0
LINE
  5
E7D6
330
E7D3
100
AcDbEntity
  8
本体・寸法
  6
Continuous
 62
     7
370
    30
100
AcDbLine
 10
518.742695
 20
1442.510295
 30
0.0
 11
531.742695
 21
1442.510295
 31
0.0
  0
LINE
  5
E7D7
330
E7D3
100
AcDbEntity
  8
本体・寸法
  6
Continuous
 62
     7
370
    30
100
AcDbLine
 10
531.742695
 20
1442.510295
 30
0.0
 11
531.742695
 21
1455.510295
 31
0.0
  0
LINE
  5
E7D8
330
E7D3
100
AcDbEntity
  8
本体・寸法
  6
Continuous
 62
     7
370
    30
100
AcDbLine
 10
531.742695
 20
1455.510295
 30
0.0
 11
518.742695
 21
1455.510295
 31
0.0
  0
ENDBLK
  5
E7D9
330
E7D3
100
AcDbEntity
  8
0
100
AcDbBlockEnd
  0
BLOCK
  5
E7DB
330
E7DA
100
AcDbEntity
  8
0
  6
Continuous
 62
     7
370
    30
100
AcDbBlockBegin
  2
*G168686
 70
     0
 10
0.0
 20
0.0
 30
0.0
  3
*G168686
  1

  0
LINE
  5
E7DC
330
E7DA
100
AcDbEntity
  8
本体・寸法
  6
Continuous
 62
     7
370
    30
100
AcDbLine
 10
510.242695
 20
1561.510295
 30
0.0
 11
510.242695
 21
1401.510295
 31
0.0
  0
LINE
  5
E7DD
330
E7DA
100
AcDbEntity
  8
本体・寸法
  6
Continuous
 62
     7
370
    30
100
AcDbLine
 10
510.242695
 20
1401.510295
 30
0.0
 11
540.242695
 21
1401.510295
 31
0.0
  0
LINE
  5
E7DE
330
E7DA
100
AcDbEntity
  8
本体・寸法
  6
Continuous
 62
     7
370
    30
100
AcDbLine
 10
540.242695
 20
1401.510295
 30
0.0
 11
540.242695
 21
1561.510295
 31
0.0
  0
LINE
  5
E7DF
330
E7DA
100
AcDbEntity
  8
本体・寸法
  6
Continuous
 62
     7
370
    30
100
AcDbLine
 10
540.242695
 20
1561.510295
 30
0.0
 11
510.242695
 21
1561.510295
 31
0.0
  0
ENDBLK
  5
E7E0
330
E7DA
100
AcDbEntity
  8
0
100
AcDbBlockEnd
  0
BLOCK
  5
E7E2
330
E7E1
100
AcDbEntity
  8
0
  6
Continuous
 62
     7
370
    30
100
AcDbBlockBegin
  2
*G178787
 70
     0
 10
0.0
 20
0.0
 30
0.0
  3
*G178787
  1

  0
LINE
  5
E7E3
330
E7E1
100
AcDbEntity
  8
本体・寸法
  6
Continuous
 62
     7
370
    30
100
AcDbLine
 10
488.742695
 20
1430.510295
 30
0.0
 11
488.742695
 21
1417.510295
 31
0.0
  0
LINE
  5
E7E4
330
E7E1
100
AcDbEntity
  8
本体・寸法
  6
Continuous
 62
     7
370
    30
100
AcDbLine
 10
488.742695
 20
1417.510295
 30
0.0
 11
501.7426949999999
 21
1417.510295
 31
0.0
  0
LINE
  5
E7E5
330
E7E1
100
AcDbEntity
  8
本体・寸法
  6
Continuous
 62
     7
370
    30
100
AcDbLine
 10
501.7426949999999
 20
1417.510295
 30
0.0
 11
501.7426949999999
 21
1430.510295
 31
0.0
  0
LINE
  5
E7E6
330
E7E1
100
AcDbEntity
  8
本体・寸法
  6
Continuous
 62
     7
370
    30
100
AcDbLine
 10
501.7426949999999
 20
1430.510295
 30
0.0
 11
488.742695
 21
1430.510295
 31
0.0
  0
ENDBLK
  5
E7E7
330
E7E1
100
AcDbEntity
  8
0
100
AcDbBlockEnd
  0
BLOCK
  5
E7E9
330
E7E8
100
AcDbEntity
  8
0
  6
Continuous
 62
     7
370
    30
100
AcDbBlockBegin
  2
*G188888
 70
     0
 10
0.0
 20
0.0
 30
0.0
  3
*G188888
  1

  0
LINE
  5
E7EA
330
E7E8
100
AcDbEntity
  8
本体・寸法
  6
Continuous
 62
     7
370
    30
100
AcDbLine
 10
488.742695
 20
1455.510295
 30
0.0
 11
488.742695
 21
1442.510295
 31
0.0
  0
LINE
  5
E7EB
330
E7E8
100
AcDbEntity
  8
本体・寸法
  6
Continuous
 62
     7
370
    30
100
AcDbLine
 10
488.742695
 20
1442.510295
 30
0.0
 11
501.7426949999999
 21
1442.510295
 31
0.0
  0
LINE
  5
E7EC
330
E7E8
100
AcDbEntity
  8
本体・寸法
  6
Continuous
 62
     7
370
    30
100
AcDbLine
 10
501.7426949999999
 20
1442.510295
 30
0.0
 11
501.7426949999999
 21
1455.510295
 31
0.0
  0
LINE
  5
E7ED
330
E7E8
100
AcDbEntity
  8
本体・寸法
  6
Continuous
 62
     7
370
    30
100
AcDbLine
 10
501.7426949999999
 20
1455.510295
 30
0.0
 11
488.742695
 21
1455.510295
 31
0.0
  0
ENDBLK
  5
E7EE
330
E7E8
100
AcDbEntity
  8
0
100
AcDbBlockEnd
  0
BLOCK
  5
E7F0
330
E7EF
100
AcDbEntity
  8
0
  6
Continuous
 62
     7
370
    30
100
AcDbBlockBegin
  2
*G198989
 70
     0
 10
0.0
 20
0.0
 30
0.0
  3
*G198989
  1

  0
LINE
  5
E7F1
330
E7EF
100
AcDbEntity
  8
本体・寸法
  6
Continuous
 62
     7
370
    30
100
AcDbLine
 10
480.242695
 20
1561.510295
 30
0.0
 11
480.242695
 21
1401.510295
 31
0.0
  0
LINE
  5
E7F2
330
E7EF
100
AcDbEntity
  8
本体・寸法
  6
Continuous
 62
     7
370
    30
100
AcDbLine
 10
480.242695
 20
1401.510295
 30
0.0
 11
510.242695
 21
1401.510295
 31
0.0
  0
LINE
  5
E7F3
330
E7EF
100
AcDbEntity
  8
本体・寸法
  6
Continuous
 62
     7
370
    30
100
AcDbLine
 10
510.242695
 20
1401.510295
 30
0.0
 11
510.242695
 21
1561.510295
 31
0.0
  0
LINE
  5
E7F4
330
E7EF
100
AcDbEntity
  8
本体・寸法
  6
Continuous
 62
     7
370
    30
100
AcDbLine
 10
510.242695
 20
1561.510295
 30
0.0
 11
480.242695
 21
1561.510295
 31
0.0
  0
ENDBLK
  5
E7F5
330
E7EF
100
AcDbEntity
  8
0
100
AcDbBlockEnd
  0
BLOCK
  5
E7F7
330
E7F6
100
AcDbEntity
  8
0
  6
Continuous
 62
     7
370
    30
100
AcDbBlockBegin
  2
*G209090
 70
     0
 10
0.0
 20
0.0
 30
0.0
  3
*G209090
  1

  0
LINE
  5
E7F8
330
E7F6
100
AcDbEntity
  8
本体・寸法
  6
Continuous
 62
     7
370
    30
100
AcDbLine
 10
608.742695
 20
1245.510295
 30
0.0
 11
608.742695
 21
1232.510295
 31
0.0
  0
LINE
  5
E7F9
330
E7F6
100
AcDbEntity
  8
本体・寸法
  6
Continuous
 62
     7
370
    30
100
AcDbLine
 10
608.742695
 20
1232.510295
 30
0.0
 11
621.742695
 21
1232.510295
 31
0.0
  0
LINE
  5
E7FA
330
E7F6
100
AcDbEntity
  8
本体・寸法
  6
Continuous
 62
     7
370
    30
100
AcDbLine
 10
621.742695
 20
1232.510295
 30
0.0
 11
621.742695
 21
1245.510295
 31
0.0
  0
LINE
  5
E7FB
330
E7F6
100
AcDbEntity
  8
本体・寸法
  6
Continuous
 62
     7
370
    30
100
AcDbLine
 10
621.742695
 20
1245.510295
 30
0.0
 11
608.742695
 21
1245.510295
 31
0.0
  0
ENDBLK
  5
E7FC
330
E7F6
100
AcDbEntity
  8
0
100
AcDbBlockEnd
  0
BLOCK
  5
E7FE
330
E7FD
100
AcDbEntity
  8
0
  6
Continuous
 62
     7
370
    30
100
AcDbBlockBegin
  2
*G219191
 70
     0
 10
0.0
 20
0.0
 30
0.0
  3
*G219191
  1

  0
LINE
  5
E7FF
330
E7FD
100
AcDbEntity
  8
本体・寸法
  6
Continuous
 62
     7
370
    30
100
AcDbLine
 10
608.742695
 20
1270.510295
 30
0.0
 11
608.742695
 21
1257.510295
 31
0.0
  0
LINE
  5
E800
330
E7FD
100
AcDbEntity
  8
本体・寸法
  6
Continuous
 62
     7
370
    30
100
AcDbLine
 10
608.742695
 20
1257.510295
 30
0.0
 11
621.742695
 21
1257.510295
 31
0.0
  0
LINE
  5
E801
330
E7FD
100
AcDbEntity
  8
本体・寸法
  6
Continuous
 62
     7
370
    30
100
AcDbLine
 10
621.742695
 20
1257.510295
 30
0.0
 11
621.742695
 21
1270.510295
 31
0.0
  0
LINE
  5
E802
330
E7FD
100
AcDbEntity
  8
本体・寸法
  6
Continuous
 62
     7
370
    30
100
AcDbLine
 10
621.742695
 20
1270.510295
 30
0.0
 11
608.742695
 21
1270.510295
 31
0.0
  0
ENDBLK
  5
E803
330
E7FD
100
AcDbEntity
  8
0
100
AcDbBlockEnd
  0
BLOCK
  5
E805
330
E804
100
AcDbEntity
  8
0
  6
Continuous
 62
     7
370
    30
100
AcDbBlockBegin
  2
*G229292
 70
     0
 10
0.0
 20
0.0
 30
0.0
  3
*G229292
  1

  0
LINE
  5
E806
330
E804
100
AcDbEntity
  8
本体・寸法
  6
Continuous
 62
     7
370
    30
100
AcDbLine
 10
600.242695
 20
1376.510295
 30
0.0
 11
600.242695
 21
1216.510295
 31
0.0
  0
LINE
  5
E807
330
E804
100
AcDbEntity
  8
本体・寸法
  6
Continuous
 62
     7
370
    30
100
AcDbLine
 10
600.242695
 20
1216.510295
 30
0.0
 11
630.242695
 21
1216.510295
 31
0.0
  0
LINE
  5
E808
330
E804
100
AcDbEntity
  8
本体・寸法
  6
Continuous
 62
     7
370
    30
100
AcDbLine
 10
630.242695
 20
1216.510295
 30
0.0
 11
630.242695
 21
1376.510295
 31
0.0
  0
LINE
  5
E809
330
E804
100
AcDbEntity
  8
本体・寸法
  6
Continuous
 62
     7
370
    30
100
AcDbLine
 10
630.242695
 20
1376.510295
 30
0.0
 11
600.242695
 21
1376.510295
 31
0.0
  0
ENDBLK
  5
E80A
330
E804
100
AcDbEntity
  8
0
100
AcDbBlockEnd
  0
BLOCK
  5
E80C
330
E80B
100
AcDbEntity
  8
0
  6
Continuous
 62
     7
370
    30
100
AcDbBlockBegin
  2
*G239393
 70
     0
 10
0.0
 20
0.0
 30
0.0
  3
*G239393
  1

  0
LINE
  5
E80D
330
E80B
100
AcDbEntity
  8
本体・寸法
  6
Continuous
 62
     7
370
    30
100
AcDbLine
 10
578.742695
 20
1245.510295
 30
0.0
 11
578.742695
 21
1232.510295
 31
0.0
  0
LINE
  5
E80E
330
E80B
100
AcDbEntity
  8
本体・寸法
  6
Continuous
 62
     7
370
    30
100
AcDbLine
 10
578.742695
 20
1232.510295
 30
0.0
 11
591.742695
 21
1232.510295
 31
0.0
  0
LINE
  5
E80F
330
E80B
100
AcDbEntity
  8
本体・寸法
  6
Continuous
 62
     7
370
    30
100
AcDbLine
 10
591.742695
 20
1232.510295
 30
0.0
 11
591.742695
 21
1245.510295
 31
0.0
  0
LINE
  5
E810
330
E80B
100
AcDbEntity
  8
本体・寸法
  6
Continuous
 62
     7
370
    30
100
AcDbLine
 10
591.742695
 20
1245.510295
 30
0.0
 11
578.742695
 21
1245.510295
 31
0.0
  0
ENDBLK
  5
E811
330
E80B
100
AcDbEntity
  8
0
100
AcDbBlockEnd
  0
BLOCK
  5
E813
330
E812
100
AcDbEntity
  8
0
  6
Continuous
 62
     7
370
    30
100
AcDbBlockBegin
  2
*G249494
 70
     0
 10
0.0
 20
0.0
 30
0.0
  3
*G249494
  1

  0
LINE
  5
E814
330
E812
100
AcDbEntity
  8
本体・寸法
  6
Continuous
 62
     7
370
    30
100
AcDbLine
 10
578.742695
 20
1270.510295
 30
0.0
 11
578.742695
 21
1257.510295
 31
0.0
  0
LINE
  5
E815
330
E812
100
AcDbEntity
  8
本体・寸法
  6
Continuous
 62
     7
370
    30
100
AcDbLine
 10
578.742695
 20
1257.510295
 30
0.0
 11
591.742695
 21
1257.510295
 31
0.0
  0
LINE
  5
E816
330
E812
100
AcDbEntity
  8
本体・寸法
  6
Continuous
 62
     7
370
    30
100
AcDbLine
 10
591.742695
 20
1257.510295
 30
0.0
 11
591.742695
 21
1270.510295
 31
0.0
  0
LINE
  5
E817
330
E812
100
AcDbEntity
  8
本体・寸法
  6
Continuous
 62
     7
370
    30
100
AcDbLine
 10
591.742695
 20
1270.510295
 30
0.0
 11
578.742695
 21
1270.510295
 31
0.0
  0
ENDBLK
  5
E818
330
E812
100
AcDbEntity
  8
0
100
AcDbBlockEnd
  0
BLOCK
  5
E81A
330
E819
100
AcDbEntity
  8
0
  6
Continuous
 62
     7
370
    30
100
AcDbBlockBegin
  2
*G259595
 70
     0
 10
0.0
 20
0.0
 30
0.0
  3
*G259595
  1

  0
LINE
  5
E81B
330
E819
100
AcDbEntity
  8
本体・寸法
  6
Continuous
 62
     7
370
    30
100
AcDbLine
 10
570.242695
 20
1376.510295
 30
0.0
 11
570.242695
 21
1216.510295
 31
0.0
  0
LINE
  5
E81C
330
E819
100
AcDbEntity
  8
本体・寸法
  6
Continuous
 62
     7
370
    30
100
AcDbLine
 10
570.242695
 20
1216.510295
 30
0.0
 11
600.242695
 21
1216.510295
 31
0.0
  0
LINE
  5
E81D
330
E819
100
AcDbEntity
  8
本体・寸法
  6
Continuous
 62
     7
370
    30
100
AcDbLine
 10
600.242695
 20
1216.510295
 30
0.0
 11
600.242695
 21
1376.510295
 31
0.0
  0
LINE
  5
E81E
330
E819
100
AcDbEntity
  8
本体・寸法
  6
Continuous
 62
     7
370
    30
100
AcDbLine
 10
600.242695
 20
1376.510295
 30
0.0
 11
570.242695
 21
1376.510295
 31
0.0
  0
ENDBLK
  5
E81F
330
E819
100
AcDbEntity
  8
0
100
AcDbBlockEnd
  0
BLOCK
  5
E821
330
E820
100
AcDbEntity
  8
0
  6
Continuous
 62
     7
370
    30
100
AcDbBlockBegin
  2
*G269696
 70
     0
 10
0.0
 20
0.0
 30
0.0
  3
*G269696
  1

  0
LINE
  5
E822
330
E820
100
AcDbEntity
  8
本体・寸法
  6
Continuous
 62
     7
370
    30
100
AcDbLine
 10
548.742695
 20
1245.510295
 30
0.0
 11
548.742695
 21
1232.510295
 31
0.0
  0
LINE
  5
E823
330
E820
100
AcDbEntity
  8
本体・寸法
  6
Continuous
 62
     7
370
    30
100
AcDbLine
 10
548.742695
 20
1232.510295
 30
0.0
 11
561.742695
 21
1232.510295
 31
0.0
  0
LINE
  5
E824
330
E820
100
AcDbEntity
  8
本体・寸法
  6
Continuous
 62
     7
370
    30
100
AcDbLine
 10
561.742695
 20
1232.510295
 30
0.0
 11
561.742695
 21
1245.510295
 31
0.0
  0
LINE
  5
E825
330
E820
100
AcDbEntity
  8
本体・寸法
  6
Continuous
 62
     7
370
    30
100
AcDbLine
 10
561.742695
 20
1245.510295
 30
0.0
 11
548.742695
 21
1245.510295
 31
0.0
  0
ENDBLK
  5
E826
330
E820
100
AcDbEntity
  8
0
100
AcDbBlockEnd
  0
BLOCK
  5
E828
330
E827
100
AcDbEntity
  8
0
  6
Continuous
 62
     7
370
    30
100
AcDbBlockBegin
  2
*G279797
 70
     0
 10
0.0
 20
0.0
 30
0.0
  3
*G279797
  1

  0
LINE
  5
E829
330
E827
100
AcDbEntity
  8
本体・寸法
  6
Continuous
 62
     7
370
    30
100
AcDbLine
 10
548.742695
 20
1270.510295
 30
0.0
 11
548.742695
 21
1257.510295
 31
0.0
  0
LINE
  5
E82A
330
E827
100
AcDbEntity
  8
本体・寸法
  6
Continuous
 62
     7
370
    30
100
AcDbLine
 10
548.742695
 20
1257.510295
 30
0.0
 11
561.742695
 21
1257.510295
 31
0.0
  0
LINE
  5
E82B
330
E827
100
AcDbEntity
  8
本体・寸法
  6
Continuous
 62
     7
370
    30
100
AcDbLine
 10
561.742695
 20
1257.510295
 30
0.0
 11
561.742695
 21
1270.510295
 31
0.0
  0
LINE
  5
E82C
330
E827
100
AcDbEntity
  8
本体・寸法
  6
Continuous
 62
     7
370
    30
100
AcDbLine
 10
561.742695
 20
1270.510295
 30
0.0
 11
548.742695
 21
1270.510295
 31
0.0
  0
ENDBLK
  5
E82D
330
E827
100
AcDbEntity
  8
0
100
AcDbBlockEnd
  0
BLOCK
  5
E82F
330
E82E
100
AcDbEntity
  8
0
  6
Continuous
 62
     7
370
    30
100
AcDbBlockBegin
  2
*G289898
 70
     0
 10
0.0
 20
0.0
 30
0.0
  3
*G289898
  1

  0
LINE
  5
E830
330
E82E
100
AcDbEntity
  8
本体・寸法
  6
Continuous
 62
     7
370
    30
100
AcDbLine
 10
540.242695
 20
1376.510295
 30
0.0
 11
540.242695
 21
1216.510295
 31
0.0
  0
LINE
  5
E831
330
E82E
100
AcDbEntity
  8
本体・寸法
  6
Continuous
 62
     7
370
    30
100
AcDbLine
 10
540.242695
 20
1216.510295
 30
0.0
 11
570.242695
 21
1216.510295
 31
0.0
  0
LINE
  5
E832
330
E82E
100
AcDbEntity
  8
本体・寸法
  6
Continuous
 62
     7
370
    30
100
AcDbLine
 10
570.242695
 20
1216.510295
 30
0.0
 11
570.242695
 21
1376.510295
 31
0.0
  0
LINE
  5
E833
330
E82E
100
AcDbEntity
  8
本体・寸法
  6
Continuous
 62
     7
370
    30
100
AcDbLine
 10
570.242695
 20
1376.510295
 30
0.0
 11
540.242695
 21
1376.510295
 31
0.0
  0
ENDBLK
  5
E834
330
E82E
100
AcDbEntity
  8
0
100
AcDbBlockEnd
  0
BLOCK
  5
E836
330
E835
100
AcDbEntity
  8
0
  6
Continuous
 62
     7
370
    30
100
AcDbBlockBegin
  2
*G299999
 70
     0
 10
0.0
 20
0.0
 30
0.0
  3
*G299999
  1

  0
LINE
  5
E837
330
E835
100
AcDbEntity
  8
本体・寸法
  6
Continuous
 62
     7
370
    30
100
AcDbLine
 10
518.742695
 20
1245.510295
 30
0.0
 11
518.742695
 21
1232.510295
 31
0.0
  0
LINE
  5
E838
330
E835
100
AcDbEntity
  8
本体・寸法
  6
Continuous
 62
     7
370
    30
100
AcDbLine
 10
518.742695
 20
1232.510295
 30
0.0
 11
531.742695
 21
1232.510295
 31
0.0
  0
LINE
  5
E839
330
E835
100
AcDbEntity
  8
本体・寸法
  6
Continuous
 62
     7
370
    30
100
AcDbLine
 10
531.742695
 20
1232.510295
 30
0.0
 11
531.742695
 21
1245.510295
 31
0.0
  0
LINE
  5
E83A
330
E835
100
AcDbEntity
  8
本体・寸法
  6
Continuous
 62
     7
370
    30
100
AcDbLine
 10
531.742695
 20
1245.510295
 30
0.0
 11
518.742695
 21
1245.510295
 31
0.0
  0
ENDBLK
  5
E83B
330
E835
100
AcDbEntity
  8
0
100
AcDbBlockEnd
  0
BLOCK
  5
E83D
330
E83C
100
AcDbEntity
  8
0
  6
Continuous
 62
     7
370
    30
100
AcDbBlockBegin
  2
*G30100100
 70
     0
 10
0.0
 20
0.0
 30
0.0
  3
*G30100100
  1

  0
LINE
  5
E83E
330
E83C
100
AcDbEntity
  8
本体・寸法
  6
Continuous
 62
     7
370
    30
100
AcDbLine
 10
518.742695
 20
1270.510295
 30
0.0
 11
518.742695
 21
1257.510295
 31
0.0
  0
LINE
  5
E83F
330
E83C
100
AcDbEntity
  8
本体・寸法
  6
Continuous
 62
     7
370
    30
100
AcDbLine
 10
518.742695
 20
1257.510295
 30
0.0
 11
531.742695
 21
1257.510295
 31
0.0
  0
LINE
  5
E840
330
E83C
100
AcDbEntity
  8
本体・寸法
  6
Continuous
 62
     7
370
    30
100
AcDbLine
 10
531.742695
 20
1257.510295
 30
0.0
 11
531.742695
 21
1270.510295
 31
0.0
  0
LINE
  5
E841
330
E83C
100
AcDbEntity
  8
本体・寸法
  6
Continuous
 62
     7
370
    30
100
AcDbLine
 10
531.742695
 20
1270.510295
 30
0.0
 11
518.742695
 21
1270.510295
 31
0.0
  0
ENDBLK
  5
E842
330
E83C
100
AcDbEntity
  8
0
100
AcDbBlockEnd
  0
BLOCK
  5
E844
330
E843
100
AcDbEntity
  8
0
  6
Continuous
 62
     7
370
    30
100
AcDbBlockBegin
  2
*G31101101
 70
     0
 10
0.0
 20
0.0
 30
0.0
  3
*G31101101
  1

  0
LINE
  5
E845
330
E843
100
AcDbEntity
  8
本体・寸法
  6
Continuous
 62
     7
370
    30
100
AcDbLine
 10
510.242695
 20
1376.510295
 30
0.0
 11
510.242695
 21
1216.510295
 31
0.0
  0
LINE
  5
E846
330
E843
100
AcDbEntity
  8
本体・寸法
  6
Continuous
 62
     7
370
    30
100
AcDbLine
 10
510.242695
 20
1216.510295
 30
0.0
 11
540.242695
 21
1216.510295
 31
0.0
  0
LINE
  5
E847
330
E843
100
AcDbEntity
  8
本体・寸法
  6
Continuous
 62
     7
370
    30
100
AcDbLine
 10
540.242695
 20
1216.510295
 30
0.0
 11
540.242695
 21
1376.510295
 31
0.0
  0
LINE
  5
E848
330
E843
100
AcDbEntity
  8
本体・寸法
  6
Continuous
 62
     7
370
    30
100
AcDbLine
 10
540.242695
 20
1376.510295
 30
0.0
 11
510.242695
 21
1376.510295
 31
0.0
  0
ENDBLK
  5
E849
330
E843
100
AcDbEntity
  8
0
100
AcDbBlockEnd
  0
BLOCK
  5
E84B
330
E84A
100
AcDbEntity
  8
0
  6
Continuous
 62
     7
370
    30
100
AcDbBlockBegin
  2
*G32102102
 70
     0
 10
0.0
 20
0.0
 30
0.0
  3
*G32102102
  1

  0
LINE
  5
E84C
330
E84A
100
AcDbEntity
  8
本体・寸法
  6
Continuous
 62
     7
370
    30
100
AcDbLine
 10
488.742695
 20
1245.510295
 30
0.0
 11
488.742695
 21
1232.510295
 31
0.0
  0
LINE
  5
E84D
330
E84A
100
AcDbEntity
  8
本体・寸法
  6
Continuous
 62
     7
370
    30
100
AcDbLine
 10
488.742695
 20
1232.510295
 30
0.0
 11
501.7426949999999
 21
1232.510295
 31
0.0
  0
LINE
  5
E84E
330
E84A
100
AcDbEntity
  8
本体・寸法
  6
Continuous
 62
     7
370
    30
100
AcDbLine
 10
501.7426949999999
 20
1232.510295
 30
0.0
 11
501.7426949999999
 21
1245.510295
 31
0.0
  0
LINE
  5
E84F
330
E84A
100
AcDbEntity
  8
本体・寸法
  6
Continuous
 62
     7
370
    30
100
AcDbLine
 10
501.7426949999999
 20
1245.510295
 30
0.0
 11
488.742695
 21
1245.510295
 31
0.0
  0
ENDBLK
  5
E850
330
E84A
100
AcDbEntity
  8
0
100
AcDbBlockEnd
  0
BLOCK
  5
E852
330
E851
100
AcDbEntity
  8
0
  6
Continuous
 62
     7
370
    30
100
AcDbBlockBegin
  2
*G33103103
 70
     0
 10
0.0
 20
0.0
 30
0.0
  3
*G33103103
  1

  0
LINE
  5
E853
330
E851
100
AcDbEntity
  8
本体・寸法
  6
Continuous
 62
     7
370
    30
100
AcDbLine
 10
488.742695
 20
1270.510295
 30
0.0
 11
488.742695
 21
1257.510295
 31
0.0
  0
LINE
  5
E854
330
E851
100
AcDbEntity
  8
本体・寸法
  6
Continuous
 62
     7
370
    30
100
AcDbLine
 10
488.742695
 20
1257.510295
 30
0.0
 11
501.7426949999999
 21
1257.510295
 31
0.0
  0
LINE
  5
E855
330
E851
100
AcDbEntity
  8
本体・寸法
  6
Continuous
 62
     7
370
    30
100
AcDbLine
 10
501.7426949999999
 20
1257.510295
 30
0.0
 11
501.7426949999999
 21
1270.510295
 31
0.0
  0
LINE
  5
E856
330
E851
100
AcDbEntity
  8
本体・寸法
  6
Continuous
 62
     7
370
    30
100
AcDbLine
 10
501.7426949999999
 20
1270.510295
 30
0.0
 11
488.742695
 21
1270.510295
 31
0.0
  0
ENDBLK
  5
E857
330
E851
100
AcDbEntity
  8
0
100
AcDbBlockEnd
  0
BLOCK
  5
E859
330
E858
100
AcDbEntity
  8
0
  6
Continuous
 62
     7
370
    30
100
AcDbBlockBegin
  2
*G34104104
 70
     0
 10
0.0
 20
0.0
 30
0.0
  3
*G34104104
  1

  0
LINE
  5
E85A
330
E858
100
AcDbEntity
  8
本体・寸法
  6
Continuous
 62
     7
370
    30
100
AcDbLine
 10
480.242695
 20
1376.510295
 30
0.0
 11
480.242695
 21
1216.510295
 31
0.0
  0
LINE
  5
E85B
330
E858
100
AcDbEntity
  8
本体・寸法
  6
Continuous
 62
     7
370
    30
100
AcDbLine
 10
480.242695
 20
1216.510295
 30
0.0
 11
510.242695
 21
1216.510295
 31
0.0
  0
LINE
  5
E85C
330
E858
100
AcDbEntity
  8
本体・寸法
  6
Continuous
 62
     7
370
    30
100
AcDbLine
 10
510.242695
 20
1216.510295
 30
0.0
 11
510.242695
 21
1376.510295
 31
0.0
  0
LINE
  5
E85D
330
E858
100
AcDbEntity
  8
本体・寸法
  6
Continuous
 62
     7
370
    30
100
AcDbLine
 10
510.242695
 20
1376.510295
 30
0.0
 11
480.242695
 21
1376.510295
 31
0.0
  0
ENDBLK
  5
E85E
330
E858
100
AcDbEntity
  8
0
100
AcDbBlockEnd
  0
BLOCK
  5
F17A
330
F179
100
AcDbEntity
  8
0
100
AcDbBlockBegin
  2
*D130
 70
     1
 10
0.0
 20
0.0
 30
0.0
  3
*D130
  1

  0
LINE
  5
F55A
330
F179
100
AcDbEntity
  8
電気錠制御盤　（株）アート
  6
Continuous
 62
     0
370
    -2
100
AcDbLine
 10
6221.877112619917
 20
19453.09057606408
 30
0.0
 11
6221.877112619917
 21
20385.91452966405
 31
0.0
  0
LINE
  5
F55B
330
F179
100
AcDbEntity
  8
電気錠制御盤　（株）アート
  6
Continuous
 62
     0
370
    -2
100
AcDbLine
 10
13597.90535261993
 20
19453.09057606408
 30
0.0
 11
13597.90535261993
 21
20385.91452966405
 31
0.0
  0
LINE
  5
F55C
330
F179
100
AcDbEntity
  8
電気錠制御盤　（株）アート
  6
Continuous
 62
     0
370
    -2
100
AcDbLine
 10
6721.877112619917
 20
20385.73452966405
 30
0.0
 11
13097.90535261993
 21
20385.73452966405
 31
0.0
  0
INSERT
  5
F55D
330
F179
100
AcDbEntity
  8
電気錠制御盤　（株）アート
  6
Continuous
 62
     0
370
    -2
100
AcDbBlockReference
  2
_OPEN30
 10
6221.877112619917
 20
20385.73452966405
 30
0.0
 41
500.0
 42
500.0
 43
500.0
 50
180.0
  0
INSERT
  5
F55E
330
F179
100
AcDbEntity
  8
電気錠制御盤　（株）アート
  6
Continuous
 62
     0
370
    -2
100
AcDbBlockReference
  2
_OPEN30
 10
13597.90535261993
 20
20385.73452966405
 30
0.0
 41
500.0
 42
500.0
 43
500.0
  0
MTEXT
  5
F55F
330
F179
100
AcDbEntity
  8
電気錠制御盤　（株）アート
  6
Continuous
 62
     0
370
    13
100
AcDbMText
 10
9909.891232619925
 20
20635.73452966405
 30
0.0
 40
400.0
 41
0.0
 71
     5
 72
     1
  1
\A1;400
 73
     1
 44
1.0
1001
ACAD
1000
MTEXTBEGIN
1070
    73
1070
     1
1070
    44
1040
1.0
1070
    74
1070
     0
1000
MTEXTEND
  0
POINT
  5
F560
330
F179
100
AcDbEntity
  8
DEFPOINTS
  6
Continuous
 62
     0
100
AcDbPoint
 10
6221.877112619917
 20
19353.09057606408
 30
0.0
  0
POINT
  5
F561
330
F179
100
AcDbEntity
  8
DEFPOINTS
  6
Continuous
 62
     0
100
AcDbPoint
 10
13597.90535261993
 20
19353.09057606408
 30
0.0
  0
POINT
  5
F562
330
F179
100
AcDbEntity
  8
DEFPOINTS
  6
Continuous
 62
     0
100
AcDbPoint
 10
13597.90535261993
 20
20385.73452966405
 30
0.0
  0
ENDBLK
  5
F17B
330
F179
100
AcDbEntity
  8
0
100
AcDbBlockEnd
  0
BLOCK
  5
F186
330
F185
100
AcDbEntity
  8
0
100
AcDbBlockBegin
  2
*D131
 70
     1
 10
0.0
 20
0.0
 30
0.0
  3
*D131
  1

  0
LINE
  5
F551
330
F185
100
AcDbEntity
  8
電気錠制御盤　（株）アート
  6
Continuous
 62
     0
370
    -2
100
AcDbLine
 10
17300.18045242988
 20
19453.09057606408
 30
0.0
 11
17300.18045242988
 21
20385.91452966405
 31
0.0
  0
LINE
  5
F552
330
F185
100
AcDbEntity
  8
電気錠制御盤　（株）アート
  6
Continuous
 62
     0
370
    -2
100
AcDbLine
 10
19512.98892442994
 20
19453.09057606408
 30
0.0
 11
19512.98892442994
 21
20385.91452966405
 31
0.0
  0
LINE
  5
F553
330
F185
100
AcDbEntity
  8
電気錠制御盤　（株）アート
  6
Continuous
 62
     0
370
    -2
100
AcDbLine
 10
17800.18045242988
 20
20385.73452966405
 30
0.0
 11
19012.98892442994
 21
20385.73452966405
 31
0.0
  0
INSERT
  5
F554
330
F185
100
AcDbEntity
  8
電気錠制御盤　（株）アート
  6
Continuous
 62
     0
370
    -2
100
AcDbBlockReference
  2
_OPEN30
 10
17300.18045242988
 20
20385.73452966405
 30
0.0
 41
500.0
 42
500.0
 43
500.0
 50
180.0
  0
INSERT
  5
F555
330
F185
100
AcDbEntity
  8
電気錠制御盤　（株）アート
  6
Continuous
 62
     0
370
    -2
100
AcDbBlockReference
  2
_OPEN30
 10
19512.98892442994
 20
20385.73452966405
 30
0.0
 41
500.0
 42
500.0
 43
500.0
  0
MTEXT
  5
F556
330
F185
100
AcDbEntity
  8
電気錠制御盤　（株）アート
  6
Continuous
 62
     0
370
    13
100
AcDbMText
 10
18406.58468842991
 20
20635.73452966405
 30
0.0
 40
400.0
 41
0.0
 71
     5
 72
     1
  1
\A1;120
 73
     1
 44
1.0
1001
ACAD
1000
MTEXTBEGIN
1070
    73
1070
     1
1070
    44
1040
1.0
1070
    74
1070
     0
1000
MTEXTEND
  0
POINT
  5
F557
330
F185
100
AcDbEntity
  8
DEFPOINTS
  6
Continuous
 62
     0
100
AcDbPoint
 10
17300.18045242988
 20
19353.09057606408
 30
0.0
  0
POINT
  5
F558
330
F185
100
AcDbEntity
  8
DEFPOINTS
  6
Continuous
 62
     0
100
AcDbPoint
 10
19512.98892442994
 20
19353.09057606408
 30
0.0
  0
POINT
  5
F559
330
F185
100
AcDbEntity
  8
DEFPOINTS
  6
Continuous
 62
     0
100
AcDbPoint
 10
19512.98892442994
 20
20385.73452966405
 30
0.0
  0
ENDBLK
  5
F187
330
F185
100
AcDbEntity
  8
0
100
AcDbBlockEnd
  0
BLOCK
  5
F1AA
330
F1A9
100
AcDbEntity
  8
0
100
AcDbBlockBegin
  2
*D134
 70
     1
 10
0.0
 20
0.0
 30
0.0
  3
*D134
  1

  0
LINE
  5
F548
330
F1A9
100
AcDbEntity
  8
電気錠制御盤　（株）アート
  6
Continuous
 62
     0
370
    -2
100
AcDbLine
 10
13904.78258691402
 20
19094.9295876641
 30
0.0
 11
14888.8902946203
 21
19094.9295876641
 31
0.0
  0
LINE
  5
F549
330
F1A9
100
AcDbEntity
  8
電気錠制御盤　（株）アート
  6
Continuous
 62
     0
370
    -2
100
AcDbLine
 10
13825.22131646424
 20
9874.894287664076
 30
0.0
 11
14888.8902946203
 21
9874.894287664076
 31
0.0
  0
LINE
  5
F54A
330
F1A9
100
AcDbEntity
  8
電気錠制御盤　（株）アート
  6
Continuous
 62
     0
370
    -2
100
AcDbLine
 10
14888.71029462029
 20
18594.9295876641
 30
0.0
 11
14888.7102946203
 21
10374.89428766407
 31
0.0
  0
INSERT
  5
F54B
330
F1A9
100
AcDbEntity
  8
電気錠制御盤　（株）アート
  6
Continuous
 62
     0
370
    -2
100
AcDbBlockReference
  2
_OPEN30
 10
14888.71029462029
 20
19094.9295876641
 30
0.0
 41
500.0
 42
500.0
 43
500.0
 50
90.0
  0
INSERT
  5
F54C
330
F1A9
100
AcDbEntity
  8
電気錠制御盤　（株）アート
  6
Continuous
 62
     0
370
    -2
100
AcDbBlockReference
  2
_OPEN30
 10
14888.7102946203
 20
9874.894287664076
 30
0.0
 41
500.0
 42
500.0
 43
500.0
 50
270.0
  0
MTEXT
  5
F54D
330
F1A9
100
AcDbEntity
  8
電気錠制御盤　（株）アート
  6
Continuous
 62
     0
370
    13
100
AcDbMText
 10
14638.7102946203
 20
14484.91193766408
 30
0.0
 40
400.0
 41
0.0
 71
     5
 72
     1
  1
\A1;500
 11
0.0000000000000001
 21
1.0
 31
0.0
 73
     1
 44
1.0
1001
ACAD
1000
MTEXTBEGIN
1070
    73
1070
     1
1070
    44
1040
1.0
1070
    74
1070
     0
1000
MTEXTEND
  0
POINT
  5
F54E
330
F1A9
100
AcDbEntity
  8
DEFPOINTS
  6
Continuous
 62
     0
100
AcDbPoint
 10
13804.78258691402
 20
19094.9295876641
 30
0.0
  0
POINT
  5
F54F
330
F1A9
100
AcDbEntity
  8
DEFPOINTS
  6
Continuous
 62
     0
100
AcDbPoint
 10
13725.22131646424
 20
9874.894287664076
 30
0.0
  0
POINT
  5
F550
330
F1A9
100
AcDbEntity
  8
DEFPOINTS
  6
Continuous
 62
     0
100
AcDbPoint
 10
14888.7102946203
 20
9874.894287664076
 30
0.0
  0
ENDBLK
  5
F1AB
330
F1A9
100
AcDbEntity
  8
0
100
AcDbBlockEnd
  0
ENDSEC
  0
SECTION
  2
ENTITIES
  0
LINE
  5
C374
330
1F
100
AcDbEntity
  8
電気錠制御盤　（株）アート
  6
Continuous
 62
     7
370
    13
100
AcDbLine
 10
546.1065362378503
 20
25516.71509006405
 30
0.0
 11
546.1065362378503
 21
436.7590652739454
 31
0.0
  0
LINE
  5
C375
330
1F
100
AcDbEntity
  8
電気錠制御盤　（株）アート
 62
     7
370
    13
100
AcDbLine
 10
546.1065362378503
 20
436.7590652739454
 30
0.0
 11
23126.56420828254
 21
436.7590652739454
 31
0.0
  0
LINE
  5
C376
330
1F
100
AcDbEntity
  8
電気錠制御盤　（株）アート
  6
Continuous
 62
     7
370
    13
100
AcDbLine
 10
23126.56420828254
 20
25516.71509006405
 30
0.0
 11
23126.56420828254
 21
436.7590652739454
 31
0.0
  0
LINE
  5
E6B5
330
1F
100
AcDbEntity
  8
電気錠制御盤　（株）アート
 62
     7
370
    13
100
AcDbLine
 10
546.1065362378503
 20
25516.71509006405
 30
0.0
 11
23126.56420828254
 21
25516.71509006405
 31
0.0
  0
LINE
  5
E6B6
330
1F
100
AcDbEntity
  8
電気錠制御盤　（株）アート
  6
Continuous
 62
     7
370
    13
100
AcDbLine
 10
3301.805313800439
 20
25516.71509006405
 30
0.0
 11
3301.805313800439
 21
23679.58257168909
 31
0.0
  0
LINE
  5
E6B7
330
1F
100
AcDbEntity
  8
電気錠制御盤　（株）アート
  6
Continuous
 62
     7
370
    13
100
AcDbLine
 10
546.1065362378503
 20
23679.58257168909
 30
0.0
 11
23126.56420828091
 21
23679.58257168909
 31
0.0
  0
TEXT
  5
E6B8
330
1F
100
AcDbEntity
  8
電気錠制御盤　（株）アート
  6
Continuous
 62
     7
370
    13
100
AcDbText
 10
3809.004270386338
 20
24250.81184097733
 30
0.0
 40
741.8776780800003
  1
副制御盤　ＳＵＢ－Ｌ１０ＮＢ
 41
0.8
  7
KANJI
100
AcDbText
  0
LINE
  5
E6B9
330
1F
100
AcDbEntity
  8
電気錠制御盤　（株）アート
  6
Continuous
 62
     7
370
    13
100
AcDbLine
 10
1054.244081208547
 20
24146.30405127569
 30
0.0
 11
2793.667768833525
 21
24146.30405127569
 31
0.0
  0
LINE
  5
E6BA
330
1F
100
AcDbEntity
  8
電気錠制御盤　（株）アート
  6
Continuous
 62
     7
370
    13
100
AcDbLine
 10
1054.244081208547
 20
25049.9936104794
 30
0.0
 11
1054.244081208547
 21
24146.30405127569
 31
0.0
  0
LINE
  5
E6BB
330
1F
100
AcDbEntity
  8
電気錠制御盤　（株）アート
  6
Continuous
 62
     7
370
    13
100
AcDbLine
 10
2793.667768833525
 20
24146.30405127569
 30
0.0
 11
2793.667768833525
 21
25049.9936104794
 31
0.0
  0
LINE
  5
E6BC
330
1F
100
AcDbEntity
  8
電気錠制御盤　（株）アート
  6
Continuous
 62
     7
370
    13
100
AcDbLine
 10
2793.667768833525
 20
25049.9936104794
 30
0.0
 11
1054.244081208547
 21
25049.9936104794
 31
0.0
  0
LINE
  5
E6BD
330
1F
100
AcDbEntity
  8
電気錠制御盤　（株）アート
  6
Continuous
 62
     7
370
    13
100
AcDbLine
 10
2793.667768833525
 20
25049.9936104794
 30
0.0
 11
1923.955925021036
 21
24146.30405127569
 31
0.0
  0
TEXT
  5
E6BE
330
1F
100
AcDbEntity
  8
電気錠制御盤　（株）アート
  6
Continuous
 62
     7
370
    13
100
AcDbText
 10
1597.28925835437
 20
24570.89380173519
 30
0.0
 40
400.0
  1
Ｓ１０
 41
0.5
  7
KANJI
 72
     1
 11
1923.955925021036
 21
24970.89380173519
 31
0.0
100
AcDbText
 73
     3
  0
LINE
  5
E6BF
330
1F
100
AcDbEntity
  8
電気錠制御盤　（株）アート
 62
     7
370
    13
100
AcDbLine
 10
1923.955925021036
 20
24146.30405127569
 30
0.0
 11
1054.244081208547
 21
25049.9936104794
 31
0.0
  0
TEXT
  5
E6C0
330
1F
100
AcDbEntity
  8
電気錠制御盤　（株）アート
  6
Continuous
 62
     7
370
    13
100
AcDbText
 10
2627.995897040964
 20
5166.214424277976
 30
0.0
 40
447.9946116360424
  1
材　質
 41
0.944444
  7
KANJI
100
AcDbText
  0
TEXT
  5
E6C1
330
1F
100
AcDbEntity
  8
電気錠制御盤　（株）アート
  6
Continuous
 62
     7
370
    13
100
AcDbText
 10
3034.909241157264
 20
5827.963696573365
 30
0.0
 40
447.9946116360424
  1
項　目
 41
0.944444
  7
KANJI
100
AcDbText
  0
TEXT
  5
E6C2
330
1F
100
AcDbEntity
  8
電気錠制御盤　（株）アート
  6
Continuous
 62
     7
370
    13
100
AcDbText
 10
12119.23895036315
 20
5827.963696573365
 30
0.0
 40
447.9946116360424
  1
内　容
 41
0.944444
  7
KANJI
100
AcDbText
  0
TEXT
  5
E6C3
330
1F
100
AcDbEntity
  8
電気錠制御盤　（株）アート
  6
Continuous
 62
     7
370
    13
100
AcDbText
 10
2627.995897040964
 20
4534.92992397584
 30
0.0
 40
447.9946116360424
  1
仕　上
 41
0.944444
  7
KANJI
100
AcDbText
  0
TEXT
  5
E6C4
330
1F
100
AcDbEntity
  8
電気錠制御盤　（株）アート
  6
Continuous
 62
     7
370
    13
100
AcDbText
 10
2627.995897040964
 20
3915.044527364648
 30
0.0
 40
447.9946116360424
  1
彩　色
 41
0.944444
  7
KANJI
100
AcDbText
  0
TEXT
  5
E6C5
330
1F
100
AcDbEntity
  8
電気錠制御盤　（株）アート
  6
Continuous
 62
     7
370
    13
100
AcDbText
 10
5323.882725397678
 20
5166.214424277976
 30
0.0
 40
447.9946116360424
  1
ＳＰＣＣ ｔ１．６
 41
0.944444
  7
KANJI
100
AcDbText
  0
TEXT
  5
E6C6
330
1F
100
AcDbEntity
  8
電気錠制御盤　（株）アート
  6
Continuous
 62
     7
370
    13
100
AcDbText
 10
5316.195556790479
 20
4534.92992397584
 30
0.0
 40
447.9946116360424
  1
粉体塗装
 41
0.944444
  7
KANJI
100
AcDbText
  0
TEXT
  5
E6C7
330
1F
100
AcDbEntity
  8
電気錠制御盤　（株）アート
  6
Continuous
 62
     7
370
    13
100
AcDbText
 10
5316.195556790479
 20
3915.044527364648
 30
0.0
 40
447.9946116360424
  1
本体：マンセル２．５Ｙ ９／１　近似色　　パネル：マンセルＮ－３．０
 41
0.75
  7
KANJI
100
AcDbText
  0
TEXT
  5
E6C8
330
1F
100
AcDbEntity
  8
電気錠制御盤　（株）アート
  6
Continuous
 62
     7
370
    13
100
AcDbText
 10
2627.995897040964
 20
2585.428474506044
 30
0.0
 40
447.9946116360424
  1
入力電源
 41
0.944444
  7
KANJI
100
AcDbText
  0
TEXT
  5
E6C9
330
1F
100
AcDbEntity
  8
電気錠制御盤　（株）アート
  6
Continuous
 62
     7
370
    13
100
AcDbText
 10
2627.995897040964
 20
3254.525603801609
 30
0.0
 40
447.9946116360424
  1
重　量
 41
0.944444
  7
KANJI
100
AcDbText
  0
TEXT
  5
E6CA
330
1F
100
AcDbEntity
  8
電気錠制御盤　（株）アート
  6
Continuous
 62
     7
370
    13
100
AcDbText
 10
5316.195556790479
 20
3254.525603801609
 30
0.0
 40
447.9946116360424
  1
約１５ｋｇ
 41
0.944444
  7
KANJI
100
AcDbText
  0
TEXT
  5
E6CB
330
1F
100
AcDbEntity
  8
電気錠制御盤　（株）アート
  6
Continuous
 62
     7
370
    13
100
AcDbText
 10
5316.195556790479
 20
2585.428474506044
 30
0.0
 40
447.9946116360424
  1
電気錠制御盤より供給
 41
0.8872049999999999
  7
KANJI
100
AcDbText
  0
TEXT
  5
E6CC
330
1F
100
AcDbEntity
  8
電気錠制御盤　（株）アート
  6
Continuous
 62
     7
370
    13
100
AcDbText
 10
2627.99589704108
 20
1310.940583590782
 30
0.0
 40
447.9946116360424
  1
外部出力
 41
0.944444
  7
KANJI
100
AcDbText
  0
LINE
  5
E6CD
330
1F
100
AcDbEntity
  8
電気錠制御盤　（株）アート
  6
Continuous
 62
     7
370
    13
100
AcDbLine
 10
5111.709968708019
 20
6369.812981882205
 30
0.0
 11
5111.709968708019
 21
1221.068488069024
 31
0.0
  0
LINE
  5
E6CE
330
1F
100
AcDbEntity
  8
電気錠制御盤　（株）アート
  6
Continuous
 62
     7
370
    13
100
AcDbLine
 10
21369.02180656427
 20
6369.812981879135
 30
0.0
 11
21369.02180656427
 21
1221.068488069024
 31
0.0
  0
LINE
  5
E6CF
330
1F
100
AcDbEntity
  8
電気錠制御盤　（株）アート
  6
Continuous
 62
     7
370
    13
100
AcDbLine
 10
2303.648937955586
 20
6369.812981882729
 30
0.0
 11
2303.648937955586
 21
1221.068488069024
 31
0.0
  0
TEXT
  5
E6D0
330
1F
100
AcDbEntity
  8
電気錠制御盤　（株）アート
  6
Continuous
 62
     7
370
    13
100
AcDbText
 10
5316.195556790597
 20
1310.940583590782
 30
0.0
 40
447.9946116360424
  1
接点容量　ＤＣ２４Ｖ　０．３Ａ以下
 41
0.8872049999999999
  7
KANJI
100
AcDbText
  0
LINE
  5
E6D1
330
1F
100
AcDbEntity
  8
電気錠制御盤　（株）アート
  6
Continuous
 62
     7
370
    13
100
AcDbLine
 10
2303.648937955586
 20
6369.812981882744
 30
0.0
 11
21369.02180656427
 21
6369.81298187915
 31
0.0
  0
LINE
  5
E6D2
330
1F
100
AcDbEntity
  8
電気錠制御盤　（株）アート
  6
Continuous
 62
     7
370
    13
100
AcDbLine
 10
2303.648937955586
 20
5728.786192136759
 30
0.0
 11
21369.02180656427
 21
5728.786192136759
 31
0.0
  0
LINE
  5
E6D3
330
1F
100
AcDbEntity
  8
電気錠制御盤　（株）アート
  6
Continuous
 62
     7
370
    13
100
AcDbLine
 10
2303.648937955586
 20
4446.732612651991
 30
0.0
 11
21369.02180656427
 21
4446.732612651991
 31
0.0
  0
LINE
  5
E6D4
330
1F
100
AcDbEntity
  8
電気錠制御盤　（株）アート
  6
Continuous
 62
     7
370
    13
100
AcDbLine
 10
2303.648937955586
 20
3805.705822909629
 30
0.0
 11
21369.02180656427
 21
3805.705822909629
 31
0.0
  0
LINE
  5
E6D5
330
1F
100
AcDbEntity
  8
電気錠制御盤　（株）アート
  6
Continuous
 62
     7
370
    13
100
AcDbLine
 10
2303.648937955586
 20
1872.360365749962
 30
0.0
 11
21369.02180656427
 21
1872.360365746382
 31
0.0
  0
LINE
  5
E6D6
330
1F
100
AcDbEntity
  8
電気錠制御盤　（株）アート
  6
Continuous
 62
     7
370
    13
100
AcDbLine
 10
2303.648937955586
 20
1221.068488069024
 30
0.0
 11
21369.02180656427
 21
1221.068488069024
 31
0.0
  0
LINE
  5
E6D7
330
1F
100
AcDbEntity
  8
電気錠制御盤　（株）アート
  6
Continuous
 62
     7
370
    13
100
AcDbLine
 10
2303.648937955731
 20
2523.652243430376
 30
0.0
 11
21369.02180656441
 21
2523.652243426797
 31
0.0
  0
TEXT
  5
E6D8
330
1F
100
AcDbEntity
  8
電気錠制御盤　（株）アート
  6
Continuous
 62
     7
370
    13
100
AcDbText
 10
2627.99589704108
 20
1982.451619333296
 30
0.0
 40
447.9946116360424
  1
外部入力
 41
0.944444
  7
KANJI
100
AcDbText
  0
TEXT
  5
E6D9
330
1F
100
AcDbEntity
  8
電気錠制御盤　（株）アート
  6
Continuous
 62
     7
370
    13
100
AcDbText
 10
5316.195556790597
 20
1982.451619333296
 30
0.0
 40
447.9946116360424
  1
接点容量　ＤＣ２４Ｖ　０．１Ａ以下
 41
0.8872049999999999
  7
KANJI
100
AcDbText
  0
LINE
  5
E6DA
330
1F
100
AcDbEntity
  8
電気錠制御盤　（株）アート
  6
Continuous
 62
     7
370
    13
100
AcDbLine
 10
2303.648937955586
 20
3174.944121099747
 30
0.0
 11
21369.02180656427
 21
3174.944121099747
 31
0.0
  0
LINE
  5
E6DB
330
1F
100
AcDbEntity
  8
電気錠制御盤　（株）アート
 62
     7
370
    13
100
AcDbLine
 10
2303.648937955586
 20
5087.759402394368
 30
0.0
 11
21369.02180656427
 21
5087.75940239428
 31
0.0
  0
LINE
  5
EE20
330
1F
100
AcDbEntity
  8
電気錠制御盤　（株）アート
  6
Continuous
 62
     7
370
    13
100
AcDbLine
 10
17300.18045242988
 20
19094.92958766409
 30
0.0
 11
19512.98892442994
 21
19094.92958766409
 31
0.0
  0
LINE
  5
EE21
330
1F
100
AcDbEntity
  8
電気錠制御盤　（株）アート
  6
Continuous
 62
     7
370
    13
100
AcDbLine
 10
19512.98892442994
 20
19094.92958766409
 30
0.0
 11
19512.98892442994
 21
9874.894287664073
 31
0.0
  0
LINE
  5
EE22
330
1F
100
AcDbEntity
  8
電気錠制御盤　（株）アート
  6
Continuous
 62
     7
370
    13
100
AcDbLine
 10
19512.98892442994
 20
9874.894287664073
 30
0.0
 11
17300.18045242988
 21
9874.894287664073
 31
0.0
  0
LINE
  5
EE23
330
1F
100
AcDbEntity
  8
電気錠制御盤　（株）アート
  6
Continuous
 62
     7
370
    13
100
AcDbLine
 10
17300.18045242988
 20
9874.894287664073
 30
0.0
 11
17300.18045242988
 21
19094.92958766409
 31
0.0
  0
ARC
  5
EE24
330
1F
100
AcDbEntity
  8
電気錠制御盤　（株）アート
  6
Continuous
 62
     7
370
    13
100
AcDbCircle
 10
17300.18045242988
 20
9874.894287664073
 30
0.0
 40
4.610017649999999
100
AcDbArc
 50
0.0
 51
180.0
  0
ARC
  5
EE25
330
1F
100
AcDbEntity
  8
電気錠制御盤　（株）アート
  6
Continuous
 62
     7
370
    13
100
AcDbCircle
 10
17300.18045242988
 20
9874.894287664073
 30
0.0
 40
4.610017649999999
100
AcDbArc
 50
180.0
 51
0.0
  0
ARC
  5
EE26
330
1F
100
AcDbEntity
  8
電気錠制御盤　（株）アート
  6
Continuous
 62
     7
370
    13
100
AcDbCircle
 10
19512.98892442994
 20
19094.92958766409
 30
0.0
 40
4.610017649999999
100
AcDbArc
 50
0.0
 51
180.0
  0
ARC
  5
EE27
330
1F
100
AcDbEntity
  8
電気錠制御盤　（株）アート
  6
Continuous
 62
     7
370
    13
100
AcDbCircle
 10
19512.98892442994
 20
19094.92958766409
 30
0.0
 40
4.610017649999999
100
AcDbArc
 50
180.0
 51
0.0
  0
LINE
  5
EE28
330
1F
100
AcDbEntity
  8
電気錠制御盤　（株）アート
  6
Continuous
 62
     7
370
    13
100
AcDbLine
 10
17576.78151142989
 20
9874.894287664073
 30
0.0
 11
17576.78151142989
 21
19094.92958766409
 31
0.0
  0
LINE
  5
EE29
330
1F
100
AcDbEntity
  8
電気錠制御盤　（株）アート
  6
Continuous
 62
     7
370
    13
100
AcDbLine
 10
17300.18045242988
 20
13710.42897246406
 30
0.0
 11
17300.18045242988
 21
15259.39490286407
 31
0.0
  0
LINE
  5
EE2A
330
1F
100
AcDbEntity
  8
電気錠制御盤　（株）アート
  6
Continuous
 62
     7
370
    13
100
AcDbLine
 10
17254.08027592984
 20
15001.23391446408
 30
0.0
 11
17254.08027592984
 21
13968.58996086405
 31
0.0
  0
LINE
  5
EE2B
330
1F
100
AcDbEntity
  8
電気錠制御盤　（株）アート
  6
Continuous
 62
     7
370
    13
100
AcDbLine
 10
17254.08027592984
 20
15145.49187757285
 30
0.0
 11
17254.08027592984
 21
15234.59190150287
 31
0.0
  0
LINE
  5
EE2C
330
1F
100
AcDbEntity
  8
電気錠制御盤　（株）アート
  6
Continuous
 62
     7
370
    13
100
AcDbLine
 10
17254.08027592984
 20
15234.59190150287
 30
0.0
 11
17254.08027592984
 21
15259.39490286407
 31
0.0
  0
LINE
  5
EE2D
330
1F
100
AcDbEntity
  8
電気錠制御盤　（株）アート
  6
Continuous
 62
     7
370
    13
100
AcDbLine
 10
17254.08027592984
 20
13710.42897246406
 30
0.0
 11
17254.08027592984
 21
13735.23197382532
 31
0.0
  0
LINE
  5
EE2E
330
1F
100
AcDbEntity
  8
電気錠制御盤　（株）アート
  6
Continuous
 62
     7
370
    13
100
AcDbLine
 10
17254.08027592984
 20
13824.33199775534
 30
0.0
 11
17254.08027592984
 21
13968.58996086405
 31
0.0
  0
LINE
  5
EE2F
330
1F
100
AcDbEntity
  8
電気錠制御盤　（株）アート
  6
Continuous
 62
     7
370
    13
100
AcDbLine
 10
17254.08027592984
 20
15001.23391446408
 30
0.0
 11
17254.08027592984
 21
15145.49187757285
 31
0.0
  0
LINE
  5
EE30
330
1F
100
AcDbEntity
  8
電気錠制御盤　（株）アート
  6
Continuous
 62
     7
370
    13
100
AcDbLine
 10
17254.08027592984
 20
13735.23197382532
 30
0.0
 11
17254.08027592984
 21
13824.33199775534
 31
0.0
  0
LINE
  5
EE31
330
1F
100
AcDbEntity
  8
電気錠制御盤　（株）アート
  6
Continuous
 62
     7
370
    13
100
AcDbLine
 10
17213.92978820899
 20
14844.49331436406
 30
0.0
 11
17213.92978820899
 21
14000.81361543615
 31
0.0
  0
LINE
  5
EE32
330
1F
100
AcDbEntity
  8
電気錠制御盤　（株）アート
  6
Continuous
 62
     7
370
    13
100
AcDbLine
 10
17300.18045242988
 20
15259.39490286407
 30
0.0
 11
17253.94972023003
 21
15259.39490286407
 31
0.0
  0
LINE
  5
EE33
330
1F
100
AcDbEntity
  8
電気錠制御盤　（株）アート
  6
Continuous
 62
     7
370
    13
100
AcDbLine
 10
17253.94972023003
 20
13710.42897246406
 30
0.0
 11
17300.18045242988
 21
13710.42897246406
 31
0.0
  0
LINE
  5
EE34
330
1F
100
AcDbEntity
  8
電気錠制御盤　（株）アート
  6
Continuous
 62
     7
370
    13
100
AcDbLine
 10
17180.31999352989
 20
14039.5842326741
 30
0.0
 11
17180.31999352989
 21
13967.81400269323
 31
0.0
  0
LINE
  5
EE35
330
1F
100
AcDbEntity
  8
電気錠制御盤　（株）アート
  6
Continuous
 62
     7
370
    13
100
AcDbLine
 10
17194.64479357407
 20
14009.23630208342
 30
0.0
 11
17194.64479357407
 21
14789.17310256407
 31
0.0
  0
LINE
  5
EE36
330
1F
100
AcDbEntity
  8
電気錠制御盤　（株）アート
  6
Continuous
 62
     7
370
    13
100
AcDbLine
 10
17180.31999352989
 20
14217.53091396409
 30
0.0
 11
17180.31999352989
 21
14174.19674805407
 31
0.0
  0
LINE
  5
EE37
330
1F
100
AcDbEntity
  8
電気錠制御盤　（株）アート
  6
Continuous
 62
     7
370
    13
100
AcDbLine
 10
17187.72902949626
 20
14039.5842326741
 30
0.0
 11
17187.72902949626
 21
14174.19674805407
 31
0.0
  0
LINE
  5
EE38
330
1F
100
AcDbEntity
  8
電気錠制御盤　（株）アート
  6
Continuous
 62
     7
370
    13
100
AcDbLine
 10
17180.31999352989
 20
14862.92840614502
 30
0.0
 11
17180.31999352989
 21
14985.05496532104
 31
0.0
  0
LINE
  5
EE39
330
1F
100
AcDbEntity
  8
電気錠制御盤　（株）アート
  6
Continuous
 62
     7
370
    13
100
AcDbLine
 10
17180.31999352989
 20
14665.68861658907
 30
0.0
 11
17180.31999352989
 21
14401.93161996408
 31
0.0
  0
ARC
  5
EE3A
330
1F
100
AcDbEntity
  8
電気錠制御盤　（株）アート
  6
Continuous
 62
     7
370
    13
100
AcDbCircle
 10
17290.96041712987
 20
14789.17310256407
 30
0.0
 40
224.96886132
100
AcDbArc
 50
114.2647139999509
 51
119.4591750000358
  0
ARC
  5
EE3B
330
1F
100
AcDbEntity
  8
電気錠制御盤　（株）アート
  6
Continuous
 62
     7
370
    13
100
AcDbCircle
 10
16952.8442046118
 20
14021.93837591482
 30
0.0
 40
262.881093271482
100
AcDbArc
 50
347.6138359998445
 51
349.083534000122
  0
ARC
  5
EE3C
330
1F
100
AcDbEntity
  8
電気錠制御盤　（株）アート
  6
Continuous
 62
     7
370
    13
100
AcDbCircle
 10
17071.85088824302
 20
14000.74317436648
 30
0.0
 40
142.025608161906
100
AcDbArc
 50
348.380645000101
 51
0.0282789999348822
  0
ARC
  5
EE3D
330
1F
100
AcDbEntity
  8
電気錠制御盤　（株）アート
  6
Continuous
 62
     7
370
    13
100
AcDbCircle
 10
16505.66640733853
 20
14838.97383243206
 30
0.0
 40
708.2652248775181
100
AcDbArc
 50
0.4465739998487591
 51
6.570908000003968
  0
ARC
  5
EE3E
330
1F
100
AcDbEntity
  8
電気錠制御盤　（株）アート
  6
Continuous
 62
     7
370
    13
100
AcDbCircle
 10
16376.50901804416
 20
14837.73244687927
 30
0.0
 40
836.8102194272942
100
AcDbArc
 50
5.641102000084157
 51
11.01235999999474
  0
ARC
  5
EE3F
330
1F
100
AcDbEntity
  8
電気錠制御盤　（株）アート
  6
Continuous
 62
     7
370
    13
100
AcDbCircle
 10
17353.5856628981
 20
13819.33713583189
 30
0.0
 40
147.5205648
100
AcDbArc
 50
192.6359129998746
 51
227.5838600001005
  0
ARC
  5
EE40
330
1F
100
AcDbEntity
  8
電気錠制御盤　（株）アート
  6
Continuous
 62
     7
370
    13
100
AcDbCircle
 10
39035.75868087211
 20
19258.66505974479
 30
0.0
 40
22249.68739677029
100
AcDbArc
 50
190.943870000011
 51
191.0408180000633
  0
ARC
  5
EE41
330
1F
100
AcDbEntity
  8
電気錠制御盤　（株）アート
  6
Continuous
 62
     7
370
    13
100
AcDbCircle
 10
18019.34320582992
 20
13968.58996086405
 30
0.0
 40
829.8031770000001
100
AcDbArc
 50
182.5993739999476
 51
192.6359129998746
  0
ARC
  5
EE42
330
1F
100
AcDbEntity
  8
電気錠制御盤　（株）アート
  6
Continuous
 62
     7
370
    13
100
AcDbCircle
 10
18464.41662224634
 20
12822.1676368501
 30
0.0
 40
1694.032306203846
100
AcDbArc
 50
137.8497060001107
 51
138.5359069998773
  0
ARC
  5
EE43
330
1F
100
AcDbEntity
  8
電気錠制御盤　（株）アート
  6
Continuous
 62
     7
370
    13
100
AcDbCircle
 10
18019.34320582992
 20
15001.23391446408
 30
0.0
 40
829.8031770000001
100
AcDbArc
 50
167.3640870001251
 51
177.4068009999769
  0
ARC
  5
EE44
330
1F
100
AcDbEntity
  8
電気錠制御盤　（株）アート
  6
Continuous
 62
     7
370
    13
100
AcDbCircle
 10
17353.5856628981
 20
15150.48673949624
 30
0.0
 40
147.5205648
100
AcDbArc
 50
132.4163990001646
 51
167.3640870001251
  0
ARC
  5
EE45
330
1F
100
AcDbEntity
  8
電気錠制御盤　（株）アート
  6
Continuous
 62
     7
370
    13
100
AcDbCircle
 10
17208.81875384081
 20
15038.11405566405
 30
0.0
 40
18.4400706
100
AcDbArc
 50
177.9354029999073
 51
190.9198790000458
  0
ARC
  5
EE46
330
1F
100
AcDbEntity
  8
電気錠制御盤　（株）アート
  6
Continuous
 62
     7
370
    13
100
AcDbCircle
 10
17208.81875384081
 20
13931.70981966408
 30
0.0
 40
18.4400706
100
AcDbArc
 50
138.73405100008
 51
182.3468029998969
  0
ARC
  5
EE47
330
1F
100
AcDbEntity
  8
電気錠制御盤　（株）アート
  6
Continuous
 62
     7
370
    13
100
AcDbCircle
 10
19018.60214921141
 20
12326.08916955477
 30
0.0
 40
2437.806284230843
100
AcDbArc
 50
137.9477190000492
 51
138.4232640000703
  0
ARC
  5
EE48
330
1F
100
AcDbEntity
  8
電気錠制御盤　（株）アート
  6
Continuous
 62
     7
370
    13
100
AcDbCircle
 10
17436.22778970325
 20
14719.48826016737
 30
0.0
 40
368.801412
100
AcDbArc
 50
133.9388890000272
 51
143.7434210000441
  0
ARC
  5
EE49
330
1F
100
AcDbEntity
  8
電気錠制御盤　（株）アート
  6
Continuous
 62
     7
370
    13
100
AcDbCircle
 10
17241.37746449567
 20
14184.33878688404
 30
0.0
 40
224.96886132
100
AcDbArc
 50
254.2521429999987
 51
261.6529800000356
  0
ARC
  5
EE4A
330
1F
100
AcDbEntity
  8
電気錠制御盤　（株）アート
  6
DOT
 62
     7
370
    13
100
AcDbCircle
 10
16619.96349693853
 20
14309.96250544937
 30
0.0
 40
567.85459809876
100
AcDbArc
 50
350.7785889999401
 51
350.8933179999957
  0
ARC
  5
EE4B
330
1F
100
AcDbEntity
  8
電気錠制御盤　（株）アート
  6
Continuous
 62
     7
370
    13
100
AcDbCircle
 10
16619.96349693853
 20
14309.96250544937
 30
0.0
 40
567.85459809876
100
AcDbArc
 50
350.8933179999957
 51
9.319386000142632
  0
ARC
  5
EE4C
330
1F
100
AcDbEntity
  8
電気錠制御盤　（株）アート
  6
Continuous
 62
     7
370
    13
100
AcDbCircle
 10
17187.69602176996
 20
14039.5842326741
 30
0.0
 40
7.376028240000001
100
AcDbArc
 50
90.0000030000889
 51
180.0000049998701
  0
ARC
  5
EE4D
330
1F
100
AcDbEntity
  8
電気錠制御盤　（株）アート
  6
Continuous
 62
     7
370
    13
100
AcDbCircle
 10
17187.69602176996
 20
14174.19674805407
 30
0.0
 40
7.376028240000001
100
AcDbArc
 50
180.0000049998701
 51
270.0000010000991
  0
ARC
  5
EE4E
330
1F
100
AcDbEntity
  8
電気錠制御盤　（株）アート
  6
Continuous
 62
     7
370
    13
100
AcDbCircle
 10
16353.67430981873
 20
14799.0667536431
 30
0.0
 40
837.3363146415121
100
AcDbArc
 50
351.4894100001364
 51
359.953913000121
  0
ARC
  5
EE4F
330
1F
100
AcDbEntity
  8
電気錠制御盤　（株）アート
  6
Continuous
 62
     7
370
    13
100
AcDbCircle
 10
16370.83851193399
 20
14798.38447103085
 30
0.0
 40
820.1719281256201
100
AcDbArc
 50
0.0006119999990735
 51
2.196198000154015
  0
ARC
  5
EE50
330
1F
100
AcDbEntity
  8
電気錠制御盤　（株）アート
  6
Continuous
 62
     7
370
    13
100
AcDbCircle
 10
16997.60802919541
 20
14789.17310256407
 30
0.0
 40
197.036948779356
100
AcDbArc
 50
21.98245499992207
 51
43.88241500005278
  0
ARC
  5
EE51
330
1F
100
AcDbEntity
  8
電気錠制御盤　（株）アート
  6
Continuous
 62
     7
370
    13
100
AcDbCircle
 10
16997.84996292177
 20
14789.25313247048
 30
0.0
 40
196.782475805076
100
AcDbArc
 50
14.63167199987972
 51
21.98721200014218
  0
ARC
  5
EE52
330
1F
100
AcDbEntity
  8
電気錠制御盤　（株）アート
  6
Continuous
 62
     7
370
    13
100
AcDbCircle
 10
17189.5400288299
 20
14217.53091396409
 30
0.0
 40
9.220035299999999
100
AcDbArc
 50
164.1640070000073
 51
180.0000049998701
  0
ARC
  5
EE53
330
1F
100
AcDbEntity
  8
電気錠制御盤　（株）アート
  6
Continuous
 62
     7
370
    13
100
AcDbCircle
 10
17189.5400288299
 20
14401.93161996408
 30
0.0
 40
9.220035299999999
100
AcDbArc
 50
180.0000049998701
 51
201.2961110001473
  0
ARC
  5
EE54
330
1F
100
AcDbEntity
  8
電気錠制御盤　（株）アート
  6
Continuous
 62
     7
370
    13
100
AcDbCircle
 10
17146.27058756766
 20
14932.14653035481
 30
0.0
 40
9.220035299999999
100
AcDbArc
 50
143.7432440000469
 51
223.8824130000322
  0
ARC
  5
EE55
330
1F
100
AcDbEntity
  8
電気錠制御盤　（株）アート
  6
Continuous
 62
     7
370
    13
100
AcDbCircle
 10
16998.25693527989
 20
14789.25645168318
 30
0.0
 40
196.388042694942
100
AcDbArc
 50
359.9756859999185
 51
14.66074199990582
  0
POLYLINE
  5
EE56
330
1F
100
AcDbEntity
  8
電気錠制御盤　（株）アート
  6
Continuous
 62
     7
370
    13
100
AcDb2dPolyline
 66
     1
 10
0.0
 20
0.0
 30
0.0
  0
VERTEX
  5
EE57
330
EE56
100
AcDbEntity
  8
電気錠制御盤　（株）アート
  6
Continuous
 62
     7
370
    13
100
AcDbVertex
100
AcDb2dVertex
 10
17181.79022035883
 20
14675.14745080332
 30
0.0
  0
VERTEX
  5
EE58
330
EE56
100
AcDbEntity
  8
電気錠制御盤　（株）アート
  6
Continuous
 62
     7
370
    13
100
AcDbVertex
100
AcDb2dVertex
 10
17180.86858563027
 20
14669.07882356889
 30
0.0
  0
VERTEX
  5
EE59
330
EE56
100
AcDbEntity
  8
電気錠制御盤　（株）アート
  6
Continuous
 62
     7
370
    13
100
AcDbVertex
100
AcDb2dVertex
 10
17180.43155595702
 20
14666.31115337252
 30
0.0
  0
VERTEX
  5
EE5A
330
EE56
100
AcDbEntity
  8
電気錠制御盤　（株）アート
  6
Continuous
 62
     7
370
    13
100
AcDbVertex
100
AcDb2dVertex
 10
17180.31999352989
 20
14665.62462954404
 30
0.0
  0
SEQEND
  5
EE5B
330
EE56
100
AcDbEntity
  8
電気錠制御盤　（株）アート
  6
Continuous
 62
     7
370
    13
  0
POLYLINE
  5
EE5C
330
1F
100
AcDbEntity
  8
電気錠制御盤　（株）アート
  6
Continuous
 62
     7
370
    13
100
AcDb2dPolyline
 66
     1
 10
0.0
 20
0.0
 30
0.0
  0
VERTEX
  5
EE5D
330
EE5C
100
AcDbEntity
  8
電気錠制御盤　（株）アート
  6
Continuous
 62
     7
370
    13
100
AcDbVertex
100
AcDb2dVertex
 10
17189.04362212932
 20
13975.45833396045
 30
0.0
  0
VERTEX
  5
EE5E
330
EE5C
100
AcDbEntity
  8
電気錠制御盤　（株）アート
  6
Continuous
 62
     7
370
    13
100
AcDbVertex
100
AcDb2dVertex
 10
17185.85348991556
 20
13972.61579707748
 30
0.0
  0
VERTEX
  5
EE5F
330
EE5C
100
AcDbEntity
  8
電気錠制御盤　（株）アート
  6
Continuous
 62
     7
370
    13
100
AcDbVertex
100
AcDb2dVertex
 10
17182.78856578116
 20
13969.93073839741
 30
0.0
  0
VERTEX
  5
EE60
330
EE5C
100
AcDbEntity
  8
電気錠制御盤　（株）アート
  6
Continuous
 62
     7
370
    13
100
AcDbVertex
100
AcDb2dVertex
 10
17180.93957990205
 20
13968.33880710253
 30
0.0
  0
VERTEX
  5
EE61
330
EE5C
100
AcDbEntity
  8
電気錠制御盤　（株）アート
  6
Continuous
 62
     7
370
    13
100
AcDbVertex
100
AcDb2dVertex
 10
17180.31999352989
 20
13967.81400269323
 30
0.0
  0
SEQEND
  5
EE62
330
EE5C
100
AcDbEntity
  8
電気錠制御盤　（株）アート
  6
Continuous
 62
     7
370
    13
  0
POLYLINE
  5
EE63
330
1F
100
AcDbEntity
  8
電気錠制御盤　（株）アート
  6
Continuous
 62
     7
370
    13
100
AcDb2dPolyline
 66
     1
 10
0.0
 20
0.0
 30
0.0
  0
VERTEX
  5
EE64
330
EE63
100
AcDbEntity
  8
電気錠制御盤　（株）アート
  6
Continuous
 62
     7
370
    13
100
AcDbVertex
100
AcDb2dVertex
 10
17194.64479357407
 20
14009.23630208342
 30
0.0
  0
VERTEX
  5
EE65
330
EE63
100
AcDbEntity
  8
電気錠制御盤　（株）アート
  6
Continuous
 62
     7
370
    13
100
AcDbVertex
100
AcDb2dVertex
 10
17194.04346287188
 20
13995.59415345284
 30
0.0
  0
VERTEX
  5
EE66
330
EE63
100
AcDbEntity
  8
電気錠制御盤　（株）アート
  6
Continuous
 62
     7
370
    13
100
AcDbVertex
100
AcDb2dVertex
 10
17192.58079647187
 20
13985.16039270594
 30
0.0
  0
VERTEX
  5
EE67
330
EE63
100
AcDbEntity
  8
電気錠制御盤　（株）アート
  6
Continuous
 62
     7
370
    13
100
AcDbVertex
100
AcDb2dVertex
 10
17191.1031936147
 20
13979.44489282347
 30
0.0
  0
VERTEX
  5
EE68
330
EE63
100
AcDbEntity
  8
電気錠制御盤　（株）アート
  6
Continuous
 62
     7
370
    13
100
AcDbVertex
100
AcDb2dVertex
 10
17190.17252325146
 20
13977.14670682455
 30
0.0
  0
VERTEX
  5
EE69
330
EE63
100
AcDbEntity
  8
電気錠制御盤　（株）アート
  6
Continuous
 62
     7
370
    13
100
AcDbVertex
100
AcDb2dVertex
 10
17189.45225409379
 20
13975.93556298758
 30
0.0
  0
VERTEX
  5
EE6A
330
EE63
100
AcDbEntity
  8
電気錠制御盤　（株）アート
  6
Continuous
 62
     7
370
    13
100
AcDbVertex
100
AcDb2dVertex
 10
17189.04362212932
 20
13975.45833396045
 30
0.0
  0
SEQEND
  5
EE6B
330
EE63
100
AcDbEntity
  8
電気錠制御盤　（株）アート
  6
Continuous
 62
     7
370
    13
  0
POLYLINE
  5
EE6C
330
1F
100
AcDbEntity
  8
電気錠制御盤　（株）アート
  6
Continuous
 62
     7
370
    13
100
AcDb2dPolyline
 66
     1
 10
0.0
 20
0.0
 30
0.0
  0
VERTEX
  5
EE6D
330
EE6C
100
AcDbEntity
  8
電気錠制御盤　（株）アート
  6
Continuous
 62
     7
370
    13
100
AcDbVertex
100
AcDb2dVertex
 10
17209.60725125968
 20
13965.55527844542
 30
0.0
  0
VERTEX
  5
EE6E
330
EE6C
100
AcDbEntity
  8
電気錠制御盤　（株）アート
  6
Continuous
 62
     7
370
    13
100
AcDbVertex
100
AcDb2dVertex
 10
17208.68432572608
 20
13961.71808415431
 30
0.0
  0
VERTEX
  5
EE6F
330
EE6C
100
AcDbEntity
  8
電気錠制御盤　（株）アート
  6
Continuous
 62
     7
370
    13
100
AcDbVertex
100
AcDb2dVertex
 10
17207.44552178327
 20
13957.87185422856
 30
0.0
  0
SEQEND
  5
EE70
330
EE6C
100
AcDbEntity
  8
電気錠制御盤　（株）アート
  6
Continuous
 62
     7
370
    13
  0
LINE
  5
EE71
330
1F
100
AcDbEntity
  8
電気錠制御盤　（株）アート
  6
Continuous
 62
     7
370
    13
100
AcDbLine
 10
6221.877112619917
 20
19094.92958766409
 30
0.0
 11
13597.90535261993
 21
19094.92958766409
 31
0.0
  0
LINE
  5
EE72
330
1F
100
AcDbEntity
  8
電気錠制御盤　（株）アート
  6
Continuous
 62
     7
370
    13
100
AcDbLine
 10
13597.90535261993
 20
19094.92958766409
 30
0.0
 11
13597.90535261993
 21
9874.894287664073
 31
0.0
  0
LINE
  5
EE73
330
1F
100
AcDbEntity
  8
電気錠制御盤　（株）アート
  6
Continuous
 62
     7
370
    13
100
AcDbLine
 10
13597.90535261993
 20
9874.894287664073
 30
0.0
 11
6221.877112619917
 21
9874.894287664073
 31
0.0
  0
LINE
  5
EE74
330
1F
100
AcDbEntity
  8
電気錠制御盤　（株）アート
  6
Continuous
 62
     7
370
    13
100
AcDbLine
 10
6221.877112619917
 20
9874.894287664073
 30
0.0
 11
6221.877112619917
 21
19094.92958766409
 31
0.0
  0
ARC
  5
EE75
330
1F
100
AcDbEntity
  8
電気錠制御盤　（株）アート
  6
Continuous
 62
     7
370
    13
100
AcDbCircle
 10
6221.877112619917
 20
9874.894287664073
 30
0.0
 40
4.610017649999999
100
AcDbArc
 50
0.0
 51
180.0
  0
ARC
  5
EE76
330
1F
100
AcDbEntity
  8
電気錠制御盤　（株）アート
  6
Continuous
 62
     7
370
    13
100
AcDbCircle
 10
6221.877112619917
 20
9874.894287664073
 30
0.0
 40
4.610017649999999
100
AcDbArc
 50
180.0
 51
0.0
  0
LINE
  5
EE77
330
1F
100
AcDbEntity
  8
電気錠制御盤　（株）アート
  6
Continuous
 62
     7
370
    13
100
AcDbLine
 10
6590.678524620006
 20
18726.12817566406
 30
0.0
 11
13229.10394061996
 21
18726.12817566406
 31
0.0
  0
LINE
  5
EE78
330
1F
100
AcDbEntity
  8
電気錠制御盤　（株）アート
  6
Continuous
 62
     7
370
    13
100
AcDbLine
 10
13229.10394061996
 20
18726.12817566406
 30
0.0
 11
13229.10394061996
 21
10243.69569966407
 31
0.0
  0
LINE
  5
EE79
330
1F
100
AcDbEntity
  8
電気錠制御盤　（株）アート
  6
Continuous
 62
     7
370
    13
100
AcDbLine
 10
13229.10394061996
 20
10243.69569966407
 30
0.0
 11
6590.678524620006
 21
10243.69569966407
 31
0.0
  0
LINE
  5
EE7A
330
1F
100
AcDbEntity
  8
電気錠制御盤　（株）アート
  6
Continuous
 62
     7
370
    13
100
AcDbLine
 10
6590.678524620006
 20
10243.69569966407
 30
0.0
 11
6590.678524620006
 21
18726.12817566406
 31
0.0
  0
ARC
  5
EE7B
330
1F
100
AcDbEntity
  8
電気錠制御盤　（株）アート
  6
Continuous
 62
     7
370
    13
100
AcDbCircle
 10
6645.998736419937
 20
10299.01591146406
 30
0.0
 40
4.610017649999999
100
AcDbArc
 50
0.0
 51
180.0
  0
ARC
  5
EE7C
330
1F
100
AcDbEntity
  8
電気錠制御盤　（株）アート
  6
Continuous
 62
     7
370
    13
100
AcDbCircle
 10
6645.998736419937
 20
10299.01591146406
 30
0.0
 40
4.610017649999999
100
AcDbArc
 50
180.0
 51
0.0
  0
LINE
  5
EE7D
330
1F
100
AcDbEntity
  8
電気錠制御盤　（株）アート
  6
Continuous
 62
     7
370
    13
100
AcDbLine
 10
6931.819830719952
 20
15001.23391446408
 30
0.0
 11
6931.819830719952
 21
13968.58996086405
 31
0.0
  0
LINE
  5
EE7E
330
1F
100
AcDbEntity
  8
電気錠制御盤　（株）アート
  6
Continuous
 62
     7
370
    13
100
AcDbLine
 10
7448.141807519935
 20
13824.33199775534
 30
0.0
 11
7448.141807519935
 21
13968.58996086405
 31
0.0
  0
LINE
  5
EE7F
330
1F
100
AcDbEntity
  8
電気錠制御盤　（株）アート
  6
Continuous
 62
     7
370
    13
100
AcDbLine
 10
6931.819830719952
 20
13968.58996086405
 30
0.0
 11
6931.819830719952
 21
13824.33199775534
 31
0.0
  0
LINE
  5
EE80
330
1F
100
AcDbEntity
  8
電気錠制御盤　（株）アート
  6
Continuous
 62
     7
370
    13
100
AcDbLine
 10
7159.554702629906
 20
14253.50915131101
 30
0.0
 11
7201.96686500985
 21
14253.50915131101
 31
0.0
  0
LINE
  5
EE81
330
1F
100
AcDbEntity
  8
電気錠制御盤　（株）アート
  6
Continuous
 62
     7
370
    13
100
AcDbLine
 10
7159.554702629906
 20
14383.91751499492
 30
0.0
 11
7159.554702629906
 21
14253.50915131101
 31
0.0
  0
LINE
  5
EE82
330
1F
100
AcDbEntity
  8
電気錠制御盤　（株）アート
  6
Continuous
 62
     7
370
    13
100
AcDbLine
 10
7201.96686500985
 20
14253.50915131101
 30
0.0
 11
7201.96686500985
 21
14383.91751499492
 31
0.0
  0
LINE
  5
EE83
330
1F
100
AcDbEntity
  8
電気錠制御盤　（株）アート
  6
Continuous
 62
     7
370
    13
100
AcDbLine
 10
7201.96686500985
 20
14383.91751499492
 30
0.0
 11
7159.554702629906
 21
14383.91751499492
 31
0.0
  0
LINE
  5
EE84
330
1F
100
AcDbEntity
  8
電気錠制御盤　（株）アート
  6
Continuous
 62
     7
370
    13
100
AcDbLine
 10
7057.21231079997
 20
14798.39313786408
 30
0.0
 11
7060.984042840418
 21
14829.81464936509
 31
0.0
  0
LINE
  5
EE85
330
1F
100
AcDbEntity
  8
電気錠制御盤　（株）アート
  6
Continuous
 62
     7
370
    13
100
AcDbLine
 10
7359.629468639953
 20
14009.118654433
 30
0.0
 11
7359.629468639953
 21
14008.9431049609
 31
0.0
  0
LINE
  5
EE86
330
1F
100
AcDbEntity
  8
電気錠制御盤　（株）アート
  6
Continuous
 62
     7
370
    13
100
AcDbLine
 10
7334.095134078748
 20
14862.92840614502
 30
0.0
 11
7340.34687121421
 21
14838.96129318403
 31
0.0
  0
LINE
  5
EE87
330
1F
100
AcDbEntity
  8
電気錠制御盤　（株）アート
  6
Continuous
 62
     7
370
    13
100
AcDbLine
 10
7045.866504161143
 20
14862.92840614502
 30
0.0
 11
7039.614767025679
 21
14838.96129318403
 31
0.0
  0
LINE
  5
EE88
330
1F
100
AcDbEntity
  8
電気錠制御盤　（株）アート
  6
Continuous
 62
     7
370
    13
100
AcDbLine
 10
7329.73719219385
 20
13972.73104751873
 30
0.0
 11
7328.557212076138
 21
13972.50423465035
 31
0.0
  0
LINE
  5
EE89
330
1F
100
AcDbEntity
  8
電気錠制御盤　（株）アート
  6
Continuous
 62
     7
370
    13
100
AcDbLine
 10
7051.404426163751
 20
13972.50423465035
 30
0.0
 11
7050.224446046037
 21
13972.73104751873
 31
0.0
  0
LINE
  5
EE8A
330
1F
100
AcDbEntity
  8
電気錠制御盤　（株）アート
  6
Continuous
 62
     7
370
    13
100
AcDbLine
 10
7020.332169599936
 20
14008.9431049609
 30
0.0
 11
7020.332169599936
 21
14009.118654433
 31
0.0
  0
LINE
  5
EE8B
330
1F
100
AcDbEntity
  8
電気錠制御盤　（株）アート
  6
Continuous
 62
     7
370
    13
100
AcDbLine
 10
7199.200854419952
 20
14392.71158466407
 30
0.0
 11
7189.980819119945
 21
14392.71158466407
 31
0.0
  0
LINE
  5
EE8C
330
1F
100
AcDbEntity
  8
電気錠制御盤　（株）アート
  6
Continuous
 62
     7
370
    13
100
AcDbLine
 10
7227.482206298493
 20
14925.75520188484
 30
0.0
 11
7212.43492428806
 21
14929.24904206145
 31
0.0
  0
LINE
  5
EE8D
330
1F
100
AcDbEntity
  8
電気錠制御盤　（株）アート
  6
Continuous
 62
     7
370
    13
100
AcDbLine
 10
7152.479431941397
 20
14925.75520188484
 30
0.0
 11
7167.526713951713
 21
14929.24904206145
 31
0.0
  0
LINE
  5
EE8E
330
1F
100
AcDbEntity
  8
電気錠制御盤　（株）アート
  6
Continuous
 62
     7
370
    13
100
AcDbLine
 10
7212.43492428806
 20
14929.24904206145
 30
0.0
 11
7167.526713951713
 21
14929.24904206145
 31
0.0
  0
LINE
  5
EE8F
330
1F
100
AcDbEntity
  8
電気錠制御盤　（株）アート
  6
Continuous
 62
     7
370
    13
100
AcDbLine
 10
7340.34687121421
 20
14838.96129318403
 30
0.0
 11
7343.50104529037
 21
14789.17310256407
 31
0.0
  0
LINE
  5
EE90
330
1F
100
AcDbEntity
  8
電気錠制御盤　（株）アート
  6
Continuous
 62
     7
370
    13
100
AcDbLine
 10
7359.629468639953
 20
14009.118654433
 30
0.0
 11
7359.629468639953
 21
14838.96129318403
 31
0.0
  0
LINE
  5
EE91
330
1F
100
AcDbEntity
  8
電気錠制御盤　（株）アート
  6
Continuous
 62
     7
370
    13
100
AcDbLine
 10
7020.332169599936
 20
14838.96129318403
 30
0.0
 11
7020.332169599936
 21
14009.118654433
 31
0.0
  0
LINE
  5
EE92
330
1F
100
AcDbEntity
  8
電気錠制御盤　（株）アート
  6
Continuous
 62
     7
370
    13
100
AcDbLine
 10
7343.50104529037
 20
14009.23630208342
 30
0.0
 11
7343.50104529037
 21
14789.17310256407
 31
0.0
  0
LINE
  5
EE93
330
1F
100
AcDbEntity
  8
電気錠制御盤　（株）アート
  6
Continuous
 62
     7
370
    13
100
AcDbLine
 10
7197.356847359903
 20
14166.82071981405
 30
0.0
 11
7182.60479087987
 21
14166.82071981405
 31
0.0
  0
LINE
  5
EE94
330
1F
100
AcDbEntity
  8
電気錠制御盤　（株）アート
  6
Continuous
 62
     7
370
    13
100
AcDbLine
 10
7300.621242719926
 20
14039.5842326741
 30
0.0
 11
7300.621242719926
 21
14174.19674805407
 31
0.0
  0
LINE
  5
EE95
330
1F
100
AcDbEntity
  8
電気錠制御盤　（株）アート
  6
Continuous
 62
     7
370
    13
100
AcDbLine
 10
7182.60479087987
 20
14046.96026091406
 30
0.0
 11
7197.356847359903
 21
14046.96026091406
 31
0.0
  0
LINE
  5
EE96
330
1F
100
AcDbEntity
  8
電気錠制御盤　（株）アート
  6
Continuous
 62
     7
370
    13
100
AcDbLine
 10
7036.46059294952
 20
14789.17310256407
 30
0.0
 11
7036.46059294952
 21
14009.23630208342
 31
0.0
  0
LINE
  5
EE97
330
1F
100
AcDbEntity
  8
電気錠制御盤　（株）アート
  6
Continuous
 62
     7
370
    13
100
AcDbLine
 10
7039.614767025679
 20
14838.96129318403
 30
0.0
 11
7036.46059294952
 21
14789.17310256407
 31
0.0
  0
LINE
  5
EE98
330
1F
100
AcDbEntity
  8
電気錠制御盤　（株）アート
  6
Continuous
 62
     7
370
    13
100
AcDbLine
 10
7151.256670859864
 20
14824.20923670405
 30
0.0
 11
7151.256670859864
 21
14785.48508844403
 31
0.0
  0
LINE
  5
EE99
330
1F
100
AcDbEntity
  8
電気錠制御盤　（株）アート
  6
Continuous
 62
     7
370
    13
100
AcDbLine
 10
7156.788692040009
 20
14824.20923670405
 30
0.0
 11
7151.256670859864
 21
14824.20923670405
 31
0.0
  0
LINE
  5
EE9A
330
1F
100
AcDbEntity
  8
電気錠制御盤　（株）アート
  6
Continuous
 62
     7
370
    13
100
AcDbLine
 10
7184.448797939918
 20
14785.48508844403
 30
0.0
 11
7184.448797939918
 21
14824.20923670405
 31
0.0
  0
LINE
  5
EE9B
330
1F
100
AcDbEntity
  8
電気錠制御盤　（株）アート
  6
Continuous
 62
     7
370
    13
100
AcDbLine
 10
7156.788692040009
 20
14785.48508844403
 30
0.0
 11
7156.788692040009
 21
14824.20923670405
 31
0.0
  0
LINE
  5
EE9C
330
1F
100
AcDbEntity
  8
電気錠制御盤　（株）アート
  6
Continuous
 62
     7
370
    13
100
AcDbLine
 10
7178.91677675989
 20
14824.20923670405
 30
0.0
 11
7178.91677675989
 21
14785.48508844403
 31
0.0
  0
LINE
  5
EE9D
330
1F
100
AcDbEntity
  8
電気錠制御盤　（株）アート
  6
Continuous
 62
     7
370
    13
100
AcDbLine
 10
7184.448797939918
 20
14824.20923670405
 30
0.0
 11
7178.91677675989
 21
14824.20923670405
 31
0.0
  0
LINE
  5
EE9E
330
1F
100
AcDbEntity
  8
電気錠制御盤　（株）アート
  6
Continuous
 62
     7
370
    13
100
AcDbLine
 10
7245.301030919993
 20
14802.08115198406
 30
0.0
 11
7245.301030919993
 21
14824.20923670405
 31
0.0
  0
LINE
  5
EE9F
330
1F
100
AcDbEntity
  8
電気錠制御盤　（株）アート
  6
Continuous
 62
     7
370
    13
100
AcDbLine
 10
7267.429115639989
 20
14802.08115198406
 30
0.0
 11
7245.301030919993
 21
14802.08115198406
 31
0.0
  0
LINE
  5
EEA0
330
1F
100
AcDbEntity
  8
電気錠制御盤　（株）アート
  6
Continuous
 62
     7
370
    13
100
AcDbLine
 10
7239.769009739963
 20
14824.20923670405
 30
0.0
 11
7239.769009739963
 21
14768.88902490406
 31
0.0
  0
LINE
  5
EEA1
330
1F
100
AcDbEntity
  8
電気錠制御盤　（株）アート
  6
Continuous
 62
     7
370
    13
100
AcDbLine
 10
7245.301030919993
 20
14824.20923670405
 30
0.0
 11
7239.769009739963
 21
14824.20923670405
 31
0.0
  0
LINE
  5
EEA2
330
1F
100
AcDbEntity
  8
電気錠制御盤　（株）アート
  6
Continuous
 62
     7
370
    13
100
AcDbLine
 10
7267.429115639989
 20
14796.54913080409
 30
0.0
 11
7267.429115639989
 21
14768.88902490406
 31
0.0
  0
LINE
  5
EEA3
330
1F
100
AcDbEntity
  8
電気錠制御盤　（株）アート
  6
Continuous
 62
     7
370
    13
100
AcDbLine
 10
7245.301030919993
 20
14796.54913080409
 30
0.0
 11
7267.429115639989
 21
14796.54913080409
 31
0.0
  0
LINE
  5
EEA4
330
1F
100
AcDbEntity
  8
電気錠制御盤　（株）アート
  6
Continuous
 62
     7
370
    13
100
AcDbLine
 10
7245.301030919993
 20
14768.88902490406
 30
0.0
 11
7245.301030919993
 21
14796.54913080409
 31
0.0
  0
LINE
  5
EEA5
330
1F
100
AcDbEntity
  8
電気錠制御盤　（株）アート
  6
Continuous
 62
     7
370
    13
100
AcDbLine
 10
7239.769009739963
 20
14768.88902490406
 30
0.0
 11
7245.301030919993
 21
14768.88902490406
 31
0.0
  0
LINE
  5
EEA6
330
1F
100
AcDbEntity
  8
電気錠制御盤　（株）アート
  6
Continuous
 62
     7
370
    13
100
AcDbLine
 10
7267.429115639989
 20
14824.20923670405
 30
0.0
 11
7267.429115639989
 21
14802.08115198406
 31
0.0
  0
LINE
  5
EEA7
330
1F
100
AcDbEntity
  8
電気錠制御盤　（株）アート
  6
Continuous
 62
     7
370
    13
100
AcDbLine
 10
7272.9611368199
 20
14824.20923670405
 30
0.0
 11
7267.429115639989
 21
14824.20923670405
 31
0.0
  0
LINE
  5
EEA8
330
1F
100
AcDbEntity
  8
電気錠制御盤　（株）アート
  6
Continuous
 62
     7
370
    13
100
AcDbLine
 10
7272.9611368199
 20
14768.88902490406
 30
0.0
 11
7272.9611368199
 21
14824.20923670405
 31
0.0
  0
LINE
  5
EEA9
330
1F
100
AcDbEntity
  8
電気錠制御盤　（株）アート
  6
Continuous
 62
     7
370
    13
100
AcDbLine
 10
7267.429115639989
 20
14768.88902490406
 30
0.0
 11
7272.9611368199
 21
14768.88902490406
 31
0.0
  0
LINE
  5
EEAA
330
1F
100
AcDbEntity
  8
電気錠制御盤　（株）アート
  6
Continuous
 62
     7
370
    13
100
AcDbLine
 10
7112.532522599899
 20
14796.54913080409
 30
0.0
 11
7112.532522599899
 21
14818.67721552408
 31
0.0
  0
LINE
  5
EEAB
330
1F
100
AcDbEntity
  8
電気錠制御盤　（株）アート
  6
Continuous
 62
     7
370
    13
100
AcDbLine
 10
7123.596564959957
 20
14796.54913080409
 30
0.0
 11
7112.532522599899
 21
14796.54913080409
 31
0.0
  0
LINE
  5
EEAC
330
1F
100
AcDbEntity
  8
電気錠制御盤　（株）アート
  6
Continuous
 62
     7
370
    13
100
AcDbLine
 10
7112.532522599899
 20
14818.67721552408
 30
0.0
 11
7123.596564959957
 21
14818.67721552408
 31
0.0
  0
LINE
  5
EEAD
330
1F
100
AcDbEntity
  8
電気錠制御盤　（株）アート
  6
Continuous
 62
     7
370
    13
100
AcDbLine
 10
7112.532522599899
 20
14791.01710962406
 30
0.0
 11
7112.532522599899
 21
14768.88902490406
 31
0.0
  0
LINE
  5
EEAE
330
1F
100
AcDbEntity
  8
電気錠制御盤　（株）アート
  6
Continuous
 62
     7
370
    13
100
AcDbLine
 10
7195.512840299973
 20
14774.42104608403
 30
0.0
 11
7198.832053007895
 21
14778.84666302807
 31
0.0
  0
LINE
  5
EEAF
330
1F
100
AcDbEntity
  8
電気錠制御盤　（株）アート
  6
Continuous
 62
     7
370
    13
100
AcDbLine
 10
7218.644618062757
 20
14790.11151775689
 30
0.0
 11
7203.060176795803
 21
14798.05863498338
 31
0.0
  0
LINE
  5
EEB0
330
1F
100
AcDbEntity
  8
電気錠制御盤　（株）アート
  6
Continuous
 62
     7
370
    13
100
AcDbLine
 10
7228.704967379909
 20
14818.67721552408
 30
0.0
 11
7225.385754671868
 21
14814.25159858011
 31
0.0
  0
LINE
  5
EEB1
330
1F
100
AcDbEntity
  8
電気錠制御盤　（株）アート
  6
Continuous
 62
     7
370
    13
100
AcDbLine
 10
7205.573189617124
 20
14802.98674385122
 30
0.0
 11
7221.157630884078
 21
14795.03962662473
 31
0.0
  0
LINE
  5
EEB2
330
1F
100
AcDbEntity
  8
電気錠制御盤　（株）アート
  6
Continuous
 62
     7
370
    13
100
AcDbLine
 10
7112.532522599899
 20
14768.88902490406
 30
0.0
 11
7107.000501419989
 21
14768.88902490406
 31
0.0
  0
LINE
  5
EEB3
330
1F
100
AcDbEntity
  8
電気錠制御盤　（株）アート
  6
Continuous
 62
     7
370
    13
100
AcDbLine
 10
7107.000501419989
 20
14768.88902490406
 30
0.0
 11
7107.000501419989
 21
14824.20923670405
 31
0.0
  0
LINE
  5
EEB4
330
1F
100
AcDbEntity
  8
電気錠制御盤　（株）アート
  6
Continuous
 62
     7
370
    13
100
AcDbLine
 10
7107.000501419989
 20
14824.20923670405
 30
0.0
 11
7123.596564959957
 21
14824.20923670405
 31
0.0
  0
LINE
  5
EEB5
330
1F
100
AcDbEntity
  8
電気錠制御盤　（株）アート
  6
Continuous
 62
     7
370
    13
100
AcDbLine
 10
7079.340395519965
 20
14039.5842326741
 30
0.0
 11
7079.340395519965
 21
14174.19674805407
 31
0.0
  0
LINE
  5
EEB6
330
1F
100
AcDbEntity
  8
電気錠制御盤　（株）アート
  6
Continuous
 62
     7
370
    13
100
AcDbLine
 10
7123.596564959957
 20
14791.01710962406
 30
0.0
 11
7112.532522599899
 21
14791.01710962406
 31
0.0
  0
LINE
  5
EEB7
330
1F
100
AcDbEntity
  8
電気錠制御盤　（株）アート
  6
Continuous
 62
     7
370
    13
100
AcDbLine
 10
7189.980819119945
 20
14226.75094926404
 30
0.0
 11
7199.200854419952
 21
14226.75094926404
 31
0.0
  0
ARC
  5
EEB8
330
1F
100
AcDbEntity
  8
電気錠制御盤　（株）アート
  6
Continuous
 62
     7
370
    13
100
AcDbCircle
 10
7088.911345363467
 20
14785.2435235192
 30
0.0
 40
52.597719776616
100
AcDbArc
 50
122.0703429999447
 51
175.7153859998862
  0
ARC
  5
EEB9
330
1F
100
AcDbEntity
  8
電気錠制御盤　（株）アート
  6
Continuous
 62
     7
370
    13
100
AcDbCircle
 10
7075.342219412431
 20
14017.4967161094
 30
0.0
 40
42.392062703046
100
AcDbArc
 50
225.838186999886
 51
263.6746409999507
  0
ARC
  5
EEBA
330
1F
100
AcDbEntity
  8
電気錠制御盤　（株）アート
  6
Continuous
 62
     7
370
    13
100
AcDbCircle
 10
7068.00841893406
 20
14009.50183910004
 30
0.0
 40
31.54893238883401
100
AcDbArc
 50
179.9999950001297
 51
225.2770589998668
  0
ARC
  5
EEBB
330
1F
100
AcDbEntity
  8
電気錠制御盤　（株）アート
  6
Continuous
 62
     7
370
    13
100
AcDbCircle
 10
7304.619418827458
 20
14017.4967161094
 30
0.0
 40
42.392062703046
100
AcDbArc
 50
276.3253609999156
 51
314.1618180001148
  0
ARC
  5
EEBC
330
1F
100
AcDbEntity
  8
電気錠制御盤　（株）アート
  6
Continuous
 62
     7
370
    13
100
AcDbCircle
 10
7311.953219305713
 20
14009.50183910004
 30
0.0
 40
31.54893238883401
100
AcDbArc
 50
314.7229389998814
 51
0.0
  0
ARC
  5
EEBD
330
1F
100
AcDbEntity
  8
電気錠制御盤　（株）アート
  6
Continuous
 62
     7
370
    13
100
AcDbCircle
 10
7189.8688878914
 20
14448.88741573989
 30
0.0
 40
738.45844327584
100
AcDbArc
 50
270.0086789999739
 51
284.8919140000992
  0
ARC
  5
EEBE
330
1F
100
AcDbEntity
  8
電気錠制御盤　（株）アート
  6
Continuous
 62
     7
370
    13
100
AcDbCircle
 10
7024.020552521328
 20
13824.33218215604
 30
0.0
 40
92.20072180141199
100
AcDbArc
 50
180.0000909998475
 51
255.0992019999998
  0
ARC
  5
EEBF
330
1F
100
AcDbEntity
  8
電気錠制御盤　（株）アート
  6
Continuous
 62
     7
370
    13
100
AcDbCircle
 10
7355.941454519971
 20
13824.33199775534
 30
0.0
 40
92.20035300000001
100
AcDbArc
 50
284.9005950000055
 51
0.0
  0
ARC
  5
EEC0
330
1F
100
AcDbEntity
  8
電気錠制御盤　（株）アート
  6
Continuous
 62
     7
370
    13
100
AcDbCircle
 10
7190.092934749195
 20
14448.89368536394
 30
0.0
 40
738.464712899844
100
AcDbArc
 50
255.1081909999542
 51
269.9912960000494
  0
ARC
  5
EEC1
330
1F
100
AcDbEntity
  8
電気錠制御盤　（株）アート
  6
Continuous
 62
     7
370
    13
100
AcDbCircle
 10
7057.21231079997
 20
14008.9431049609
 30
0.0
 40
36.8801412
100
AcDbArc
 50
180.0000049998701
 51
259.0779269999445
  0
ARC
  5
EEC2
330
1F
100
AcDbEntity
  8
電気錠制御盤　（株）アート
  6
Continuous
 62
     7
370
    13
100
AcDbCircle
 10
7322.749327439921
 20
14008.9431049609
 30
0.0
 40
36.8801412
100
AcDbArc
 50
280.9220710001069
 51
0.0
  0
ARC
  5
EEC3
330
1F
100
AcDbEntity
  8
電気錠制御盤　（株）アート
  6
Continuous
 62
     7
370
    13
100
AcDbCircle
 10
7189.980819119945
 20
14696.97274956405
 30
0.0
 40
737.6028240000001
100
AcDbArc
 50
259.1712650000953
 51
280.8287300000327
  0
ARC
  5
EEC4
330
1F
100
AcDbEntity
  8
電気錠制御盤　（株）アート
  6
Continuous
 62
     7
370
    13
100
AcDbCircle
 10
7189.981372322062
 20
14838.98010205612
 30
0.0
 40
169.629840647988
100
AcDbArc
 50
87.14238100003475
 51
90.00016000001609
  0
ARC
  5
EEC5
330
1F
100
AcDbEntity
  8
電気錠制御盤　（株）アート
  6
Continuous
 62
     7
370
    13
100
AcDbCircle
 10
7189.980265917829
 20
14838.98010205612
 30
0.0
 40
169.629840647988
100
AcDbArc
 50
89.99983900009324
 51
92.85761699998984
  0
ARC
  5
EEC6
330
1F
100
AcDbEntity
  8
電気錠制御盤　（株）アート
  6
Continuous
 62
     7
370
    13
100
AcDbCircle
 10
7189.980819119945
 20
14798.39313786408
 30
0.0
 40
132.76850832
100
AcDbArc
 50
291.8324650000248
 51
0.0
  0
ARC
  5
EEC7
330
1F
100
AcDbEntity
  8
電気錠制御盤　（株）アート
  6
Continuous
 62
     7
370
    13
100
AcDbCircle
 10
7189.980819119945
 20
14798.39313786408
 30
0.0
 40
132.76850832
100
AcDbArc
 50
180.0000049998701
 51
248.1675469999568
  0
ARC
  5
EEC8
330
1F
100
AcDbEntity
  8
電気錠制御盤　（株）アート
  6
Continuous
 62
     7
370
    13
100
AcDbCircle
 10
7189.980819119945
 20
14798.39313786408
 30
0.0
 40
132.76850832
100
AcDbArc
 50
0.0
 51
13.68970400001122
  0
ARC
  5
EEC9
330
1F
100
AcDbEntity
  8
電気錠制御盤　（株）アート
  6
Continuous
 62
     7
370
    13
100
AcDbCircle
 10
7189.980819119945
 20
14798.39313786408
 30
0.0
 40
132.76850832
100
AcDbArc
 50
248.167536999975
 51
291.8324650000248
  0
ARC
  5
EECA
330
1F
100
AcDbEntity
  8
電気錠制御盤　（株）アート
  6
Continuous
 62
     7
370
    13
100
AcDbCircle
 10
7189.980819119945
 20
14798.39313786408
 30
0.0
 40
132.76850832
100
AcDbArc
 50
13.68970400001122
 51
73.59307499997933
  0
ARC
  5
EECB
330
1F
100
AcDbEntity
  8
電気錠制御盤　（株）アート
  6
Continuous
 62
     7
370
    13
100
AcDbCircle
 10
7189.980819119945
 20
14798.39313786408
 30
0.0
 40
132.76850832
100
AcDbArc
 50
106.4069300000883
 51
166.3102980000567
  0
ARC
  5
EECC
330
1F
100
AcDbEntity
  8
電気錠制御盤　（株）アート
  6
Continuous
 62
     7
370
    13
100
AcDbCircle
 10
7291.050292876422
 20
14785.2435235192
 30
0.0
 40
52.597719776616
100
AcDbArc
 50
4.284619999975274
 51
57.92966200010774
  0
ARC
  5
EECD
330
1F
100
AcDbEntity
  8
電気錠制御盤　（株）アート
  6
Continuous
 62
     7
370
    13
100
AcDbCircle
 10
7214.005833902618
 20
14784.56677292818
 30
0.0
 40
143.394414602544
100
AcDbArc
 50
33.12561499989397
 51
79.93694799999464
  0
ARC
  5
EECE
330
1F
100
AcDbEntity
  8
電気錠制御盤　（株）アート
  6
Continuous
 62
     7
370
    13
100
AcDbCircle
 10
7163.277199681956
 20
14788.6184252404
 30
0.0
 40
138.95054198865
100
AcDbArc
 50
99.26747000005079
 51
147.6699599999534
  0
ARC
  5
EECF
330
1F
100
AcDbEntity
  8
電気錠制御盤　（株）アート
  6
Continuous
 62
     7
370
    13
100
AcDbCircle
 10
7199.200854419952
 20
14309.73126696406
 30
0.0
 40
82.98031770000001
100
AcDbArc
 50
269.9999969999111
 51
90.0000030000889
  0
ARC
  5
EED0
330
1F
100
AcDbEntity
  8
電気錠制御盤　（株）アート
  6
Continuous
 62
     7
370
    13
100
AcDbCircle
 10
6942.985293468217
 20
13806.44586687611
 30
0.0
 40
1157.8059327975
100
AcDbArc
 50
75.18364200008271
 51
77.6823849999691
  0
ARC
  5
EED1
330
1F
100
AcDbEntity
  8
電気錠制御盤　（株）アート
  6
Continuous
 62
     7
370
    13
100
AcDbCircle
 10
7436.976344771672
 20
13806.44586687611
 30
0.0
 40
1157.8059327975
100
AcDbArc
 50
102.3176130001074
 51
104.8163629998947
  0
ARC
  5
EED2
330
1F
100
AcDbEntity
  8
電気錠制御盤　（株）アート
  6
Continuous
 62
     7
370
    13
100
AcDbCircle
 10
7189.980819119945
 20
14913.04280161392
 30
0.0
 40
945.23986296306
100
AcDbArc
 50
262.7487269999797
 51
277.2512749999553
  0
ARC
  5
EED3
330
1F
100
AcDbEntity
  8
電気錠制御盤　（株）アート
  6
Continuous
 62
     7
370
    13
100
AcDbCircle
 10
7189.980819119945
 20
14838.96129318403
 30
0.0
 40
169.64864952
100
AcDbArc
 50
0.0
 51
87.14253800007256
  0
ARC
  5
EED4
330
1F
100
AcDbEntity
  8
電気錠制御盤　（株）アート
  6
Continuous
 62
     7
370
    13
100
AcDbCircle
 10
7189.980819119945
 20
14838.96129318403
 30
0.0
 40
169.64864952
100
AcDbArc
 50
92.85745999994576
 51
180.0000049998701
  0
ARC
  5
EED5
330
1F
100
AcDbEntity
  8
電気錠制御盤　（株）アート
  6
Continuous
 62
     7
370
    13
100
AcDbCircle
 10
7189.980819119945
 20
14838.96129318403
 30
0.0
 40
146.093672136972
100
AcDbArc
 50
9.442264999987871
 51
170.5577329999914
  0
ARC
  5
EED6
330
1F
100
AcDbEntity
  8
電気錠制御盤　（株）アート
  6
Continuous
 62
     7
370
    13
100
AcDbCircle
 10
7167.852734399947
 20
14785.48508844403
 30
0.0
 40
16.59606354
100
AcDbArc
 50
180.0000049998701
 51
0.0000099999488962
  0
ARC
  5
EED7
330
1F
100
AcDbEntity
  8
電気錠制御盤　（株）アート
  6
Continuous
 62
     7
370
    13
100
AcDbCircle
 10
7167.852734399947
 20
14785.48508844403
 30
0.0
 40
11.06404236
100
AcDbArc
 50
180.0000049998701
 51
0.0000099999488962
  0
ARC
  5
EED8
330
1F
100
AcDbEntity
  8
電気錠制御盤　（株）アート
  6
Continuous
 62
     7
370
    13
100
AcDbCircle
 10
7123.596564959957
 20
14807.61317316408
 30
0.0
 40
11.06404236
100
AcDbArc
 50
269.9999969999111
 51
90.0000030000889
  0
ARC
  5
EED9
330
1F
100
AcDbEntity
  8
電気錠制御盤　（株）アート
  6
Continuous
 62
     7
370
    13
100
AcDbCircle
 10
7214.874914429954
 20
14782.71907785407
 30
0.0
 40
13.83005295
100
AcDbArc
 50
265.2492179999394
 51
62.98111299994051
  0
ARC
  5
EEDA
330
1F
100
AcDbEntity
  8
電気錠制御盤　（株）アート
  6
Continuous
 62
     7
370
    13
100
AcDbCircle
 10
7212.108903839942
 20
14796.54913080409
 30
0.0
 40
27.6601059
100
AcDbArc
 50
233.1300969999362
 51
273.3588319999029
  0
ARC
  5
EEDB
330
1F
100
AcDbEntity
  8
電気錠制御盤　（株）アート
  6
Continuous
 62
     7
370
    13
100
AcDbCircle
 10
7212.108903839942
 20
14796.54913080409
 30
0.0
 40
22.12808472
100
AcDbArc
 50
233.1300969999362
 51
274.4484720000099
  0
ARC
  5
EEDC
330
1F
100
AcDbEntity
  8
電気錠制御盤　（株）アート
  6
Continuous
 62
     7
370
    13
100
AcDbCircle
 10
7214.874914429954
 20
14782.71907785407
 30
0.0
 40
8.298031770000001
100
AcDbArc
 50
262.7326220000901
 51
62.98111299994051
  0
ARC
  5
EEDD
330
1F
100
AcDbEntity
  8
電気錠制御盤　（株）アート
  6
Continuous
 62
     7
370
    13
100
AcDbCircle
 10
7209.342893249925
 20
14810.37918375404
 30
0.0
 40
13.83005295
100
AcDbArc
 50
85.24921699995468
 51
242.9811109998967
  0
ARC
  5
EEDE
330
1F
100
AcDbEntity
  8
電気錠制御盤　（株）アート
  6
Continuous
 62
     7
370
    13
100
AcDbCircle
 10
7212.108903839942
 20
14796.54913080409
 30
0.0
 40
27.6601059
100
AcDbArc
 50
53.13010199997499
 51
93.35883000002123
  0
ARC
  5
EEDF
330
1F
100
AcDbEntity
  8
電気錠制御盤　（株）アート
  6
Continuous
 62
     7
370
    13
100
AcDbCircle
 10
7212.108903839942
 20
14796.54913080409
 30
0.0
 40
22.12808472
100
AcDbArc
 50
53.13010199997499
 51
94.44847699994129
  0
ARC
  5
EEE0
330
1F
100
AcDbEntity
  8
電気錠制御盤　（株）アート
  6
Continuous
 62
     7
370
    13
100
AcDbCircle
 10
7209.342893249925
 20
14810.37918375404
 30
0.0
 40
8.298031770000001
100
AcDbArc
 50
82.73262700009359
 51
242.9811109998967
  0
ARC
  5
EEE1
330
1F
100
AcDbEntity
  8
電気錠制御盤　（株）アート
  6
Continuous
 62
     7
370
    13
100
AcDbCircle
 10
7123.596564959957
 20
14807.61317316408
 30
0.0
 40
16.59606354
100
AcDbArc
 50
269.9999969999111
 51
90.0000030000889
  0
ARC
  5
EEE2
330
1F
100
AcDbEntity
  8
電気錠制御盤　（株）アート
  6
Continuous
 62
     7
370
    13
100
AcDbCircle
 10
7189.980819119945
 20
14309.73126696406
 30
0.0
 40
82.98031770000001
100
AcDbArc
 50
90.0000030000889
 51
270.0000010000991
  0
POLYLINE
  5
EEE3
330
1F
100
AcDbEntity
  8
電気錠制御盤　（株）アート
  6
Continuous
 62
     7
370
    13
100
AcDb2dPolyline
 66
     1
 10
0.0
 20
0.0
 30
0.0
  0
VERTEX
  5
EEE4
330
EEE3
100
AcDbEntity
  8
電気錠制御盤　（株）アート
  6
Continuous
 62
     7
370
    13
100
AcDbVertex
100
AcDb2dVertex
 10
7197.356847359903
 20
14166.82071981405
 30
0.0
  0
VERTEX
  5
EEE5
330
EEE3
100
AcDbEntity
  8
電気錠制御盤　（株）アート
  6
Continuous
 62
     7
370
    13
100
AcDbVertex
100
AcDb2dVertex
 10
7231.159340776724
 20
14166.87604002591
 30
0.0
  0
VERTEX
  5
EEE6
330
EEE3
100
AcDbEntity
  8
電気錠制御盤　（株）アート
  6
Continuous
 62
     7
370
    13
100
AcDbVertex
100
AcDb2dVertex
 10
7256.906842554094
 20
14167.32339613862
 30
0.0
  0
VERTEX
  5
EEE7
330
EEE3
100
AcDbEntity
  8
電気錠制御盤　（株）アート
  6
Continuous
 62
     7
370
    13
100
AcDbVertex
100
AcDb2dVertex
 10
7274.594373872959
 20
14168.20944153099
 30
0.0
  0
VERTEX
  5
EEE8
330
EEE3
100
AcDbEntity
  8
電気錠制御盤　（株）アート
  6
Continuous
 62
     7
370
    13
100
AcDbVertex
100
AcDb2dVertex
 10
7287.409669737903
 20
14169.53657341202
 30
0.0
  0
VERTEX
  5
EEE9
330
EEE3
100
AcDbEntity
  8
電気錠制御盤　（株）アート
  6
Continuous
 62
     7
370
    13
100
AcDbVertex
100
AcDb2dVertex
 10
7295.310133585694
 20
14171.07871651633
 30
0.0
  0
VERTEX
  5
EEEA
330
EEE3
100
AcDbEntity
  8
電気錠制御盤　（株）アート
  6
Continuous
 62
     7
370
    13
100
AcDbVertex
100
AcDb2dVertex
 10
7298.356986450952
 20
14172.11818329606
 30
0.0
  0
VERTEX
  5
EEEB
330
EEE3
100
AcDbEntity
  8
電気錠制御盤　（株）アート
  6
Continuous
 62
     7
370
    13
100
AcDbVertex
100
AcDb2dVertex
 10
7299.861327410548
 20
14172.91147513327
 30
0.0
  0
VERTEX
  5
EEEC
330
EEE3
100
AcDbEntity
  8
電気錠制御盤　（株）アート
  6
Continuous
 62
     7
370
    13
100
AcDbVertex
100
AcDb2dVertex
 10
7300.621242719926
 20
14174.19674805407
 30
0.0
  0
SEQEND
  5
EEED
330
EEE3
100
AcDbEntity
  8
電気錠制御盤　（株）アート
  6
Continuous
 62
     7
370
    13
  0
POLYLINE
  5
EEEE
330
1F
100
AcDbEntity
  8
電気錠制御盤　（株）アート
  6
Continuous
 62
     7
370
    13
100
AcDb2dPolyline
 66
     1
 10
0.0
 20
0.0
 30
0.0
  0
VERTEX
  5
EEEF
330
EEEE
100
AcDbEntity
  8
電気錠制御盤　（株）アート
  6
Continuous
 62
     7
370
    13
100
AcDbVertex
100
AcDb2dVertex
 10
7182.60479087987
 20
14166.82071981405
 30
0.0
  0
VERTEX
  5
EEF0
330
EEEE
100
AcDbEntity
  8
電気錠制御盤　（株）アート
  6
Continuous
 62
     7
370
    13
100
AcDbVertex
100
AcDb2dVertex
 10
7148.802297463046
 20
14166.87604002591
 30
0.0
  0
VERTEX
  5
EEF1
330
EEEE
100
AcDbEntity
  8
電気錠制御盤　（株）アート
  6
Continuous
 62
     7
370
    13
100
AcDbVertex
100
AcDb2dVertex
 10
7123.054795685679
 20
14167.32339613862
 30
0.0
  0
VERTEX
  5
EEF2
330
EEEE
100
AcDbEntity
  8
電気錠制御盤　（株）アート
  6
Continuous
 62
     7
370
    13
100
AcDbVertex
100
AcDb2dVertex
 10
7105.36726436693
 20
14168.20944153099
 30
0.0
  0
VERTEX
  5
EEF3
330
EEEE
100
AcDbEntity
  8
電気錠制御盤　（株）アート
  6
Continuous
 62
     7
370
    13
100
AcDbVertex
100
AcDb2dVertex
 10
7092.551968501988
 20
14169.53657341202
 30
0.0
  0
VERTEX
  5
EEF4
330
EEEE
100
AcDbEntity
  8
電気錠制御盤　（株）アート
  6
Continuous
 62
     7
370
    13
100
AcDbVertex
100
AcDb2dVertex
 10
7084.651504654195
 20
14171.07871651633
 30
0.0
  0
VERTEX
  5
EEF5
330
EEEE
100
AcDbEntity
  8
電気錠制御盤　（株）アート
  6
Continuous
 62
     7
370
    13
100
AcDbVertex
100
AcDb2dVertex
 10
7081.604651788821
 20
14172.11818329606
 30
0.0
  0
VERTEX
  5
EEF6
330
EEEE
100
AcDbEntity
  8
電気錠制御盤　（株）アート
  6
Continuous
 62
     7
370
    13
100
AcDbVertex
100
AcDb2dVertex
 10
7080.100310829341
 20
14172.91147513327
 30
0.0
  0
VERTEX
  5
EEF7
330
EEEE
100
AcDbEntity
  8
電気錠制御盤　（株）アート
  6
Continuous
 62
     7
370
    13
100
AcDbVertex
100
AcDb2dVertex
 10
7079.340395519965
 20
14174.19674805407
 30
0.0
  0
SEQEND
  5
EEF8
330
EEEE
100
AcDbEntity
  8
電気錠制御盤　（株）アート
  6
Continuous
 62
     7
370
    13
  0
POLYLINE
  5
EEF9
330
1F
100
AcDbEntity
  8
電気錠制御盤　（株）アート
  6
Continuous
 62
     7
370
    13
100
AcDb2dPolyline
 66
     1
 10
0.0
 20
0.0
 30
0.0
  0
VERTEX
  5
EEFA
330
EEF9
100
AcDbEntity
  8
電気錠制御盤　（株）アート
  6
Continuous
 62
     7
370
    13
100
AcDbVertex
100
AcDb2dVertex
 10
7182.60479087987
 20
14046.96026091406
 30
0.0
  0
VERTEX
  5
EEFB
330
EEF9
100
AcDbEntity
  8
電気錠制御盤　（株）アート
  6
Continuous
 62
     7
370
    13
100
AcDbVertex
100
AcDb2dVertex
 10
7148.802297463046
 20
14046.90494070226
 30
0.0
  0
VERTEX
  5
EEFC
330
EEF9
100
AcDbEntity
  8
電気錠制御盤　（株）アート
  6
Continuous
 62
     7
370
    13
100
AcDbVertex
100
AcDb2dVertex
 10
7123.054795685679
 20
14046.45758458949
 30
0.0
  0
VERTEX
  5
EEFD
330
EEF9
100
AcDbEntity
  8
電気錠制御盤　（株）アート
  6
Continuous
 62
     7
370
    13
100
AcDbVertex
100
AcDb2dVertex
 10
7105.36726436693
 20
14045.57153919718
 30
0.0
  0
VERTEX
  5
EEFE
330
EEF9
100
AcDbEntity
  8
電気錠制御盤　（株）アート
  6
Continuous
 62
     7
370
    13
100
AcDbVertex
100
AcDb2dVertex
 10
7092.551968501988
 20
14044.24440731609
 30
0.0
  0
VERTEX
  5
EEFF
330
EEF9
100
AcDbEntity
  8
電気錠制御盤　（株）アート
  6
Continuous
 62
     7
370
    13
100
AcDbVertex
100
AcDb2dVertex
 10
7084.651504654195
 20
14042.70226421184
 30
0.0
  0
VERTEX
  5
EF00
330
EEF9
100
AcDbEntity
  8
電気錠制御盤　（株）アート
  6
Continuous
 62
     7
370
    13
100
AcDbVertex
100
AcDb2dVertex
 10
7081.604651788821
 20
14041.66279743211
 30
0.0
  0
VERTEX
  5
EF01
330
EEF9
100
AcDbEntity
  8
電気錠制御盤　（株）アート
  6
Continuous
 62
     7
370
    13
100
AcDbVertex
100
AcDb2dVertex
 10
7080.100310829341
 20
14040.8695055949
 30
0.0
  0
VERTEX
  5
EF02
330
EEF9
100
AcDbEntity
  8
電気錠制御盤　（株）アート
  6
Continuous
 62
     7
370
    13
100
AcDbVertex
100
AcDb2dVertex
 10
7079.340395519965
 20
14039.5842326741
 30
0.0
  0
SEQEND
  5
EF03
330
EEF9
100
AcDbEntity
  8
電気錠制御盤　（株）アート
  6
Continuous
 62
     7
370
    13
  0
POLYLINE
  5
EF04
330
1F
100
AcDbEntity
  8
電気錠制御盤　（株）アート
  6
Continuous
 62
     7
370
    13
100
AcDb2dPolyline
 66
     1
 10
0.0
 20
0.0
 30
0.0
  0
VERTEX
  5
EF05
330
EF04
100
AcDbEntity
  8
電気錠制御盤　（株）アート
  6
Continuous
 62
     7
370
    13
100
AcDbVertex
100
AcDb2dVertex
 10
7197.356847359903
 20
14046.96026091406
 30
0.0
  0
VERTEX
  5
EF06
330
EF04
100
AcDbEntity
  8
電気錠制御盤　（株）アート
  6
Continuous
 62
     7
370
    13
100
AcDbVertex
100
AcDb2dVertex
 10
7231.159340776724
 20
14046.90494070226
 30
0.0
  0
VERTEX
  5
EF07
330
EF04
100
AcDbEntity
  8
電気錠制御盤　（株）アート
  6
Continuous
 62
     7
370
    13
100
AcDbVertex
100
AcDb2dVertex
 10
7256.906842554094
 20
14046.45758458949
 30
0.0
  0
VERTEX
  5
EF08
330
EF04
100
AcDbEntity
  8
電気錠制御盤　（株）アート
  6
Continuous
 62
     7
370
    13
100
AcDbVertex
100
AcDb2dVertex
 10
7274.594373872959
 20
14045.57153919718
 30
0.0
  0
VERTEX
  5
EF09
330
EF04
100
AcDbEntity
  8
電気錠制御盤　（株）アート
  6
Continuous
 62
     7
370
    13
100
AcDbVertex
100
AcDb2dVertex
 10
7287.409669737903
 20
14044.24440731609
 30
0.0
  0
VERTEX
  5
EF0A
330
EF04
100
AcDbEntity
  8
電気錠制御盤　（株）アート
  6
Continuous
 62
     7
370
    13
100
AcDbVertex
100
AcDb2dVertex
 10
7295.310133585694
 20
14042.70226421184
 30
0.0
  0
VERTEX
  5
EF0B
330
EF04
100
AcDbEntity
  8
電気錠制御盤　（株）アート
  6
Continuous
 62
     7
370
    13
100
AcDbVertex
100
AcDb2dVertex
 10
7298.356986450952
 20
14041.66279743211
 30
0.0
  0
VERTEX
  5
EF0C
330
EF04
100
AcDbEntity
  8
電気錠制御盤　（株）アート
  6
Continuous
 62
     7
370
    13
100
AcDbVertex
100
AcDb2dVertex
 10
7299.861327410548
 20
14040.8695055949
 30
0.0
  0
VERTEX
  5
EF0D
330
EF04
100
AcDbEntity
  8
電気錠制御盤　（株）アート
  6
Continuous
 62
     7
370
    13
100
AcDbVertex
100
AcDb2dVertex
 10
7300.621242719926
 20
14039.5842326741
 30
0.0
  0
SEQEND
  5
EF0E
330
EF04
100
AcDbEntity
  8
電気錠制御盤　（株）アート
  6
Continuous
 62
     7
370
    13
  0
LINE
  5
EF0F
330
1F
100
AcDbEntity
  8
電気錠制御盤　（株）アート
  6
Continuous
 62
     7
370
    13
100
AcDbLine
 10
7448.141807519935
 20
14964.35377326404
 30
0.0
 11
7448.141807519935
 21
13968.58996086405
 31
0.0
  0
LINE
  5
EF10
330
1F
100
AcDbEntity
  8
電気錠制御盤　（株）アート
  6
Continuous
 62
     7
370
    13
100
AcDbLine
 10
7448.141807519935
 20
14964.35377326404
 30
0.0
 11
7448.141807519935
 21
15108.61173637282
 31
0.0
  0
ARC
  5
EF11
330
1F
100
AcDbEntity
  8
電気錠制御盤　（株）アート
  6
Continuous
 62
     7
370
    13
100
AcDbCircle
 10
7355.941085718561
 20
15108.61155197211
 30
0.0
 40
92.20072180141199
100
AcDbArc
 50
0.0000920001551676
 51
75.0992000000977
  0
ARC
  5
EF12
330
1F
100
AcDbEntity
  8
電気錠制御盤　（株）アート
  6
Continuous
 62
     7
370
    13
100
AcDbCircle
 10
7189.868703490694
 20
14484.05004876422
 30
0.0
 40
738.464712899844
100
AcDbArc
 50
75.10818899990621
 51
89.99129400005955
  0
CIRCLE
  5
EF13
330
1F
100
AcDbEntity
  8
電気錠制御盤　（株）アート
  6
Continuous
 62
     7
370
    13
100
AcDbCircle
 10
8831.147102519976
 20
11055.05262864041
 30
0.0
 40
18.4400706
  0
CIRCLE
  5
EF14
330
1F
100
AcDbEntity
  8
電気錠制御盤　（株）アート
  6
Continuous
 62
     7
370
    13
100
AcDbCircle
 10
8738.946749519895
 20
10962.85227564042
 30
0.0
 40
18.4400706
  0
CIRCLE
  5
EF15
330
1F
100
AcDbEntity
  8
電気錠制御盤　（株）アート
  6
Continuous
 62
     7
370
    13
100
AcDbCircle
 10
8646.746396519931
 20
11055.05262864041
 30
0.0
 40
18.4400706
  0
CIRCLE
  5
EF16
330
1F
100
AcDbEntity
  8
電気錠制御盤　（株）アート
  6
Continuous
 62
     7
370
    13
100
AcDbCircle
 10
8738.946749519895
 20
11147.2529816404
 30
0.0
 40
18.4400706
  0
CIRCLE
  5
EF17
330
1F
100
AcDbEntity
  8
電気錠制御盤　（株）アート
  6
Continuous
 62
     7
370
    13
100
AcDbCircle
 10
8738.946749519895
 20
11055.05262864041
 30
0.0
 40
18.4400706
  0
LINE
  5
EF18
330
1F
100
AcDbEntity
  8
電気錠制御盤　（株）アート
  6
Continuous
 62
     7
370
    13
100
AcDbLine
 10
11329.77666881993
 20
11313.2136170404
 30
0.0
 11
9024.767843819912
 21
11313.2136170404
 31
0.0
  0
LINE
  5
EF19
330
1F
100
AcDbEntity
  8
電気錠制御盤　（株）アート
  6
Continuous
 62
     7
370
    13
100
AcDbLine
 10
11329.77666881993
 20
10796.89164024042
 30
0.0
 11
11329.77666881993
 21
11313.2136170404
 31
0.0
  0
LINE
  5
EF1A
330
1F
100
AcDbEntity
  8
電気錠制御盤　（株）アート
  6
Continuous
 62
     7
370
    13
100
AcDbLine
 10
9024.767843819912
 20
10796.89164024042
 30
0.0
 11
11329.77666881993
 21
10796.89164024042
 31
0.0
  0
LINE
  5
EF1B
330
1F
100
AcDbEntity
  8
電気錠制御盤　（株）アート
  6
Continuous
 62
     7
370
    13
100
AcDbLine
 10
8506.656903570741
 20
11295.46901370309
 30
0.0
 11
8969.44763201998
 21
11295.46901370309
 31
0.0
  0
LINE
  5
EF1C
330
1F
100
AcDbEntity
  8
電気錠制御盤　（株）アート
  6
Continuous
 62
     7
370
    13
100
AcDbLine
 10
8969.44763201998
 20
10813.77086950458
 30
0.0
 11
8969.44763201998
 21
11295.46901370309
 31
0.0
  0
LINE
  5
EF1D
330
1F
100
AcDbEntity
  8
電気錠制御盤　（株）アート
  6
Continuous
 62
     7
370
    13
100
AcDbLine
 10
8506.656903570741
 20
10813.77086950458
 30
0.0
 11
8969.44763201998
 21
10813.77086950458
 31
0.0
  0
LINE
  5
EF1E
330
1F
100
AcDbEntity
  8
電気錠制御盤　（株）アート
  6
Continuous
 62
     7
370
    13
100
AcDbLine
 10
8506.656903570741
 20
10813.77086950458
 30
0.0
 11
8506.656903570741
 21
11295.46901370309
 31
0.0
  0
LINE
  5
EF1F
330
1F
100
AcDbEntity
  8
電気錠制御盤　（株）アート
  6
Continuous
 62
     7
370
    13
100
AcDbLine
 10
9024.767843819912
 20
10796.89164024042
 30
0.0
 11
9024.767843819912
 21
11313.2136170404
 31
0.0
  0
INSERT
  5
EF20
330
1F
100
AcDbEntity
  8
電気錠制御盤　（株）アート
  6
Continuous
 62
     7
370
    13
100
AcDbBlockReference
  2
*G27272
 10
-328.82326331433
 20
-10833.49483666274
 30
0.0
 41
18.4400706
 42
18.4400706
 43
18.4400706
  0
INSERT
  5
EF21
330
1F
100
AcDbEntity
  8
電気錠制御盤　（株）アート
  6
Continuous
 62
     7
370
    13
100
AcDbBlockReference
  2
*G37373
 10
-328.82326331433
 20
-10833.49483666274
 30
0.0
 41
18.4400706
 42
18.4400706
 43
18.4400706
  0
CIRCLE
  5
EF22
330
1F
100
AcDbEntity
  8
電気錠制御盤　（株）アート
  6
Continuous
 62
     7
370
    13
100
AcDbCircle
 10
10048.19176211998
 20
11055.05262864041
 30
0.0
 40
46.1001765
  0
CIRCLE
  5
EF23
330
1F
100
AcDbEntity
  8
電気錠制御盤　（株）アート
  6
Continuous
 62
     7
370
    13
100
AcDbCircle
 10
9679.390350119897
 20
11055.05262864041
 30
0.0
 40
46.1001765
  0
CIRCLE
  5
EF24
330
1F
100
AcDbEntity
  8
電気錠制御盤　（株）アート
  6
Continuous
 62
     7
370
    13
100
AcDbCircle
 10
9310.588938119927
 20
11055.05262864041
 30
0.0
 40
46.1001765
  0
INSERT
  5
EF25
330
1F
100
AcDbEntity
  8
電気錠制御盤　（株）アート
  6
Continuous
 62
     7
370
    13
100
AcDbBlockReference
  2
*G47474
 10
-328.82326331433
 20
-10833.49483666274
 30
0.0
 41
18.4400706
 42
18.4400706
 43
18.4400706
  0
LINE
  5
EF26
330
1F
100
AcDbEntity
  8
電気錠制御盤　（株）アート
  6
Continuous
 62
     7
370
    13
100
AcDbLine
 10
8469.40069557085
 20
10778.4515696404
 30
0.0
 11
8469.40069557085
 21
11331.65368764042
 31
0.0
  0
LINE
  5
EF27
330
1F
100
AcDbEntity
  8
電気錠制御盤　（株）アート
  6
Continuous
 62
     7
370
    13
100
AcDbLine
 10
11348.21673941995
 20
10778.4515696404
 30
0.0
 11
11348.21673941995
 21
11331.65368764042
 31
0.0
  0
LINE
  5
EF28
330
1F
100
AcDbEntity
  8
電気錠制御盤　（株）アート
  6
Continuous
 62
     7
370
    13
100
AcDbLine
 10
10738.13358672416
 20
15047.33409096406
 30
0.0
 11
11292.8965276199
 21
15047.33409096406
 31
0.0
  0
LINE
  5
EF29
330
1F
100
AcDbEntity
  8
電気錠制御盤　（株）アート
  6
Continuous
 62
     7
370
    13
100
AcDbLine
 10
11274.45645702
 20
15065.77416156408
 30
0.0
 11
11274.45645702
 21
17370.78298656404
 31
0.0
  0
LINE
  5
EF2A
330
1F
100
AcDbEntity
  8
電気錠制御盤　（株）アート
  6
Continuous
 62
     7
370
    13
100
AcDbLine
 10
10758.1344802199
 20
15065.77416156408
 30
0.0
 11
11274.45645702
 21
15065.77416156408
 31
0.0
  0
LINE
  5
EF2B
330
1F
100
AcDbEntity
  8
電気錠制御盤　（株）アート
  6
Continuous
 62
     7
370
    13
100
AcDbLine
 10
10758.1344802199
 20
17370.78298656404
 30
0.0
 11
10758.1344802199
 21
15065.77416156408
 31
0.0
  0
LINE
  5
EF2C
330
1F
100
AcDbEntity
  8
電気錠制御盤　（株）アート
  6
Continuous
 62
     7
370
    13
100
AcDbLine
 10
11256.7118721227
 20
17888.8939452534
 30
0.0
 11
11256.7118721227
 21
17426.10319836409
 31
0.0
  0
LINE
  5
EF2D
330
1F
100
AcDbEntity
  8
電気錠制御盤　（株）アート
  6
Continuous
 62
     7
370
    13
100
AcDbLine
 10
10775.01372792408
 20
17426.10319836409
 30
0.0
 11
11256.7118721227
 21
17426.10319836409
 31
0.0
  0
LINE
  5
EF2E
330
1F
100
AcDbEntity
  8
電気錠制御盤　（株）アート
  6
Continuous
 62
     7
370
    13
100
AcDbLine
 10
10775.01372792408
 20
17888.8939452534
 30
0.0
 11
10775.01372792408
 21
17426.10319836409
 31
0.0
  0
LINE
  5
EF2F
330
1F
100
AcDbEntity
  8
電気錠制御盤　（株）アート
  6
Continuous
 62
     7
370
    13
100
AcDbLine
 10
10775.01372792408
 20
17888.8939452534
 30
0.0
 11
11256.7118721227
 21
17888.8939452534
 31
0.0
  0
LINE
  5
EF30
330
1F
100
AcDbEntity
  8
電気錠制御盤　（株）アート
  6
Continuous
 62
     7
370
    13
100
AcDbLine
 10
10969.57459934357
 20
17407.66312776407
 30
0.0
 11
10944.11609035263
 21
17426.08713706257
 31
0.0
  0
LINE
  5
EF31
330
1F
100
AcDbEntity
  8
電気錠制御盤　（株）アート
  6
Continuous
 62
     7
370
    13
100
AcDbLine
 10
11071.40865374728
 20
17407.66312776407
 30
0.0
 11
11094.5527494772
 21
17426.10319836409
 31
0.0
  0
LINE
  5
EF32
330
1F
100
AcDbEntity
  8
電気錠制御盤　（株）アート
  6
Continuous
 62
     7
370
    13
100
AcDbLine
 10
10969.57459934357
 20
17407.66312776407
 30
0.0
 11
11071.40865374728
 21
17407.66312776407
 31
0.0
  0
LINE
  5
EF33
330
1F
100
AcDbEntity
  8
電気錠制御盤　（株）アート
  6
Continuous
 62
     7
370
    13
100
AcDbLine
 10
10758.1344802199
 20
17370.78298656404
 30
0.0
 11
11274.45645702
 21
17370.78298656404
 31
0.0
  0
INSERT
  5
EF34
330
1F
100
AcDbEntity
  8
電気錠制御盤　（株）アート
  6
Continuous
 62
     7
370
    13
100
AcDbBlockReference
  2
*G57575
 10
-328.82326331433
 20
-10833.49483666274
 30
0.0
 41
18.4400706
 42
18.4400706
 43
18.4400706
  0
INSERT
  5
EF35
330
1F
100
AcDbEntity
  8
電気錠制御盤　（株）アート
  6
Continuous
 62
     7
370
    13
100
AcDbBlockReference
  2
*G67676
 10
-328.82326331433
 20
-10833.49483666274
 30
0.0
 41
18.4400706
 42
18.4400706
 43
18.4400706
  0
CIRCLE
  5
EF36
330
1F
100
AcDbEntity
  8
電気錠制御盤　（株）アート
  6
Continuous
 62
     7
370
    13
100
AcDbCircle
 10
11016.2954686199
 20
16347.35906826408
 30
0.0
 40
46.1001765
  0
CIRCLE
  5
EF37
330
1F
100
AcDbEntity
  8
電気錠制御盤　（株）アート
  6
Continuous
 62
     7
370
    13
100
AcDbCircle
 10
11016.2954686199
 20
16716.16048026406
 30
0.0
 40
46.1001765
  0
CIRCLE
  5
EF38
330
1F
100
AcDbEntity
  8
電気錠制御盤　（株）アート
  6
Continuous
 62
     7
370
    13
100
AcDbCircle
 10
11016.2954686199
 20
17084.96189226409
 30
0.0
 40
46.1001765
  0
INSERT
  5
EF39
330
1F
100
AcDbEntity
  8
電気錠制御盤　（株）アート
  6
Continuous
 62
     7
370
    13
100
AcDbBlockReference
  2
*G77777
 10
-328.82326331433
 20
-10833.49483666274
 30
0.0
 41
18.4400706
 42
18.4400706
 43
18.4400706
  0
LINE
  5
EF3A
330
1F
100
AcDbEntity
  8
電気錠制御盤　（株）アート
  6
Continuous
 62
     7
370
    13
100
AcDbLine
 10
10184.93146872414
 20
15047.33409096406
 30
0.0
 11
10739.69440962
 21
15047.33409096406
 31
0.0
  0
LINE
  5
EF3B
330
1F
100
AcDbEntity
  8
電気錠制御盤　（株）アート
  6
Continuous
 62
     7
370
    13
100
AcDbLine
 10
10721.25433901999
 20
15065.77416156408
 30
0.0
 11
10721.25433901999
 21
17370.78298656404
 31
0.0
  0
LINE
  5
EF3C
330
1F
100
AcDbEntity
  8
電気錠制御盤　（株）アート
  6
Continuous
 62
     7
370
    13
100
AcDbLine
 10
10204.93236221989
 20
15065.77416156408
 30
0.0
 11
10721.25433901999
 21
15065.77416156408
 31
0.0
  0
LINE
  5
EF3D
330
1F
100
AcDbEntity
  8
電気錠制御盤　（株）アート
  6
Continuous
 62
     7
370
    13
100
AcDbLine
 10
10204.93236221989
 20
17370.78298656404
 30
0.0
 11
10204.93236221989
 21
15065.77416156408
 31
0.0
  0
LINE
  5
EF3E
330
1F
100
AcDbEntity
  8
電気錠制御盤　（株）アート
  6
Continuous
 62
     7
370
    13
100
AcDbLine
 10
10703.50975412269
 20
17888.8939452534
 30
0.0
 11
10703.50975412269
 21
17426.10319836409
 31
0.0
  0
LINE
  5
EF3F
330
1F
100
AcDbEntity
  8
電気錠制御盤　（株）アート
  6
Continuous
 62
     7
370
    13
100
AcDbLine
 10
10221.81160992406
 20
17426.10319836409
 30
0.0
 11
10703.50975412269
 21
17426.10319836409
 31
0.0
  0
LINE
  5
EF40
330
1F
100
AcDbEntity
  8
電気錠制御盤　（株）アート
  6
Continuous
 62
     7
370
    13
100
AcDbLine
 10
10221.81160992406
 20
17888.8939452534
 30
0.0
 11
10221.81160992406
 21
17426.10319836409
 31
0.0
  0
LINE
  5
EF41
330
1F
100
AcDbEntity
  8
電気錠制御盤　（株）アート
  6
Continuous
 62
     7
370
    13
100
AcDbLine
 10
10221.81160992406
 20
17888.8939452534
 30
0.0
 11
10703.50975412269
 21
17888.8939452534
 31
0.0
  0
LINE
  5
EF42
330
1F
100
AcDbEntity
  8
電気錠制御盤　（株）アート
  6
Continuous
 62
     7
370
    13
100
AcDbLine
 10
10184.93146872414
 20
17926.15013481316
 30
0.0
 11
10740.38989532272
 21
17926.15013481316
 31
0.0
  0
LINE
  5
EF43
330
1F
100
AcDbEntity
  8
電気錠制御盤　（株）アート
  6
Continuous
 62
     7
370
    13
100
AcDbLine
 10
10416.37248134356
 20
17407.66312776407
 30
0.0
 11
10390.91397235262
 21
17426.08713706257
 31
0.0
  0
LINE
  5
EF44
330
1F
100
AcDbEntity
  8
電気錠制御盤　（株）アート
  6
Continuous
 62
     7
370
    13
100
AcDbLine
 10
10518.20653574726
 20
17407.66312776407
 30
0.0
 11
10541.35063147718
 21
17426.10319836409
 31
0.0
  0
LINE
  5
EF45
330
1F
100
AcDbEntity
  8
電気錠制御盤　（株）アート
  6
Continuous
 62
     7
370
    13
100
AcDbLine
 10
10416.37248134356
 20
17407.66312776407
 30
0.0
 11
10518.20653574726
 21
17407.66312776407
 31
0.0
  0
LINE
  5
EF46
330
1F
100
AcDbEntity
  8
電気錠制御盤　（株）アート
  6
Continuous
 62
     7
370
    13
100
AcDbLine
 10
10204.93236221989
 20
17370.78298656404
 30
0.0
 11
10721.25433901999
 21
17370.78298656404
 31
0.0
  0
INSERT
  5
EF47
330
1F
100
AcDbEntity
  8
電気錠制御盤　（株）アート
  6
Continuous
 62
     7
370
    13
100
AcDbBlockReference
  2
*G87878
 10
-328.82326331433
 20
-10833.49483666274
 30
0.0
 41
18.4400706
 42
18.4400706
 43
18.4400706
  0
INSERT
  5
EF48
330
1F
100
AcDbEntity
  8
電気錠制御盤　（株）アート
  6
Continuous
 62
     7
370
    13
100
AcDbBlockReference
  2
*G97979
 10
-328.82326331433
 20
-10833.49483666274
 30
0.0
 41
18.4400706
 42
18.4400706
 43
18.4400706
  0
CIRCLE
  5
EF49
330
1F
100
AcDbEntity
  8
電気錠制御盤　（株）アート
  6
Continuous
 62
     7
370
    13
100
AcDbCircle
 10
10463.09335062
 20
16347.35906826408
 30
0.0
 40
46.1001765
  0
CIRCLE
  5
EF4A
330
1F
100
AcDbEntity
  8
電気錠制御盤　（株）アート
  6
Continuous
 62
     7
370
    13
100
AcDbCircle
 10
10463.09335062
 20
16716.16048026406
 30
0.0
 40
46.1001765
  0
CIRCLE
  5
EF4B
330
1F
100
AcDbEntity
  8
電気錠制御盤　（株）アート
  6
Continuous
 62
     7
370
    13
100
AcDbCircle
 10
10463.09335062
 20
17084.96189226409
 30
0.0
 40
46.1001765
  0
INSERT
  5
EF4C
330
1F
100
AcDbEntity
  8
電気錠制御盤　（株）アート
  6
Continuous
 62
     7
370
    13
100
AcDbBlockReference
  2
*G108080
 10
-328.82326331433
 20
-10833.49483666274
 30
0.0
 41
18.4400706
 42
18.4400706
 43
18.4400706
  0
LINE
  5
EF4D
330
1F
100
AcDbEntity
  8
電気錠制御盤　（株）アート
  6
Continuous
 62
     7
370
    13
100
AcDbLine
 10
9631.72935072413
 20
15047.33409096406
 30
0.0
 11
10186.49229161999
 21
15047.33409096406
 31
0.0
  0
LINE
  5
EF4E
330
1F
100
AcDbEntity
  8
電気錠制御盤　（株）アート
  6
Continuous
 62
     7
370
    13
100
AcDbLine
 10
10168.05222101997
 20
15065.77416156408
 30
0.0
 11
10168.05222101997
 21
17370.78298656404
 31
0.0
  0
LINE
  5
EF4F
330
1F
100
AcDbEntity
  8
電気錠制御盤　（株）アート
  6
Continuous
 62
     7
370
    13
100
AcDbLine
 10
9651.73024421999
 20
15065.77416156408
 30
0.0
 11
10168.05222101997
 21
15065.77416156408
 31
0.0
  0
LINE
  5
EF50
330
1F
100
AcDbEntity
  8
電気錠制御盤　（株）アート
  6
Continuous
 62
     7
370
    13
100
AcDbLine
 10
9651.73024421999
 20
17370.78298656404
 30
0.0
 11
9651.73024421999
 21
15065.77416156408
 31
0.0
  0
LINE
  5
EF51
330
1F
100
AcDbEntity
  8
電気錠制御盤　（株）アート
  6
Continuous
 62
     7
370
    13
100
AcDbLine
 10
10150.30763612267
 20
17888.8939452534
 30
0.0
 11
10150.30763612267
 21
17426.10319836409
 31
0.0
  0
LINE
  5
EF52
330
1F
100
AcDbEntity
  8
電気錠制御盤　（株）アート
  6
Continuous
 62
     7
370
    13
100
AcDbLine
 10
9668.609491924163
 20
17426.10319836409
 30
0.0
 11
10150.30763612267
 21
17426.10319836409
 31
0.0
  0
LINE
  5
EF53
330
1F
100
AcDbEntity
  8
電気錠制御盤　（株）アート
  6
Continuous
 62
     7
370
    13
100
AcDbLine
 10
9668.609491924163
 20
17888.8939452534
 30
0.0
 11
9668.609491924163
 21
17426.10319836409
 31
0.0
  0
LINE
  5
EF54
330
1F
100
AcDbEntity
  8
電気錠制御盤　（株）アート
  6
Continuous
 62
     7
370
    13
100
AcDbLine
 10
9668.609491924163
 20
17888.8939452534
 30
0.0
 11
10150.30763612267
 21
17888.8939452534
 31
0.0
  0
LINE
  5
EF55
330
1F
100
AcDbEntity
  8
電気錠制御盤　（株）アート
  6
Continuous
 62
     7
370
    13
100
AcDbLine
 10
9631.72935072413
 20
17926.15013481316
 30
0.0
 11
10187.1877773227
 21
17926.15013481316
 31
0.0
  0
LINE
  5
EF56
330
1F
100
AcDbEntity
  8
電気錠制御盤　（株）アート
  6
Continuous
 62
     7
370
    13
100
AcDbLine
 10
9863.170363343543
 20
17407.66312776407
 30
0.0
 11
9837.711854352605
 21
17426.08713706257
 31
0.0
  0
LINE
  5
EF57
330
1F
100
AcDbEntity
  8
電気錠制御盤　（株）アート
  6
Continuous
 62
     7
370
    13
100
AcDbLine
 10
9965.004417747248
 20
17407.66312776407
 30
0.0
 11
9988.148513477169
 21
17426.10319836409
 31
0.0
  0
LINE
  5
EF58
330
1F
100
AcDbEntity
  8
電気錠制御盤　（株）アート
  6
Continuous
 62
     7
370
    13
100
AcDbLine
 10
9863.170363343543
 20
17407.66312776407
 30
0.0
 11
9965.004417747248
 21
17407.66312776407
 31
0.0
  0
LINE
  5
EF59
330
1F
100
AcDbEntity
  8
電気錠制御盤　（株）アート
  6
Continuous
 62
     7
370
    13
100
AcDbLine
 10
9651.73024421999
 20
17370.78298656404
 30
0.0
 11
10168.05222101997
 21
17370.78298656404
 31
0.0
  0
INSERT
  5
EF5A
330
1F
100
AcDbEntity
  8
電気錠制御盤　（株）アート
  6
Continuous
 62
     7
370
    13
100
AcDbBlockReference
  2
*G118181
 10
-328.82326331433
 20
-10833.49483666274
 30
0.0
 41
18.4400706
 42
18.4400706
 43
18.4400706
  0
INSERT
  5
EF5B
330
1F
100
AcDbEntity
  8
電気錠制御盤　（株）アート
  6
Continuous
 62
     7
370
    13
100
AcDbBlockReference
  2
*G128282
 10
-328.82326331433
 20
-10833.49483666274
 30
0.0
 41
18.4400706
 42
18.4400706
 43
18.4400706
  0
CIRCLE
  5
EF5C
330
1F
100
AcDbEntity
  8
電気錠制御盤　（株）アート
  6
Continuous
 62
     7
370
    13
100
AcDbCircle
 10
9909.891232619983
 20
16347.35906826408
 30
0.0
 40
46.1001765
  0
CIRCLE
  5
EF5D
330
1F
100
AcDbEntity
  8
電気錠制御盤　（株）アート
  6
Continuous
 62
     7
370
    13
100
AcDbCircle
 10
9909.891232619983
 20
16716.16048026406
 30
0.0
 40
46.1001765
  0
CIRCLE
  5
EF5E
330
1F
100
AcDbEntity
  8
電気錠制御盤　（株）アート
  6
Continuous
 62
     7
370
    13
100
AcDbCircle
 10
9909.891232619983
 20
17084.96189226409
 30
0.0
 40
46.1001765
  0
INSERT
  5
EF5F
330
1F
100
AcDbEntity
  8
電気錠制御盤　（株）アート
  6
Continuous
 62
     7
370
    13
100
AcDbBlockReference
  2
*G138383
 10
-328.82326331433
 20
-10833.49483666274
 30
0.0
 41
18.4400706
 42
18.4400706
 43
18.4400706
  0
LINE
  5
EF60
330
1F
100
AcDbEntity
  8
電気錠制御盤　（株）アート
  6
Continuous
 62
     7
370
    13
100
AcDbLine
 10
9078.527232724114
 20
15047.33409096406
 30
0.0
 11
9633.290173619975
 21
15047.33409096406
 31
0.0
  0
LINE
  5
EF61
330
1F
100
AcDbEntity
  8
電気錠制御盤　（株）アート
  6
Continuous
 62
     7
370
    13
100
AcDbLine
 10
9614.850103019959
 20
15065.77416156408
 30
0.0
 11
9614.850103019959
 21
17370.78298656404
 31
0.0
  0
LINE
  5
EF62
330
1F
100
AcDbEntity
  8
電気錠制御盤　（株）アート
  6
Continuous
 62
     7
370
    13
100
AcDbLine
 10
9098.528126219974
 20
15065.77416156408
 30
0.0
 11
9614.850103019959
 21
15065.77416156408
 31
0.0
  0
LINE
  5
EF63
330
1F
100
AcDbEntity
  8
電気錠制御盤　（株）アート
  6
Continuous
 62
     7
370
    13
100
AcDbLine
 10
9098.528126219974
 20
17370.78298656404
 30
0.0
 11
9098.528126219974
 21
15065.77416156408
 31
0.0
  0
LINE
  5
EF64
330
1F
100
AcDbEntity
  8
電気錠制御盤　（株）アート
  6
Continuous
 62
     7
370
    13
100
AcDbLine
 10
9597.10551812266
 20
17888.8939452534
 30
0.0
 11
9597.10551812266
 21
17426.10319836409
 31
0.0
  0
LINE
  5
EF65
330
1F
100
AcDbEntity
  8
電気錠制御盤　（株）アート
  6
Continuous
 62
     7
370
    13
100
AcDbLine
 10
9115.407373924147
 20
17426.10319836409
 30
0.0
 11
9597.10551812266
 21
17426.10319836409
 31
0.0
  0
LINE
  5
EF66
330
1F
100
AcDbEntity
  8
電気錠制御盤　（株）アート
  6
Continuous
 62
     7
370
    13
100
AcDbLine
 10
9115.407373924147
 20
17888.8939452534
 30
0.0
 11
9115.407373924147
 21
17426.10319836409
 31
0.0
  0
LINE
  5
EF67
330
1F
100
AcDbEntity
  8
電気錠制御盤　（株）アート
  6
Continuous
 62
     7
370
    13
100
AcDbLine
 10
9115.407373924147
 20
17888.8939452534
 30
0.0
 11
9597.10551812266
 21
17888.8939452534
 31
0.0
  0
LINE
  5
EF68
330
1F
100
AcDbEntity
  8
電気錠制御盤　（株）アート
  6
Continuous
 62
     7
370
    13
100
AcDbLine
 10
9078.527232724114
 20
17926.15013481316
 30
0.0
 11
9633.985659322691
 21
17926.15013481316
 31
0.0
  0
LINE
  5
EF69
330
1F
100
AcDbEntity
  8
電気錠制御盤　（株）アート
  6
Continuous
 62
     7
370
    13
100
AcDbLine
 10
9309.968245343528
 20
17407.66312776407
 30
0.0
 11
9284.509736352589
 21
17426.08713706257
 31
0.0
  0
LINE
  5
EF6A
330
1F
100
AcDbEntity
  8
電気錠制御盤　（株）アート
  6
Continuous
 62
     7
370
    13
100
AcDbLine
 10
9411.802299747231
 20
17407.66312776407
 30
0.0
 11
9434.946395477266
 21
17426.10319836409
 31
0.0
  0
LINE
  5
EF6B
330
1F
100
AcDbEntity
  8
電気錠制御盤　（株）アート
  6
Continuous
 62
     7
370
    13
100
AcDbLine
 10
9309.968245343528
 20
17407.66312776407
 30
0.0
 11
9411.802299747231
 21
17407.66312776407
 31
0.0
  0
LINE
  5
EF6C
330
1F
100
AcDbEntity
  8
電気錠制御盤　（株）アート
  6
Continuous
 62
     7
370
    13
100
AcDbLine
 10
9098.528126219974
 20
17370.78298656404
 30
0.0
 11
9614.850103019959
 21
17370.78298656404
 31
0.0
  0
INSERT
  5
EF6D
330
1F
100
AcDbEntity
  8
電気錠制御盤　（株）アート
  6
Continuous
 62
     7
370
    13
100
AcDbBlockReference
  2
*G148484
 10
-328.82326331433
 20
-10833.49483666274
 30
0.0
 41
18.4400706
 42
18.4400706
 43
18.4400706
  0
INSERT
  5
EF6E
330
1F
100
AcDbEntity
  8
電気錠制御盤　（株）アート
  6
Continuous
 62
     7
370
    13
100
AcDbBlockReference
  2
*G158585
 10
-328.82326331433
 20
-10833.49483666274
 30
0.0
 41
18.4400706
 42
18.4400706
 43
18.4400706
  0
CIRCLE
  5
EF6F
330
1F
100
AcDbEntity
  8
電気錠制御盤　（株）アート
  6
Continuous
 62
     7
370
    13
100
AcDbCircle
 10
9356.689114619966
 20
16347.35906826408
 30
0.0
 40
46.1001765
  0
CIRCLE
  5
EF70
330
1F
100
AcDbEntity
  8
電気錠制御盤　（株）アート
  6
Continuous
 62
     7
370
    13
100
AcDbCircle
 10
9356.689114619966
 20
16716.16048026406
 30
0.0
 40
46.1001765
  0
CIRCLE
  5
EF71
330
1F
100
AcDbEntity
  8
電気錠制御盤　（株）アート
  6
Continuous
 62
     7
370
    13
100
AcDbCircle
 10
9356.689114619966
 20
17084.96189226409
 30
0.0
 40
46.1001765
  0
INSERT
  5
EF72
330
1F
100
AcDbEntity
  8
電気錠制御盤　（株）アート
  6
Continuous
 62
     7
370
    13
100
AcDbBlockReference
  2
*G168686
 10
-328.82326331433
 20
-10833.49483666274
 30
0.0
 41
18.4400706
 42
18.4400706
 43
18.4400706
  0
LINE
  5
EF73
330
1F
100
AcDbEntity
  8
電気錠制御盤　（株）アート
  6
Continuous
 62
     7
370
    13
100
AcDbLine
 10
9061.647985019943
 20
15065.77416156408
 30
0.0
 11
9061.647985019943
 21
17370.78298656404
 31
0.0
  0
LINE
  5
EF74
330
1F
100
AcDbEntity
  8
電気錠制御盤　（株）アート
  6
Continuous
 62
     7
370
    13
100
AcDbLine
 10
8545.326008219959
 20
15065.77416156408
 30
0.0
 11
9061.647985019943
 21
15065.77416156408
 31
0.0
  0
LINE
  5
EF75
330
1F
100
AcDbEntity
  8
電気錠制御盤　（株）アート
  6
Continuous
 62
     7
370
    13
100
AcDbLine
 10
8545.326008219959
 20
17370.78298656404
 30
0.0
 11
8545.326008219959
 21
15065.77416156408
 31
0.0
  0
LINE
  5
EF76
330
1F
100
AcDbEntity
  8
電気錠制御盤　（株）アート
  6
Continuous
 62
     7
370
    13
100
AcDbLine
 10
9043.903400122642
 20
17888.8939452534
 30
0.0
 11
9043.903400122642
 21
17426.10319836409
 31
0.0
  0
LINE
  5
EF77
330
1F
100
AcDbEntity
  8
電気錠制御盤　（株）アート
  6
Continuous
 62
     7
370
    13
100
AcDbLine
 10
8562.205255924132
 20
17426.10319836409
 30
0.0
 11
9043.903400122642
 21
17426.10319836409
 31
0.0
  0
LINE
  5
EF78
330
1F
100
AcDbEntity
  8
電気錠制御盤　（株）アート
  6
Continuous
 62
     7
370
    13
100
AcDbLine
 10
8562.205255924132
 20
17888.8939452534
 30
0.0
 11
8562.205255924132
 21
17426.10319836409
 31
0.0
  0
LINE
  5
EF79
330
1F
100
AcDbEntity
  8
電気錠制御盤　（株）アート
  6
Continuous
 62
     7
370
    13
100
AcDbLine
 10
8562.205255924132
 20
17888.8939452534
 30
0.0
 11
9043.903400122642
 21
17888.8939452534
 31
0.0
  0
LINE
  5
EF7A
330
1F
100
AcDbEntity
  8
電気錠制御盤　（株）アート
  6
Continuous
 62
     7
370
    13
100
AcDbLine
 10
8756.766127343512
 20
17407.66312776407
 30
0.0
 11
8731.307618352573
 21
17426.08713706257
 31
0.0
  0
LINE
  5
EF7B
330
1F
100
AcDbEntity
  8
電気錠制御盤　（株）アート
  6
Continuous
 62
     7
370
    13
100
AcDbLine
 10
8858.600181747217
 20
17407.66312776407
 30
0.0
 11
8881.744277477253
 21
17426.10319836409
 31
0.0
  0
LINE
  5
EF7C
330
1F
100
AcDbEntity
  8
電気錠制御盤　（株）アート
  6
Continuous
 62
     7
370
    13
100
AcDbLine
 10
8756.766127343512
 20
17407.66312776407
 30
0.0
 11
8858.600181747217
 21
17407.66312776407
 31
0.0
  0
LINE
  5
EF7D
330
1F
100
AcDbEntity
  8
電気錠制御盤　（株）アート
  6
Continuous
 62
     7
370
    13
100
AcDbLine
 10
8545.326008219959
 20
17370.78298656404
 30
0.0
 11
9061.647985019943
 21
17370.78298656404
 31
0.0
  0
INSERT
  5
EF7E
330
1F
100
AcDbEntity
  8
電気錠制御盤　（株）アート
  6
Continuous
 62
     7
370
    13
100
AcDbBlockReference
  2
*G178787
 10
-328.82326331433
 20
-10833.49483666274
 30
0.0
 41
18.4400706
 42
18.4400706
 43
18.4400706
  0
INSERT
  5
EF7F
330
1F
100
AcDbEntity
  8
電気錠制御盤　（株）アート
  6
Continuous
 62
     7
370
    13
100
AcDbBlockReference
  2
*G188888
 10
-328.82326331433
 20
-10833.49483666274
 30
0.0
 41
18.4400706
 42
18.4400706
 43
18.4400706
  0
CIRCLE
  5
EF80
330
1F
100
AcDbEntity
  8
電気錠制御盤　（株）アート
  6
Continuous
 62
     7
370
    13
100
AcDbCircle
 10
8803.48699661995
 20
16347.35906826408
 30
0.0
 40
46.1001765
  0
CIRCLE
  5
EF81
330
1F
100
AcDbEntity
  8
電気錠制御盤　（株）アート
  6
Continuous
 62
     7
370
    13
100
AcDbCircle
 10
8803.48699661995
 20
16716.16048026406
 30
0.0
 40
46.1001765
  0
CIRCLE
  5
EF82
330
1F
100
AcDbEntity
  8
電気錠制御盤　（株）アート
  6
Continuous
 62
     7
370
    13
100
AcDbCircle
 10
8803.48699661995
 20
17084.96189226409
 30
0.0
 40
46.1001765
  0
INSERT
  5
EF83
330
1F
100
AcDbEntity
  8
電気錠制御盤　（株）アート
  6
Continuous
 62
     7
370
    13
100
AcDbBlockReference
  2
*G198989
 10
-328.82326331433
 20
-10833.49483666274
 30
0.0
 41
18.4400706
 42
18.4400706
 43
18.4400706
  0
LINE
  5
EF84
330
1F
100
AcDbEntity
  8
電気錠制御盤　（株）アート
  6
Continuous
 62
     7
370
    13
100
AcDbLine
 10
8526.885937619942
 20
17926.15013481316
 30
0.0
 11
9080.783541322675
 21
17926.15013481316
 31
0.0
  0
LINE
  5
EF85
330
1F
100
AcDbEntity
  8
電気錠制御盤　（株）アート
  6
Continuous
 62
     7
370
    13
100
AcDbLine
 10
8526.885937619942
 20
15047.33409096406
 30
0.0
 11
9080.088055619958
 21
15047.33409096406
 31
0.0
  0
LINE
  5
EF86
330
1F
100
AcDbEntity
  8
電気錠制御盤　（株）アート
  6
Continuous
 62
     7
370
    13
100
AcDbLine
 10
10738.13358672416
 20
17926.15013481316
 30
0.0
 11
11292.8965276199
 21
17926.15013481316
 31
0.0
  0
LINE
  5
EF87
330
1F
100
AcDbEntity
  8
電気錠制御盤　（株）アート
  6
Continuous
 62
     7
370
    13
100
AcDbLine
 10
10738.13358672416
 20
11635.92102996406
 30
0.0
 11
11292.8965276199
 21
11635.92102996406
 31
0.0
  0
LINE
  5
EF88
330
1F
100
AcDbEntity
  8
電気錠制御盤　（株）アート
  6
Continuous
 62
     7
370
    13
100
AcDbLine
 10
11274.45645702
 20
11654.36110056408
 30
0.0
 11
11274.45645702
 21
13959.36992556404
 31
0.0
  0
LINE
  5
EF89
330
1F
100
AcDbEntity
  8
電気錠制御盤　（株）アート
  6
Continuous
 62
     7
370
    13
100
AcDbLine
 10
10758.1344802199
 20
11654.36110056408
 30
0.0
 11
11274.45645702
 21
11654.36110056408
 31
0.0
  0
LINE
  5
EF8A
330
1F
100
AcDbEntity
  8
電気錠制御盤　（株）アート
  6
Continuous
 62
     7
370
    13
100
AcDbLine
 10
10758.1344802199
 20
13959.36992556404
 30
0.0
 11
10758.1344802199
 21
11654.36110056408
 31
0.0
  0
LINE
  5
EF8B
330
1F
100
AcDbEntity
  8
電気錠制御盤　（株）アート
  6
Continuous
 62
     7
370
    13
100
AcDbLine
 10
11256.7118721227
 20
14477.4808842534
 30
0.0
 11
11256.7118721227
 21
14014.69013736409
 31
0.0
  0
LINE
  5
EF8C
330
1F
100
AcDbEntity
  8
電気錠制御盤　（株）アート
  6
Continuous
 62
     7
370
    13
100
AcDbLine
 10
10775.01372792408
 20
14014.69013736409
 30
0.0
 11
11256.7118721227
 21
14014.69013736409
 31
0.0
  0
LINE
  5
EF8D
330
1F
100
AcDbEntity
  8
電気錠制御盤　（株）アート
  6
Continuous
 62
     7
370
    13
100
AcDbLine
 10
10775.01372792408
 20
14477.4808842534
 30
0.0
 11
10775.01372792408
 21
14014.69013736409
 31
0.0
  0
LINE
  5
EF8E
330
1F
100
AcDbEntity
  8
電気錠制御盤　（株）アート
  6
Continuous
 62
     7
370
    13
100
AcDbLine
 10
10775.01372792408
 20
14477.4808842534
 30
0.0
 11
11256.7118721227
 21
14477.4808842534
 31
0.0
  0
LINE
  5
EF8F
330
1F
100
AcDbEntity
  8
電気錠制御盤　（株）アート
  6
Continuous
 62
     7
370
    13
100
AcDbLine
 10
10969.57459934357
 20
13996.25006676407
 30
0.0
 11
10944.11609035263
 21
14014.67407606257
 31
0.0
  0
LINE
  5
EF90
330
1F
100
AcDbEntity
  8
電気錠制御盤　（株）アート
  6
Continuous
 62
     7
370
    13
100
AcDbLine
 10
11071.40865374728
 20
13996.25006676407
 30
0.0
 11
11094.5527494772
 21
14014.69013736409
 31
0.0
  0
LINE
  5
EF91
330
1F
100
AcDbEntity
  8
電気錠制御盤　（株）アート
  6
Continuous
 62
     7
370
    13
100
AcDbLine
 10
10969.57459934357
 20
13996.25006676407
 30
0.0
 11
11071.40865374728
 21
13996.25006676407
 31
0.0
  0
LINE
  5
EF92
330
1F
100
AcDbEntity
  8
電気錠制御盤　（株）アート
  6
Continuous
 62
     7
370
    13
100
AcDbLine
 10
10758.1344802199
 20
13959.36992556404
 30
0.0
 11
11274.45645702
 21
13959.36992556404
 31
0.0
  0
INSERT
  5
EF93
330
1F
100
AcDbEntity
  8
電気錠制御盤　（株）アート
  6
Continuous
 62
     7
370
    13
100
AcDbBlockReference
  2
*G209090
 10
-328.82326331433
 20
-10833.49483666274
 30
0.0
 41
18.4400706
 42
18.4400706
 43
18.4400706
  0
INSERT
  5
EF94
330
1F
100
AcDbEntity
  8
電気錠制御盤　（株）アート
  6
Continuous
 62
     7
370
    13
100
AcDbBlockReference
  2
*G219191
 10
-328.82326331433
 20
-10833.49483666274
 30
0.0
 41
18.4400706
 42
18.4400706
 43
18.4400706
  0
CIRCLE
  5
EF95
330
1F
100
AcDbEntity
  8
電気錠制御盤　（株）アート
  6
Continuous
 62
     7
370
    13
100
AcDbCircle
 10
11016.2954686199
 20
12935.94600726408
 30
0.0
 40
46.1001765
  0
CIRCLE
  5
EF96
330
1F
100
AcDbEntity
  8
電気錠制御盤　（株）アート
  6
Continuous
 62
     7
370
    13
100
AcDbCircle
 10
11016.2954686199
 20
13304.74741926406
 30
0.0
 40
46.1001765
  0
CIRCLE
  5
EF97
330
1F
100
AcDbEntity
  8
電気錠制御盤　（株）アート
  6
Continuous
 62
     7
370
    13
100
AcDbCircle
 10
11016.2954686199
 20
13673.54883126409
 30
0.0
 40
46.1001765
  0
INSERT
  5
EF98
330
1F
100
AcDbEntity
  8
電気錠制御盤　（株）アート
  6
Continuous
 62
     7
370
    13
100
AcDbBlockReference
  2
*G229292
 10
-328.82326331433
 20
-10833.49483666274
 30
0.0
 41
18.4400706
 42
18.4400706
 43
18.4400706
  0
LINE
  5
EF99
330
1F
100
AcDbEntity
  8
電気錠制御盤　（株）アート
  6
Continuous
 62
     7
370
    13
100
AcDbLine
 10
10184.93146872414
 20
11635.92102996406
 30
0.0
 11
10739.69440962
 21
11635.92102996406
 31
0.0
  0
LINE
  5
EF9A
330
1F
100
AcDbEntity
  8
電気錠制御盤　（株）アート
  6
Continuous
 62
     7
370
    13
100
AcDbLine
 10
10721.25433901999
 20
11654.36110056408
 30
0.0
 11
10721.25433901999
 21
13959.36992556404
 31
0.0
  0
LINE
  5
EF9B
330
1F
100
AcDbEntity
  8
電気錠制御盤　（株）アート
  6
Continuous
 62
     7
370
    13
100
AcDbLine
 10
10204.93236221989
 20
11654.36110056408
 30
0.0
 11
10721.25433901999
 21
11654.36110056408
 31
0.0
  0
LINE
  5
EF9C
330
1F
100
AcDbEntity
  8
電気錠制御盤　（株）アート
  6
Continuous
 62
     7
370
    13
100
AcDbLine
 10
10204.93236221989
 20
13959.36992556404
 30
0.0
 11
10204.93236221989
 21
11654.36110056408
 31
0.0
  0
LINE
  5
EF9D
330
1F
100
AcDbEntity
  8
電気錠制御盤　（株）アート
  6
Continuous
 62
     7
370
    13
100
AcDbLine
 10
10703.50975412269
 20
14477.4808842534
 30
0.0
 11
10703.50975412269
 21
14014.69013736409
 31
0.0
  0
LINE
  5
EF9E
330
1F
100
AcDbEntity
  8
電気錠制御盤　（株）アート
  6
Continuous
 62
     7
370
    13
100
AcDbLine
 10
10221.81160992406
 20
14014.69013736409
 30
0.0
 11
10703.50975412269
 21
14014.69013736409
 31
0.0
  0
LINE
  5
EF9F
330
1F
100
AcDbEntity
  8
電気錠制御盤　（株）アート
  6
Continuous
 62
     7
370
    13
100
AcDbLine
 10
10221.81160992406
 20
14477.4808842534
 30
0.0
 11
10221.81160992406
 21
14014.69013736409
 31
0.0
  0
LINE
  5
EFA0
330
1F
100
AcDbEntity
  8
電気錠制御盤　（株）アート
  6
Continuous
 62
     7
370
    13
100
AcDbLine
 10
10221.81160992406
 20
14477.4808842534
 30
0.0
 11
10703.50975412269
 21
14477.4808842534
 31
0.0
  0
LINE
  5
EFA1
330
1F
100
AcDbEntity
  8
電気錠制御盤　（株）アート
  6
Continuous
 62
     7
370
    13
100
AcDbLine
 10
10184.93146872414
 20
14514.73707381316
 30
0.0
 11
10740.38989532272
 21
14514.73707381316
 31
0.0
  0
LINE
  5
EFA2
330
1F
100
AcDbEntity
  8
電気錠制御盤　（株）アート
  6
Continuous
 62
     7
370
    13
100
AcDbLine
 10
10416.37248134356
 20
13996.25006676407
 30
0.0
 11
10390.91397235262
 21
14014.67407606257
 31
0.0
  0
LINE
  5
EFA3
330
1F
100
AcDbEntity
  8
電気錠制御盤　（株）アート
  6
Continuous
 62
     7
370
    13
100
AcDbLine
 10
10518.20653574726
 20
13996.25006676407
 30
0.0
 11
10541.35063147718
 21
14014.69013736409
 31
0.0
  0
LINE
  5
EFA4
330
1F
100
AcDbEntity
  8
電気錠制御盤　（株）アート
  6
Continuous
 62
     7
370
    13
100
AcDbLine
 10
10416.37248134356
 20
13996.25006676407
 30
0.0
 11
10518.20653574726
 21
13996.25006676407
 31
0.0
  0
LINE
  5
EFA5
330
1F
100
AcDbEntity
  8
電気錠制御盤　（株）アート
  6
Continuous
 62
     7
370
    13
100
AcDbLine
 10
10204.93236221989
 20
13959.36992556404
 30
0.0
 11
10721.25433901999
 21
13959.36992556404
 31
0.0
  0
INSERT
  5
EFA6
330
1F
100
AcDbEntity
  8
電気錠制御盤　（株）アート
  6
Continuous
 62
     7
370
    13
100
AcDbBlockReference
  2
*G239393
 10
-328.82326331433
 20
-10833.49483666274
 30
0.0
 41
18.4400706
 42
18.4400706
 43
18.4400706
  0
INSERT
  5
EFA7
330
1F
100
AcDbEntity
  8
電気錠制御盤　（株）アート
  6
Continuous
 62
     7
370
    13
100
AcDbBlockReference
  2
*G249494
 10
-328.82326331433
 20
-10833.49483666274
 30
0.0
 41
18.4400706
 42
18.4400706
 43
18.4400706
  0
CIRCLE
  5
EFA8
330
1F
100
AcDbEntity
  8
電気錠制御盤　（株）アート
  6
Continuous
 62
     7
370
    13
100
AcDbCircle
 10
10463.09335062
 20
12935.94600726408
 30
0.0
 40
46.1001765
  0
CIRCLE
  5
EFA9
330
1F
100
AcDbEntity
  8
電気錠制御盤　（株）アート
  6
Continuous
 62
     7
370
    13
100
AcDbCircle
 10
10463.09335062
 20
13304.74741926406
 30
0.0
 40
46.1001765
  0
CIRCLE
  5
EFAA
330
1F
100
AcDbEntity
  8
電気錠制御盤　（株）アート
  6
Continuous
 62
     7
370
    13
100
AcDbCircle
 10
10463.09335062
 20
13673.54883126409
 30
0.0
 40
46.1001765
  0
INSERT
  5
EFAB
330
1F
100
AcDbEntity
  8
電気錠制御盤　（株）アート
  6
Continuous
 62
     7
370
    13
100
AcDbBlockReference
  2
*G259595
 10
-328.82326331433
 20
-10833.49483666274
 30
0.0
 41
18.4400706
 42
18.4400706
 43
18.4400706
  0
LINE
  5
EFAC
330
1F
100
AcDbEntity
  8
電気錠制御盤　（株）アート
  6
Continuous
 62
     7
370
    13
100
AcDbLine
 10
9631.72935072413
 20
11635.92102996406
 30
0.0
 11
10186.49229161999
 21
11635.92102996406
 31
0.0
  0
LINE
  5
EFAD
330
1F
100
AcDbEntity
  8
電気錠制御盤　（株）アート
  6
Continuous
 62
     7
370
    13
100
AcDbLine
 10
10168.05222101997
 20
11654.36110056408
 30
0.0
 11
10168.05222101997
 21
13959.36992556404
 31
0.0
  0
LINE
  5
EFAE
330
1F
100
AcDbEntity
  8
電気錠制御盤　（株）アート
  6
Continuous
 62
     7
370
    13
100
AcDbLine
 10
9651.73024421999
 20
11654.36110056408
 30
0.0
 11
10168.05222101997
 21
11654.36110056408
 31
0.0
  0
LINE
  5
EFAF
330
1F
100
AcDbEntity
  8
電気錠制御盤　（株）アート
  6
Continuous
 62
     7
370
    13
100
AcDbLine
 10
9651.73024421999
 20
13959.36992556404
 30
0.0
 11
9651.73024421999
 21
11654.36110056408
 31
0.0
  0
LINE
  5
EFB0
330
1F
100
AcDbEntity
  8
電気錠制御盤　（株）アート
  6
Continuous
 62
     7
370
    13
100
AcDbLine
 10
10150.30763612267
 20
14477.4808842534
 30
0.0
 11
10150.30763612267
 21
14014.69013736409
 31
0.0
  0
LINE
  5
EFB1
330
1F
100
AcDbEntity
  8
電気錠制御盤　（株）アート
  6
Continuous
 62
     7
370
    13
100
AcDbLine
 10
9668.609491924163
 20
14014.69013736409
 30
0.0
 11
10150.30763612267
 21
14014.69013736409
 31
0.0
  0
LINE
  5
EFB2
330
1F
100
AcDbEntity
  8
電気錠制御盤　（株）アート
  6
Continuous
 62
     7
370
    13
100
AcDbLine
 10
9668.609491924163
 20
14477.4808842534
 30
0.0
 11
9668.609491924163
 21
14014.69013736409
 31
0.0
  0
LINE
  5
EFB3
330
1F
100
AcDbEntity
  8
電気錠制御盤　（株）アート
  6
Continuous
 62
     7
370
    13
100
AcDbLine
 10
9668.609491924163
 20
14477.4808842534
 30
0.0
 11
10150.30763612267
 21
14477.4808842534
 31
0.0
  0
LINE
  5
EFB4
330
1F
100
AcDbEntity
  8
電気錠制御盤　（株）アート
  6
Continuous
 62
     7
370
    13
100
AcDbLine
 10
9631.72935072413
 20
14514.73707381316
 30
0.0
 11
10187.1877773227
 21
14514.73707381316
 31
0.0
  0
LINE
  5
EFB5
330
1F
100
AcDbEntity
  8
電気錠制御盤　（株）アート
  6
Continuous
 62
     7
370
    13
100
AcDbLine
 10
9863.170363343543
 20
13996.25006676407
 30
0.0
 11
9837.711854352605
 21
14014.67407606257
 31
0.0
  0
LINE
  5
EFB6
330
1F
100
AcDbEntity
  8
電気錠制御盤　（株）アート
  6
Continuous
 62
     7
370
    13
100
AcDbLine
 10
9965.004417747248
 20
13996.25006676407
 30
0.0
 11
9988.148513477169
 21
14014.69013736409
 31
0.0
  0
LINE
  5
EFB7
330
1F
100
AcDbEntity
  8
電気錠制御盤　（株）アート
  6
Continuous
 62
     7
370
    13
100
AcDbLine
 10
9863.170363343543
 20
13996.25006676407
 30
0.0
 11
9965.004417747248
 21
13996.25006676407
 31
0.0
  0
LINE
  5
EFB8
330
1F
100
AcDbEntity
  8
電気錠制御盤　（株）アート
  6
Continuous
 62
     7
370
    13
100
AcDbLine
 10
9651.73024421999
 20
13959.36992556404
 30
0.0
 11
10168.05222101997
 21
13959.36992556404
 31
0.0
  0
INSERT
  5
EFB9
330
1F
100
AcDbEntity
  8
電気錠制御盤　（株）アート
  6
Continuous
 62
     7
370
    13
100
AcDbBlockReference
  2
*G269696
 10
-328.82326331433
 20
-10833.49483666274
 30
0.0
 41
18.4400706
 42
18.4400706
 43
18.4400706
  0
INSERT
  5
EFBA
330
1F
100
AcDbEntity
  8
電気錠制御盤　（株）アート
  6
Continuous
 62
     7
370
    13
100
AcDbBlockReference
  2
*G279797
 10
-328.82326331433
 20
-10833.49483666274
 30
0.0
 41
18.4400706
 42
18.4400706
 43
18.4400706
  0
CIRCLE
  5
EFBB
330
1F
100
AcDbEntity
  8
電気錠制御盤　（株）アート
  6
Continuous
 62
     7
370
    13
100
AcDbCircle
 10
9909.891232619983
 20
12935.94600726408
 30
0.0
 40
46.1001765
  0
CIRCLE
  5
EFBC
330
1F
100
AcDbEntity
  8
電気錠制御盤　（株）アート
  6
Continuous
 62
     7
370
    13
100
AcDbCircle
 10
9909.891232619983
 20
13304.74741926406
 30
0.0
 40
46.1001765
  0
CIRCLE
  5
EFBD
330
1F
100
AcDbEntity
  8
電気錠制御盤　（株）アート
  6
Continuous
 62
     7
370
    13
100
AcDbCircle
 10
9909.891232619983
 20
13673.54883126409
 30
0.0
 40
46.1001765
  0
INSERT
  5
EFBE
330
1F
100
AcDbEntity
  8
電気錠制御盤　（株）アート
  6
Continuous
 62
     7
370
    13
100
AcDbBlockReference
  2
*G289898
 10
-328.82326331433
 20
-10833.49483666274
 30
0.0
 41
18.4400706
 42
18.4400706
 43
18.4400706
  0
LINE
  5
EFBF
330
1F
100
AcDbEntity
  8
電気錠制御盤　（株）アート
  6
Continuous
 62
     7
370
    13
100
AcDbLine
 10
9078.527232724114
 20
11635.92102996406
 30
0.0
 11
9633.290173619975
 21
11635.92102996406
 31
0.0
  0
LINE
  5
EFC0
330
1F
100
AcDbEntity
  8
電気錠制御盤　（株）アート
  6
Continuous
 62
     7
370
    13
100
AcDbLine
 10
9614.850103019959
 20
11654.36110056408
 30
0.0
 11
9614.850103019959
 21
13959.36992556404
 31
0.0
  0
LINE
  5
EFC1
330
1F
100
AcDbEntity
  8
電気錠制御盤　（株）アート
  6
Continuous
 62
     7
370
    13
100
AcDbLine
 10
9098.528126219974
 20
11654.36110056408
 30
0.0
 11
9614.850103019959
 21
11654.36110056408
 31
0.0
  0
LINE
  5
EFC2
330
1F
100
AcDbEntity
  8
電気錠制御盤　（株）アート
  6
Continuous
 62
     7
370
    13
100
AcDbLine
 10
9098.528126219974
 20
13959.36992556404
 30
0.0
 11
9098.528126219974
 21
11654.36110056408
 31
0.0
  0
LINE
  5
EFC3
330
1F
100
AcDbEntity
  8
電気錠制御盤　（株）アート
  6
Continuous
 62
     7
370
    13
100
AcDbLine
 10
9597.10551812266
 20
14477.4808842534
 30
0.0
 11
9597.10551812266
 21
14014.69013736409
 31
0.0
  0
LINE
  5
EFC4
330
1F
100
AcDbEntity
  8
電気錠制御盤　（株）アート
  6
Continuous
 62
     7
370
    13
100
AcDbLine
 10
9115.407373924147
 20
14014.69013736409
 30
0.0
 11
9597.10551812266
 21
14014.69013736409
 31
0.0
  0
LINE
  5
EFC5
330
1F
100
AcDbEntity
  8
電気錠制御盤　（株）アート
  6
Continuous
 62
     7
370
    13
100
AcDbLine
 10
9115.407373924147
 20
14477.4808842534
 30
0.0
 11
9115.407373924147
 21
14014.69013736409
 31
0.0
  0
LINE
  5
EFC6
330
1F
100
AcDbEntity
  8
電気錠制御盤　（株）アート
  6
Continuous
 62
     7
370
    13
100
AcDbLine
 10
9115.407373924147
 20
14477.4808842534
 30
0.0
 11
9597.10551812266
 21
14477.4808842534
 31
0.0
  0
LINE
  5
EFC7
330
1F
100
AcDbEntity
  8
電気錠制御盤　（株）アート
  6
Continuous
 62
     7
370
    13
100
AcDbLine
 10
9078.527232724114
 20
14514.73707381316
 30
0.0
 11
9633.985659322691
 21
14514.73707381316
 31
0.0
  0
LINE
  5
EFC8
330
1F
100
AcDbEntity
  8
電気錠制御盤　（株）アート
  6
Continuous
 62
     7
370
    13
100
AcDbLine
 10
9309.968245343528
 20
13996.25006676407
 30
0.0
 11
9284.509736352589
 21
14014.67407606257
 31
0.0
  0
LINE
  5
EFC9
330
1F
100
AcDbEntity
  8
電気錠制御盤　（株）アート
  6
Continuous
 62
     7
370
    13
100
AcDbLine
 10
9411.802299747231
 20
13996.25006676407
 30
0.0
 11
9434.946395477266
 21
14014.69013736409
 31
0.0
  0
LINE
  5
EFCA
330
1F
100
AcDbEntity
  8
電気錠制御盤　（株）アート
  6
Continuous
 62
     7
370
    13
100
AcDbLine
 10
9309.968245343528
 20
13996.25006676407
 30
0.0
 11
9411.802299747231
 21
13996.25006676407
 31
0.0
  0
LINE
  5
EFCB
330
1F
100
AcDbEntity
  8
電気錠制御盤　（株）アート
  6
Continuous
 62
     7
370
    13
100
AcDbLine
 10
9098.528126219974
 20
13959.36992556404
 30
0.0
 11
9614.850103019959
 21
13959.36992556404
 31
0.0
  0
INSERT
  5
EFCC
330
1F
100
AcDbEntity
  8
電気錠制御盤　（株）アート
  6
Continuous
 62
     7
370
    13
100
AcDbBlockReference
  2
*G299999
 10
-328.82326331433
 20
-10833.49483666274
 30
0.0
 41
18.4400706
 42
18.4400706
 43
18.4400706
  0
INSERT
  5
EFCD
330
1F
100
AcDbEntity
  8
電気錠制御盤　（株）アート
  6
Continuous
 62
     7
370
    13
100
AcDbBlockReference
  2
*G30100100
 10
-328.82326331433
 20
-10833.49483666274
 30
0.0
 41
18.4400706
 42
18.4400706
 43
18.4400706
  0
CIRCLE
  5
EFCE
330
1F
100
AcDbEntity
  8
電気錠制御盤　（株）アート
  6
Continuous
 62
     7
370
    13
100
AcDbCircle
 10
9356.689114619966
 20
12935.94600726408
 30
0.0
 40
46.1001765
  0
CIRCLE
  5
EFCF
330
1F
100
AcDbEntity
  8
電気錠制御盤　（株）アート
  6
Continuous
 62
     7
370
    13
100
AcDbCircle
 10
9356.689114619966
 20
13304.74741926406
 30
0.0
 40
46.1001765
  0
CIRCLE
  5
EFD0
330
1F
100
AcDbEntity
  8
電気錠制御盤　（株）アート
  6
Continuous
 62
     7
370
    13
100
AcDbCircle
 10
9356.689114619966
 20
13673.54883126409
 30
0.0
 40
46.1001765
  0
INSERT
  5
EFD1
330
1F
100
AcDbEntity
  8
電気錠制御盤　（株）アート
  6
Continuous
 62
     7
370
    13
100
AcDbBlockReference
  2
*G31101101
 10
-328.82326331433
 20
-10833.49483666274
 30
0.0
 41
18.4400706
 42
18.4400706
 43
18.4400706
  0
LINE
  5
EFD2
330
1F
100
AcDbEntity
  8
電気錠制御盤　（株）アート
  6
Continuous
 62
     7
370
    13
100
AcDbLine
 10
9061.647985019943
 20
11654.36110056408
 30
0.0
 11
9061.647985019943
 21
13959.36992556404
 31
0.0
  0
LINE
  5
EFD3
330
1F
100
AcDbEntity
  8
電気錠制御盤　（株）アート
  6
Continuous
 62
     7
370
    13
100
AcDbLine
 10
8545.326008219959
 20
11654.36110056408
 30
0.0
 11
9061.647985019943
 21
11654.36110056408
 31
0.0
  0
LINE
  5
EFD4
330
1F
100
AcDbEntity
  8
電気錠制御盤　（株）アート
  6
Continuous
 62
     7
370
    13
100
AcDbLine
 10
8545.326008219959
 20
13959.36992556404
 30
0.0
 11
8545.326008219959
 21
11654.36110056408
 31
0.0
  0
LINE
  5
EFD5
330
1F
100
AcDbEntity
  8
電気錠制御盤　（株）アート
  6
Continuous
 62
     7
370
    13
100
AcDbLine
 10
9043.903400122642
 20
14477.4808842534
 30
0.0
 11
9043.903400122642
 21
14014.69013736409
 31
0.0
  0
LINE
  5
EFD6
330
1F
100
AcDbEntity
  8
電気錠制御盤　（株）アート
  6
Continuous
 62
     7
370
    13
100
AcDbLine
 10
8562.205255924132
 20
14014.69013736409
 30
0.0
 11
9043.903400122642
 21
14014.69013736409
 31
0.0
  0
LINE
  5
EFD7
330
1F
100
AcDbEntity
  8
電気錠制御盤　（株）アート
  6
Continuous
 62
     7
370
    13
100
AcDbLine
 10
8562.205255924132
 20
14477.4808842534
 30
0.0
 11
8562.205255924132
 21
14014.69013736409
 31
0.0
  0
LINE
  5
EFD8
330
1F
100
AcDbEntity
  8
電気錠制御盤　（株）アート
  6
Continuous
 62
     7
370
    13
100
AcDbLine
 10
8562.205255924132
 20
14477.4808842534
 30
0.0
 11
9043.903400122642
 21
14477.4808842534
 31
0.0
  0
LINE
  5
EFD9
330
1F
100
AcDbEntity
  8
電気錠制御盤　（株）アート
  6
Continuous
 62
     7
370
    13
100
AcDbLine
 10
8756.766127343512
 20
13996.25006676407
 30
0.0
 11
8731.307618352573
 21
14014.67407606257
 31
0.0
  0
LINE
  5
EFDA
330
1F
100
AcDbEntity
  8
電気錠制御盤　（株）アート
  6
Continuous
 62
     7
370
    13
100
AcDbLine
 10
8858.600181747217
 20
13996.25006676407
 30
0.0
 11
8881.744277477253
 21
14014.69013736409
 31
0.0
  0
LINE
  5
EFDB
330
1F
100
AcDbEntity
  8
電気錠制御盤　（株）アート
  6
Continuous
 62
     7
370
    13
100
AcDbLine
 10
8756.766127343512
 20
13996.25006676407
 30
0.0
 11
8858.600181747217
 21
13996.25006676407
 31
0.0
  0
LINE
  5
EFDC
330
1F
100
AcDbEntity
  8
電気錠制御盤　（株）アート
  6
Continuous
 62
     7
370
    13
100
AcDbLine
 10
8545.326008219959
 20
13959.36992556404
 30
0.0
 11
9061.647985019943
 21
13959.36992556404
 31
0.0
  0
INSERT
  5
EFDD
330
1F
100
AcDbEntity
  8
電気錠制御盤　（株）アート
  6
Continuous
 62
     7
370
    13
100
AcDbBlockReference
  2
*G32102102
 10
-328.82326331433
 20
-10833.49483666274
 30
0.0
 41
18.4400706
 42
18.4400706
 43
18.4400706
  0
INSERT
  5
EFDE
330
1F
100
AcDbEntity
  8
電気錠制御盤　（株）アート
  6
Continuous
 62
     7
370
    13
100
AcDbBlockReference
  2
*G33103103
 10
-328.82326331433
 20
-10833.49483666274
 30
0.0
 41
18.4400706
 42
18.4400706
 43
18.4400706
  0
CIRCLE
  5
EFDF
330
1F
100
AcDbEntity
  8
電気錠制御盤　（株）アート
  6
Continuous
 62
     7
370
    13
100
AcDbCircle
 10
8803.48699661995
 20
12935.94600726408
 30
0.0
 40
46.1001765
  0
CIRCLE
  5
EFE0
330
1F
100
AcDbEntity
  8
電気錠制御盤　（株）アート
  6
Continuous
 62
     7
370
    13
100
AcDbCircle
 10
8803.48699661995
 20
13304.74741926406
 30
0.0
 40
46.1001765
  0
CIRCLE
  5
EFE1
330
1F
100
AcDbEntity
  8
電気錠制御盤　（株）アート
  6
Continuous
 62
     7
370
    13
100
AcDbCircle
 10
8803.48699661995
 20
13673.54883126409
 30
0.0
 40
46.1001765
  0
INSERT
  5
EFE2
330
1F
100
AcDbEntity
  8
電気錠制御盤　（株）アート
  6
Continuous
 62
     7
370
    13
100
AcDbBlockReference
  2
*G34104104
 10
-328.82326331433
 20
-10833.49483666274
 30
0.0
 41
18.4400706
 42
18.4400706
 43
18.4400706
  0
LINE
  5
EFE3
330
1F
100
AcDbEntity
  8
電気錠制御盤　（株）アート
  6
Continuous
 62
     7
370
    13
100
AcDbLine
 10
8526.885937619942
 20
14514.73707381316
 30
0.0
 11
9080.783541322675
 21
14514.73707381316
 31
0.0
  0
LINE
  5
EFE4
330
1F
100
AcDbEntity
  8
電気錠制御盤　（株）アート
  6
Continuous
 62
     7
370
    13
100
AcDbLine
 10
8526.885937619942
 20
11635.92102996406
 30
0.0
 11
9080.088055619958
 21
11635.92102996406
 31
0.0
  0
LINE
  5
EFE5
330
1F
100
AcDbEntity
  8
電気錠制御盤　（株）アート
  6
Continuous
 62
     7
370
    13
100
AcDbLine
 10
10738.13358672416
 20
14514.73707381316
 30
0.0
 11
11292.8965276199
 21
14514.73707381316
 31
0.0
  0
DIMENSION
  5
EFFA
330
1F
100
AcDbEntity
  8
電気錠制御盤　（株）アート
  6
Continuous
 62
     7
370
    13
100
AcDbDimension
  2
*D130
 10
13597.90535261993
 20
20385.73452966405
 30
0.0
 11
9909.891232619925
 21
20635.73452966405
 31
0.0
 70
    32
  1
400
 71
     5
 42
7376.028240000012
  3
STANDARD
100
AcDbAlignedDimension
 13
6221.877112619917
 23
19353.09057606408
 33
0.0
 14
13597.90535261993
 24
19353.09057606408
 34
0.0
100
AcDbRotatedDimension
1001
ACAD
1000
DSTYLE
1002
{
1070
    41
1040
500.0
1070
    42
1040
100.0
1070
    73
1070
     0
1070
    77
1070
     1
1070
   140
1040
400.0
1070
   147
1040
50.0
1070
   173
1070
     1
1070
   343
1005
2B
1070
   344
1005
2B
1002
}
  0
DIMENSION
  5
EFFB
330
1F
100
AcDbEntity
  8
電気錠制御盤　（株）アート
  6
Continuous
 62
     7
370
    13
100
AcDbDimension
  2
*D131
 10
19512.98892442994
 20
20385.73452966405
 30
0.0
 11
18406.58468842991
 21
20635.73452966405
 31
0.0
 70
    32
  1
120
 71
     5
 42
2212.808472000059
  3
STANDARD
100
AcDbAlignedDimension
 13
17300.18045242988
 23
19353.09057606408
 33
0.0
 14
19512.98892442994
 24
19353.09057606408
 34
0.0
100
AcDbRotatedDimension
1001
ACAD
1000
DSTYLE
1002
{
1070
    41
1040
500.0
1070
    42
1040
100.0
1070
    73
1070
     0
1070
    77
1070
     1
1070
   140
1040
400.0
1070
   147
1040
50.0
1070
   173
1070
     1
1070
   343
1005
2B
1070
   344
1005
2B
1002
}
  0
ARC
  5
F006
330
1F
100
AcDbEntity
  8
電気錠制御盤　（株）アート
  6
Continuous
 62
     7
370
    13
100
AcDbCircle
 10
7024.216201670457
 20
15109.71817748895
 30
0.0
 40
92.20035300000001
100
AcDbArc
 50
104.9006000000459
 51
180.0000049998701
  0
ARC
  5
F007
330
1F
100
AcDbEntity
  8
電気錠制御盤　（株）アート
  6
Continuous
 62
     7
370
    13
100
AcDbCircle
 10
7190.288768298913
 20
14485.1627595044
 30
0.0
 40
738.45844327584
100
AcDbArc
 50
90.00868400005263
 51
104.8919120000441
  0
LINE
  5
F008
330
1F
100
AcDbEntity
  8
電気錠制御盤　（株）アート
  6
Continuous
 62
     7
370
    13
100
AcDbLine
 10
6931.819830719952
 20
15117.07749902498
 30
0.0
 11
6931.819830719952
 21
15001.23391446408
 31
0.0
  0
LINE
  5
F009
330
1F
100
AcDbEntity
  8
電気錠制御盤　（株）アート
  6
Continuous
 62
     7
370
    13
100
AcDbLine
 10
7033.203301998542
 20
15206.7201220324
 30
0.0
 11
6783.917722419126
 21
15390.64542457229
 31
0.0
  0
LINE
  5
F00A
330
1F
100
AcDbEntity
  8
電気錠制御盤　（株）アート
  6
Continuous
 62
     7
370
    13
100
AcDbLine
 10
7033.203301998542
 20
15206.7201220324
 30
0.0
 11
6909.278301176954
 21
15490.64690475981
 31
0.0
  0
POLYLINE
  5
F00B
330
1F
100
AcDbEntity
  8
電気錠制御盤　（株）アート
  6
Continuous
 62
     7
370
    13
100
AcDb2dPolyline
 66
     1
 10
0.0
 20
0.0
 30
0.0
  0
VERTEX
  5
F00C
330
F00B
100
AcDbEntity
  8
電気錠制御盤　（株）アート
  6
Continuous
 62
     7
370
    13
100
AcDbVertex
100
AcDb2dVertex
 10
7033.203301998542
 20
15206.7201220324
 30
0.0
  0
VERTEX
  5
F00D
330
F00B
100
AcDbEntity
  8
電気錠制御盤　（株）アート
  6
Continuous
 62
     7
370
    13
100
AcDbVertex
100
AcDb2dVertex
 10
5619.242365441274
 20
16979.24378734973
 30
0.0
  0
VERTEX
  5
F00E
330
F00B
100
AcDbEntity
  8
電気錠制御盤　（株）アート
  6
Continuous
 62
     7
370
    13
100
AcDbVertex
100
AcDb2dVertex
 10
3166.712975641236
 20
16979.24378734973
 30
0.0
  0
SEQEND
  5
F00F
330
F00B
100
AcDbEntity
  8
電気錠制御盤　（株）アート
  6
Continuous
 62
     7
370
    13
  0
TEXT
  5
F010
330
1F
100
AcDbEntity
  8
電気錠制御盤　（株）アート
  6
Continuous
 62
     7
370
    13
100
AcDbText
 10
3166.712975641236
 20
17095.41623212973
 30
0.0
 40
387.2414826
  1
平面ハンドル
  7
KANJI
 11
3166.712975641236
 21
17043.78403444973
 31
0.0
100
AcDbText
 73
     1
  0
DIMENSION
  5
F011
330
1F
100
AcDbEntity
  8
電気錠制御盤　（株）アート
  6
Continuous
 62
     7
370
    13
100
AcDbDimension
  2
*D134
 10
14888.7102946203
 20
9874.894287664076
 30
0.0
 11
14638.7102946203
 21
14484.91193766408
 31
0.0
 70
    32
  1
500
 71
     5
 42
9220.035300000024
  3
STANDARD
100
AcDbAlignedDimension
 13
13804.78258691401
 23
19094.92958766409
 33
0.0
 14
13725.22131646423
 24
9874.894287664073
 34
0.0
 50
90.0
100
AcDbRotatedDimension
1001
ACAD
1000
DSTYLE
1002
{
1070
    41
1040
500.0
1070
    42
1040
100.0
1070
    73
1070
     0
1070
    77
1070
     1
1070
   140
1040
400.0
1070
   147
1040
50.0
1070
   173
1070
     1
1070
   343
1005
2B
1070
   344
1005
2B
1002
}
  0
ENDSEC
  0
SECTION
  2
OBJECTS
  0
DICTIONARY
  5
C
330
0
100
AcDbDictionary
281
     1
  3
ACAD_CIP_PREVIOUS_PRODUCT_INFO
350
E773
  3
ACAD_COLOR
350
E757
  3
ACAD_DETAILVIEWSTYLE
350
E770
  3
ACAD_GROUP
350
D
  3
ACAD_LAYOUT
350
1A
  3
ACAD_MATERIAL
350
E725
  3
ACAD_MLEADERSTYLE
350
E76C
  3
ACAD_MLINESTYLE
350
17
  3
ACAD_PLOTSETTINGS
350
19
  3
ACAD_PLOTSTYLENAME
350
9FDC
  3
ACAD_SCALELIST
350
E75A
  3
ACAD_SECTIONVIEWSTYLE
350
E76E
  3
ACAD_TABLESTYLE
350
E758
  3
ACAD_VISUALSTYLE
350
E73E
  3
ACDB_RECOMPOSE_DATA
350
F565
  3
AcDbVariableDictionary
350
E71E
  3
DWGPROPS
350
F566
  0
DICTIONARY
  5
73
330
2
100
AcDbDictionary
281
     1
  3
ACAD_LAYERSTATES
350
74
  0
DICTIONARY
  5
F2A5
330
10
100
AcDbDictionary
280
     1
281
     1
  3
ADSK_XREC_LAYER_RECONCILED
360
F2A6
  0
DICTIONARY
  5
E93A
330
E939
100
AcDbDictionary
280
     1
281
     1
  3
ADSK_XREC_LAYER_RECONCILED
360
F2AB
  0
DICTIONARY
  5
F323
330
F322
100
AcDbDictionary
280
     1
281
     1
  0
DICTIONARY
  5
2CF6
330
1F
100
AcDbDictionary
281
     1
  3
ACAD_LAYOUTSELFREF
350
9FB3
  0
DICTIONARY
  5
2CF4
330
1B
100
AcDbDictionary
281
     1
  3
ACAD_LAYOUTSELFREF
350
9FB2
  0
XRECORD
  5
E773
102
{ACAD_REACTORS
330
C
102
}
330
C
100
AcDbXrecord
280
     1
300
ACDLT
300
2020
300

  0
DICTIONARY
  5
E757
102
{ACAD_REACTORS
330
C
102
}
330
C
100
AcDbDictionary
281
     1
  0
DICTIONARY
  5
E770
102
{ACAD_REACTORS
330
C
102
}
330
C
100
AcDbDictionary
281
     1
  3
Imperial24
350
E771
  0
DICTIONARY
  5
D
102
{ACAD_REACTORS
330
C
102
}
330
C
100
AcDbDictionary
281
     1
  0
DICTIONARY
  5
1A
102
{ACAD_REACTORS
330
C
102
}
330
C
100
AcDbDictionary
281
     1
  3
Model
350
9FDE
  3
\U+FF9A\U+FF72\U+FF71\U+FF73\U+FF841
350
9FDF
  0
DICTIONARY
  5
E725
102
{ACAD_REACTORS
330
C
102
}
330
C
100
AcDbDictionary
281
     1
  3
ByBlock
350
E72E
  3
ByLayer
350
E726
  3
Global
350
E736
  0
DICTIONARY
  5
E76C
102
{ACAD_REACTORS
330
C
102
}
330
C
100
AcDbDictionary
281
     1
  3
Standard
350
E76D
  0
DICTIONARY
  5
17
102
{ACAD_REACTORS
330
C
102
}
330
C
100
AcDbDictionary
281
     1
  3
STANDARD
350
18
  0
DICTIONARY
  5
19
102
{ACAD_REACTORS
330
C
102
}
330
C
100
AcDbDictionary
281
     1
  0
ACDBDICTIONARYWDFLT
  5
9FDC
102
{ACAD_REACTORS
330
C
102
}
330
C
100
AcDbDictionary
281
     1
  3
Normal
350
9FDD
100
AcDbDictionaryWithDefault
340
9FDD
  0
DICTIONARY
  5
E75A
102
{ACAD_REACTORS
330
C
102
}
330
C
100
AcDbDictionary
281
     1
  3
A0
350
E75B
  3
A1
350
E75C
  3
A2
350
E75D
  3
A3
350
E75E
  3
A4
350
E75F
  3
A5
350
E760
  3
A6
350
E761
  3
A7
350
E762
  3
A8
350
E763
  3
A9
350
E764
  3
B0
350
E765
  3
B1
350
E766
  3
B2
350
E767
  3
B3
350
E768
  3
B4
350
E769
  3
B5
350
E76A
  3
B6
350
E76B
  0
DICTIONARY
  5
E76E
102
{ACAD_REACTORS
330
C
102
}
330
C
100
AcDbDictionary
281
     1
  3
Imperial24
350
E76F
  0
DICTIONARY
  5
E758
102
{ACAD_REACTORS
330
C
102
}
330
C
100
AcDbDictionary
281
     1
  3
Standard
350
E759
  0
DICTIONARY
  5
E73E
102
{ACAD_REACTORS
330
C
102
}
330
C
100
AcDbDictionary
281
     1
  3
2dWireframe
350
E744
  3
Basic
350
E743
  3
Brighten
350
E74A
  3
ColorChange
350
E74E
  3
Conceptual
350
E747
  3
Dim
350
E749
  3
EdgeColorOff
350
E756
  3
Facepattern
350
E74D
  3
Flat
350
E73F
  3
FlatWithEdges
350
E740
  3
Gouraud
350
E741
  3
GouraudWithEdges
350
E742
  3
Hidden
350
E746
  3
JitterOff
350
E754
  3
Linepattern
350
E74C
  3
OverhangOff
350
E755
  3
Realistic
350
E748
  3
Shaded
350
E753
  3
Shaded with edges
350
E752
  3
Shades of Gray
350
E74F
  3
Sketchy
350
E750
  3
Thicken
350
E74B
  3
Wireframe
350
E745
  3
X-Ray
350
E751
  0
XRECORD
  5
F565
102
{ACAD_REACTORS
330
C
102
}
330
C
100
AcDbXrecord
280
     1
 90
        1
330
E759
  0
DICTIONARY
  5
E71E
102
{ACAD_REACTORS
330
C
102
}
330
C
100
AcDbDictionary
281
     1
  3
CANNOSCALE
350
F2B3
  3
CMLEADERSTYLE
350
F2B0
  3
CTABLESTYLE
350
F2AF
  3
CVIEWDETAILSTYLE
350
F2B1
  3
CVIEWSECTIONSTYLE
350
F2B2
  3
DIMASSOC
350
E71F
  3
INDEXCTL
350
F2B5
  3
SORTENTS
350
F2B4
  3
XCLIPFRAME
350
F563
  0
XRECORD
  5
F566
102
{ACAD_REACTORS
330
C
102
}
330
C
100
AcDbXrecord
280
     1
  1
DWGPROPS COOKIE
  2

  3

  4

  6

  7

  8
nagahama
  9

300
=
301
=
302
=
303
=
304
=
305
=
306
=
307
=
308
=
309
=
 40
0.0338889236111111
 41
2455236.663553241
 42
2459046.730428241
  1

 90
        0
  0
DICTIONARY
  5
74
102
{ACAD_REACTORS
330
73
102
}
330
73
100
AcDbDictionary
281
     1
  0
XRECORD
  5
F2A6
102
{ACAD_REACTORS
330
F2A5
102
}
330
F2A5
100
AcDbXrecord
280
     1
290
     1
  0
XRECORD
  5
F2AB
102
{ACAD_REACTORS
330
E93A
102
}
330
E93A
100
AcDbXrecord
280
     1
290
     1
  0
XRECORD
  5
9FB3
102
{ACAD_REACTORS
330
2CF6
102
}
330
2CF6
100
AcDbXrecord
280
     1
340
1F
  0
XRECORD
  5
9FB2
102
{ACAD_REACTORS
330
2CF4
102
}
330
2CF4
100
AcDbXrecord
280
     1
340
1B
  0
ACDBDETAILVIEWSTYLE
  5
E771
102
{ACAD_XDICTIONARY
360
F59E
102
}
102
{ACAD_REACTORS
330
E770
102
}
330
E770
100
AcDbModelDocViewStyle
 70
     0
  3
Imperial24
290
     0
100
AcDbDetailViewStyle
 70
     0
 71
     0
 90
        3
 71
     1
340
11
 40
0.24
340
0
 40
0.24
300

 40
0.36
280
     3
 71
     2
340
16
 90
       25
 71
     3
340
11
 40
0.24
 90
        1
 40
0.75
 90
        1
300
%<\AcVar ViewType \f "%tc1">% %<\AcVar ViewDetailId>%\PSCALE %<\AcVar ViewScale \f "%sn">%
 71
     4
340
16
 90
       25
340
16
 90
       25
280
     0
  0
LAYOUT
  5
9FDE
102
{ACAD_XDICTIONARY
360
F567
102
}
102
{ACAD_REACTORS
330
1A
102
}
330
1A
100
AcDbPlotSettings
  1

  2
NEC MultiWriter2360/2360N
  4

  6

 40
0.0
 41
0.0
 42
0.0
 43
0.0
 44
0.0
 45
0.0
 46
0.0
 47
0.0
 48
0.0
 49
0.0
140
0.0
141
0.0
142
1.0
143
1.0
 70
  1712
 72
     0
 73
     0
 74
     0
  7

 75
     0
147
1.0
148
0.0
149
0.0
100
AcDbLayout
  1
Model
 70
     1
 71
     0
 10
0.0
 20
0.0
 11
12.0
 21
9.0
 12
0.0
 22
0.0
 32
0.0
 14
0.0
 24
0.0
 34
0.0
 15
0.0
 25
0.0
 35
0.0
146
0.0
 13
0.0
 23
0.0
 33
0.0
 16
1.0
 26
0.0
 36
0.0
 17
0.0
 27
1.0
 37
0.0
 76
     0
330
1F
331
E720
  0
LAYOUT
  5
9FDF
102
{ACAD_XDICTIONARY
360
F569
102
}
102
{ACAD_REACTORS
330
1A
102
}
330
1A
100
AcDbPlotSettings
  1

  2
NEC MultiWriter2360/2360N
  4

  6

 40
0.0
 41
0.0
 42
0.0
 43
0.0
 44
0.0
 45
0.0
 46
0.0
 47
0.0
 48
0.0
 49
0.0
140
0.0
141
0.0
142
1.0
143
1.0
 70
   688
 72
     0
 73
     0
 74
     5
  7

 75
    16
147
1.0
148
0.0
149
0.0
100
AcDbLayout
  1
\U+FF9A\U+FF72\U+FF71\U+FF73\U+FF841
 70
     1
 71
     1
 10
0.0
 20
0.0
 11
420.0
 21
297.0
 12
0.0
 22
0.0
 32
0.0
 14
1.000000000000000E+20
 24
1.000000000000000E+20
 34
1.000000000000000E+20
 15
-1.000000000000000E+20
 25
-1.000000000000000E+20
 35
-1.000000000000000E+20
146
0.0
 13
0.0
 23
0.0
 33
0.0
 16
1.0
 26
0.0
 36
0.0
 17
0.0
 27
1.0
 37
0.0
 76
     0
330
1B
  0
MATERIAL
  5
E72E
102
{ACAD_XDICTIONARY
360
E72F
102
}
102
{ACAD_REACTORS
330
E725
102
}
330
E725
100
AcDbMaterial
  1
ByBlock
 72
     0
 43
0.0208333333333333
 43
0.0
 43
0.0
 43
0.0
 43
0.0
 43
0.0208333333333333
 43
0.0
 43
0.0
 43
0.0
 43
0.0
 43
1.0
 43
0.0
 43
0.0
 43
0.0
 43
0.0
 43
1.0
 77
     0
 47
0.0208333333333333
 47
0.0
 47
0.0
 47
0.0
 47
0.0
 47
0.0208333333333333
 47
0.0
 47
0.0
 47
0.0
 47
0.0
 47
1.0
 47
0.0
 47
0.0
 47
0.0
 47
0.0
 47
1.0
171
     0
 49
0.0208333333333333
 49
0.0
 49
0.0
 49
0.0
 49
0.0
 49
0.0208333333333333
 49
0.0
 49
0.0
 49
0.0
 49
0.0
 49
1.0
 49
0.0
 49
0.0
 49
0.0
 49
0.0
 49
1.0
175
     0
142
0.0208333333333333
142
0.0
142
0.0
142
0.0
142
0.0
142
0.0208333333333333
142
0.0
142
0.0
142
0.0
142
0.0
142
1.0
142
0.0
142
0.0
142
0.0
142
0.0
142
1.0
179
     0
144
0.0208333333333333
144
0.0
144
0.0
144
0.0
144
0.0
144
0.0208333333333333
144
0.0
144
0.0
144
0.0
144
0.0
144
1.0
144
0.0
144
0.0
144
0.0
144
0.0
144
1.0
147
0.0208333333333333
147
0.0
147
0.0
147
0.0
147
0.0
147
0.0208333333333333
147
0.0
147
0.0
147
0.0
147
0.0
147
1.0
147
0.0
147
0.0
147
0.0
147
0.0
147
1.0
  0
MATERIAL
  5
E726
102
{ACAD_XDICTIONARY
360
E727
102
}
102
{ACAD_REACTORS
330
E725
102
}
330
E725
100
AcDbMaterial
  1
ByLayer
 72
     0
 43
0.0208333333333333
 43
0.0
 43
0.0
 43
0.0
 43
0.0
 43
0.0208333333333333
 43
0.0
 43
0.0
 43
0.0
 43
0.0
 43
1.0
 43
0.0
 43
0.0
 43
0.0
 43
0.0
 43
1.0
 77
     0
 47
0.0208333333333333
 47
0.0
 47
0.0
 47
0.0
 47
0.0
 47
0.0208333333333333
 47
0.0
 47
0.0
 47
0.0
 47
0.0
 47
1.0
 47
0.0
 47
0.0
 47
0.0
 47
0.0
 47
1.0
171
     0
 49
0.0208333333333333
 49
0.0
 49
0.0
 49
0.0
 49
0.0
 49
0.0208333333333333
 49
0.0
 49
0.0
 49
0.0
 49
0.0
 49
1.0
 49
0.0
 49
0.0
 49
0.0
 49
0.0
 49
1.0
175
     0
142
0.0208333333333333
142
0.0
142
0.0
142
0.0
142
0.0
142
0.0208333333333333
142
0.0
142
0.0
142
0.0
142
0.0
142
1.0
142
0.0
142
0.0
142
0.0
142
0.0
142
1.0
179
     0
144
0.0208333333333333
144
0.0
144
0.0
144
0.0
144
0.0
144
0.0208333333333333
144
0.0
144
0.0
144
0.0
144
0.0
144
1.0
144
0.0
144
0.0
144
0.0
144
0.0
144
1.0
147
0.0208333333333333
147
0.0
147
0.0
147
0.0
147
0.0
147
0.0208333333333333
147
0.0
147
0.0
147
0.0
147
0.0
147
1.0
147
0.0
147
0.0
147
0.0
147
0.0
147
1.0
  0
MATERIAL
  5
E736
102
{ACAD_XDICTIONARY
360
E737
102
}
102
{ACAD_REACTORS
330
E725
102
}
330
E725
100
AcDbMaterial
  1
Global
 72
     0
 43
0.0208333333333333
 43
0.0
 43
0.0
 43
0.0
 43
0.0
 43
0.0208333333333333
 43
0.0
 43
0.0
 43
0.0
 43
0.0
 43
1.0
 43
0.0
 43
0.0
 43
0.0
 43
0.0
 43
1.0
 77
     0
 47
0.0208333333333333
 47
0.0
 47
0.0
 47
0.0
 47
0.0
 47
0.0208333333333333
 47
0.0
 47
0.0
 47
0.0
 47
0.0
 47
1.0
 47
0.0
 47
0.0
 47
0.0
 47
0.0
 47
1.0
171
     0
 49
0.0208333333333333
 49
0.0
 49
0.0
 49
0.0
 49
0.0
 49
0.0208333333333333
 49
0.0
 49
0.0
 49
0.0
 49
0.0
 49
1.0
 49
0.0
 49
0.0
 49
0.0
 49
0.0
 49
1.0
175
     0
142
0.0208333333333333
142
0.0
142
0.0
142
0.0
142
0.0
142
0.0208333333333333
142
0.0
142
0.0
142
0.0
142
0.0
142
1.0
142
0.0
142
0.0
142
0.0
142
0.0
142
1.0
179
     0
144
0.0208333333333333
144
0.0
144
0.0
144
0.0
144
0.0
144
0.0208333333333333
144
0.0
144
0.0
144
0.0
144
0.0
144
1.0
144
0.0
144
0.0
144
0.0
144
0.0
144
1.0
147
0.0208333333333333
147
0.0
147
0.0
147
0.0
147
0.0
147
0.0208333333333333
147
0.0
147
0.0
147
0.0
147
0.0
147
1.0
147
0.0
147
0.0
147
0.0
147
0.0
147
1.0
  0
MLEADERSTYLE
  5
E76D
102
{ACAD_REACTORS
330
E76C
102
}
330
E76C
100
AcDbMLeaderStyle
170
     2
171
     1
172
     0
 90
        2
 40
0.0
 41
0.0
173
     1
 91
-1056964608
340
14
 92
       -2
290
     1
 42
0.09
291
     1
 43
0.36
  3
Standard
 44
0.18
300

342
11
174
     1
178
     6
175
     1
176
     0
 93
-1056964608
 45
0.18
292
     0
297
     0
 46
0.18
 94
-1056964608
 47
1.0
 49
1.0
140
1.0
293
     1
141
0.0
294
     1
177
     0
142
1.0
295
     0
296
     0
143
0.125
1001
ACAD_MLEADERVER
1070
     2
  0
MLINESTYLE
  5
18
102
{ACAD_REACTORS
330
17
102
}
330
17
100
AcDbMlineStyle
  2
STANDARD
 70
     0
  3

 62
   256
 51
90.0
 52
90.0
 71
     2
 49
0.5
 62
   256
  6
BYLAYER
 49
-0.5
 62
   256
  6
BYLAYER
  0
ACDBPLACEHOLDER
  5
9FDD
102
{ACAD_REACTORS
330
9FDC
102
}
330
9FDC
  0
SCALE
  5
E75B
102
{ACAD_REACTORS
330
E75A
102
}
330
E75A
100
AcDbScale
 70
     0
300
1:1
140
1.0
141
1.0
290
     1
  0
SCALE
  5
E75C
102
{ACAD_REACTORS
330
E75A
102
}
330
E75A
100
AcDbScale
 70
     0
300
1/128" = 1'-0"
140
0.0078125
141
12.0
290
     0
  0
SCALE
  5
E75D
102
{ACAD_REACTORS
330
E75A
102
}
330
E75A
100
AcDbScale
 70
     0
300
1/64" = 1'-0"
140
0.015625
141
12.0
290
     0
  0
SCALE
  5
E75E
102
{ACAD_REACTORS
330
E75A
102
}
330
E75A
100
AcDbScale
 70
     0
300
1/32" = 1'-0"
140
0.03125
141
12.0
290
     0
  0
SCALE
  5
E75F
102
{ACAD_REACTORS
330
E75A
102
}
330
E75A
100
AcDbScale
 70
     0
300
1/16" = 1'-0"
140
0.0625
141
12.0
290
     0
  0
SCALE
  5
E760
102
{ACAD_REACTORS
330
E75A
102
}
330
E75A
100
AcDbScale
 70
     0
300
3/32" = 1'-0"
140
0.09375
141
12.0
290
     0
  0
SCALE
  5
E761
102
{ACAD_REACTORS
330
E75A
102
}
330
E75A
100
AcDbScale
 70
     0
300
1/8" = 1'-0"
140
0.125
141
12.0
290
     0
  0
SCALE
  5
E762
102
{ACAD_REACTORS
330
E75A
102
}
330
E75A
100
AcDbScale
 70
     0
300
3/16" = 1'-0"
140
0.1875
141
12.0
290
     0
  0
SCALE
  5
E763
102
{ACAD_REACTORS
330
E75A
102
}
330
E75A
100
AcDbScale
 70
     0
300
1/4" = 1'-0"
140
0.25
141
12.0
290
     0
  0
SCALE
  5
E764
102
{ACAD_REACTORS
330
E75A
102
}
330
E75A
100
AcDbScale
 70
     0
300
3/8" = 1'-0"
140
0.375
141
12.0
290
     0
  0
SCALE
  5
E765
102
{ACAD_REACTORS
330
E75A
102
}
330
E75A
100
AcDbScale
 70
     0
300
1/2" = 1'-0"
140
0.5
141
12.0
290
     0
  0
SCALE
  5
E766
102
{ACAD_REACTORS
330
E75A
102
}
330
E75A
100
AcDbScale
 70
     0
300
3/4" = 1'-0"
140
0.75
141
12.0
290
     0
  0
SCALE
  5
E767
102
{ACAD_REACTORS
330
E75A
102
}
330
E75A
100
AcDbScale
 70
     0
300
1" = 1'-0"
140
1.0
141
12.0
290
     0
  0
SCALE
  5
E768
102
{ACAD_REACTORS
330
E75A
102
}
330
E75A
100
AcDbScale
 70
     0
300
1-1/2" = 1'-0"
140
1.5
141
12.0
290
     0
  0
SCALE
  5
E769
102
{ACAD_REACTORS
330
E75A
102
}
330
E75A
100
AcDbScale
 70
     0
300
3" = 1'-0"
140
3.0
141
12.0
290
     0
  0
SCALE
  5
E76A
102
{ACAD_REACTORS
330
E75A
102
}
330
E75A
100
AcDbScale
 70
     0
300
6" = 1'-0"
140
6.0
141
12.0
290
     0
  0
SCALE
  5
E76B
102
{ACAD_REACTORS
330
E75A
102
}
330
E75A
100
AcDbScale
 70
     0
300
1'-0" = 1'-0"
140
12.0
141
12.0
290
     0
  0
ACDBSECTIONVIEWSTYLE
  5
E76F
102
{ACAD_XDICTIONARY
360
F59C
102
}
102
{ACAD_REACTORS
330
E76E
102
}
330
E76E
100
AcDbModelDocViewStyle
 70
     0
  3
Imperial24
290
     0
100
AcDbSectionViewStyle
 70
     0
 71
     0
 90
       78
 71
     1
340
11
 40
0.24
340
0
340
0
 40
0.24
300
I, O, Q, S, X, Z
 40
0.48
 90
        3
 40
0.18
 90
        1
 71
     2
340
16
 90
       25
340
16
 90
       50
 40
0.24
 40
0.0
 40
0.24
 71
     3
340
11
 40
0.24
 90
        1
 40
0.75
 90
        1
300
%<\AcVar ViewType \f "%tc1">% %<\AcVar ViewSectionStartId>%-%<\AcVar ViewSectionEndId>%\PSCALE %<\AcVar ViewScale \f "%sn">%
 71
     4
300
ANSI31
 40
1.0
 90
        0
290
     0
290
     0
 90
        6
 40
0.0
 40
1.570796326794896
 40
0.2617993877991494
 40
1.308996938995747
 40
-0.2617993877991494
 40
1.832595714594045
  0
TABLESTYLE
  5
E759
102
{ACAD_XDICTIONARY
360
F2B7
102
}
102
{ACAD_REACTORS
330
E758
102
}
330
E758
100
AcDbTableStyle
  3
Standard
 70
     0
 71
     0
 40
0.06
 41
0.06
280
     0
281
     0
  7
STANDARD
140
0.18
170
     2
 62
     0
 63
     7
283
     0
274
    -2
284
     1
 64
     0
275
    -2
285
     1
 65
     0
276
    -2
286
     1
 66
     0
277
    -2
287
     1
 67
     0
278
    -2
288
     1
 68
     0
279
    -2
289
     1
 69
     0
  7
STANDARD
140
0.25
170
     5
 62
     0
 63
     7
283
     0
274
    -2
284
     1
 64
     0
275
    -2
285
     1
 65
     0
276
    -2
286
     1
 66
     0
277
    -2
287
     1
 67
     0
278
    -2
288
     1
 68
     0
279
    -2
289
     1
 69
     0
  7
STANDARD
140
0.18
170
     5
 62
     0
 63
     7
283
     0
274
    -2
284
     1
 64
     0
275
    -2
285
     1
 65
     0
276
    -2
286
     1
 66
     0
277
    -2
287
     1
 67
     0
278
    -2
288
     1
 68
     0
279
    -2
289
     1
 69
     0
  0
VISUALSTYLE
  5
E744
102
{ACAD_XDICTIONARY
360
F575
102
}
102
{ACAD_REACTORS
330
E73E
102
}
330
E73E
100
AcDbVisualStyle
  2

 70
     4
 71
     0
 72
     2
 73
     0
 90
        0
 40
-0.6
 41
-30.0
 62
     5
 63
     7
 74
     1
 91
        4
 64
     7
 65
   257
 75
     1
175
     1
 42
1.0
 92
        0
 66
   257
 43
1.0
 76
     1
 77
     6
 78
     2
 67
     7
 79
     5
170
     0
171
     0
290
     0
174
     0
 93
        1
 44
0.0
173
     0
291
     0
 45
0.0
1001
ACAD
1000
AcDbSavedByObjectVersion
1070
     0
  0
VISUALSTYLE
  5
E743
102
{ACAD_XDICTIONARY
360
F573
102
}
102
{ACAD_REACTORS
330
E73E
102
}
330
E73E
100
AcDbVisualStyle
  2

 70
     7
 71
     1
 72
     0
 73
     1
 90
        0
 40
-0.6
 41
-30.0
 62
     5
 63
     7
 74
     0
 91
        4
 64
     7
 65
   257
 75
     1
175
     1
 42
1.0
 92
        8
 66
     7
 43
1.0
 76
     1
 77
     6
 78
     2
 67
     7
 79
     5
170
     0
171
     0
290
     0
174
     0
 93
        1
 44
0.0
173
     0
291
     1
 45
0.0
1001
ACAD
1000
AcDbSavedByObjectVersion
1070
     0
  0
VISUALSTYLE
  5
E74A
102
{ACAD_XDICTIONARY
360
F581
102
}
102
{ACAD_REACTORS
330
E73E
102
}
330
E73E
100
AcDbVisualStyle
  2

 70
    12
 71
     2
 72
     2
 73
     0
 90
        0
 40
-0.6
 41
-30.0
 62
     5
 63
     7
 74
     1
 91
        4
 64
     7
 65
   257
 75
     1
175
     1
 42
1.0
 92
        8
 66
     7
 43
1.0
 76
     1
 77
     6
 78
     2
 67
     7
 79
     5
170
     0
171
     0
290
     0
174
     0
 93
        1
 44
50.0
173
     0
291
     1
 45
0.0
1001
ACAD
1000
AcDbSavedByObjectVersion
1070
     0
  0
VISUALSTYLE
  5
E74E
102
{ACAD_XDICTIONARY
360
F589
102
}
102
{ACAD_REACTORS
330
E73E
102
}
330
E73E
100
AcDbVisualStyle
  2

 70
    16
 71
     2
 72
     2
 73
     3
 90
        0
 40
-0.6
 41
-30.0
 62
     5
 63
     8
 74
     1
 91
        4
 64
     7
 65
   257
 75
     1
175
     1
 42
1.0
 92
        8
 66
     8
 43
1.0
 76
     1
 77
     6
 78
     2
 67
     7
 79
     5
170
     0
171
     0
290
     0
174
     0
 93
        1
 44
0.0
173
     0
291
     1
 45
0.0
1001
ACAD
1000
AcDbSavedByObjectVersion
1070
     0
  0
VISUALSTYLE
  5
E747
102
{ACAD_XDICTIONARY
360
F57B
102
}
102
{ACAD_REACTORS
330
E73E
102
}
330
E73E
100
AcDbVisualStyle
  2

 70
     9
 71
     3
 72
     2
 73
     0
 90
        0
 40
-0.6
 41
-30.0
 62
     5
 63
     7
 74
     2
 91
        2
 64
     7
 65
   257
 75
     1
175
     1
 42
179.0
 92
        8
 66
     7
 43
1.0
 76
     1
 77
     6
 78
     2
 67
     7
 79
     3
170
     0
171
     0
290
     0
174
     0
 93
        1
 44
0.0
173
     0
291
     0
 45
0.0
1001
ACAD
1000
AcDbSavedByObjectVersion
1070
     0
  0
VISUALSTYLE
  5
E749
102
{ACAD_XDICTIONARY
360
F57F
102
}
102
{ACAD_REACTORS
330
E73E
102
}
330
E73E
100
AcDbVisualStyle
  2

 70
    11
 71
     2
 72
     2
 73
     0
 90
        0
 40
-0.6
 41
-30.0
 62
     5
 63
     7
 74
     1
 91
        4
 64
     7
 65
   257
 75
     1
175
     1
 42
1.0
 92
        8
 66
     7
 43
1.0
 76
     1
 77
     6
 78
     2
 67
     7
 79
     5
170
     0
171
     0
290
     0
174
     0
 93
        1
 44
-50.0
173
     0
291
     1
 45
0.0
1001
ACAD
1000
AcDbSavedByObjectVersion
1070
     0
  0
VISUALSTYLE
  5
E756
102
{ACAD_XDICTIONARY
360
F599
102
}
102
{ACAD_REACTORS
330
E73E
102
}
330
E73E
100
AcDbVisualStyle
  2

 70
    22
 71
     2
 72
     2
 73
     0
 90
        0
 40
-0.6
 41
-30.0
 62
     5
 63
     7
 74
     1
 91
        4
 64
     7
 65
   257
 75
     1
175
     1
 42
1.0
 92
        8
 66
     7
 43
1.0
 76
     1
 77
     6
 78
     2
 67
     7
 79
     5
170
     0
171
     0
290
     0
174
     0
 93
        1
 44
0.0
173
     0
291
     1
 45
0.0
1001
ACAD
1000
AcDbSavedByObjectVersion
1070
     0
  0
VISUALSTYLE
  5
E74D
102
{ACAD_XDICTIONARY
360
F587
102
}
102
{ACAD_REACTORS
330
E73E
102
}
330
E73E
100
AcDbVisualStyle
  2

 70
    15
 71
     2
 72
     2
 73
     0
 90
        0
 40
-0.6
 41
-30.0
 62
     5
 63
     7
 74
     1
 91
        4
 64
     7
 65
   257
 75
     1
175
     1
 42
1.0
 92
        8
 66
     7
 43
1.0
 76
     1
 77
     6
 78
     2
 67
     7
 79
     5
170
     0
171
     0
290
     0
174
     0
 93
        1
 44
0.0
173
     0
291
     1
 45
0.0
1001
ACAD
1000
AcDbSavedByObjectVersion
1070
     0
  0
VISUALSTYLE
  5
E73F
102
{ACAD_XDICTIONARY
360
F56B
102
}
102
{ACAD_REACTORS
330
E73E
102
}
330
E73E
100
AcDbVisualStyle
  2

 70
     0
 71
     2
 72
     1
 73
     1
 90
        2
 40
-0.6
 41
30.0
 62
     5
 63
     7
 74
     0
 91
        0
 64
     7
 65
   257
 75
     1
175
     1
 42
1.0
 92
        8
 66
     7
 43
1.0
 76
     1
 77
     6
 78
     2
 67
     7
 79
     5
170
     0
171
     0
290
     0
174
     0
 93
       13
 44
0.0
173
     0
291
     1
 45
0.0
1001
ACAD
1000
AcDbSavedByObjectVersion
1070
     0
  0
VISUALSTYLE
  5
E740
102
{ACAD_XDICTIONARY
360
F56D
102
}
102
{ACAD_REACTORS
330
E73E
102
}
330
E73E
100
AcDbVisualStyle
  2

 70
     1
 71
     2
 72
     1
 73
     1
 90
        2
 40
-0.6
 41
30.0
 62
     5
 63
     7
 74
     1
 91
        0
 64
     7
 65
   257
 75
     1
175
     1
 42
1.0
 92
        0
 66
   257
 43
1.0
 76
     1
 77
     6
 78
     2
 67
     7
 79
     5
170
     0
171
     0
290
     0
174
     0
 93
       13
 44
0.0
173
     0
291
     1
 45
0.0
1001
ACAD
1000
AcDbSavedByObjectVersion
1070
     0
  0
VISUALSTYLE
  5
E741
102
{ACAD_XDICTIONARY
360
F56F
102
}
102
{ACAD_REACTORS
330
E73E
102
}
330
E73E
100
AcDbVisualStyle
  2

 70
     2
 71
     2
 72
     2
 73
     1
 90
        2
 40
-0.6
 41
30.0
 62
     5
 63
     7
 74
     0
 91
        0
 64
     7
 65
   257
 75
     1
175
     1
 42
1.0
 92
        0
 66
     7
 43
1.0
 76
     1
 77
     6
 78
     2
 67
     7
 79
     5
170
     0
171
     0
290
     0
174
     0
 93
       13
 44
0.0
173
     0
291
     1
 45
0.0
1001
ACAD
1000
AcDbSavedByObjectVersion
1070
     0
  0
VISUALSTYLE
  5
E742
102
{ACAD_XDICTIONARY
360
F571
102
}
102
{ACAD_REACTORS
330
E73E
102
}
330
E73E
100
AcDbVisualStyle
  2

 70
     3
 71
     2
 72
     2
 73
     1
 90
        2
 40
-0.6
 41
30.0
 62
     5
 63
     7
 74
     1
 91
        0
 64
     7
 65
   257
 75
     1
175
     1
 42
1.0
 92
        0
 66
   257
 43
1.0
 76
     1
 77
     6
 78
     2
 67
     7
 79
     5
170
     0
171
     0
290
     0
174
     0
 93
       13
 44
0.0
173
     0
291
     1
 45
0.0
1001
ACAD
1000
AcDbSavedByObjectVersion
1070
     0
  0
VISUALSTYLE
  5
E746
102
{ACAD_XDICTIONARY
360
F579
102
}
102
{ACAD_REACTORS
330
E73E
102
}
330
E73E
100
AcDbVisualStyle
  2

 70
     6
 71
     1
 72
     2
 73
     2
 90
        0
 40
-0.6
 41
-30.0
 62
     5
 63
     7
 74
     2
 91
        2
 64
     7
 65
   257
 75
     2
175
     1
 42
40.0
 92
        0
 66
   257
 43
1.0
 76
     1
 77
     6
 78
     2
 67
     7
 79
     3
170
     0
171
     0
290
     0
174
     0
 93
        1
 44
0.0
173
     0
291
     0
 45
0.0
1001
ACAD
1000
AcDbSavedByObjectVersion
1070
     0
  0
VISUALSTYLE
  5
E754
102
{ACAD_XDICTIONARY
360
F595
102
}
102
{ACAD_REACTORS
330
E73E
102
}
330
E73E
100
AcDbVisualStyle
  2

 70
    20
 71
     2
 72
     2
 73
     0
 90
        0
 40
-0.6
 41
-30.0
 62
     5
 63
     7
 74
     1
 91
        4
 64
     7
 65
   257
 75
     1
175
     1
 42
1.0
 92
       10
 66
     7
 43
1.0
 76
     1
 77
     6
 78
     2
 67
     7
 79
     5
170
     0
171
     0
290
     0
174
     0
 93
        1
 44
0.0
173
     0
291
     1
 45
0.0
1001
ACAD
1000
AcDbSavedByObjectVersion
1070
     0
  0
VISUALSTYLE
  5
E74C
102
{ACAD_XDICTIONARY
360
F585
102
}
102
{ACAD_REACTORS
330
E73E
102
}
330
E73E
100
AcDbVisualStyle
  2

 70
    14
 71
     2
 72
     2
 73
     0
 90
        0
 40
-0.6
 41
-30.0
 62
     5
 63
     7
 74
     1
 91
        4
 64
     7
 65
   257
 75
     7
175
     7
 42
1.0
 92
        8
 66
     7
 43
1.0
 76
     1
 77
     6
 78
     2
 67
     7
 79
     5
170
     0
171
     0
290
     0
174
     0
 93
        1
 44
0.0
173
     0
291
     1
 45
0.0
1001
ACAD
1000
AcDbSavedByObjectVersion
1070
     0
  0
VISUALSTYLE
  5
E755
102
{ACAD_XDICTIONARY
360
F597
102
}
102
{ACAD_REACTORS
330
E73E
102
}
330
E73E
100
AcDbVisualStyle
  2

 70
    21
 71
     2
 72
     2
 73
     0
 90
        0
 40
-0.6
 41
-30.0
 62
     5
 63
     7
 74
     1
 91
        4
 64
     7
 65
   257
 75
     1
175
     1
 42
1.0
 92
        9
 66
     7
 43
1.0
 76
     1
 77
     6
 78
     2
 67
     7
 79
     5
170
     0
171
     0
290
     0
174
     0
 93
        1
 44
0.0
173
     0
291
     1
 45
0.0
1001
ACAD
1000
AcDbSavedByObjectVersion
1070
     0
  0
VISUALSTYLE
  5
E748
102
{ACAD_XDICTIONARY
360
F57D
102
}
102
{ACAD_REACTORS
330
E73E
102
}
330
E73E
100
AcDbVisualStyle
  2

 70
     8
 71
     2
 72
     3
 73
     0
 90
        2
 40
-0.6
 41
30.0
 62
     5
 63
     7
 74
     0
 91
        0
 64
     7
 65
   257
 75
     1
175
     1
 42
1.0
 92
        8
 66
   257
 43
1.0
 76
     1
 77
     6
 78
     2
 67
     7
 79
     3
170
     0
171
     0
290
     0
174
     0
 93
       13
 44
0.0
173
     0
291
     0
 45
0.0
1001
ACAD
1000
AcDbSavedByObjectVersion
1070
     0
  0
VISUALSTYLE
  5
E753
102
{ACAD_XDICTIONARY
360
F593
102
}
102
{ACAD_REACTORS
330
E73E
102
}
330
E73E
100
AcDbVisualStyle
  2

 70
    27
 71
     2
 72
     2
 73
     1
 90
        2
 40
-0.6
 41
30.0
 62
     5
 63
     7
 74
     0
 91
        4
 64
     7
 65
   257
 75
     1
175
     1
 42
1.0
 92
        8
 66
   257
 43
1.0
 76
     1
 77
     6
 78
     2
 67
     8
 79
     3
170
     0
171
     0
290
     0
174
     0
 93
        5
 44
0.0
173
     0
291
     0
 45
0.0
1001
ACAD
1000
AcDbSavedByObjectVersion
1070
     0
  0
VISUALSTYLE
  5
E752
102
{ACAD_XDICTIONARY
360
F591
102
}
102
{ACAD_REACTORS
330
E73E
102
}
330
E73E
100
AcDbVisualStyle
  2

 70
    26
 71
     2
 72
     2
 73
     1
 90
        2
 40
-0.6
 41
30.0
 62
     5
 63
     7
 74
     1
 91
        2
 64
     7
 65
   257
 75
     2
175
     1
 42
1.0
 92
        8
 66
   257
 43
1.0
 76
     1
 77
     6
 78
     2
 67
     7
 79
     3
170
     0
171
     0
290
     0
174
     0
 93
        5
 44
0.0
173
     0
291
     0
 45
0.0
1001
ACAD
1000
AcDbSavedByObjectVersion
1070
     0
  0
VISUALSTYLE
  5
E74F
102
{ACAD_XDICTIONARY
360
F58B
102
}
102
{ACAD_REACTORS
330
E73E
102
}
330
E73E
100
AcDbVisualStyle
  2

 70
    23
 71
     2
 72
     2
 73
     3
 90
        0
 40
-0.6
 41
-30.0
 62
     5
 63
     7
 74
     2
 91
        2
 64
     7
 65
     7
 75
     1
175
     1
 42
40.0
 92
        8
 66
     7
 43
1.0
 76
     1
 77
     6
 78
     2
 67
     7
 79
     3
170
     0
171
     0
290
     0
174
     0
 93
        1
 44
0.0
173
     0
291
     0
 45
0.0
1001
ACAD
1000
AcDbSavedByObjectVersion
1070
     0
  0
VISUALSTYLE
  5
E750
102
{ACAD_XDICTIONARY
360
F58D
102
}
102
{ACAD_REACTORS
330
E73E
102
}
330
E73E
100
AcDbVisualStyle
  2

 70
    24
 71
     1
 72
     2
 73
     2
 90
        0
 40
-0.6
 41
-30.0
 62
     5
 63
     7
 74
     2
 91
        2
 64
     7
 65
     7
 75
     1
175
     1
 42
40.0
 92
       11
 66
     7
 43
1.0
 76
     1
 77
     6
 78
     2
 67
     7
 79
     6
170
     0
171
     0
290
     0
174
     0
 93
        1
 44
0.0
173
     0
291
     0
 45
0.0
1001
ACAD
1000
AcDbSavedByObjectVersion
1070
     0
  0
VISUALSTYLE
  5
E74B
102
{ACAD_XDICTIONARY
360
F583
102
}
102
{ACAD_REACTORS
330
E73E
102
}
330
E73E
100
AcDbVisualStyle
  2

 70
    13
 71
     2
 72
     2
 73
     0
 90
        0
 40
-0.6
 41
-30.0
 62
     5
 63
     7
 74
     1
 91
        4
 64
     7
 65
   257
 75
     1
175
     1
 42
1.0
 92
       12
 66
     7
 43
1.0
 76
     1
 77
     6
 78
     2
 67
     7
 79
     5
170
     0
171
     0
290
     0
174
     0
 93
        1
 44
0.0
173
     0
291
     1
 45
0.0
1001
ACAD
1000
AcDbSavedByObjectVersion
1070
     0
  0
VISUALSTYLE
  5
E745
102
{ACAD_XDICTIONARY
360
F577
102
}
102
{ACAD_REACTORS
330
E73E
102
}
330
E73E
100
AcDbVisualStyle
  2

 70
     5
 71
     0
 72
     2
 73
     0
 90
        0
 40
-0.6
 41
-30.0
 62
     5
 63
     7
 74
     1
 91
        4
 64
     7
 65
   257
 75
     1
175
     1
 42
1.0
 92
        0
 66
   257
 43
1.0
 76
     1
 77
     6
 78
     2
 67
     7
 79
     3
170
     0
171
     0
290
     0
174
     0
 93
        1
 44
0.0
173
     0
291
     0
 45
0.0
1001
ACAD
1000
AcDbSavedByObjectVersion
1070
     0
  0
VISUALSTYLE
  5
E751
102
{ACAD_XDICTIONARY
360
F58F
102
}
102
{ACAD_REACTORS
330
E73E
102
}
330
E73E
100
AcDbVisualStyle
  2

 70
    25
 71
     2
 72
     2
 73
     1
 90
        1
 40
0.5
 41
-30.0
 62
     5
 63
     7
 74
     1
 91
        0
 64
     7
 65
   257
 75
     1
175
     1
 42
1.0
 92
        8
 66
     7
 43
1.0
 76
     1
 77
     6
 78
     2
 67
     7
 79
     3
170
     0
171
     0
290
     0
174
     0
 93
       13
 44
0.0
173
     0
291
     0
 45
0.0
1001
ACAD
1000
AcDbSavedByObjectVersion
1070
     0
  0
DICTIONARYVAR
  5
F2B3
102
{ACAD_REACTORS
330
E71E
102
}
330
E71E
100
DictionaryVariables
280
     0
  1
1:1
  0
DICTIONARYVAR
  5
F2B0
102
{ACAD_REACTORS
330
E71E
102
}
330
E71E
100
DictionaryVariables
280
     0
  1
STANDARD
  0
DICTIONARYVAR
  5
F2AF
102
{ACAD_REACTORS
330
E71E
102
}
330
E71E
100
DictionaryVariables
280
     0
  1
STANDARD
  0
DICTIONARYVAR
  5
F2B1
102
{ACAD_REACTORS
330
E71E
102
}
330
E71E
100
DictionaryVariables
280
     0
  1
Imperial24
  0
DICTIONARYVAR
  5
F2B2
102
{ACAD_REACTORS
330
E71E
102
}
330
E71E
100
DictionaryVariables
280
     0
  1
Imperial24
  0
DICTIONARYVAR
  5
E71F
102
{ACAD_REACTORS
330
E71E
102
}
330
E71E
100
DictionaryVariables
280
     0
  1
1
  0
DICTIONARYVAR
  5
F2B5
102
{ACAD_REACTORS
330
E71E
102
}
330
E71E
100
DictionaryVariables
280
     0
  1
0
  0
DICTIONARYVAR
  5
F2B4
102
{ACAD_REACTORS
330
E71E
102
}
330
E71E
100
DictionaryVariables
280
     0
  1
127
  0
DICTIONARYVAR
  5
F563
102
{ACAD_REACTORS
330
E71E
102
}
330
E71E
100
DictionaryVariables
280
     0
  1
2
  0
DICTIONARY
  5
F59E
330
E771
100
AcDbDictionary
280
     1
281
     1
  3
ACAD_XREC_ROUNDTRIP
360
F59F
  0
DICTIONARY
  5
F567
330
9FDE
100
AcDbDictionary
280
     1
281
     1
  3
ACAD_XREC_ROUNDTRIP
360
F568
  0
DICTIONARY
  5
F569
330
9FDF
100
AcDbDictionary
280
     1
281
     1
  3
ACAD_XREC_ROUNDTRIP
360
F56A
  0
DICTIONARY
  5
E72F
330
E72E
100
AcDbDictionary
280
     1
281
     1
  3
ACAD_XREC_ROUNDTRIP
360
F2C0
  3
BUMPTILE
360
E731
  3
DIFFUSETILE
360
E730
  3
OPACITYTILE
360
E734
  3
REFLECTIONTILE
360
E733
  3
REFRACTIONTILE
360
E735
  3
SPECULARTILE
360
E732
  0
DICTIONARY
  5
E727
330
E726
100
AcDbDictionary
280
     1
281
     1
  3
ACAD_XREC_ROUNDTRIP
360
F2BF
  3
BUMPTILE
360
E729
  3
DIFFUSETILE
360
E728
  3
OPACITYTILE
360
E72C
  3
REFLECTIONTILE
360
E72B
  3
REFRACTIONTILE
360
E72D
  3
SPECULARTILE
360
E72A
  0
DICTIONARY
  5
E737
330
E736
100
AcDbDictionary
280
     1
281
     1
  3
ACAD_XREC_ROUNDTRIP
360
F2C1
  3
BUMPTILE
360
E739
  3
DIFFUSETILE
360
E738
  3
OPACITYTILE
360
E73C
  3
REFLECTIONTILE
360
E73B
  3
REFRACTIONTILE
360
E73D
  3
SPECULARTILE
360
E73A
  0
DICTIONARY
  5
F59C
330
E76F
100
AcDbDictionary
280
     1
281
     1
  3
ACAD_XREC_ROUNDTRIP
360
F59D
  0
DICTIONARY
  5
F2B7
330
E759
100
AcDbDictionary
280
     1
281
     1
  3
ACAD_ROUNDTRIP_2008_TABLESTYLE_CELLSTYLEMAP
360
F564
  3
ACAD_XREC_ROUNDTRIP
360
F59B
  0
DICTIONARY
  5
F575
330
E744
100
AcDbDictionary
280
     1
281
     1
  3
ACAD_XREC_ROUNDTRIP
360
F576
  0
DICTIONARY
  5
F573
330
E743
100
AcDbDictionary
280
     1
281
     1
  3
ACAD_XREC_ROUNDTRIP
360
F574
  0
DICTIONARY
  5
F581
330
E74A
100
AcDbDictionary
280
     1
281
     1
  3
ACAD_XREC_ROUNDTRIP
360
F582
  0
DICTIONARY
  5
F589
330
E74E
100
AcDbDictionary
280
     1
281
     1
  3
ACAD_XREC_ROUNDTRIP
360
F58A
  0
DICTIONARY
  5
F57B
330
E747
100
AcDbDictionary
280
     1
281
     1
  3
ACAD_XREC_ROUNDTRIP
360
F57C
  0
DICTIONARY
  5
F57F
330
E749
100
AcDbDictionary
280
     1
281
     1
  3
ACAD_XREC_ROUNDTRIP
360
F580
  0
DICTIONARY
  5
F599
330
E756
100
AcDbDictionary
280
     1
281
     1
  3
ACAD_XREC_ROUNDTRIP
360
F59A
  0
DICTIONARY
  5
F587
330
E74D
100
AcDbDictionary
280
     1
281
     1
  3
ACAD_XREC_ROUNDTRIP
360
F588
  0
DICTIONARY
  5
F56B
330
E73F
100
AcDbDictionary
280
     1
281
     1
  3
ACAD_XREC_ROUNDTRIP
360
F56C
  0
DICTIONARY
  5
F56D
330
E740
100
AcDbDictionary
280
     1
281
     1
  3
ACAD_XREC_ROUNDTRIP
360
F56E
  0
DICTIONARY
  5
F56F
330
E741
100
AcDbDictionary
280
     1
281
     1
  3
ACAD_XREC_ROUNDTRIP
360
F570
  0
DICTIONARY
  5
F571
330
E742
100
AcDbDictionary
280
     1
281
     1
  3
ACAD_XREC_ROUNDTRIP
360
F572
  0
DICTIONARY
  5
F579
330
E746
100
AcDbDictionary
280
     1
281
     1
  3
ACAD_XREC_ROUNDTRIP
360
F57A
  0
DICTIONARY
  5
F595
330
E754
100
AcDbDictionary
280
     1
281
     1
  3
ACAD_XREC_ROUNDTRIP
360
F596
  0
DICTIONARY
  5
F585
330
E74C
100
AcDbDictionary
280
     1
281
     1
  3
ACAD_XREC_ROUNDTRIP
360
F586
  0
DICTIONARY
  5
F597
330
E755
100
AcDbDictionary
280
     1
281
     1
  3
ACAD_XREC_ROUNDTRIP
360
F598
  0
DICTIONARY
  5
F57D
330
E748
100
AcDbDictionary
280
     1
281
     1
  3
ACAD_XREC_ROUNDTRIP
360
F57E
  0
DICTIONARY
  5
F593
330
E753
100
AcDbDictionary
280
     1
281
     1
  3
ACAD_XREC_ROUNDTRIP
360
F594
  0
DICTIONARY
  5
F591
330
E752
100
AcDbDictionary
280
     1
281
     1
  3
ACAD_XREC_ROUNDTRIP
360
F592
  0
DICTIONARY
  5
F58B
330
E74F
100
AcDbDictionary
280
     1
281
     1
  3
ACAD_XREC_ROUNDTRIP
360
F58C
  0
DICTIONARY
  5
F58D
330
E750
100
AcDbDictionary
280
     1
281
     1
  3
ACAD_XREC_ROUNDTRIP
360
F58E
  0
DICTIONARY
  5
F583
330
E74B
100
AcDbDictionary
280
     1
281
     1
  3
ACAD_XREC_ROUNDTRIP
360
F584
  0
DICTIONARY
  5
F577
330
E745
100
AcDbDictionary
280
     1
281
     1
  3
ACAD_XREC_ROUNDTRIP
360
F578
  0
DICTIONARY
  5
F58F
330
E751
100
AcDbDictionary
280
     1
281
     1
  3
ACAD_XREC_ROUNDTRIP
360
F590
  0
XRECORD
  5
F59F
102
{ACAD_REACTORS
330
F59E
102
}
330
F59E
100
AcDbXrecord
280
     1
102
DISPLAYNAME
  1
Imperial24
102
FLAGS
 90
        0
  0
XRECORD
  5
F568
102
{ACAD_REACTORS
330
F567
102
}
330
F567
100
AcDbXrecord
280
     1
102
SHADEPLOT
 70
     0
102
SHADEPLOTRESLEVEL
 70
     2
102
SHADEPLOTCUSTOMDPI
 70
   300
  0
XRECORD
  5
F56A
102
{ACAD_REACTORS
330
F569
102
}
330
F569
100
AcDbXrecord
280
     1
102
SHADEPLOT
 70
     0
102
SHADEPLOTRESLEVEL
 70
     2
102
SHADEPLOTCUSTOMDPI
 70
   300
  0
XRECORD
  5
F2C0
102
{ACAD_REACTORS
330
E72F
102
}
330
E72F
100
AcDbXrecord
280
     1
102
MATERIAL
148
0.0
149
0.0
149
0.0
 93
        0
 94
      127
282
     0
 72
     0
 77
     0
171
     0
175
     0
179
     0
273
     0
  0
XRECORD
  5
E731
102
{ACAD_REACTORS
330
E72F
102
}
330
E72F
100
AcDbXrecord
280
     1
270
     1
271
     1
  0
XRECORD
  5
E730
102
{ACAD_REACTORS
330
E72F
102
}
330
E72F
100
AcDbXrecord
280
     1
270
     1
271
     1
  0
XRECORD
  5
E734
102
{ACAD_REACTORS
330
E72F
102
}
330
E72F
100
AcDbXrecord
280
     1
270
     1
271
     1
  0
XRECORD
  5
E733
102
{ACAD_REACTORS
330
E72F
102
}
330
E72F
100
AcDbXrecord
280
     1
270
     1
271
     1
  0
XRECORD
  5
E735
102
{ACAD_REACTORS
330
E72F
102
}
330
E72F
100
AcDbXrecord
280
     1
270
     1
271
     1
  0
XRECORD
  5
E732
102
{ACAD_REACTORS
330
E72F
102
}
330
E72F
100
AcDbXrecord
280
     1
270
     1
271
     1
  0
XRECORD
  5
F2BF
102
{ACAD_REACTORS
330
E727
102
}
330
E727
100
AcDbXrecord
280
     1
102
MATERIAL
148
0.0
149
0.0
149
0.0
 93
        0
 94
      127
282
     0
 72
     0
 77
     0
171
     0
175
     0
179
     0
273
     0
  0
XRECORD
  5
E729
102
{ACAD_REACTORS
330
E727
102
}
330
E727
100
AcDbXrecord
280
     1
270
     1
271
     1
  0
XRECORD
  5
E728
102
{ACAD_REACTORS
330
E727
102
}
330
E727
100
AcDbXrecord
280
     1
270
     1
271
     1
  0
XRECORD
  5
E72C
102
{ACAD_REACTORS
330
E727
102
}
330
E727
100
AcDbXrecord
280
     1
270
     1
271
     1
  0
XRECORD
  5
E72B
102
{ACAD_REACTORS
330
E727
102
}
330
E727
100
AcDbXrecord
280
     1
270
     1
271
     1
  0
XRECORD
  5
E72D
102
{ACAD_REACTORS
330
E727
102
}
330
E727
100
AcDbXrecord
280
     1
270
     1
271
     1
  0
XRECORD
  5
E72A
102
{ACAD_REACTORS
330
E727
102
}
330
E727
100
AcDbXrecord
280
     1
270
     1
271
     1
  0
XRECORD
  5
F2C1
102
{ACAD_REACTORS
330
E737
102
}
330
E737
100
AcDbXrecord
280
     1
102
MATERIAL
148
0.0
149
0.0
149
0.0
 93
        0
 94
      127
282
     0
 72
     0
 77
     0
171
     0
175
     0
179
     0
273
     0
  0
XRECORD
  5
E739
102
{ACAD_REACTORS
330
E737
102
}
330
E737
100
AcDbXrecord
280
     1
270
     1
271
     1
  0
XRECORD
  5
E738
102
{ACAD_REACTORS
330
E737
102
}
330
E737
100
AcDbXrecord
280
     1
270
     1
271
     1
  0
XRECORD
  5
E73C
102
{ACAD_REACTORS
330
E737
102
}
330
E737
100
AcDbXrecord
280
     1
270
     1
271
     1
  0
XRECORD
  5
E73B
102
{ACAD_REACTORS
330
E737
102
}
330
E737
100
AcDbXrecord
280
     1
270
     1
271
     1
  0
XRECORD
  5
E73D
102
{ACAD_REACTORS
330
E737
102
}
330
E737
100
AcDbXrecord
280
     1
270
     1
271
     1
  0
XRECORD
  5
E73A
102
{ACAD_REACTORS
330
E737
102
}
330
E737
100
AcDbXrecord
280
     1
270
     1
271
     1
  0
XRECORD
  5
F59D
102
{ACAD_REACTORS
330
F59C
102
}
330
F59C
100
AcDbXrecord
280
     1
102
DISPLAYNAME
  1
Imperial24
102
FLAGS
 90
        0
  0
CELLSTYLEMAP
  5
F564
102
{ACAD_REACTORS
330
F2B7
102
}
330
F2B7
100
AcDbCellStyleMap
 90
        3
300
CELLSTYLE
  1
TABLEFORMAT_BEGIN
 90
        5
170
     1
 91
        0
 92
    32768
 62
   257
 93
        1
300
CONTENTFORMAT
  1
CONTENTFORMAT_BEGIN
 90
        0
 91
        0
 92
      512
 93
        0
300

 40
0.0
140
1.0
 94
        5
 62
     0
340
11
144
0.25
309
CONTENTFORMAT_END
171
     1
301
MARGIN
  1
CELLMARGIN_BEGIN
 40
0.06
 40
0.06
 40
0.06
 40
0.06
 40
0.18
 40
0.18
309
CELLMARGIN_END
 94
        6
 95
        1
302
GRIDFORMAT
  1
GRIDFORMAT_BEGIN
 90
        0
 91
        1
 62
     0
 92
       -2
340
0
 93
        0
 40
0.045
309
GRIDFORMAT_END
 95
        2
302
GRIDFORMAT
  1
GRIDFORMAT_BEGIN
 90
        0
 91
        1
 62
     0
 92
       -2
340
0
 93
        0
 40
0.045
309
GRIDFORMAT_END
 95
        4
302
GRIDFORMAT
  1
GRIDFORMAT_BEGIN
 90
        0
 91
        1
 62
     0
 92
       -2
340
0
 93
        0
 40
0.045
309
GRIDFORMAT_END
 95
        8
302
GRIDFORMAT
  1
GRIDFORMAT_BEGIN
 90
        0
 91
        1
 62
     0
 92
       -2
340
0
 93
        0
 40
0.045
309
GRIDFORMAT_END
 95
       16
302
GRIDFORMAT
  1
GRIDFORMAT_BEGIN
 90
        0
 91
        1
 62
     0
 92
       -2
340
0
 93
        0
 40
0.045
309
GRIDFORMAT_END
 95
       32
302
GRIDFORMAT
  1
GRIDFORMAT_BEGIN
 90
        0
 91
        1
 62
     0
 92
       -2
340
0
 93
        0
 40
0.045
309
GRIDFORMAT_END
309
TABLEFORMAT_END
  1
CELLSTYLE_BEGIN
 90
        1
 91
        1
300
_TITLE
309
CELLSTYLE_END
300
CELLSTYLE
  1
TABLEFORMAT_BEGIN
 90
        5
170
     1
 91
        0
 92
        0
 62
   257
 93
        1
300
CONTENTFORMAT
  1
CONTENTFORMAT_BEGIN
 90
        0
 91
        0
 92
      512
 93
        0
300

 40
0.0
140
1.0
 94
        5
 62
     0
340
11
144
0.18
309
CONTENTFORMAT_END
171
     1
301
MARGIN
  1
CELLMARGIN_BEGIN
 40
0.06
 40
0.06
 40
0.06
 40
0.06
 40
0.18
 40
0.18
309
CELLMARGIN_END
 94
        6
 95
        1
302
GRIDFORMAT
  1
GRIDFORMAT_BEGIN
 90
        0
 91
        1
 62
     0
 92
       -2
340
0
 93
        0
 40
0.045
309
GRIDFORMAT_END
 95
        2
302
GRIDFORMAT
  1
GRIDFORMAT_BEGIN
 90
        0
 91
        1
 62
     0
 92
       -2
340
0
 93
        0
 40
0.045
309
GRIDFORMAT_END
 95
        4
302
GRIDFORMAT
  1
GRIDFORMAT_BEGIN
 90
        0
 91
        1
 62
     0
 92
       -2
340
0
 93
        0
 40
0.045
309
GRIDFORMAT_END
 95
        8
302
GRIDFORMAT
  1
GRIDFORMAT_BEGIN
 90
        0
 91
        1
 62
     0
 92
       -2
340
0
 93
        0
 40
0.045
309
GRIDFORMAT_END
 95
       16
302
GRIDFORMAT
  1
GRIDFORMAT_BEGIN
 90
        0
 91
        1
 62
     0
 92
       -2
340
0
 93
        0
 40
0.045
309
GRIDFORMAT_END
 95
       32
302
GRIDFORMAT
  1
GRIDFORMAT_BEGIN
 90
        0
 91
        1
 62
     0
 92
       -2
340
0
 93
        0
 40
0.045
309
GRIDFORMAT_END
309
TABLEFORMAT_END
  1
CELLSTYLE_BEGIN
 90
        2
 91
        1
300
_HEADER
309
CELLSTYLE_END
300
CELLSTYLE
  1
TABLEFORMAT_BEGIN
 90
        5
170
     1
 91
        0
 92
        0
 62
   257
 93
        1
300
CONTENTFORMAT
  1
CONTENTFORMAT_BEGIN
 90
        0
 91
        0
 92
      512
 93
        0
300

 40
0.0
140
1.0
 94
        2
 62
     0
340
11
144
0.18
309
CONTENTFORMAT_END
171
     1
301
MARGIN
  1
CELLMARGIN_BEGIN
 40
0.06
 40
0.06
 40
0.06
 40
0.06
 40
0.18
 40
0.18
309
CELLMARGIN_END
 94
        6
 95
        1
302
GRIDFORMAT
  1
GRIDFORMAT_BEGIN
 90
        0
 91
        1
 62
     0
 92
       -2
340
0
 93
        0
 40
0.045
309
GRIDFORMAT_END
 95
        2
302
GRIDFORMAT
  1
GRIDFORMAT_BEGIN
 90
        0
 91
        1
 62
     0
 92
       -2
340
0
 93
        0
 40
0.045
309
GRIDFORMAT_END
 95
        4
302
GRIDFORMAT
  1
GRIDFORMAT_BEGIN
 90
        0
 91
        1
 62
     0
 92
       -2
340
0
 93
        0
 40
0.045
309
GRIDFORMAT_END
 95
        8
302
GRIDFORMAT
  1
GRIDFORMAT_BEGIN
 90
        0
 91
        1
 62
     0
 92
       -2
340
0
 93
        0
 40
0.045
309
GRIDFORMAT_END
 95
       16
302
GRIDFORMAT
  1
GRIDFORMAT_BEGIN
 90
        0
 91
        1
 62
     0
 92
       -2
340
0
 93
        0
 40
0.045
309
GRIDFORMAT_END
 95
       32
302
GRIDFORMAT
  1
GRIDFORMAT_BEGIN
 90
        0
 91
        1
 62
     0
 92
       -2
340
0
 93
        0
 40
0.045
309
GRIDFORMAT_END
309
TABLEFORMAT_END
  1
CELLSTYLE_BEGIN
 90
        3
 91
        2
300
_DATA
309
CELLSTYLE_END
  0
XRECORD
  5
F59B
102
{ACAD_REACTORS
330
F2B7
102
}
330
F2B7
100
AcDbXrecord
280
     1
102
ACAD_ROUNDTRIP_PRE2007_TABLESTYLE
 90
      512
 91
        0
  1

 92
      512
 93
        0
  2

 94
      512
 95
        0
  3

  0
XRECORD
  5
F576
102
{ACAD_REACTORS
330
F575
102
}
330
F575
100
AcDbXrecord
280
     1
102
RTVSPost2010Prop28
280
     1
102
RTVSPost2010PropOp28
 70
     1
102
RTVSPost2010Prop29
280
     1
102
RTVSPost2010PropOp29
 70
     1
102
RTVSPost2010Prop30
280
     0
102
RTVSPost2010PropOp30
 70
     1
102
RTVSPost2010Prop31
280
     0
102
RTVSPost2010PropOp31
 70
     1
102
RTVSPost2010Prop32
280
     0
102
RTVSPost2010PropOp32
 70
     1
102
RTVSPost2010Prop33
280
     0
102
RTVSPost2010PropOp33
 70
     1
102
RTVSPost2010Prop34
280
     0
102
RTVSPost2010PropOp34
 70
     1
102
RTVSPost2010Prop35
280
     0
102
RTVSPost2010PropOp35
 70
     1
102
RTVSPost2010Prop36
280
     0
102
RTVSPost2010PropOp36
 70
     1
102
RTVSPost2010Prop37
 90
       50
102
RTVSPost2010PropOp37
 70
     1
102
RTVSPost2010Prop38
140
0.0
102
RTVSPost2010PropOp38
 70
     1
102
RTVSPost2010Prop39
140
1.0
102
RTVSPost2010PropOp39
 70
     1
102
RTVSPost2010Prop40
 90
        0
102
RTVSPost2010PropOp40
 70
     1
102
RTVSPost2010Prop41ColorIndex
 90
       18
102
RTVSPost2010Prop41ColorRGB
 90
        0
102
RTVSPost2010PropOp41
 70
     1
102
RTVSPost2010Prop42
 90
       50
102
RTVSPost2010PropOp42
 70
     1
102
RTVSPost2010Prop43
 90
        3
102
RTVSPost2010PropOp43
 70
     1
102
RTVSPost2010Prop44ColorIndex
 90
        5
102
RTVSPost2010Prop44ColorRGB
 90
      255
102
RTVSPost2010PropOp44
 70
     1
102
RTVSPost2010Prop45
280
     0
102
RTVSPost2010PropOp45
 70
     1
102
RTVSPost2010Prop46
 90
       50
102
RTVSPost2010PropOp46
 70
     1
102
RTVSPost2010Prop47
 90
       50
102
RTVSPost2010PropOp47
 70
     1
102
RTVSPost2010Prop48
 90
       50
102
RTVSPost2010PropOp48
 70
     1
102
RTVSPost2010Prop49
280
     0
102
RTVSPost2010PropOp49
 70
     1
102
RTVSPost2010Prop50
 90
       50
102
RTVSPost2010PropOp50
 70
     1
102
RTVSPost2010Prop51ColorIndex
 90
      256
102
RTVSPost2010Prop51ColorRGB
 90
-16777216
102
RTVSPost2010PropOp51
 70
     0
102
RTVSPost2010Prop52
140
1.0
102
RTVSPost2010PropOp52
 70
     0
102
RTVSPost2010Prop53
 90
        2
102
RTVSPost2010PropOp53
 70
     1
102
RTVSPost2010Prop54
  1
strokes_ogs.tif
102
RTVSPost2010PropOp54
 70
     1
102
RTVSPost2010Prop55
280
     0
102
RTVSPost2010PropOp55
 70
     1
102
RTVSPost2010Prop56
140
1.0
102
RTVSPost2010PropOp56
 70
     1
102
RTVSPost2010Prop57
140
1.0
102
RTVSPost2010PropOp57
 70
     1
102
RTVSPropertyOp0
 70
     1
102
RTVSPropertyOp1
 70
     1
102
RTVSPropertyOp2
 70
     1
102
RTVSPropertyOp3
 70
     1
102
RTVSPropertyOp4
 70
     1
102
RTVSPropertyOp5
 70
     1
102
RTVSPropertyOp6
 70
     1
102
RTVSPropertyOp7
 70
     1
102
RTVSPropertyOp8
 70
     1
102
RTVSPropertyOp9
 70
     1
102
RTVSPropertyOp10
 70
     1
102
RTVSPropertyOp11
 70
     1
102
RTVSPropertyOp12
 70
     1
102
RTVSPropertyOp13
 70
     1
102
RTVSPropertyOp14
 70
     1
102
RTVSPropertyOp15
 70
     1
102
RTVSPropertyOp16
 70
     1
102
RTVSPropertyOp17
 70
     1
102
RTVSPropertyOp18
 70
     1
102
RTVSPropertyOp19
 70
     1
102
RTVSPropertyOp20
 70
     1
102
RTVSPropertyOp21
 70
     1
102
RTVSPropertyOp22
 70
     1
102
RTVSPropertyOp23
 70
     1
102
RTVSPropertyOp24
 70
     1
102
RTVSPropertyOp25
 70
     1
102
RTVSPropertyOp26
 70
     1
102
RTVSPropertyOp27
 70
     1
102
RTVSPropertyOp28
 70
     1
102
RTVSPropertyOp29
 70
     1
102
RTVSPropertyOp30
 70
     1
102
RTVSPropertyOp31
 70
     1
102
RTVSPropertyOp32
 70
     1
102
RTVSPropertyOp33
 70
     1
102
RTVSPropertyOp34
 70
     1
102
RTVSPropertyOp35
 70
     1
102
RTVSPropertyOp36
 70
     1
102
RTVSPropertyOp37
 70
     1
102
RTVSPropertyOp38
 70
     1
102
RTVSPropertyOp39
 70
     1
102
RTVSPropertyOp40
 70
     1
102
RTVSPropertyOp41
 70
     1
102
RTVSPropertyOp42
 70
     1
102
RTVSPropertyOp43
 70
     1
102
RTVSPropertyOp44
 70
     1
102
RTVSPropertyOp45
 70
     1
102
RTVSPropertyOp46
 70
     1
102
RTVSPropertyOp47
 70
     1
102
RTVSPropertyOp48
 70
     1
102
RTVSPropertyOp49
 70
     1
102
RTVSPropertyOp50
 70
     1
102
RTVSPropertyOp51
 70
     0
102
RTVSPropertyOp52
 70
     0
102
RTVSPropertyOp53
 70
     1
102
RTVSPropertyOp54
 70
     1
102
RTVSPropertyOp55
 70
     1
102
RTVSPropertyOp56
 70
     1
102
RTVSPropertyOp57
 70
     1
102
RTVSPropertyOp58
 70
     1
102
RTVSPropertyOp59
 70
     1
102
RTVSPropertyOp60
 70
     1
102
RTVSPropertyOp61
 70
     1
102
RTVSPropertyOp62
 70
     1
  0
XRECORD
  5
F574
102
{ACAD_REACTORS
330
F573
102
}
330
F573
100
AcDbXrecord
280
     1
102
RTVSPost2010Prop28
280
     0
102
RTVSPost2010PropOp28
 70
     1
102
RTVSPost2010Prop29
280
     1
102
RTVSPost2010PropOp29
 70
     1
102
RTVSPost2010Prop30
280
     1
102
RTVSPost2010PropOp30
 70
     1
102
RTVSPost2010Prop31
280
     0
102
RTVSPost2010PropOp31
 70
     1
102
RTVSPost2010Prop32
280
     0
102
RTVSPost2010PropOp32
 70
     1
102
RTVSPost2010Prop33
280
     0
102
RTVSPost2010PropOp33
 70
     1
102
RTVSPost2010Prop34
280
     0
102
RTVSPost2010PropOp34
 70
     1
102
RTVSPost2010Prop35
280
     0
102
RTVSPost2010PropOp35
 70
     1
102
RTVSPost2010Prop36
280
     0
102
RTVSPost2010PropOp36
 70
     1
102
RTVSPost2010Prop37
 90
       50
102
RTVSPost2010PropOp37
 70
     1
102
RTVSPost2010Prop38
140
0.0
102
RTVSPost2010PropOp38
 70
     1
102
RTVSPost2010Prop39
140
1.0
102
RTVSPost2010PropOp39
 70
     1
102
RTVSPost2010Prop40
 90
        0
102
RTVSPost2010PropOp40
 70
     1
102
RTVSPost2010Prop41ColorIndex
 90
       18
102
RTVSPost2010Prop41ColorRGB
 90
        0
102
RTVSPost2010PropOp41
 70
     1
102
RTVSPost2010Prop42
 90
       50
102
RTVSPost2010PropOp42
 70
     1
102
RTVSPost2010Prop43
 90
        3
102
RTVSPost2010PropOp43
 70
     1
102
RTVSPost2010Prop44ColorIndex
 90
        5
102
RTVSPost2010Prop44ColorRGB
 90
      255
102
RTVSPost2010PropOp44
 70
     1
102
RTVSPost2010Prop45
280
     0
102
RTVSPost2010PropOp45
 70
     1
102
RTVSPost2010Prop46
 90
       50
102
RTVSPost2010PropOp46
 70
     1
102
RTVSPost2010Prop47
 90
       50
102
RTVSPost2010PropOp47
 70
     1
102
RTVSPost2010Prop48
 90
       50
102
RTVSPost2010PropOp48
 70
     1
102
RTVSPost2010Prop49
280
     0
102
RTVSPost2010PropOp49
 70
     1
102
RTVSPost2010Prop50
 90
       50
102
RTVSPost2010PropOp50
 70
     1
102
RTVSPost2010Prop51ColorIndex
 90
      256
102
RTVSPost2010Prop51ColorRGB
 90
-16777216
102
RTVSPost2010PropOp51
 70
     0
102
RTVSPost2010Prop52
140
1.0
102
RTVSPost2010PropOp52
 70
     0
102
RTVSPost2010Prop53
 90
        2
102
RTVSPost2010PropOp53
 70
     1
102
RTVSPost2010Prop54
  1
strokes_ogs.tif
102
RTVSPost2010PropOp54
 70
     1
102
RTVSPost2010Prop55
280
     0
102
RTVSPost2010PropOp55
 70
     1
102
RTVSPost2010Prop56
140
1.0
102
RTVSPost2010PropOp56
 70
     1
102
RTVSPost2010Prop57
140
1.0
102
RTVSPost2010PropOp57
 70
     1
102
RTVSPropertyOp0
 70
     1
102
RTVSPropertyOp1
 70
     1
102
RTVSPropertyOp2
 70
     1
102
RTVSPropertyOp3
 70
     1
102
RTVSPropertyOp4
 70
     1
102
RTVSPropertyOp5
 70
     1
102
RTVSPropertyOp6
 70
     1
102
RTVSPropertyOp7
 70
     1
102
RTVSPropertyOp8
 70
     1
102
RTVSPropertyOp9
 70
     1
102
RTVSPropertyOp10
 70
     1
102
RTVSPropertyOp11
 70
     1
102
RTVSPropertyOp12
 70
     1
102
RTVSPropertyOp13
 70
     1
102
RTVSPropertyOp14
 70
     1
102
RTVSPropertyOp15
 70
     1
102
RTVSPropertyOp16
 70
     1
102
RTVSPropertyOp17
 70
     1
102
RTVSPropertyOp18
 70
     1
102
RTVSPropertyOp19
 70
     1
102
RTVSPropertyOp20
 70
     1
102
RTVSPropertyOp21
 70
     1
102
RTVSPropertyOp22
 70
     1
102
RTVSPropertyOp23
 70
     1
102
RTVSPropertyOp24
 70
     1
102
RTVSPropertyOp25
 70
     1
102
RTVSPropertyOp26
 70
     1
102
RTVSPropertyOp27
 70
     1
102
RTVSPropertyOp28
 70
     1
102
RTVSPropertyOp29
 70
     1
102
RTVSPropertyOp30
 70
     1
102
RTVSPropertyOp31
 70
     1
102
RTVSPropertyOp32
 70
     1
102
RTVSPropertyOp33
 70
     1
102
RTVSPropertyOp34
 70
     1
102
RTVSPropertyOp35
 70
     1
102
RTVSPropertyOp36
 70
     1
102
RTVSPropertyOp37
 70
     1
102
RTVSPropertyOp38
 70
     1
102
RTVSPropertyOp39
 70
     1
102
RTVSPropertyOp40
 70
     1
102
RTVSPropertyOp41
 70
     1
102
RTVSPropertyOp42
 70
     1
102
RTVSPropertyOp43
 70
     1
102
RTVSPropertyOp44
 70
     1
102
RTVSPropertyOp45
 70
     1
102
RTVSPropertyOp46
 70
     1
102
RTVSPropertyOp47
 70
     1
102
RTVSPropertyOp48
 70
     1
102
RTVSPropertyOp49
 70
     1
102
RTVSPropertyOp50
 70
     1
102
RTVSPropertyOp51
 70
     0
102
RTVSPropertyOp52
 70
     0
102
RTVSPropertyOp53
 70
     1
102
RTVSPropertyOp54
 70
     1
102
RTVSPropertyOp55
 70
     1
102
RTVSPropertyOp56
 70
     1
102
RTVSPropertyOp57
 70
     1
102
RTVSPropertyOp58
 70
     1
102
RTVSPropertyOp59
 70
     1
102
RTVSPropertyOp60
 70
     1
102
RTVSPropertyOp61
 70
     1
102
RTVSPropertyOp62
 70
     1
  0
XRECORD
  5
F582
102
{ACAD_REACTORS
330
F581
102
}
330
F581
100
AcDbXrecord
280
     1
102
RTVSPost2010Prop28
280
     0
102
RTVSPost2010PropOp28
 70
     1
102
RTVSPost2010Prop29
280
     1
102
RTVSPost2010PropOp29
 70
     1
102
RTVSPost2010Prop30
280
     1
102
RTVSPost2010PropOp30
 70
     1
102
RTVSPost2010Prop31
280
     0
102
RTVSPost2010PropOp31
 70
     1
102
RTVSPost2010Prop32
280
     0
102
RTVSPost2010PropOp32
 70
     1
102
RTVSPost2010Prop33
280
     0
102
RTVSPost2010PropOp33
 70
     1
102
RTVSPost2010Prop34
280
     0
102
RTVSPost2010PropOp34
 70
     1
102
RTVSPost2010Prop35
280
     0
102
RTVSPost2010PropOp35
 70
     1
102
RTVSPost2010Prop36
280
     0
102
RTVSPost2010PropOp36
 70
     1
102
RTVSPost2010Prop37
 90
       50
102
RTVSPost2010PropOp37
 70
     1
102
RTVSPost2010Prop38
140
0.0
102
RTVSPost2010PropOp38
 70
     1
102
RTVSPost2010Prop39
140
1.0
102
RTVSPost2010PropOp39
 70
     1
102
RTVSPost2010Prop40
 90
        0
102
RTVSPost2010PropOp40
 70
     1
102
RTVSPost2010Prop41ColorIndex
 90
       18
102
RTVSPost2010Prop41ColorRGB
 90
        0
102
RTVSPost2010PropOp41
 70
     1
102
RTVSPost2010Prop42
 90
       50
102
RTVSPost2010PropOp42
 70
     1
102
RTVSPost2010Prop43
 90
        3
102
RTVSPost2010PropOp43
 70
     1
102
RTVSPost2010Prop44ColorIndex
 90
        5
102
RTVSPost2010Prop44ColorRGB
 90
      255
102
RTVSPost2010PropOp44
 70
     1
102
RTVSPost2010Prop45
280
     0
102
RTVSPost2010PropOp45
 70
     1
102
RTVSPost2010Prop46
 90
       50
102
RTVSPost2010PropOp46
 70
     1
102
RTVSPost2010Prop47
 90
       50
102
RTVSPost2010PropOp47
 70
     1
102
RTVSPost2010Prop48
 90
       50
102
RTVSPost2010PropOp48
 70
     1
102
RTVSPost2010Prop49
280
     0
102
RTVSPost2010PropOp49
 70
     1
102
RTVSPost2010Prop50
 90
       50
102
RTVSPost2010PropOp50
 70
     1
102
RTVSPost2010Prop51ColorIndex
 90
      256
102
RTVSPost2010Prop51ColorRGB
 90
-16777216
102
RTVSPost2010PropOp51
 70
     0
102
RTVSPost2010Prop52
140
1.0
102
RTVSPost2010PropOp52
 70
     0
102
RTVSPost2010Prop53
 90
        2
102
RTVSPost2010PropOp53
 70
     1
102
RTVSPost2010Prop54
  1
strokes_ogs.tif
102
RTVSPost2010PropOp54
 70
     1
102
RTVSPost2010Prop55
280
     0
102
RTVSPost2010PropOp55
 70
     1
102
RTVSPost2010Prop56
140
1.0
102
RTVSPost2010PropOp56
 70
     1
102
RTVSPost2010Prop57
140
1.0
102
RTVSPost2010PropOp57
 70
     1
102
RTVSPropertyOp0
 70
     1
102
RTVSPropertyOp1
 70
     1
102
RTVSPropertyOp2
 70
     1
102
RTVSPropertyOp3
 70
     1
102
RTVSPropertyOp4
 70
     1
102
RTVSPropertyOp5
 70
     1
102
RTVSPropertyOp6
 70
     1
102
RTVSPropertyOp7
 70
     1
102
RTVSPropertyOp8
 70
     1
102
RTVSPropertyOp9
 70
     1
102
RTVSPropertyOp10
 70
     1
102
RTVSPropertyOp11
 70
     1
102
RTVSPropertyOp12
 70
     1
102
RTVSPropertyOp13
 70
     1
102
RTVSPropertyOp14
 70
     1
102
RTVSPropertyOp15
 70
     1
102
RTVSPropertyOp16
 70
     1
102
RTVSPropertyOp17
 70
     1
102
RTVSPropertyOp18
 70
     1
102
RTVSPropertyOp19
 70
     1
102
RTVSPropertyOp20
 70
     1
102
RTVSPropertyOp21
 70
     1
102
RTVSPropertyOp22
 70
     1
102
RTVSPropertyOp23
 70
     1
102
RTVSPropertyOp24
 70
     1
102
RTVSPropertyOp25
 70
     1
102
RTVSPropertyOp26
 70
     1
102
RTVSPropertyOp27
 70
     1
102
RTVSPropertyOp28
 70
     1
102
RTVSPropertyOp29
 70
     1
102
RTVSPropertyOp30
 70
     1
102
RTVSPropertyOp31
 70
     1
102
RTVSPropertyOp32
 70
     1
102
RTVSPropertyOp33
 70
     1
102
RTVSPropertyOp34
 70
     1
102
RTVSPropertyOp35
 70
     1
102
RTVSPropertyOp36
 70
     1
102
RTVSPropertyOp37
 70
     1
102
RTVSPropertyOp38
 70
     1
102
RTVSPropertyOp39
 70
     1
102
RTVSPropertyOp40
 70
     1
102
RTVSPropertyOp41
 70
     1
102
RTVSPropertyOp42
 70
     1
102
RTVSPropertyOp43
 70
     1
102
RTVSPropertyOp44
 70
     1
102
RTVSPropertyOp45
 70
     1
102
RTVSPropertyOp46
 70
     1
102
RTVSPropertyOp47
 70
     1
102
RTVSPropertyOp48
 70
     1
102
RTVSPropertyOp49
 70
     1
102
RTVSPropertyOp50
 70
     1
102
RTVSPropertyOp51
 70
     0
102
RTVSPropertyOp52
 70
     0
102
RTVSPropertyOp53
 70
     1
102
RTVSPropertyOp54
 70
     1
102
RTVSPropertyOp55
 70
     1
102
RTVSPropertyOp56
 70
     1
102
RTVSPropertyOp57
 70
     1
102
RTVSPropertyOp58
 70
     1
102
RTVSPropertyOp59
 70
     1
102
RTVSPropertyOp60
 70
     1
102
RTVSPropertyOp61
 70
     1
102
RTVSPropertyOp62
 70
     1
  0
XRECORD
  5
F58A
102
{ACAD_REACTORS
330
F589
102
}
330
F589
100
AcDbXrecord
280
     1
102
RTVSPost2010Prop28
280
     0
102
RTVSPost2010PropOp28
 70
     1
102
RTVSPost2010Prop29
280
     1
102
RTVSPost2010PropOp29
 70
     1
102
RTVSPost2010Prop30
280
     1
102
RTVSPost2010PropOp30
 70
     1
102
RTVSPost2010Prop31
280
     0
102
RTVSPost2010PropOp31
 70
     1
102
RTVSPost2010Prop32
280
     0
102
RTVSPost2010PropOp32
 70
     1
102
RTVSPost2010Prop33
280
     0
102
RTVSPost2010PropOp33
 70
     1
102
RTVSPost2010Prop34
280
     0
102
RTVSPost2010PropOp34
 70
     1
102
RTVSPost2010Prop35
280
     0
102
RTVSPost2010PropOp35
 70
     1
102
RTVSPost2010Prop36
280
     0
102
RTVSPost2010PropOp36
 70
     1
102
RTVSPost2010Prop37
 90
       50
102
RTVSPost2010PropOp37
 70
     1
102
RTVSPost2010Prop38
140
0.0
102
RTVSPost2010PropOp38
 70
     1
102
RTVSPost2010Prop39
140
1.0
102
RTVSPost2010PropOp39
 70
     1
102
RTVSPost2010Prop40
 90
        0
102
RTVSPost2010PropOp40
 70
     1
102
RTVSPost2010Prop41ColorIndex
 90
       18
102
RTVSPost2010Prop41ColorRGB
 90
        0
102
RTVSPost2010PropOp41
 70
     1
102
RTVSPost2010Prop42
 90
       50
102
RTVSPost2010PropOp42
 70
     1
102
RTVSPost2010Prop43
 90
        3
102
RTVSPost2010PropOp43
 70
     1
102
RTVSPost2010Prop44ColorIndex
 90
        5
102
RTVSPost2010Prop44ColorRGB
 90
      255
102
RTVSPost2010PropOp44
 70
     1
102
RTVSPost2010Prop45
280
     0
102
RTVSPost2010PropOp45
 70
     1
102
RTVSPost2010Prop46
 90
       50
102
RTVSPost2010PropOp46
 70
     1
102
RTVSPost2010Prop47
 90
       50
102
RTVSPost2010PropOp47
 70
     1
102
RTVSPost2010Prop48
 90
       50
102
RTVSPost2010PropOp48
 70
     1
102
RTVSPost2010Prop49
280
     0
102
RTVSPost2010PropOp49
 70
     1
102
RTVSPost2010Prop50
 90
       50
102
RTVSPost2010PropOp50
 70
     1
102
RTVSPost2010Prop51ColorIndex
 90
      256
102
RTVSPost2010Prop51ColorRGB
 90
-16777216
102
RTVSPost2010PropOp51
 70
     0
102
RTVSPost2010Prop52
140
1.0
102
RTVSPost2010PropOp52
 70
     0
102
RTVSPost2010Prop53
 90
        2
102
RTVSPost2010PropOp53
 70
     1
102
RTVSPost2010Prop54
  1
strokes_ogs.tif
102
RTVSPost2010PropOp54
 70
     1
102
RTVSPost2010Prop55
280
     0
102
RTVSPost2010PropOp55
 70
     1
102
RTVSPost2010Prop56
140
1.0
102
RTVSPost2010PropOp56
 70
     1
102
RTVSPost2010Prop57
140
1.0
102
RTVSPost2010PropOp57
 70
     1
102
RTVSPropertyOp0
 70
     1
102
RTVSPropertyOp1
 70
     1
102
RTVSPropertyOp2
 70
     1
102
RTVSPropertyOp3
 70
     1
102
RTVSPropertyOp4
 70
     1
102
RTVSPropertyOp5
 70
     1
102
RTVSPropertyOp6
 70
     1
102
RTVSPropertyOp7
 70
     1
102
RTVSPropertyOp8
 70
     1
102
RTVSPropertyOp9
 70
     1
102
RTVSPropertyOp10
 70
     1
102
RTVSPropertyOp11
 70
     1
102
RTVSPropertyOp12
 70
     1
102
RTVSPropertyOp13
 70
     1
102
RTVSPropertyOp14
 70
     1
102
RTVSPropertyOp15
 70
     1
102
RTVSPropertyOp16
 70
     1
102
RTVSPropertyOp17
 70
     1
102
RTVSPropertyOp18
 70
     1
102
RTVSPropertyOp19
 70
     1
102
RTVSPropertyOp20
 70
     1
102
RTVSPropertyOp21
 70
     1
102
RTVSPropertyOp22
 70
     1
102
RTVSPropertyOp23
 70
     1
102
RTVSPropertyOp24
 70
     1
102
RTVSPropertyOp25
 70
     1
102
RTVSPropertyOp26
 70
     1
102
RTVSPropertyOp27
 70
     1
102
RTVSPropertyOp28
 70
     1
102
RTVSPropertyOp29
 70
     1
102
RTVSPropertyOp30
 70
     1
102
RTVSPropertyOp31
 70
     1
102
RTVSPropertyOp32
 70
     1
102
RTVSPropertyOp33
 70
     1
102
RTVSPropertyOp34
 70
     1
102
RTVSPropertyOp35
 70
     1
102
RTVSPropertyOp36
 70
     1
102
RTVSPropertyOp37
 70
     1
102
RTVSPropertyOp38
 70
     1
102
RTVSPropertyOp39
 70
     1
102
RTVSPropertyOp40
 70
     1
102
RTVSPropertyOp41
 70
     1
102
RTVSPropertyOp42
 70
     1
102
RTVSPropertyOp43
 70
     1
102
RTVSPropertyOp44
 70
     1
102
RTVSPropertyOp45
 70
     1
102
RTVSPropertyOp46
 70
     1
102
RTVSPropertyOp47
 70
     1
102
RTVSPropertyOp48
 70
     1
102
RTVSPropertyOp49
 70
     1
102
RTVSPropertyOp50
 70
     1
102
RTVSPropertyOp51
 70
     0
102
RTVSPropertyOp52
 70
     0
102
RTVSPropertyOp53
 70
     1
102
RTVSPropertyOp54
 70
     1
102
RTVSPropertyOp55
 70
     1
102
RTVSPropertyOp56
 70
     1
102
RTVSPropertyOp57
 70
     1
102
RTVSPropertyOp58
 70
     1
102
RTVSPropertyOp59
 70
     1
102
RTVSPropertyOp60
 70
     1
102
RTVSPropertyOp61
 70
     1
102
RTVSPropertyOp62
 70
     1
  0
XRECORD
  5
F57C
102
{ACAD_REACTORS
330
F57B
102
}
330
F57B
100
AcDbXrecord
280
     1
102
RTVSPost2010Prop28
280
     0
102
RTVSPost2010PropOp28
 70
     1
102
RTVSPost2010Prop29
280
     1
102
RTVSPost2010PropOp29
 70
     1
102
RTVSPost2010Prop30
280
     1
102
RTVSPost2010PropOp30
 70
     1
102
RTVSPost2010Prop31
280
     0
102
RTVSPost2010PropOp31
 70
     1
102
RTVSPost2010Prop32
280
     0
102
RTVSPost2010PropOp32
 70
     1
102
RTVSPost2010Prop33
280
     0
102
RTVSPost2010PropOp33
 70
     1
102
RTVSPost2010Prop34
280
     0
102
RTVSPost2010PropOp34
 70
     1
102
RTVSPost2010Prop35
280
     0
102
RTVSPost2010PropOp35
 70
     1
102
RTVSPost2010Prop36
280
     0
102
RTVSPost2010PropOp36
 70
     1
102
RTVSPost2010Prop37
 90
       50
102
RTVSPost2010PropOp37
 70
     1
102
RTVSPost2010Prop38
140
0.0
102
RTVSPost2010PropOp38
 70
     1
102
RTVSPost2010Prop39
140
1.0
102
RTVSPost2010PropOp39
 70
     1
102
RTVSPost2010Prop40
 90
        0
102
RTVSPost2010PropOp40
 70
     1
102
RTVSPost2010Prop41ColorIndex
 90
       18
102
RTVSPost2010Prop41ColorRGB
 90
        0
102
RTVSPost2010PropOp41
 70
     1
102
RTVSPost2010Prop42
 90
       50
102
RTVSPost2010PropOp42
 70
     1
102
RTVSPost2010Prop43
 90
        3
102
RTVSPost2010PropOp43
 70
     1
102
RTVSPost2010Prop44ColorIndex
 90
        5
102
RTVSPost2010Prop44ColorRGB
 90
      255
102
RTVSPost2010PropOp44
 70
     1
102
RTVSPost2010Prop45
280
     0
102
RTVSPost2010PropOp45
 70
     1
102
RTVSPost2010Prop46
 90
       50
102
RTVSPost2010PropOp46
 70
     1
102
RTVSPost2010Prop47
 90
       50
102
RTVSPost2010PropOp47
 70
     1
102
RTVSPost2010Prop48
 90
       50
102
RTVSPost2010PropOp48
 70
     1
102
RTVSPost2010Prop49
280
     0
102
RTVSPost2010PropOp49
 70
     1
102
RTVSPost2010Prop50
 90
       50
102
RTVSPost2010PropOp50
 70
     1
102
RTVSPost2010Prop51ColorIndex
 90
      256
102
RTVSPost2010Prop51ColorRGB
 90
-16777216
102
RTVSPost2010PropOp51
 70
     0
102
RTVSPost2010Prop52
140
1.0
102
RTVSPost2010PropOp52
 70
     0
102
RTVSPost2010Prop53
 90
        2
102
RTVSPost2010PropOp53
 70
     1
102
RTVSPost2010Prop54
  1
strokes_ogs.tif
102
RTVSPost2010PropOp54
 70
     1
102
RTVSPost2010Prop55
280
     0
102
RTVSPost2010PropOp55
 70
     1
102
RTVSPost2010Prop56
140
1.0
102
RTVSPost2010PropOp56
 70
     1
102
RTVSPost2010Prop57
140
1.0
102
RTVSPost2010PropOp57
 70
     1
102
RTVSPropertyOp0
 70
     1
102
RTVSPropertyOp1
 70
     1
102
RTVSPropertyOp2
 70
     1
102
RTVSPropertyOp3
 70
     1
102
RTVSPropertyOp4
 70
     1
102
RTVSPropertyOp5
 70
     1
102
RTVSPropertyOp6
 70
     1
102
RTVSPropertyOp7
 70
     1
102
RTVSPropertyOp8
 70
     1
102
RTVSPropertyOp9
 70
     1
102
RTVSPropertyOp10
 70
     1
102
RTVSPropertyOp11
 70
     1
102
RTVSPropertyOp12
 70
     1
102
RTVSPropertyOp13
 70
     1
102
RTVSPropertyOp14
 70
     1
102
RTVSPropertyOp15
 70
     1
102
RTVSPropertyOp16
 70
     1
102
RTVSPropertyOp17
 70
     1
102
RTVSPropertyOp18
 70
     1
102
RTVSPropertyOp19
 70
     1
102
RTVSPropertyOp20
 70
     1
102
RTVSPropertyOp21
 70
     1
102
RTVSPropertyOp22
 70
     1
102
RTVSPropertyOp23
 70
     1
102
RTVSPropertyOp24
 70
     1
102
RTVSPropertyOp25
 70
     1
102
RTVSPropertyOp26
 70
     1
102
RTVSPropertyOp27
 70
     1
102
RTVSPropertyOp28
 70
     1
102
RTVSPropertyOp29
 70
     1
102
RTVSPropertyOp30
 70
     1
102
RTVSPropertyOp31
 70
     1
102
RTVSPropertyOp32
 70
     1
102
RTVSPropertyOp33
 70
     1
102
RTVSPropertyOp34
 70
     1
102
RTVSPropertyOp35
 70
     1
102
RTVSPropertyOp36
 70
     1
102
RTVSPropertyOp37
 70
     1
102
RTVSPropertyOp38
 70
     1
102
RTVSPropertyOp39
 70
     1
102
RTVSPropertyOp40
 70
     1
102
RTVSPropertyOp41
 70
     1
102
RTVSPropertyOp42
 70
     1
102
RTVSPropertyOp43
 70
     1
102
RTVSPropertyOp44
 70
     1
102
RTVSPropertyOp45
 70
     1
102
RTVSPropertyOp46
 70
     1
102
RTVSPropertyOp47
 70
     1
102
RTVSPropertyOp48
 70
     1
102
RTVSPropertyOp49
 70
     1
102
RTVSPropertyOp50
 70
     1
102
RTVSPropertyOp51
 70
     0
102
RTVSPropertyOp52
 70
     0
102
RTVSPropertyOp53
 70
     1
102
RTVSPropertyOp54
 70
     1
102
RTVSPropertyOp55
 70
     1
102
RTVSPropertyOp56
 70
     1
102
RTVSPropertyOp57
 70
     1
102
RTVSPropertyOp58
 70
     1
102
RTVSPropertyOp59
 70
     1
102
RTVSPropertyOp60
 70
     1
102
RTVSPropertyOp61
 70
     1
102
RTVSPropertyOp62
 70
     1
  0
XRECORD
  5
F580
102
{ACAD_REACTORS
330
F57F
102
}
330
F57F
100
AcDbXrecord
280
     1
102
RTVSPost2010Prop28
280
     0
102
RTVSPost2010PropOp28
 70
     1
102
RTVSPost2010Prop29
280
     1
102
RTVSPost2010PropOp29
 70
     1
102
RTVSPost2010Prop30
280
     1
102
RTVSPost2010PropOp30
 70
     1
102
RTVSPost2010Prop31
280
     0
102
RTVSPost2010PropOp31
 70
     1
102
RTVSPost2010Prop32
280
     0
102
RTVSPost2010PropOp32
 70
     1
102
RTVSPost2010Prop33
280
     0
102
RTVSPost2010PropOp33
 70
     1
102
RTVSPost2010Prop34
280
     0
102
RTVSPost2010PropOp34
 70
     1
102
RTVSPost2010Prop35
280
     0
102
RTVSPost2010PropOp35
 70
     1
102
RTVSPost2010Prop36
280
     0
102
RTVSPost2010PropOp36
 70
     1
102
RTVSPost2010Prop37
 90
       50
102
RTVSPost2010PropOp37
 70
     1
102
RTVSPost2010Prop38
140
0.0
102
RTVSPost2010PropOp38
 70
     1
102
RTVSPost2010Prop39
140
1.0
102
RTVSPost2010PropOp39
 70
     1
102
RTVSPost2010Prop40
 90
        0
102
RTVSPost2010PropOp40
 70
     1
102
RTVSPost2010Prop41ColorIndex
 90
       18
102
RTVSPost2010Prop41ColorRGB
 90
        0
102
RTVSPost2010PropOp41
 70
     1
102
RTVSPost2010Prop42
 90
       50
102
RTVSPost2010PropOp42
 70
     1
102
RTVSPost2010Prop43
 90
        3
102
RTVSPost2010PropOp43
 70
     1
102
RTVSPost2010Prop44ColorIndex
 90
        5
102
RTVSPost2010Prop44ColorRGB
 90
      255
102
RTVSPost2010PropOp44
 70
     1
102
RTVSPost2010Prop45
280
     0
102
RTVSPost2010PropOp45
 70
     1
102
RTVSPost2010Prop46
 90
       50
102
RTVSPost2010PropOp46
 70
     1
102
RTVSPost2010Prop47
 90
       50
102
RTVSPost2010PropOp47
 70
     1
102
RTVSPost2010Prop48
 90
       50
102
RTVSPost2010PropOp48
 70
     1
102
RTVSPost2010Prop49
280
     0
102
RTVSPost2010PropOp49
 70
     1
102
RTVSPost2010Prop50
 90
       50
102
RTVSPost2010PropOp50
 70
     1
102
RTVSPost2010Prop51ColorIndex
 90
      256
102
RTVSPost2010Prop51ColorRGB
 90
-16777216
102
RTVSPost2010PropOp51
 70
     0
102
RTVSPost2010Prop52
140
1.0
102
RTVSPost2010PropOp52
 70
     0
102
RTVSPost2010Prop53
 90
        2
102
RTVSPost2010PropOp53
 70
     1
102
RTVSPost2010Prop54
  1
strokes_ogs.tif
102
RTVSPost2010PropOp54
 70
     1
102
RTVSPost2010Prop55
280
     0
102
RTVSPost2010PropOp55
 70
     1
102
RTVSPost2010Prop56
140
1.0
102
RTVSPost2010PropOp56
 70
     1
102
RTVSPost2010Prop57
140
1.0
102
RTVSPost2010PropOp57
 70
     1
102
RTVSPropertyOp0
 70
     1
102
RTVSPropertyOp1
 70
     1
102
RTVSPropertyOp2
 70
     1
102
RTVSPropertyOp3
 70
     1
102
RTVSPropertyOp4
 70
     1
102
RTVSPropertyOp5
 70
     1
102
RTVSPropertyOp6
 70
     1
102
RTVSPropertyOp7
 70
     1
102
RTVSPropertyOp8
 70
     1
102
RTVSPropertyOp9
 70
     1
102
RTVSPropertyOp10
 70
     1
102
RTVSPropertyOp11
 70
     1
102
RTVSPropertyOp12
 70
     1
102
RTVSPropertyOp13
 70
     1
102
RTVSPropertyOp14
 70
     1
102
RTVSPropertyOp15
 70
     1
102
RTVSPropertyOp16
 70
     1
102
RTVSPropertyOp17
 70
     1
102
RTVSPropertyOp18
 70
     1
102
RTVSPropertyOp19
 70
     1
102
RTVSPropertyOp20
 70
     1
102
RTVSPropertyOp21
 70
     1
102
RTVSPropertyOp22
 70
     1
102
RTVSPropertyOp23
 70
     1
102
RTVSPropertyOp24
 70
     1
102
RTVSPropertyOp25
 70
     1
102
RTVSPropertyOp26
 70
     1
102
RTVSPropertyOp27
 70
     1
102
RTVSPropertyOp28
 70
     1
102
RTVSPropertyOp29
 70
     1
102
RTVSPropertyOp30
 70
     1
102
RTVSPropertyOp31
 70
     1
102
RTVSPropertyOp32
 70
     1
102
RTVSPropertyOp33
 70
     1
102
RTVSPropertyOp34
 70
     1
102
RTVSPropertyOp35
 70
     1
102
RTVSPropertyOp36
 70
     1
102
RTVSPropertyOp37
 70
     1
102
RTVSPropertyOp38
 70
     1
102
RTVSPropertyOp39
 70
     1
102
RTVSPropertyOp40
 70
     1
102
RTVSPropertyOp41
 70
     1
102
RTVSPropertyOp42
 70
     1
102
RTVSPropertyOp43
 70
     1
102
RTVSPropertyOp44
 70
     1
102
RTVSPropertyOp45
 70
     1
102
RTVSPropertyOp46
 70
     1
102
RTVSPropertyOp47
 70
     1
102
RTVSPropertyOp48
 70
     1
102
RTVSPropertyOp49
 70
     1
102
RTVSPropertyOp50
 70
     1
102
RTVSPropertyOp51
 70
     0
102
RTVSPropertyOp52
 70
     0
102
RTVSPropertyOp53
 70
     1
102
RTVSPropertyOp54
 70
     1
102
RTVSPropertyOp55
 70
     1
102
RTVSPropertyOp56
 70
     1
102
RTVSPropertyOp57
 70
     1
102
RTVSPropertyOp58
 70
     1
102
RTVSPropertyOp59
 70
     1
102
RTVSPropertyOp60
 70
     1
102
RTVSPropertyOp61
 70
     1
102
RTVSPropertyOp62
 70
     1
  0
XRECORD
  5
F59A
102
{ACAD_REACTORS
330
F599
102
}
330
F599
100
AcDbXrecord
280
     1
102
RTVSPost2010Prop28
280
     0
102
RTVSPost2010PropOp28
 70
     1
102
RTVSPost2010Prop29
280
     1
102
RTVSPost2010PropOp29
 70
     1
102
RTVSPost2010Prop30
280
     1
102
RTVSPost2010PropOp30
 70
     1
102
RTVSPost2010Prop31
280
     0
102
RTVSPost2010PropOp31
 70
     1
102
RTVSPost2010Prop32
280
     0
102
RTVSPost2010PropOp32
 70
     1
102
RTVSPost2010Prop33
280
     0
102
RTVSPost2010PropOp33
 70
     1
102
RTVSPost2010Prop34
280
     0
102
RTVSPost2010PropOp34
 70
     1
102
RTVSPost2010Prop35
280
     0
102
RTVSPost2010PropOp35
 70
     1
102
RTVSPost2010Prop36
280
     0
102
RTVSPost2010PropOp36
 70
     1
102
RTVSPost2010Prop37
 90
       50
102
RTVSPost2010PropOp37
 70
     0
102
RTVSPost2010Prop38
140
0.0
102
RTVSPost2010PropOp38
 70
     0
102
RTVSPost2010Prop39
140
1.0
102
RTVSPost2010PropOp39
 70
     0
102
RTVSPost2010Prop40
 90
        0
102
RTVSPost2010PropOp40
 70
     0
102
RTVSPost2010Prop41ColorIndex
 90
       18
102
RTVSPost2010Prop41ColorRGB
 90
        0
102
RTVSPost2010PropOp41
 70
     0
102
RTVSPost2010Prop42
 90
       50
102
RTVSPost2010PropOp42
 70
     0
102
RTVSPost2010Prop43
 90
        3
102
RTVSPost2010PropOp43
 70
     0
102
RTVSPost2010Prop44ColorIndex
 90
        5
102
RTVSPost2010Prop44ColorRGB
 90
      255
102
RTVSPost2010PropOp44
 70
     0
102
RTVSPost2010Prop45
280
     0
102
RTVSPost2010PropOp45
 70
     1
102
RTVSPost2010Prop46
 90
       50
102
RTVSPost2010PropOp46
 70
     0
102
RTVSPost2010Prop47
 90
       50
102
RTVSPost2010PropOp47
 70
     0
102
RTVSPost2010Prop48
 90
       50
102
RTVSPost2010PropOp48
 70
     0
102
RTVSPost2010Prop49
280
     0
102
RTVSPost2010PropOp49
 70
     1
102
RTVSPost2010Prop50
 90
       50
102
RTVSPost2010PropOp50
 70
     0
102
RTVSPost2010Prop51ColorIndex
 90
      256
102
RTVSPost2010Prop51ColorRGB
 90
-16777216
102
RTVSPost2010PropOp51
 70
     0
102
RTVSPost2010Prop52
140
1.0
102
RTVSPost2010PropOp52
 70
     0
102
RTVSPost2010Prop53
 90
        2
102
RTVSPost2010PropOp53
 70
     0
102
RTVSPost2010Prop54
  1
strokes_ogs.tif
102
RTVSPost2010PropOp54
 70
     0
102
RTVSPost2010Prop55
280
     0
102
RTVSPost2010PropOp55
 70
     1
102
RTVSPost2010Prop56
140
1.0
102
RTVSPost2010PropOp56
 70
     0
102
RTVSPost2010Prop57
140
1.0
102
RTVSPost2010PropOp57
 70
     0
102
RTVSPropertyOp0
 70
     0
102
RTVSPropertyOp1
 70
     0
102
RTVSPropertyOp2
 70
     0
102
RTVSPropertyOp3
 70
     0
102
RTVSPropertyOp4
 70
     0
102
RTVSPropertyOp5
 70
     0
102
RTVSPropertyOp6
 70
     0
102
RTVSPropertyOp7
 70
     0
102
RTVSPropertyOp8
 70
     0
102
RTVSPropertyOp9
 70
     0
102
RTVSPropertyOp10
 70
     0
102
RTVSPropertyOp11
 70
     0
102
RTVSPropertyOp12
 70
     0
102
RTVSPropertyOp13
 70
     0
102
RTVSPropertyOp14
 70
     2
102
RTVSPropertyOp15
 70
     0
102
RTVSPropertyOp16
 70
     0
102
RTVSPropertyOp17
 70
     0
102
RTVSPropertyOp18
 70
     0
102
RTVSPropertyOp19
 70
     0
102
RTVSPropertyOp20
 70
     0
102
RTVSPropertyOp21
 70
     0
102
RTVSPropertyOp22
 70
     0
102
RTVSPropertyOp23
 70
     0
102
RTVSPropertyOp24
 70
     0
102
RTVSPropertyOp25
 70
     0
102
RTVSPropertyOp26
 70
     0
102
RTVSPropertyOp27
 70
     0
102
RTVSPropertyOp28
 70
     1
102
RTVSPropertyOp29
 70
     1
102
RTVSPropertyOp30
 70
     1
102
RTVSPropertyOp31
 70
     1
102
RTVSPropertyOp32
 70
     1
102
RTVSPropertyOp33
 70
     1
102
RTVSPropertyOp34
 70
     1
102
RTVSPropertyOp35
 70
     1
102
RTVSPropertyOp36
 70
     1
102
RTVSPropertyOp37
 70
     0
102
RTVSPropertyOp38
 70
     0
102
RTVSPropertyOp39
 70
     0
102
RTVSPropertyOp40
 70
     0
102
RTVSPropertyOp41
 70
     0
102
RTVSPropertyOp42
 70
     0
102
RTVSPropertyOp43
 70
     0
102
RTVSPropertyOp44
 70
     0
102
RTVSPropertyOp45
 70
     1
102
RTVSPropertyOp46
 70
     0
102
RTVSPropertyOp47
 70
     0
102
RTVSPropertyOp48
 70
     0
102
RTVSPropertyOp49
 70
     1
102
RTVSPropertyOp50
 70
     0
102
RTVSPropertyOp51
 70
     0
102
RTVSPropertyOp52
 70
     0
102
RTVSPropertyOp53
 70
     0
102
RTVSPropertyOp54
 70
     0
102
RTVSPropertyOp55
 70
     1
102
RTVSPropertyOp56
 70
     0
102
RTVSPropertyOp57
 70
     0
102
RTVSPropertyOp58
 70
     0
102
RTVSPropertyOp59
 70
     0
102
RTVSPropertyOp60
 70
     0
102
RTVSPropertyOp61
 70
     0
102
RTVSPropertyOp62
 70
     0
  0
XRECORD
  5
F588
102
{ACAD_REACTORS
330
F587
102
}
330
F587
100
AcDbXrecord
280
     1
102
RTVSPost2010Prop28
280
     0
102
RTVSPost2010PropOp28
 70
     1
102
RTVSPost2010Prop29
280
     1
102
RTVSPost2010PropOp29
 70
     1
102
RTVSPost2010Prop30
280
     1
102
RTVSPost2010PropOp30
 70
     1
102
RTVSPost2010Prop31
280
     0
102
RTVSPost2010PropOp31
 70
     1
102
RTVSPost2010Prop32
280
     0
102
RTVSPost2010PropOp32
 70
     1
102
RTVSPost2010Prop33
280
     0
102
RTVSPost2010PropOp33
 70
     1
102
RTVSPost2010Prop34
280
     0
102
RTVSPost2010PropOp34
 70
     1
102
RTVSPost2010Prop35
280
     0
102
RTVSPost2010PropOp35
 70
     1
102
RTVSPost2010Prop36
280
     0
102
RTVSPost2010PropOp36
 70
     1
102
RTVSPost2010Prop37
 90
       50
102
RTVSPost2010PropOp37
 70
     1
102
RTVSPost2010Prop38
140
0.0
102
RTVSPost2010PropOp38
 70
     1
102
RTVSPost2010Prop39
140
1.0
102
RTVSPost2010PropOp39
 70
     1
102
RTVSPost2010Prop40
 90
        0
102
RTVSPost2010PropOp40
 70
     1
102
RTVSPost2010Prop41ColorIndex
 90
       18
102
RTVSPost2010Prop41ColorRGB
 90
        0
102
RTVSPost2010PropOp41
 70
     1
102
RTVSPost2010Prop42
 90
       50
102
RTVSPost2010PropOp42
 70
     1
102
RTVSPost2010Prop43
 90
        3
102
RTVSPost2010PropOp43
 70
     1
102
RTVSPost2010Prop44ColorIndex
 90
        5
102
RTVSPost2010Prop44ColorRGB
 90
      255
102
RTVSPost2010PropOp44
 70
     1
102
RTVSPost2010Prop45
280
     0
102
RTVSPost2010PropOp45
 70
     1
102
RTVSPost2010Prop46
 90
       50
102
RTVSPost2010PropOp46
 70
     1
102
RTVSPost2010Prop47
 90
       50
102
RTVSPost2010PropOp47
 70
     1
102
RTVSPost2010Prop48
 90
       50
102
RTVSPost2010PropOp48
 70
     1
102
RTVSPost2010Prop49
280
     0
102
RTVSPost2010PropOp49
 70
     1
102
RTVSPost2010Prop50
 90
       50
102
RTVSPost2010PropOp50
 70
     1
102
RTVSPost2010Prop51ColorIndex
 90
      256
102
RTVSPost2010Prop51ColorRGB
 90
-16777216
102
RTVSPost2010PropOp51
 70
     0
102
RTVSPost2010Prop52
140
1.0
102
RTVSPost2010PropOp52
 70
     0
102
RTVSPost2010Prop53
 90
        2
102
RTVSPost2010PropOp53
 70
     1
102
RTVSPost2010Prop54
  1
strokes_ogs.tif
102
RTVSPost2010PropOp54
 70
     1
102
RTVSPost2010Prop55
280
     0
102
RTVSPost2010PropOp55
 70
     1
102
RTVSPost2010Prop56
140
1.0
102
RTVSPost2010PropOp56
 70
     1
102
RTVSPost2010Prop57
140
1.0
102
RTVSPost2010PropOp57
 70
     1
102
RTVSPropertyOp0
 70
     1
102
RTVSPropertyOp1
 70
     1
102
RTVSPropertyOp2
 70
     1
102
RTVSPropertyOp3
 70
     1
102
RTVSPropertyOp4
 70
     1
102
RTVSPropertyOp5
 70
     1
102
RTVSPropertyOp6
 70
     1
102
RTVSPropertyOp7
 70
     1
102
RTVSPropertyOp8
 70
     1
102
RTVSPropertyOp9
 70
     1
102
RTVSPropertyOp10
 70
     1
102
RTVSPropertyOp11
 70
     1
102
RTVSPropertyOp12
 70
     1
102
RTVSPropertyOp13
 70
     1
102
RTVSPropertyOp14
 70
     1
102
RTVSPropertyOp15
 70
     1
102
RTVSPropertyOp16
 70
     1
102
RTVSPropertyOp17
 70
     1
102
RTVSPropertyOp18
 70
     1
102
RTVSPropertyOp19
 70
     1
102
RTVSPropertyOp20
 70
     1
102
RTVSPropertyOp21
 70
     1
102
RTVSPropertyOp22
 70
     1
102
RTVSPropertyOp23
 70
     1
102
RTVSPropertyOp24
 70
     1
102
RTVSPropertyOp25
 70
     1
102
RTVSPropertyOp26
 70
     1
102
RTVSPropertyOp27
 70
     1
102
RTVSPropertyOp28
 70
     1
102
RTVSPropertyOp29
 70
     1
102
RTVSPropertyOp30
 70
     1
102
RTVSPropertyOp31
 70
     1
102
RTVSPropertyOp32
 70
     1
102
RTVSPropertyOp33
 70
     1
102
RTVSPropertyOp34
 70
     1
102
RTVSPropertyOp35
 70
     1
102
RTVSPropertyOp36
 70
     1
102
RTVSPropertyOp37
 70
     1
102
RTVSPropertyOp38
 70
     1
102
RTVSPropertyOp39
 70
     1
102
RTVSPropertyOp40
 70
     1
102
RTVSPropertyOp41
 70
     1
102
RTVSPropertyOp42
 70
     1
102
RTVSPropertyOp43
 70
     1
102
RTVSPropertyOp44
 70
     1
102
RTVSPropertyOp45
 70
     1
102
RTVSPropertyOp46
 70
     1
102
RTVSPropertyOp47
 70
     1
102
RTVSPropertyOp48
 70
     1
102
RTVSPropertyOp49
 70
     1
102
RTVSPropertyOp50
 70
     1
102
RTVSPropertyOp51
 70
     0
102
RTVSPropertyOp52
 70
     0
102
RTVSPropertyOp53
 70
     1
102
RTVSPropertyOp54
 70
     1
102
RTVSPropertyOp55
 70
     1
102
RTVSPropertyOp56
 70
     1
102
RTVSPropertyOp57
 70
     1
102
RTVSPropertyOp58
 70
     1
102
RTVSPropertyOp59
 70
     1
102
RTVSPropertyOp60
 70
     1
102
RTVSPropertyOp61
 70
     1
102
RTVSPropertyOp62
 70
     1
  0
XRECORD
  5
F56C
102
{ACAD_REACTORS
330
F56B
102
}
330
F56B
100
AcDbXrecord
280
     1
102
RTVSPost2010Prop28
280
     0
102
RTVSPost2010PropOp28
 70
     1
102
RTVSPost2010Prop29
280
     1
102
RTVSPost2010PropOp29
 70
     1
102
RTVSPost2010Prop30
280
     1
102
RTVSPost2010PropOp30
 70
     1
102
RTVSPost2010Prop31
280
     0
102
RTVSPost2010PropOp31
 70
     1
102
RTVSPost2010Prop32
280
     0
102
RTVSPost2010PropOp32
 70
     1
102
RTVSPost2010Prop33
280
     0
102
RTVSPost2010PropOp33
 70
     1
102
RTVSPost2010Prop34
280
     0
102
RTVSPost2010PropOp34
 70
     1
102
RTVSPost2010Prop35
280
     0
102
RTVSPost2010PropOp35
 70
     1
102
RTVSPost2010Prop36
280
     0
102
RTVSPost2010PropOp36
 70
     1
102
RTVSPost2010Prop37
 90
       50
102
RTVSPost2010PropOp37
 70
     1
102
RTVSPost2010Prop38
140
0.0
102
RTVSPost2010PropOp38
 70
     1
102
RTVSPost2010Prop39
140
1.0
102
RTVSPost2010PropOp39
 70
     1
102
RTVSPost2010Prop40
 90
        0
102
RTVSPost2010PropOp40
 70
     1
102
RTVSPost2010Prop41ColorIndex
 90
       18
102
RTVSPost2010Prop41ColorRGB
 90
        0
102
RTVSPost2010PropOp41
 70
     1
102
RTVSPost2010Prop42
 90
       50
102
RTVSPost2010PropOp42
 70
     1
102
RTVSPost2010Prop43
 90
        3
102
RTVSPost2010PropOp43
 70
     1
102
RTVSPost2010Prop44ColorIndex
 90
        5
102
RTVSPost2010Prop44ColorRGB
 90
      255
102
RTVSPost2010PropOp44
 70
     1
102
RTVSPost2010Prop45
280
     0
102
RTVSPost2010PropOp45
 70
     1
102
RTVSPost2010Prop46
 90
       50
102
RTVSPost2010PropOp46
 70
     1
102
RTVSPost2010Prop47
 90
       50
102
RTVSPost2010PropOp47
 70
     1
102
RTVSPost2010Prop48
 90
       50
102
RTVSPost2010PropOp48
 70
     1
102
RTVSPost2010Prop49
280
     0
102
RTVSPost2010PropOp49
 70
     1
102
RTVSPost2010Prop50
 90
       50
102
RTVSPost2010PropOp50
 70
     1
102
RTVSPost2010Prop51ColorIndex
 90
      256
102
RTVSPost2010Prop51ColorRGB
 90
-16777216
102
RTVSPost2010PropOp51
 70
     0
102
RTVSPost2010Prop52
140
1.0
102
RTVSPost2010PropOp52
 70
     0
102
RTVSPost2010Prop53
 90
        2
102
RTVSPost2010PropOp53
 70
     1
102
RTVSPost2010Prop54
  1
strokes_ogs.tif
102
RTVSPost2010PropOp54
 70
     1
102
RTVSPost2010Prop55
280
     0
102
RTVSPost2010PropOp55
 70
     1
102
RTVSPost2010Prop56
140
1.0
102
RTVSPost2010PropOp56
 70
     1
102
RTVSPost2010Prop57
140
1.0
102
RTVSPost2010PropOp57
 70
     1
102
RTVSPropertyOp0
 70
     1
102
RTVSPropertyOp1
 70
     1
102
RTVSPropertyOp2
 70
     1
102
RTVSPropertyOp3
 70
     1
102
RTVSPropertyOp4
 70
     1
102
RTVSPropertyOp5
 70
     1
102
RTVSPropertyOp6
 70
     1
102
RTVSPropertyOp7
 70
     1
102
RTVSPropertyOp8
 70
     1
102
RTVSPropertyOp9
 70
     1
102
RTVSPropertyOp10
 70
     1
102
RTVSPropertyOp11
 70
     1
102
RTVSPropertyOp12
 70
     1
102
RTVSPropertyOp13
 70
     1
102
RTVSPropertyOp14
 70
     1
102
RTVSPropertyOp15
 70
     1
102
RTVSPropertyOp16
 70
     1
102
RTVSPropertyOp17
 70
     1
102
RTVSPropertyOp18
 70
     1
102
RTVSPropertyOp19
 70
     1
102
RTVSPropertyOp20
 70
     1
102
RTVSPropertyOp21
 70
     1
102
RTVSPropertyOp22
 70
     1
102
RTVSPropertyOp23
 70
     1
102
RTVSPropertyOp24
 70
     1
102
RTVSPropertyOp25
 70
     1
102
RTVSPropertyOp26
 70
     1
102
RTVSPropertyOp27
 70
     1
102
RTVSPropertyOp28
 70
     1
102
RTVSPropertyOp29
 70
     1
102
RTVSPropertyOp30
 70
     1
102
RTVSPropertyOp31
 70
     1
102
RTVSPropertyOp32
 70
     1
102
RTVSPropertyOp33
 70
     1
102
RTVSPropertyOp34
 70
     1
102
RTVSPropertyOp35
 70
     1
102
RTVSPropertyOp36
 70
     1
102
RTVSPropertyOp37
 70
     1
102
RTVSPropertyOp38
 70
     1
102
RTVSPropertyOp39
 70
     1
102
RTVSPropertyOp40
 70
     1
102
RTVSPropertyOp41
 70
     1
102
RTVSPropertyOp42
 70
     1
102
RTVSPropertyOp43
 70
     1
102
RTVSPropertyOp44
 70
     1
102
RTVSPropertyOp45
 70
     1
102
RTVSPropertyOp46
 70
     1
102
RTVSPropertyOp47
 70
     1
102
RTVSPropertyOp48
 70
     1
102
RTVSPropertyOp49
 70
     1
102
RTVSPropertyOp50
 70
     1
102
RTVSPropertyOp51
 70
     0
102
RTVSPropertyOp52
 70
     0
102
RTVSPropertyOp53
 70
     1
102
RTVSPropertyOp54
 70
     1
102
RTVSPropertyOp55
 70
     1
102
RTVSPropertyOp56
 70
     1
102
RTVSPropertyOp57
 70
     1
102
RTVSPropertyOp58
 70
     1
102
RTVSPropertyOp59
 70
     1
102
RTVSPropertyOp60
 70
     1
102
RTVSPropertyOp61
 70
     1
102
RTVSPropertyOp62
 70
     1
  0
XRECORD
  5
F56E
102
{ACAD_REACTORS
330
F56D
102
}
330
F56D
100
AcDbXrecord
280
     1
102
RTVSPost2010Prop28
280
     0
102
RTVSPost2010PropOp28
 70
     1
102
RTVSPost2010Prop29
280
     1
102
RTVSPost2010PropOp29
 70
     1
102
RTVSPost2010Prop30
280
     1
102
RTVSPost2010PropOp30
 70
     1
102
RTVSPost2010Prop31
280
     0
102
RTVSPost2010PropOp31
 70
     1
102
RTVSPost2010Prop32
280
     0
102
RTVSPost2010PropOp32
 70
     1
102
RTVSPost2010Prop33
280
     0
102
RTVSPost2010PropOp33
 70
     1
102
RTVSPost2010Prop34
280
     0
102
RTVSPost2010PropOp34
 70
     1
102
RTVSPost2010Prop35
280
     0
102
RTVSPost2010PropOp35
 70
     1
102
RTVSPost2010Prop36
280
     0
102
RTVSPost2010PropOp36
 70
     1
102
RTVSPost2010Prop37
 90
       50
102
RTVSPost2010PropOp37
 70
     1
102
RTVSPost2010Prop38
140
0.0
102
RTVSPost2010PropOp38
 70
     1
102
RTVSPost2010Prop39
140
1.0
102
RTVSPost2010PropOp39
 70
     1
102
RTVSPost2010Prop40
 90
        0
102
RTVSPost2010PropOp40
 70
     1
102
RTVSPost2010Prop41ColorIndex
 90
       18
102
RTVSPost2010Prop41ColorRGB
 90
        0
102
RTVSPost2010PropOp41
 70
     1
102
RTVSPost2010Prop42
 90
       50
102
RTVSPost2010PropOp42
 70
     1
102
RTVSPost2010Prop43
 90
        3
102
RTVSPost2010PropOp43
 70
     1
102
RTVSPost2010Prop44ColorIndex
 90
        5
102
RTVSPost2010Prop44ColorRGB
 90
      255
102
RTVSPost2010PropOp44
 70
     1
102
RTVSPost2010Prop45
280
     0
102
RTVSPost2010PropOp45
 70
     1
102
RTVSPost2010Prop46
 90
       50
102
RTVSPost2010PropOp46
 70
     1
102
RTVSPost2010Prop47
 90
       50
102
RTVSPost2010PropOp47
 70
     1
102
RTVSPost2010Prop48
 90
       50
102
RTVSPost2010PropOp48
 70
     1
102
RTVSPost2010Prop49
280
     0
102
RTVSPost2010PropOp49
 70
     1
102
RTVSPost2010Prop50
 90
       50
102
RTVSPost2010PropOp50
 70
     1
102
RTVSPost2010Prop51ColorIndex
 90
      256
102
RTVSPost2010Prop51ColorRGB
 90
-16777216
102
RTVSPost2010PropOp51
 70
     0
102
RTVSPost2010Prop52
140
1.0
102
RTVSPost2010PropOp52
 70
     0
102
RTVSPost2010Prop53
 90
        2
102
RTVSPost2010PropOp53
 70
     1
102
RTVSPost2010Prop54
  1
strokes_ogs.tif
102
RTVSPost2010PropOp54
 70
     1
102
RTVSPost2010Prop55
280
     0
102
RTVSPost2010PropOp55
 70
     1
102
RTVSPost2010Prop56
140
1.0
102
RTVSPost2010PropOp56
 70
     1
102
RTVSPost2010Prop57
140
1.0
102
RTVSPost2010PropOp57
 70
     1
102
RTVSPropertyOp0
 70
     1
102
RTVSPropertyOp1
 70
     1
102
RTVSPropertyOp2
 70
     1
102
RTVSPropertyOp3
 70
     1
102
RTVSPropertyOp4
 70
     1
102
RTVSPropertyOp5
 70
     1
102
RTVSPropertyOp6
 70
     1
102
RTVSPropertyOp7
 70
     1
102
RTVSPropertyOp8
 70
     1
102
RTVSPropertyOp9
 70
     1
102
RTVSPropertyOp10
 70
     1
102
RTVSPropertyOp11
 70
     1
102
RTVSPropertyOp12
 70
     1
102
RTVSPropertyOp13
 70
     1
102
RTVSPropertyOp14
 70
     1
102
RTVSPropertyOp15
 70
     1
102
RTVSPropertyOp16
 70
     1
102
RTVSPropertyOp17
 70
     1
102
RTVSPropertyOp18
 70
     1
102
RTVSPropertyOp19
 70
     1
102
RTVSPropertyOp20
 70
     1
102
RTVSPropertyOp21
 70
     1
102
RTVSPropertyOp22
 70
     1
102
RTVSPropertyOp23
 70
     1
102
RTVSPropertyOp24
 70
     1
102
RTVSPropertyOp25
 70
     1
102
RTVSPropertyOp26
 70
     1
102
RTVSPropertyOp27
 70
     1
102
RTVSPropertyOp28
 70
     1
102
RTVSPropertyOp29
 70
     1
102
RTVSPropertyOp30
 70
     1
102
RTVSPropertyOp31
 70
     1
102
RTVSPropertyOp32
 70
     1
102
RTVSPropertyOp33
 70
     1
102
RTVSPropertyOp34
 70
     1
102
RTVSPropertyOp35
 70
     1
102
RTVSPropertyOp36
 70
     1
102
RTVSPropertyOp37
 70
     1
102
RTVSPropertyOp38
 70
     1
102
RTVSPropertyOp39
 70
     1
102
RTVSPropertyOp40
 70
     1
102
RTVSPropertyOp41
 70
     1
102
RTVSPropertyOp42
 70
     1
102
RTVSPropertyOp43
 70
     1
102
RTVSPropertyOp44
 70
     1
102
RTVSPropertyOp45
 70
     1
102
RTVSPropertyOp46
 70
     1
102
RTVSPropertyOp47
 70
     1
102
RTVSPropertyOp48
 70
     1
102
RTVSPropertyOp49
 70
     1
102
RTVSPropertyOp50
 70
     1
102
RTVSPropertyOp51
 70
     0
102
RTVSPropertyOp52
 70
     0
102
RTVSPropertyOp53
 70
     1
102
RTVSPropertyOp54
 70
     1
102
RTVSPropertyOp55
 70
     1
102
RTVSPropertyOp56
 70
     1
102
RTVSPropertyOp57
 70
     1
102
RTVSPropertyOp58
 70
     1
102
RTVSPropertyOp59
 70
     1
102
RTVSPropertyOp60
 70
     1
102
RTVSPropertyOp61
 70
     1
102
RTVSPropertyOp62
 70
     1
  0
XRECORD
  5
F570
102
{ACAD_REACTORS
330
F56F
102
}
330
F56F
100
AcDbXrecord
280
     1
102
RTVSPost2010Prop28
280
     0
102
RTVSPost2010PropOp28
 70
     1
102
RTVSPost2010Prop29
280
     1
102
RTVSPost2010PropOp29
 70
     1
102
RTVSPost2010Prop30
280
     1
102
RTVSPost2010PropOp30
 70
     1
102
RTVSPost2010Prop31
280
     0
102
RTVSPost2010PropOp31
 70
     1
102
RTVSPost2010Prop32
280
     0
102
RTVSPost2010PropOp32
 70
     1
102
RTVSPost2010Prop33
280
     0
102
RTVSPost2010PropOp33
 70
     1
102
RTVSPost2010Prop34
280
     0
102
RTVSPost2010PropOp34
 70
     1
102
RTVSPost2010Prop35
280
     0
102
RTVSPost2010PropOp35
 70
     1
102
RTVSPost2010Prop36
280
     0
102
RTVSPost2010PropOp36
 70
     1
102
RTVSPost2010Prop37
 90
       50
102
RTVSPost2010PropOp37
 70
     1
102
RTVSPost2010Prop38
140
0.0
102
RTVSPost2010PropOp38
 70
     1
102
RTVSPost2010Prop39
140
1.0
102
RTVSPost2010PropOp39
 70
     1
102
RTVSPost2010Prop40
 90
        0
102
RTVSPost2010PropOp40
 70
     1
102
RTVSPost2010Prop41ColorIndex
 90
       18
102
RTVSPost2010Prop41ColorRGB
 90
        0
102
RTVSPost2010PropOp41
 70
     1
102
RTVSPost2010Prop42
 90
       50
102
RTVSPost2010PropOp42
 70
     1
102
RTVSPost2010Prop43
 90
        3
102
RTVSPost2010PropOp43
 70
     1
102
RTVSPost2010Prop44ColorIndex
 90
        5
102
RTVSPost2010Prop44ColorRGB
 90
      255
102
RTVSPost2010PropOp44
 70
     1
102
RTVSPost2010Prop45
280
     0
102
RTVSPost2010PropOp45
 70
     1
102
RTVSPost2010Prop46
 90
       50
102
RTVSPost2010PropOp46
 70
     1
102
RTVSPost2010Prop47
 90
       50
102
RTVSPost2010PropOp47
 70
     1
102
RTVSPost2010Prop48
 90
       50
102
RTVSPost2010PropOp48
 70
     1
102
RTVSPost2010Prop49
280
     0
102
RTVSPost2010PropOp49
 70
     1
102
RTVSPost2010Prop50
 90
       50
102
RTVSPost2010PropOp50
 70
     1
102
RTVSPost2010Prop51ColorIndex
 90
      256
102
RTVSPost2010Prop51ColorRGB
 90
-16777216
102
RTVSPost2010PropOp51
 70
     0
102
RTVSPost2010Prop52
140
1.0
102
RTVSPost2010PropOp52
 70
     0
102
RTVSPost2010Prop53
 90
        2
102
RTVSPost2010PropOp53
 70
     1
102
RTVSPost2010Prop54
  1
strokes_ogs.tif
102
RTVSPost2010PropOp54
 70
     1
102
RTVSPost2010Prop55
280
     0
102
RTVSPost2010PropOp55
 70
     1
102
RTVSPost2010Prop56
140
1.0
102
RTVSPost2010PropOp56
 70
     1
102
RTVSPost2010Prop57
140
1.0
102
RTVSPost2010PropOp57
 70
     1
102
RTVSPropertyOp0
 70
     1
102
RTVSPropertyOp1
 70
     1
102
RTVSPropertyOp2
 70
     1
102
RTVSPropertyOp3
 70
     1
102
RTVSPropertyOp4
 70
     1
102
RTVSPropertyOp5
 70
     1
102
RTVSPropertyOp6
 70
     1
102
RTVSPropertyOp7
 70
     1
102
RTVSPropertyOp8
 70
     1
102
RTVSPropertyOp9
 70
     1
102
RTVSPropertyOp10
 70
     1
102
RTVSPropertyOp11
 70
     1
102
RTVSPropertyOp12
 70
     1
102
RTVSPropertyOp13
 70
     1
102
RTVSPropertyOp14
 70
     1
102
RTVSPropertyOp15
 70
     1
102
RTVSPropertyOp16
 70
     1
102
RTVSPropertyOp17
 70
     1
102
RTVSPropertyOp18
 70
     1
102
RTVSPropertyOp19
 70
     1
102
RTVSPropertyOp20
 70
     1
102
RTVSPropertyOp21
 70
     1
102
RTVSPropertyOp22
 70
     1
102
RTVSPropertyOp23
 70
     1
102
RTVSPropertyOp24
 70
     1
102
RTVSPropertyOp25
 70
     1
102
RTVSPropertyOp26
 70
     1
102
RTVSPropertyOp27
 70
     1
102
RTVSPropertyOp28
 70
     1
102
RTVSPropertyOp29
 70
     1
102
RTVSPropertyOp30
 70
     1
102
RTVSPropertyOp31
 70
     1
102
RTVSPropertyOp32
 70
     1
102
RTVSPropertyOp33
 70
     1
102
RTVSPropertyOp34
 70
     1
102
RTVSPropertyOp35
 70
     1
102
RTVSPropertyOp36
 70
     1
102
RTVSPropertyOp37
 70
     1
102
RTVSPropertyOp38
 70
     1
102
RTVSPropertyOp39
 70
     1
102
RTVSPropertyOp40
 70
     1
102
RTVSPropertyOp41
 70
     1
102
RTVSPropertyOp42
 70
     1
102
RTVSPropertyOp43
 70
     1
102
RTVSPropertyOp44
 70
     1
102
RTVSPropertyOp45
 70
     1
102
RTVSPropertyOp46
 70
     1
102
RTVSPropertyOp47
 70
     1
102
RTVSPropertyOp48
 70
     1
102
RTVSPropertyOp49
 70
     1
102
RTVSPropertyOp50
 70
     1
102
RTVSPropertyOp51
 70
     0
102
RTVSPropertyOp52
 70
     0
102
RTVSPropertyOp53
 70
     1
102
RTVSPropertyOp54
 70
     1
102
RTVSPropertyOp55
 70
     1
102
RTVSPropertyOp56
 70
     1
102
RTVSPropertyOp57
 70
     1
102
RTVSPropertyOp58
 70
     1
102
RTVSPropertyOp59
 70
     1
102
RTVSPropertyOp60
 70
     1
102
RTVSPropertyOp61
 70
     1
102
RTVSPropertyOp62
 70
     1
  0
XRECORD
  5
F572
102
{ACAD_REACTORS
330
F571
102
}
330
F571
100
AcDbXrecord
280
     1
102
RTVSPost2010Prop28
280
     0
102
RTVSPost2010PropOp28
 70
     1
102
RTVSPost2010Prop29
280
     1
102
RTVSPost2010PropOp29
 70
     1
102
RTVSPost2010Prop30
280
     1
102
RTVSPost2010PropOp30
 70
     1
102
RTVSPost2010Prop31
280
     0
102
RTVSPost2010PropOp31
 70
     1
102
RTVSPost2010Prop32
280
     0
102
RTVSPost2010PropOp32
 70
     1
102
RTVSPost2010Prop33
280
     0
102
RTVSPost2010PropOp33
 70
     1
102
RTVSPost2010Prop34
280
     0
102
RTVSPost2010PropOp34
 70
     1
102
RTVSPost2010Prop35
280
     0
102
RTVSPost2010PropOp35
 70
     1
102
RTVSPost2010Prop36
280
     0
102
RTVSPost2010PropOp36
 70
     1
102
RTVSPost2010Prop37
 90
       50
102
RTVSPost2010PropOp37
 70
     1
102
RTVSPost2010Prop38
140
0.0
102
RTVSPost2010PropOp38
 70
     1
102
RTVSPost2010Prop39
140
1.0
102
RTVSPost2010PropOp39
 70
     1
102
RTVSPost2010Prop40
 90
        0
102
RTVSPost2010PropOp40
 70
     1
102
RTVSPost2010Prop41ColorIndex
 90
       18
102
RTVSPost2010Prop41ColorRGB
 90
        0
102
RTVSPost2010PropOp41
 70
     1
102
RTVSPost2010Prop42
 90
       50
102
RTVSPost2010PropOp42
 70
     1
102
RTVSPost2010Prop43
 90
        3
102
RTVSPost2010PropOp43
 70
     1
102
RTVSPost2010Prop44ColorIndex
 90
        5
102
RTVSPost2010Prop44ColorRGB
 90
      255
102
RTVSPost2010PropOp44
 70
     1
102
RTVSPost2010Prop45
280
     0
102
RTVSPost2010PropOp45
 70
     1
102
RTVSPost2010Prop46
 90
       50
102
RTVSPost2010PropOp46
 70
     1
102
RTVSPost2010Prop47
 90
       50
102
RTVSPost2010PropOp47
 70
     1
102
RTVSPost2010Prop48
 90
       50
102
RTVSPost2010PropOp48
 70
     1
102
RTVSPost2010Prop49
280
     0
102
RTVSPost2010PropOp49
 70
     1
102
RTVSPost2010Prop50
 90
       50
102
RTVSPost2010PropOp50
 70
     1
102
RTVSPost2010Prop51ColorIndex
 90
      256
102
RTVSPost2010Prop51ColorRGB
 90
-16777216
102
RTVSPost2010PropOp51
 70
     0
102
RTVSPost2010Prop52
140
1.0
102
RTVSPost2010PropOp52
 70
     0
102
RTVSPost2010Prop53
 90
        2
102
RTVSPost2010PropOp53
 70
     1
102
RTVSPost2010Prop54
  1
strokes_ogs.tif
102
RTVSPost2010PropOp54
 70
     1
102
RTVSPost2010Prop55
280
     0
102
RTVSPost2010PropOp55
 70
     1
102
RTVSPost2010Prop56
140
1.0
102
RTVSPost2010PropOp56
 70
     1
102
RTVSPost2010Prop57
140
1.0
102
RTVSPost2010PropOp57
 70
     1
102
RTVSPropertyOp0
 70
     1
102
RTVSPropertyOp1
 70
     1
102
RTVSPropertyOp2
 70
     1
102
RTVSPropertyOp3
 70
     1
102
RTVSPropertyOp4
 70
     1
102
RTVSPropertyOp5
 70
     1
102
RTVSPropertyOp6
 70
     1
102
RTVSPropertyOp7
 70
     1
102
RTVSPropertyOp8
 70
     1
102
RTVSPropertyOp9
 70
     1
102
RTVSPropertyOp10
 70
     1
102
RTVSPropertyOp11
 70
     1
102
RTVSPropertyOp12
 70
     1
102
RTVSPropertyOp13
 70
     1
102
RTVSPropertyOp14
 70
     1
102
RTVSPropertyOp15
 70
     1
102
RTVSPropertyOp16
 70
     1
102
RTVSPropertyOp17
 70
     1
102
RTVSPropertyOp18
 70
     1
102
RTVSPropertyOp19
 70
     1
102
RTVSPropertyOp20
 70
     1
102
RTVSPropertyOp21
 70
     1
102
RTVSPropertyOp22
 70
     1
102
RTVSPropertyOp23
 70
     1
102
RTVSPropertyOp24
 70
     1
102
RTVSPropertyOp25
 70
     1
102
RTVSPropertyOp26
 70
     1
102
RTVSPropertyOp27
 70
     1
102
RTVSPropertyOp28
 70
     1
102
RTVSPropertyOp29
 70
     1
102
RTVSPropertyOp30
 70
     1
102
RTVSPropertyOp31
 70
     1
102
RTVSPropertyOp32
 70
     1
102
RTVSPropertyOp33
 70
     1
102
RTVSPropertyOp34
 70
     1
102
RTVSPropertyOp35
 70
     1
102
RTVSPropertyOp36
 70
     1
102
RTVSPropertyOp37
 70
     1
102
RTVSPropertyOp38
 70
     1
102
RTVSPropertyOp39
 70
     1
102
RTVSPropertyOp40
 70
     1
102
RTVSPropertyOp41
 70
     1
102
RTVSPropertyOp42
 70
     1
102
RTVSPropertyOp43
 70
     1
102
RTVSPropertyOp44
 70
     1
102
RTVSPropertyOp45
 70
     1
102
RTVSPropertyOp46
 70
     1
102
RTVSPropertyOp47
 70
     1
102
RTVSPropertyOp48
 70
     1
102
RTVSPropertyOp49
 70
     1
102
RTVSPropertyOp50
 70
     1
102
RTVSPropertyOp51
 70
     0
102
RTVSPropertyOp52
 70
     0
102
RTVSPropertyOp53
 70
     1
102
RTVSPropertyOp54
 70
     1
102
RTVSPropertyOp55
 70
     1
102
RTVSPropertyOp56
 70
     1
102
RTVSPropertyOp57
 70
     1
102
RTVSPropertyOp58
 70
     1
102
RTVSPropertyOp59
 70
     1
102
RTVSPropertyOp60
 70
     1
102
RTVSPropertyOp61
 70
     1
102
RTVSPropertyOp62
 70
     1
  0
XRECORD
  5
F57A
102
{ACAD_REACTORS
330
F579
102
}
330
F579
100
AcDbXrecord
280
     1
102
RTVSPost2010Prop28
280
     0
102
RTVSPost2010PropOp28
 70
     1
102
RTVSPost2010Prop29
280
     1
102
RTVSPost2010PropOp29
 70
     1
102
RTVSPost2010Prop30
280
     1
102
RTVSPost2010PropOp30
 70
     1
102
RTVSPost2010Prop31
280
     0
102
RTVSPost2010PropOp31
 70
     1
102
RTVSPost2010Prop32
280
     0
102
RTVSPost2010PropOp32
 70
     1
102
RTVSPost2010Prop33
280
     0
102
RTVSPost2010PropOp33
 70
     1
102
RTVSPost2010Prop34
280
     0
102
RTVSPost2010PropOp34
 70
     1
102
RTVSPost2010Prop35
280
     0
102
RTVSPost2010PropOp35
 70
     1
102
RTVSPost2010Prop36
280
     0
102
RTVSPost2010PropOp36
 70
     1
102
RTVSPost2010Prop37
 90
       50
102
RTVSPost2010PropOp37
 70
     1
102
RTVSPost2010Prop38
140
0.0
102
RTVSPost2010PropOp38
 70
     1
102
RTVSPost2010Prop39
140
1.0
102
RTVSPost2010PropOp39
 70
     1
102
RTVSPost2010Prop40
 90
        0
102
RTVSPost2010PropOp40
 70
     1
102
RTVSPost2010Prop41ColorIndex
 90
       18
102
RTVSPost2010Prop41ColorRGB
 90
        0
102
RTVSPost2010PropOp41
 70
     1
102
RTVSPost2010Prop42
 90
       50
102
RTVSPost2010PropOp42
 70
     1
102
RTVSPost2010Prop43
 90
        3
102
RTVSPost2010PropOp43
 70
     1
102
RTVSPost2010Prop44ColorIndex
 90
        5
102
RTVSPost2010Prop44ColorRGB
 90
      255
102
RTVSPost2010PropOp44
 70
     1
102
RTVSPost2010Prop45
280
     0
102
RTVSPost2010PropOp45
 70
     1
102
RTVSPost2010Prop46
 90
       50
102
RTVSPost2010PropOp46
 70
     1
102
RTVSPost2010Prop47
 90
       50
102
RTVSPost2010PropOp47
 70
     1
102
RTVSPost2010Prop48
 90
       50
102
RTVSPost2010PropOp48
 70
     1
102
RTVSPost2010Prop49
280
     0
102
RTVSPost2010PropOp49
 70
     1
102
RTVSPost2010Prop50
 90
       50
102
RTVSPost2010PropOp50
 70
     1
102
RTVSPost2010Prop51ColorIndex
 90
      256
102
RTVSPost2010Prop51ColorRGB
 90
-16777216
102
RTVSPost2010PropOp51
 70
     0
102
RTVSPost2010Prop52
140
1.0
102
RTVSPost2010PropOp52
 70
     0
102
RTVSPost2010Prop53
 90
        2
102
RTVSPost2010PropOp53
 70
     1
102
RTVSPost2010Prop54
  1
strokes_ogs.tif
102
RTVSPost2010PropOp54
 70
     1
102
RTVSPost2010Prop55
280
     0
102
RTVSPost2010PropOp55
 70
     1
102
RTVSPost2010Prop56
140
1.0
102
RTVSPost2010PropOp56
 70
     1
102
RTVSPost2010Prop57
140
1.0
102
RTVSPost2010PropOp57
 70
     1
102
RTVSPropertyOp0
 70
     1
102
RTVSPropertyOp1
 70
     1
102
RTVSPropertyOp2
 70
     1
102
RTVSPropertyOp3
 70
     1
102
RTVSPropertyOp4
 70
     1
102
RTVSPropertyOp5
 70
     1
102
RTVSPropertyOp6
 70
     1
102
RTVSPropertyOp7
 70
     1
102
RTVSPropertyOp8
 70
     1
102
RTVSPropertyOp9
 70
     1
102
RTVSPropertyOp10
 70
     1
102
RTVSPropertyOp11
 70
     1
102
RTVSPropertyOp12
 70
     1
102
RTVSPropertyOp13
 70
     1
102
RTVSPropertyOp14
 70
     1
102
RTVSPropertyOp15
 70
     1
102
RTVSPropertyOp16
 70
     1
102
RTVSPropertyOp17
 70
     1
102
RTVSPropertyOp18
 70
     1
102
RTVSPropertyOp19
 70
     1
102
RTVSPropertyOp20
 70
     1
102
RTVSPropertyOp21
 70
     1
102
RTVSPropertyOp22
 70
     1
102
RTVSPropertyOp23
 70
     1
102
RTVSPropertyOp24
 70
     1
102
RTVSPropertyOp25
 70
     1
102
RTVSPropertyOp26
 70
     1
102
RTVSPropertyOp27
 70
     1
102
RTVSPropertyOp28
 70
     1
102
RTVSPropertyOp29
 70
     1
102
RTVSPropertyOp30
 70
     1
102
RTVSPropertyOp31
 70
     1
102
RTVSPropertyOp32
 70
     1
102
RTVSPropertyOp33
 70
     1
102
RTVSPropertyOp34
 70
     1
102
RTVSPropertyOp35
 70
     1
102
RTVSPropertyOp36
 70
     1
102
RTVSPropertyOp37
 70
     1
102
RTVSPropertyOp38
 70
     1
102
RTVSPropertyOp39
 70
     1
102
RTVSPropertyOp40
 70
     1
102
RTVSPropertyOp41
 70
     1
102
RTVSPropertyOp42
 70
     1
102
RTVSPropertyOp43
 70
     1
102
RTVSPropertyOp44
 70
     1
102
RTVSPropertyOp45
 70
     1
102
RTVSPropertyOp46
 70
     1
102
RTVSPropertyOp47
 70
     1
102
RTVSPropertyOp48
 70
     1
102
RTVSPropertyOp49
 70
     1
102
RTVSPropertyOp50
 70
     1
102
RTVSPropertyOp51
 70
     0
102
RTVSPropertyOp52
 70
     0
102
RTVSPropertyOp53
 70
     1
102
RTVSPropertyOp54
 70
     1
102
RTVSPropertyOp55
 70
     1
102
RTVSPropertyOp56
 70
     1
102
RTVSPropertyOp57
 70
     1
102
RTVSPropertyOp58
 70
     1
102
RTVSPropertyOp59
 70
     1
102
RTVSPropertyOp60
 70
     1
102
RTVSPropertyOp61
 70
     1
102
RTVSPropertyOp62
 70
     1
  0
XRECORD
  5
F596
102
{ACAD_REACTORS
330
F595
102
}
330
F595
100
AcDbXrecord
280
     1
102
RTVSPost2010Prop28
280
     0
102
RTVSPost2010PropOp28
 70
     1
102
RTVSPost2010Prop29
280
     1
102
RTVSPost2010PropOp29
 70
     1
102
RTVSPost2010Prop30
280
     1
102
RTVSPost2010PropOp30
 70
     1
102
RTVSPost2010Prop31
280
     0
102
RTVSPost2010PropOp31
 70
     1
102
RTVSPost2010Prop32
280
     0
102
RTVSPost2010PropOp32
 70
     1
102
RTVSPost2010Prop33
280
     0
102
RTVSPost2010PropOp33
 70
     1
102
RTVSPost2010Prop34
280
     0
102
RTVSPost2010PropOp34
 70
     1
102
RTVSPost2010Prop35
280
     0
102
RTVSPost2010PropOp35
 70
     1
102
RTVSPost2010Prop36
280
     0
102
RTVSPost2010PropOp36
 70
     1
102
RTVSPost2010Prop37
 90
       50
102
RTVSPost2010PropOp37
 70
     0
102
RTVSPost2010Prop38
140
0.0
102
RTVSPost2010PropOp38
 70
     0
102
RTVSPost2010Prop39
140
1.0
102
RTVSPost2010PropOp39
 70
     0
102
RTVSPost2010Prop40
 90
        0
102
RTVSPost2010PropOp40
 70
     0
102
RTVSPost2010Prop41ColorIndex
 90
       18
102
RTVSPost2010Prop41ColorRGB
 90
        0
102
RTVSPost2010PropOp41
 70
     0
102
RTVSPost2010Prop42
 90
       50
102
RTVSPost2010PropOp42
 70
     0
102
RTVSPost2010Prop43
 90
        3
102
RTVSPost2010PropOp43
 70
     0
102
RTVSPost2010Prop44ColorIndex
 90
        5
102
RTVSPost2010Prop44ColorRGB
 90
      255
102
RTVSPost2010PropOp44
 70
     0
102
RTVSPost2010Prop45
280
     0
102
RTVSPost2010PropOp45
 70
     1
102
RTVSPost2010Prop46
 90
       50
102
RTVSPost2010PropOp46
 70
     0
102
RTVSPost2010Prop47
 90
       50
102
RTVSPost2010PropOp47
 70
     0
102
RTVSPost2010Prop48
 90
       50
102
RTVSPost2010PropOp48
 70
     0
102
RTVSPost2010Prop49
280
     0
102
RTVSPost2010PropOp49
 70
     1
102
RTVSPost2010Prop50
 90
       50
102
RTVSPost2010PropOp50
 70
     0
102
RTVSPost2010Prop51ColorIndex
 90
      256
102
RTVSPost2010Prop51ColorRGB
 90
-16777216
102
RTVSPost2010PropOp51
 70
     0
102
RTVSPost2010Prop52
140
1.0
102
RTVSPost2010PropOp52
 70
     0
102
RTVSPost2010Prop53
 90
        2
102
RTVSPost2010PropOp53
 70
     0
102
RTVSPost2010Prop54
  1
strokes_ogs.tif
102
RTVSPost2010PropOp54
 70
     0
102
RTVSPost2010Prop55
280
     0
102
RTVSPost2010PropOp55
 70
     1
102
RTVSPost2010Prop56
140
1.0
102
RTVSPost2010PropOp56
 70
     0
102
RTVSPost2010Prop57
140
1.0
102
RTVSPost2010PropOp57
 70
     0
102
RTVSPropertyOp0
 70
     0
102
RTVSPropertyOp1
 70
     0
102
RTVSPropertyOp2
 70
     0
102
RTVSPropertyOp3
 70
     0
102
RTVSPropertyOp4
 70
     0
102
RTVSPropertyOp5
 70
     0
102
RTVSPropertyOp6
 70
     0
102
RTVSPropertyOp7
 70
     0
102
RTVSPropertyOp8
 70
     0
102
RTVSPropertyOp9
 70
     0
102
RTVSPropertyOp10
 70
     0
102
RTVSPropertyOp11
 70
     0
102
RTVSPropertyOp12
 70
     0
102
RTVSPropertyOp13
 70
     0
102
RTVSPropertyOp14
 70
     2
102
RTVSPropertyOp15
 70
     0
102
RTVSPropertyOp16
 70
     0
102
RTVSPropertyOp17
 70
     0
102
RTVSPropertyOp18
 70
     0
102
RTVSPropertyOp19
 70
     0
102
RTVSPropertyOp20
 70
     0
102
RTVSPropertyOp21
 70
     0
102
RTVSPropertyOp22
 70
     0
102
RTVSPropertyOp23
 70
     0
102
RTVSPropertyOp24
 70
     0
102
RTVSPropertyOp25
 70
     0
102
RTVSPropertyOp26
 70
     0
102
RTVSPropertyOp27
 70
     0
102
RTVSPropertyOp28
 70
     1
102
RTVSPropertyOp29
 70
     1
102
RTVSPropertyOp30
 70
     1
102
RTVSPropertyOp31
 70
     1
102
RTVSPropertyOp32
 70
     1
102
RTVSPropertyOp33
 70
     1
102
RTVSPropertyOp34
 70
     1
102
RTVSPropertyOp35
 70
     1
102
RTVSPropertyOp36
 70
     1
102
RTVSPropertyOp37
 70
     0
102
RTVSPropertyOp38
 70
     0
102
RTVSPropertyOp39
 70
     0
102
RTVSPropertyOp40
 70
     0
102
RTVSPropertyOp41
 70
     0
102
RTVSPropertyOp42
 70
     0
102
RTVSPropertyOp43
 70
     0
102
RTVSPropertyOp44
 70
     0
102
RTVSPropertyOp45
 70
     1
102
RTVSPropertyOp46
 70
     0
102
RTVSPropertyOp47
 70
     0
102
RTVSPropertyOp48
 70
     0
102
RTVSPropertyOp49
 70
     1
102
RTVSPropertyOp50
 70
     0
102
RTVSPropertyOp51
 70
     0
102
RTVSPropertyOp52
 70
     0
102
RTVSPropertyOp53
 70
     0
102
RTVSPropertyOp54
 70
     0
102
RTVSPropertyOp55
 70
     1
102
RTVSPropertyOp56
 70
     0
102
RTVSPropertyOp57
 70
     0
102
RTVSPropertyOp58
 70
     0
102
RTVSPropertyOp59
 70
     0
102
RTVSPropertyOp60
 70
     0
102
RTVSPropertyOp61
 70
     0
102
RTVSPropertyOp62
 70
     0
  0
XRECORD
  5
F586
102
{ACAD_REACTORS
330
F585
102
}
330
F585
100
AcDbXrecord
280
     1
102
RTVSPost2010Prop28
280
     0
102
RTVSPost2010PropOp28
 70
     1
102
RTVSPost2010Prop29
280
     1
102
RTVSPost2010PropOp29
 70
     1
102
RTVSPost2010Prop30
280
     1
102
RTVSPost2010PropOp30
 70
     1
102
RTVSPost2010Prop31
280
     0
102
RTVSPost2010PropOp31
 70
     1
102
RTVSPost2010Prop32
280
     0
102
RTVSPost2010PropOp32
 70
     1
102
RTVSPost2010Prop33
280
     0
102
RTVSPost2010PropOp33
 70
     1
102
RTVSPost2010Prop34
280
     0
102
RTVSPost2010PropOp34
 70
     1
102
RTVSPost2010Prop35
280
     0
102
RTVSPost2010PropOp35
 70
     1
102
RTVSPost2010Prop36
280
     0
102
RTVSPost2010PropOp36
 70
     1
102
RTVSPost2010Prop37
 90
       50
102
RTVSPost2010PropOp37
 70
     1
102
RTVSPost2010Prop38
140
0.0
102
RTVSPost2010PropOp38
 70
     1
102
RTVSPost2010Prop39
140
1.0
102
RTVSPost2010PropOp39
 70
     1
102
RTVSPost2010Prop40
 90
        0
102
RTVSPost2010PropOp40
 70
     1
102
RTVSPost2010Prop41ColorIndex
 90
       18
102
RTVSPost2010Prop41ColorRGB
 90
        0
102
RTVSPost2010PropOp41
 70
     1
102
RTVSPost2010Prop42
 90
       50
102
RTVSPost2010PropOp42
 70
     1
102
RTVSPost2010Prop43
 90
        3
102
RTVSPost2010PropOp43
 70
     1
102
RTVSPost2010Prop44ColorIndex
 90
        5
102
RTVSPost2010Prop44ColorRGB
 90
      255
102
RTVSPost2010PropOp44
 70
     1
102
RTVSPost2010Prop45
280
     0
102
RTVSPost2010PropOp45
 70
     1
102
RTVSPost2010Prop46
 90
       50
102
RTVSPost2010PropOp46
 70
     1
102
RTVSPost2010Prop47
 90
       50
102
RTVSPost2010PropOp47
 70
     1
102
RTVSPost2010Prop48
 90
       50
102
RTVSPost2010PropOp48
 70
     1
102
RTVSPost2010Prop49
280
     0
102
RTVSPost2010PropOp49
 70
     1
102
RTVSPost2010Prop50
 90
       50
102
RTVSPost2010PropOp50
 70
     1
102
RTVSPost2010Prop51ColorIndex
 90
      256
102
RTVSPost2010Prop51ColorRGB
 90
-16777216
102
RTVSPost2010PropOp51
 70
     0
102
RTVSPost2010Prop52
140
1.0
102
RTVSPost2010PropOp52
 70
     0
102
RTVSPost2010Prop53
 90
        2
102
RTVSPost2010PropOp53
 70
     1
102
RTVSPost2010Prop54
  1
strokes_ogs.tif
102
RTVSPost2010PropOp54
 70
     1
102
RTVSPost2010Prop55
280
     0
102
RTVSPost2010PropOp55
 70
     1
102
RTVSPost2010Prop56
140
1.0
102
RTVSPost2010PropOp56
 70
     1
102
RTVSPost2010Prop57
140
1.0
102
RTVSPost2010PropOp57
 70
     1
102
RTVSPropertyOp0
 70
     1
102
RTVSPropertyOp1
 70
     1
102
RTVSPropertyOp2
 70
     1
102
RTVSPropertyOp3
 70
     1
102
RTVSPropertyOp4
 70
     1
102
RTVSPropertyOp5
 70
     1
102
RTVSPropertyOp6
 70
     1
102
RTVSPropertyOp7
 70
     1
102
RTVSPropertyOp8
 70
     1
102
RTVSPropertyOp9
 70
     1
102
RTVSPropertyOp10
 70
     1
102
RTVSPropertyOp11
 70
     1
102
RTVSPropertyOp12
 70
     1
102
RTVSPropertyOp13
 70
     1
102
RTVSPropertyOp14
 70
     1
102
RTVSPropertyOp15
 70
     1
102
RTVSPropertyOp16
 70
     1
102
RTVSPropertyOp17
 70
     1
102
RTVSPropertyOp18
 70
     1
102
RTVSPropertyOp19
 70
     1
102
RTVSPropertyOp20
 70
     1
102
RTVSPropertyOp21
 70
     1
102
RTVSPropertyOp22
 70
     1
102
RTVSPropertyOp23
 70
     1
102
RTVSPropertyOp24
 70
     1
102
RTVSPropertyOp25
 70
     1
102
RTVSPropertyOp26
 70
     1
102
RTVSPropertyOp27
 70
     1
102
RTVSPropertyOp28
 70
     1
102
RTVSPropertyOp29
 70
     1
102
RTVSPropertyOp30
 70
     1
102
RTVSPropertyOp31
 70
     1
102
RTVSPropertyOp32
 70
     1
102
RTVSPropertyOp33
 70
     1
102
RTVSPropertyOp34
 70
     1
102
RTVSPropertyOp35
 70
     1
102
RTVSPropertyOp36
 70
     1
102
RTVSPropertyOp37
 70
     1
102
RTVSPropertyOp38
 70
     1
102
RTVSPropertyOp39
 70
     1
102
RTVSPropertyOp40
 70
     1
102
RTVSPropertyOp41
 70
     1
102
RTVSPropertyOp42
 70
     1
102
RTVSPropertyOp43
 70
     1
102
RTVSPropertyOp44
 70
     1
102
RTVSPropertyOp45
 70
     1
102
RTVSPropertyOp46
 70
     1
102
RTVSPropertyOp47
 70
     1
102
RTVSPropertyOp48
 70
     1
102
RTVSPropertyOp49
 70
     1
102
RTVSPropertyOp50
 70
     1
102
RTVSPropertyOp51
 70
     0
102
RTVSPropertyOp52
 70
     0
102
RTVSPropertyOp53
 70
     1
102
RTVSPropertyOp54
 70
     1
102
RTVSPropertyOp55
 70
     1
102
RTVSPropertyOp56
 70
     1
102
RTVSPropertyOp57
 70
     1
102
RTVSPropertyOp58
 70
     1
102
RTVSPropertyOp59
 70
     1
102
RTVSPropertyOp60
 70
     1
102
RTVSPropertyOp61
 70
     1
102
RTVSPropertyOp62
 70
     1
  0
XRECORD
  5
F598
102
{ACAD_REACTORS
330
F597
102
}
330
F597
100
AcDbXrecord
280
     1
102
RTVSPost2010Prop28
280
     0
102
RTVSPost2010PropOp28
 70
     1
102
RTVSPost2010Prop29
280
     1
102
RTVSPost2010PropOp29
 70
     1
102
RTVSPost2010Prop30
280
     1
102
RTVSPost2010PropOp30
 70
     1
102
RTVSPost2010Prop31
280
     0
102
RTVSPost2010PropOp31
 70
     1
102
RTVSPost2010Prop32
280
     0
102
RTVSPost2010PropOp32
 70
     1
102
RTVSPost2010Prop33
280
     0
102
RTVSPost2010PropOp33
 70
     1
102
RTVSPost2010Prop34
280
     0
102
RTVSPost2010PropOp34
 70
     1
102
RTVSPost2010Prop35
280
     0
102
RTVSPost2010PropOp35
 70
     1
102
RTVSPost2010Prop36
280
     0
102
RTVSPost2010PropOp36
 70
     1
102
RTVSPost2010Prop37
 90
       50
102
RTVSPost2010PropOp37
 70
     0
102
RTVSPost2010Prop38
140
0.0
102
RTVSPost2010PropOp38
 70
     0
102
RTVSPost2010Prop39
140
1.0
102
RTVSPost2010PropOp39
 70
     0
102
RTVSPost2010Prop40
 90
        0
102
RTVSPost2010PropOp40
 70
     0
102
RTVSPost2010Prop41ColorIndex
 90
       18
102
RTVSPost2010Prop41ColorRGB
 90
        0
102
RTVSPost2010PropOp41
 70
     0
102
RTVSPost2010Prop42
 90
       50
102
RTVSPost2010PropOp42
 70
     0
102
RTVSPost2010Prop43
 90
        3
102
RTVSPost2010PropOp43
 70
     0
102
RTVSPost2010Prop44ColorIndex
 90
        5
102
RTVSPost2010Prop44ColorRGB
 90
      255
102
RTVSPost2010PropOp44
 70
     0
102
RTVSPost2010Prop45
280
     0
102
RTVSPost2010PropOp45
 70
     1
102
RTVSPost2010Prop46
 90
       50
102
RTVSPost2010PropOp46
 70
     0
102
RTVSPost2010Prop47
 90
       50
102
RTVSPost2010PropOp47
 70
     0
102
RTVSPost2010Prop48
 90
       50
102
RTVSPost2010PropOp48
 70
     0
102
RTVSPost2010Prop49
280
     0
102
RTVSPost2010PropOp49
 70
     1
102
RTVSPost2010Prop50
 90
       50
102
RTVSPost2010PropOp50
 70
     0
102
RTVSPost2010Prop51ColorIndex
 90
      256
102
RTVSPost2010Prop51ColorRGB
 90
-16777216
102
RTVSPost2010PropOp51
 70
     0
102
RTVSPost2010Prop52
140
1.0
102
RTVSPost2010PropOp52
 70
     0
102
RTVSPost2010Prop53
 90
        2
102
RTVSPost2010PropOp53
 70
     0
102
RTVSPost2010Prop54
  1
strokes_ogs.tif
102
RTVSPost2010PropOp54
 70
     0
102
RTVSPost2010Prop55
280
     0
102
RTVSPost2010PropOp55
 70
     1
102
RTVSPost2010Prop56
140
1.0
102
RTVSPost2010PropOp56
 70
     0
102
RTVSPost2010Prop57
140
1.0
102
RTVSPost2010PropOp57
 70
     0
102
RTVSPropertyOp0
 70
     0
102
RTVSPropertyOp1
 70
     0
102
RTVSPropertyOp2
 70
     0
102
RTVSPropertyOp3
 70
     0
102
RTVSPropertyOp4
 70
     0
102
RTVSPropertyOp5
 70
     0
102
RTVSPropertyOp6
 70
     0
102
RTVSPropertyOp7
 70
     0
102
RTVSPropertyOp8
 70
     0
102
RTVSPropertyOp9
 70
     0
102
RTVSPropertyOp10
 70
     0
102
RTVSPropertyOp11
 70
     0
102
RTVSPropertyOp12
 70
     0
102
RTVSPropertyOp13
 70
     0
102
RTVSPropertyOp14
 70
     2
102
RTVSPropertyOp15
 70
     0
102
RTVSPropertyOp16
 70
     0
102
RTVSPropertyOp17
 70
     0
102
RTVSPropertyOp18
 70
     0
102
RTVSPropertyOp19
 70
     0
102
RTVSPropertyOp20
 70
     0
102
RTVSPropertyOp21
 70
     0
102
RTVSPropertyOp22
 70
     0
102
RTVSPropertyOp23
 70
     0
102
RTVSPropertyOp24
 70
     0
102
RTVSPropertyOp25
 70
     0
102
RTVSPropertyOp26
 70
     0
102
RTVSPropertyOp27
 70
     0
102
RTVSPropertyOp28
 70
     1
102
RTVSPropertyOp29
 70
     1
102
RTVSPropertyOp30
 70
     1
102
RTVSPropertyOp31
 70
     1
102
RTVSPropertyOp32
 70
     1
102
RTVSPropertyOp33
 70
     1
102
RTVSPropertyOp34
 70
     1
102
RTVSPropertyOp35
 70
     1
102
RTVSPropertyOp36
 70
     1
102
RTVSPropertyOp37
 70
     0
102
RTVSPropertyOp38
 70
     0
102
RTVSPropertyOp39
 70
     0
102
RTVSPropertyOp40
 70
     0
102
RTVSPropertyOp41
 70
     0
102
RTVSPropertyOp42
 70
     0
102
RTVSPropertyOp43
 70
     0
102
RTVSPropertyOp44
 70
     0
102
RTVSPropertyOp45
 70
     1
102
RTVSPropertyOp46
 70
     0
102
RTVSPropertyOp47
 70
     0
102
RTVSPropertyOp48
 70
     0
102
RTVSPropertyOp49
 70
     1
102
RTVSPropertyOp50
 70
     0
102
RTVSPropertyOp51
 70
     0
102
RTVSPropertyOp52
 70
     0
102
RTVSPropertyOp53
 70
     0
102
RTVSPropertyOp54
 70
     0
102
RTVSPropertyOp55
 70
     1
102
RTVSPropertyOp56
 70
     0
102
RTVSPropertyOp57
 70
     0
102
RTVSPropertyOp58
 70
     0
102
RTVSPropertyOp59
 70
     0
102
RTVSPropertyOp60
 70
     0
102
RTVSPropertyOp61
 70
     0
102
RTVSPropertyOp62
 70
     0
  0
XRECORD
  5
F57E
102
{ACAD_REACTORS
330
F57D
102
}
330
F57D
100
AcDbXrecord
280
     1
102
RTVSPost2010Prop28
280
     0
102
RTVSPost2010PropOp28
 70
     1
102
RTVSPost2010Prop29
280
     1
102
RTVSPost2010PropOp29
 70
     1
102
RTVSPost2010Prop30
280
     1
102
RTVSPost2010PropOp30
 70
     1
102
RTVSPost2010Prop31
280
     0
102
RTVSPost2010PropOp31
 70
     1
102
RTVSPost2010Prop32
280
     0
102
RTVSPost2010PropOp32
 70
     1
102
RTVSPost2010Prop33
280
     0
102
RTVSPost2010PropOp33
 70
     1
102
RTVSPost2010Prop34
280
     0
102
RTVSPost2010PropOp34
 70
     1
102
RTVSPost2010Prop35
280
     0
102
RTVSPost2010PropOp35
 70
     1
102
RTVSPost2010Prop36
280
     0
102
RTVSPost2010PropOp36
 70
     1
102
RTVSPost2010Prop37
 90
       50
102
RTVSPost2010PropOp37
 70
     1
102
RTVSPost2010Prop38
140
0.0
102
RTVSPost2010PropOp38
 70
     1
102
RTVSPost2010Prop39
140
1.0
102
RTVSPost2010PropOp39
 70
     1
102
RTVSPost2010Prop40
 90
        0
102
RTVSPost2010PropOp40
 70
     1
102
RTVSPost2010Prop41ColorIndex
 90
       18
102
RTVSPost2010Prop41ColorRGB
 90
        0
102
RTVSPost2010PropOp41
 70
     1
102
RTVSPost2010Prop42
 90
       50
102
RTVSPost2010PropOp42
 70
     1
102
RTVSPost2010Prop43
 90
        3
102
RTVSPost2010PropOp43
 70
     1
102
RTVSPost2010Prop44ColorIndex
 90
        5
102
RTVSPost2010Prop44ColorRGB
 90
      255
102
RTVSPost2010PropOp44
 70
     1
102
RTVSPost2010Prop45
280
     0
102
RTVSPost2010PropOp45
 70
     1
102
RTVSPost2010Prop46
 90
       50
102
RTVSPost2010PropOp46
 70
     1
102
RTVSPost2010Prop47
 90
       50
102
RTVSPost2010PropOp47
 70
     1
102
RTVSPost2010Prop48
 90
       50
102
RTVSPost2010PropOp48
 70
     1
102
RTVSPost2010Prop49
280
     0
102
RTVSPost2010PropOp49
 70
     1
102
RTVSPost2010Prop50
 90
       50
102
RTVSPost2010PropOp50
 70
     1
102
RTVSPost2010Prop51ColorIndex
 90
      256
102
RTVSPost2010Prop51ColorRGB
 90
-16777216
102
RTVSPost2010PropOp51
 70
     0
102
RTVSPost2010Prop52
140
1.0
102
RTVSPost2010PropOp52
 70
     0
102
RTVSPost2010Prop53
 90
        2
102
RTVSPost2010PropOp53
 70
     1
102
RTVSPost2010Prop54
  1
strokes_ogs.tif
102
RTVSPost2010PropOp54
 70
     1
102
RTVSPost2010Prop55
280
     0
102
RTVSPost2010PropOp55
 70
     1
102
RTVSPost2010Prop56
140
1.0
102
RTVSPost2010PropOp56
 70
     1
102
RTVSPost2010Prop57
140
1.0
102
RTVSPost2010PropOp57
 70
     1
102
RTVSPropertyOp0
 70
     1
102
RTVSPropertyOp1
 70
     1
102
RTVSPropertyOp2
 70
     1
102
RTVSPropertyOp3
 70
     1
102
RTVSPropertyOp4
 70
     1
102
RTVSPropertyOp5
 70
     1
102
RTVSPropertyOp6
 70
     1
102
RTVSPropertyOp7
 70
     1
102
RTVSPropertyOp8
 70
     1
102
RTVSPropertyOp9
 70
     1
102
RTVSPropertyOp10
 70
     1
102
RTVSPropertyOp11
 70
     1
102
RTVSPropertyOp12
 70
     1
102
RTVSPropertyOp13
 70
     1
102
RTVSPropertyOp14
 70
     1
102
RTVSPropertyOp15
 70
     1
102
RTVSPropertyOp16
 70
     1
102
RTVSPropertyOp17
 70
     1
102
RTVSPropertyOp18
 70
     1
102
RTVSPropertyOp19
 70
     1
102
RTVSPropertyOp20
 70
     1
102
RTVSPropertyOp21
 70
     1
102
RTVSPropertyOp22
 70
     1
102
RTVSPropertyOp23
 70
     1
102
RTVSPropertyOp24
 70
     1
102
RTVSPropertyOp25
 70
     1
102
RTVSPropertyOp26
 70
     1
102
RTVSPropertyOp27
 70
     1
102
RTVSPropertyOp28
 70
     1
102
RTVSPropertyOp29
 70
     1
102
RTVSPropertyOp30
 70
     1
102
RTVSPropertyOp31
 70
     1
102
RTVSPropertyOp32
 70
     1
102
RTVSPropertyOp33
 70
     1
102
RTVSPropertyOp34
 70
     1
102
RTVSPropertyOp35
 70
     1
102
RTVSPropertyOp36
 70
     1
102
RTVSPropertyOp37
 70
     1
102
RTVSPropertyOp38
 70
     1
102
RTVSPropertyOp39
 70
     1
102
RTVSPropertyOp40
 70
     1
102
RTVSPropertyOp41
 70
     1
102
RTVSPropertyOp42
 70
     1
102
RTVSPropertyOp43
 70
     1
102
RTVSPropertyOp44
 70
     1
102
RTVSPropertyOp45
 70
     1
102
RTVSPropertyOp46
 70
     1
102
RTVSPropertyOp47
 70
     1
102
RTVSPropertyOp48
 70
     1
102
RTVSPropertyOp49
 70
     1
102
RTVSPropertyOp50
 70
     1
102
RTVSPropertyOp51
 70
     0
102
RTVSPropertyOp52
 70
     0
102
RTVSPropertyOp53
 70
     1
102
RTVSPropertyOp54
 70
     1
102
RTVSPropertyOp55
 70
     1
102
RTVSPropertyOp56
 70
     1
102
RTVSPropertyOp57
 70
     1
102
RTVSPropertyOp58
 70
     1
102
RTVSPropertyOp59
 70
     1
102
RTVSPropertyOp60
 70
     1
102
RTVSPropertyOp61
 70
     1
102
RTVSPropertyOp62
 70
     1
  0
XRECORD
  5
F594
102
{ACAD_REACTORS
330
F593
102
}
330
F593
100
AcDbXrecord
280
     1
102
RTVSPost2010Prop28
280
     0
102
RTVSPost2010PropOp28
 70
     1
102
RTVSPost2010Prop29
280
     1
102
RTVSPost2010PropOp29
 70
     1
102
RTVSPost2010Prop30
280
     1
102
RTVSPost2010PropOp30
 70
     1
102
RTVSPost2010Prop31
280
     0
102
RTVSPost2010PropOp31
 70
     1
102
RTVSPost2010Prop32
280
     0
102
RTVSPost2010PropOp32
 70
     1
102
RTVSPost2010Prop33
280
     0
102
RTVSPost2010PropOp33
 70
     1
102
RTVSPost2010Prop34
280
     0
102
RTVSPost2010PropOp34
 70
     1
102
RTVSPost2010Prop35
280
     0
102
RTVSPost2010PropOp35
 70
     1
102
RTVSPost2010Prop36
280
     0
102
RTVSPost2010PropOp36
 70
     1
102
RTVSPost2010Prop37
 90
       50
102
RTVSPost2010PropOp37
 70
     1
102
RTVSPost2010Prop38
140
0.0
102
RTVSPost2010PropOp38
 70
     1
102
RTVSPost2010Prop39
140
1.0
102
RTVSPost2010PropOp39
 70
     1
102
RTVSPost2010Prop40
 90
        0
102
RTVSPost2010PropOp40
 70
     1
102
RTVSPost2010Prop41ColorIndex
 90
       18
102
RTVSPost2010Prop41ColorRGB
 90
        0
102
RTVSPost2010PropOp41
 70
     1
102
RTVSPost2010Prop42
 90
       50
102
RTVSPost2010PropOp42
 70
     1
102
RTVSPost2010Prop43
 90
        3
102
RTVSPost2010PropOp43
 70
     1
102
RTVSPost2010Prop44ColorIndex
 90
        5
102
RTVSPost2010Prop44ColorRGB
 90
      255
102
RTVSPost2010PropOp44
 70
     1
102
RTVSPost2010Prop45
280
     0
102
RTVSPost2010PropOp45
 70
     1
102
RTVSPost2010Prop46
 90
       50
102
RTVSPost2010PropOp46
 70
     1
102
RTVSPost2010Prop47
 90
       50
102
RTVSPost2010PropOp47
 70
     1
102
RTVSPost2010Prop48
 90
       50
102
RTVSPost2010PropOp48
 70
     1
102
RTVSPost2010Prop49
280
     0
102
RTVSPost2010PropOp49
 70
     1
102
RTVSPost2010Prop50
 90
       50
102
RTVSPost2010PropOp50
 70
     1
102
RTVSPost2010Prop51ColorIndex
 90
      256
102
RTVSPost2010Prop51ColorRGB
 90
-16777216
102
RTVSPost2010PropOp51
 70
     0
102
RTVSPost2010Prop52
140
1.0
102
RTVSPost2010PropOp52
 70
     0
102
RTVSPost2010Prop53
 90
        2
102
RTVSPost2010PropOp53
 70
     1
102
RTVSPost2010Prop54
  1
strokes_ogs.tif
102
RTVSPost2010PropOp54
 70
     1
102
RTVSPost2010Prop55
280
     0
102
RTVSPost2010PropOp55
 70
     1
102
RTVSPost2010Prop56
140
1.0
102
RTVSPost2010PropOp56
 70
     1
102
RTVSPost2010Prop57
140
1.0
102
RTVSPost2010PropOp57
 70
     1
102
RTVSPropertyOp0
 70
     1
102
RTVSPropertyOp1
 70
     1
102
RTVSPropertyOp2
 70
     1
102
RTVSPropertyOp3
 70
     1
102
RTVSPropertyOp4
 70
     1
102
RTVSPropertyOp5
 70
     1
102
RTVSPropertyOp6
 70
     1
102
RTVSPropertyOp7
 70
     1
102
RTVSPropertyOp8
 70
     1
102
RTVSPropertyOp9
 70
     1
102
RTVSPropertyOp10
 70
     1
102
RTVSPropertyOp11
 70
     1
102
RTVSPropertyOp12
 70
     1
102
RTVSPropertyOp13
 70
     1
102
RTVSPropertyOp14
 70
     1
102
RTVSPropertyOp15
 70
     1
102
RTVSPropertyOp16
 70
     1
102
RTVSPropertyOp17
 70
     1
102
RTVSPropertyOp18
 70
     1
102
RTVSPropertyOp19
 70
     1
102
RTVSPropertyOp20
 70
     1
102
RTVSPropertyOp21
 70
     1
102
RTVSPropertyOp22
 70
     1
102
RTVSPropertyOp23
 70
     1
102
RTVSPropertyOp24
 70
     1
102
RTVSPropertyOp25
 70
     1
102
RTVSPropertyOp26
 70
     1
102
RTVSPropertyOp27
 70
     1
102
RTVSPropertyOp28
 70
     1
102
RTVSPropertyOp29
 70
     1
102
RTVSPropertyOp30
 70
     1
102
RTVSPropertyOp31
 70
     1
102
RTVSPropertyOp32
 70
     1
102
RTVSPropertyOp33
 70
     1
102
RTVSPropertyOp34
 70
     1
102
RTVSPropertyOp35
 70
     1
102
RTVSPropertyOp36
 70
     1
102
RTVSPropertyOp37
 70
     1
102
RTVSPropertyOp38
 70
     1
102
RTVSPropertyOp39
 70
     1
102
RTVSPropertyOp40
 70
     1
102
RTVSPropertyOp41
 70
     1
102
RTVSPropertyOp42
 70
     1
102
RTVSPropertyOp43
 70
     1
102
RTVSPropertyOp44
 70
     1
102
RTVSPropertyOp45
 70
     1
102
RTVSPropertyOp46
 70
     1
102
RTVSPropertyOp47
 70
     1
102
RTVSPropertyOp48
 70
     1
102
RTVSPropertyOp49
 70
     1
102
RTVSPropertyOp50
 70
     1
102
RTVSPropertyOp51
 70
     0
102
RTVSPropertyOp52
 70
     0
102
RTVSPropertyOp53
 70
     1
102
RTVSPropertyOp54
 70
     1
102
RTVSPropertyOp55
 70
     1
102
RTVSPropertyOp56
 70
     1
102
RTVSPropertyOp57
 70
     1
102
RTVSPropertyOp58
 70
     1
102
RTVSPropertyOp59
 70
     1
102
RTVSPropertyOp60
 70
     1
102
RTVSPropertyOp61
 70
     1
102
RTVSPropertyOp62
 70
     1
  0
XRECORD
  5
F592
102
{ACAD_REACTORS
330
F591
102
}
330
F591
100
AcDbXrecord
280
     1
102
RTVSPost2010Prop28
280
     0
102
RTVSPost2010PropOp28
 70
     1
102
RTVSPost2010Prop29
280
     1
102
RTVSPost2010PropOp29
 70
     1
102
RTVSPost2010Prop30
280
     1
102
RTVSPost2010PropOp30
 70
     1
102
RTVSPost2010Prop31
280
     0
102
RTVSPost2010PropOp31
 70
     1
102
RTVSPost2010Prop32
280
     0
102
RTVSPost2010PropOp32
 70
     1
102
RTVSPost2010Prop33
280
     0
102
RTVSPost2010PropOp33
 70
     1
102
RTVSPost2010Prop34
280
     0
102
RTVSPost2010PropOp34
 70
     1
102
RTVSPost2010Prop35
280
     0
102
RTVSPost2010PropOp35
 70
     1
102
RTVSPost2010Prop36
280
     0
102
RTVSPost2010PropOp36
 70
     1
102
RTVSPost2010Prop37
 90
       50
102
RTVSPost2010PropOp37
 70
     1
102
RTVSPost2010Prop38
140
0.0
102
RTVSPost2010PropOp38
 70
     1
102
RTVSPost2010Prop39
140
1.0
102
RTVSPost2010PropOp39
 70
     1
102
RTVSPost2010Prop40
 90
        0
102
RTVSPost2010PropOp40
 70
     1
102
RTVSPost2010Prop41ColorIndex
 90
       18
102
RTVSPost2010Prop41ColorRGB
 90
        0
102
RTVSPost2010PropOp41
 70
     1
102
RTVSPost2010Prop42
 90
       50
102
RTVSPost2010PropOp42
 70
     1
102
RTVSPost2010Prop43
 90
        3
102
RTVSPost2010PropOp43
 70
     1
102
RTVSPost2010Prop44ColorIndex
 90
        5
102
RTVSPost2010Prop44ColorRGB
 90
      255
102
RTVSPost2010PropOp44
 70
     1
102
RTVSPost2010Prop45
280
     0
102
RTVSPost2010PropOp45
 70
     1
102
RTVSPost2010Prop46
 90
       50
102
RTVSPost2010PropOp46
 70
     1
102
RTVSPost2010Prop47
 90
       50
102
RTVSPost2010PropOp47
 70
     1
102
RTVSPost2010Prop48
 90
       50
102
RTVSPost2010PropOp48
 70
     1
102
RTVSPost2010Prop49
280
     0
102
RTVSPost2010PropOp49
 70
     1
102
RTVSPost2010Prop50
 90
       50
102
RTVSPost2010PropOp50
 70
     1
102
RTVSPost2010Prop51ColorIndex
 90
      256
102
RTVSPost2010Prop51ColorRGB
 90
-16777216
102
RTVSPost2010PropOp51
 70
     0
102
RTVSPost2010Prop52
140
1.0
102
RTVSPost2010PropOp52
 70
     0
102
RTVSPost2010Prop53
 90
        2
102
RTVSPost2010PropOp53
 70
     1
102
RTVSPost2010Prop54
  1
strokes_ogs.tif
102
RTVSPost2010PropOp54
 70
     1
102
RTVSPost2010Prop55
280
     0
102
RTVSPost2010PropOp55
 70
     1
102
RTVSPost2010Prop56
140
1.0
102
RTVSPost2010PropOp56
 70
     1
102
RTVSPost2010Prop57
140
1.0
102
RTVSPost2010PropOp57
 70
     1
102
RTVSPropertyOp0
 70
     1
102
RTVSPropertyOp1
 70
     1
102
RTVSPropertyOp2
 70
     1
102
RTVSPropertyOp3
 70
     1
102
RTVSPropertyOp4
 70
     1
102
RTVSPropertyOp5
 70
     1
102
RTVSPropertyOp6
 70
     1
102
RTVSPropertyOp7
 70
     1
102
RTVSPropertyOp8
 70
     1
102
RTVSPropertyOp9
 70
     1
102
RTVSPropertyOp10
 70
     1
102
RTVSPropertyOp11
 70
     1
102
RTVSPropertyOp12
 70
     1
102
RTVSPropertyOp13
 70
     1
102
RTVSPropertyOp14
 70
     1
102
RTVSPropertyOp15
 70
     1
102
RTVSPropertyOp16
 70
     1
102
RTVSPropertyOp17
 70
     1
102
RTVSPropertyOp18
 70
     1
102
RTVSPropertyOp19
 70
     1
102
RTVSPropertyOp20
 70
     1
102
RTVSPropertyOp21
 70
     1
102
RTVSPropertyOp22
 70
     1
102
RTVSPropertyOp23
 70
     1
102
RTVSPropertyOp24
 70
     1
102
RTVSPropertyOp25
 70
     1
102
RTVSPropertyOp26
 70
     1
102
RTVSPropertyOp27
 70
     1
102
RTVSPropertyOp28
 70
     1
102
RTVSPropertyOp29
 70
     1
102
RTVSPropertyOp30
 70
     1
102
RTVSPropertyOp31
 70
     1
102
RTVSPropertyOp32
 70
     1
102
RTVSPropertyOp33
 70
     1
102
RTVSPropertyOp34
 70
     1
102
RTVSPropertyOp35
 70
     1
102
RTVSPropertyOp36
 70
     1
102
RTVSPropertyOp37
 70
     1
102
RTVSPropertyOp38
 70
     1
102
RTVSPropertyOp39
 70
     1
102
RTVSPropertyOp40
 70
     1
102
RTVSPropertyOp41
 70
     1
102
RTVSPropertyOp42
 70
     1
102
RTVSPropertyOp43
 70
     1
102
RTVSPropertyOp44
 70
     1
102
RTVSPropertyOp45
 70
     1
102
RTVSPropertyOp46
 70
     1
102
RTVSPropertyOp47
 70
     1
102
RTVSPropertyOp48
 70
     1
102
RTVSPropertyOp49
 70
     1
102
RTVSPropertyOp50
 70
     1
102
RTVSPropertyOp51
 70
     0
102
RTVSPropertyOp52
 70
     0
102
RTVSPropertyOp53
 70
     1
102
RTVSPropertyOp54
 70
     1
102
RTVSPropertyOp55
 70
     1
102
RTVSPropertyOp56
 70
     1
102
RTVSPropertyOp57
 70
     1
102
RTVSPropertyOp58
 70
     1
102
RTVSPropertyOp59
 70
     1
102
RTVSPropertyOp60
 70
     1
102
RTVSPropertyOp61
 70
     1
102
RTVSPropertyOp62
 70
     1
  0
XRECORD
  5
F58C
102
{ACAD_REACTORS
330
F58B
102
}
330
F58B
100
AcDbXrecord
280
     1
102
RTVSPost2010Prop28
280
     0
102
RTVSPost2010PropOp28
 70
     1
102
RTVSPost2010Prop29
280
     1
102
RTVSPost2010PropOp29
 70
     1
102
RTVSPost2010Prop30
280
     1
102
RTVSPost2010PropOp30
 70
     1
102
RTVSPost2010Prop31
280
     0
102
RTVSPost2010PropOp31
 70
     1
102
RTVSPost2010Prop32
280
     0
102
RTVSPost2010PropOp32
 70
     1
102
RTVSPost2010Prop33
280
     0
102
RTVSPost2010PropOp33
 70
     1
102
RTVSPost2010Prop34
280
     0
102
RTVSPost2010PropOp34
 70
     1
102
RTVSPost2010Prop35
280
     0
102
RTVSPost2010PropOp35
 70
     1
102
RTVSPost2010Prop36
280
     0
102
RTVSPost2010PropOp36
 70
     1
102
RTVSPost2010Prop37
 90
       50
102
RTVSPost2010PropOp37
 70
     1
102
RTVSPost2010Prop38
140
0.0
102
RTVSPost2010PropOp38
 70
     1
102
RTVSPost2010Prop39
140
1.0
102
RTVSPost2010PropOp39
 70
     1
102
RTVSPost2010Prop40
 90
        0
102
RTVSPost2010PropOp40
 70
     1
102
RTVSPost2010Prop41ColorIndex
 90
       18
102
RTVSPost2010Prop41ColorRGB
 90
        0
102
RTVSPost2010PropOp41
 70
     1
102
RTVSPost2010Prop42
 90
       50
102
RTVSPost2010PropOp42
 70
     1
102
RTVSPost2010Prop43
 90
        3
102
RTVSPost2010PropOp43
 70
     1
102
RTVSPost2010Prop44ColorIndex
 90
        5
102
RTVSPost2010Prop44ColorRGB
 90
      255
102
RTVSPost2010PropOp44
 70
     1
102
RTVSPost2010Prop45
280
     0
102
RTVSPost2010PropOp45
 70
     1
102
RTVSPost2010Prop46
 90
       50
102
RTVSPost2010PropOp46
 70
     1
102
RTVSPost2010Prop47
 90
       50
102
RTVSPost2010PropOp47
 70
     1
102
RTVSPost2010Prop48
 90
       50
102
RTVSPost2010PropOp48
 70
     1
102
RTVSPost2010Prop49
280
     0
102
RTVSPost2010PropOp49
 70
     1
102
RTVSPost2010Prop50
 90
       50
102
RTVSPost2010PropOp50
 70
     1
102
RTVSPost2010Prop51ColorIndex
 90
      256
102
RTVSPost2010Prop51ColorRGB
 90
-16777216
102
RTVSPost2010PropOp51
 70
     0
102
RTVSPost2010Prop52
140
1.0
102
RTVSPost2010PropOp52
 70
     0
102
RTVSPost2010Prop53
 90
        2
102
RTVSPost2010PropOp53
 70
     1
102
RTVSPost2010Prop54
  1
strokes_ogs.tif
102
RTVSPost2010PropOp54
 70
     1
102
RTVSPost2010Prop55
280
     0
102
RTVSPost2010PropOp55
 70
     1
102
RTVSPost2010Prop56
140
1.0
102
RTVSPost2010PropOp56
 70
     1
102
RTVSPost2010Prop57
140
1.0
102
RTVSPost2010PropOp57
 70
     1
102
RTVSPropertyOp0
 70
     1
102
RTVSPropertyOp1
 70
     1
102
RTVSPropertyOp2
 70
     1
102
RTVSPropertyOp3
 70
     1
102
RTVSPropertyOp4
 70
     1
102
RTVSPropertyOp5
 70
     1
102
RTVSPropertyOp6
 70
     1
102
RTVSPropertyOp7
 70
     1
102
RTVSPropertyOp8
 70
     1
102
RTVSPropertyOp9
 70
     1
102
RTVSPropertyOp10
 70
     1
102
RTVSPropertyOp11
 70
     1
102
RTVSPropertyOp12
 70
     1
102
RTVSPropertyOp13
 70
     1
102
RTVSPropertyOp14
 70
     1
102
RTVSPropertyOp15
 70
     1
102
RTVSPropertyOp16
 70
     1
102
RTVSPropertyOp17
 70
     1
102
RTVSPropertyOp18
 70
     1
102
RTVSPropertyOp19
 70
     1
102
RTVSPropertyOp20
 70
     1
102
RTVSPropertyOp21
 70
     1
102
RTVSPropertyOp22
 70
     1
102
RTVSPropertyOp23
 70
     1
102
RTVSPropertyOp24
 70
     1
102
RTVSPropertyOp25
 70
     1
102
RTVSPropertyOp26
 70
     1
102
RTVSPropertyOp27
 70
     1
102
RTVSPropertyOp28
 70
     1
102
RTVSPropertyOp29
 70
     1
102
RTVSPropertyOp30
 70
     1
102
RTVSPropertyOp31
 70
     1
102
RTVSPropertyOp32
 70
     1
102
RTVSPropertyOp33
 70
     1
102
RTVSPropertyOp34
 70
     1
102
RTVSPropertyOp35
 70
     1
102
RTVSPropertyOp36
 70
     1
102
RTVSPropertyOp37
 70
     1
102
RTVSPropertyOp38
 70
     1
102
RTVSPropertyOp39
 70
     1
102
RTVSPropertyOp40
 70
     1
102
RTVSPropertyOp41
 70
     1
102
RTVSPropertyOp42
 70
     1
102
RTVSPropertyOp43
 70
     1
102
RTVSPropertyOp44
 70
     1
102
RTVSPropertyOp45
 70
     1
102
RTVSPropertyOp46
 70
     1
102
RTVSPropertyOp47
 70
     1
102
RTVSPropertyOp48
 70
     1
102
RTVSPropertyOp49
 70
     1
102
RTVSPropertyOp50
 70
     1
102
RTVSPropertyOp51
 70
     0
102
RTVSPropertyOp52
 70
     0
102
RTVSPropertyOp53
 70
     1
102
RTVSPropertyOp54
 70
     1
102
RTVSPropertyOp55
 70
     1
102
RTVSPropertyOp56
 70
     1
102
RTVSPropertyOp57
 70
     1
102
RTVSPropertyOp58
 70
     1
102
RTVSPropertyOp59
 70
     1
102
RTVSPropertyOp60
 70
     1
102
RTVSPropertyOp61
 70
     1
102
RTVSPropertyOp62
 70
     1
  0
XRECORD
  5
F58E
102
{ACAD_REACTORS
330
F58D
102
}
330
F58D
100
AcDbXrecord
280
     1
102
RTVSPost2010Prop28
280
     0
102
RTVSPost2010PropOp28
 70
     1
102
RTVSPost2010Prop29
280
     1
102
RTVSPost2010PropOp29
 70
     1
102
RTVSPost2010Prop30
280
     1
102
RTVSPost2010PropOp30
 70
     1
102
RTVSPost2010Prop31
280
     0
102
RTVSPost2010PropOp31
 70
     1
102
RTVSPost2010Prop32
280
     0
102
RTVSPost2010PropOp32
 70
     1
102
RTVSPost2010Prop33
280
     0
102
RTVSPost2010PropOp33
 70
     1
102
RTVSPost2010Prop34
280
     0
102
RTVSPost2010PropOp34
 70
     1
102
RTVSPost2010Prop35
280
     0
102
RTVSPost2010PropOp35
 70
     1
102
RTVSPost2010Prop36
280
     0
102
RTVSPost2010PropOp36
 70
     1
102
RTVSPost2010Prop37
 90
       50
102
RTVSPost2010PropOp37
 70
     1
102
RTVSPost2010Prop38
140
0.0
102
RTVSPost2010PropOp38
 70
     1
102
RTVSPost2010Prop39
140
1.0
102
RTVSPost2010PropOp39
 70
     1
102
RTVSPost2010Prop40
 90
        0
102
RTVSPost2010PropOp40
 70
     1
102
RTVSPost2010Prop41ColorIndex
 90
       18
102
RTVSPost2010Prop41ColorRGB
 90
        0
102
RTVSPost2010PropOp41
 70
     1
102
RTVSPost2010Prop42
 90
       50
102
RTVSPost2010PropOp42
 70
     1
102
RTVSPost2010Prop43
 90
        3
102
RTVSPost2010PropOp43
 70
     1
102
RTVSPost2010Prop44ColorIndex
 90
        5
102
RTVSPost2010Prop44ColorRGB
 90
      255
102
RTVSPost2010PropOp44
 70
     1
102
RTVSPost2010Prop45
280
     0
102
RTVSPost2010PropOp45
 70
     1
102
RTVSPost2010Prop46
 90
       50
102
RTVSPost2010PropOp46
 70
     1
102
RTVSPost2010Prop47
 90
       50
102
RTVSPost2010PropOp47
 70
     1
102
RTVSPost2010Prop48
 90
       50
102
RTVSPost2010PropOp48
 70
     1
102
RTVSPost2010Prop49
280
     0
102
RTVSPost2010PropOp49
 70
     1
102
RTVSPost2010Prop50
 90
       50
102
RTVSPost2010PropOp50
 70
     1
102
RTVSPost2010Prop51ColorIndex
 90
      256
102
RTVSPost2010Prop51ColorRGB
 90
-16777216
102
RTVSPost2010PropOp51
 70
     0
102
RTVSPost2010Prop52
140
1.0
102
RTVSPost2010PropOp52
 70
     0
102
RTVSPost2010Prop53
 90
        2
102
RTVSPost2010PropOp53
 70
     1
102
RTVSPost2010Prop54
  1
strokes_ogs.tif
102
RTVSPost2010PropOp54
 70
     1
102
RTVSPost2010Prop55
280
     0
102
RTVSPost2010PropOp55
 70
     1
102
RTVSPost2010Prop56
140
1.0
102
RTVSPost2010PropOp56
 70
     1
102
RTVSPost2010Prop57
140
1.0
102
RTVSPost2010PropOp57
 70
     1
102
RTVSPropertyOp0
 70
     1
102
RTVSPropertyOp1
 70
     1
102
RTVSPropertyOp2
 70
     1
102
RTVSPropertyOp3
 70
     1
102
RTVSPropertyOp4
 70
     1
102
RTVSPropertyOp5
 70
     1
102
RTVSPropertyOp6
 70
     1
102
RTVSPropertyOp7
 70
     1
102
RTVSPropertyOp8
 70
     1
102
RTVSPropertyOp9
 70
     1
102
RTVSPropertyOp10
 70
     1
102
RTVSPropertyOp11
 70
     1
102
RTVSPropertyOp12
 70
     1
102
RTVSPropertyOp13
 70
     1
102
RTVSPropertyOp14
 70
     1
102
RTVSPropertyOp15
 70
     1
102
RTVSPropertyOp16
 70
     1
102
RTVSPropertyOp17
 70
     1
102
RTVSPropertyOp18
 70
     1
102
RTVSPropertyOp19
 70
     1
102
RTVSPropertyOp20
 70
     1
102
RTVSPropertyOp21
 70
     1
102
RTVSPropertyOp22
 70
     1
102
RTVSPropertyOp23
 70
     1
102
RTVSPropertyOp24
 70
     1
102
RTVSPropertyOp25
 70
     1
102
RTVSPropertyOp26
 70
     1
102
RTVSPropertyOp27
 70
     1
102
RTVSPropertyOp28
 70
     1
102
RTVSPropertyOp29
 70
     1
102
RTVSPropertyOp30
 70
     1
102
RTVSPropertyOp31
 70
     1
102
RTVSPropertyOp32
 70
     1
102
RTVSPropertyOp33
 70
     1
102
RTVSPropertyOp34
 70
     1
102
RTVSPropertyOp35
 70
     1
102
RTVSPropertyOp36
 70
     1
102
RTVSPropertyOp37
 70
     1
102
RTVSPropertyOp38
 70
     1
102
RTVSPropertyOp39
 70
     1
102
RTVSPropertyOp40
 70
     1
102
RTVSPropertyOp41
 70
     1
102
RTVSPropertyOp42
 70
     1
102
RTVSPropertyOp43
 70
     1
102
RTVSPropertyOp44
 70
     1
102
RTVSPropertyOp45
 70
     1
102
RTVSPropertyOp46
 70
     1
102
RTVSPropertyOp47
 70
     1
102
RTVSPropertyOp48
 70
     1
102
RTVSPropertyOp49
 70
     1
102
RTVSPropertyOp50
 70
     1
102
RTVSPropertyOp51
 70
     0
102
RTVSPropertyOp52
 70
     0
102
RTVSPropertyOp53
 70
     1
102
RTVSPropertyOp54
 70
     1
102
RTVSPropertyOp55
 70
     1
102
RTVSPropertyOp56
 70
     1
102
RTVSPropertyOp57
 70
     1
102
RTVSPropertyOp58
 70
     1
102
RTVSPropertyOp59
 70
     1
102
RTVSPropertyOp60
 70
     1
102
RTVSPropertyOp61
 70
     1
102
RTVSPropertyOp62
 70
     1
  0
XRECORD
  5
F584
102
{ACAD_REACTORS
330
F583
102
}
330
F583
100
AcDbXrecord
280
     1
102
RTVSPost2010Prop28
280
     0
102
RTVSPost2010PropOp28
 70
     1
102
RTVSPost2010Prop29
280
     1
102
RTVSPost2010PropOp29
 70
     1
102
RTVSPost2010Prop30
280
     1
102
RTVSPost2010PropOp30
 70
     1
102
RTVSPost2010Prop31
280
     0
102
RTVSPost2010PropOp31
 70
     1
102
RTVSPost2010Prop32
280
     0
102
RTVSPost2010PropOp32
 70
     1
102
RTVSPost2010Prop33
280
     0
102
RTVSPost2010PropOp33
 70
     1
102
RTVSPost2010Prop34
280
     0
102
RTVSPost2010PropOp34
 70
     1
102
RTVSPost2010Prop35
280
     0
102
RTVSPost2010PropOp35
 70
     1
102
RTVSPost2010Prop36
280
     0
102
RTVSPost2010PropOp36
 70
     1
102
RTVSPost2010Prop37
 90
       50
102
RTVSPost2010PropOp37
 70
     1
102
RTVSPost2010Prop38
140
0.0
102
RTVSPost2010PropOp38
 70
     1
102
RTVSPost2010Prop39
140
1.0
102
RTVSPost2010PropOp39
 70
     1
102
RTVSPost2010Prop40
 90
        0
102
RTVSPost2010PropOp40
 70
     1
102
RTVSPost2010Prop41ColorIndex
 90
       18
102
RTVSPost2010Prop41ColorRGB
 90
        0
102
RTVSPost2010PropOp41
 70
     1
102
RTVSPost2010Prop42
 90
       50
102
RTVSPost2010PropOp42
 70
     1
102
RTVSPost2010Prop43
 90
        3
102
RTVSPost2010PropOp43
 70
     1
102
RTVSPost2010Prop44ColorIndex
 90
        5
102
RTVSPost2010Prop44ColorRGB
 90
      255
102
RTVSPost2010PropOp44
 70
     1
102
RTVSPost2010Prop45
280
     0
102
RTVSPost2010PropOp45
 70
     1
102
RTVSPost2010Prop46
 90
       50
102
RTVSPost2010PropOp46
 70
     1
102
RTVSPost2010Prop47
 90
       50
102
RTVSPost2010PropOp47
 70
     1
102
RTVSPost2010Prop48
 90
       50
102
RTVSPost2010PropOp48
 70
     1
102
RTVSPost2010Prop49
280
     0
102
RTVSPost2010PropOp49
 70
     1
102
RTVSPost2010Prop50
 90
       50
102
RTVSPost2010PropOp50
 70
     1
102
RTVSPost2010Prop51ColorIndex
 90
      256
102
RTVSPost2010Prop51ColorRGB
 90
-16777216
102
RTVSPost2010PropOp51
 70
     0
102
RTVSPost2010Prop52
140
1.0
102
RTVSPost2010PropOp52
 70
     0
102
RTVSPost2010Prop53
 90
        2
102
RTVSPost2010PropOp53
 70
     1
102
RTVSPost2010Prop54
  1
strokes_ogs.tif
102
RTVSPost2010PropOp54
 70
     1
102
RTVSPost2010Prop55
280
     0
102
RTVSPost2010PropOp55
 70
     1
102
RTVSPost2010Prop56
140
1.0
102
RTVSPost2010PropOp56
 70
     1
102
RTVSPost2010Prop57
140
1.0
102
RTVSPost2010PropOp57
 70
     1
102
RTVSPropertyOp0
 70
     1
102
RTVSPropertyOp1
 70
     1
102
RTVSPropertyOp2
 70
     1
102
RTVSPropertyOp3
 70
     1
102
RTVSPropertyOp4
 70
     1
102
RTVSPropertyOp5
 70
     1
102
RTVSPropertyOp6
 70
     1
102
RTVSPropertyOp7
 70
     1
102
RTVSPropertyOp8
 70
     1
102
RTVSPropertyOp9
 70
     1
102
RTVSPropertyOp10
 70
     1
102
RTVSPropertyOp11
 70
     1
102
RTVSPropertyOp12
 70
     1
102
RTVSPropertyOp13
 70
     1
102
RTVSPropertyOp14
 70
     1
102
RTVSPropertyOp15
 70
     1
102
RTVSPropertyOp16
 70
     1
102
RTVSPropertyOp17
 70
     1
102
RTVSPropertyOp18
 70
     1
102
RTVSPropertyOp19
 70
     1
102
RTVSPropertyOp20
 70
     1
102
RTVSPropertyOp21
 70
     1
102
RTVSPropertyOp22
 70
     1
102
RTVSPropertyOp23
 70
     1
102
RTVSPropertyOp24
 70
     1
102
RTVSPropertyOp25
 70
     1
102
RTVSPropertyOp26
 70
     1
102
RTVSPropertyOp27
 70
     1
102
RTVSPropertyOp28
 70
     1
102
RTVSPropertyOp29
 70
     1
102
RTVSPropertyOp30
 70
     1
102
RTVSPropertyOp31
 70
     1
102
RTVSPropertyOp32
 70
     1
102
RTVSPropertyOp33
 70
     1
102
RTVSPropertyOp34
 70
     1
102
RTVSPropertyOp35
 70
     1
102
RTVSPropertyOp36
 70
     1
102
RTVSPropertyOp37
 70
     1
102
RTVSPropertyOp38
 70
     1
102
RTVSPropertyOp39
 70
     1
102
RTVSPropertyOp40
 70
     1
102
RTVSPropertyOp41
 70
     1
102
RTVSPropertyOp42
 70
     1
102
RTVSPropertyOp43
 70
     1
102
RTVSPropertyOp44
 70
     1
102
RTVSPropertyOp45
 70
     1
102
RTVSPropertyOp46
 70
     1
102
RTVSPropertyOp47
 70
     1
102
RTVSPropertyOp48
 70
     1
102
RTVSPropertyOp49
 70
     1
102
RTVSPropertyOp50
 70
     1
102
RTVSPropertyOp51
 70
     0
102
RTVSPropertyOp52
 70
     0
102
RTVSPropertyOp53
 70
     1
102
RTVSPropertyOp54
 70
     1
102
RTVSPropertyOp55
 70
     1
102
RTVSPropertyOp56
 70
     1
102
RTVSPropertyOp57
 70
     1
102
RTVSPropertyOp58
 70
     1
102
RTVSPropertyOp59
 70
     1
102
RTVSPropertyOp60
 70
     1
102
RTVSPropertyOp61
 70
     1
102
RTVSPropertyOp62
 70
     1
  0
XRECORD
  5
F578
102
{ACAD_REACTORS
330
F577
102
}
330
F577
100
AcDbXrecord
280
     1
102
RTVSPost2010Prop28
280
     0
102
RTVSPost2010PropOp28
 70
     1
102
RTVSPost2010Prop29
280
     1
102
RTVSPost2010PropOp29
 70
     1
102
RTVSPost2010Prop30
280
     1
102
RTVSPost2010PropOp30
 70
     1
102
RTVSPost2010Prop31
280
     0
102
RTVSPost2010PropOp31
 70
     1
102
RTVSPost2010Prop32
280
     0
102
RTVSPost2010PropOp32
 70
     1
102
RTVSPost2010Prop33
280
     0
102
RTVSPost2010PropOp33
 70
     1
102
RTVSPost2010Prop34
280
     0
102
RTVSPost2010PropOp34
 70
     1
102
RTVSPost2010Prop35
280
     0
102
RTVSPost2010PropOp35
 70
     1
102
RTVSPost2010Prop36
280
     0
102
RTVSPost2010PropOp36
 70
     1
102
RTVSPost2010Prop37
 90
       50
102
RTVSPost2010PropOp37
 70
     1
102
RTVSPost2010Prop38
140
0.0
102
RTVSPost2010PropOp38
 70
     1
102
RTVSPost2010Prop39
140
1.0
102
RTVSPost2010PropOp39
 70
     1
102
RTVSPost2010Prop40
 90
        0
102
RTVSPost2010PropOp40
 70
     1
102
RTVSPost2010Prop41ColorIndex
 90
       18
102
RTVSPost2010Prop41ColorRGB
 90
        0
102
RTVSPost2010PropOp41
 70
     1
102
RTVSPost2010Prop42
 90
       50
102
RTVSPost2010PropOp42
 70
     1
102
RTVSPost2010Prop43
 90
        3
102
RTVSPost2010PropOp43
 70
     1
102
RTVSPost2010Prop44ColorIndex
 90
        5
102
RTVSPost2010Prop44ColorRGB
 90
      255
102
RTVSPost2010PropOp44
 70
     1
102
RTVSPost2010Prop45
280
     0
102
RTVSPost2010PropOp45
 70
     1
102
RTVSPost2010Prop46
 90
       50
102
RTVSPost2010PropOp46
 70
     1
102
RTVSPost2010Prop47
 90
       50
102
RTVSPost2010PropOp47
 70
     1
102
RTVSPost2010Prop48
 90
       50
102
RTVSPost2010PropOp48
 70
     1
102
RTVSPost2010Prop49
280
     0
102
RTVSPost2010PropOp49
 70
     1
102
RTVSPost2010Prop50
 90
       50
102
RTVSPost2010PropOp50
 70
     1
102
RTVSPost2010Prop51ColorIndex
 90
      256
102
RTVSPost2010Prop51ColorRGB
 90
-16777216
102
RTVSPost2010PropOp51
 70
     0
102
RTVSPost2010Prop52
140
1.0
102
RTVSPost2010PropOp52
 70
     0
102
RTVSPost2010Prop53
 90
        2
102
RTVSPost2010PropOp53
 70
     1
102
RTVSPost2010Prop54
  1
strokes_ogs.tif
102
RTVSPost2010PropOp54
 70
     1
102
RTVSPost2010Prop55
280
     0
102
RTVSPost2010PropOp55
 70
     1
102
RTVSPost2010Prop56
140
1.0
102
RTVSPost2010PropOp56
 70
     1
102
RTVSPost2010Prop57
140
1.0
102
RTVSPost2010PropOp57
 70
     1
102
RTVSPropertyOp0
 70
     1
102
RTVSPropertyOp1
 70
     1
102
RTVSPropertyOp2
 70
     1
102
RTVSPropertyOp3
 70
     1
102
RTVSPropertyOp4
 70
     1
102
RTVSPropertyOp5
 70
     1
102
RTVSPropertyOp6
 70
     1
102
RTVSPropertyOp7
 70
     1
102
RTVSPropertyOp8
 70
     1
102
RTVSPropertyOp9
 70
     1
102
RTVSPropertyOp10
 70
     1
102
RTVSPropertyOp11
 70
     1
102
RTVSPropertyOp12
 70
     1
102
RTVSPropertyOp13
 70
     1
102
RTVSPropertyOp14
 70
     1
102
RTVSPropertyOp15
 70
     1
102
RTVSPropertyOp16
 70
     1
102
RTVSPropertyOp17
 70
     1
102
RTVSPropertyOp18
 70
     1
102
RTVSPropertyOp19
 70
     1
102
RTVSPropertyOp20
 70
     1
102
RTVSPropertyOp21
 70
     1
102
RTVSPropertyOp22
 70
     1
102
RTVSPropertyOp23
 70
     1
102
RTVSPropertyOp24
 70
     1
102
RTVSPropertyOp25
 70
     1
102
RTVSPropertyOp26
 70
     1
102
RTVSPropertyOp27
 70
     1
102
RTVSPropertyOp28
 70
     1
102
RTVSPropertyOp29
 70
     1
102
RTVSPropertyOp30
 70
     1
102
RTVSPropertyOp31
 70
     1
102
RTVSPropertyOp32
 70
     1
102
RTVSPropertyOp33
 70
     1
102
RTVSPropertyOp34
 70
     1
102
RTVSPropertyOp35
 70
     1
102
RTVSPropertyOp36
 70
     1
102
RTVSPropertyOp37
 70
     1
102
RTVSPropertyOp38
 70
     1
102
RTVSPropertyOp39
 70
     1
102
RTVSPropertyOp40
 70
     1
102
RTVSPropertyOp41
 70
     1
102
RTVSPropertyOp42
 70
     1
102
RTVSPropertyOp43
 70
     1
102
RTVSPropertyOp44
 70
     1
102
RTVSPropertyOp45
 70
     1
102
RTVSPropertyOp46
 70
     1
102
RTVSPropertyOp47
 70
     1
102
RTVSPropertyOp48
 70
     1
102
RTVSPropertyOp49
 70
     1
102
RTVSPropertyOp50
 70
     1
102
RTVSPropertyOp51
 70
     0
102
RTVSPropertyOp52
 70
     0
102
RTVSPropertyOp53
 70
     1
102
RTVSPropertyOp54
 70
     1
102
RTVSPropertyOp55
 70
     1
102
RTVSPropertyOp56
 70
     1
102
RTVSPropertyOp57
 70
     1
102
RTVSPropertyOp58
 70
     1
102
RTVSPropertyOp59
 70
     1
102
RTVSPropertyOp60
 70
     1
102
RTVSPropertyOp61
 70
     1
102
RTVSPropertyOp62
 70
     1
  0
XRECORD
  5
F590
102
{ACAD_REACTORS
330
F58F
102
}
330
F58F
100
AcDbXrecord
280
     1
102
RTVSPost2010Prop28
280
     0
102
RTVSPost2010PropOp28
 70
     1
102
RTVSPost2010Prop29
280
     1
102
RTVSPost2010PropOp29
 70
     1
102
RTVSPost2010Prop30
280
     1
102
RTVSPost2010PropOp30
 70
     1
102
RTVSPost2010Prop31
280
     0
102
RTVSPost2010PropOp31
 70
     1
102
RTVSPost2010Prop32
280
     0
102
RTVSPost2010PropOp32
 70
     1
102
RTVSPost2010Prop33
280
     0
102
RTVSPost2010PropOp33
 70
     1
102
RTVSPost2010Prop34
280
     0
102
RTVSPost2010PropOp34
 70
     1
102
RTVSPost2010Prop35
280
     0
102
RTVSPost2010PropOp35
 70
     1
102
RTVSPost2010Prop36
280
     0
102
RTVSPost2010PropOp36
 70
     1
102
RTVSPost2010Prop37
 90
       50
102
RTVSPost2010PropOp37
 70
     1
102
RTVSPost2010Prop38
140
0.0
102
RTVSPost2010PropOp38
 70
     1
102
RTVSPost2010Prop39
140
1.0
102
RTVSPost2010PropOp39
 70
     1
102
RTVSPost2010Prop40
 90
        0
102
RTVSPost2010PropOp40
 70
     1
102
RTVSPost2010Prop41ColorIndex
 90
       18
102
RTVSPost2010Prop41ColorRGB
 90
        0
102
RTVSPost2010PropOp41
 70
     1
102
RTVSPost2010Prop42
 90
       50
102
RTVSPost2010PropOp42
 70
     1
102
RTVSPost2010Prop43
 90
        3
102
RTVSPost2010PropOp43
 70
     1
102
RTVSPost2010Prop44ColorIndex
 90
        5
102
RTVSPost2010Prop44ColorRGB
 90
      255
102
RTVSPost2010PropOp44
 70
     1
102
RTVSPost2010Prop45
280
     0
102
RTVSPost2010PropOp45
 70
     1
102
RTVSPost2010Prop46
 90
       50
102
RTVSPost2010PropOp46
 70
     1
102
RTVSPost2010Prop47
 90
       50
102
RTVSPost2010PropOp47
 70
     1
102
RTVSPost2010Prop48
 90
       50
102
RTVSPost2010PropOp48
 70
     1
102
RTVSPost2010Prop49
280
     0
102
RTVSPost2010PropOp49
 70
     1
102
RTVSPost2010Prop50
 90
       50
102
RTVSPost2010PropOp50
 70
     1
102
RTVSPost2010Prop51ColorIndex
 90
      256
102
RTVSPost2010Prop51ColorRGB
 90
-16777216
102
RTVSPost2010PropOp51
 70
     0
102
RTVSPost2010Prop52
140
1.0
102
RTVSPost2010PropOp52
 70
     0
102
RTVSPost2010Prop53
 90
        2
102
RTVSPost2010PropOp53
 70
     1
102
RTVSPost2010Prop54
  1
strokes_ogs.tif
102
RTVSPost2010PropOp54
 70
     1
102
RTVSPost2010Prop55
280
     0
102
RTVSPost2010PropOp55
 70
     1
102
RTVSPost2010Prop56
140
1.0
102
RTVSPost2010PropOp56
 70
     1
102
RTVSPost2010Prop57
140
1.0
102
RTVSPost2010PropOp57
 70
     1
102
RTVSPropertyOp0
 70
     1
102
RTVSPropertyOp1
 70
     1
102
RTVSPropertyOp2
 70
     1
102
RTVSPropertyOp3
 70
     1
102
RTVSPropertyOp4
 70
     1
102
RTVSPropertyOp5
 70
     1
102
RTVSPropertyOp6
 70
     1
102
RTVSPropertyOp7
 70
     1
102
RTVSPropertyOp8
 70
     1
102
RTVSPropertyOp9
 70
     1
102
RTVSPropertyOp10
 70
     1
102
RTVSPropertyOp11
 70
     1
102
RTVSPropertyOp12
 70
     1
102
RTVSPropertyOp13
 70
     1
102
RTVSPropertyOp14
 70
     1
102
RTVSPropertyOp15
 70
     1
102
RTVSPropertyOp16
 70
     1
102
RTVSPropertyOp17
 70
     1
102
RTVSPropertyOp18
 70
     1
102
RTVSPropertyOp19
 70
     1
102
RTVSPropertyOp20
 70
     1
102
RTVSPropertyOp21
 70
     1
102
RTVSPropertyOp22
 70
     1
102
RTVSPropertyOp23
 70
     1
102
RTVSPropertyOp24
 70
     1
102
RTVSPropertyOp25
 70
     1
102
RTVSPropertyOp26
 70
     1
102
RTVSPropertyOp27
 70
     1
102
RTVSPropertyOp28
 70
     1
102
RTVSPropertyOp29
 70
     1
102
RTVSPropertyOp30
 70
     1
102
RTVSPropertyOp31
 70
     1
102
RTVSPropertyOp32
 70
     1
102
RTVSPropertyOp33
 70
     1
102
RTVSPropertyOp34
 70
     1
102
RTVSPropertyOp35
 70
     1
102
RTVSPropertyOp36
 70
     1
102
RTVSPropertyOp37
 70
     1
102
RTVSPropertyOp38
 70
     1
102
RTVSPropertyOp39
 70
     1
102
RTVSPropertyOp40
 70
     1
102
RTVSPropertyOp41
 70
     1
102
RTVSPropertyOp42
 70
     1
102
RTVSPropertyOp43
 70
     1
102
RTVSPropertyOp44
 70
     1
102
RTVSPropertyOp45
 70
     1
102
RTVSPropertyOp46
 70
     1
102
RTVSPropertyOp47
 70
     1
102
RTVSPropertyOp48
 70
     1
102
RTVSPropertyOp49
 70
     1
102
RTVSPropertyOp50
 70
     1
102
RTVSPropertyOp51
 70
     0
102
RTVSPropertyOp52
 70
     0
102
RTVSPropertyOp53
 70
     1
102
RTVSPropertyOp54
 70
     1
102
RTVSPropertyOp55
 70
     1
102
RTVSPropertyOp56
 70
     1
102
RTVSPropertyOp57
 70
     1
102
RTVSPropertyOp58
 70
     1
102
RTVSPropertyOp59
 70
     1
102
RTVSPropertyOp60
 70
     1
102
RTVSPropertyOp61
 70
     1
102
RTVSPropertyOp62
 70
     1
  0
ENDSEC
  0
EOF
