  0
SECTION
  2
HEADER
  9
$ACADVER
  1
AC1015
  9
$ACADMAINTVER
 70
    20
  9
$DWGCODEPAGE
  3
ANSI_932
  9
$INSBASE
 10
0.0
 20
0.0
 30
0.0
  9
$EXTMIN
 10
61341.49907450808
 20
5750.640088390618
 30
-0.0015258207003583
  9
$EXTMAX
 10
83968.54448572046
 20
30846.18821970144
 30
0.0000000349246037
  9
$LIMMIN
 10
0.0
 20
0.0
  9
$LIMMAX
 10
420.0
 20
297.0
  9
$ORTHOMODE
 70
     1
  9
$REGENMODE
 70
     1
  9
$FILLMODE
 70
     1
  9
$QTEXTMODE
 70
     0
  9
$MIRRTEXT
 70
     0
  9
$LTSCALE
 40
1.0
  9
$ATTMODE
 70
     1
  9
$TEXTSIZE
 40
2.5
  9
$TRACEWID
 40
1.0
  9
$TEXTSTYLE
  7
Standard
  9
$CLAYER
  8
0
  9
$CELTYPE
  6
ByLayer
  9
$CECOLOR
 62
   256
  9
$CELTSCALE
 40
1.0
  9
$DISPSILH
 70
     0
  9
$DIMSCALE
 40
1.0
  9
$DIMASZ
 40
2.5
  9
$DIMEXO
 40
0.625
  9
$DIMDLI
 40
3.75
  9
$DIMRND
 40
0.0
  9
$DIMDLE
 40
0.0
  9
$DIMEXE
 40
1.25
  9
$DIMTP
 40
0.0
  9
$DIMTM
 40
0.0
  9
$DIMTXT
 40
2.5
  9
$DIMCEN
 40
2.5
  9
$DIMTSZ
 40
0.0
  9
$DIMTOL
 70
     0
  9
$DIMLIM
 70
     0
  9
$DIMTIH
 70
     0
  9
$DIMTOH
 70
     0
  9
$DIMSE1
 70
     0
  9
$DIMSE2
 70
     0
  9
$DIMTAD
 70
     1
  9
$DIMZIN
 70
     8
  9
$DIMBLK
  1

  9
$DIMASO
 70
     1
  9
$DIMSHO
 70
     1
  9
$DIMPOST
  1

  9
$DIMAPOST
  1

  9
$DIMALT
 70
     0
  9
$DIMALTD
 70
     3
  9
$DIMALTF
 40
0.03937007874016
  9
$DIMLFAC
 40
1.0
  9
$DIMTOFL
 70
     1
  9
$DIMTVP
 40
0.0
  9
$DIMTIX
 70
     0
  9
$DIMSOXD
 70
     0
  9
$DIMSAH
 70
     0
  9
$DIMBLK1
  1

  9
$DIMBLK2
  1

  9
$DIMSTYLE
  2
ISO-25
  9
$DIMCLRD
 70
     0
  9
$DIMCLRE
 70
     0
  9
$DIMCLRT
 70
     0
  9
$DIMTFAC
 40
1.0
  9
$DIMGAP
 40
0.625
  9
$DIMJUST
 70
     0
  9
$DIMSD1
 70
     0
  9
$DIMSD2
 70
     0
  9
$DIMTOLJ
 70
     0
  9
$DIMTZIN
 70
     8
  9
$DIMALTZ
 70
     0
  9
$DIMALTTZ
 70
     0
  9
$DIMUPT
 70
     0
  9
$DIMDEC
 70
     2
  9
$DIMTDEC
 70
     2
  9
$DIMALTU
 70
     2
  9
$DIMALTTD
 70
     3
  9
$DIMTXSTY
  7
Standard
  9
$DIMAUNIT
 70
     0
  9
$DIMADEC
 70
     0
  9
$DIMALTRND
 40
0.0
  9
$DIMAZIN
 70
     0
  9
$DIMDSEP
 70
    44
  9
$DIMATFIT
 70
     3
  9
$DIMFRAC
 70
     0
  9
$DIMLDRBLK
  1

  9
$DIMLUNIT
 70
     2
  9
$DIMLWD
 70
    -2
  9
$DIMLWE
 70
    -2
  9
$DIMTMOVE
 70
     0
  9
$LUNITS
 70
     2
  9
$LUPREC
 70
     4
  9
$SKETCHINC
 40
1.0
  9
$FILLETRAD
 40
0.0
  9
$AUNITS
 70
     0
  9
$AUPREC
 70
     0
  9
$MENU
  1
.
  9
$ELEVATION
 40
0.0
  9
$PELEVATION
 40
0.0
  9
$THICKNESS
 40
0.0
  9
$LIMCHECK
 70
     0
  9
$CHAMFERA
 40
0.0
  9
$CHAMFERB
 40
0.0
  9
$CHAMFERC
 40
0.0
  9
$CHAMFERD
 40
0.0
  9
$SKPOLY
 70
     0
  9
$TDCREATE
 40
2455236.672881945
  9
$TDUCREATE
 40
2455236.297885914
  9
$TDUPDATE
 40
2459242.629907407
  9
$TDUUPDATE
 40
2459242.254907408
  9
$TDINDWG
 40
1.1698491782
  9
$TDUSRTIMER
 40
1.1698488194
  9
$USRTIMER
 70
     1
  9
$ANGBASE
 50
0.0
  9
$ANGDIR
 70
     0
  9
$PDMODE
 70
     0
  9
$PDSIZE
 40
0.0
  9
$PLINEWID
 40
0.0
  9
$SPLFRAME
 70
     0
  9
$SPLINETYPE
 70
     6
  9
$SPLINESEGS
 70
     8
  9
$HANDSEED
  5
941C1
  9
$SURFTAB1
 70
     6
  9
$SURFTAB2
 70
     6
  9
$SURFTYPE
 70
     6
  9
$SURFU
 70
     6
  9
$SURFV
 70
     6
  9
$UCSBASE
  2

  9
$UCSNAME
  2

  9
$UCSORG
 10
0.0
 20
0.0
 30
0.0
  9
$UCSXDIR
 10
1.0
 20
0.0
 30
0.0
  9
$UCSYDIR
 10
0.0
 20
1.0
 30
0.0
  9
$UCSORTHOREF
  2

  9
$UCSORTHOVIEW
 70
     0
  9
$UCSORGTOP
 10
0.0
 20
0.0
 30
0.0
  9
$UCSORGBOTTOM
 10
0.0
 20
0.0
 30
0.0
  9
$UCSORGLEFT
 10
0.0
 20
0.0
 30
0.0
  9
$UCSORGRIGHT
 10
0.0
 20
0.0
 30
0.0
  9
$UCSORGFRONT
 10
0.0
 20
0.0
 30
0.0
  9
$UCSORGBACK
 10
0.0
 20
0.0
 30
0.0
  9
$PUCSBASE
  2

  9
$PUCSNAME
  2

  9
$PUCSORG
 10
0.0
 20
0.0
 30
0.0
  9
$PUCSXDIR
 10
1.0
 20
0.0
 30
0.0
  9
$PUCSYDIR
 10
0.0
 20
1.0
 30
0.0
  9
$PUCSORTHOREF
  2

  9
$PUCSORTHOVIEW
 70
     0
  9
$PUCSORGTOP
 10
0.0
 20
0.0
 30
0.0
  9
$PUCSORGBOTTOM
 10
0.0
 20
0.0
 30
0.0
  9
$PUCSORGLEFT
 10
0.0
 20
0.0
 30
0.0
  9
$PUCSORGRIGHT
 10
0.0
 20
0.0
 30
0.0
  9
$PUCSORGFRONT
 10
0.0
 20
0.0
 30
0.0
  9
$PUCSORGBACK
 10
0.0
 20
0.0
 30
0.0
  9
$USERI1
 70
     0
  9
$USERI2
 70
     0
  9
$USERI3
 70
     0
  9
$USERI4
 70
     0
  9
$USERI5
 70
     0
  9
$USERR1
 40
0.0
  9
$USERR2
 40
0.0
  9
$USERR3
 40
0.0
  9
$USERR4
 40
0.0
  9
$USERR5
 40
0.0
  9
$WORLDVIEW
 70
     1
  9
$SHADEDGE
 70
     3
  9
$SHADEDIF
 70
    70
  9
$TILEMODE
 70
     1
  9
$MAXACTVP
 70
    64
  9
$PINSBASE
 10
0.0
 20
0.0
 30
0.0
  9
$PLIMCHECK
 70
     0
  9
$PEXTMIN
 10
0.0
 20
0.0
 30
0.0
  9
$PEXTMAX
 10
0.0
 20
0.0
 30
0.0
  9
$PLIMMIN
 10
0.0
 20
0.0
  9
$PLIMMAX
 10
12.0
 20
9.0
  9
$UNITMODE
 70
     0
  9
$VISRETAIN
 70
     1
  9
$PLINEGEN
 70
     0
  9
$PSLTSCALE
 70
     1
  9
$TREEDEPTH
 70
  3020
  9
$CMLSTYLE
  2
Standard
  9
$CMLJUST
 70
     0
  9
$CMLSCALE
 40
20.0
  9
$PROXYGRAPHICS
 70
     1
  9
$MEASUREMENT
 70
     1
  9
$CELWEIGHT
370
    -1
  9
$ENDCAPS
280
     0
  9
$JOINSTYLE
280
     0
  9
$LWDISPLAY
290
     0
  9
$INSUNITS
 70
     4
  9
$HYPERLINKBASE
  1

  9
$STYLESHEET
  1
all black（線：データ通り　色：黒）.ctb
  9
$XEDIT
290
     1
  9
$CEPSNTYPE
380
     0
  9
$PSTYLEMODE
290
     1
  9
$FINGERPRINTGUID
  2
{736015B7-7EA2-465A-B16D-71E2099F2882}
  9
$VERSIONGUID
  2
{01E26526-B542-874C-BFA6-F1C363D3A263}
  9
$EXTNAMES
290
     1
  9
$PSVPSCALE
 40
0.0
  9
$OLESTARTUP
290
     0
  0
ENDSEC
  0
SECTION
  2
CLASSES
  0
CLASS
  1
ACDBDICTIONARYWDFLT
  2
AcDbDictionaryWithDefault
  3
ObjectDBX Classes
 90
        0
280
     0
281
     0
  0
CLASS
  1
DICTIONARYVAR
  2
AcDbDictionaryVar
  3
ObjectDBX Classes
 90
        0
280
     0
281
     0
  0
CLASS
  1
TABLESTYLE
  2
AcDbTableStyle
  3
ObjectDBX Classes
 90
     4095
280
     0
281
     0
  0
CLASS
  1
SORTENTSTABLE
  2
AcDbSortentsTable
  3
ObjectDBX Classes
 90
        0
280
     0
281
     0
  0
CLASS
  1
ACDBPLACEHOLDER
  2
AcDbPlaceHolder
  3
ObjectDBX Classes
 90
        0
280
     0
281
     0
  0
CLASS
  1
LAYOUT
  2
AcDbLayout
  3
ObjectDBX Classes
 90
        0
280
     0
281
     0
  0
CLASS
  1
MATERIAL
  2
AcDbMaterial
  3
ObjectDBX Classes
 90
     1153
280
     0
281
     0
  0
CLASS
  1
VISUALSTYLE
  2
AcDbVisualStyle
  3
ObjectDBX Classes
 90
     4095
280
     0
281
     0
  0
CLASS
  1
SCALE
  2
AcDbScale
  3
ObjectDBX Classes
 90
     1153
280
     0
281
     0
  0
CLASS
  1
MLEADERSTYLE
  2
AcDbMLeaderStyle
  3
ACDB_MLEADERSTYLE_CLASS
 90
     4095
280
     0
281
     0
  0
CLASS
  1
ACDBSECTIONVIEWSTYLE
  2
AcDbSectionViewStyle
  3
ObjectDBX Classes
 90
     1025
280
     0
281
     0
  0
CLASS
  1
ACDBDETAILVIEWSTYLE
  2
AcDbDetailViewStyle
  3
ObjectDBX Classes
 90
     1025
280
     0
281
     0
  0
CLASS
  1
EXACXREFPANELOBJECT
  2
ExAcXREFPanelObject
  3
EXAC_ESW
 90
    33793
280
     0
281
     0
  0
CLASS
  1
NPOCOLLECTION
  2
AcDbImpNonPersistentObjectsCollection
  3
ObjectDBX Classes
 90
    33921
280
     0
281
     0
  0
CLASS
  1
CELLSTYLEMAP
  2
AcDbCellStyleMap
  3
ObjectDBX Classes
 90
     1152
280
     0
281
     0
  0
ENDSEC
  0
SECTION
  2
TABLES
  0
TABLE
  2
VPORT
  5
8
330
0
100
AcDbSymbolTable
 70
     1
  0
VPORT
  5
9348B
330
8
100
AcDbSymbolTableRecord
100
AcDbViewportTableRecord
  2
*Active
 70
     0
 10
0.0
 20
0.0
 11
1.0
 21
1.0
 12
66968.60801562597
 22
18616.21599745686
 13
0.0
 23
0.0
 14
10.0
 24
10.0
 15
10.0
 25
10.0
 16
0.0
 26
0.0
 36
1.0
 17
0.0
 27
0.0
 37
0.0
 40
41950.95639518822
 41
1.692307692307692
 42
50.0
 43
0.0
 44
0.0
 50
0.0
 51
0.0
 71
     0
 72
  1000
 73
     1
 74
     3
 75
     1
 76
     0
 77
     0
 78
     0
281
     0
 65
     1
110
0.0
120
0.0
130
0.0
111
1.0
121
0.0
131
0.0
112
0.0
122
1.0
132
0.0
 79
     0
146
0.0
1001
ACAD_NAV_VCDISPLAY
1070
     3
  0
ENDTAB
  0
TABLE
  2
LTYPE
  5
5
330
0
100
AcDbSymbolTable
 70
     7
  0
LTYPE
  5
14
330
5
100
AcDbSymbolTableRecord
100
AcDbLinetypeTableRecord
  2
ByBlock
 70
     0
  3

 72
    65
 73
     0
 40
0.0
  0
LTYPE
  5
15
330
5
100
AcDbSymbolTableRecord
100
AcDbLinetypeTableRecord
  2
ByLayer
 70
     0
  3

 72
    65
 73
     0
 40
0.0
  0
LTYPE
  5
16
330
5
100
AcDbSymbolTableRecord
100
AcDbLinetypeTableRecord
  2
Continuous
 70
     0
  3
Solid line
 72
    65
 73
     0
 40
0.0
  0
ENDTAB
  0
TABLE
  2
LAYER
  5
2
102
{ACAD_XDICTIONARY
360
494
102
}
330
0
100
AcDbSymbolTable
 70
    12
  0
LAYER
  5
10
102
{ACAD_XDICTIONARY
360
934EA
102
}
330
2
100
AcDbSymbolTableRecord
100
AcDbLayerTableRecord
  2
0
 70
     0
 62
     7
  6
Continuous
370
    -3
390
F
  0
LAYER
  5
48F
330
2
100
AcDbSymbolTableRecord
100
AcDbLayerTableRecord
  2
DEFPOINTS
 70
     0
 62
     7
  6
Continuous
290
     0
370
    -3
390
F
  0
LAYER
  5
17435
102
{ACAD_XDICTIONARY
360
934F2
102
}
330
2
100
AcDbSymbolTableRecord
100
AcDbLayerTableRecord
  2
15
 70
     0
 62
    96
  6
Continuous
370
    -3
390
F
  0
LAYER
  5
93625
102
{ACAD_XDICTIONARY
360
93626
102
}
330
2
100
AcDbSymbolTableRecord
100
AcDbLayerTableRecord
  2
電気錠制御盤　（株）アート
 70
     0
 62
    40
  6
Continuous
370
    -3
390
F
  0
ENDTAB
  0
TABLE
  2
STYLE
  5
3
330
0
100
AcDbSymbolTable
 70
     2
  0
STYLE
  5
11
330
3
100
AcDbSymbolTableRecord
100
AcDbTextStyleTableRecord
  2
Standard
 70
     0
 40
0.0
 41
1.0
 50
0.0
 71
     0
 42
2.5
  3
txt.shx
  4
extfont2.shx
  0
STYLE
  5
492
330
3
100
AcDbSymbolTableRecord
100
AcDbTextStyleTableRecord
  2
KANJI
 70
     0
 40
0.0
 41
1.0
 50
0.0
 71
     0
 42
0.2
  3
TXT
  4
BIGFONT
  0
ENDTAB
  0
TABLE
  2
VIEW
  5
6
330
0
100
AcDbSymbolTable
 70
     0
  0
ENDTAB
  0
TABLE
  2
UCS
  5
7
330
0
100
AcDbSymbolTable
 70
     0
  0
ENDTAB
  0
TABLE
  2
APPID
  5
9
330
0
100
AcDbSymbolTable
 70
     5
  0
APPID
  5
12
330
9
100
AcDbSymbolTableRecord
100
AcDbRegAppTableRecord
  2
ACAD
 70
     0
  0
APPID
  5
9E
330
9
100
AcDbSymbolTableRecord
100
AcDbRegAppTableRecord
  2
ACAD_PSEXT
 70
     0
  0
APPID
  5
2695E
330
9
100
AcDbSymbolTableRecord
100
AcDbRegAppTableRecord
  2
ACAD_EXEMPT_FROM_CAD_STANDARDS
 70
     0
  0
APPID
  5
934DC
330
9
100
AcDbSymbolTableRecord
100
AcDbRegAppTableRecord
  2
ACAD_NAV_VCDISPLAY
 70
     0
  0
APPID
  5
941B6
330
9
100
AcDbSymbolTableRecord
100
AcDbRegAppTableRecord
  2
ACAD_MLEADERVER
 70
     0
  0
ENDTAB
  0
TABLE
  2
DIMSTYLE
  5
A
330
0
100
AcDbSymbolTable
 70
     2
100
AcDbDimStyleTable
 71
     2
340
27
340
493
  0
DIMSTYLE
105
27
330
A
100
AcDbSymbolTableRecord
100
AcDbDimStyleTableRecord
  2
ISO-25
 70
     0
 41
2.5
 42
0.625
 43
3.75
 44
1.25
 73
     0
 74
     0
 77
     1
 78
     8
140
2.5
141
2.5
143
0.03937007874016
147
0.625
171
     3
172
     1
271
     2
272
     2
274
     3
278
    44
283
     0
284
     8
340
11
  0
DIMSTYLE
105
493
102
{ACAD_REACTORS
330
93C4A
330
93C49
330
93C17
102
}
330
A
100
AcDbSymbolTableRecord
100
AcDbDimStyleTableRecord
  2
Standard
 70
     0
340
11
  0
ENDTAB
  0
TABLE
  2
BLOCK_RECORD
  5
1
330
0
100
AcDbSymbolTable
 70
  1088
  0
BLOCK_RECORD
  5
1F
102
{ACAD_XDICTIONARY
360
2809F
102
}
330
1
100
AcDbSymbolTableRecord
100
AcDbBlockTableRecord
  2
*Model_Space
340
22
  0
BLOCK_RECORD
  5
D2
330
1
100
AcDbSymbolTableRecord
100
AcDbBlockTableRecord
  2
*Paper_Space
340
D3
  0
BLOCK_RECORD
  5
D6
330
1
100
AcDbSymbolTableRecord
100
AcDbBlockTableRecord
  2
*Paper_Space0
340
D7
  0
BLOCK_RECORD
  5
FE
330
1
100
AcDbSymbolTableRecord
100
AcDbBlockTableRecord
  2
_OPEN30
340
0
102
{BLKREFS
331
94155
331
94156
331
9415E
331
9415F
331
94167
331
94168
102
}
  0
BLOCK_RECORD
  5
93C4D
330
1
100
AcDbSymbolTableRecord
100
AcDbBlockTableRecord
  2
*D1085
340
0
  0
BLOCK_RECORD
  5
93C5A
330
1
100
AcDbSymbolTableRecord
100
AcDbBlockTableRecord
  2
*D1086
340
0
  0
BLOCK_RECORD
  5
93C67
330
1
100
AcDbSymbolTableRecord
100
AcDbBlockTableRecord
  2
*D1087
340
0
  0
ENDTAB
  0
ENDSEC
  0
SECTION
  2
BLOCKS
  0
BLOCK
  5
20
330
1F
100
AcDbEntity
  8
0
100
AcDbBlockBegin
  2
*Model_Space
 70
     0
 10
0.0
 20
0.0
 30
0.0
  3
*Model_Space
  1

  0
ENDBLK
  5
21
330
1F
100
AcDbEntity
  8
0
100
AcDbBlockEnd
  0
BLOCK
  5
D4
330
D2
100
AcDbEntity
 67
     1
  8
0
100
AcDbBlockBegin
  2
*Paper_Space
 70
     0
 10
0.0
 20
0.0
 30
0.0
  3
*Paper_Space
  1

  0
ENDBLK
  5
D5
330
D2
100
AcDbEntity
 67
     1
  8
0
100
AcDbBlockEnd
  0
BLOCK
  5
D8
330
D6
100
AcDbEntity
 67
     1
  8
0
100
AcDbBlockBegin
  2
*Paper_Space0
 70
     0
 10
0.0
 20
0.0
 30
0.0
  3
*Paper_Space0
  1

  0
ENDBLK
  5
D9
330
D6
100
AcDbEntity
 67
     1
  8
0
100
AcDbBlockEnd
  0
BLOCK
  5
FF
330
FE
100
AcDbEntity
  8
0
 62
     0
100
AcDbBlockBegin
  2
_OPEN30
 70
     2
 10
0.0
 20
0.0
 30
0.0
  3
_OPEN30
  1

  0
LINE
  5
100
330
FE
100
AcDbEntity
  8
0
  6
ByBlock
 62
     0
100
AcDbLine
 10
-1.0
 20
0.267949
 30
0.0
 11
0.0
 21
0.0
 31
0.0
  0
LINE
  5
101
330
FE
100
AcDbEntity
  8
0
  6
ByBlock
 62
     0
100
AcDbLine
 10
0.0
 20
0.0
 30
0.0
 11
-1.0
 21
-0.267949
 31
0.0
  0
LINE
  5
102
330
FE
100
AcDbEntity
  8
0
  6
ByBlock
 62
     0
100
AcDbLine
 10
0.0
 20
0.0
 30
0.0
 11
-1.0
 21
0.0
 31
0.0
  0
ENDBLK
  5
103
330
FE
100
AcDbEntity
  8
0
 62
     0
100
AcDbBlockEnd
  0
BLOCK
  5
93C4E
330
93C4D
100
AcDbEntity
  8
0
100
AcDbBlockBegin
  2
*D1085
 70
     1
 10
0.0
 20
0.0
 30
0.0
  3
*D1085
  1

  0
LINE
  5
94164
330
93C4D
100
AcDbEntity
  8
電気錠制御盤　（株）アート
  6
Continuous
 62
     0
370
    -2
100
AcDbLine
 10
73627.38264168673
 20
25451.47352658184
 30
0.0
 11
74247.56264168775
 21
25451.47352658184
 31
0.0
  0
LINE
  5
94165
330
93C4D
100
AcDbEntity
  8
電気錠制御盤　（株）アート
  6
Continuous
 62
     0
370
    -2
100
AcDbLine
 10
73627.38264168673
 20
16451.47352658183
 30
0.0
 11
74247.56264168775
 21
16451.47352658183
 31
0.0
  0
LINE
  5
94166
330
93C4D
100
AcDbEntity
  8
電気錠制御盤　（株）アート
  6
Continuous
 62
     0
370
    -2
100
AcDbLine
 10
74247.38264168776
 20
24951.47352658184
 30
0.0
 11
74247.38264168776
 21
16951.47352658183
 31
0.0
  0
INSERT
  5
94167
330
93C4D
100
AcDbEntity
  8
電気錠制御盤　（株）アート
  6
Continuous
 62
     0
370
    -2
100
AcDbBlockReference
  2
_OPEN30
 10
74247.38264168776
 20
25451.47352658184
 30
0.0
 41
500.0
 42
500.0
 43
500.0
 50
90.0
  0
INSERT
  5
94168
330
93C4D
100
AcDbEntity
  8
電気錠制御盤　（株）アート
  6
Continuous
 62
     0
370
    -2
100
AcDbBlockReference
  2
_OPEN30
 10
74247.38264168776
 20
16451.47352658183
 30
0.0
 41
500.0
 42
500.0
 43
500.0
 50
270.0
  0
MTEXT
  5
94169
330
93C4D
100
AcDbEntity
  8
電気錠制御盤　（株）アート
  6
Continuous
 62
     0
370
    13
100
AcDbMText
 10
73997.38264168774
 20
20951.47352658181
 30
0.0
 40
400.0
 41
0.0
 71
     5
 72
     1
  1
\A1;300
 11
0.0000000000000001
 21
1.0
 31
0.0
 73
     1
 44
1.0
1001
ACAD
1000
MTEXTBEGIN
1070
    73
1070
     1
1070
    44
1040
1.0
1070
    74
1070
     0
1000
MTEXTEND
  0
POINT
  5
9416A
330
93C4D
100
AcDbEntity
  8
DEFPOINTS
  6
Continuous
 62
     0
100
AcDbPoint
 10
73527.38264168674
 20
25451.47352658184
 30
0.0
  0
POINT
  5
9416B
330
93C4D
100
AcDbEntity
  8
DEFPOINTS
  6
Continuous
 62
     0
100
AcDbPoint
 10
73527.38264168674
 20
16451.47352658183
 30
0.0
  0
POINT
  5
9416C
330
93C4D
100
AcDbEntity
  8
DEFPOINTS
  6
Continuous
 62
     0
100
AcDbPoint
 10
74247.38264168776
 20
16451.47352658183
 30
0.0
  0
ENDBLK
  5
93C4F
330
93C4D
100
AcDbEntity
  8
0
100
AcDbBlockEnd
  0
BLOCK
  5
93C5B
330
93C5A
100
AcDbEntity
  8
0
100
AcDbBlockBegin
  2
*D1086
 70
     1
 10
0.0
 20
0.0
 30
0.0
  3
*D1086
  1

  0
LINE
  5
9415B
330
93C5A
100
AcDbEntity
  8
電気錠制御盤　（株）アート
  6
Continuous
 62
     0
370
    -2
100
AcDbLine
 10
66897.38264168671
 20
25731.47352658182
 30
0.0
 11
66897.38264168671
 21
27251.65352658183
 31
0.0
  0
LINE
  5
9415C
330
93C5A
100
AcDbEntity
  8
電気錠制御盤　（株）アート
  6
Continuous
 62
     0
370
    -2
100
AcDbLine
 10
73347.38264168671
 20
25731.47352658182
 30
0.0
 11
73347.38264168671
 21
27251.65352658183
 31
0.0
  0
LINE
  5
9415D
330
93C5A
100
AcDbEntity
  8
電気錠制御盤　（株）アート
  6
Continuous
 62
     0
370
    -2
100
AcDbLine
 10
67397.3826416867
 20
27251.47352658182
 30
0.0
 11
72847.3826416867
 21
27251.47352658182
 31
0.0
  0
INSERT
  5
9415E
330
93C5A
100
AcDbEntity
  8
電気錠制御盤　（株）アート
  6
Continuous
 62
     0
370
    -2
100
AcDbBlockReference
  2
_OPEN30
 10
66897.38264168671
 20
27251.47352658182
 30
0.0
 41
500.0
 42
500.0
 43
500.0
 50
180.0
  0
INSERT
  5
9415F
330
93C5A
100
AcDbEntity
  8
電気錠制御盤　（株）アート
  6
Continuous
 62
     0
370
    -2
100
AcDbBlockReference
  2
_OPEN30
 10
73347.38264168671
 20
27251.47352658182
 30
0.0
 41
500.0
 42
500.0
 43
500.0
  0
MTEXT
  5
94160
330
93C5A
100
AcDbEntity
  8
電気錠制御盤　（株）アート
  6
Continuous
 62
     0
370
    13
100
AcDbMText
 10
70122.3826416867
 20
27501.47352658182
 30
0.0
 40
400.0
 41
0.0
 71
     5
 72
     1
  1
\A1;215
 73
     1
 44
1.0
1001
ACAD
1000
MTEXTBEGIN
1070
    73
1070
     1
1070
    44
1040
1.0
1070
    74
1070
     0
1000
MTEXTEND
  0
POINT
  5
94161
330
93C5A
100
AcDbEntity
  8
DEFPOINTS
  6
Continuous
 62
     0
100
AcDbPoint
 10
66897.38264168671
 20
25631.47352658182
 30
0.0
  0
POINT
  5
94162
330
93C5A
100
AcDbEntity
  8
DEFPOINTS
  6
Continuous
 62
     0
100
AcDbPoint
 10
73347.38264168671
 20
25631.47352658182
 30
0.0
  0
POINT
  5
94163
330
93C5A
100
AcDbEntity
  8
DEFPOINTS
  6
Continuous
 62
     0
100
AcDbPoint
 10
73347.38264168671
 20
27251.47352658182
 30
0.0
  0
ENDBLK
  5
93C5C
330
93C5A
100
AcDbEntity
  8
0
100
AcDbBlockEnd
  0
BLOCK
  5
93C68
330
93C67
100
AcDbEntity
  8
0
100
AcDbBlockBegin
  2
*D1087
 70
     1
 10
0.0
 20
0.0
 30
0.0
  3
*D1087
  1

  0
LINE
  5
94152
330
93C67
100
AcDbEntity
  8
電気錠制御盤　（株）アート
  6
Continuous
 62
     0
370
    -2
100
AcDbLine
 10
76409.39768109761
 20
25701.7605956734
 30
0.0
 11
76409.39768109761
 21
27251.65352658183
 31
0.0
  0
LINE
  5
94153
330
93C67
100
AcDbEntity
  8
電気錠制御盤　（株）アート
  6
Continuous
 62
     0
370
    -2
100
AcDbLine
 10
78659.39768109761
 20
25731.7605956734
 30
0.0
 11
78659.39768109761
 21
27251.65352658183
 31
0.0
  0
LINE
  5
94154
330
93C67
100
AcDbEntity
  8
電気錠制御盤　（株）アート
  6
Continuous
 62
     0
370
    -2
100
AcDbLine
 10
76909.39768109761
 20
27251.47352658182
 30
0.0
 11
78159.39768109761
 21
27251.47352658182
 31
0.0
  0
INSERT
  5
94155
330
93C67
100
AcDbEntity
  8
電気錠制御盤　（株）アート
  6
Continuous
 62
     0
370
    -2
100
AcDbBlockReference
  2
_OPEN30
 10
76409.39768109761
 20
27251.47352658182
 30
0.0
 41
500.0
 42
500.0
 43
500.0
 50
180.0
  0
INSERT
  5
94156
330
93C67
100
AcDbEntity
  8
電気錠制御盤　（株）アート
  6
Continuous
 62
     0
370
    -2
100
AcDbBlockReference
  2
_OPEN30
 10
78659.39768109761
 20
27251.47352658182
 30
0.0
 41
500.0
 42
500.0
 43
500.0
  0
MTEXT
  5
94157
330
93C67
100
AcDbEntity
  8
電気錠制御盤　（株）アート
  6
Continuous
 62
     0
370
    13
100
AcDbMText
 10
77534.39768109761
 20
27501.47352658182
 30
0.0
 40
400.0
 41
0.0
 71
     5
 72
     1
  1
\A1;75
 73
     1
 44
1.0
1001
ACAD
1000
MTEXTBEGIN
1070
    73
1070
     1
1070
    44
1040
1.0
1070
    74
1070
     0
1000
MTEXTEND
  0
POINT
  5
94158
330
93C67
100
AcDbEntity
  8
DEFPOINTS
  6
Continuous
 62
     0
100
AcDbPoint
 10
76409.39768109761
 20
25601.7605956734
 30
0.0
  0
POINT
  5
94159
330
93C67
100
AcDbEntity
  8
DEFPOINTS
  6
Continuous
 62
     0
100
AcDbPoint
 10
78659.39768109761
 20
25631.7605956734
 30
0.0
  0
POINT
  5
9415A
330
93C67
100
AcDbEntity
  8
DEFPOINTS
  6
Continuous
 62
     0
100
AcDbPoint
 10
78659.39768109761
 20
27251.47352658182
 30
0.0
  0
ENDBLK
  5
93C69
330
93C67
100
AcDbEntity
  8
0
100
AcDbBlockEnd
  0
ENDSEC
  0
SECTION
  2
ENTITIES
  0
TEXT
  5
204E1
330
1F
100
AcDbEntity
  8
15
  6
Continuous
 62
    96
100
AcDbText
 10
195128.5368443434
 20
119143.3854444529
 30
0.0
 40
6.0
  1
 
 41
0.944444
  7
KANJI
100
AcDbText
  0
TEXT
  5
21B78
330
1F
100
AcDbEntity
  8
15
  6
Continuous
 62
    96
100
AcDbText
 10
195642.0141762918
 20
119438.2321996133
 30
0.0
 40
8.0
  1
　
 41
0.833333
  7
KANJI
100
AcDbText
  0
TEXT
  5
2302C
330
1F
100
AcDbEntity
  8
15
  6
Continuous
 62
    96
100
AcDbText
 10
195642.1527991574
 20
118839.7714041255
 30
0.0
 40
8.0
  1
　
 41
0.833333
  7
KANJI
100
AcDbText
  0
TEXT
  5
23606
330
1F
100
AcDbEntity
  8
15
  6
Continuous
 62
    96
100
AcDbText
 10
195647.9554909838
 20
118275.0278162399
 30
0.0
 40
8.0
  1
　
 41
0.833333
  7
KANJI
100
AcDbText
  0
TEXT
  5
238BE
330
1F
100
AcDbEntity
  8
15
  6
Continuous
 62
    96
100
AcDbText
 10
195635.9351027576
 20
117680.7651748285
 30
0.0
 40
8.0
  1
　
 41
0.833333
  7
KANJI
100
AcDbText
  0
TEXT
  5
23B8A
330
1F
100
AcDbEntity
  8
15
  6
Continuous
 62
    96
100
AcDbText
 10
195640.123264955
 20
117089.2054535374
 30
0.0
 40
8.0
  1
　
 41
0.833333
  7
KANJI
100
AcDbText
  0
TEXT
  5
23E38
330
1F
100
AcDbEntity
  8
15
  6
Continuous
 62
    96
100
AcDbText
 10
195618.5495470325
 20
116441.874277353
 30
0.0
 40
8.0
  1
　
 41
0.833333
  7
KANJI
100
AcDbText
  0
TEXT
  5
24C1B
330
1F
100
AcDbEntity
  8
15
  6
Continuous
 62
    96
100
AcDbText
 10
194757.6504090212
 20
117592.4628650947
 30
0.0
 40
8.0
  1
　
 41
0.833333
  7
KANJI
100
AcDbText
  0
TEXT
  5
3C2D1
330
1F
100
AcDbEntity
  8
15
  6
Continuous
 62
    96
100
AcDbText
 10
194653.8061081939
 20
117231.7756461938
 30
0.0
 40
8.0
  1
　
 41
0.833333
  7
KANJI
100
AcDbText
  0
TEXT
  5
3CE26
330
1F
100
AcDbEntity
  8
15
  6
Continuous
 62
    96
100
AcDbText
 10
195507.290521979
 20
117233.3608195863
 30
0.0
 40
8.0
  1
　
 41
0.833333
  7
KANJI
100
AcDbText
  0
TEXT
  5
3D2B6
330
1F
100
AcDbEntity
  8
15
  6
Continuous
 62
    96
100
AcDbText
 10
194771.8581430959
 20
116448.6542665245
 30
0.0
 40
8.0
  1
　
 41
0.833333
  7
KANJI
100
AcDbText
  0
TEXT
  5
58F6C
330
1F
100
AcDbEntity
  8
15
  6
Continuous
 62
    96
100
AcDbText
 10
185175.2869662032
 20
110562.631351318
 30
0.0
 40
160.0
  1
　
 41
0.833333
  7
KANJI
100
AcDbText
  0
LINE
  5
939D8
330
1F
100
AcDbEntity
  8
電気錠制御盤　（株）アート
  6
Continuous
 62
     7
370
    13
100
AcDbLine
 10
61364.52454518102
 20
30837.33628755021
 30
0.0
 11
61364.52454518102
 21
5757.3802627601
 31
0.0
  0
LINE
  5
939D9
330
1F
100
AcDbEntity
  8
電気錠制御盤　（株）アート
  6
Continuous
 62
     7
370
    13
100
AcDbLine
 10
83944.98221722408
 20
30837.33628755021
 30
0.0
 11
83944.98221722571
 21
5757.3802627601
 31
0.0
  0
LINE
  5
939DA
330
1F
100
AcDbEntity
  8
電気錠制御盤　（株）アート
 62
     7
370
    13
100
AcDbLine
 10
61364.52454518102
 20
5757.3802627601
 30
0.0
 11
83944.98221722571
 21
5757.3802627601
 31
0.0
  0
LINE
  5
939DB
330
1F
100
AcDbEntity
  8
電気錠制御盤　（株）アート
 62
     7
370
    13
100
AcDbLine
 10
61364.52454518102
 20
30837.3362875502
 30
0.0
 11
83944.98221722571
 21
30837.3362875502
 31
0.0
  0
LINE
  5
939DC
330
1F
100
AcDbEntity
  8
電気錠制御盤　（株）アート
  6
Continuous
 62
     7
370
    13
100
AcDbLine
 10
64120.22332274361
 20
30837.3362875502
 30
0.0
 11
64120.22332274361
 21
29000.20376917525
 31
0.0
  0
LINE
  5
939DD
330
1F
100
AcDbEntity
  8
電気錠制御盤　（株）アート
  6
Continuous
 62
     7
370
    13
100
AcDbLine
 10
61364.52454518102
 20
29000.20376917525
 30
0.0
 11
83944.98221722408
 21
29000.20376917525
 31
0.0
  0
TEXT
  5
939DE
330
1F
100
AcDbEntity
  8
電気錠制御盤　（株）アート
  6
Continuous
 62
     7
370
    13
100
AcDbText
 10
63446.413905984
 20
9236.729291767018
 30
0.0
 40
447.9946116360424
  1
入力電源
 41
0.944444
  7
KANJI
100
AcDbText
  0
LINE
  5
939DF
330
1F
100
AcDbEntity
  8
電気錠制御盤　（株）アート
  6
Continuous
 62
     7
370
    13
100
AcDbLine
 10
65930.12797765093
 20
13705.90033998712
 30
0.0
 11
65930.12797765093
 21
6541.689685544655
 31
0.0
  0
LINE
  5
939E0
330
1F
100
AcDbEntity
  8
電気錠制御盤　（株）アート
  6
Continuous
 62
     7
370
    13
100
AcDbLine
 10
82187.43981550717
 20
13705.90033998712
 30
0.0
 11
82187.43981550717
 21
6541.689685541602
 31
0.0
  0
LINE
  5
939E1
330
1F
100
AcDbEntity
  8
電気錠制御盤　（株）アート
  6
Continuous
 62
     7
370
    13
100
AcDbLine
 10
63122.06694689851
 20
13705.90033998712
 30
0.0
 11
63122.06694689868
 21
6541.689685545183
 31
0.0
  0
TEXT
  5
939E2
330
1F
100
AcDbEntity
  8
電気錠制御盤　（株）アート
  6
Continuous
 62
     7
370
    13
100
AcDbText
 10
66134.61356573351
 20
9236.729291767018
 30
0.0
 40
447.9946116360424
  1
ＡＣ１００Ｖ±１０％
 41
0.8872049999999999
  7
KANJI
100
AcDbText
  0
LINE
  5
939E3
330
1F
100
AcDbEntity
  8
電気錠制御盤　（株）アート
  6
Continuous
 62
     7
370
    13
100
AcDbLine
 10
63122.06694689851
 20
9798.149073926197
 30
0.0
 11
82187.43981550717
 21
9798.149073922617
 31
0.0
  0
LINE
  5
939E4
330
1F
100
AcDbEntity
  8
電気錠制御盤　（株）アート
  6
Continuous
 62
     7
370
    13
100
AcDbLine
 10
63122.06694689851
 20
9146.857196245258
 30
0.0
 11
82187.43981550717
 21
9146.857196245258
 31
0.0
  0
LINE
  5
939E5
330
1F
100
AcDbEntity
  8
電気錠制御盤　（株）アート
  6
Continuous
 62
     7
370
    13
100
AcDbLine
 10
63122.06694689865
 20
10449.44095160661
 30
0.0
 11
82187.43981550733
 21
10449.44095160303
 31
0.0
  0
TEXT
  5
939E6
330
1F
100
AcDbEntity
  8
電気錠制御盤　（株）アート
  6
Continuous
 62
     7
370
    13
100
AcDbText
 10
63446.413905984
 20
9908.240327509531
 30
0.0
 40
447.9946116360424
  1
重　量
 41
0.944444
  7
KANJI
100
AcDbText
  0
TEXT
  5
939E7
330
1F
100
AcDbEntity
  8
電気錠制御盤　（株）アート
  6
Continuous
 62
     7
370
    13
100
AcDbText
 10
66134.61356573351
 20
9908.240327509531
 30
0.0
 40
447.9946116360424
  1
約３ｋｇ
 41
0.8872049999999999
  7
KANJI
100
AcDbText
  0
LINE
  5
939E8
330
1F
100
AcDbEntity
  8
電気錠制御盤　（株）アート
  6
Continuous
 62
     7
370
    13
100
AcDbLine
 10
63122.06694689851
 20
11752.02470695639
 30
0.0
 11
82187.43981550717
 21
11752.02470695639
 31
0.0
  0
TEXT
  5
939E9
330
1F
100
AcDbEntity
  8
電気錠制御盤　（株）アート
  6
Continuous
 62
     7
370
    13
100
AcDbText
 10
63853.32725009958
 20
13164.05105467827
 30
0.0
 40
447.9946116360424
  1
項　目
 41
0.944444
  7
KANJI
100
AcDbText
  0
TEXT
  5
939EA
330
1F
100
AcDbEntity
  8
電気錠制御盤　（株）アート
  6
Continuous
 62
     7
370
    13
100
AcDbText
 10
72937.65695930549
 20
13164.05105467827
 30
0.0
 40
447.9946116360424
  1
内　容
 41
0.944444
  7
KANJI
100
AcDbText
  0
LINE
  5
939EB
330
1F
100
AcDbEntity
  8
電気錠制御盤　（株）アート
  6
Continuous
 62
     7
370
    13
100
AcDbLine
 10
63122.06694689851
 20
12403.31658463733
 30
0.0
 11
82187.43981550717
 21
12403.31658463375
 31
0.0
  0
LINE
  5
939EC
330
1F
100
AcDbEntity
  8
電気錠制御盤　（株）アート
  6
Continuous
 62
     7
370
    13
100
AcDbLine
 10
63122.06694689865
 20
13054.60846231775
 30
0.0
 11
82187.43981550733
 21
13054.60846231417
 31
0.0
  0
TEXT
  5
939ED
330
1F
100
AcDbEntity
  8
電気錠制御盤　（株）アート
  6
Continuous
 62
     7
370
    13
100
AcDbText
 10
63446.413905984
 20
12513.40783822067
 30
0.0
 40
447.9946116360424
  1
材　質
 41
0.944444
  7
KANJI
100
AcDbText
  0
TEXT
  5
939EE
330
1F
100
AcDbEntity
  8
電気錠制御盤　（株）アート
  6
Continuous
 62
     7
370
    13
100
AcDbText
 10
66134.61356573351
 20
12513.40783822067
 30
0.0
 40
447.9946116360424
  1
ＳＰＣＤＳ　ｔ１．０
 41
0.8872049999999999
  7
KANJI
100
AcDbText
  0
LINE
  5
939EF
330
1F
100
AcDbEntity
  8
電気錠制御盤　（株）アート
  6
Continuous
 62
     7
370
    13
100
AcDbLine
 10
63122.06694689851
 20
13705.90033998712
 30
0.0
 11
82187.43981550717
 21
13705.90033998712
 31
0.0
  0
TEXT
  5
939F0
330
1F
100
AcDbEntity
  8
電気錠制御盤　（株）アート
  6
Continuous
 62
     7
370
    13
100
AcDbText
 10
63446.41390598424
 20
11190.60492479774
 30
0.0
 40
447.9946116360424
  1
定格容量
 41
0.944444
  7
KANJI
100
AcDbText
  0
TEXT
  5
939F1
330
1F
100
AcDbEntity
  8
電気錠制御盤　（株）アート
  6
Continuous
 62
     7
370
    13
100
AcDbText
 10
66134.61356573377
 20
11190.60492479774
 30
0.0
 40
447.9946116360424
  1
本体：マンセル　２．５Ｙ ９/１　近似色　半艶
 41
0.8872049999999999
  7
KANJI
100
AcDbText
  0
TEXT
  5
939F2
330
1F
100
AcDbEntity
  8
電気錠制御盤　（株）アート
  6
Continuous
 62
     7
370
    13
100
AcDbText
 10
63446.41390598424
 20
11862.11596054025
 30
0.0
 40
447.9946116360424
  1
仕　上
 41
0.944444
  7
KANJI
100
AcDbText
  0
TEXT
  5
939F3
330
1F
100
AcDbEntity
  8
電気錠制御盤　（株）アート
  6
Continuous
 62
     7
370
    13
100
AcDbText
 10
66134.61356573377
 20
11862.11596054025
 30
0.0
 40
447.9946116360424
  1
メラミン樹脂焼付塗装
 41
0.8872049999999999
  7
KANJI
100
AcDbText
  0
LINE
  5
939F4
330
1F
100
AcDbEntity
  8
電気錠制御盤　（株）アート
  6
Continuous
 62
     7
370
    13
100
AcDbLine
 10
63122.06694689864
 20
7844.273440891438
 30
0.0
 11
82187.43981550717
 21
7844.273440891902
 31
0.0
  0
LINE
  5
939F5
330
1F
100
AcDbEntity
  8
電気錠制御盤　（株）アート
  6
Continuous
 62
     7
370
    13
100
AcDbLine
 10
63122.06694689865
 20
8495.565318575897
 30
0.0
 11
82187.43981550733
 21
8495.565318572316
 31
0.0
  0
TEXT
  5
939F6
330
1F
100
AcDbEntity
  8
電気錠制御盤　（株）アート
  6
Continuous
 62
     7
370
    13
100
AcDbText
 10
63446.413905984
 20
7954.364694478816
 30
0.0
 40
447.9946116360424
  1
外部入力
 41
0.8
  7
KANJI
100
AcDbText
  0
TEXT
  5
939F7
330
1F
100
AcDbEntity
  8
電気錠制御盤　（株）アート
  6
Continuous
 62
     7
370
    13
100
AcDbText
 10
66134.61356573351
 20
7954.364694478816
 30
0.0
 40
447.9946116360424
  1
電源搬送波重畳方式（Ｔ－３８３０Ｓ）
 41
0.8872049999999999
  7
KANJI
100
AcDbText
  0
TEXT
  5
939F8
330
1F
100
AcDbEntity
  8
電気錠制御盤　（株）アート
  6
Continuous
 62
     7
370
    13
100
AcDbText
 10
63446.413905984
 20
8585.43741409713
 30
0.0
 40
447.9946116360424
  1
消費電力
 41
0.944444
  7
KANJI
100
AcDbText
  0
TEXT
  5
939F9
330
1F
100
AcDbEntity
  8
電気錠制御盤　（株）アート
  6
Continuous
 62
     7
370
    13
100
AcDbText
 10
66134.61356573351
 20
8585.43741409713
 30
0.0
 40
447.9946116360424
  1
４０ＶＡ ｍａｘ
 41
0.8872049999999999
  7
KANJI
100
AcDbText
  0
TEXT
  5
939FA
330
1F
100
AcDbEntity
  8
電気錠制御盤　（株）アート
  6
Continuous
 62
     7
370
    13
100
AcDbText
 10
64703.83356183622
 20
29528.28904425084
 30
0.0
 40
741.8776780800004
  1
デジタルテンキー入力装置　Ｃ－３８３０ＮＸＢ
 41
0.8
  7
KANJI
100
AcDbText
  0
LINE
  5
939FB
330
1F
100
AcDbEntity
  8
電気錠制御盤　（株）アート
  6
Continuous
 62
     7
370
    13
100
AcDbLine
 10
61872.66209015009
 20
29466.92524876184
 30
0.0
 11
63612.08577777507
 21
29466.92524876184
 31
0.0
  0
LINE
  5
939FC
330
1F
100
AcDbEntity
  8
電気錠制御盤　（株）アート
  6
Continuous
 62
     7
370
    13
100
AcDbLine
 10
61872.66209015009
 20
30370.61480796555
 30
0.0
 11
61872.66209015009
 21
29466.92524876184
 31
0.0
  0
LINE
  5
939FD
330
1F
100
AcDbEntity
  8
電気錠制御盤　（株）アート
  6
Continuous
 62
     7
370
    13
100
AcDbLine
 10
63612.08577777507
 20
29466.92524876184
 30
0.0
 11
63612.08577777507
 21
30370.61480796555
 31
0.0
  0
LINE
  5
939FE
330
1F
100
AcDbEntity
  8
電気錠制御盤　（株）アート
  6
Continuous
 62
     7
370
    13
100
AcDbLine
 10
63612.08577777507
 20
30370.61480796555
 30
0.0
 11
61872.66209015009
 21
30370.61480796555
 31
0.0
  0
LINE
  5
939FF
330
1F
100
AcDbEntity
  8
電気錠制御盤　（株）アート
  6
Continuous
 62
     7
370
    13
100
AcDbLine
 10
61872.66209015009
 20
29466.92524876184
 30
0.0
 11
62742.37393396258
 21
29918.77002836369
 31
0.0
  0
TEXT
  5
93A00
330
1F
100
AcDbEntity
  8
電気錠制御盤　（株）アート
  6
Continuous
 62
     7
370
    13
100
AcDbText
 10
62219.70726729591
 20
29891.51499922134
 30
0.0
 40
400.0
  1
ＮＸＢ
 41
0.8
  7
KANJI
 72
     1
 11
62742.37393396258
 21
30291.51499922134
 31
0.0
100
AcDbText
 73
     3
  0
LINE
  5
93A01
330
1F
100
AcDbEntity
  8
電気錠制御盤　（株）アート
 62
     7
370
    13
100
AcDbLine
 10
62742.37393396258
 20
29918.77002836369
 30
0.0
 11
63612.08577777507
 21
29466.92524876184
 31
0.0
  0
LINE
  5
93A4B
330
1F
100
AcDbEntity
  8
電気錠制御盤　（株）アート
  6
Continuous
 62
     7
370
    13
100
AcDbLine
 10
63122.0669468986
 20
7192.981563214543
 30
0.0
 11
82187.4398155073
 21
7192.981563210963
 31
0.0
  0
TEXT
  5
93A4C
330
1F
100
AcDbEntity
  8
電気錠制御盤　（株）アート
  6
Continuous
 62
     7
370
    13
100
AcDbText
 10
66134.61356573362
 20
7303.072816797878
 30
0.0
 40
447.9946116360424
  1
テンキー入力　電源およびデータ伝送供給　８点
 41
0.8872049999999999
  7
KANJI
100
AcDbText
  0
LINE
  5
93A4D
330
1F
100
AcDbEntity
  8
電気錠制御盤　（株）アート
  6
Continuous
 62
     7
370
    13
100
AcDbLine
 10
63122.06694689868
 20
6541.689685545183
 30
0.0
 11
82187.43981550717
 21
6541.689685541602
 31
0.0
  0
TEXT
  5
93A4E
330
1F
100
AcDbEntity
  8
電気錠制御盤　（株）アート
  6
Continuous
 62
     7
370
    13
100
AcDbText
 10
63446.41390598415
 20
6651.780939128515
 30
0.0
 40
447.9946116360424
  1
外部出力
 41
0.8
  7
KANJI
100
AcDbText
  0
TEXT
  5
93A4F
330
1F
100
AcDbEntity
  8
電気錠制御盤　（株）アート
  6
Continuous
 62
     7
370
    13
100
AcDbText
 10
66134.61356573365
 20
6651.780939128515
 30
0.0
 40
447.9946116360424
  1
接点容量　DC24Ｖ　１Ａ以下　照合ＯＫ時　設定時間出力ＯＮ　８点
 41
0.8872049999999999
  7
KANJI
100
AcDbText
  0
LINE
  5
93A50
330
1F
100
AcDbEntity
  8
電気錠制御盤　（株）アート
  6
Continuous
 62
     7
370
    13
100
AcDbLine
 10
65930.12797765093
 20
11100.73282927598
 30
0.0
 11
82187.43981550717
 21
11100.73282927598
 31
0.0
  0
TEXT
  5
93A51
330
1F
100
AcDbEntity
  8
電気錠制御盤　（株）アート
  6
Continuous
 62
     7
370
    13
100
AcDbText
 10
66134.61356573377
 20
10539.31304711733
 30
0.0
 40
447.9946116360424
  1
文字：黒色（ＡＲＴ部）
 41
0.8872049999999999
  7
KANJI
100
AcDbText
  0
LINE
  5
93B8D
330
1F
100
AcDbEntity
  8
電気錠制御盤　（株）アート
  6
Continuous
 62
     7
370
    13
100
AcDbLine
 10
70152.38264168671
 20
17631.97352658182
 30
0.0
 11
70152.38264168671
 21
17519.10224658186
 31
0.0
  0
LINE
  5
93B8E
330
1F
100
AcDbEntity
  8
電気錠制御盤　（株）アート
  6
Continuous
 62
     7
370
    13
100
AcDbLine
 10
70140.38264168671
 20
17757.97352658182
 30
0.0
 11
70140.38264168671
 21
17631.97352658182
 31
0.0
  0
LINE
  5
93B8F
330
1F
100
AcDbEntity
  8
電気錠制御盤　（株）アート
  6
Continuous
 62
     7
370
    13
100
AcDbLine
 10
70140.38264168671
 20
17631.97352658182
 30
0.0
 11
70152.38264168671
 21
17631.97352658182
 31
0.0
  0
LINE
  5
93B90
330
1F
100
AcDbEntity
  8
電気錠制御盤　（株）アート
  6
Continuous
 62
     7
370
    13
100
AcDbLine
 10
70104.38264168671
 20
17757.97352658182
 30
0.0
 11
70140.38264168671
 21
17757.97352658182
 31
0.0
  0
LINE
  5
93B91
330
1F
100
AcDbEntity
  8
電気錠制御盤　（株）アート
  6
Continuous
 62
     7
370
    13
100
AcDbLine
 10
70104.38264168671
 20
17631.97352658182
 30
0.0
 11
70104.38264168671
 21
17757.97352658182
 31
0.0
  0
LINE
  5
93B92
330
1F
100
AcDbEntity
  8
電気錠制御盤　（株）アート
  6
Continuous
 62
     7
370
    13
100
AcDbLine
 10
70092.38267168659
 20
17631.97352658182
 30
0.0
 11
70104.38264168671
 21
17631.97352658182
 31
0.0
  0
LINE
  5
93B93
330
1F
100
AcDbEntity
  8
電気錠制御盤　（株）アート
  6
Continuous
 62
     7
370
    13
100
AcDbLine
 10
70092.3826416867
 20
17519.10224658186
 30
0.0
 11
70092.38267168659
 21
17631.97352658182
 31
0.0
  0
ARC
  5
93B94
330
1F
100
AcDbEntity
  8
電気錠制御盤　（株）アート
  6
Continuous
 62
     7
370
    13
100
AcDbCircle
 10
70122.3826416867
 20
17694.75812658189
 30
0.0
 40
39.00000000000002
100
AcDbArc
 50
242.5135740000211
 51
297.4864259999788
  0
CIRCLE
  5
93B95
330
1F
100
AcDbEntity
  8
電気錠制御盤　（株）アート
  6
Continuous
 62
     7
370
    13
100
AcDbCircle
 10
70122.3826416867
 20
17763.97352658182
 30
0.0
 40
270.0
  0
ARC
  5
93B96
330
1F
100
AcDbEntity
  8
電気錠制御盤　（株）アート
  6
Continuous
 62
     7
370
    13
100
AcDbCircle
 10
70122.3826416867
 20
17613.97352658182
 30
0.0
 40
75.0
100
AcDbArc
 50
103.8865399999329
 51
246.4218220000419
  0
ARC
  5
93B97
330
1F
100
AcDbEntity
  8
電気錠制御盤　（株）アート
  6
Continuous
 62
     7
370
    13
100
AcDbCircle
 10
70122.3826416867
 20
17688.97352658182
 30
0.0
 40
150.0
100
AcDbArc
 50
258.4630409999562
 51
281.5369590000439
  0
ARC
  5
93B98
330
1F
100
AcDbEntity
  8
電気錠制御盤　（株）アート
  6
Continuous
 62
     7
370
    13
100
AcDbCircle
 10
70122.3826416867
 20
17613.97352658182
 30
0.0
 40
75.0
100
AcDbArc
 50
293.578177999958
 51
76.11346000006711
  0
CIRCLE
  5
93B99
330
1F
100
AcDbEntity
  8
電気錠制御盤　（株）アート
  6
Continuous
 62
     7
370
    13
100
AcDbCircle
 10
70122.3826416867
 20
17763.97352658182
 30
0.0
 40
300.0
  0
CIRCLE
  5
93B9A
330
1F
100
AcDbEntity
  8
電気錠制御盤　（株）アート
  6
Continuous
 62
     7
370
    13
100
AcDbCircle
 10
70122.3826416867
 20
17688.97352658182
 30
0.0
 40
172.5
  0
LINE
  5
93B9B
330
1F
100
AcDbEntity
  8
電気錠制御盤　（株）アート
  6
Continuous
 62
     7
370
    13
100
AcDbLine
 10
70210.1326416867
 20
17921.47352658182
 30
0.0
 11
70210.1326416867
 21
17932.72352658182
 31
0.0
  0
LINE
  5
93B9C
330
1F
100
AcDbEntity
  8
電気錠制御盤　（株）アート
  6
Continuous
 62
     7
370
    13
100
AcDbLine
 10
70223.63264168671
 20
17921.47352658182
 30
0.0
 11
70223.63264168671
 21
17950.72352658182
 31
0.0
  0
LINE
  5
93B9D
330
1F
100
AcDbEntity
  8
電気錠制御盤　（株）アート
  6
Continuous
 62
     7
370
    13
100
AcDbLine
 10
70212.38264168671
 20
17921.47352658182
 30
0.0
 11
70223.63264168671
 21
17921.47352658182
 31
0.0
  0
LINE
  5
93B9E
330
1F
100
AcDbEntity
  8
電気錠制御盤　（株）アート
  6
Continuous
 62
     7
370
    13
100
AcDbLine
 10
70212.38264168671
 20
17966.47352658182
 30
0.0
 11
70212.38264168671
 21
17921.47352658182
 31
0.0
  0
LINE
  5
93B9F
330
1F
100
AcDbEntity
  8
電気錠制御盤　（株）アート
  6
Continuous
 62
     7
370
    13
100
AcDbLine
 10
70225.8826416867
 20
17966.47352658182
 30
0.0
 11
70212.38264168671
 21
17966.47352658182
 31
0.0
  0
LINE
  5
93BA0
330
1F
100
AcDbEntity
  8
電気錠制御盤　（株）アート
  6
Continuous
 62
     7
370
    13
100
AcDbLine
 10
70225.8826416867
 20
17966.47352658182
 30
0.0
 11
70246.13264168671
 21
17937.22352658182
 31
0.0
  0
LINE
  5
93BA1
330
1F
100
AcDbEntity
  8
電気錠制御盤　（株）アート
  6
Continuous
 62
     7
370
    13
100
AcDbLine
 10
70246.13264168671
 20
17966.47352658182
 30
0.0
 11
70246.13264168671
 21
17937.22352658182
 31
0.0
  0
LINE
  5
93BA2
330
1F
100
AcDbEntity
  8
電気錠制御盤　（株）アート
  6
Continuous
 62
     7
370
    13
100
AcDbLine
 10
70257.38264168671
 20
17966.47352658182
 30
0.0
 11
70246.13264168671
 21
17966.47352658182
 31
0.0
  0
LINE
  5
93BA3
330
1F
100
AcDbEntity
  8
電気錠制御盤　（株）アート
  6
Continuous
 62
     7
370
    13
100
AcDbLine
 10
70257.38264168671
 20
17921.47352658182
 30
0.0
 11
70243.88264168671
 21
17921.47352658182
 31
0.0
  0
LINE
  5
93BA4
330
1F
100
AcDbEntity
  8
電気錠制御盤　（株）アート
  6
Continuous
 62
     7
370
    13
100
AcDbLine
 10
70169.63264168671
 20
17948.47352658182
 30
0.0
 11
70169.63264168671
 21
17952.97352658182
 31
0.0
  0
LINE
  5
93BA5
330
1F
100
AcDbEntity
  8
電気錠制御盤　（株）アート
  6
Continuous
 62
     7
370
    13
100
AcDbLine
 10
70158.38264168671
 20
17948.47352658182
 30
0.0
 11
70169.63264168671
 21
17948.47352658182
 31
0.0
  0
LINE
  5
93BA6
330
1F
100
AcDbEntity
  8
電気錠制御盤　（株）アート
  6
Continuous
 62
     7
370
    13
100
AcDbLine
 10
70158.38264168671
 20
17950.72352658182
 30
0.0
 11
70158.38264168671
 21
17948.47352658182
 31
0.0
  0
LINE
  5
93BA7
330
1F
100
AcDbEntity
  8
電気錠制御盤　（株）アート
  6
Continuous
 62
     7
370
    13
100
AcDbLine
 10
70140.38264168671
 20
17955.22352658182
 30
0.0
 11
70153.88264168671
 21
17955.22352658182
 31
0.0
  0
LINE
  5
93BA8
330
1F
100
AcDbEntity
  8
電気錠制御盤　（株）アート
  6
Continuous
 62
     7
370
    13
100
AcDbLine
 10
70135.88264168671
 20
17937.22352658182
 30
0.0
 11
70135.88264168671
 21
17950.72352658182
 31
0.0
  0
LINE
  5
93BA9
330
1F
100
AcDbEntity
  8
電気錠制御盤　（株）アート
  6
Continuous
 62
     7
370
    13
100
AcDbLine
 10
70153.88264168671
 20
17932.72352658182
 30
0.0
 11
70140.38264168671
 21
17932.72352658182
 31
0.0
  0
LINE
  5
93BAA
330
1F
100
AcDbEntity
  8
電気錠制御盤　（株）アート
  6
Continuous
 62
     7
370
    13
100
AcDbLine
 10
70147.13264168671
 20
17937.22352658182
 30
0.0
 11
70158.38264168671
 21
17937.22352658182
 31
0.0
  0
LINE
  5
93BAB
330
1F
100
AcDbEntity
  8
電気錠制御盤　（株）アート
  6
Continuous
 62
     7
370
    13
100
AcDbLine
 10
70147.13264168671
 20
17946.22352658182
 30
0.0
 11
70147.13264168671
 21
17937.22352658182
 31
0.0
  0
LINE
  5
93BAC
330
1F
100
AcDbEntity
  8
電気錠制御盤　（株）アート
  6
Continuous
 62
     7
370
    13
100
AcDbLine
 10
70169.63264168671
 20
17946.22352658182
 30
0.0
 11
70147.13264168671
 21
17946.22352658182
 31
0.0
  0
LINE
  5
93BAD
330
1F
100
AcDbEntity
  8
電気錠制御盤　（株）アート
  6
Continuous
 62
     7
370
    13
100
AcDbLine
 10
70169.63264168671
 20
17934.97352658182
 30
0.0
 11
70169.63264168671
 21
17946.22352658182
 31
0.0
  0
LINE
  5
93BAE
330
1F
100
AcDbEntity
  8
電気錠制御盤　（株）アート
  6
Continuous
 62
     7
370
    13
100
AcDbLine
 10
70171.8826416867
 20
17921.47352658182
 30
0.0
 11
70210.1326416867
 21
17921.47352658182
 31
0.0
  0
LINE
  5
93BAF
330
1F
100
AcDbEntity
  8
電気錠制御盤　（株）アート
  6
Continuous
 62
     7
370
    13
100
AcDbLine
 10
70171.8826416867
 20
17966.47352658182
 30
0.0
 11
70171.8826416867
 21
17921.47352658182
 31
0.0
  0
LINE
  5
93BB0
330
1F
100
AcDbEntity
  8
電気錠制御盤　（株）アート
  6
Continuous
 62
     7
370
    13
100
AcDbLine
 10
70210.1326416867
 20
17966.47352658182
 30
0.0
 11
70171.8826416867
 21
17966.47352658182
 31
0.0
  0
LINE
  5
93BB1
330
1F
100
AcDbEntity
  8
電気錠制御盤　（株）アート
  6
Continuous
 62
     7
370
    13
100
AcDbLine
 10
70257.38264168671
 20
17966.47352658182
 30
0.0
 11
70257.38264168671
 21
17921.47352658182
 31
0.0
  0
LINE
  5
93BB2
330
1F
100
AcDbEntity
  8
電気錠制御盤　（株）アート
  6
Continuous
 62
     7
370
    13
100
AcDbLine
 10
70090.88264168671
 20
17946.22352658182
 30
0.0
 11
70106.63264168671
 21
17966.47352658182
 31
0.0
  0
LINE
  5
93BB3
330
1F
100
AcDbEntity
  8
電気錠制御盤　（株）アート
  6
Continuous
 62
     7
370
    13
100
AcDbLine
 10
70111.1326416867
 20
17921.47352658182
 30
0.0
 11
70122.3826416867
 21
17921.47352658182
 31
0.0
  0
LINE
  5
93BB4
330
1F
100
AcDbEntity
  8
電気錠制御盤　（株）アート
  6
Continuous
 62
     7
370
    13
100
AcDbLine
 10
70106.63264168671
 20
17966.47352658182
 30
0.0
 11
70093.13264168671
 21
17966.47352658182
 31
0.0
  0
LINE
  5
93BB5
330
1F
100
AcDbEntity
  8
電気錠制御盤　（株）アート
  6
Continuous
 62
     7
370
    13
100
AcDbLine
 10
70093.13264168671
 20
17966.47352658182
 30
0.0
 11
70077.38264168671
 21
17946.22352658182
 31
0.0
  0
LINE
  5
93BB6
330
1F
100
AcDbEntity
  8
電気錠制御盤　（株）アート
  6
Continuous
 62
     7
370
    13
100
AcDbLine
 10
70122.3826416867
 20
17966.47352658182
 30
0.0
 11
70111.1326416867
 21
17966.47352658182
 31
0.0
  0
LINE
  5
93BB7
330
1F
100
AcDbEntity
  8
電気錠制御盤　（株）アート
  6
Continuous
 62
     7
370
    13
100
AcDbLine
 10
70095.3826416867
 20
17921.47352658182
 30
0.0
 11
70108.88264168671
 21
17921.47352658182
 31
0.0
  0
LINE
  5
93BB8
330
1F
100
AcDbEntity
  8
電気錠制御盤　（株）アート
  6
Continuous
 62
     7
370
    13
100
AcDbLine
 10
70108.88264168671
 20
17921.47352658182
 30
0.0
 11
70090.88264168671
 21
17946.22352658182
 31
0.0
  0
LINE
  5
93BB9
330
1F
100
AcDbEntity
  8
電気錠制御盤　（株）アート
  6
Continuous
 62
     7
370
    13
100
AcDbLine
 10
70122.3826416867
 20
17921.47352658182
 30
0.0
 11
70122.3826416867
 21
17966.47352658182
 31
0.0
  0
LINE
  5
93BBA
330
1F
100
AcDbEntity
  8
電気錠制御盤　（株）アート
  6
Continuous
 62
     7
370
    13
100
AcDbLine
 10
70077.38264168671
 20
17966.47352658182
 30
0.0
 11
70066.13264168671
 21
17966.47352658182
 31
0.0
  0
LINE
  5
93BBB
330
1F
100
AcDbEntity
  8
電気錠制御盤　（株）アート
  6
Continuous
 62
     7
370
    13
100
AcDbLine
 10
70077.38264168671
 20
17946.22352658182
 30
0.0
 11
70095.3826416867
 21
17921.47352658182
 31
0.0
  0
LINE
  5
93BBC
330
1F
100
AcDbEntity
  8
電気錠制御盤　（株）アート
  6
Continuous
 62
     7
370
    13
100
AcDbLine
 10
70050.65264168661
 20
17928.22352658182
 30
0.0
 11
70053.08264168678
 21
17921.47352658182
 31
0.0
  0
LINE
  5
93BBD
330
1F
100
AcDbEntity
  8
電気錠制御盤　（株）アート
  6
Continuous
 62
     7
370
    13
100
AcDbLine
 10
70183.1326416867
 20
17932.72352658182
 30
0.0
 11
70183.1326416867
 21
17939.47352658182
 31
0.0
  0
LINE
  5
93BBE
330
1F
100
AcDbEntity
  8
電気錠制御盤　（株）アート
  6
Continuous
 62
     7
370
    13
100
AcDbLine
 10
70210.1326416867
 20
17932.72352658182
 30
0.0
 11
70183.1326416867
 21
17932.72352658182
 31
0.0
  0
LINE
  5
93BBF
330
1F
100
AcDbEntity
  8
電気錠制御盤　（株）アート
  6
Continuous
 62
     7
370
    13
100
AcDbLine
 10
70041.38264168671
 20
17953.97354658186
 30
0.0
 11
70046.76464168669
 21
17939.02352658175
 31
0.0
  0
LINE
  5
93BC0
330
1F
100
AcDbEntity
  8
電気錠制御盤　（株）アート
  6
Continuous
 62
     7
370
    13
100
AcDbLine
 10
70064.33264168678
 20
17921.47352658182
 30
0.0
 11
70053.08264168678
 21
17921.47352658182
 31
0.0
  0
LINE
  5
93BC1
330
1F
100
AcDbEntity
  8
電気錠制御盤　（株）アート
  6
Continuous
 62
     7
370
    13
100
AcDbLine
 10
70041.38264168671
 20
17953.97354658186
 30
0.0
 11
70036.00064168672
 21
17939.02352658175
 31
0.0
  0
LINE
  5
93BC2
330
1F
100
AcDbEntity
  8
電気錠制御盤　（株）アート
  6
Continuous
 62
     7
370
    13
100
AcDbLine
 10
70077.38264168671
 20
17921.47352658182
 30
0.0
 11
70077.38264168671
 21
17966.47352658182
 31
0.0
  0
LINE
  5
93BC3
330
1F
100
AcDbEntity
  8
電気錠制御盤　（株）アート
  6
Continuous
 62
     7
370
    13
100
AcDbLine
 10
70018.43264168699
 20
17921.47352658182
 30
0.0
 11
70029.68264168699
 21
17921.47352658182
 31
0.0
  0
LINE
  5
93BC4
330
1F
100
AcDbEntity
  8
電気錠制御盤　（株）アート
  6
Continuous
 62
     7
370
    13
100
AcDbLine
 10
70034.6326416867
 20
17966.47352658182
 30
0.0
 11
70048.13264168671
 21
17966.47352658182
 31
0.0
  0
LINE
  5
93BC5
330
1F
100
AcDbEntity
  8
電気錠制御盤　（株）アート
  6
Continuous
 62
     7
370
    13
100
AcDbLine
 10
70048.13264168671
 20
17966.47352658182
 30
0.0
 11
70064.33264168678
 21
17921.47352658182
 31
0.0
  0
LINE
  5
93BC6
330
1F
100
AcDbEntity
  8
電気錠制御盤　（株）アート
  6
Continuous
 62
     7
370
    13
100
AcDbLine
 10
70034.6326416867
 20
17966.47352658182
 30
0.0
 11
70018.43264168699
 21
17921.47352658182
 31
0.0
  0
LINE
  5
93BC7
330
1F
100
AcDbEntity
  8
電気錠制御盤　（株）アート
  6
Continuous
 62
     7
370
    13
100
AcDbLine
 10
70111.1326416867
 20
17966.47352658182
 30
0.0
 11
70111.1326416867
 21
17921.47352658182
 31
0.0
  0
LINE
  5
93BC8
330
1F
100
AcDbEntity
  8
電気錠制御盤　（株）アート
  6
Continuous
 62
     7
370
    13
100
AcDbLine
 10
70223.63264168671
 20
17950.72352658182
 30
0.0
 11
70243.88264168671
 21
17921.47352658182
 31
0.0
  0
LINE
  5
93BC9
330
1F
100
AcDbEntity
  8
電気錠制御盤　（株）アート
  6
Continuous
 62
     7
370
    13
100
AcDbLine
 10
70036.00064168672
 20
17939.02352658175
 30
0.0
 11
70046.76464168669
 21
17939.02352658175
 31
0.0
  0
LINE
  5
93BCA
330
1F
100
AcDbEntity
  8
電気錠制御盤　（株）アート
  6
Continuous
 62
     7
370
    13
100
AcDbLine
 10
70032.11264168681
 20
17928.22352658182
 30
0.0
 11
70029.68264168699
 21
17921.47352658182
 31
0.0
  0
LINE
  5
93BCB
330
1F
100
AcDbEntity
  8
電気錠制御盤　（株）アート
  6
Continuous
 62
     7
370
    13
100
AcDbLine
 10
70050.65264168661
 20
17928.22352658182
 30
0.0
 11
70032.11264168681
 21
17928.22352658182
 31
0.0
  0
LINE
  5
93BCC
330
1F
100
AcDbEntity
  8
電気錠制御盤　（株）アート
  6
Continuous
 62
     7
370
    13
100
AcDbLine
 10
70156.13264168671
 20
17966.47352658182
 30
0.0
 11
70138.1326416867
 21
17966.47352658182
 31
0.0
  0
LINE
  5
93BCD
330
1F
100
AcDbEntity
  8
電気錠制御盤　（株）アート
  6
Continuous
 62
     7
370
    13
100
AcDbLine
 10
70030.13264168671
 20
17956.57352658186
 30
0.0
 11
70030.13264168671
 21
17966.47352658182
 31
0.0
  0
LINE
  5
93BCE
330
1F
100
AcDbEntity
  8
電気錠制御盤　（株）アート
  6
Continuous
 62
     7
370
    13
100
AcDbLine
 10
70014.38264168671
 20
17956.57352658186
 30
0.0
 11
70030.13264168671
 21
17956.57352658186
 31
0.0
  0
LINE
  5
93BCF
330
1F
100
AcDbEntity
  8
電気錠制御盤　（株）アート
  6
Continuous
 62
     7
370
    13
100
AcDbLine
 10
70014.38264168671
 20
17921.47352658182
 30
0.0
 11
70014.38264168671
 21
17956.57352658186
 31
0.0
  0
LINE
  5
93BD0
330
1F
100
AcDbEntity
  8
電気錠制御盤　（株）アート
  6
Continuous
 62
     7
370
    13
100
AcDbLine
 10
70003.13264168671
 20
17921.47352658182
 30
0.0
 11
70014.38264168671
 21
17921.47352658182
 31
0.0
  0
LINE
  5
93BD1
330
1F
100
AcDbEntity
  8
電気錠制御盤　（株）アート
  6
Continuous
 62
     7
370
    13
100
AcDbLine
 10
70003.13264168671
 20
17956.57352658186
 30
0.0
 11
70003.13264168671
 21
17921.47352658182
 31
0.0
  0
LINE
  5
93BD2
330
1F
100
AcDbEntity
  8
電気錠制御盤　（株）アート
  6
Continuous
 62
     7
370
    13
100
AcDbLine
 10
69987.38264168671
 20
17956.57352658186
 30
0.0
 11
70003.13264168671
 21
17956.57352658186
 31
0.0
  0
LINE
  5
93BD3
330
1F
100
AcDbEntity
  8
電気錠制御盤　（株）アート
  6
Continuous
 62
     7
370
    13
100
AcDbLine
 10
69987.38264168671
 20
17966.47352658182
 30
0.0
 11
69987.38264168671
 21
17956.57352658186
 31
0.0
  0
LINE
  5
93BD4
330
1F
100
AcDbEntity
  8
電気錠制御盤　（株）アート
  6
Continuous
 62
     7
370
    13
100
AcDbLine
 10
70030.13264168671
 20
17966.47352658182
 30
0.0
 11
69987.38264168671
 21
17966.47352658182
 31
0.0
  0
LINE
  5
93BD5
330
1F
100
AcDbEntity
  8
電気錠制御盤　（株）アート
  6
Continuous
 62
     7
370
    13
100
AcDbLine
 10
70066.13264168671
 20
17921.47352658182
 30
0.0
 11
70077.38264168671
 21
17921.47352658182
 31
0.0
  0
LINE
  5
93BD6
330
1F
100
AcDbEntity
  8
電気錠制御盤　（株）アート
  6
Continuous
 62
     7
370
    13
100
AcDbLine
 10
70066.13264168671
 20
17966.47352658182
 30
0.0
 11
70066.13264168671
 21
17921.47352658182
 31
0.0
  0
LINE
  5
93BD7
330
1F
100
AcDbEntity
  8
電気錠制御盤　（株）アート
  6
Continuous
 62
     7
370
    13
100
AcDbLine
 10
70124.63264168671
 20
17952.97352658182
 30
0.0
 11
70124.63264168671
 21
17934.97352658182
 31
0.0
  0
LINE
  5
93BD8
330
1F
100
AcDbEntity
  8
電気錠制御盤　（株）アート
  6
Continuous
 62
     7
370
    13
100
AcDbLine
 10
70138.1326416867
 20
17921.47352658182
 30
0.0
 11
70156.13264168671
 21
17921.47352658182
 31
0.0
  0
LINE
  5
93BD9
330
1F
100
AcDbEntity
  8
電気錠制御盤　（株）アート
  6
Continuous
 62
     7
370
    13
100
AcDbLine
 10
70183.1326416867
 20
17939.47352658182
 30
0.0
 11
70207.88264168671
 21
17939.47352658182
 31
0.0
  0
LINE
  5
93BDA
330
1F
100
AcDbEntity
  8
電気錠制御盤　（株）アート
  6
Continuous
 62
     7
370
    13
100
AcDbLine
 10
70207.88264168671
 20
17939.47352658182
 30
0.0
 11
70207.88264168671
 21
17949.59852658182
 31
0.0
  0
LINE
  5
93BDB
330
1F
100
AcDbEntity
  8
電気錠制御盤　（株）アート
  6
Continuous
 62
     7
370
    13
100
AcDbLine
 10
70207.88264168671
 20
17949.59852658182
 30
0.0
 11
70183.1326416867
 21
17949.59852658182
 31
0.0
  0
LINE
  5
93BDC
330
1F
100
AcDbEntity
  8
電気錠制御盤　（株）アート
  6
Continuous
 62
     7
370
    13
100
AcDbLine
 10
70183.1326416867
 20
17949.59852658182
 30
0.0
 11
70183.1326416867
 21
17956.57352658186
 31
0.0
  0
LINE
  5
93BDD
330
1F
100
AcDbEntity
  8
電気錠制御盤　（株）アート
  6
Continuous
 62
     7
370
    13
100
AcDbLine
 10
70183.1326416867
 20
17956.57352658186
 30
0.0
 11
70210.1326416867
 21
17956.57352658186
 31
0.0
  0
LINE
  5
93BDE
330
1F
100
AcDbEntity
  8
電気錠制御盤　（株）アート
  6
Continuous
 62
     7
370
    13
100
AcDbLine
 10
70210.1326416867
 20
17956.57352658186
 30
0.0
 11
70210.1326416867
 21
17966.47352658182
 31
0.0
  0
ARC
  5
93BDF
330
1F
100
AcDbEntity
  8
電気錠制御盤　（株）アート
  6
Continuous
 62
     7
370
    13
100
AcDbCircle
 10
70156.13264168671
 20
17934.97352658182
 30
0.0
 40
13.49999999999997
100
AcDbArc
 50
270.0
 51
0.0
  0
ARC
  5
93BE0
330
1F
100
AcDbEntity
  8
電気錠制御盤　（株）アート
  6
Continuous
 62
     7
370
    13
100
AcDbCircle
 10
70138.1326416867
 20
17934.97352658182
 30
0.0
 40
13.49999999999997
100
AcDbArc
 50
180.0
 51
270.0
  0
ARC
  5
93BE1
330
1F
100
AcDbEntity
  8
電気錠制御盤　（株）アート
  6
Continuous
 62
     7
370
    13
100
AcDbCircle
 10
70153.88264168671
 20
17950.72352658182
 30
0.0
 40
4.499999999999957
100
AcDbArc
 50
0.0
 51
90.0
  0
ARC
  5
93BE2
330
1F
100
AcDbEntity
  8
電気錠制御盤　（株）アート
  6
Continuous
 62
     7
370
    13
100
AcDbCircle
 10
70156.13264168671
 20
17952.97352658182
 30
0.0
 40
13.49999999999997
100
AcDbArc
 50
0.0
 51
90.0
  0
ARC
  5
93BE3
330
1F
100
AcDbEntity
  8
電気錠制御盤　（株）アート
  6
Continuous
 62
     7
370
    13
100
AcDbCircle
 10
70140.38264168671
 20
17937.22352658182
 30
0.0
 40
4.499999999999957
100
AcDbArc
 50
180.0
 51
270.0
  0
ARC
  5
93BE4
330
1F
100
AcDbEntity
  8
電気錠制御盤　（株）アート
  6
Continuous
 62
     7
370
    13
100
AcDbCircle
 10
70138.1326416867
 20
17952.97352658182
 30
0.0
 40
13.49999999999997
100
AcDbArc
 50
90.0
 51
180.0
  0
ARC
  5
93BE5
330
1F
100
AcDbEntity
  8
電気錠制御盤　（株）アート
  6
Continuous
 62
     7
370
    13
100
AcDbCircle
 10
70153.88264168671
 20
17937.22352658182
 30
0.0
 40
4.499999999999957
100
AcDbArc
 50
270.0
 51
0.0
  0
ARC
  5
93BE6
330
1F
100
AcDbEntity
  8
電気錠制御盤　（株）アート
  6
Continuous
 62
     7
370
    13
100
AcDbCircle
 10
70140.38264168671
 20
17950.72352658182
 30
0.0
 40
4.499999999999957
100
AcDbArc
 50
90.0
 51
180.0
  0
LINE
  5
93BE7
330
1F
100
AcDbEntity
  8
電気錠制御盤　（株）アート
  6
Continuous
 62
     7
370
    13
100
AcDbLine
 10
66897.38264168671
 20
25451.47352658182
 30
0.0
 11
66897.38264168671
 21
16451.47352658182
 31
0.0
  0
LINE
  5
93BE8
330
1F
100
AcDbEntity
  8
電気錠制御盤　（株）アート
  6
Continuous
 62
     7
370
    13
100
AcDbLine
 10
73347.38264168671
 20
25451.47352658182
 30
0.0
 11
73347.38264168671
 21
16451.47352658182
 31
0.0
  0
LINE
  5
93BE9
330
1F
100
AcDbEntity
  8
電気錠制御盤　（株）アート
  6
Continuous
 62
     7
370
    13
100
AcDbLine
 10
66897.38264168671
 20
25451.47352658182
 30
0.0
 11
73347.38264168671
 21
25451.47352658182
 31
0.0
  0
LINE
  5
93BEA
330
1F
100
AcDbEntity
  8
電気錠制御盤　（株）アート
  6
Continuous
 62
     7
370
    13
100
AcDbLine
 10
66897.38264168671
 20
16451.47352658182
 30
0.0
 11
73347.38264168671
 21
16451.47352658182
 31
0.0
  0
LINE
  5
93BEB
330
1F
100
AcDbEntity
  8
電気錠制御盤　（株）アート
  6
Continuous
 62
     7
370
    13
100
AcDbLine
 10
70497.38264168671
 20
25451.47352658182
 30
0.0
 11
71427.38264168671
 21
25451.47352658182
 31
0.0
  0
LINE
  5
93BEC
330
1F
100
AcDbEntity
  8
電気錠制御盤　（株）アート
  6
Continuous
 62
     7
370
    13
100
AcDbLine
 10
71427.38264168671
 20
25451.47352658182
 30
0.0
 11
71427.38264168671
 21
25496.47352658182
 31
0.0
  0
ARC
  5
93BED
330
1F
100
AcDbEntity
  8
電気錠制御盤　（株）アート
  6
Continuous
 62
     7
370
    13
100
AcDbCircle
 10
71322.38264168671
 20
25496.47352658182
 30
0.0
 40
105.0
100
AcDbArc
 50
0.0
 51
90.0
  0
LINE
  5
93BEE
330
1F
100
AcDbEntity
  8
電気錠制御盤　（株）アート
  6
Continuous
 62
     7
370
    13
100
AcDbLine
 10
71322.38264168671
 20
25601.47352658182
 30
0.0
 11
70602.3826416867
 21
25601.47352658182
 31
0.0
  0
LINE
  5
93BEF
330
1F
100
AcDbEntity
  8
電気錠制御盤　（株）アート
  6
Continuous
 62
     7
370
    13
100
AcDbLine
 10
70497.38264168671
 20
25496.47352658182
 30
0.0
 11
70497.38264168671
 21
25451.47352658182
 31
0.0
  0
ARC
  5
93BF0
330
1F
100
AcDbEntity
  8
電気錠制御盤　（株）アート
  6
Continuous
 62
     7
370
    13
100
AcDbCircle
 10
70602.3826416867
 20
25496.47352658182
 30
0.0
 40
105.0
100
AcDbArc
 50
90.0
 51
180.0
  0
ARC
  5
93BF1
330
1F
100
AcDbEntity
  8
電気錠制御盤　（株）アート
  6
Continuous
 62
     7
370
    13
100
AcDbCircle
 10
71262.3826416867
 20
25616.47352658182
 30
0.0
 40
15.0
100
AcDbArc
 50
0.0
 51
90.0
  0
LINE
  5
93BF2
330
1F
100
AcDbEntity
  8
電気錠制御盤　（株）アート
  6
Continuous
 62
     7
370
    13
100
AcDbLine
 10
71277.3826416867
 20
25616.47352658182
 30
0.0
 11
71277.3826416867
 21
25601.47352658182
 31
0.0
  0
ARC
  5
93BF3
330
1F
100
AcDbEntity
  8
電気錠制御盤　（株）アート
  6
Continuous
 62
     7
370
    13
100
AcDbCircle
 10
70662.38264168671
 20
25616.47352658182
 30
0.0
 40
15.0
100
AcDbArc
 50
90.0
 51
180.0
  0
LINE
  5
93BF4
330
1F
100
AcDbEntity
  8
電気錠制御盤　（株）アート
  6
Continuous
 62
     7
370
    13
100
AcDbLine
 10
70647.38264168671
 20
25616.47352658182
 30
0.0
 11
70647.38264168671
 21
25601.47352658182
 31
0.0
  0
LINE
  5
93BF5
330
1F
100
AcDbEntity
  8
電気錠制御盤　（株）アート
  6
Continuous
 62
     7
370
    13
100
AcDbLine
 10
71262.3826416867
 20
25631.47352658182
 30
0.0
 11
70662.38264168671
 21
25631.47352658182
 31
0.0
  0
LINE
  5
93BF6
330
1F
100
AcDbEntity
  8
電気錠制御盤　（株）アート
  6
Continuous
 62
     7
370
    13
100
AcDbLine
 10
70122.3826416867
 20
17463.97352658182
 30
0.0
 11
70272.03007535217
 21
17308.21202428655
 31
0.0
  0
LINE
  5
93BF7
330
1F
100
AcDbEntity
  8
電気錠制御盤　（株）アート
  6
Continuous
 62
     7
370
    13
100
AcDbLine
 10
70122.3826416867
 20
17463.97352658182
 30
0.0
 11
70174.10036970442
 21
17254.25639182957
 31
0.0
  0
POLYLINE
  5
93BF8
330
1F
100
AcDbEntity
  8
電気錠制御盤　（株）アート
  6
Continuous
 62
     7
370
    13
100
AcDb2dPolyline
 66
     1
 10
0.0
 20
0.0
 30
0.0
  0
VERTEX
  5
93BF9
330
93BF8
100
AcDbEntity
  8
電気錠制御盤　（株）アート
  6
Continuous
 62
     7
370
    13
100
AcDbVertex
100
AcDb2dVertex
 10
70122.3826416867
 20
17463.97352658182
 30
0.0
  0
VERTEX
  5
93BFA
330
93BF8
100
AcDbEntity
  8
電気錠制御盤　（株）アート
  6
Continuous
 62
     7
370
    13
100
AcDbVertex
100
AcDb2dVertex
 10
71323.55430845998
 20
15283.84177011204
 30
0.0
  0
VERTEX
  5
93BFB
330
93BF8
100
AcDbEntity
  8
電気錠制御盤　（株）アート
  6
Continuous
 62
     7
370
    13
100
AcDbVertex
100
AcDb2dVertex
 10
73541.36589206569
 20
15283.84177011204
 30
0.0
  0
SEQEND
  5
93BFC
330
93BF8
100
AcDbEntity
  8
電気錠制御盤　（株）アート
  6
Continuous
 62
     7
370
    13
  0
TEXT
  5
93BFD
330
1F
100
AcDbEntity
  8
電気錠制御盤　（株）アート
  6
Continuous
 62
     7
370
    13
100
AcDbText
 10
71323.55430845998
 20
15328.84177011204
 30
0.0
 40
270.0
  1
シリンダー錠
 41
1.133333333333333
 11
71323.55430845998
 21
15328.84177011204
 31
0.0
100
AcDbText
 73
     1
  0
LINE
  5
93BFE
330
1F
100
AcDbEntity
  8
電気錠制御盤　（株）アート
  6
Continuous
 62
     7
370
    13
100
AcDbLine
 10
76409.39768109761
 20
18064.26059567339
 30
0.0
 11
76379.39768109761
 21
18064.26059567339
 31
0.0
  0
LINE
  5
93BFF
330
1F
100
AcDbEntity
  8
電気錠制御盤　（株）アート
  6
Continuous
 62
     7
370
    13
100
AcDbLine
 10
76349.39768109761
 20
18034.26059567339
 30
0.0
 11
76349.39768109761
 21
17494.2605956734
 31
0.0
  0
LINE
  5
93C00
330
1F
100
AcDbEntity
  8
電気錠制御盤　（株）アート
  6
Continuous
 62
     7
370
    13
100
AcDbLine
 10
76379.39768109761
 20
17464.26059567339
 30
0.0
 11
76409.39768109761
 21
17464.26059567339
 31
0.0
  0
LINE
  5
93C01
330
1F
100
AcDbEntity
  8
電気錠制御盤　（株）アート
  6
Continuous
 62
     7
370
    13
100
AcDbLine
 10
76409.39768109761
 20
17464.26059567339
 30
0.0
 11
76409.39768109761
 21
18064.26059567339
 31
0.0
  0
LINE
  5
93C02
330
1F
100
AcDbEntity
  8
電気錠制御盤　（株）アート
  6
Continuous
 62
     7
370
    13
100
AcDbLine
 10
76379.39768109761
 20
18064.26059567339
 30
0.0
 11
76349.39768109761
 21
18034.26059567339
 31
0.0
  0
LINE
  5
93C03
330
1F
100
AcDbEntity
  8
電気錠制御盤　（株）アート
  6
Continuous
 62
     7
370
    13
100
AcDbLine
 10
76349.39768109761
 20
17494.2605956734
 30
0.0
 11
76379.39768109761
 21
17464.26059567339
 31
0.0
  0
LINE
  5
93C04
330
1F
100
AcDbEntity
  8
電気錠制御盤　（株）アート
  6
Continuous
 62
     7
370
    13
100
AcDbLine
 10
76379.39768109761
 20
18064.26059567339
 30
0.0
 11
76379.39768109761
 21
17464.26059567339
 31
0.0
  0
LINE
  5
93C05
330
1F
100
AcDbEntity
  8
電気錠制御盤　（株）アート
  6
Continuous
 62
     7
370
    13
100
AcDbLine
 10
76439.39768109762
 20
16451.76059567339
 30
0.0
 11
78659.39768109761
 21
16451.76059567339
 31
0.0
  0
LINE
  5
93C06
330
1F
100
AcDbEntity
  8
電気錠制御盤　（株）アート
  6
Continuous
 62
     7
370
    13
100
AcDbLine
 10
78659.39768109761
 20
25451.7605956734
 30
0.0
 11
78659.39768109761
 21
16451.76059567339
 31
0.0
  0
LINE
  5
93C07
330
1F
100
AcDbEntity
  8
電気錠制御盤　（株）アート
  6
Continuous
 62
     7
370
    13
100
AcDbLine
 10
78659.39768109761
 20
25451.7605956734
 30
0.0
 11
76439.39768109762
 21
25451.7605956734
 31
0.0
  0
LINE
  5
93C08
330
1F
100
AcDbEntity
  8
電気錠制御盤　（株）アート
  6
Continuous
 62
     7
370
    13
100
AcDbLine
 10
78659.39768109761
 20
25421.7605956734
 30
0.0
 11
76432.12247109762
 21
25421.7605956734
 31
0.0
  0
LINE
  5
93C09
330
1F
100
AcDbEntity
  8
電気錠制御盤　（株）アート
  6
Continuous
 62
     7
370
    13
100
AcDbLine
 10
76438.28171109757
 20
16481.76059567339
 30
0.0
 11
78659.39768109761
 21
16481.76059567339
 31
0.0
  0
LINE
  5
93C0A
330
1F
100
AcDbEntity
  8
電気錠制御盤　（株）アート
  6
Continuous
 62
     7
370
    13
100
AcDbLine
 10
76409.39768109761
 20
25421.7605956734
 30
0.0
 11
76409.39768109761
 21
16481.76059567339
 31
0.0
  0
ARC
  5
93C0B
330
1F
100
AcDbEntity
  8
電気錠制御盤　（株）アート
  6
Continuous
 62
     7
370
    13
100
AcDbCircle
 10
76439.39768109762
 20
25421.7605956734
 30
0.0
 40
30.0
100
AcDbArc
 50
90.0
 51
180.0
  0
ARC
  5
93C0C
330
1F
100
AcDbEntity
  8
電気錠制御盤　（株）アート
  6
Continuous
 62
     7
370
    13
100
AcDbCircle
 10
76439.39768109762
 20
16481.76059567339
 30
0.0
 40
30.0
100
AcDbArc
 50
180.0
 51
270.0
  0
LINE
  5
93C0D
330
1F
100
AcDbEntity
  8
電気錠制御盤　（株）アート
  6
Continuous
 62
     7
370
    13
100
AcDbLine
 10
78374.39768109762
 20
25451.7605956734
 30
0.0
 11
78374.39768109762
 21
25496.7605956734
 31
0.0
  0
LINE
  5
93C0E
330
1F
100
AcDbEntity
  8
電気錠制御盤　（株）アート
  6
Continuous
 62
     7
370
    13
100
AcDbLine
 10
77444.39768109762
 20
25496.7605956734
 30
0.0
 11
77444.39768109762
 21
25451.7605956734
 31
0.0
  0
LINE
  5
93C0F
330
1F
100
AcDbEntity
  8
電気錠制御盤　（株）アート
  6
Continuous
 62
     7
370
    13
100
AcDbLine
 10
78209.39768109761
 20
25631.7605956734
 30
0.0
 11
77609.39768109762
 21
25631.7605956734
 31
0.0
  0
LINE
  5
93C10
330
1F
100
AcDbEntity
  8
電気錠制御盤　（株）アート
  6
Continuous
 62
     7
370
    13
100
AcDbLine
 10
77594.39768109761
 20
25616.7605956734
 30
0.0
 11
77594.39768109761
 21
25601.7605956734
 31
0.0
  0
ARC
  5
93C11
330
1F
100
AcDbEntity
  8
電気錠制御盤　（株）アート
  6
Continuous
 62
     7
370
    13
100
AcDbCircle
 10
77609.39768109762
 20
25616.7605956734
 30
0.0
 40
15.0
100
AcDbArc
 50
90.0
 51
180.0
  0
LINE
  5
93C12
330
1F
100
AcDbEntity
  8
電気錠制御盤　（株）アート
  6
Continuous
 62
     7
370
    13
100
AcDbLine
 10
78224.39768109761
 20
25616.7605956734
 30
0.0
 11
78224.39768109761
 21
25601.7605956734
 31
0.0
  0
ARC
  5
93C13
330
1F
100
AcDbEntity
  8
電気錠制御盤　（株）アート
  6
Continuous
 62
     7
370
    13
100
AcDbCircle
 10
78209.39768109761
 20
25616.7605956734
 30
0.0
 40
15.0
100
AcDbArc
 50
0.0
 51
90.0
  0
ARC
  5
93C14
330
1F
100
AcDbEntity
  8
電気錠制御盤　（株）アート
  6
Continuous
 62
     7
370
    13
100
AcDbCircle
 10
77549.39768109761
 20
25496.7605956734
 30
0.0
 40
105.0
100
AcDbArc
 50
90.0
 51
180.0
  0
LINE
  5
93C15
330
1F
100
AcDbEntity
  8
電気錠制御盤　（株）アート
  6
Continuous
 62
     7
370
    13
100
AcDbLine
 10
78269.39768109761
 20
25601.7605956734
 30
0.0
 11
77549.39768109761
 21
25601.7605956734
 31
0.0
  0
ARC
  5
93C16
330
1F
100
AcDbEntity
  8
電気錠制御盤　（株）アート
  6
Continuous
 62
     7
370
    13
100
AcDbCircle
 10
78269.39768109761
 20
25496.7605956734
 30
0.0
 40
105.0
100
AcDbArc
 50
0.0
 51
90.0
  0
DIMENSION
  5
93C17
330
1F
100
AcDbEntity
  8
電気錠制御盤　（株）アート
  6
Continuous
 62
     7
370
    13
100
AcDbDimension
  2
*D1085
 10
74247.38264168776
 20
16451.47352658183
 30
0.0
 11
73997.38264168774
 21
20951.47352658181
 31
0.0
 70
    32
  1
300
 71
     5
 42
9000.000000000005
  3
Standard
100
AcDbAlignedDimension
 13
73527.38264168671
 23
25451.47352658182
 33
0.0
 14
73527.38264168671
 24
16451.47352658182
 34
0.0
 50
90.0
100
AcDbRotatedDimension
1001
ACAD
1000
DSTYLE
1002
{
1070
    41
1040
500.0
1070
    42
1040
100.0
1070
    73
1070
     0
1070
    77
1070
     1
1070
   140
1040
400.0
1070
   147
1040
50.0
1070
   173
1070
     1
1070
   343
1005
FE
1070
   344
1005
FE
1002
}
  0
LINE
  5
93C18
330
1F
100
AcDbEntity
  8
電気錠制御盤　（株）アート
  6
Continuous
 62
     7
370
    13
100
AcDbLine
 10
72300.67825434496
 20
17620.48119215137
 30
0.0
 11
71574.76871641667
 21
16901.75885551853
 31
0.0
  0
LINE
  5
93C19
330
1F
100
AcDbEntity
  8
電気錠制御盤　（株）アート
  6
Continuous
 62
     7
370
    13
100
AcDbLine
 10
71574.76871641667
 20
16901.75885551853
 30
0.0
 11
71799.50342295458
 21
16901.75885551853
 31
0.0
  0
LINE
  5
93C1A
330
1F
100
AcDbEntity
  8
電気錠制御盤　（株）アート
  6
Continuous
 62
     7
370
    13
100
AcDbLine
 10
71799.50342295458
 20
16901.75885551853
 30
0.0
 11
72149.74647536897
 21
17248.53417952259
 31
0.0
  0
LINE
  5
93C1B
330
1F
100
AcDbEntity
  8
電気錠制御盤　（株）アート
  6
Continuous
 62
     7
370
    13
100
AcDbLine
 10
72149.74647536897
 20
17248.53417952259
 30
0.0
 11
72149.74647536897
 21
17052.69049655232
 31
0.0
  0
LINE
  5
93C1C
330
1F
100
AcDbEntity
  8
電気錠制御盤　（株）アート
  6
Continuous
 62
     7
370
    13
100
AcDbLine
 10
72149.74647536897
 20
17052.69049655232
 30
0.0
 11
71991.62763303972
 21
17052.69049655232
 31
0.0
  0
LINE
  5
93C1D
330
1F
100
AcDbEntity
  8
電気錠制御盤　（株）アート
  6
Continuous
 62
     7
370
    13
100
AcDbLine
 10
71991.62763303972
 20
17052.69049655232
 30
0.0
 11
71991.62763303972
 21
16901.75885551853
 31
0.0
  0
LINE
  5
93C1E
330
1F
100
AcDbEntity
  8
電気錠制御盤　（株）アート
  6
Continuous
 62
     7
370
    13
100
AcDbLine
 10
71991.62763303972
 20
16901.75885551853
 30
0.0
 11
72300.67825434496
 21
16901.75885551853
 31
0.0
  0
LINE
  5
93C1F
330
1F
100
AcDbEntity
  8
電気錠制御盤　（株）アート
  6
Continuous
 62
     7
370
    13
100
AcDbLine
 10
72300.67825434496
 20
16901.75885551853
 30
0.0
 11
72300.67825434496
 21
17620.48119215137
 31
0.0
  0
LINE
  5
93C20
330
1F
100
AcDbEntity
  8
電気錠制御盤　（株）アート
  6
Continuous
 62
     7
370
    13
100
AcDbLine
 10
72300.67825434496
 20
17103.00104356358
 30
0.0
 11
72516.29484498093
 21
16901.75885551853
 31
0.0
  0
ARC
  5
93C21
330
1F
100
AcDbEntity
  8
電気錠制御盤　（株）アート
  6
Continuous
 62
     7
370
    13
100
AcDbCircle
 10
72473.1716372075
 20
17138.93718798359
 30
0.0
 40
35.93614442007882
100
AcDbArc
 50
270.0000000947624
 51
89.99999990466438
  0
LINE
  5
93C22
330
1F
100
AcDbEntity
  8
電気錠制御盤　（株）アート
  6
Continuous
 62
     7
370
    13
100
AcDbLine
 10
72300.67825434496
 20
17103.00104356358
 30
0.0
 11
72473.1716372075
 21
17103.00104356358
 31
0.0
  0
LINE
  5
93C23
330
1F
100
AcDbEntity
  8
電気錠制御盤　（株）アート
  6
Continuous
 62
     7
370
    13
100
AcDbLine
 10
72329.42705952714
 20
17174.87333240377
 30
0.0
 11
72473.1716372075
 21
17174.87333240377
 31
0.0
  0
LINE
  5
93C24
330
1F
100
AcDbEntity
  8
電気錠制御盤　（株）アート
  6
Continuous
 62
     7
370
    13
100
AcDbLine
 10
72329.42705952714
 20
17261.12002383503
 30
0.0
 11
72329.42705952714
 21
17174.87333240377
 31
0.0
  0
LINE
  5
93C25
330
1F
100
AcDbEntity
  8
電気錠制御盤　（株）アート
  6
Continuous
 62
     7
370
    13
100
AcDbLine
 10
72329.42705952714
 20
17261.12002383503
 30
0.0
 11
72500.40749258257
 21
17261.12002383503
 31
0.0
  0
ARC
  5
93C26
330
1F
100
AcDbEntity
  8
電気錠制御盤　（株）アート
  6
Continuous
 62
     7
370
    13
100
AcDbCircle
 10
72486.78942695283
 20
17138.93718798359
 30
0.0
 40
122.9393107550485
100
AcDbArc
 50
283.9448466305506
 51
83.64029606444871
  0
LINE
  5
93C27
330
1F
100
AcDbEntity
  8
電気錠制御盤　（株）アート
  6
Continuous
 62
     7
370
    13
100
AcDbLine
 10
72516.29484498093
 20
17019.73445494373
 30
0.0
 11
72642.69733205461
 21
16901.75885551853
 31
0.0
  0
LINE
  5
93C28
330
1F
100
AcDbEntity
  8
電気錠制御盤　（株）アート
  6
Continuous
 62
     7
370
    13
100
AcDbLine
 10
72642.69733205461
 20
16901.75885551853
 30
0.0
 11
72516.29484498093
 21
16901.75885551853
 31
0.0
  0
LINE
  5
93C29
330
1F
100
AcDbEntity
  8
電気錠制御盤　（株）アート
  6
Continuous
 62
     7
370
    13
100
AcDbLine
 10
72897.21775512653
 20
17261.12002383503
 30
0.0
 11
72609.72873770783
 21
17261.12002383503
 31
0.0
  0
LINE
  5
93C2A
330
1F
100
AcDbEntity
  8
電気錠制御盤　（株）アート
  6
Continuous
 62
     7
370
    13
100
AcDbLine
 10
72609.72873770783
 20
17261.12002383503
 30
0.0
 11
72609.72873770783
 21
17174.87333240377
 31
0.0
  0
LINE
  5
93C2B
330
1F
100
AcDbEntity
  8
電気錠制御盤　（株）アート
  6
Continuous
 62
     7
370
    13
100
AcDbLine
 10
72609.72873770783
 20
17174.87333240377
 30
0.0
 11
72703.16263043473
 21
17174.87333240377
 31
0.0
  0
LINE
  5
93C2C
330
1F
100
AcDbEntity
  8
電気錠制御盤　（株）アート
  6
Continuous
 62
     7
370
    13
100
AcDbLine
 10
72703.16263043473
 20
17174.87333240377
 30
0.0
 11
72703.16263043473
 21
16901.75885551853
 31
0.0
  0
LINE
  5
93C2D
330
1F
100
AcDbEntity
  8
電気錠制御盤　（株）アート
  6
Continuous
 62
     7
370
    13
100
AcDbLine
 10
72703.16263043473
 20
16901.75885551853
 30
0.0
 11
72803.78386239964
 21
16901.75885551853
 31
0.0
  0
LINE
  5
93C2E
330
1F
100
AcDbEntity
  8
電気錠制御盤　（株）アート
  6
Continuous
 62
     7
370
    13
100
AcDbLine
 10
72803.78386239964
 20
16901.75885551853
 30
0.0
 11
72803.78386239964
 21
17174.87333240377
 31
0.0
  0
LINE
  5
93C2F
330
1F
100
AcDbEntity
  8
電気錠制御盤　（株）アート
  6
Continuous
 62
     7
370
    13
100
AcDbLine
 10
72803.78386239964
 20
17174.87333240377
 30
0.0
 11
72897.21775512653
 21
17174.87333240377
 31
0.0
  0
LINE
  5
93C30
330
1F
100
AcDbEntity
  8
電気錠制御盤　（株）アート
  6
Continuous
 62
     7
370
    13
100
AcDbLine
 10
72897.21775512653
 20
17174.87333240377
 30
0.0
 11
72897.21775512653
 21
17261.12002383503
 31
0.0
  0
LINE
  5
93C31
330
1F
100
AcDbEntity
  8
電気錠制御盤　（株）アート
  6
Continuous
 62
     7
370
    13
100
AcDbLine
 10
71574.76871641667
 20
16901.8620914081
 30
0.0
 11
71799.50342295458
 21
16901.8620914081
 31
0.0
  0
LINE
  5
93C32
330
1F
100
AcDbEntity
  8
電気錠制御盤　（株）アート
  6
Continuous
 62
     7
370
    13
100
AcDbLine
 10
71799.50342295458
 20
16901.8620914081
 30
0.0
 11
72149.74647536897
 21
17248.63741541216
 31
0.0
  0
LINE
  5
93C33
330
1F
100
AcDbEntity
  8
電気錠制御盤　（株）アート
  6
Continuous
 62
     7
370
    13
100
AcDbLine
 10
72149.74647536897
 20
17248.63741541216
 30
0.0
 11
72149.74647536897
 21
17052.79373244172
 31
0.0
  0
LINE
  5
93C34
330
1F
100
AcDbEntity
  8
電気錠制御盤　（株）アート
  6
Continuous
 62
     7
370
    13
100
AcDbLine
 10
72149.74647536897
 20
17052.79373244172
 30
0.0
 11
71991.62763303972
 21
17052.79373244172
 31
0.0
  0
LINE
  5
93C35
330
1F
100
AcDbEntity
  8
電気錠制御盤　（株）アート
  6
Continuous
 62
     7
370
    13
100
AcDbLine
 10
71991.62763303972
 20
17052.79373244172
 30
0.0
 11
71991.62763303972
 21
16901.8620914081
 31
0.0
  0
LINE
  5
93C36
330
1F
100
AcDbEntity
  8
電気錠制御盤　（株）アート
  6
Continuous
 62
     7
370
    13
100
AcDbLine
 10
71991.62763303972
 20
16901.8620914081
 30
0.0
 11
72300.67825434496
 21
16901.8620914081
 31
0.0
  0
LINE
  5
93C37
330
1F
100
AcDbEntity
  8
電気錠制御盤　（株）アート
  6
Continuous
 62
     7
370
    13
100
AcDbLine
 10
72300.67825434496
 20
16901.8620914081
 30
0.0
 11
72300.67825434496
 21
17620.58442804094
 31
0.0
  0
LINE
  5
93C38
330
1F
100
AcDbEntity
  8
電気錠制御盤　（株）アート
  6
Continuous
 62
     7
370
    13
100
AcDbLine
 10
72300.67825434496
 20
17103.10427945298
 30
0.0
 11
72516.29484498093
 21
16901.8620914081
 31
0.0
  0
ARC
  5
93C39
330
1F
100
AcDbEntity
  8
電気錠制御盤　（株）アート
  6
Continuous
 62
     7
370
    13
100
AcDbCircle
 10
72473.1716372075
 20
17139.04042387316
 30
0.0
 40
35.93614442007882
100
AcDbArc
 50
270.0000000947624
 51
89.99999990466438
  0
LINE
  5
93C3A
330
1F
100
AcDbEntity
  8
電気錠制御盤　（株）アート
  6
Continuous
 62
     7
370
    13
100
AcDbLine
 10
72300.67825434496
 20
17103.10427945298
 30
0.0
 11
72473.1716372075
 21
17103.10427945298
 31
0.0
  0
LINE
  5
93C3B
330
1F
100
AcDbEntity
  8
電気錠制御盤　（株）アート
  6
Continuous
 62
     7
370
    13
100
AcDbLine
 10
72329.42705952714
 20
17174.97656829317
 30
0.0
 11
72473.1716372075
 21
17174.97656829317
 31
0.0
  0
LINE
  5
93C3C
330
1F
100
AcDbEntity
  8
電気錠制御盤　（株）アート
  6
Continuous
 62
     7
370
    13
100
AcDbLine
 10
72329.42705952714
 20
17261.22325972443
 30
0.0
 11
72329.42705952714
 21
17174.97656829317
 31
0.0
  0
LINE
  5
93C3D
330
1F
100
AcDbEntity
  8
電気錠制御盤　（株）アート
  6
Continuous
 62
     7
370
    13
100
AcDbLine
 10
72329.42705952714
 20
17261.22325972443
 30
0.0
 11
72500.40749258257
 21
17261.22325972443
 31
0.0
  0
ARC
  5
93C3E
330
1F
100
AcDbEntity
  8
電気錠制御盤　（株）アート
  6
Continuous
 62
     7
370
    13
100
AcDbCircle
 10
72486.78942695283
 20
17139.04042387316
 30
0.0
 40
122.9393107550485
100
AcDbArc
 50
283.9448466305506
 51
83.64029606444871
  0
LINE
  5
93C3F
330
1F
100
AcDbEntity
  8
電気錠制御盤　（株）アート
  6
Continuous
 62
     7
370
    13
100
AcDbLine
 10
72516.29484498093
 20
17019.83769083331
 30
0.0
 11
72642.69733205461
 21
16901.8620914081
 31
0.0
  0
LINE
  5
93C40
330
1F
100
AcDbEntity
  8
電気錠制御盤　（株）アート
  6
Continuous
 62
     7
370
    13
100
AcDbLine
 10
72642.69733205461
 20
16901.8620914081
 30
0.0
 11
72516.29484498093
 21
16901.8620914081
 31
0.0
  0
LINE
  5
93C41
330
1F
100
AcDbEntity
  8
電気錠制御盤　（株）アート
  6
Continuous
 62
     7
370
    13
100
AcDbLine
 10
72897.21775512653
 20
17261.22325972443
 30
0.0
 11
72609.72873770783
 21
17261.22325972443
 31
0.0
  0
LINE
  5
93C42
330
1F
100
AcDbEntity
  8
電気錠制御盤　（株）アート
  6
Continuous
 62
     7
370
    13
100
AcDbLine
 10
72609.72873770783
 20
17261.22325972443
 30
0.0
 11
72609.72873770783
 21
17174.97656829317
 31
0.0
  0
LINE
  5
93C43
330
1F
100
AcDbEntity
  8
電気錠制御盤　（株）アート
  6
Continuous
 62
     7
370
    13
100
AcDbLine
 10
72609.72873770783
 20
17174.97656829317
 30
0.0
 11
72703.16263043473
 21
17174.97656829317
 31
0.0
  0
LINE
  5
93C44
330
1F
100
AcDbEntity
  8
電気錠制御盤　（株）アート
  6
Continuous
 62
     7
370
    13
100
AcDbLine
 10
72703.16263043473
 20
17174.97656829317
 30
0.0
 11
72703.16263043473
 21
16901.8620914081
 31
0.0
  0
LINE
  5
93C45
330
1F
100
AcDbEntity
  8
電気錠制御盤　（株）アート
  6
Continuous
 62
     7
370
    13
100
AcDbLine
 10
72703.16263043473
 20
16901.8620914081
 30
0.0
 11
72803.78386239964
 21
16901.8620914081
 31
0.0
  0
LINE
  5
93C46
330
1F
100
AcDbEntity
  8
電気錠制御盤　（株）アート
  6
Continuous
 62
     7
370
    13
100
AcDbLine
 10
72803.78386239964
 20
16901.8620914081
 30
0.0
 11
72803.78386239964
 21
17174.97656829317
 31
0.0
  0
LINE
  5
93C47
330
1F
100
AcDbEntity
  8
電気錠制御盤　（株）アート
  6
Continuous
 62
     7
370
    13
100
AcDbLine
 10
72803.78386239964
 20
17174.97656829317
 30
0.0
 11
72897.21775512653
 21
17174.97656829317
 31
0.0
  0
LINE
  5
93C48
330
1F
100
AcDbEntity
  8
電気錠制御盤　（株）アート
  6
Continuous
 62
     7
370
    13
100
AcDbLine
 10
72897.21775512653
 20
17174.97656829317
 30
0.0
 11
72897.21775512653
 21
17261.22325972443
 31
0.0
  0
DIMENSION
  5
93C49
330
1F
100
AcDbEntity
  8
電気錠制御盤　（株）アート
  6
Continuous
 62
     7
370
    13
100
AcDbDimension
  2
*D1086
 10
73347.38264168671
 20
27251.47352658182
 30
0.0
 11
70122.3826416867
 21
27501.47352658182
 31
0.0
 70
    32
  1
215
 71
     5
 42
6450.0
  3
Standard
100
AcDbAlignedDimension
 13
66897.38264168671
 23
25631.47352658182
 33
0.0
 14
73347.38264168671
 24
25631.47352658182
 34
0.0
100
AcDbRotatedDimension
1001
ACAD
1000
DSTYLE
1002
{
1070
    41
1040
500.0
1070
    42
1040
100.0
1070
    73
1070
     0
1070
    77
1070
     1
1070
   140
1040
400.0
1070
   147
1040
50.0
1070
   173
1070
     1
1070
   343
1005
FE
1070
   344
1005
FE
1002
}
  0
DIMENSION
  5
93C4A
330
1F
100
AcDbEntity
  8
電気錠制御盤　（株）アート
  6
Continuous
 62
     7
370
    13
100
AcDbDimension
  2
*D1087
 10
78659.39768109761
 20
27251.47352658182
 30
0.0
 11
77534.39768109761
 21
27501.47352658182
 31
0.0
 70
    32
  1
75
 71
     5
 42
2250.0
  3
Standard
100
AcDbAlignedDimension
 13
76409.39768109761
 23
25601.7605956734
 33
0.0
 14
78659.39768109761
 24
25631.7605956734
 34
0.0
100
AcDbRotatedDimension
1001
ACAD
1000
DSTYLE
1002
{
1070
    41
1040
500.0
1070
    42
1040
100.0
1070
    73
1070
     0
1070
    77
1070
     1
1070
   140
1040
400.0
1070
   147
1040
50.0
1070
   173
1070
     1
1070
   343
1005
FE
1070
   344
1005
FE
1002
}
  0
ENDSEC
  0
SECTION
  2
OBJECTS
  0
DICTIONARY
  5
C
330
0
100
AcDbDictionary
281
     1
  3
ACAD_CIP_PREVIOUS_PRODUCT_INFO
350
934DB
  3
ACAD_COLOR
350
6B
  3
ACAD_DETAILVIEWSTYLE
350
934D4
  3
ACAD_GROUP
350
D
  3
ACAD_LAYOUT
350
1A
  3
ACAD_MATERIAL
350
6A
  3
ACAD_MLEADERSTYLE
350
934D0
  3
ACAD_MLINESTYLE
350
17
  3
ACAD_PLOTSETTINGS
350
19
  3
ACAD_PLOTSTYLENAME
350
E
  3
ACAD_SCALELIST
350
934BE
  3
ACAD_SECTIONVIEWSTYLE
350
934D2
  3
ACAD_TABLESTYLE
350
7E
  3
ACAD_VISUALSTYLE
350
934A5
  3
ACDB_RECOMPOSE_DATA
350
94172
  3
AcDbVariableDictionary
350
5E
  3
AcDsDecomposeData
350
94179
  3
DWGPROPS
350
94173
  0
DICTIONARY
  5
494
330
2
100
AcDbDictionary
280
     1
281
     1
  3
ACAD_LAYERSTATES
360
495
  0
DICTIONARY
  5
934EA
330
10
100
AcDbDictionary
280
     1
281
     1
  3
ADSK_XREC_LAYER_RECONCILED
360
934EB
  0
DICTIONARY
  5
934F2
330
17435
100
AcDbDictionary
280
     1
281
     1
  3
ADSK_XREC_LAYER_RECONCILED
360
934F3
  0
DICTIONARY
  5
93626
330
93625
100
AcDbDictionary
280
     1
281
     1
  0
DICTIONARY
  5
2809F
330
1F
100
AcDbDictionary
280
     1
281
     1
  3
ACAD_SORTENTS
360
280A0
  0
XRECORD
  5
934DB
102
{ACAD_REACTORS
330
C
102
}
330
C
100
AcDbXrecord
280
     1
300
ACDLT
300
2020
300

  0
DICTIONARY
  5
6B
102
{ACAD_REACTORS
330
C
102
}
330
C
100
AcDbDictionary
281
     1
  0
DICTIONARY
  5
934D4
102
{ACAD_REACTORS
330
C
102
}
330
C
100
AcDbDictionary
281
     1
  3
Imperial24
350
93628
  3
Metric50
350
934D5
  0
DICTIONARY
  5
D
102
{ACAD_REACTORS
330
C
102
}
330
C
100
AcDbDictionary
281
     1
  0
DICTIONARY
  5
1A
102
{ACAD_REACTORS
330
C
102
}
330
C
100
AcDbDictionary
281
     1
  3
Model
350
22
  3
レイアウト1
350
D3
  3
レイアウト2
350
D7
  0
DICTIONARY
  5
6A
102
{ACAD_REACTORS
330
C
102
}
330
C
100
AcDbDictionary
281
     1
  3
ByBlock
350
93495
  3
ByLayer
350
9348D
  3
Global
350
9349D
  0
DICTIONARY
  5
934D0
102
{ACAD_REACTORS
330
C
102
}
330
C
100
AcDbDictionary
281
     1
  3
Standard
350
934D1
  0
DICTIONARY
  5
17
102
{ACAD_REACTORS
330
C
102
}
330
C
100
AcDbDictionary
281
     1
  3
Standard
350
18
  0
DICTIONARY
  5
19
102
{ACAD_REACTORS
330
C
102
}
330
C
100
AcDbDictionary
281
     1
  0
ACDBDICTIONARYWDFLT
  5
E
102
{ACAD_REACTORS
330
C
102
}
330
C
100
AcDbDictionary
281
     1
  3
Normal
350
F
100
AcDbDictionaryWithDefault
340
F
  0
DICTIONARY
  5
934BE
102
{ACAD_REACTORS
330
C
102
}
330
C
100
AcDbDictionary
281
     1
  3
A0
350
934BF
  3
A1
350
934C0
  3
A2
350
934C1
  3
A3
350
934C2
  3
A4
350
934C3
  3
A5
350
934C4
  3
A6
350
934C5
  3
A7
350
934C6
  3
A8
350
934C7
  3
A9
350
934C8
  3
B0
350
934C9
  3
B1
350
934CA
  3
B2
350
934CB
  3
B3
350
934CC
  3
B4
350
934CD
  3
B5
350
934CE
  3
B6
350
934CF
  0
DICTIONARY
  5
934D2
102
{ACAD_REACTORS
330
C
102
}
330
C
100
AcDbDictionary
281
     1
  3
Imperial24
350
93627
  3
Metric50
350
934D3
  0
DICTIONARY
  5
7E
102
{ACAD_REACTORS
330
C
102
}
330
C
100
AcDbDictionary
281
     1
  3
Standard
350
7F
  0
DICTIONARY
  5
934A5
102
{ACAD_REACTORS
330
C
102
}
330
C
100
AcDbDictionary
281
     1
  3
2dWireframe
350
934AB
  3
Basic
350
934AA
  3
Brighten
350
934B1
  3
ColorChange
350
934B5
  3
Conceptual
350
934AE
  3
Dim
350
934B0
  3
EdgeColorOff
350
934BD
  3
Facepattern
350
934B4
  3
Flat
350
934A6
  3
FlatWithEdges
350
934A7
  3
Gouraud
350
934A8
  3
GouraudWithEdges
350
934A9
  3
Hidden
350
934AD
  3
JitterOff
350
934BB
  3
Linepattern
350
934B3
  3
OverhangOff
350
934BC
  3
Realistic
350
934AF
  3
Shaded
350
934BA
  3
Shaded with edges
350
934B9
  3
Shades of Gray
350
934B6
  3
Sketchy
350
934B7
  3
Thicken
350
934B2
  3
Wireframe
350
934AC
  3
X-Ray
350
934B8
  0
XRECORD
  5
94172
102
{ACAD_REACTORS
330
C
102
}
330
C
100
AcDbXrecord
280
     1
 90
        1
330
7F
  0
DICTIONARY
  5
5E
102
{ACAD_REACTORS
330
C
102
}
330
C
100
AcDbDictionary
281
     1
  3
CANNOSCALE
350
9350C
  3
CMLEADERSTYLE
350
93508
  3
CTABLESTYLE
350
84
  3
CVIEWDETAILSTYLE
350
93509
  3
CVIEWSECTIONSTYLE
350
9350A
  3
DIMASSOC
350
5F
  3
HIDETEXT
350
63
  3
INDEXCTL
350
9416E
  3
LAYEREVAL
350
9350E
  3
LAYERNOTIFY
350
9350F
  3
LIGHTINGUNITS
350
9350D
  3
MSLTSCALE
350
9350B
  3
PROJECTNAME
350
173CC
  3
SORTENTS
350
9416D
  3
XCLIPFRAME
350
9416F
  0
DICTIONARY
  5
94179
102
{ACAD_REACTORS
330
C
102
}
330
C
100
AcDbDictionary
281
     1
  3
AcDsRecords
350
9417B
  3
AcDsSchemas
350
9417A
1001
ACAD
1070
     2
  0
XRECORD
  5
94173
102
{ACAD_REACTORS
330
C
102
}
330
C
100
AcDbXrecord
280
     1
  1
DWGPROPS COOKIE
  2

  3

  4

  6

  7

  8
nagahama
  9

300
=
301
=
302
=
303
=
304
=
305
=
306
=
307
=
308
=
309
=
 40
1.16984917824074
 41
2455236.672881945
 42
2459242.629907407
  1

 90
        0
  0
DICTIONARY
  5
495
102
{ACAD_REACTORS
330
494
102
}
330
494
100
AcDbDictionary
281
     1
  0
XRECORD
  5
934EB
102
{ACAD_REACTORS
330
934EA
102
}
330
934EA
100
AcDbXrecord
280
     1
290
     1
  0
XRECORD
  5
934F3
102
{ACAD_REACTORS
330
934F2
102
}
330
934F2
100
AcDbXrecord
280
     1
290
     1
  0
SORTENTSTABLE
  5
280A0
102
{ACAD_REACTORS
330
2809F
102
}
330
2809F
100
AcDbSortentsTable
330
1F
331
24C1B
  5
24C1F
  0
ACDBDETAILVIEWSTYLE
  5
93628
102
{ACAD_XDICTIONARY
360
941BF
102
}
102
{ACAD_REACTORS
330
934D4
102
}
330
934D4
100
AcDbModelDocViewStyle
 70
     0
  3
Imperial24
290
     0
100
AcDbDetailViewStyle
 70
     0
 71
     0
 90
        3
 71
     1
340
11
 40
0.24
340
0
 40
0.24
300

 40
0.36
280
     3
 71
     2
340
16
 90
       25
 71
     3
340
11
 40
0.24
 90
        1
 40
0.75
 90
        1
300
%<\AcVar ViewType \f "%tc1">% %<\AcVar ViewDetailId>%\PSCALE %<\AcVar ViewScale \f "%sn">%
 71
     4
340
16
 90
       25
340
16
 90
       25
280
     0
  0
ACDBDETAILVIEWSTYLE
  5
934D5
102
{ACAD_XDICTIONARY
360
941BB
102
}
102
{ACAD_REACTORS
330
934D4
102
}
330
934D4
100
AcDbModelDocViewStyle
 70
     0
  3
Metric50
290
     0
100
AcDbDetailViewStyle
 70
     0
 71
     0
 90
        3
 71
     1
340
11
 40
5.0
340
0
 40
5.0
300

 40
0.0
280
     1
 71
     2
340
16
 90
       25
 71
     3
340
11
 40
5.0
 90
        0
 40
15.0
 90
        1
300
%<\AcVar ViewDetailId>% (%<\AcVar ViewScale \f "%sn">%)
 71
     4
340
16
 90
       25
340
16
 90
       25
280
     0
  0
LAYOUT
  5
22
102
{ACAD_XDICTIONARY
360
9417C
102
}
102
{ACAD_REACTORS
330
1A
102
}
330
1A
100
AcDbPlotSettings
  1

  2
none_device
  4
ISO_A4_(210.00_x_297.00_MM)
  6

 40
7.5
 41
20.0
 42
7.5
 43
20.0
 44
210.0
 45
297.0
 46
11.54999923706054
 47
-13.65000009536743
 48
0.0
 49
0.0
140
0.0
141
0.0
142
1.0
143
8.704084754739808
 70
 11952
 72
     1
 73
     0
 74
     0
  7
all black（線：データ通り　色：黒）.ctb
 75
     0
147
0.1148885871608098
148
0.0
149
0.0
100
AcDbLayout
  1
Model
 70
     1
 71
     0
 10
0.0
 20
0.0
 11
12.0
 21
9.0
 12
0.0
 22
0.0
 32
0.0
 14
0.0
 24
0.0
 34
0.0
 15
0.0
 25
0.0
 35
0.0
146
0.0
 13
0.0
 23
0.0
 33
0.0
 16
1.0
 26
0.0
 36
0.0
 17
0.0
 27
1.0
 37
0.0
 76
     0
330
1F
331
9348B
1001
ACAD_PSEXT
1000
None
1000
None
1000
Not applicable
1000
The layout will not be plotted unless a new plotter configuration name is selected.
1070
     0
  0
LAYOUT
  5
D3
102
{ACAD_XDICTIONARY
360
9417F
102
}
102
{ACAD_REACTORS
330
1A
102
}
330
1A
100
AcDbPlotSettings
  1

  2
C:\Documents and Settings\basas\Application Data\Autodesk\AutoCAD 2005\R16.1\enu\plotters\Default Windows System Printer.pc3
  4

  6

 40
0.0
 41
0.0
 42
0.0
 43
0.0
 44
0.0
 45
0.0
 46
0.0
 47
0.0
 48
0.0
 49
0.0
140
0.0
141
0.0
142
1.0
143
1.0
 70
   688
 72
     0
 73
     0
 74
     5
  7
all black（線：データ通り　色：黒）.ctb
 75
    16
147
1.0
148
0.0
149
0.0
100
AcDbLayout
  1
レイアウト1
 70
     1
 71
     1
 10
0.0
 20
0.0
 11
12.0
 21
9.0
 12
0.0
 22
0.0
 32
0.0
 14
0.0
 24
0.0
 34
0.0
 15
0.0
 25
0.0
 35
0.0
146
0.0
 13
0.0
 23
0.0
 33
0.0
 16
1.0
 26
0.0
 36
0.0
 17
0.0
 27
1.0
 37
0.0
 76
     0
330
D2
  0
LAYOUT
  5
D7
102
{ACAD_XDICTIONARY
360
94181
102
}
102
{ACAD_REACTORS
330
1A
102
}
330
1A
100
AcDbPlotSettings
  1

  2
C:\Documents and Settings\basas\Application Data\Autodesk\AutoCAD 2005\R16.1\enu\plotters\Default Windows System Printer.pc3
  4

  6

 40
0.0
 41
0.0
 42
0.0
 43
0.0
 44
0.0
 45
0.0
 46
0.0
 47
0.0
 48
0.0
 49
0.0
140
0.0
141
0.0
142
1.0
143
1.0
 70
   688
 72
     0
 73
     0
 74
     5
  7
all black（線：データ通り　色：黒）.ctb
 75
    16
147
1.0
148
0.0
149
0.0
100
AcDbLayout
  1
レイアウト2
 70
     1
 71
     2
 10
0.0
 20
0.0
 11
12.0
 21
9.0
 12
0.0
 22
0.0
 32
0.0
 14
0.0
 24
0.0
 34
0.0
 15
0.0
 25
0.0
 35
0.0
146
0.0
 13
0.0
 23
0.0
 33
0.0
 16
1.0
 26
0.0
 36
0.0
 17
0.0
 27
1.0
 37
0.0
 76
     0
330
D6
  0
MATERIAL
  5
93495
102
{ACAD_XDICTIONARY
360
93496
102
}
102
{ACAD_REACTORS
330
6A
102
}
330
6A
100
AcDbMaterial
  1
ByBlock
 72
     0
 43
0.0008202099737533
 43
0.0
 43
0.0
 43
0.0
 43
0.0
 43
0.0008202099737533
 43
0.0
 43
0.0
 43
0.0
 43
0.0
 43
1.0
 43
0.0
 43
0.0
 43
0.0
 43
0.0
 43
1.0
 77
     0
 47
0.0008202099737533
 47
0.0
 47
0.0
 47
0.0
 47
0.0
 47
0.0008202099737533
 47
0.0
 47
0.0
 47
0.0
 47
0.0
 47
1.0
 47
0.0
 47
0.0
 47
0.0
 47
0.0
 47
1.0
171
     0
 49
0.0008202099737533
 49
0.0
 49
0.0
 49
0.0
 49
0.0
 49
0.0008202099737533
 49
0.0
 49
0.0
 49
0.0
 49
0.0
 49
1.0
 49
0.0
 49
0.0
 49
0.0
 49
0.0
 49
1.0
175
     0
142
0.0008202099737533
142
0.0
142
0.0
142
0.0
142
0.0
142
0.0008202099737533
142
0.0
142
0.0
142
0.0
142
0.0
142
1.0
142
0.0
142
0.0
142
0.0
142
0.0
142
1.0
179
     0
144
0.0008202099737533
144
0.0
144
0.0
144
0.0
144
0.0
144
0.0008202099737533
144
0.0
144
0.0
144
0.0
144
0.0
144
1.0
144
0.0
144
0.0
144
0.0
144
0.0
144
1.0
147
0.0008202099737533
147
0.0
147
0.0
147
0.0
147
0.0
147
0.0008202099737533
147
0.0
147
0.0
147
0.0
147
0.0
147
1.0
147
0.0
147
0.0
147
0.0
147
0.0
147
1.0
  0
MATERIAL
  5
9348D
102
{ACAD_XDICTIONARY
360
9348E
102
}
102
{ACAD_REACTORS
330
6A
102
}
330
6A
100
AcDbMaterial
  1
ByLayer
 72
     0
 43
0.0008202099737533
 43
0.0
 43
0.0
 43
0.0
 43
0.0
 43
0.0008202099737533
 43
0.0
 43
0.0
 43
0.0
 43
0.0
 43
1.0
 43
0.0
 43
0.0
 43
0.0
 43
0.0
 43
1.0
 77
     0
 47
0.0008202099737533
 47
0.0
 47
0.0
 47
0.0
 47
0.0
 47
0.0008202099737533
 47
0.0
 47
0.0
 47
0.0
 47
0.0
 47
1.0
 47
0.0
 47
0.0
 47
0.0
 47
0.0
 47
1.0
171
     0
 49
0.0008202099737533
 49
0.0
 49
0.0
 49
0.0
 49
0.0
 49
0.0008202099737533
 49
0.0
 49
0.0
 49
0.0
 49
0.0
 49
1.0
 49
0.0
 49
0.0
 49
0.0
 49
0.0
 49
1.0
175
     0
142
0.0008202099737533
142
0.0
142
0.0
142
0.0
142
0.0
142
0.0008202099737533
142
0.0
142
0.0
142
0.0
142
0.0
142
1.0
142
0.0
142
0.0
142
0.0
142
0.0
142
1.0
179
     0
144
0.0008202099737533
144
0.0
144
0.0
144
0.0
144
0.0
144
0.0008202099737533
144
0.0
144
0.0
144
0.0
144
0.0
144
1.0
144
0.0
144
0.0
144
0.0
144
0.0
144
1.0
147
0.0008202099737533
147
0.0
147
0.0
147
0.0
147
0.0
147
0.0008202099737533
147
0.0
147
0.0
147
0.0
147
0.0
147
1.0
147
0.0
147
0.0
147
0.0
147
0.0
147
1.0
  0
MATERIAL
  5
9349D
102
{ACAD_XDICTIONARY
360
9349E
102
}
102
{ACAD_REACTORS
330
6A
102
}
330
6A
100
AcDbMaterial
  1
Global
 72
     0
 43
0.0008202099737533
 43
0.0
 43
0.0
 43
0.0
 43
0.0
 43
0.0008202099737533
 43
0.0
 43
0.0
 43
0.0
 43
0.0
 43
1.0
 43
0.0
 43
0.0
 43
0.0
 43
0.0
 43
1.0
 77
     0
 47
0.0008202099737533
 47
0.0
 47
0.0
 47
0.0
 47
0.0
 47
0.0008202099737533
 47
0.0
 47
0.0
 47
0.0
 47
0.0
 47
1.0
 47
0.0
 47
0.0
 47
0.0
 47
0.0
 47
1.0
171
     0
 49
0.0008202099737533
 49
0.0
 49
0.0
 49
0.0
 49
0.0
 49
0.0008202099737533
 49
0.0
 49
0.0
 49
0.0
 49
0.0
 49
1.0
 49
0.0
 49
0.0
 49
0.0
 49
0.0
 49
1.0
175
     0
142
0.0008202099737533
142
0.0
142
0.0
142
0.0
142
0.0
142
0.0008202099737533
142
0.0
142
0.0
142
0.0
142
0.0
142
1.0
142
0.0
142
0.0
142
0.0
142
0.0
142
1.0
179
     0
144
0.0008202099737533
144
0.0
144
0.0
144
0.0
144
0.0
144
0.0008202099737533
144
0.0
144
0.0
144
0.0
144
0.0
144
1.0
144
0.0
144
0.0
144
0.0
144
0.0
144
1.0
147
0.0008202099737533
147
0.0
147
0.0
147
0.0
147
0.0
147
0.0008202099737533
147
0.0
147
0.0
147
0.0
147
0.0
147
1.0
147
0.0
147
0.0
147
0.0
147
0.0
147
1.0
  0
MLEADERSTYLE
  5
934D1
102
{ACAD_XDICTIONARY
360
941B7
102
}
102
{ACAD_REACTORS
330
934D0
102
}
330
934D0
100
AcDbMLeaderStyle
170
     2
171
     1
172
     0
 90
        2
 40
0.0
 41
0.0
173
     1
 91
-1056964608
340
14
 92
       -2
290
     1
 42
2.0
291
     1
 43
0.36
  3
Standard
 44
4.0
300

342
11
174
     1
178
     6
175
     1
176
     0
 93
-1056964608
 45
4.0
292
     0
297
     0
 46
4.0
 94
-1056964608
 47
1.0
 49
1.0
140
1.0
293
     1
141
0.0
294
     1
177
     0
142
1.0
295
     0
296
     0
143
0.125
1001
ACAD_MLEADERVER
1070
     2
  0
MLINESTYLE
  5
18
102
{ACAD_REACTORS
330
17
102
}
330
17
100
AcDbMlineStyle
  2
STANDARD
 70
     0
  3

 62
   256
 51
90.0
 52
90.0
 71
     2
 49
0.5
 62
   256
  6
BYLAYER
 49
-0.5
 62
   256
  6
BYLAYER
  0
ACDBPLACEHOLDER
  5
F
102
{ACAD_REACTORS
330
E
102
}
330
E
  0
SCALE
  5
934BF
102
{ACAD_REACTORS
330
934BE
102
}
330
934BE
100
AcDbScale
 70
     0
300
1:1
140
1.0
141
1.0
290
     1
  0
SCALE
  5
934C0
102
{ACAD_REACTORS
330
934BE
102
}
330
934BE
100
AcDbScale
 70
     0
300
1:2
140
1.0
141
2.0
290
     0
  0
SCALE
  5
934C1
102
{ACAD_REACTORS
330
934BE
102
}
330
934BE
100
AcDbScale
 70
     0
300
1:4
140
1.0
141
4.0
290
     0
  0
SCALE
  5
934C2
102
{ACAD_REACTORS
330
934BE
102
}
330
934BE
100
AcDbScale
 70
     0
300
1:5
140
1.0
141
5.0
290
     0
  0
SCALE
  5
934C3
102
{ACAD_REACTORS
330
934BE
102
}
330
934BE
100
AcDbScale
 70
     0
300
1:8
140
1.0
141
8.0
290
     0
  0
SCALE
  5
934C4
102
{ACAD_REACTORS
330
934BE
102
}
330
934BE
100
AcDbScale
 70
     0
300
1:10
140
1.0
141
10.0
290
     0
  0
SCALE
  5
934C5
102
{ACAD_REACTORS
330
934BE
102
}
330
934BE
100
AcDbScale
 70
     0
300
1:16
140
1.0
141
16.0
290
     0
  0
SCALE
  5
934C6
102
{ACAD_REACTORS
330
934BE
102
}
330
934BE
100
AcDbScale
 70
     0
300
1:20
140
1.0
141
20.0
290
     0
  0
SCALE
  5
934C7
102
{ACAD_REACTORS
330
934BE
102
}
330
934BE
100
AcDbScale
 70
     0
300
1:30
140
1.0
141
30.0
290
     0
  0
SCALE
  5
934C8
102
{ACAD_REACTORS
330
934BE
102
}
330
934BE
100
AcDbScale
 70
     0
300
1:40
140
1.0
141
40.0
290
     0
  0
SCALE
  5
934C9
102
{ACAD_REACTORS
330
934BE
102
}
330
934BE
100
AcDbScale
 70
     0
300
1:50
140
1.0
141
50.0
290
     0
  0
SCALE
  5
934CA
102
{ACAD_REACTORS
330
934BE
102
}
330
934BE
100
AcDbScale
 70
     0
300
1:100
140
1.0
141
100.0
290
     0
  0
SCALE
  5
934CB
102
{ACAD_REACTORS
330
934BE
102
}
330
934BE
100
AcDbScale
 70
     0
300
2:1
140
2.0
141
1.0
290
     0
  0
SCALE
  5
934CC
102
{ACAD_REACTORS
330
934BE
102
}
330
934BE
100
AcDbScale
 70
     0
300
4:1
140
4.0
141
1.0
290
     0
  0
SCALE
  5
934CD
102
{ACAD_REACTORS
330
934BE
102
}
330
934BE
100
AcDbScale
 70
     0
300
8:1
140
8.0
141
1.0
290
     0
  0
SCALE
  5
934CE
102
{ACAD_REACTORS
330
934BE
102
}
330
934BE
100
AcDbScale
 70
     0
300
10:1
140
10.0
141
1.0
290
     0
  0
SCALE
  5
934CF
102
{ACAD_REACTORS
330
934BE
102
}
330
934BE
100
AcDbScale
 70
     0
300
100:1
140
100.0
141
1.0
290
     0
  0
ACDBSECTIONVIEWSTYLE
  5
93627
102
{ACAD_XDICTIONARY
360
941BD
102
}
102
{ACAD_REACTORS
330
934D2
102
}
330
934D2
100
AcDbModelDocViewStyle
 70
     0
  3
Imperial24
290
     0
100
AcDbSectionViewStyle
 70
     0
 71
     0
 90
       78
 71
     1
340
11
 40
0.24
340
0
340
0
 40
0.24
300
I, O, Q, S, X, Z
 40
0.48
 90
        3
 40
0.18
 90
        1
 71
     2
340
16
 90
       25
340
16
 90
       50
 40
0.24
 40
0.0
 40
0.24
 71
     3
340
11
 40
0.24
 90
        1
 40
0.75
 90
        1
300
%<\AcVar ViewType \f "%tc1">% %<\AcVar ViewSectionStartId>%-%<\AcVar ViewSectionEndId>%\PSCALE %<\AcVar ViewScale \f "%sn">%
 71
     4
300
ANSI31
 40
1.0
 90
        0
290
     0
290
     0
 90
        6
 40
0.0
 40
1.570796326794896
 40
0.2617993877991494
 40
1.308996938995747
 40
-0.2617993877991494
 40
1.832595714594046
  0
ACDBSECTIONVIEWSTYLE
  5
934D3
102
{ACAD_XDICTIONARY
360
941B9
102
}
102
{ACAD_REACTORS
330
934D2
102
}
330
934D2
100
AcDbModelDocViewStyle
 70
     0
  3
Metric50
290
     0
100
AcDbSectionViewStyle
 70
     0
 71
     0
 90
      102
 71
     1
340
11
 40
5.0
340
0
340
0
 40
5.0
300
I, O, Q, S, X, Z
 40
10.0
 90
        0
 40
2.5
 90
        0
 71
     2
340
16
 90
       25
340
16
 90
       50
 40
5.0
 40
2.5
 40
5.0
 71
     3
340
11
 40
5.0
 90
        0
 40
15.0
 90
        1
300
%<\AcVar ViewSectionStartId>%-%<\AcVar ViewSectionEndId>% (%<\AcVar ViewScale \f "%sn">%)
 71
     4
300
ANSI31
 40
1.0
 90
        0
290
     0
290
     0
 90
        6
 40
0.0
 40
1.570796326794896
 40
0.2617993877991494
 40
1.308996938995747
 40
-0.2617993877991494
 40
1.832595714594046
  0
TABLESTYLE
  5
7F
102
{ACAD_XDICTIONARY
360
94170
102
}
102
{ACAD_REACTORS
330
7E
102
}
330
7E
100
AcDbTableStyle
  3
Standard
 70
     0
 71
     0
 40
1.5
 41
1.5
280
     0
281
     0
  7
Standard
140
4.5
170
     2
 62
     0
 63
     7
283
     0
274
    -2
284
     1
 64
     0
275
    -2
285
     1
 65
     0
276
    -2
286
     1
 66
     0
277
    -2
287
     1
 67
     0
278
    -2
288
     1
 68
     0
279
    -2
289
     1
 69
     0
  7
Standard
140
6.0
170
     5
 62
     0
 63
     7
283
     0
274
    -2
284
     1
 64
     0
275
    -2
285
     1
 65
     0
276
    -2
286
     1
 66
     0
277
    -2
287
     1
 67
     0
278
    -2
288
     1
 68
     0
279
    -2
289
     1
 69
     0
  7
Standard
140
4.5
170
     5
 62
     0
 63
     7
283
     0
274
    -2
284
     1
 64
     0
275
    -2
285
     1
 65
     0
276
    -2
286
     1
 66
     0
277
    -2
287
     1
 67
     0
278
    -2
288
     1
 68
     0
279
    -2
289
     1
 69
     0
  0
VISUALSTYLE
  5
934AB
102
{ACAD_XDICTIONARY
360
94190
102
}
102
{ACAD_REACTORS
330
934A5
102
}
330
934A5
100
AcDbVisualStyle
  2
2dWireframe
 70
     4
 71
     0
 72
     2
 73
     0
 90
        0
 40
-0.6
 41
-30.0
 62
     5
 63
     7
 74
     1
 91
        4
 64
     7
 65
   257
 75
     1
175
     1
 42
1.0
 92
        0
 66
   257
 43
1.0
 76
     1
 77
     6
 78
     2
 67
     7
 79
     5
170
     0
171
     0
290
     0
174
     0
 93
        1
 44
0.0
173
     0
291
     0
 45
0.0
1001
ACAD
1000
AcDbSavedByObjectVersion
1070
     0
  0
VISUALSTYLE
  5
934AA
102
{ACAD_XDICTIONARY
360
9418E
102
}
102
{ACAD_REACTORS
330
934A5
102
}
330
934A5
100
AcDbVisualStyle
  2
Basic
 70
     7
 71
     1
 72
     0
 73
     1
 90
        0
 40
-0.6
 41
-30.0
 62
     5
 63
     7
 74
     0
 91
        4
 64
     7
 65
   257
 75
     1
175
     1
 42
1.0
 92
        8
 66
     7
 43
1.0
 76
     1
 77
     6
 78
     2
 67
     7
 79
     5
170
     0
171
     0
290
     0
174
     0
 93
        1
 44
0.0
173
     0
291
     1
 45
0.0
1001
ACAD
1000
AcDbSavedByObjectVersion
1070
     0
  0
VISUALSTYLE
  5
934B1
102
{ACAD_XDICTIONARY
360
9419C
102
}
102
{ACAD_REACTORS
330
934A5
102
}
330
934A5
100
AcDbVisualStyle
  2
Brighten
 70
    12
 71
     2
 72
     2
 73
     0
 90
        0
 40
-0.6
 41
-30.0
 62
     5
 63
     7
 74
     1
 91
        4
 64
     7
 65
   257
 75
     1
175
     1
 42
1.0
 92
        8
 66
     7
 43
1.0
 76
     1
 77
     6
 78
     2
 67
     7
 79
     5
170
     0
171
     0
290
     0
174
     0
 93
        1
 44
50.0
173
     0
291
     1
 45
0.0
1001
ACAD
1000
AcDbSavedByObjectVersion
1070
     0
  0
VISUALSTYLE
  5
934B5
102
{ACAD_XDICTIONARY
360
941A4
102
}
102
{ACAD_REACTORS
330
934A5
102
}
330
934A5
100
AcDbVisualStyle
  2
ColorChange
 70
    16
 71
     2
 72
     2
 73
     3
 90
        0
 40
-0.6
 41
-30.0
 62
     5
 63
     8
 74
     1
 91
        4
 64
     7
 65
   257
 75
     1
175
     1
 42
1.0
 92
        8
 66
     8
 43
1.0
 76
     1
 77
     6
 78
     2
 67
     7
 79
     5
170
     0
171
     0
290
     0
174
     0
 93
        1
 44
0.0
173
     0
291
     1
 45
0.0
1001
ACAD
1000
AcDbSavedByObjectVersion
1070
     0
  0
VISUALSTYLE
  5
934AE
102
{ACAD_XDICTIONARY
360
94196
102
}
102
{ACAD_REACTORS
330
934A5
102
}
330
934A5
100
AcDbVisualStyle
  2
Conceptual
 70
     9
 71
     3
 72
     2
 73
     0
 90
        0
 40
-0.6
 41
-30.0
 62
     5
 63
     7
 74
     2
 91
        2
 64
     7
 65
   257
 75
     1
175
     1
 42
179.0
 92
        8
 66
     7
 43
1.0
 76
     1
 77
     6
 78
     2
 67
     7
 79
     3
170
     0
171
     0
290
     0
174
     0
 93
        1
 44
0.0
173
     0
291
     0
 45
0.0
1001
ACAD
1000
AcDbSavedByObjectVersion
1070
     0
  0
VISUALSTYLE
  5
934B0
102
{ACAD_XDICTIONARY
360
9419A
102
}
102
{ACAD_REACTORS
330
934A5
102
}
330
934A5
100
AcDbVisualStyle
  2
Dim
 70
    11
 71
     2
 72
     2
 73
     0
 90
        0
 40
-0.6
 41
-30.0
 62
     5
 63
     7
 74
     1
 91
        4
 64
     7
 65
   257
 75
     1
175
     1
 42
1.0
 92
        8
 66
     7
 43
1.0
 76
     1
 77
     6
 78
     2
 67
     7
 79
     5
170
     0
171
     0
290
     0
174
     0
 93
        1
 44
-50.0
173
     0
291
     1
 45
0.0
1001
ACAD
1000
AcDbSavedByObjectVersion
1070
     0
  0
VISUALSTYLE
  5
934BD
102
{ACAD_XDICTIONARY
360
941B4
102
}
102
{ACAD_REACTORS
330
934A5
102
}
330
934A5
100
AcDbVisualStyle
  2
EdgeColorOff
 70
    22
 71
     2
 72
     2
 73
     0
 90
        0
 40
-0.6
 41
-30.0
 62
     5
 63
     7
 74
     1
 91
        4
 64
     7
 65
   257
 75
     1
175
     1
 42
1.0
 92
        8
 66
     7
 43
1.0
 76
     1
 77
     6
 78
     2
 67
     7
 79
     5
170
     0
171
     0
290
     0
174
     0
 93
        1
 44
0.0
173
     0
291
     1
 45
0.0
1001
ACAD
1000
AcDbSavedByObjectVersion
1070
     0
  0
VISUALSTYLE
  5
934B4
102
{ACAD_XDICTIONARY
360
941A2
102
}
102
{ACAD_REACTORS
330
934A5
102
}
330
934A5
100
AcDbVisualStyle
  2
Facepattern
 70
    15
 71
     2
 72
     2
 73
     0
 90
        0
 40
-0.6
 41
-30.0
 62
     5
 63
     7
 74
     1
 91
        4
 64
     7
 65
   257
 75
     1
175
     1
 42
1.0
 92
        8
 66
     7
 43
1.0
 76
     1
 77
     6
 78
     2
 67
     7
 79
     5
170
     0
171
     0
290
     0
174
     0
 93
        1
 44
0.0
173
     0
291
     1
 45
0.0
1001
ACAD
1000
AcDbSavedByObjectVersion
1070
     0
  0
VISUALSTYLE
  5
934A6
102
{ACAD_XDICTIONARY
360
94186
102
}
102
{ACAD_REACTORS
330
934A5
102
}
330
934A5
100
AcDbVisualStyle
  2
Flat
 70
     0
 71
     2
 72
     1
 73
     1
 90
        2
 40
-0.6
 41
30.0
 62
     5
 63
     7
 74
     0
 91
        0
 64
     7
 65
   257
 75
     1
175
     1
 42
1.0
 92
        8
 66
     7
 43
1.0
 76
     1
 77
     6
 78
     2
 67
     7
 79
     5
170
     0
171
     0
290
     0
174
     0
 93
       13
 44
0.0
173
     0
291
     1
 45
0.0
1001
ACAD
1000
AcDbSavedByObjectVersion
1070
     0
  0
VISUALSTYLE
  5
934A7
102
{ACAD_XDICTIONARY
360
94188
102
}
102
{ACAD_REACTORS
330
934A5
102
}
330
934A5
100
AcDbVisualStyle
  2
FlatWithEdges
 70
     1
 71
     2
 72
     1
 73
     1
 90
        2
 40
-0.6
 41
30.0
 62
     5
 63
     7
 74
     1
 91
        0
 64
     7
 65
   257
 75
     1
175
     1
 42
1.0
 92
        0
 66
   257
 43
1.0
 76
     1
 77
     6
 78
     2
 67
     7
 79
     5
170
     0
171
     0
290
     0
174
     0
 93
       13
 44
0.0
173
     0
291
     1
 45
0.0
1001
ACAD
1000
AcDbSavedByObjectVersion
1070
     0
  0
VISUALSTYLE
  5
934A8
102
{ACAD_XDICTIONARY
360
9418A
102
}
102
{ACAD_REACTORS
330
934A5
102
}
330
934A5
100
AcDbVisualStyle
  2
Gouraud
 70
     2
 71
     2
 72
     2
 73
     1
 90
        2
 40
-0.6
 41
30.0
 62
     5
 63
     7
 74
     0
 91
        0
 64
     7
 65
   257
 75
     1
175
     1
 42
1.0
 92
        0
 66
     7
 43
1.0
 76
     1
 77
     6
 78
     2
 67
     7
 79
     5
170
     0
171
     0
290
     0
174
     0
 93
       13
 44
0.0
173
     0
291
     1
 45
0.0
1001
ACAD
1000
AcDbSavedByObjectVersion
1070
     0
  0
VISUALSTYLE
  5
934A9
102
{ACAD_XDICTIONARY
360
9418C
102
}
102
{ACAD_REACTORS
330
934A5
102
}
330
934A5
100
AcDbVisualStyle
  2
GouraudWithEdges
 70
     3
 71
     2
 72
     2
 73
     1
 90
        2
 40
-0.6
 41
30.0
 62
     5
 63
     7
 74
     1
 91
        0
 64
     7
 65
   257
 75
     1
175
     1
 42
1.0
 92
        0
 66
   257
 43
1.0
 76
     1
 77
     6
 78
     2
 67
     7
 79
     5
170
     0
171
     0
290
     0
174
     0
 93
       13
 44
0.0
173
     0
291
     1
 45
0.0
1001
ACAD
1000
AcDbSavedByObjectVersion
1070
     0
  0
VISUALSTYLE
  5
934AD
102
{ACAD_XDICTIONARY
360
94194
102
}
102
{ACAD_REACTORS
330
934A5
102
}
330
934A5
100
AcDbVisualStyle
  2
Hidden
 70
     6
 71
     1
 72
     2
 73
     2
 90
        0
 40
-0.6
 41
-30.0
 62
     5
 63
     7
 74
     2
 91
        2
 64
     7
 65
   257
 75
     2
175
     1
 42
40.0
 92
        0
 66
   257
 43
1.0
 76
     1
 77
     6
 78
     2
 67
     7
 79
     3
170
     0
171
     0
290
     0
174
     0
 93
        1
 44
0.0
173
     0
291
     0
 45
0.0
1001
ACAD
1000
AcDbSavedByObjectVersion
1070
     0
  0
VISUALSTYLE
  5
934BB
102
{ACAD_XDICTIONARY
360
941B0
102
}
102
{ACAD_REACTORS
330
934A5
102
}
330
934A5
100
AcDbVisualStyle
  2
JitterOff
 70
    20
 71
     2
 72
     2
 73
     0
 90
        0
 40
-0.6
 41
-30.0
 62
     5
 63
     7
 74
     1
 91
        4
 64
     7
 65
   257
 75
     1
175
     1
 42
1.0
 92
       10
 66
     7
 43
1.0
 76
     1
 77
     6
 78
     2
 67
     7
 79
     5
170
     0
171
     0
290
     0
174
     0
 93
        1
 44
0.0
173
     0
291
     1
 45
0.0
1001
ACAD
1000
AcDbSavedByObjectVersion
1070
     0
  0
VISUALSTYLE
  5
934B3
102
{ACAD_XDICTIONARY
360
941A0
102
}
102
{ACAD_REACTORS
330
934A5
102
}
330
934A5
100
AcDbVisualStyle
  2
Linepattern
 70
    14
 71
     2
 72
     2
 73
     0
 90
        0
 40
-0.6
 41
-30.0
 62
     5
 63
     7
 74
     1
 91
        4
 64
     7
 65
   257
 75
     7
175
     7
 42
1.0
 92
        8
 66
     7
 43
1.0
 76
     1
 77
     6
 78
     2
 67
     7
 79
     5
170
     0
171
     0
290
     0
174
     0
 93
        1
 44
0.0
173
     0
291
     1
 45
0.0
1001
ACAD
1000
AcDbSavedByObjectVersion
1070
     0
  0
VISUALSTYLE
  5
934BC
102
{ACAD_XDICTIONARY
360
941B2
102
}
102
{ACAD_REACTORS
330
934A5
102
}
330
934A5
100
AcDbVisualStyle
  2
OverhangOff
 70
    21
 71
     2
 72
     2
 73
     0
 90
        0
 40
-0.6
 41
-30.0
 62
     5
 63
     7
 74
     1
 91
        4
 64
     7
 65
   257
 75
     1
175
     1
 42
1.0
 92
        9
 66
     7
 43
1.0
 76
     1
 77
     6
 78
     2
 67
     7
 79
     5
170
     0
171
     0
290
     0
174
     0
 93
        1
 44
0.0
173
     0
291
     1
 45
0.0
1001
ACAD
1000
AcDbSavedByObjectVersion
1070
     0
  0
VISUALSTYLE
  5
934AF
102
{ACAD_XDICTIONARY
360
94198
102
}
102
{ACAD_REACTORS
330
934A5
102
}
330
934A5
100
AcDbVisualStyle
  2
Realistic
 70
     8
 71
     2
 72
     3
 73
     0
 90
        2
 40
-0.6
 41
30.0
 62
     5
 63
     7
 74
     0
 91
        0
 64
     7
 65
   257
 75
     1
175
     1
 42
1.0
 92
        8
 66
   257
 43
1.0
 76
     1
 77
     6
 78
     2
 67
     7
 79
     3
170
     0
171
     0
290
     0
174
     0
 93
       13
 44
0.0
173
     0
291
     0
 45
0.0
1001
ACAD
1000
AcDbSavedByObjectVersion
1070
     0
  0
VISUALSTYLE
  5
934BA
102
{ACAD_XDICTIONARY
360
941AE
102
}
102
{ACAD_REACTORS
330
934A5
102
}
330
934A5
100
AcDbVisualStyle
  2
Shaded
 70
    27
 71
     2
 72
     2
 73
     1
 90
        2
 40
-0.6
 41
30.0
 62
     5
 63
     7
 74
     0
 91
        4
 64
     7
 65
   257
 75
     1
175
     1
 42
1.0
 92
        8
 66
   257
 43
1.0
 76
     1
 77
     6
 78
     2
 67
     8
 79
     3
170
     0
171
     0
290
     0
174
     0
 93
        5
 44
0.0
173
     0
291
     0
 45
0.0
1001
ACAD
1000
AcDbSavedByObjectVersion
1070
     0
  0
VISUALSTYLE
  5
934B9
102
{ACAD_XDICTIONARY
360
941AC
102
}
102
{ACAD_REACTORS
330
934A5
102
}
330
934A5
100
AcDbVisualStyle
  2
Shaded with edges
 70
    26
 71
     2
 72
     2
 73
     1
 90
        2
 40
-0.6
 41
30.0
 62
     5
 63
     7
 74
     1
 91
        2
 64
     7
 65
   257
 75
     2
175
     1
 42
1.0
 92
        8
 66
   257
 43
1.0
 76
     1
 77
     6
 78
     2
 67
     7
 79
     3
170
     0
171
     0
290
     0
174
     0
 93
        5
 44
0.0
173
     0
291
     0
 45
0.0
1001
ACAD
1000
AcDbSavedByObjectVersion
1070
     0
  0
VISUALSTYLE
  5
934B6
102
{ACAD_XDICTIONARY
360
941A6
102
}
102
{ACAD_REACTORS
330
934A5
102
}
330
934A5
100
AcDbVisualStyle
  2
Shades of Gray
 70
    23
 71
     2
 72
     2
 73
     3
 90
        0
 40
-0.6
 41
-30.0
 62
     5
 63
     7
 74
     2
 91
        2
 64
     7
 65
     7
 75
     1
175
     1
 42
40.0
 92
        8
 66
     7
 43
1.0
 76
     1
 77
     6
 78
     2
 67
     7
 79
     3
170
     0
171
     0
290
     0
174
     0
 93
        1
 44
0.0
173
     0
291
     0
 45
0.0
1001
ACAD
1000
AcDbSavedByObjectVersion
1070
     0
  0
VISUALSTYLE
  5
934B7
102
{ACAD_XDICTIONARY
360
941A8
102
}
102
{ACAD_REACTORS
330
934A5
102
}
330
934A5
100
AcDbVisualStyle
  2
Sketchy
 70
    24
 71
     1
 72
     2
 73
     2
 90
        0
 40
-0.6
 41
-30.0
 62
     5
 63
     7
 74
     2
 91
        2
 64
     7
 65
     7
 75
     1
175
     1
 42
40.0
 92
       11
 66
     7
 43
1.0
 76
     1
 77
     6
 78
     2
 67
     7
 79
     6
170
     0
171
     0
290
     0
174
     0
 93
        1
 44
0.0
173
     0
291
     0
 45
0.0
1001
ACAD
1000
AcDbSavedByObjectVersion
1070
     0
  0
VISUALSTYLE
  5
934B2
102
{ACAD_XDICTIONARY
360
9419E
102
}
102
{ACAD_REACTORS
330
934A5
102
}
330
934A5
100
AcDbVisualStyle
  2
Thicken
 70
    13
 71
     2
 72
     2
 73
     0
 90
        0
 40
-0.6
 41
-30.0
 62
     5
 63
     7
 74
     1
 91
        4
 64
     7
 65
   257
 75
     1
175
     1
 42
1.0
 92
       12
 66
     7
 43
1.0
 76
     1
 77
     6
 78
     2
 67
     7
 79
     5
170
     0
171
     0
290
     0
174
     0
 93
        1
 44
0.0
173
     0
291
     1
 45
0.0
1001
ACAD
1000
AcDbSavedByObjectVersion
1070
     0
  0
VISUALSTYLE
  5
934AC
102
{ACAD_XDICTIONARY
360
94192
102
}
102
{ACAD_REACTORS
330
934A5
102
}
330
934A5
100
AcDbVisualStyle
  2
Wireframe
 70
     5
 71
     0
 72
     2
 73
     0
 90
        0
 40
-0.6
 41
-30.0
 62
     5
 63
     7
 74
     1
 91
        4
 64
     7
 65
   257
 75
     1
175
     1
 42
1.0
 92
        0
 66
   257
 43
1.0
 76
     1
 77
     6
 78
     2
 67
     7
 79
     3
170
     0
171
     0
290
     0
174
     0
 93
        1
 44
0.0
173
     0
291
     0
 45
0.0
1001
ACAD
1000
AcDbSavedByObjectVersion
1070
     0
  0
VISUALSTYLE
  5
934B8
102
{ACAD_XDICTIONARY
360
941AA
102
}
102
{ACAD_REACTORS
330
934A5
102
}
330
934A5
100
AcDbVisualStyle
  2
X-Ray
 70
    25
 71
     2
 72
     2
 73
     1
 90
        1
 40
0.5
 41
-30.0
 62
     5
 63
     7
 74
     1
 91
        0
 64
     7
 65
   257
 75
     1
175
     1
 42
1.0
 92
        8
 66
     7
 43
1.0
 76
     1
 77
     6
 78
     2
 67
     7
 79
     3
170
     0
171
     0
290
     0
174
     0
 93
       13
 44
0.0
173
     0
291
     0
 45
0.0
1001
ACAD
1000
AcDbSavedByObjectVersion
1070
     0
  0
DICTIONARYVAR
  5
9350C
102
{ACAD_REACTORS
330
5E
102
}
330
5E
100
DictionaryVariables
280
     0
  1
1:1
  0
DICTIONARYVAR
  5
93508
102
{ACAD_REACTORS
330
5E
102
}
330
5E
100
DictionaryVariables
280
     0
  1
STANDARD
  0
DICTIONARYVAR
  5
84
102
{ACAD_REACTORS
330
5E
102
}
330
5E
100
DictionaryVariables
280
     0
  1
STANDARD
  0
DICTIONARYVAR
  5
93509
102
{ACAD_REACTORS
330
5E
102
}
330
5E
100
DictionaryVariables
280
     0
  1
Metric50
  0
DICTIONARYVAR
  5
9350A
102
{ACAD_REACTORS
330
5E
102
}
330
5E
100
DictionaryVariables
280
     0
  1
Metric50
  0
DICTIONARYVAR
  5
5F
102
{ACAD_REACTORS
330
5E
102
}
330
5E
100
DictionaryVariables
280
     0
  1
2
  0
DICTIONARYVAR
  5
63
102
{ACAD_REACTORS
330
5E
102
}
330
5E
100
DictionaryVariables
280
     0
  1
1
  0
DICTIONARYVAR
  5
9416E
102
{ACAD_REACTORS
330
5E
102
}
330
5E
100
DictionaryVariables
280
     0
  1
0
  0
DICTIONARYVAR
  5
9350E
102
{ACAD_REACTORS
330
5E
102
}
330
5E
100
DictionaryVariables
280
     0
  1
1
  0
DICTIONARYVAR
  5
9350F
102
{ACAD_REACTORS
330
5E
102
}
330
5E
100
DictionaryVariables
280
     0
  1
15
  0
DICTIONARYVAR
  5
9350D
102
{ACAD_REACTORS
330
5E
102
}
330
5E
100
DictionaryVariables
280
     0
  1
0
  0
DICTIONARYVAR
  5
9350B
102
{ACAD_REACTORS
330
5E
102
}
330
5E
100
DictionaryVariables
280
     0
  1
0
  0
DICTIONARYVAR
  5
173CC
102
{ACAD_REACTORS
330
5E
102
}
330
5E
100
DictionaryVariables
280
     0
  1

  0
DICTIONARYVAR
  5
9416D
102
{ACAD_REACTORS
330
5E
102
}
330
5E
100
DictionaryVariables
280
     0
  1
127
  0
DICTIONARYVAR
  5
9416F
102
{ACAD_REACTORS
330
5E
102
}
330
5E
100
DictionaryVariables
280
     0
  1
0
  0
DICTIONARY
  5
9417B
102
{ACAD_REACTORS
330
94179
102
}
330
94179
100
AcDbDictionary
281
     1
  0
DICTIONARY
  5
9417A
102
{ACAD_REACTORS
330
94179
102
}
330
94179
100
AcDbDictionary
281
     1
  3
3011883063360
350
94174
  3
3011883063376
350
94175
  3
3011883063392
350
94176
  3
3011883063408
350
94177
  3
3011883063424
350
94178
  0
DICTIONARY
  5
941BF
330
93628
100
AcDbDictionary
280
     1
281
     1
  3
ACAD_XREC_ROUNDTRIP
360
941C0
  0
DICTIONARY
  5
941BB
330
934D5
100
AcDbDictionary
280
     1
281
     1
  3
ACAD_XREC_ROUNDTRIP
360
941BC
  0
DICTIONARY
  5
9417C
330
22
100
AcDbDictionary
280
     1
281
     1
  3
ACAD_XREC_ROUNDTRIP
360
9417D
  0
DICTIONARY
  5
9417F
330
D3
100
AcDbDictionary
280
     1
281
     1
  3
ACAD_XREC_ROUNDTRIP
360
94180
  0
DICTIONARY
  5
94181
330
D7
100
AcDbDictionary
280
     1
281
     1
  3
ACAD_XREC_ROUNDTRIP
360
94182
  0
DICTIONARY
  5
93496
330
93495
100
AcDbDictionary
280
     1
281
     1
  3
ACAD_XREC_ROUNDTRIP
360
94184
  3
BUMPTILE
360
93498
  3
DIFFUSETILE
360
93497
  3
OPACITYTILE
360
9349B
  3
REFLECTIONTILE
360
9349A
  3
REFRACTIONTILE
360
9349C
  3
SPECULARTILE
360
93499
  0
DICTIONARY
  5
9348E
330
9348D
100
AcDbDictionary
280
     1
281
     1
  3
ACAD_XREC_ROUNDTRIP
360
94183
  3
BUMPTILE
360
93490
  3
DIFFUSETILE
360
9348F
  3
OPACITYTILE
360
93493
  3
REFLECTIONTILE
360
93492
  3
REFRACTIONTILE
360
93494
  3
SPECULARTILE
360
93491
  0
DICTIONARY
  5
9349E
330
9349D
100
AcDbDictionary
280
     1
281
     1
  3
ACAD_XREC_ROUNDTRIP
360
94185
  3
BUMPTILE
360
934A0
  3
DIFFUSETILE
360
9349F
  3
OPACITYTILE
360
934A3
  3
REFLECTIONTILE
360
934A2
  3
REFRACTIONTILE
360
934A4
  3
SPECULARTILE
360
934A1
  0
DICTIONARY
  5
941B7
330
934D1
100
AcDbDictionary
280
     1
281
     1
  3
ACAD_XREC_ROUNDTRIP
360
941B8
  0
DICTIONARY
  5
941BD
330
93627
100
AcDbDictionary
280
     1
281
     1
  3
ACAD_XREC_ROUNDTRIP
360
941BE
  0
DICTIONARY
  5
941B9
330
934D3
100
AcDbDictionary
280
     1
281
     1
  3
ACAD_XREC_ROUNDTRIP
360
941BA
  0
DICTIONARY
  5
94170
330
7F
100
AcDbDictionary
280
     1
281
     1
  3
ACAD_ROUNDTRIP_2008_TABLESTYLE_CELLSTYLEMAP
360
94171
  3
ACAD_XREC_ROUNDTRIP
360
9417E
  0
DICTIONARY
  5
94190
330
934AB
100
AcDbDictionary
280
     1
281
     1
  3
ACAD_XREC_ROUNDTRIP
360
94191
  0
DICTIONARY
  5
9418E
330
934AA
100
AcDbDictionary
280
     1
281
     1
  3
ACAD_XREC_ROUNDTRIP
360
9418F
  0
DICTIONARY
  5
9419C
330
934B1
100
AcDbDictionary
280
     1
281
     1
  3
ACAD_XREC_ROUNDTRIP
360
9419D
  0
DICTIONARY
  5
941A4
330
934B5
100
AcDbDictionary
280
     1
281
     1
  3
ACAD_XREC_ROUNDTRIP
360
941A5
  0
DICTIONARY
  5
94196
330
934AE
100
AcDbDictionary
280
     1
281
     1
  3
ACAD_XREC_ROUNDTRIP
360
94197
  0
DICTIONARY
  5
9419A
330
934B0
100
AcDbDictionary
280
     1
281
     1
  3
ACAD_XREC_ROUNDTRIP
360
9419B
  0
DICTIONARY
  5
941B4
330
934BD
100
AcDbDictionary
280
     1
281
     1
  3
ACAD_XREC_ROUNDTRIP
360
941B5
  0
DICTIONARY
  5
941A2
330
934B4
100
AcDbDictionary
280
     1
281
     1
  3
ACAD_XREC_ROUNDTRIP
360
941A3
  0
DICTIONARY
  5
94186
330
934A6
100
AcDbDictionary
280
     1
281
     1
  3
ACAD_XREC_ROUNDTRIP
360
94187
  0
DICTIONARY
  5
94188
330
934A7
100
AcDbDictionary
280
     1
281
     1
  3
ACAD_XREC_ROUNDTRIP
360
94189
  0
DICTIONARY
  5
9418A
330
934A8
100
AcDbDictionary
280
     1
281
     1
  3
ACAD_XREC_ROUNDTRIP
360
9418B
  0
DICTIONARY
  5
9418C
330
934A9
100
AcDbDictionary
280
     1
281
     1
  3
ACAD_XREC_ROUNDTRIP
360
9418D
  0
DICTIONARY
  5
94194
330
934AD
100
AcDbDictionary
280
     1
281
     1
  3
ACAD_XREC_ROUNDTRIP
360
94195
  0
DICTIONARY
  5
941B0
330
934BB
100
AcDbDictionary
280
     1
281
     1
  3
ACAD_XREC_ROUNDTRIP
360
941B1
  0
DICTIONARY
  5
941A0
330
934B3
100
AcDbDictionary
280
     1
281
     1
  3
ACAD_XREC_ROUNDTRIP
360
941A1
  0
DICTIONARY
  5
941B2
330
934BC
100
AcDbDictionary
280
     1
281
     1
  3
ACAD_XREC_ROUNDTRIP
360
941B3
  0
DICTIONARY
  5
94198
330
934AF
100
AcDbDictionary
280
     1
281
     1
  3
ACAD_XREC_ROUNDTRIP
360
94199
  0
DICTIONARY
  5
941AE
330
934BA
100
AcDbDictionary
280
     1
281
     1
  3
ACAD_XREC_ROUNDTRIP
360
941AF
  0
DICTIONARY
  5
941AC
330
934B9
100
AcDbDictionary
280
     1
281
     1
  3
ACAD_XREC_ROUNDTRIP
360
941AD
  0
DICTIONARY
  5
941A6
330
934B6
100
AcDbDictionary
280
     1
281
     1
  3
ACAD_XREC_ROUNDTRIP
360
941A7
  0
DICTIONARY
  5
941A8
330
934B7
100
AcDbDictionary
280
     1
281
     1
  3
ACAD_XREC_ROUNDTRIP
360
941A9
  0
DICTIONARY
  5
9419E
330
934B2
100
AcDbDictionary
280
     1
281
     1
  3
ACAD_XREC_ROUNDTRIP
360
9419F
  0
DICTIONARY
  5
94192
330
934AC
100
AcDbDictionary
280
     1
281
     1
  3
ACAD_XREC_ROUNDTRIP
360
94193
  0
DICTIONARY
  5
941AA
330
934B8
100
AcDbDictionary
280
     1
281
     1
  3
ACAD_XREC_ROUNDTRIP
360
941AB
  0
XRECORD
  5
94174
102
{ACAD_REACTORS
330
9417A
102
}
330
9417A
100
AcDbXrecord
280
     1
  1
AcDb_Thumbnail_Schema
102
{ATTRRECORD
341
94175
  2
AcDbDs::TreatedAsObjectData
280
     1
291
     1
102
ATTRRECORD}
102
{ATTRRECORD
341
94176
  2
AcDbDs::Legacy
280
     1
291
     1
102
ATTRRECORD}
  2
AcDbDs::ID
280
    10
 91
        8
102
{ATTRRECORD
341
94177
  2
AcDs:Indexable
280
     1
291
     1
102
ATTRRECORD}
102
{ATTRRECORD
341
94178
  2
AcDbDs::HandleAttribute
280
     7
282
     1
102
ATTRRECORD}
  2
Thumbnail_Data
280
    15
 91
        0
  0
XRECORD
  5
94175
102
{ACAD_REACTORS
330
9417A
102
}
330
9417A
100
AcDbXrecord
280
     1
  1
AcDbDs::TreatedAsObjectDataSchema
  2
AcDbDs::TreatedAsObjectData
280
     1
 91
        0
  0
XRECORD
  5
94176
102
{ACAD_REACTORS
330
9417A
102
}
330
9417A
100
AcDbXrecord
280
     1
  1
AcDbDs::LegacySchema
  2
AcDbDs::Legacy
280
     1
 91
        0
  0
XRECORD
  5
94177
102
{ACAD_REACTORS
330
9417A
102
}
330
9417A
100
AcDbXrecord
280
     1
  1
AcDbDs::IndexedPropertySchema
  2
AcDs:Indexable
280
     1
 91
        0
  0
XRECORD
  5
94178
102
{ACAD_REACTORS
330
9417A
102
}
330
9417A
100
AcDbXrecord
280
     1
  1
AcDbDs::HandleAttributeSchema
  2
AcDbDs::HandleAttribute
280
     7
 91
        1
284
     1
  0
XRECORD
  5
941C0
102
{ACAD_REACTORS
330
941BF
102
}
330
941BF
100
AcDbXrecord
280
     1
102
DISPLAYNAME
  1
Imperial24
102
FLAGS
 90
        0
  0
XRECORD
  5
941BC
102
{ACAD_REACTORS
330
941BB
102
}
330
941BB
100
AcDbXrecord
280
     1
102
DISPLAYNAME
  1
Metric50
102
FLAGS
 90
        0
  0
XRECORD
  5
9417D
102
{ACAD_REACTORS
330
9417C
102
}
330
9417C
100
AcDbXrecord
280
     1
102
SHADEPLOT
 70
     0
102
SHADEPLOTRESLEVEL
 70
     2
102
SHADEPLOTCUSTOMDPI
 70
   300
  0
XRECORD
  5
94180
102
{ACAD_REACTORS
330
9417F
102
}
330
9417F
100
AcDbXrecord
280
     1
102
SHADEPLOT
 70
     0
102
SHADEPLOTRESLEVEL
 70
     2
102
SHADEPLOTCUSTOMDPI
 70
   300
  0
XRECORD
  5
94182
102
{ACAD_REACTORS
330
94181
102
}
330
94181
100
AcDbXrecord
280
     1
102
SHADEPLOT
 70
     0
102
SHADEPLOTRESLEVEL
 70
     2
102
SHADEPLOTCUSTOMDPI
 70
   300
  0
XRECORD
  5
94184
102
{ACAD_REACTORS
330
93496
102
}
330
93496
100
AcDbXrecord
280
     1
102
MATERIAL
148
0.0
149
0.0
149
0.0
 93
        0
 94
      127
282
     0
 72
     0
 77
     0
171
     0
175
     0
179
     0
273
     0
  0
XRECORD
  5
93498
102
{ACAD_REACTORS
330
93496
102
}
330
93496
100
AcDbXrecord
280
     1
270
     1
271
     1
  0
XRECORD
  5
93497
102
{ACAD_REACTORS
330
93496
102
}
330
93496
100
AcDbXrecord
280
     1
270
     1
271
     1
  0
XRECORD
  5
9349B
102
{ACAD_REACTORS
330
93496
102
}
330
93496
100
AcDbXrecord
280
     1
270
     1
271
     1
  0
XRECORD
  5
9349A
102
{ACAD_REACTORS
330
93496
102
}
330
93496
100
AcDbXrecord
280
     1
270
     1
271
     1
  0
XRECORD
  5
9349C
102
{ACAD_REACTORS
330
93496
102
}
330
93496
100
AcDbXrecord
280
     1
270
     1
271
     1
  0
XRECORD
  5
93499
102
{ACAD_REACTORS
330
93496
102
}
330
93496
100
AcDbXrecord
280
     1
270
     1
271
     1
  0
XRECORD
  5
94183
102
{ACAD_REACTORS
330
9348E
102
}
330
9348E
100
AcDbXrecord
280
     1
102
MATERIAL
148
0.0
149
0.0
149
0.0
 93
        0
 94
      127
282
     0
 72
     0
 77
     0
171
     0
175
     0
179
     0
273
     0
  0
XRECORD
  5
93490
102
{ACAD_REACTORS
330
9348E
102
}
330
9348E
100
AcDbXrecord
280
     1
270
     1
271
     1
  0
XRECORD
  5
9348F
102
{ACAD_REACTORS
330
9348E
102
}
330
9348E
100
AcDbXrecord
280
     1
270
     1
271
     1
  0
XRECORD
  5
93493
102
{ACAD_REACTORS
330
9348E
102
}
330
9348E
100
AcDbXrecord
280
     1
270
     1
271
     1
  0
XRECORD
  5
93492
102
{ACAD_REACTORS
330
9348E
102
}
330
9348E
100
AcDbXrecord
280
     1
270
     1
271
     1
  0
XRECORD
  5
93494
102
{ACAD_REACTORS
330
9348E
102
}
330
9348E
100
AcDbXrecord
280
     1
270
     1
271
     1
  0
XRECORD
  5
93491
102
{ACAD_REACTORS
330
9348E
102
}
330
9348E
100
AcDbXrecord
280
     1
270
     1
271
     1
  0
XRECORD
  5
94185
102
{ACAD_REACTORS
330
9349E
102
}
330
9349E
100
AcDbXrecord
280
     1
102
MATERIAL
148
0.0
149
0.0
149
0.0
 93
        0
 94
      127
282
     0
 72
     0
 77
     0
171
     0
175
     0
179
     0
273
     0
  0
XRECORD
  5
934A0
102
{ACAD_REACTORS
330
9349E
102
}
330
9349E
100
AcDbXrecord
280
     1
270
     1
271
     1
  0
XRECORD
  5
9349F
102
{ACAD_REACTORS
330
9349E
102
}
330
9349E
100
AcDbXrecord
280
     1
270
     1
271
     1
  0
XRECORD
  5
934A3
102
{ACAD_REACTORS
330
9349E
102
}
330
9349E
100
AcDbXrecord
280
     1
270
     1
271
     1
  0
XRECORD
  5
934A2
102
{ACAD_REACTORS
330
9349E
102
}
330
9349E
100
AcDbXrecord
280
     1
270
     1
271
     1
  0
XRECORD
  5
934A4
102
{ACAD_REACTORS
330
9349E
102
}
330
9349E
100
AcDbXrecord
280
     1
270
     1
271
     1
  0
XRECORD
  5
934A1
102
{ACAD_REACTORS
330
9349E
102
}
330
9349E
100
AcDbXrecord
280
     1
270
     1
271
     1
  0
XRECORD
  5
941B8
102
{ACAD_REACTORS
330
941B7
102
}
330
941B7
100
AcDbXrecord
280
     1
102
ACAD_ROUNDTRIP_2012_MLEADER_STYLE
298
     1
  0
XRECORD
  5
941BE
102
{ACAD_REACTORS
330
941BD
102
}
330
941BD
100
AcDbXrecord
280
     1
102
DISPLAYNAME
  1
Imperial24
102
FLAGS
 90
        0
  0
XRECORD
  5
941BA
102
{ACAD_REACTORS
330
941B9
102
}
330
941B9
100
AcDbXrecord
280
     1
102
DISPLAYNAME
  1
Metric50
102
FLAGS
 90
        0
  0
CELLSTYLEMAP
  5
94171
102
{ACAD_REACTORS
330
94170
102
}
330
94170
100
AcDbCellStyleMap
 90
        3
300
CELLSTYLE
  1
TABLEFORMAT_BEGIN
 90
        5
170
     1
 91
        0
 92
    32768
 62
   257
 93
        1
300
CONTENTFORMAT
  1
CONTENTFORMAT_BEGIN
 90
        0
 91
        0
 92
        4
 93
        0
300

 40
0.0
140
1.0
 94
        5
 62
     0
340
11
144
6.0
309
CONTENTFORMAT_END
171
     1
301
MARGIN
  1
CELLMARGIN_BEGIN
 40
1.5
 40
1.5
 40
1.5
 40
1.5
 40
0.18
 40
0.18
309
CELLMARGIN_END
 94
        6
 95
        1
302
GRIDFORMAT
  1
GRIDFORMAT_BEGIN
 90
        0
 91
        1
 62
     0
 92
       -2
340
0
 93
        0
 40
0.045
309
GRIDFORMAT_END
 95
        2
302
GRIDFORMAT
  1
GRIDFORMAT_BEGIN
 90
        0
 91
        1
 62
     0
 92
       -2
340
0
 93
        0
 40
0.045
309
GRIDFORMAT_END
 95
        4
302
GRIDFORMAT
  1
GRIDFORMAT_BEGIN
 90
        0
 91
        1
 62
     0
 92
       -2
340
0
 93
        0
 40
0.045
309
GRIDFORMAT_END
 95
        8
302
GRIDFORMAT
  1
GRIDFORMAT_BEGIN
 90
        0
 91
        1
 62
     0
 92
       -2
340
0
 93
        0
 40
0.045
309
GRIDFORMAT_END
 95
       16
302
GRIDFORMAT
  1
GRIDFORMAT_BEGIN
 90
        0
 91
        1
 62
     0
 92
       -2
340
0
 93
        0
 40
0.045
309
GRIDFORMAT_END
 95
       32
302
GRIDFORMAT
  1
GRIDFORMAT_BEGIN
 90
        0
 91
        1
 62
     0
 92
       -2
340
0
 93
        0
 40
0.045
309
GRIDFORMAT_END
309
TABLEFORMAT_END
  1
CELLSTYLE_BEGIN
 90
        1
 91
        1
300
_TITLE
309
CELLSTYLE_END
300
CELLSTYLE
  1
TABLEFORMAT_BEGIN
 90
        5
170
     1
 91
        0
 92
        0
 62
   257
 93
        1
300
CONTENTFORMAT
  1
CONTENTFORMAT_BEGIN
 90
        0
 91
        0
 92
        4
 93
        0
300

 40
0.0
140
1.0
 94
        5
 62
     0
340
11
144
4.5
309
CONTENTFORMAT_END
171
     1
301
MARGIN
  1
CELLMARGIN_BEGIN
 40
1.5
 40
1.5
 40
1.5
 40
1.5
 40
0.18
 40
0.18
309
CELLMARGIN_END
 94
        6
 95
        1
302
GRIDFORMAT
  1
GRIDFORMAT_BEGIN
 90
        0
 91
        1
 62
     0
 92
       -2
340
0
 93
        0
 40
0.045
309
GRIDFORMAT_END
 95
        2
302
GRIDFORMAT
  1
GRIDFORMAT_BEGIN
 90
        0
 91
        1
 62
     0
 92
       -2
340
0
 93
        0
 40
0.045
309
GRIDFORMAT_END
 95
        4
302
GRIDFORMAT
  1
GRIDFORMAT_BEGIN
 90
        0
 91
        1
 62
     0
 92
       -2
340
0
 93
        0
 40
0.045
309
GRIDFORMAT_END
 95
        8
302
GRIDFORMAT
  1
GRIDFORMAT_BEGIN
 90
        0
 91
        1
 62
     0
 92
       -2
340
0
 93
        0
 40
0.045
309
GRIDFORMAT_END
 95
       16
302
GRIDFORMAT
  1
GRIDFORMAT_BEGIN
 90
        0
 91
        1
 62
     0
 92
       -2
340
0
 93
        0
 40
0.045
309
GRIDFORMAT_END
 95
       32
302
GRIDFORMAT
  1
GRIDFORMAT_BEGIN
 90
        0
 91
        1
 62
     0
 92
       -2
340
0
 93
        0
 40
0.045
309
GRIDFORMAT_END
309
TABLEFORMAT_END
  1
CELLSTYLE_BEGIN
 90
        2
 91
        1
300
_HEADER
309
CELLSTYLE_END
300
CELLSTYLE
  1
TABLEFORMAT_BEGIN
 90
        5
170
     1
 91
        0
 92
        0
 62
   257
 93
        1
300
CONTENTFORMAT
  1
CONTENTFORMAT_BEGIN
 90
        0
 91
        0
 92
        4
 93
        0
300

 40
0.0
140
1.0
 94
        2
 62
     0
340
11
144
4.5
309
CONTENTFORMAT_END
171
     1
301
MARGIN
  1
CELLMARGIN_BEGIN
 40
1.5
 40
1.5
 40
1.5
 40
1.5
 40
0.18
 40
0.18
309
CELLMARGIN_END
 94
        6
 95
        1
302
GRIDFORMAT
  1
GRIDFORMAT_BEGIN
 90
        0
 91
        1
 62
     0
 92
       -2
340
0
 93
        0
 40
0.045
309
GRIDFORMAT_END
 95
        2
302
GRIDFORMAT
  1
GRIDFORMAT_BEGIN
 90
        0
 91
        1
 62
     0
 92
       -2
340
0
 93
        0
 40
0.045
309
GRIDFORMAT_END
 95
        4
302
GRIDFORMAT
  1
GRIDFORMAT_BEGIN
 90
        0
 91
        1
 62
     0
 92
       -2
340
0
 93
        0
 40
0.045
309
GRIDFORMAT_END
 95
        8
302
GRIDFORMAT
  1
GRIDFORMAT_BEGIN
 90
        0
 91
        1
 62
     0
 92
       -2
340
0
 93
        0
 40
0.045
309
GRIDFORMAT_END
 95
       16
302
GRIDFORMAT
  1
GRIDFORMAT_BEGIN
 90
        0
 91
        1
 62
     0
 92
       -2
340
0
 93
        0
 40
0.045
309
GRIDFORMAT_END
 95
       32
302
GRIDFORMAT
  1
GRIDFORMAT_BEGIN
 90
        0
 91
        1
 62
     0
 92
       -2
340
0
 93
        0
 40
0.045
309
GRIDFORMAT_END
309
TABLEFORMAT_END
  1
CELLSTYLE_BEGIN
 90
        3
 91
        2
300
_DATA
309
CELLSTYLE_END
  0
XRECORD
  5
9417E
102
{ACAD_REACTORS
330
94170
102
}
330
94170
100
AcDbXrecord
280
     1
102
ACAD_ROUNDTRIP_PRE2007_TABLESTYLE
 90
        4
 91
        0
  1

 92
        4
 93
        0
  2

 94
        4
 95
        0
  3

  0
XRECORD
  5
94191
102
{ACAD_REACTORS
330
94190
102
}
330
94190
100
AcDbXrecord
280
     1
102
RTVSPost2010Prop28
280
     1
102
RTVSPost2010PropOp28
 70
     1
102
RTVSPost2010Prop29
280
     1
102
RTVSPost2010PropOp29
 70
     1
102
RTVSPost2010Prop30
280
     0
102
RTVSPost2010PropOp30
 70
     1
102
RTVSPost2010Prop31
280
     0
102
RTVSPost2010PropOp31
 70
     1
102
RTVSPost2010Prop32
280
     0
102
RTVSPost2010PropOp32
 70
     1
102
RTVSPost2010Prop33
280
     0
102
RTVSPost2010PropOp33
 70
     1
102
RTVSPost2010Prop34
280
     0
102
RTVSPost2010PropOp34
 70
     1
102
RTVSPost2010Prop35
280
     0
102
RTVSPost2010PropOp35
 70
     1
102
RTVSPost2010Prop36
280
     0
102
RTVSPost2010PropOp36
 70
     1
102
RTVSPost2010Prop37
 90
       50
102
RTVSPost2010PropOp37
 70
     1
102
RTVSPost2010Prop38
140
0.0
102
RTVSPost2010PropOp38
 70
     1
102
RTVSPost2010Prop39
140
1.0
102
RTVSPost2010PropOp39
 70
     1
102
RTVSPost2010Prop40
 90
        0
102
RTVSPost2010PropOp40
 70
     1
102
RTVSPost2010Prop41ColorIndex
 90
       18
102
RTVSPost2010Prop41ColorRGB
 90
        0
102
RTVSPost2010PropOp41
 70
     1
102
RTVSPost2010Prop42
 90
       50
102
RTVSPost2010PropOp42
 70
     1
102
RTVSPost2010Prop43
 90
        3
102
RTVSPost2010PropOp43
 70
     1
102
RTVSPost2010Prop44ColorIndex
 90
        5
102
RTVSPost2010Prop44ColorRGB
 90
      255
102
RTVSPost2010PropOp44
 70
     1
102
RTVSPost2010Prop45
280
     0
102
RTVSPost2010PropOp45
 70
     1
102
RTVSPost2010Prop46
 90
       50
102
RTVSPost2010PropOp46
 70
     1
102
RTVSPost2010Prop47
 90
       50
102
RTVSPost2010PropOp47
 70
     1
102
RTVSPost2010Prop48
 90
       50
102
RTVSPost2010PropOp48
 70
     1
102
RTVSPost2010Prop49
280
     0
102
RTVSPost2010PropOp49
 70
     1
102
RTVSPost2010Prop50
 90
       50
102
RTVSPost2010PropOp50
 70
     1
102
RTVSPost2010Prop51ColorIndex
 90
      256
102
RTVSPost2010Prop51ColorRGB
 90
-16777216
102
RTVSPost2010PropOp51
 70
     0
102
RTVSPost2010Prop52
140
1.0
102
RTVSPost2010PropOp52
 70
     0
102
RTVSPost2010Prop53
 90
        2
102
RTVSPost2010PropOp53
 70
     1
102
RTVSPost2010Prop54
  1
strokes_ogs.tif
102
RTVSPost2010PropOp54
 70
     1
102
RTVSPost2010Prop55
280
     0
102
RTVSPost2010PropOp55
 70
     1
102
RTVSPost2010Prop56
140
1.0
102
RTVSPost2010PropOp56
 70
     1
102
RTVSPost2010Prop57
140
1.0
102
RTVSPost2010PropOp57
 70
     1
102
RTVSPropertyOp0
 70
     1
102
RTVSPropertyOp1
 70
     1
102
RTVSPropertyOp2
 70
     1
102
RTVSPropertyOp3
 70
     1
102
RTVSPropertyOp4
 70
     1
102
RTVSPropertyOp5
 70
     1
102
RTVSPropertyOp6
 70
     1
102
RTVSPropertyOp7
 70
     1
102
RTVSPropertyOp8
 70
     1
102
RTVSPropertyOp9
 70
     1
102
RTVSPropertyOp10
 70
     1
102
RTVSPropertyOp11
 70
     1
102
RTVSPropertyOp12
 70
     1
102
RTVSPropertyOp13
 70
     1
102
RTVSPropertyOp14
 70
     1
102
RTVSPropertyOp15
 70
     1
102
RTVSPropertyOp16
 70
     1
102
RTVSPropertyOp17
 70
     1
102
RTVSPropertyOp18
 70
     1
102
RTVSPropertyOp19
 70
     1
102
RTVSPropertyOp20
 70
     1
102
RTVSPropertyOp21
 70
     1
102
RTVSPropertyOp22
 70
     1
102
RTVSPropertyOp23
 70
     1
102
RTVSPropertyOp24
 70
     1
102
RTVSPropertyOp25
 70
     1
102
RTVSPropertyOp26
 70
     1
102
RTVSPropertyOp27
 70
     1
102
RTVSPropertyOp28
 70
     1
102
RTVSPropertyOp29
 70
     1
102
RTVSPropertyOp30
 70
     1
102
RTVSPropertyOp31
 70
     1
102
RTVSPropertyOp32
 70
     1
102
RTVSPropertyOp33
 70
     1
102
RTVSPropertyOp34
 70
     1
102
RTVSPropertyOp35
 70
     1
102
RTVSPropertyOp36
 70
     1
102
RTVSPropertyOp37
 70
     1
102
RTVSPropertyOp38
 70
     1
102
RTVSPropertyOp39
 70
     1
102
RTVSPropertyOp40
 70
     1
102
RTVSPropertyOp41
 70
     1
102
RTVSPropertyOp42
 70
     1
102
RTVSPropertyOp43
 70
     1
102
RTVSPropertyOp44
 70
     1
102
RTVSPropertyOp45
 70
     1
102
RTVSPropertyOp46
 70
     1
102
RTVSPropertyOp47
 70
     1
102
RTVSPropertyOp48
 70
     1
102
RTVSPropertyOp49
 70
     1
102
RTVSPropertyOp50
 70
     1
102
RTVSPropertyOp51
 70
     0
102
RTVSPropertyOp52
 70
     0
102
RTVSPropertyOp53
 70
     1
102
RTVSPropertyOp54
 70
     1
102
RTVSPropertyOp55
 70
     1
102
RTVSPropertyOp56
 70
     1
102
RTVSPropertyOp57
 70
     1
102
RTVSPropertyOp58
 70
     1
102
RTVSPropertyOp59
 70
     1
102
RTVSPropertyOp60
 70
     1
102
RTVSPropertyOp61
 70
     1
102
RTVSPropertyOp62
 70
     1
  0
XRECORD
  5
9418F
102
{ACAD_REACTORS
330
9418E
102
}
330
9418E
100
AcDbXrecord
280
     1
102
RTVSPost2010Prop28
280
     0
102
RTVSPost2010PropOp28
 70
     1
102
RTVSPost2010Prop29
280
     1
102
RTVSPost2010PropOp29
 70
     1
102
RTVSPost2010Prop30
280
     1
102
RTVSPost2010PropOp30
 70
     1
102
RTVSPost2010Prop31
280
     0
102
RTVSPost2010PropOp31
 70
     1
102
RTVSPost2010Prop32
280
     0
102
RTVSPost2010PropOp32
 70
     1
102
RTVSPost2010Prop33
280
     0
102
RTVSPost2010PropOp33
 70
     1
102
RTVSPost2010Prop34
280
     0
102
RTVSPost2010PropOp34
 70
     1
102
RTVSPost2010Prop35
280
     0
102
RTVSPost2010PropOp35
 70
     1
102
RTVSPost2010Prop36
280
     0
102
RTVSPost2010PropOp36
 70
     1
102
RTVSPost2010Prop37
 90
       50
102
RTVSPost2010PropOp37
 70
     1
102
RTVSPost2010Prop38
140
0.0
102
RTVSPost2010PropOp38
 70
     1
102
RTVSPost2010Prop39
140
1.0
102
RTVSPost2010PropOp39
 70
     1
102
RTVSPost2010Prop40
 90
        0
102
RTVSPost2010PropOp40
 70
     1
102
RTVSPost2010Prop41ColorIndex
 90
       18
102
RTVSPost2010Prop41ColorRGB
 90
        0
102
RTVSPost2010PropOp41
 70
     1
102
RTVSPost2010Prop42
 90
       50
102
RTVSPost2010PropOp42
 70
     1
102
RTVSPost2010Prop43
 90
        3
102
RTVSPost2010PropOp43
 70
     1
102
RTVSPost2010Prop44ColorIndex
 90
        5
102
RTVSPost2010Prop44ColorRGB
 90
      255
102
RTVSPost2010PropOp44
 70
     1
102
RTVSPost2010Prop45
280
     0
102
RTVSPost2010PropOp45
 70
     1
102
RTVSPost2010Prop46
 90
       50
102
RTVSPost2010PropOp46
 70
     1
102
RTVSPost2010Prop47
 90
       50
102
RTVSPost2010PropOp47
 70
     1
102
RTVSPost2010Prop48
 90
       50
102
RTVSPost2010PropOp48
 70
     1
102
RTVSPost2010Prop49
280
     0
102
RTVSPost2010PropOp49
 70
     1
102
RTVSPost2010Prop50
 90
       50
102
RTVSPost2010PropOp50
 70
     1
102
RTVSPost2010Prop51ColorIndex
 90
      256
102
RTVSPost2010Prop51ColorRGB
 90
-16777216
102
RTVSPost2010PropOp51
 70
     0
102
RTVSPost2010Prop52
140
1.0
102
RTVSPost2010PropOp52
 70
     0
102
RTVSPost2010Prop53
 90
        2
102
RTVSPost2010PropOp53
 70
     1
102
RTVSPost2010Prop54
  1
strokes_ogs.tif
102
RTVSPost2010PropOp54
 70
     1
102
RTVSPost2010Prop55
280
     0
102
RTVSPost2010PropOp55
 70
     1
102
RTVSPost2010Prop56
140
1.0
102
RTVSPost2010PropOp56
 70
     1
102
RTVSPost2010Prop57
140
1.0
102
RTVSPost2010PropOp57
 70
     1
102
RTVSPropertyOp0
 70
     1
102
RTVSPropertyOp1
 70
     1
102
RTVSPropertyOp2
 70
     1
102
RTVSPropertyOp3
 70
     1
102
RTVSPropertyOp4
 70
     1
102
RTVSPropertyOp5
 70
     1
102
RTVSPropertyOp6
 70
     1
102
RTVSPropertyOp7
 70
     1
102
RTVSPropertyOp8
 70
     1
102
RTVSPropertyOp9
 70
     1
102
RTVSPropertyOp10
 70
     1
102
RTVSPropertyOp11
 70
     1
102
RTVSPropertyOp12
 70
     1
102
RTVSPropertyOp13
 70
     1
102
RTVSPropertyOp14
 70
     1
102
RTVSPropertyOp15
 70
     1
102
RTVSPropertyOp16
 70
     1
102
RTVSPropertyOp17
 70
     1
102
RTVSPropertyOp18
 70
     1
102
RTVSPropertyOp19
 70
     1
102
RTVSPropertyOp20
 70
     1
102
RTVSPropertyOp21
 70
     1
102
RTVSPropertyOp22
 70
     1
102
RTVSPropertyOp23
 70
     1
102
RTVSPropertyOp24
 70
     1
102
RTVSPropertyOp25
 70
     1
102
RTVSPropertyOp26
 70
     1
102
RTVSPropertyOp27
 70
     1
102
RTVSPropertyOp28
 70
     1
102
RTVSPropertyOp29
 70
     1
102
RTVSPropertyOp30
 70
     1
102
RTVSPropertyOp31
 70
     1
102
RTVSPropertyOp32
 70
     1
102
RTVSPropertyOp33
 70
     1
102
RTVSPropertyOp34
 70
     1
102
RTVSPropertyOp35
 70
     1
102
RTVSPropertyOp36
 70
     1
102
RTVSPropertyOp37
 70
     1
102
RTVSPropertyOp38
 70
     1
102
RTVSPropertyOp39
 70
     1
102
RTVSPropertyOp40
 70
     1
102
RTVSPropertyOp41
 70
     1
102
RTVSPropertyOp42
 70
     1
102
RTVSPropertyOp43
 70
     1
102
RTVSPropertyOp44
 70
     1
102
RTVSPropertyOp45
 70
     1
102
RTVSPropertyOp46
 70
     1
102
RTVSPropertyOp47
 70
     1
102
RTVSPropertyOp48
 70
     1
102
RTVSPropertyOp49
 70
     1
102
RTVSPropertyOp50
 70
     1
102
RTVSPropertyOp51
 70
     0
102
RTVSPropertyOp52
 70
     0
102
RTVSPropertyOp53
 70
     1
102
RTVSPropertyOp54
 70
     1
102
RTVSPropertyOp55
 70
     1
102
RTVSPropertyOp56
 70
     1
102
RTVSPropertyOp57
 70
     1
102
RTVSPropertyOp58
 70
     1
102
RTVSPropertyOp59
 70
     1
102
RTVSPropertyOp60
 70
     1
102
RTVSPropertyOp61
 70
     1
102
RTVSPropertyOp62
 70
     1
  0
XRECORD
  5
9419D
102
{ACAD_REACTORS
330
9419C
102
}
330
9419C
100
AcDbXrecord
280
     1
102
RTVSPost2010Prop28
280
     0
102
RTVSPost2010PropOp28
 70
     1
102
RTVSPost2010Prop29
280
     1
102
RTVSPost2010PropOp29
 70
     1
102
RTVSPost2010Prop30
280
     1
102
RTVSPost2010PropOp30
 70
     1
102
RTVSPost2010Prop31
280
     0
102
RTVSPost2010PropOp31
 70
     1
102
RTVSPost2010Prop32
280
     0
102
RTVSPost2010PropOp32
 70
     1
102
RTVSPost2010Prop33
280
     0
102
RTVSPost2010PropOp33
 70
     1
102
RTVSPost2010Prop34
280
     0
102
RTVSPost2010PropOp34
 70
     1
102
RTVSPost2010Prop35
280
     0
102
RTVSPost2010PropOp35
 70
     1
102
RTVSPost2010Prop36
280
     0
102
RTVSPost2010PropOp36
 70
     1
102
RTVSPost2010Prop37
 90
       50
102
RTVSPost2010PropOp37
 70
     1
102
RTVSPost2010Prop38
140
0.0
102
RTVSPost2010PropOp38
 70
     1
102
RTVSPost2010Prop39
140
1.0
102
RTVSPost2010PropOp39
 70
     1
102
RTVSPost2010Prop40
 90
        0
102
RTVSPost2010PropOp40
 70
     1
102
RTVSPost2010Prop41ColorIndex
 90
       18
102
RTVSPost2010Prop41ColorRGB
 90
        0
102
RTVSPost2010PropOp41
 70
     1
102
RTVSPost2010Prop42
 90
       50
102
RTVSPost2010PropOp42
 70
     1
102
RTVSPost2010Prop43
 90
        3
102
RTVSPost2010PropOp43
 70
     1
102
RTVSPost2010Prop44ColorIndex
 90
        5
102
RTVSPost2010Prop44ColorRGB
 90
      255
102
RTVSPost2010PropOp44
 70
     1
102
RTVSPost2010Prop45
280
     0
102
RTVSPost2010PropOp45
 70
     1
102
RTVSPost2010Prop46
 90
       50
102
RTVSPost2010PropOp46
 70
     1
102
RTVSPost2010Prop47
 90
       50
102
RTVSPost2010PropOp47
 70
     1
102
RTVSPost2010Prop48
 90
       50
102
RTVSPost2010PropOp48
 70
     1
102
RTVSPost2010Prop49
280
     0
102
RTVSPost2010PropOp49
 70
     1
102
RTVSPost2010Prop50
 90
       50
102
RTVSPost2010PropOp50
 70
     1
102
RTVSPost2010Prop51ColorIndex
 90
      256
102
RTVSPost2010Prop51ColorRGB
 90
-16777216
102
RTVSPost2010PropOp51
 70
     0
102
RTVSPost2010Prop52
140
1.0
102
RTVSPost2010PropOp52
 70
     0
102
RTVSPost2010Prop53
 90
        2
102
RTVSPost2010PropOp53
 70
     1
102
RTVSPost2010Prop54
  1
strokes_ogs.tif
102
RTVSPost2010PropOp54
 70
     1
102
RTVSPost2010Prop55
280
     0
102
RTVSPost2010PropOp55
 70
     1
102
RTVSPost2010Prop56
140
1.0
102
RTVSPost2010PropOp56
 70
     1
102
RTVSPost2010Prop57
140
1.0
102
RTVSPost2010PropOp57
 70
     1
102
RTVSPropertyOp0
 70
     1
102
RTVSPropertyOp1
 70
     1
102
RTVSPropertyOp2
 70
     1
102
RTVSPropertyOp3
 70
     1
102
RTVSPropertyOp4
 70
     1
102
RTVSPropertyOp5
 70
     1
102
RTVSPropertyOp6
 70
     1
102
RTVSPropertyOp7
 70
     1
102
RTVSPropertyOp8
 70
     1
102
RTVSPropertyOp9
 70
     1
102
RTVSPropertyOp10
 70
     1
102
RTVSPropertyOp11
 70
     1
102
RTVSPropertyOp12
 70
     1
102
RTVSPropertyOp13
 70
     1
102
RTVSPropertyOp14
 70
     1
102
RTVSPropertyOp15
 70
     1
102
RTVSPropertyOp16
 70
     1
102
RTVSPropertyOp17
 70
     1
102
RTVSPropertyOp18
 70
     1
102
RTVSPropertyOp19
 70
     1
102
RTVSPropertyOp20
 70
     1
102
RTVSPropertyOp21
 70
     1
102
RTVSPropertyOp22
 70
     1
102
RTVSPropertyOp23
 70
     1
102
RTVSPropertyOp24
 70
     1
102
RTVSPropertyOp25
 70
     1
102
RTVSPropertyOp26
 70
     1
102
RTVSPropertyOp27
 70
     1
102
RTVSPropertyOp28
 70
     1
102
RTVSPropertyOp29
 70
     1
102
RTVSPropertyOp30
 70
     1
102
RTVSPropertyOp31
 70
     1
102
RTVSPropertyOp32
 70
     1
102
RTVSPropertyOp33
 70
     1
102
RTVSPropertyOp34
 70
     1
102
RTVSPropertyOp35
 70
     1
102
RTVSPropertyOp36
 70
     1
102
RTVSPropertyOp37
 70
     1
102
RTVSPropertyOp38
 70
     1
102
RTVSPropertyOp39
 70
     1
102
RTVSPropertyOp40
 70
     1
102
RTVSPropertyOp41
 70
     1
102
RTVSPropertyOp42
 70
     1
102
RTVSPropertyOp43
 70
     1
102
RTVSPropertyOp44
 70
     1
102
RTVSPropertyOp45
 70
     1
102
RTVSPropertyOp46
 70
     1
102
RTVSPropertyOp47
 70
     1
102
RTVSPropertyOp48
 70
     1
102
RTVSPropertyOp49
 70
     1
102
RTVSPropertyOp50
 70
     1
102
RTVSPropertyOp51
 70
     0
102
RTVSPropertyOp52
 70
     0
102
RTVSPropertyOp53
 70
     1
102
RTVSPropertyOp54
 70
     1
102
RTVSPropertyOp55
 70
     1
102
RTVSPropertyOp56
 70
     1
102
RTVSPropertyOp57
 70
     1
102
RTVSPropertyOp58
 70
     1
102
RTVSPropertyOp59
 70
     1
102
RTVSPropertyOp60
 70
     1
102
RTVSPropertyOp61
 70
     1
102
RTVSPropertyOp62
 70
     1
  0
XRECORD
  5
941A5
102
{ACAD_REACTORS
330
941A4
102
}
330
941A4
100
AcDbXrecord
280
     1
102
RTVSPost2010Prop28
280
     0
102
RTVSPost2010PropOp28
 70
     1
102
RTVSPost2010Prop29
280
     1
102
RTVSPost2010PropOp29
 70
     1
102
RTVSPost2010Prop30
280
     1
102
RTVSPost2010PropOp30
 70
     1
102
RTVSPost2010Prop31
280
     0
102
RTVSPost2010PropOp31
 70
     1
102
RTVSPost2010Prop32
280
     0
102
RTVSPost2010PropOp32
 70
     1
102
RTVSPost2010Prop33
280
     0
102
RTVSPost2010PropOp33
 70
     1
102
RTVSPost2010Prop34
280
     0
102
RTVSPost2010PropOp34
 70
     1
102
RTVSPost2010Prop35
280
     0
102
RTVSPost2010PropOp35
 70
     1
102
RTVSPost2010Prop36
280
     0
102
RTVSPost2010PropOp36
 70
     1
102
RTVSPost2010Prop37
 90
       50
102
RTVSPost2010PropOp37
 70
     1
102
RTVSPost2010Prop38
140
0.0
102
RTVSPost2010PropOp38
 70
     1
102
RTVSPost2010Prop39
140
1.0
102
RTVSPost2010PropOp39
 70
     1
102
RTVSPost2010Prop40
 90
        0
102
RTVSPost2010PropOp40
 70
     1
102
RTVSPost2010Prop41ColorIndex
 90
       18
102
RTVSPost2010Prop41ColorRGB
 90
        0
102
RTVSPost2010PropOp41
 70
     1
102
RTVSPost2010Prop42
 90
       50
102
RTVSPost2010PropOp42
 70
     1
102
RTVSPost2010Prop43
 90
        3
102
RTVSPost2010PropOp43
 70
     1
102
RTVSPost2010Prop44ColorIndex
 90
        5
102
RTVSPost2010Prop44ColorRGB
 90
      255
102
RTVSPost2010PropOp44
 70
     1
102
RTVSPost2010Prop45
280
     0
102
RTVSPost2010PropOp45
 70
     1
102
RTVSPost2010Prop46
 90
       50
102
RTVSPost2010PropOp46
 70
     1
102
RTVSPost2010Prop47
 90
       50
102
RTVSPost2010PropOp47
 70
     1
102
RTVSPost2010Prop48
 90
       50
102
RTVSPost2010PropOp48
 70
     1
102
RTVSPost2010Prop49
280
     0
102
RTVSPost2010PropOp49
 70
     1
102
RTVSPost2010Prop50
 90
       50
102
RTVSPost2010PropOp50
 70
     1
102
RTVSPost2010Prop51ColorIndex
 90
      256
102
RTVSPost2010Prop51ColorRGB
 90
-16777216
102
RTVSPost2010PropOp51
 70
     0
102
RTVSPost2010Prop52
140
1.0
102
RTVSPost2010PropOp52
 70
     0
102
RTVSPost2010Prop53
 90
        2
102
RTVSPost2010PropOp53
 70
     1
102
RTVSPost2010Prop54
  1
strokes_ogs.tif
102
RTVSPost2010PropOp54
 70
     1
102
RTVSPost2010Prop55
280
     0
102
RTVSPost2010PropOp55
 70
     1
102
RTVSPost2010Prop56
140
1.0
102
RTVSPost2010PropOp56
 70
     1
102
RTVSPost2010Prop57
140
1.0
102
RTVSPost2010PropOp57
 70
     1
102
RTVSPropertyOp0
 70
     1
102
RTVSPropertyOp1
 70
     1
102
RTVSPropertyOp2
 70
     1
102
RTVSPropertyOp3
 70
     1
102
RTVSPropertyOp4
 70
     1
102
RTVSPropertyOp5
 70
     1
102
RTVSPropertyOp6
 70
     1
102
RTVSPropertyOp7
 70
     1
102
RTVSPropertyOp8
 70
     1
102
RTVSPropertyOp9
 70
     1
102
RTVSPropertyOp10
 70
     1
102
RTVSPropertyOp11
 70
     1
102
RTVSPropertyOp12
 70
     1
102
RTVSPropertyOp13
 70
     1
102
RTVSPropertyOp14
 70
     1
102
RTVSPropertyOp15
 70
     1
102
RTVSPropertyOp16
 70
     1
102
RTVSPropertyOp17
 70
     1
102
RTVSPropertyOp18
 70
     1
102
RTVSPropertyOp19
 70
     1
102
RTVSPropertyOp20
 70
     1
102
RTVSPropertyOp21
 70
     1
102
RTVSPropertyOp22
 70
     1
102
RTVSPropertyOp23
 70
     1
102
RTVSPropertyOp24
 70
     1
102
RTVSPropertyOp25
 70
     1
102
RTVSPropertyOp26
 70
     1
102
RTVSPropertyOp27
 70
     1
102
RTVSPropertyOp28
 70
     1
102
RTVSPropertyOp29
 70
     1
102
RTVSPropertyOp30
 70
     1
102
RTVSPropertyOp31
 70
     1
102
RTVSPropertyOp32
 70
     1
102
RTVSPropertyOp33
 70
     1
102
RTVSPropertyOp34
 70
     1
102
RTVSPropertyOp35
 70
     1
102
RTVSPropertyOp36
 70
     1
102
RTVSPropertyOp37
 70
     1
102
RTVSPropertyOp38
 70
     1
102
RTVSPropertyOp39
 70
     1
102
RTVSPropertyOp40
 70
     1
102
RTVSPropertyOp41
 70
     1
102
RTVSPropertyOp42
 70
     1
102
RTVSPropertyOp43
 70
     1
102
RTVSPropertyOp44
 70
     1
102
RTVSPropertyOp45
 70
     1
102
RTVSPropertyOp46
 70
     1
102
RTVSPropertyOp47
 70
     1
102
RTVSPropertyOp48
 70
     1
102
RTVSPropertyOp49
 70
     1
102
RTVSPropertyOp50
 70
     1
102
RTVSPropertyOp51
 70
     0
102
RTVSPropertyOp52
 70
     0
102
RTVSPropertyOp53
 70
     1
102
RTVSPropertyOp54
 70
     1
102
RTVSPropertyOp55
 70
     1
102
RTVSPropertyOp56
 70
     1
102
RTVSPropertyOp57
 70
     1
102
RTVSPropertyOp58
 70
     1
102
RTVSPropertyOp59
 70
     1
102
RTVSPropertyOp60
 70
     1
102
RTVSPropertyOp61
 70
     1
102
RTVSPropertyOp62
 70
     1
  0
XRECORD
  5
94197
102
{ACAD_REACTORS
330
94196
102
}
330
94196
100
AcDbXrecord
280
     1
102
RTVSPost2010Prop28
280
     0
102
RTVSPost2010PropOp28
 70
     1
102
RTVSPost2010Prop29
280
     1
102
RTVSPost2010PropOp29
 70
     1
102
RTVSPost2010Prop30
280
     1
102
RTVSPost2010PropOp30
 70
     1
102
RTVSPost2010Prop31
280
     0
102
RTVSPost2010PropOp31
 70
     1
102
RTVSPost2010Prop32
280
     0
102
RTVSPost2010PropOp32
 70
     1
102
RTVSPost2010Prop33
280
     0
102
RTVSPost2010PropOp33
 70
     1
102
RTVSPost2010Prop34
280
     0
102
RTVSPost2010PropOp34
 70
     1
102
RTVSPost2010Prop35
280
     0
102
RTVSPost2010PropOp35
 70
     1
102
RTVSPost2010Prop36
280
     0
102
RTVSPost2010PropOp36
 70
     1
102
RTVSPost2010Prop37
 90
       50
102
RTVSPost2010PropOp37
 70
     1
102
RTVSPost2010Prop38
140
0.0
102
RTVSPost2010PropOp38
 70
     1
102
RTVSPost2010Prop39
140
1.0
102
RTVSPost2010PropOp39
 70
     1
102
RTVSPost2010Prop40
 90
        0
102
RTVSPost2010PropOp40
 70
     1
102
RTVSPost2010Prop41ColorIndex
 90
       18
102
RTVSPost2010Prop41ColorRGB
 90
        0
102
RTVSPost2010PropOp41
 70
     1
102
RTVSPost2010Prop42
 90
       50
102
RTVSPost2010PropOp42
 70
     1
102
RTVSPost2010Prop43
 90
        3
102
RTVSPost2010PropOp43
 70
     1
102
RTVSPost2010Prop44ColorIndex
 90
        5
102
RTVSPost2010Prop44ColorRGB
 90
      255
102
RTVSPost2010PropOp44
 70
     1
102
RTVSPost2010Prop45
280
     0
102
RTVSPost2010PropOp45
 70
     1
102
RTVSPost2010Prop46
 90
       50
102
RTVSPost2010PropOp46
 70
     1
102
RTVSPost2010Prop47
 90
       50
102
RTVSPost2010PropOp47
 70
     1
102
RTVSPost2010Prop48
 90
       50
102
RTVSPost2010PropOp48
 70
     1
102
RTVSPost2010Prop49
280
     0
102
RTVSPost2010PropOp49
 70
     1
102
RTVSPost2010Prop50
 90
       50
102
RTVSPost2010PropOp50
 70
     1
102
RTVSPost2010Prop51ColorIndex
 90
      256
102
RTVSPost2010Prop51ColorRGB
 90
-16777216
102
RTVSPost2010PropOp51
 70
     0
102
RTVSPost2010Prop52
140
1.0
102
RTVSPost2010PropOp52
 70
     0
102
RTVSPost2010Prop53
 90
        2
102
RTVSPost2010PropOp53
 70
     1
102
RTVSPost2010Prop54
  1
strokes_ogs.tif
102
RTVSPost2010PropOp54
 70
     1
102
RTVSPost2010Prop55
280
     0
102
RTVSPost2010PropOp55
 70
     1
102
RTVSPost2010Prop56
140
1.0
102
RTVSPost2010PropOp56
 70
     1
102
RTVSPost2010Prop57
140
1.0
102
RTVSPost2010PropOp57
 70
     1
102
RTVSPropertyOp0
 70
     1
102
RTVSPropertyOp1
 70
     1
102
RTVSPropertyOp2
 70
     1
102
RTVSPropertyOp3
 70
     1
102
RTVSPropertyOp4
 70
     1
102
RTVSPropertyOp5
 70
     1
102
RTVSPropertyOp6
 70
     1
102
RTVSPropertyOp7
 70
     1
102
RTVSPropertyOp8
 70
     1
102
RTVSPropertyOp9
 70
     1
102
RTVSPropertyOp10
 70
     1
102
RTVSPropertyOp11
 70
     1
102
RTVSPropertyOp12
 70
     1
102
RTVSPropertyOp13
 70
     1
102
RTVSPropertyOp14
 70
     1
102
RTVSPropertyOp15
 70
     1
102
RTVSPropertyOp16
 70
     1
102
RTVSPropertyOp17
 70
     1
102
RTVSPropertyOp18
 70
     1
102
RTVSPropertyOp19
 70
     1
102
RTVSPropertyOp20
 70
     1
102
RTVSPropertyOp21
 70
     1
102
RTVSPropertyOp22
 70
     1
102
RTVSPropertyOp23
 70
     1
102
RTVSPropertyOp24
 70
     1
102
RTVSPropertyOp25
 70
     1
102
RTVSPropertyOp26
 70
     1
102
RTVSPropertyOp27
 70
     1
102
RTVSPropertyOp28
 70
     1
102
RTVSPropertyOp29
 70
     1
102
RTVSPropertyOp30
 70
     1
102
RTVSPropertyOp31
 70
     1
102
RTVSPropertyOp32
 70
     1
102
RTVSPropertyOp33
 70
     1
102
RTVSPropertyOp34
 70
     1
102
RTVSPropertyOp35
 70
     1
102
RTVSPropertyOp36
 70
     1
102
RTVSPropertyOp37
 70
     1
102
RTVSPropertyOp38
 70
     1
102
RTVSPropertyOp39
 70
     1
102
RTVSPropertyOp40
 70
     1
102
RTVSPropertyOp41
 70
     1
102
RTVSPropertyOp42
 70
     1
102
RTVSPropertyOp43
 70
     1
102
RTVSPropertyOp44
 70
     1
102
RTVSPropertyOp45
 70
     1
102
RTVSPropertyOp46
 70
     1
102
RTVSPropertyOp47
 70
     1
102
RTVSPropertyOp48
 70
     1
102
RTVSPropertyOp49
 70
     1
102
RTVSPropertyOp50
 70
     1
102
RTVSPropertyOp51
 70
     0
102
RTVSPropertyOp52
 70
     0
102
RTVSPropertyOp53
 70
     1
102
RTVSPropertyOp54
 70
     1
102
RTVSPropertyOp55
 70
     1
102
RTVSPropertyOp56
 70
     1
102
RTVSPropertyOp57
 70
     1
102
RTVSPropertyOp58
 70
     1
102
RTVSPropertyOp59
 70
     1
102
RTVSPropertyOp60
 70
     1
102
RTVSPropertyOp61
 70
     1
102
RTVSPropertyOp62
 70
     1
  0
XRECORD
  5
9419B
102
{ACAD_REACTORS
330
9419A
102
}
330
9419A
100
AcDbXrecord
280
     1
102
RTVSPost2010Prop28
280
     0
102
RTVSPost2010PropOp28
 70
     1
102
RTVSPost2010Prop29
280
     1
102
RTVSPost2010PropOp29
 70
     1
102
RTVSPost2010Prop30
280
     1
102
RTVSPost2010PropOp30
 70
     1
102
RTVSPost2010Prop31
280
     0
102
RTVSPost2010PropOp31
 70
     1
102
RTVSPost2010Prop32
280
     0
102
RTVSPost2010PropOp32
 70
     1
102
RTVSPost2010Prop33
280
     0
102
RTVSPost2010PropOp33
 70
     1
102
RTVSPost2010Prop34
280
     0
102
RTVSPost2010PropOp34
 70
     1
102
RTVSPost2010Prop35
280
     0
102
RTVSPost2010PropOp35
 70
     1
102
RTVSPost2010Prop36
280
     0
102
RTVSPost2010PropOp36
 70
     1
102
RTVSPost2010Prop37
 90
       50
102
RTVSPost2010PropOp37
 70
     1
102
RTVSPost2010Prop38
140
0.0
102
RTVSPost2010PropOp38
 70
     1
102
RTVSPost2010Prop39
140
1.0
102
RTVSPost2010PropOp39
 70
     1
102
RTVSPost2010Prop40
 90
        0
102
RTVSPost2010PropOp40
 70
     1
102
RTVSPost2010Prop41ColorIndex
 90
       18
102
RTVSPost2010Prop41ColorRGB
 90
        0
102
RTVSPost2010PropOp41
 70
     1
102
RTVSPost2010Prop42
 90
       50
102
RTVSPost2010PropOp42
 70
     1
102
RTVSPost2010Prop43
 90
        3
102
RTVSPost2010PropOp43
 70
     1
102
RTVSPost2010Prop44ColorIndex
 90
        5
102
RTVSPost2010Prop44ColorRGB
 90
      255
102
RTVSPost2010PropOp44
 70
     1
102
RTVSPost2010Prop45
280
     0
102
RTVSPost2010PropOp45
 70
     1
102
RTVSPost2010Prop46
 90
       50
102
RTVSPost2010PropOp46
 70
     1
102
RTVSPost2010Prop47
 90
       50
102
RTVSPost2010PropOp47
 70
     1
102
RTVSPost2010Prop48
 90
       50
102
RTVSPost2010PropOp48
 70
     1
102
RTVSPost2010Prop49
280
     0
102
RTVSPost2010PropOp49
 70
     1
102
RTVSPost2010Prop50
 90
       50
102
RTVSPost2010PropOp50
 70
     1
102
RTVSPost2010Prop51ColorIndex
 90
      256
102
RTVSPost2010Prop51ColorRGB
 90
-16777216
102
RTVSPost2010PropOp51
 70
     0
102
RTVSPost2010Prop52
140
1.0
102
RTVSPost2010PropOp52
 70
     0
102
RTVSPost2010Prop53
 90
        2
102
RTVSPost2010PropOp53
 70
     1
102
RTVSPost2010Prop54
  1
strokes_ogs.tif
102
RTVSPost2010PropOp54
 70
     1
102
RTVSPost2010Prop55
280
     0
102
RTVSPost2010PropOp55
 70
     1
102
RTVSPost2010Prop56
140
1.0
102
RTVSPost2010PropOp56
 70
     1
102
RTVSPost2010Prop57
140
1.0
102
RTVSPost2010PropOp57
 70
     1
102
RTVSPropertyOp0
 70
     1
102
RTVSPropertyOp1
 70
     1
102
RTVSPropertyOp2
 70
     1
102
RTVSPropertyOp3
 70
     1
102
RTVSPropertyOp4
 70
     1
102
RTVSPropertyOp5
 70
     1
102
RTVSPropertyOp6
 70
     1
102
RTVSPropertyOp7
 70
     1
102
RTVSPropertyOp8
 70
     1
102
RTVSPropertyOp9
 70
     1
102
RTVSPropertyOp10
 70
     1
102
RTVSPropertyOp11
 70
     1
102
RTVSPropertyOp12
 70
     1
102
RTVSPropertyOp13
 70
     1
102
RTVSPropertyOp14
 70
     1
102
RTVSPropertyOp15
 70
     1
102
RTVSPropertyOp16
 70
     1
102
RTVSPropertyOp17
 70
     1
102
RTVSPropertyOp18
 70
     1
102
RTVSPropertyOp19
 70
     1
102
RTVSPropertyOp20
 70
     1
102
RTVSPropertyOp21
 70
     1
102
RTVSPropertyOp22
 70
     1
102
RTVSPropertyOp23
 70
     1
102
RTVSPropertyOp24
 70
     1
102
RTVSPropertyOp25
 70
     1
102
RTVSPropertyOp26
 70
     1
102
RTVSPropertyOp27
 70
     1
102
RTVSPropertyOp28
 70
     1
102
RTVSPropertyOp29
 70
     1
102
RTVSPropertyOp30
 70
     1
102
RTVSPropertyOp31
 70
     1
102
RTVSPropertyOp32
 70
     1
102
RTVSPropertyOp33
 70
     1
102
RTVSPropertyOp34
 70
     1
102
RTVSPropertyOp35
 70
     1
102
RTVSPropertyOp36
 70
     1
102
RTVSPropertyOp37
 70
     1
102
RTVSPropertyOp38
 70
     1
102
RTVSPropertyOp39
 70
     1
102
RTVSPropertyOp40
 70
     1
102
RTVSPropertyOp41
 70
     1
102
RTVSPropertyOp42
 70
     1
102
RTVSPropertyOp43
 70
     1
102
RTVSPropertyOp44
 70
     1
102
RTVSPropertyOp45
 70
     1
102
RTVSPropertyOp46
 70
     1
102
RTVSPropertyOp47
 70
     1
102
RTVSPropertyOp48
 70
     1
102
RTVSPropertyOp49
 70
     1
102
RTVSPropertyOp50
 70
     1
102
RTVSPropertyOp51
 70
     0
102
RTVSPropertyOp52
 70
     0
102
RTVSPropertyOp53
 70
     1
102
RTVSPropertyOp54
 70
     1
102
RTVSPropertyOp55
 70
     1
102
RTVSPropertyOp56
 70
     1
102
RTVSPropertyOp57
 70
     1
102
RTVSPropertyOp58
 70
     1
102
RTVSPropertyOp59
 70
     1
102
RTVSPropertyOp60
 70
     1
102
RTVSPropertyOp61
 70
     1
102
RTVSPropertyOp62
 70
     1
  0
XRECORD
  5
941B5
102
{ACAD_REACTORS
330
941B4
102
}
330
941B4
100
AcDbXrecord
280
     1
102
RTVSPost2010Prop28
280
     0
102
RTVSPost2010PropOp28
 70
     0
102
RTVSPost2010Prop29
280
     1
102
RTVSPost2010PropOp29
 70
     0
102
RTVSPost2010Prop30
280
     1
102
RTVSPost2010PropOp30
 70
     0
102
RTVSPost2010Prop31
280
     0
102
RTVSPost2010PropOp31
 70
     0
102
RTVSPost2010Prop32
280
     0
102
RTVSPost2010PropOp32
 70
     0
102
RTVSPost2010Prop33
280
     0
102
RTVSPost2010PropOp33
 70
     0
102
RTVSPost2010Prop34
280
     0
102
RTVSPost2010PropOp34
 70
     0
102
RTVSPost2010Prop35
280
     0
102
RTVSPost2010PropOp35
 70
     0
102
RTVSPost2010Prop36
280
     0
102
RTVSPost2010PropOp36
 70
     0
102
RTVSPost2010Prop37
 90
       50
102
RTVSPost2010PropOp37
 70
     0
102
RTVSPost2010Prop38
140
0.0
102
RTVSPost2010PropOp38
 70
     0
102
RTVSPost2010Prop39
140
1.0
102
RTVSPost2010PropOp39
 70
     0
102
RTVSPost2010Prop40
 90
        0
102
RTVSPost2010PropOp40
 70
     0
102
RTVSPost2010Prop41ColorIndex
 90
       18
102
RTVSPost2010Prop41ColorRGB
 90
        0
102
RTVSPost2010PropOp41
 70
     0
102
RTVSPost2010Prop42
 90
       50
102
RTVSPost2010PropOp42
 70
     0
102
RTVSPost2010Prop43
 90
        3
102
RTVSPost2010PropOp43
 70
     0
102
RTVSPost2010Prop44ColorIndex
 90
        5
102
RTVSPost2010Prop44ColorRGB
 90
      255
102
RTVSPost2010PropOp44
 70
     0
102
RTVSPost2010Prop45
280
     0
102
RTVSPost2010PropOp45
 70
     0
102
RTVSPost2010Prop46
 90
       50
102
RTVSPost2010PropOp46
 70
     0
102
RTVSPost2010Prop47
 90
       50
102
RTVSPost2010PropOp47
 70
     0
102
RTVSPost2010Prop48
 90
       50
102
RTVSPost2010PropOp48
 70
     0
102
RTVSPost2010Prop49
280
     0
102
RTVSPost2010PropOp49
 70
     0
102
RTVSPost2010Prop50
 90
       50
102
RTVSPost2010PropOp50
 70
     0
102
RTVSPost2010Prop51ColorIndex
 90
      256
102
RTVSPost2010Prop51ColorRGB
 90
-16777216
102
RTVSPost2010PropOp51
 70
     0
102
RTVSPost2010Prop52
140
1.0
102
RTVSPost2010PropOp52
 70
     0
102
RTVSPost2010Prop53
 90
        2
102
RTVSPost2010PropOp53
 70
     0
102
RTVSPost2010Prop54
  1
strokes_ogs.tif
102
RTVSPost2010PropOp54
 70
     0
102
RTVSPost2010Prop55
280
     0
102
RTVSPost2010PropOp55
 70
     0
102
RTVSPost2010Prop56
140
1.0
102
RTVSPost2010PropOp56
 70
     0
102
RTVSPost2010Prop57
140
1.0
102
RTVSPost2010PropOp57
 70
     0
102
RTVSPropertyOp0
 70
     0
102
RTVSPropertyOp1
 70
     0
102
RTVSPropertyOp2
 70
     0
102
RTVSPropertyOp3
 70
     0
102
RTVSPropertyOp4
 70
     0
102
RTVSPropertyOp5
 70
     0
102
RTVSPropertyOp6
 70
     0
102
RTVSPropertyOp7
 70
     0
102
RTVSPropertyOp8
 70
     0
102
RTVSPropertyOp9
 70
     0
102
RTVSPropertyOp10
 70
     0
102
RTVSPropertyOp11
 70
     0
102
RTVSPropertyOp12
 70
     0
102
RTVSPropertyOp13
 70
     0
102
RTVSPropertyOp14
 70
     2
102
RTVSPropertyOp15
 70
     0
102
RTVSPropertyOp16
 70
     0
102
RTVSPropertyOp17
 70
     0
102
RTVSPropertyOp18
 70
     0
102
RTVSPropertyOp19
 70
     0
102
RTVSPropertyOp20
 70
     0
102
RTVSPropertyOp21
 70
     0
102
RTVSPropertyOp22
 70
     0
102
RTVSPropertyOp23
 70
     0
102
RTVSPropertyOp24
 70
     0
102
RTVSPropertyOp25
 70
     0
102
RTVSPropertyOp26
 70
     0
102
RTVSPropertyOp27
 70
     0
102
RTVSPropertyOp28
 70
     0
102
RTVSPropertyOp29
 70
     0
102
RTVSPropertyOp30
 70
     0
102
RTVSPropertyOp31
 70
     0
102
RTVSPropertyOp32
 70
     0
102
RTVSPropertyOp33
 70
     0
102
RTVSPropertyOp34
 70
     0
102
RTVSPropertyOp35
 70
     0
102
RTVSPropertyOp36
 70
     0
102
RTVSPropertyOp37
 70
     0
102
RTVSPropertyOp38
 70
     0
102
RTVSPropertyOp39
 70
     0
102
RTVSPropertyOp40
 70
     0
102
RTVSPropertyOp41
 70
     0
102
RTVSPropertyOp42
 70
     0
102
RTVSPropertyOp43
 70
     0
102
RTVSPropertyOp44
 70
     0
102
RTVSPropertyOp45
 70
     0
102
RTVSPropertyOp46
 70
     0
102
RTVSPropertyOp47
 70
     0
102
RTVSPropertyOp48
 70
     0
102
RTVSPropertyOp49
 70
     0
102
RTVSPropertyOp50
 70
     0
102
RTVSPropertyOp51
 70
     0
102
RTVSPropertyOp52
 70
     0
102
RTVSPropertyOp53
 70
     0
102
RTVSPropertyOp54
 70
     0
102
RTVSPropertyOp55
 70
     0
102
RTVSPropertyOp56
 70
     0
102
RTVSPropertyOp57
 70
     0
102
RTVSPropertyOp58
 70
     1
102
RTVSPropertyOp59
 70
     1
102
RTVSPropertyOp60
 70
     1
102
RTVSPropertyOp61
 70
     1
102
RTVSPropertyOp62
 70
     1
  0
XRECORD
  5
941A3
102
{ACAD_REACTORS
330
941A2
102
}
330
941A2
100
AcDbXrecord
280
     1
102
RTVSPost2010Prop28
280
     0
102
RTVSPost2010PropOp28
 70
     1
102
RTVSPost2010Prop29
280
     1
102
RTVSPost2010PropOp29
 70
     1
102
RTVSPost2010Prop30
280
     1
102
RTVSPost2010PropOp30
 70
     1
102
RTVSPost2010Prop31
280
     0
102
RTVSPost2010PropOp31
 70
     1
102
RTVSPost2010Prop32
280
     0
102
RTVSPost2010PropOp32
 70
     1
102
RTVSPost2010Prop33
280
     0
102
RTVSPost2010PropOp33
 70
     1
102
RTVSPost2010Prop34
280
     0
102
RTVSPost2010PropOp34
 70
     1
102
RTVSPost2010Prop35
280
     0
102
RTVSPost2010PropOp35
 70
     1
102
RTVSPost2010Prop36
280
     0
102
RTVSPost2010PropOp36
 70
     1
102
RTVSPost2010Prop37
 90
       50
102
RTVSPost2010PropOp37
 70
     1
102
RTVSPost2010Prop38
140
0.0
102
RTVSPost2010PropOp38
 70
     1
102
RTVSPost2010Prop39
140
1.0
102
RTVSPost2010PropOp39
 70
     1
102
RTVSPost2010Prop40
 90
        0
102
RTVSPost2010PropOp40
 70
     1
102
RTVSPost2010Prop41ColorIndex
 90
       18
102
RTVSPost2010Prop41ColorRGB
 90
        0
102
RTVSPost2010PropOp41
 70
     1
102
RTVSPost2010Prop42
 90
       50
102
RTVSPost2010PropOp42
 70
     1
102
RTVSPost2010Prop43
 90
        3
102
RTVSPost2010PropOp43
 70
     1
102
RTVSPost2010Prop44ColorIndex
 90
        5
102
RTVSPost2010Prop44ColorRGB
 90
      255
102
RTVSPost2010PropOp44
 70
     1
102
RTVSPost2010Prop45
280
     0
102
RTVSPost2010PropOp45
 70
     1
102
RTVSPost2010Prop46
 90
       50
102
RTVSPost2010PropOp46
 70
     1
102
RTVSPost2010Prop47
 90
       50
102
RTVSPost2010PropOp47
 70
     1
102
RTVSPost2010Prop48
 90
       50
102
RTVSPost2010PropOp48
 70
     1
102
RTVSPost2010Prop49
280
     0
102
RTVSPost2010PropOp49
 70
     1
102
RTVSPost2010Prop50
 90
       50
102
RTVSPost2010PropOp50
 70
     1
102
RTVSPost2010Prop51ColorIndex
 90
      256
102
RTVSPost2010Prop51ColorRGB
 90
-16777216
102
RTVSPost2010PropOp51
 70
     0
102
RTVSPost2010Prop52
140
1.0
102
RTVSPost2010PropOp52
 70
     0
102
RTVSPost2010Prop53
 90
        2
102
RTVSPost2010PropOp53
 70
     1
102
RTVSPost2010Prop54
  1
strokes_ogs.tif
102
RTVSPost2010PropOp54
 70
     1
102
RTVSPost2010Prop55
280
     0
102
RTVSPost2010PropOp55
 70
     1
102
RTVSPost2010Prop56
140
1.0
102
RTVSPost2010PropOp56
 70
     1
102
RTVSPost2010Prop57
140
1.0
102
RTVSPost2010PropOp57
 70
     1
102
RTVSPropertyOp0
 70
     1
102
RTVSPropertyOp1
 70
     1
102
RTVSPropertyOp2
 70
     1
102
RTVSPropertyOp3
 70
     1
102
RTVSPropertyOp4
 70
     1
102
RTVSPropertyOp5
 70
     1
102
RTVSPropertyOp6
 70
     1
102
RTVSPropertyOp7
 70
     1
102
RTVSPropertyOp8
 70
     1
102
RTVSPropertyOp9
 70
     1
102
RTVSPropertyOp10
 70
     1
102
RTVSPropertyOp11
 70
     1
102
RTVSPropertyOp12
 70
     1
102
RTVSPropertyOp13
 70
     1
102
RTVSPropertyOp14
 70
     1
102
RTVSPropertyOp15
 70
     1
102
RTVSPropertyOp16
 70
     1
102
RTVSPropertyOp17
 70
     1
102
RTVSPropertyOp18
 70
     1
102
RTVSPropertyOp19
 70
     1
102
RTVSPropertyOp20
 70
     1
102
RTVSPropertyOp21
 70
     1
102
RTVSPropertyOp22
 70
     1
102
RTVSPropertyOp23
 70
     1
102
RTVSPropertyOp24
 70
     1
102
RTVSPropertyOp25
 70
     1
102
RTVSPropertyOp26
 70
     1
102
RTVSPropertyOp27
 70
     1
102
RTVSPropertyOp28
 70
     1
102
RTVSPropertyOp29
 70
     1
102
RTVSPropertyOp30
 70
     1
102
RTVSPropertyOp31
 70
     1
102
RTVSPropertyOp32
 70
     1
102
RTVSPropertyOp33
 70
     1
102
RTVSPropertyOp34
 70
     1
102
RTVSPropertyOp35
 70
     1
102
RTVSPropertyOp36
 70
     1
102
RTVSPropertyOp37
 70
     1
102
RTVSPropertyOp38
 70
     1
102
RTVSPropertyOp39
 70
     1
102
RTVSPropertyOp40
 70
     1
102
RTVSPropertyOp41
 70
     1
102
RTVSPropertyOp42
 70
     1
102
RTVSPropertyOp43
 70
     1
102
RTVSPropertyOp44
 70
     1
102
RTVSPropertyOp45
 70
     1
102
RTVSPropertyOp46
 70
     1
102
RTVSPropertyOp47
 70
     1
102
RTVSPropertyOp48
 70
     1
102
RTVSPropertyOp49
 70
     1
102
RTVSPropertyOp50
 70
     1
102
RTVSPropertyOp51
 70
     0
102
RTVSPropertyOp52
 70
     0
102
RTVSPropertyOp53
 70
     1
102
RTVSPropertyOp54
 70
     1
102
RTVSPropertyOp55
 70
     1
102
RTVSPropertyOp56
 70
     1
102
RTVSPropertyOp57
 70
     1
102
RTVSPropertyOp58
 70
     1
102
RTVSPropertyOp59
 70
     1
102
RTVSPropertyOp60
 70
     1
102
RTVSPropertyOp61
 70
     1
102
RTVSPropertyOp62
 70
     1
  0
XRECORD
  5
94187
102
{ACAD_REACTORS
330
94186
102
}
330
94186
100
AcDbXrecord
280
     1
102
RTVSPost2010Prop28
280
     0
102
RTVSPost2010PropOp28
 70
     1
102
RTVSPost2010Prop29
280
     1
102
RTVSPost2010PropOp29
 70
     1
102
RTVSPost2010Prop30
280
     1
102
RTVSPost2010PropOp30
 70
     1
102
RTVSPost2010Prop31
280
     0
102
RTVSPost2010PropOp31
 70
     1
102
RTVSPost2010Prop32
280
     0
102
RTVSPost2010PropOp32
 70
     1
102
RTVSPost2010Prop33
280
     0
102
RTVSPost2010PropOp33
 70
     1
102
RTVSPost2010Prop34
280
     0
102
RTVSPost2010PropOp34
 70
     1
102
RTVSPost2010Prop35
280
     0
102
RTVSPost2010PropOp35
 70
     1
102
RTVSPost2010Prop36
280
     0
102
RTVSPost2010PropOp36
 70
     1
102
RTVSPost2010Prop37
 90
       50
102
RTVSPost2010PropOp37
 70
     1
102
RTVSPost2010Prop38
140
0.0
102
RTVSPost2010PropOp38
 70
     1
102
RTVSPost2010Prop39
140
1.0
102
RTVSPost2010PropOp39
 70
     1
102
RTVSPost2010Prop40
 90
        0
102
RTVSPost2010PropOp40
 70
     1
102
RTVSPost2010Prop41ColorIndex
 90
       18
102
RTVSPost2010Prop41ColorRGB
 90
        0
102
RTVSPost2010PropOp41
 70
     1
102
RTVSPost2010Prop42
 90
       50
102
RTVSPost2010PropOp42
 70
     1
102
RTVSPost2010Prop43
 90
        3
102
RTVSPost2010PropOp43
 70
     1
102
RTVSPost2010Prop44ColorIndex
 90
        5
102
RTVSPost2010Prop44ColorRGB
 90
      255
102
RTVSPost2010PropOp44
 70
     1
102
RTVSPost2010Prop45
280
     0
102
RTVSPost2010PropOp45
 70
     1
102
RTVSPost2010Prop46
 90
       50
102
RTVSPost2010PropOp46
 70
     1
102
RTVSPost2010Prop47
 90
       50
102
RTVSPost2010PropOp47
 70
     1
102
RTVSPost2010Prop48
 90
       50
102
RTVSPost2010PropOp48
 70
     1
102
RTVSPost2010Prop49
280
     0
102
RTVSPost2010PropOp49
 70
     1
102
RTVSPost2010Prop50
 90
       50
102
RTVSPost2010PropOp50
 70
     1
102
RTVSPost2010Prop51ColorIndex
 90
      256
102
RTVSPost2010Prop51ColorRGB
 90
-16777216
102
RTVSPost2010PropOp51
 70
     0
102
RTVSPost2010Prop52
140
1.0
102
RTVSPost2010PropOp52
 70
     0
102
RTVSPost2010Prop53
 90
        2
102
RTVSPost2010PropOp53
 70
     1
102
RTVSPost2010Prop54
  1
strokes_ogs.tif
102
RTVSPost2010PropOp54
 70
     1
102
RTVSPost2010Prop55
280
     0
102
RTVSPost2010PropOp55
 70
     1
102
RTVSPost2010Prop56
140
1.0
102
RTVSPost2010PropOp56
 70
     1
102
RTVSPost2010Prop57
140
1.0
102
RTVSPost2010PropOp57
 70
     1
102
RTVSPropertyOp0
 70
     1
102
RTVSPropertyOp1
 70
     1
102
RTVSPropertyOp2
 70
     1
102
RTVSPropertyOp3
 70
     1
102
RTVSPropertyOp4
 70
     1
102
RTVSPropertyOp5
 70
     1
102
RTVSPropertyOp6
 70
     1
102
RTVSPropertyOp7
 70
     1
102
RTVSPropertyOp8
 70
     1
102
RTVSPropertyOp9
 70
     1
102
RTVSPropertyOp10
 70
     1
102
RTVSPropertyOp11
 70
     1
102
RTVSPropertyOp12
 70
     1
102
RTVSPropertyOp13
 70
     1
102
RTVSPropertyOp14
 70
     1
102
RTVSPropertyOp15
 70
     1
102
RTVSPropertyOp16
 70
     1
102
RTVSPropertyOp17
 70
     1
102
RTVSPropertyOp18
 70
     1
102
RTVSPropertyOp19
 70
     1
102
RTVSPropertyOp20
 70
     1
102
RTVSPropertyOp21
 70
     1
102
RTVSPropertyOp22
 70
     1
102
RTVSPropertyOp23
 70
     1
102
RTVSPropertyOp24
 70
     1
102
RTVSPropertyOp25
 70
     1
102
RTVSPropertyOp26
 70
     1
102
RTVSPropertyOp27
 70
     1
102
RTVSPropertyOp28
 70
     1
102
RTVSPropertyOp29
 70
     1
102
RTVSPropertyOp30
 70
     1
102
RTVSPropertyOp31
 70
     1
102
RTVSPropertyOp32
 70
     1
102
RTVSPropertyOp33
 70
     1
102
RTVSPropertyOp34
 70
     1
102
RTVSPropertyOp35
 70
     1
102
RTVSPropertyOp36
 70
     1
102
RTVSPropertyOp37
 70
     1
102
RTVSPropertyOp38
 70
     1
102
RTVSPropertyOp39
 70
     1
102
RTVSPropertyOp40
 70
     1
102
RTVSPropertyOp41
 70
     1
102
RTVSPropertyOp42
 70
     1
102
RTVSPropertyOp43
 70
     1
102
RTVSPropertyOp44
 70
     1
102
RTVSPropertyOp45
 70
     1
102
RTVSPropertyOp46
 70
     1
102
RTVSPropertyOp47
 70
     1
102
RTVSPropertyOp48
 70
     1
102
RTVSPropertyOp49
 70
     1
102
RTVSPropertyOp50
 70
     1
102
RTVSPropertyOp51
 70
     0
102
RTVSPropertyOp52
 70
     0
102
RTVSPropertyOp53
 70
     1
102
RTVSPropertyOp54
 70
     1
102
RTVSPropertyOp55
 70
     1
102
RTVSPropertyOp56
 70
     1
102
RTVSPropertyOp57
 70
     1
102
RTVSPropertyOp58
 70
     1
102
RTVSPropertyOp59
 70
     1
102
RTVSPropertyOp60
 70
     1
102
RTVSPropertyOp61
 70
     1
102
RTVSPropertyOp62
 70
     1
  0
XRECORD
  5
94189
102
{ACAD_REACTORS
330
94188
102
}
330
94188
100
AcDbXrecord
280
     1
102
RTVSPost2010Prop28
280
     0
102
RTVSPost2010PropOp28
 70
     1
102
RTVSPost2010Prop29
280
     1
102
RTVSPost2010PropOp29
 70
     1
102
RTVSPost2010Prop30
280
     1
102
RTVSPost2010PropOp30
 70
     1
102
RTVSPost2010Prop31
280
     0
102
RTVSPost2010PropOp31
 70
     1
102
RTVSPost2010Prop32
280
     0
102
RTVSPost2010PropOp32
 70
     1
102
RTVSPost2010Prop33
280
     0
102
RTVSPost2010PropOp33
 70
     1
102
RTVSPost2010Prop34
280
     0
102
RTVSPost2010PropOp34
 70
     1
102
RTVSPost2010Prop35
280
     0
102
RTVSPost2010PropOp35
 70
     1
102
RTVSPost2010Prop36
280
     0
102
RTVSPost2010PropOp36
 70
     1
102
RTVSPost2010Prop37
 90
       50
102
RTVSPost2010PropOp37
 70
     1
102
RTVSPost2010Prop38
140
0.0
102
RTVSPost2010PropOp38
 70
     1
102
RTVSPost2010Prop39
140
1.0
102
RTVSPost2010PropOp39
 70
     1
102
RTVSPost2010Prop40
 90
        0
102
RTVSPost2010PropOp40
 70
     1
102
RTVSPost2010Prop41ColorIndex
 90
       18
102
RTVSPost2010Prop41ColorRGB
 90
        0
102
RTVSPost2010PropOp41
 70
     1
102
RTVSPost2010Prop42
 90
       50
102
RTVSPost2010PropOp42
 70
     1
102
RTVSPost2010Prop43
 90
        3
102
RTVSPost2010PropOp43
 70
     1
102
RTVSPost2010Prop44ColorIndex
 90
        5
102
RTVSPost2010Prop44ColorRGB
 90
      255
102
RTVSPost2010PropOp44
 70
     1
102
RTVSPost2010Prop45
280
     0
102
RTVSPost2010PropOp45
 70
     1
102
RTVSPost2010Prop46
 90
       50
102
RTVSPost2010PropOp46
 70
     1
102
RTVSPost2010Prop47
 90
       50
102
RTVSPost2010PropOp47
 70
     1
102
RTVSPost2010Prop48
 90
       50
102
RTVSPost2010PropOp48
 70
     1
102
RTVSPost2010Prop49
280
     0
102
RTVSPost2010PropOp49
 70
     1
102
RTVSPost2010Prop50
 90
       50
102
RTVSPost2010PropOp50
 70
     1
102
RTVSPost2010Prop51ColorIndex
 90
      256
102
RTVSPost2010Prop51ColorRGB
 90
-16777216
102
RTVSPost2010PropOp51
 70
     0
102
RTVSPost2010Prop52
140
1.0
102
RTVSPost2010PropOp52
 70
     0
102
RTVSPost2010Prop53
 90
        2
102
RTVSPost2010PropOp53
 70
     1
102
RTVSPost2010Prop54
  1
strokes_ogs.tif
102
RTVSPost2010PropOp54
 70
     1
102
RTVSPost2010Prop55
280
     0
102
RTVSPost2010PropOp55
 70
     1
102
RTVSPost2010Prop56
140
1.0
102
RTVSPost2010PropOp56
 70
     1
102
RTVSPost2010Prop57
140
1.0
102
RTVSPost2010PropOp57
 70
     1
102
RTVSPropertyOp0
 70
     1
102
RTVSPropertyOp1
 70
     1
102
RTVSPropertyOp2
 70
     1
102
RTVSPropertyOp3
 70
     1
102
RTVSPropertyOp4
 70
     1
102
RTVSPropertyOp5
 70
     1
102
RTVSPropertyOp6
 70
     1
102
RTVSPropertyOp7
 70
     1
102
RTVSPropertyOp8
 70
     1
102
RTVSPropertyOp9
 70
     1
102
RTVSPropertyOp10
 70
     1
102
RTVSPropertyOp11
 70
     1
102
RTVSPropertyOp12
 70
     1
102
RTVSPropertyOp13
 70
     1
102
RTVSPropertyOp14
 70
     1
102
RTVSPropertyOp15
 70
     1
102
RTVSPropertyOp16
 70
     1
102
RTVSPropertyOp17
 70
     1
102
RTVSPropertyOp18
 70
     1
102
RTVSPropertyOp19
 70
     1
102
RTVSPropertyOp20
 70
     1
102
RTVSPropertyOp21
 70
     1
102
RTVSPropertyOp22
 70
     1
102
RTVSPropertyOp23
 70
     1
102
RTVSPropertyOp24
 70
     1
102
RTVSPropertyOp25
 70
     1
102
RTVSPropertyOp26
 70
     1
102
RTVSPropertyOp27
 70
     1
102
RTVSPropertyOp28
 70
     1
102
RTVSPropertyOp29
 70
     1
102
RTVSPropertyOp30
 70
     1
102
RTVSPropertyOp31
 70
     1
102
RTVSPropertyOp32
 70
     1
102
RTVSPropertyOp33
 70
     1
102
RTVSPropertyOp34
 70
     1
102
RTVSPropertyOp35
 70
     1
102
RTVSPropertyOp36
 70
     1
102
RTVSPropertyOp37
 70
     1
102
RTVSPropertyOp38
 70
     1
102
RTVSPropertyOp39
 70
     1
102
RTVSPropertyOp40
 70
     1
102
RTVSPropertyOp41
 70
     1
102
RTVSPropertyOp42
 70
     1
102
RTVSPropertyOp43
 70
     1
102
RTVSPropertyOp44
 70
     1
102
RTVSPropertyOp45
 70
     1
102
RTVSPropertyOp46
 70
     1
102
RTVSPropertyOp47
 70
     1
102
RTVSPropertyOp48
 70
     1
102
RTVSPropertyOp49
 70
     1
102
RTVSPropertyOp50
 70
     1
102
RTVSPropertyOp51
 70
     0
102
RTVSPropertyOp52
 70
     0
102
RTVSPropertyOp53
 70
     1
102
RTVSPropertyOp54
 70
     1
102
RTVSPropertyOp55
 70
     1
102
RTVSPropertyOp56
 70
     1
102
RTVSPropertyOp57
 70
     1
102
RTVSPropertyOp58
 70
     1
102
RTVSPropertyOp59
 70
     1
102
RTVSPropertyOp60
 70
     1
102
RTVSPropertyOp61
 70
     1
102
RTVSPropertyOp62
 70
     1
  0
XRECORD
  5
9418B
102
{ACAD_REACTORS
330
9418A
102
}
330
9418A
100
AcDbXrecord
280
     1
102
RTVSPost2010Prop28
280
     0
102
RTVSPost2010PropOp28
 70
     1
102
RTVSPost2010Prop29
280
     1
102
RTVSPost2010PropOp29
 70
     1
102
RTVSPost2010Prop30
280
     1
102
RTVSPost2010PropOp30
 70
     1
102
RTVSPost2010Prop31
280
     0
102
RTVSPost2010PropOp31
 70
     1
102
RTVSPost2010Prop32
280
     0
102
RTVSPost2010PropOp32
 70
     1
102
RTVSPost2010Prop33
280
     0
102
RTVSPost2010PropOp33
 70
     1
102
RTVSPost2010Prop34
280
     0
102
RTVSPost2010PropOp34
 70
     1
102
RTVSPost2010Prop35
280
     0
102
RTVSPost2010PropOp35
 70
     1
102
RTVSPost2010Prop36
280
     0
102
RTVSPost2010PropOp36
 70
     1
102
RTVSPost2010Prop37
 90
       50
102
RTVSPost2010PropOp37
 70
     1
102
RTVSPost2010Prop38
140
0.0
102
RTVSPost2010PropOp38
 70
     1
102
RTVSPost2010Prop39
140
1.0
102
RTVSPost2010PropOp39
 70
     1
102
RTVSPost2010Prop40
 90
        0
102
RTVSPost2010PropOp40
 70
     1
102
RTVSPost2010Prop41ColorIndex
 90
       18
102
RTVSPost2010Prop41ColorRGB
 90
        0
102
RTVSPost2010PropOp41
 70
     1
102
RTVSPost2010Prop42
 90
       50
102
RTVSPost2010PropOp42
 70
     1
102
RTVSPost2010Prop43
 90
        3
102
RTVSPost2010PropOp43
 70
     1
102
RTVSPost2010Prop44ColorIndex
 90
        5
102
RTVSPost2010Prop44ColorRGB
 90
      255
102
RTVSPost2010PropOp44
 70
     1
102
RTVSPost2010Prop45
280
     0
102
RTVSPost2010PropOp45
 70
     1
102
RTVSPost2010Prop46
 90
       50
102
RTVSPost2010PropOp46
 70
     1
102
RTVSPost2010Prop47
 90
       50
102
RTVSPost2010PropOp47
 70
     1
102
RTVSPost2010Prop48
 90
       50
102
RTVSPost2010PropOp48
 70
     1
102
RTVSPost2010Prop49
280
     0
102
RTVSPost2010PropOp49
 70
     1
102
RTVSPost2010Prop50
 90
       50
102
RTVSPost2010PropOp50
 70
     1
102
RTVSPost2010Prop51ColorIndex
 90
      256
102
RTVSPost2010Prop51ColorRGB
 90
-16777216
102
RTVSPost2010PropOp51
 70
     0
102
RTVSPost2010Prop52
140
1.0
102
RTVSPost2010PropOp52
 70
     0
102
RTVSPost2010Prop53
 90
        2
102
RTVSPost2010PropOp53
 70
     1
102
RTVSPost2010Prop54
  1
strokes_ogs.tif
102
RTVSPost2010PropOp54
 70
     1
102
RTVSPost2010Prop55
280
     0
102
RTVSPost2010PropOp55
 70
     1
102
RTVSPost2010Prop56
140
1.0
102
RTVSPost2010PropOp56
 70
     1
102
RTVSPost2010Prop57
140
1.0
102
RTVSPost2010PropOp57
 70
     1
102
RTVSPropertyOp0
 70
     1
102
RTVSPropertyOp1
 70
     1
102
RTVSPropertyOp2
 70
     1
102
RTVSPropertyOp3
 70
     1
102
RTVSPropertyOp4
 70
     1
102
RTVSPropertyOp5
 70
     1
102
RTVSPropertyOp6
 70
     1
102
RTVSPropertyOp7
 70
     1
102
RTVSPropertyOp8
 70
     1
102
RTVSPropertyOp9
 70
     1
102
RTVSPropertyOp10
 70
     1
102
RTVSPropertyOp11
 70
     1
102
RTVSPropertyOp12
 70
     1
102
RTVSPropertyOp13
 70
     1
102
RTVSPropertyOp14
 70
     1
102
RTVSPropertyOp15
 70
     1
102
RTVSPropertyOp16
 70
     1
102
RTVSPropertyOp17
 70
     1
102
RTVSPropertyOp18
 70
     1
102
RTVSPropertyOp19
 70
     1
102
RTVSPropertyOp20
 70
     1
102
RTVSPropertyOp21
 70
     1
102
RTVSPropertyOp22
 70
     1
102
RTVSPropertyOp23
 70
     1
102
RTVSPropertyOp24
 70
     1
102
RTVSPropertyOp25
 70
     1
102
RTVSPropertyOp26
 70
     1
102
RTVSPropertyOp27
 70
     1
102
RTVSPropertyOp28
 70
     1
102
RTVSPropertyOp29
 70
     1
102
RTVSPropertyOp30
 70
     1
102
RTVSPropertyOp31
 70
     1
102
RTVSPropertyOp32
 70
     1
102
RTVSPropertyOp33
 70
     1
102
RTVSPropertyOp34
 70
     1
102
RTVSPropertyOp35
 70
     1
102
RTVSPropertyOp36
 70
     1
102
RTVSPropertyOp37
 70
     1
102
RTVSPropertyOp38
 70
     1
102
RTVSPropertyOp39
 70
     1
102
RTVSPropertyOp40
 70
     1
102
RTVSPropertyOp41
 70
     1
102
RTVSPropertyOp42
 70
     1
102
RTVSPropertyOp43
 70
     1
102
RTVSPropertyOp44
 70
     1
102
RTVSPropertyOp45
 70
     1
102
RTVSPropertyOp46
 70
     1
102
RTVSPropertyOp47
 70
     1
102
RTVSPropertyOp48
 70
     1
102
RTVSPropertyOp49
 70
     1
102
RTVSPropertyOp50
 70
     1
102
RTVSPropertyOp51
 70
     0
102
RTVSPropertyOp52
 70
     0
102
RTVSPropertyOp53
 70
     1
102
RTVSPropertyOp54
 70
     1
102
RTVSPropertyOp55
 70
     1
102
RTVSPropertyOp56
 70
     1
102
RTVSPropertyOp57
 70
     1
102
RTVSPropertyOp58
 70
     1
102
RTVSPropertyOp59
 70
     1
102
RTVSPropertyOp60
 70
     1
102
RTVSPropertyOp61
 70
     1
102
RTVSPropertyOp62
 70
     1
  0
XRECORD
  5
9418D
102
{ACAD_REACTORS
330
9418C
102
}
330
9418C
100
AcDbXrecord
280
     1
102
RTVSPost2010Prop28
280
     0
102
RTVSPost2010PropOp28
 70
     1
102
RTVSPost2010Prop29
280
     1
102
RTVSPost2010PropOp29
 70
     1
102
RTVSPost2010Prop30
280
     1
102
RTVSPost2010PropOp30
 70
     1
102
RTVSPost2010Prop31
280
     0
102
RTVSPost2010PropOp31
 70
     1
102
RTVSPost2010Prop32
280
     0
102
RTVSPost2010PropOp32
 70
     1
102
RTVSPost2010Prop33
280
     0
102
RTVSPost2010PropOp33
 70
     1
102
RTVSPost2010Prop34
280
     0
102
RTVSPost2010PropOp34
 70
     1
102
RTVSPost2010Prop35
280
     0
102
RTVSPost2010PropOp35
 70
     1
102
RTVSPost2010Prop36
280
     0
102
RTVSPost2010PropOp36
 70
     1
102
RTVSPost2010Prop37
 90
       50
102
RTVSPost2010PropOp37
 70
     1
102
RTVSPost2010Prop38
140
0.0
102
RTVSPost2010PropOp38
 70
     1
102
RTVSPost2010Prop39
140
1.0
102
RTVSPost2010PropOp39
 70
     1
102
RTVSPost2010Prop40
 90
        0
102
RTVSPost2010PropOp40
 70
     1
102
RTVSPost2010Prop41ColorIndex
 90
       18
102
RTVSPost2010Prop41ColorRGB
 90
        0
102
RTVSPost2010PropOp41
 70
     1
102
RTVSPost2010Prop42
 90
       50
102
RTVSPost2010PropOp42
 70
     1
102
RTVSPost2010Prop43
 90
        3
102
RTVSPost2010PropOp43
 70
     1
102
RTVSPost2010Prop44ColorIndex
 90
        5
102
RTVSPost2010Prop44ColorRGB
 90
      255
102
RTVSPost2010PropOp44
 70
     1
102
RTVSPost2010Prop45
280
     0
102
RTVSPost2010PropOp45
 70
     1
102
RTVSPost2010Prop46
 90
       50
102
RTVSPost2010PropOp46
 70
     1
102
RTVSPost2010Prop47
 90
       50
102
RTVSPost2010PropOp47
 70
     1
102
RTVSPost2010Prop48
 90
       50
102
RTVSPost2010PropOp48
 70
     1
102
RTVSPost2010Prop49
280
     0
102
RTVSPost2010PropOp49
 70
     1
102
RTVSPost2010Prop50
 90
       50
102
RTVSPost2010PropOp50
 70
     1
102
RTVSPost2010Prop51ColorIndex
 90
      256
102
RTVSPost2010Prop51ColorRGB
 90
-16777216
102
RTVSPost2010PropOp51
 70
     0
102
RTVSPost2010Prop52
140
1.0
102
RTVSPost2010PropOp52
 70
     0
102
RTVSPost2010Prop53
 90
        2
102
RTVSPost2010PropOp53
 70
     1
102
RTVSPost2010Prop54
  1
strokes_ogs.tif
102
RTVSPost2010PropOp54
 70
     1
102
RTVSPost2010Prop55
280
     0
102
RTVSPost2010PropOp55
 70
     1
102
RTVSPost2010Prop56
140
1.0
102
RTVSPost2010PropOp56
 70
     1
102
RTVSPost2010Prop57
140
1.0
102
RTVSPost2010PropOp57
 70
     1
102
RTVSPropertyOp0
 70
     1
102
RTVSPropertyOp1
 70
     1
102
RTVSPropertyOp2
 70
     1
102
RTVSPropertyOp3
 70
     1
102
RTVSPropertyOp4
 70
     1
102
RTVSPropertyOp5
 70
     1
102
RTVSPropertyOp6
 70
     1
102
RTVSPropertyOp7
 70
     1
102
RTVSPropertyOp8
 70
     1
102
RTVSPropertyOp9
 70
     1
102
RTVSPropertyOp10
 70
     1
102
RTVSPropertyOp11
 70
     1
102
RTVSPropertyOp12
 70
     1
102
RTVSPropertyOp13
 70
     1
102
RTVSPropertyOp14
 70
     1
102
RTVSPropertyOp15
 70
     1
102
RTVSPropertyOp16
 70
     1
102
RTVSPropertyOp17
 70
     1
102
RTVSPropertyOp18
 70
     1
102
RTVSPropertyOp19
 70
     1
102
RTVSPropertyOp20
 70
     1
102
RTVSPropertyOp21
 70
     1
102
RTVSPropertyOp22
 70
     1
102
RTVSPropertyOp23
 70
     1
102
RTVSPropertyOp24
 70
     1
102
RTVSPropertyOp25
 70
     1
102
RTVSPropertyOp26
 70
     1
102
RTVSPropertyOp27
 70
     1
102
RTVSPropertyOp28
 70
     1
102
RTVSPropertyOp29
 70
     1
102
RTVSPropertyOp30
 70
     1
102
RTVSPropertyOp31
 70
     1
102
RTVSPropertyOp32
 70
     1
102
RTVSPropertyOp33
 70
     1
102
RTVSPropertyOp34
 70
     1
102
RTVSPropertyOp35
 70
     1
102
RTVSPropertyOp36
 70
     1
102
RTVSPropertyOp37
 70
     1
102
RTVSPropertyOp38
 70
     1
102
RTVSPropertyOp39
 70
     1
102
RTVSPropertyOp40
 70
     1
102
RTVSPropertyOp41
 70
     1
102
RTVSPropertyOp42
 70
     1
102
RTVSPropertyOp43
 70
     1
102
RTVSPropertyOp44
 70
     1
102
RTVSPropertyOp45
 70
     1
102
RTVSPropertyOp46
 70
     1
102
RTVSPropertyOp47
 70
     1
102
RTVSPropertyOp48
 70
     1
102
RTVSPropertyOp49
 70
     1
102
RTVSPropertyOp50
 70
     1
102
RTVSPropertyOp51
 70
     0
102
RTVSPropertyOp52
 70
     0
102
RTVSPropertyOp53
 70
     1
102
RTVSPropertyOp54
 70
     1
102
RTVSPropertyOp55
 70
     1
102
RTVSPropertyOp56
 70
     1
102
RTVSPropertyOp57
 70
     1
102
RTVSPropertyOp58
 70
     1
102
RTVSPropertyOp59
 70
     1
102
RTVSPropertyOp60
 70
     1
102
RTVSPropertyOp61
 70
     1
102
RTVSPropertyOp62
 70
     1
  0
XRECORD
  5
94195
102
{ACAD_REACTORS
330
94194
102
}
330
94194
100
AcDbXrecord
280
     1
102
RTVSPost2010Prop28
280
     0
102
RTVSPost2010PropOp28
 70
     1
102
RTVSPost2010Prop29
280
     1
102
RTVSPost2010PropOp29
 70
     1
102
RTVSPost2010Prop30
280
     1
102
RTVSPost2010PropOp30
 70
     1
102
RTVSPost2010Prop31
280
     0
102
RTVSPost2010PropOp31
 70
     1
102
RTVSPost2010Prop32
280
     0
102
RTVSPost2010PropOp32
 70
     1
102
RTVSPost2010Prop33
280
     0
102
RTVSPost2010PropOp33
 70
     1
102
RTVSPost2010Prop34
280
     0
102
RTVSPost2010PropOp34
 70
     1
102
RTVSPost2010Prop35
280
     0
102
RTVSPost2010PropOp35
 70
     1
102
RTVSPost2010Prop36
280
     0
102
RTVSPost2010PropOp36
 70
     1
102
RTVSPost2010Prop37
 90
       50
102
RTVSPost2010PropOp37
 70
     1
102
RTVSPost2010Prop38
140
0.0
102
RTVSPost2010PropOp38
 70
     1
102
RTVSPost2010Prop39
140
1.0
102
RTVSPost2010PropOp39
 70
     1
102
RTVSPost2010Prop40
 90
        0
102
RTVSPost2010PropOp40
 70
     1
102
RTVSPost2010Prop41ColorIndex
 90
       18
102
RTVSPost2010Prop41ColorRGB
 90
        0
102
RTVSPost2010PropOp41
 70
     1
102
RTVSPost2010Prop42
 90
       50
102
RTVSPost2010PropOp42
 70
     1
102
RTVSPost2010Prop43
 90
        3
102
RTVSPost2010PropOp43
 70
     1
102
RTVSPost2010Prop44ColorIndex
 90
        5
102
RTVSPost2010Prop44ColorRGB
 90
      255
102
RTVSPost2010PropOp44
 70
     1
102
RTVSPost2010Prop45
280
     0
102
RTVSPost2010PropOp45
 70
     1
102
RTVSPost2010Prop46
 90
       50
102
RTVSPost2010PropOp46
 70
     1
102
RTVSPost2010Prop47
 90
       50
102
RTVSPost2010PropOp47
 70
     1
102
RTVSPost2010Prop48
 90
       50
102
RTVSPost2010PropOp48
 70
     1
102
RTVSPost2010Prop49
280
     0
102
RTVSPost2010PropOp49
 70
     1
102
RTVSPost2010Prop50
 90
       50
102
RTVSPost2010PropOp50
 70
     1
102
RTVSPost2010Prop51ColorIndex
 90
      256
102
RTVSPost2010Prop51ColorRGB
 90
-16777216
102
RTVSPost2010PropOp51
 70
     0
102
RTVSPost2010Prop52
140
1.0
102
RTVSPost2010PropOp52
 70
     0
102
RTVSPost2010Prop53
 90
        2
102
RTVSPost2010PropOp53
 70
     1
102
RTVSPost2010Prop54
  1
strokes_ogs.tif
102
RTVSPost2010PropOp54
 70
     1
102
RTVSPost2010Prop55
280
     0
102
RTVSPost2010PropOp55
 70
     1
102
RTVSPost2010Prop56
140
1.0
102
RTVSPost2010PropOp56
 70
     1
102
RTVSPost2010Prop57
140
1.0
102
RTVSPost2010PropOp57
 70
     1
102
RTVSPropertyOp0
 70
     1
102
RTVSPropertyOp1
 70
     1
102
RTVSPropertyOp2
 70
     1
102
RTVSPropertyOp3
 70
     1
102
RTVSPropertyOp4
 70
     1
102
RTVSPropertyOp5
 70
     1
102
RTVSPropertyOp6
 70
     1
102
RTVSPropertyOp7
 70
     1
102
RTVSPropertyOp8
 70
     1
102
RTVSPropertyOp9
 70
     1
102
RTVSPropertyOp10
 70
     1
102
RTVSPropertyOp11
 70
     1
102
RTVSPropertyOp12
 70
     1
102
RTVSPropertyOp13
 70
     1
102
RTVSPropertyOp14
 70
     1
102
RTVSPropertyOp15
 70
     1
102
RTVSPropertyOp16
 70
     1
102
RTVSPropertyOp17
 70
     1
102
RTVSPropertyOp18
 70
     1
102
RTVSPropertyOp19
 70
     1
102
RTVSPropertyOp20
 70
     1
102
RTVSPropertyOp21
 70
     1
102
RTVSPropertyOp22
 70
     1
102
RTVSPropertyOp23
 70
     1
102
RTVSPropertyOp24
 70
     1
102
RTVSPropertyOp25
 70
     1
102
RTVSPropertyOp26
 70
     1
102
RTVSPropertyOp27
 70
     1
102
RTVSPropertyOp28
 70
     1
102
RTVSPropertyOp29
 70
     1
102
RTVSPropertyOp30
 70
     1
102
RTVSPropertyOp31
 70
     1
102
RTVSPropertyOp32
 70
     1
102
RTVSPropertyOp33
 70
     1
102
RTVSPropertyOp34
 70
     1
102
RTVSPropertyOp35
 70
     1
102
RTVSPropertyOp36
 70
     1
102
RTVSPropertyOp37
 70
     1
102
RTVSPropertyOp38
 70
     1
102
RTVSPropertyOp39
 70
     1
102
RTVSPropertyOp40
 70
     1
102
RTVSPropertyOp41
 70
     1
102
RTVSPropertyOp42
 70
     1
102
RTVSPropertyOp43
 70
     1
102
RTVSPropertyOp44
 70
     1
102
RTVSPropertyOp45
 70
     1
102
RTVSPropertyOp46
 70
     1
102
RTVSPropertyOp47
 70
     1
102
RTVSPropertyOp48
 70
     1
102
RTVSPropertyOp49
 70
     1
102
RTVSPropertyOp50
 70
     1
102
RTVSPropertyOp51
 70
     0
102
RTVSPropertyOp52
 70
     0
102
RTVSPropertyOp53
 70
     1
102
RTVSPropertyOp54
 70
     1
102
RTVSPropertyOp55
 70
     1
102
RTVSPropertyOp56
 70
     1
102
RTVSPropertyOp57
 70
     1
102
RTVSPropertyOp58
 70
     1
102
RTVSPropertyOp59
 70
     1
102
RTVSPropertyOp60
 70
     1
102
RTVSPropertyOp61
 70
     1
102
RTVSPropertyOp62
 70
     1
  0
XRECORD
  5
941B1
102
{ACAD_REACTORS
330
941B0
102
}
330
941B0
100
AcDbXrecord
280
     1
102
RTVSPost2010Prop28
280
     0
102
RTVSPost2010PropOp28
 70
     0
102
RTVSPost2010Prop29
280
     1
102
RTVSPost2010PropOp29
 70
     0
102
RTVSPost2010Prop30
280
     1
102
RTVSPost2010PropOp30
 70
     0
102
RTVSPost2010Prop31
280
     0
102
RTVSPost2010PropOp31
 70
     0
102
RTVSPost2010Prop32
280
     0
102
RTVSPost2010PropOp32
 70
     0
102
RTVSPost2010Prop33
280
     0
102
RTVSPost2010PropOp33
 70
     0
102
RTVSPost2010Prop34
280
     0
102
RTVSPost2010PropOp34
 70
     0
102
RTVSPost2010Prop35
280
     0
102
RTVSPost2010PropOp35
 70
     0
102
RTVSPost2010Prop36
280
     0
102
RTVSPost2010PropOp36
 70
     0
102
RTVSPost2010Prop37
 90
       50
102
RTVSPost2010PropOp37
 70
     0
102
RTVSPost2010Prop38
140
0.0
102
RTVSPost2010PropOp38
 70
     0
102
RTVSPost2010Prop39
140
1.0
102
RTVSPost2010PropOp39
 70
     0
102
RTVSPost2010Prop40
 90
        0
102
RTVSPost2010PropOp40
 70
     0
102
RTVSPost2010Prop41ColorIndex
 90
       18
102
RTVSPost2010Prop41ColorRGB
 90
        0
102
RTVSPost2010PropOp41
 70
     0
102
RTVSPost2010Prop42
 90
       50
102
RTVSPost2010PropOp42
 70
     0
102
RTVSPost2010Prop43
 90
        3
102
RTVSPost2010PropOp43
 70
     0
102
RTVSPost2010Prop44ColorIndex
 90
        5
102
RTVSPost2010Prop44ColorRGB
 90
      255
102
RTVSPost2010PropOp44
 70
     0
102
RTVSPost2010Prop45
280
     0
102
RTVSPost2010PropOp45
 70
     0
102
RTVSPost2010Prop46
 90
       50
102
RTVSPost2010PropOp46
 70
     0
102
RTVSPost2010Prop47
 90
       50
102
RTVSPost2010PropOp47
 70
     0
102
RTVSPost2010Prop48
 90
       50
102
RTVSPost2010PropOp48
 70
     0
102
RTVSPost2010Prop49
280
     0
102
RTVSPost2010PropOp49
 70
     0
102
RTVSPost2010Prop50
 90
       50
102
RTVSPost2010PropOp50
 70
     0
102
RTVSPost2010Prop51ColorIndex
 90
      256
102
RTVSPost2010Prop51ColorRGB
 90
-16777216
102
RTVSPost2010PropOp51
 70
     0
102
RTVSPost2010Prop52
140
1.0
102
RTVSPost2010PropOp52
 70
     0
102
RTVSPost2010Prop53
 90
        2
102
RTVSPost2010PropOp53
 70
     0
102
RTVSPost2010Prop54
  1
strokes_ogs.tif
102
RTVSPost2010PropOp54
 70
     0
102
RTVSPost2010Prop55
280
     0
102
RTVSPost2010PropOp55
 70
     0
102
RTVSPost2010Prop56
140
1.0
102
RTVSPost2010PropOp56
 70
     0
102
RTVSPost2010Prop57
140
1.0
102
RTVSPost2010PropOp57
 70
     0
102
RTVSPropertyOp0
 70
     0
102
RTVSPropertyOp1
 70
     0
102
RTVSPropertyOp2
 70
     0
102
RTVSPropertyOp3
 70
     0
102
RTVSPropertyOp4
 70
     0
102
RTVSPropertyOp5
 70
     0
102
RTVSPropertyOp6
 70
     0
102
RTVSPropertyOp7
 70
     0
102
RTVSPropertyOp8
 70
     0
102
RTVSPropertyOp9
 70
     0
102
RTVSPropertyOp10
 70
     0
102
RTVSPropertyOp11
 70
     0
102
RTVSPropertyOp12
 70
     0
102
RTVSPropertyOp13
 70
     0
102
RTVSPropertyOp14
 70
     2
102
RTVSPropertyOp15
 70
     0
102
RTVSPropertyOp16
 70
     0
102
RTVSPropertyOp17
 70
     0
102
RTVSPropertyOp18
 70
     0
102
RTVSPropertyOp19
 70
     0
102
RTVSPropertyOp20
 70
     0
102
RTVSPropertyOp21
 70
     0
102
RTVSPropertyOp22
 70
     0
102
RTVSPropertyOp23
 70
     0
102
RTVSPropertyOp24
 70
     0
102
RTVSPropertyOp25
 70
     0
102
RTVSPropertyOp26
 70
     0
102
RTVSPropertyOp27
 70
     0
102
RTVSPropertyOp28
 70
     0
102
RTVSPropertyOp29
 70
     0
102
RTVSPropertyOp30
 70
     0
102
RTVSPropertyOp31
 70
     0
102
RTVSPropertyOp32
 70
     0
102
RTVSPropertyOp33
 70
     0
102
RTVSPropertyOp34
 70
     0
102
RTVSPropertyOp35
 70
     0
102
RTVSPropertyOp36
 70
     0
102
RTVSPropertyOp37
 70
     0
102
RTVSPropertyOp38
 70
     0
102
RTVSPropertyOp39
 70
     0
102
RTVSPropertyOp40
 70
     0
102
RTVSPropertyOp41
 70
     0
102
RTVSPropertyOp42
 70
     0
102
RTVSPropertyOp43
 70
     0
102
RTVSPropertyOp44
 70
     0
102
RTVSPropertyOp45
 70
     0
102
RTVSPropertyOp46
 70
     0
102
RTVSPropertyOp47
 70
     0
102
RTVSPropertyOp48
 70
     0
102
RTVSPropertyOp49
 70
     0
102
RTVSPropertyOp50
 70
     0
102
RTVSPropertyOp51
 70
     0
102
RTVSPropertyOp52
 70
     0
102
RTVSPropertyOp53
 70
     0
102
RTVSPropertyOp54
 70
     0
102
RTVSPropertyOp55
 70
     0
102
RTVSPropertyOp56
 70
     0
102
RTVSPropertyOp57
 70
     0
102
RTVSPropertyOp58
 70
     1
102
RTVSPropertyOp59
 70
     1
102
RTVSPropertyOp60
 70
     1
102
RTVSPropertyOp61
 70
     1
102
RTVSPropertyOp62
 70
     1
  0
XRECORD
  5
941A1
102
{ACAD_REACTORS
330
941A0
102
}
330
941A0
100
AcDbXrecord
280
     1
102
RTVSPost2010Prop28
280
     0
102
RTVSPost2010PropOp28
 70
     1
102
RTVSPost2010Prop29
280
     1
102
RTVSPost2010PropOp29
 70
     1
102
RTVSPost2010Prop30
280
     1
102
RTVSPost2010PropOp30
 70
     1
102
RTVSPost2010Prop31
280
     0
102
RTVSPost2010PropOp31
 70
     1
102
RTVSPost2010Prop32
280
     0
102
RTVSPost2010PropOp32
 70
     1
102
RTVSPost2010Prop33
280
     0
102
RTVSPost2010PropOp33
 70
     1
102
RTVSPost2010Prop34
280
     0
102
RTVSPost2010PropOp34
 70
     1
102
RTVSPost2010Prop35
280
     0
102
RTVSPost2010PropOp35
 70
     1
102
RTVSPost2010Prop36
280
     0
102
RTVSPost2010PropOp36
 70
     1
102
RTVSPost2010Prop37
 90
       50
102
RTVSPost2010PropOp37
 70
     1
102
RTVSPost2010Prop38
140
0.0
102
RTVSPost2010PropOp38
 70
     1
102
RTVSPost2010Prop39
140
1.0
102
RTVSPost2010PropOp39
 70
     1
102
RTVSPost2010Prop40
 90
        0
102
RTVSPost2010PropOp40
 70
     1
102
RTVSPost2010Prop41ColorIndex
 90
       18
102
RTVSPost2010Prop41ColorRGB
 90
        0
102
RTVSPost2010PropOp41
 70
     1
102
RTVSPost2010Prop42
 90
       50
102
RTVSPost2010PropOp42
 70
     1
102
RTVSPost2010Prop43
 90
        3
102
RTVSPost2010PropOp43
 70
     1
102
RTVSPost2010Prop44ColorIndex
 90
        5
102
RTVSPost2010Prop44ColorRGB
 90
      255
102
RTVSPost2010PropOp44
 70
     1
102
RTVSPost2010Prop45
280
     0
102
RTVSPost2010PropOp45
 70
     1
102
RTVSPost2010Prop46
 90
       50
102
RTVSPost2010PropOp46
 70
     1
102
RTVSPost2010Prop47
 90
       50
102
RTVSPost2010PropOp47
 70
     1
102
RTVSPost2010Prop48
 90
       50
102
RTVSPost2010PropOp48
 70
     1
102
RTVSPost2010Prop49
280
     0
102
RTVSPost2010PropOp49
 70
     1
102
RTVSPost2010Prop50
 90
       50
102
RTVSPost2010PropOp50
 70
     1
102
RTVSPost2010Prop51ColorIndex
 90
      256
102
RTVSPost2010Prop51ColorRGB
 90
-16777216
102
RTVSPost2010PropOp51
 70
     0
102
RTVSPost2010Prop52
140
1.0
102
RTVSPost2010PropOp52
 70
     0
102
RTVSPost2010Prop53
 90
        2
102
RTVSPost2010PropOp53
 70
     1
102
RTVSPost2010Prop54
  1
strokes_ogs.tif
102
RTVSPost2010PropOp54
 70
     1
102
RTVSPost2010Prop55
280
     0
102
RTVSPost2010PropOp55
 70
     1
102
RTVSPost2010Prop56
140
1.0
102
RTVSPost2010PropOp56
 70
     1
102
RTVSPost2010Prop57
140
1.0
102
RTVSPost2010PropOp57
 70
     1
102
RTVSPropertyOp0
 70
     1
102
RTVSPropertyOp1
 70
     1
102
RTVSPropertyOp2
 70
     1
102
RTVSPropertyOp3
 70
     1
102
RTVSPropertyOp4
 70
     1
102
RTVSPropertyOp5
 70
     1
102
RTVSPropertyOp6
 70
     1
102
RTVSPropertyOp7
 70
     1
102
RTVSPropertyOp8
 70
     1
102
RTVSPropertyOp9
 70
     1
102
RTVSPropertyOp10
 70
     1
102
RTVSPropertyOp11
 70
     1
102
RTVSPropertyOp12
 70
     1
102
RTVSPropertyOp13
 70
     1
102
RTVSPropertyOp14
 70
     1
102
RTVSPropertyOp15
 70
     1
102
RTVSPropertyOp16
 70
     1
102
RTVSPropertyOp17
 70
     1
102
RTVSPropertyOp18
 70
     1
102
RTVSPropertyOp19
 70
     1
102
RTVSPropertyOp20
 70
     1
102
RTVSPropertyOp21
 70
     1
102
RTVSPropertyOp22
 70
     1
102
RTVSPropertyOp23
 70
     1
102
RTVSPropertyOp24
 70
     1
102
RTVSPropertyOp25
 70
     1
102
RTVSPropertyOp26
 70
     1
102
RTVSPropertyOp27
 70
     1
102
RTVSPropertyOp28
 70
     1
102
RTVSPropertyOp29
 70
     1
102
RTVSPropertyOp30
 70
     1
102
RTVSPropertyOp31
 70
     1
102
RTVSPropertyOp32
 70
     1
102
RTVSPropertyOp33
 70
     1
102
RTVSPropertyOp34
 70
     1
102
RTVSPropertyOp35
 70
     1
102
RTVSPropertyOp36
 70
     1
102
RTVSPropertyOp37
 70
     1
102
RTVSPropertyOp38
 70
     1
102
RTVSPropertyOp39
 70
     1
102
RTVSPropertyOp40
 70
     1
102
RTVSPropertyOp41
 70
     1
102
RTVSPropertyOp42
 70
     1
102
RTVSPropertyOp43
 70
     1
102
RTVSPropertyOp44
 70
     1
102
RTVSPropertyOp45
 70
     1
102
RTVSPropertyOp46
 70
     1
102
RTVSPropertyOp47
 70
     1
102
RTVSPropertyOp48
 70
     1
102
RTVSPropertyOp49
 70
     1
102
RTVSPropertyOp50
 70
     1
102
RTVSPropertyOp51
 70
     0
102
RTVSPropertyOp52
 70
     0
102
RTVSPropertyOp53
 70
     1
102
RTVSPropertyOp54
 70
     1
102
RTVSPropertyOp55
 70
     1
102
RTVSPropertyOp56
 70
     1
102
RTVSPropertyOp57
 70
     1
102
RTVSPropertyOp58
 70
     1
102
RTVSPropertyOp59
 70
     1
102
RTVSPropertyOp60
 70
     1
102
RTVSPropertyOp61
 70
     1
102
RTVSPropertyOp62
 70
     1
  0
XRECORD
  5
941B3
102
{ACAD_REACTORS
330
941B2
102
}
330
941B2
100
AcDbXrecord
280
     1
102
RTVSPost2010Prop28
280
     0
102
RTVSPost2010PropOp28
 70
     0
102
RTVSPost2010Prop29
280
     1
102
RTVSPost2010PropOp29
 70
     0
102
RTVSPost2010Prop30
280
     1
102
RTVSPost2010PropOp30
 70
     0
102
RTVSPost2010Prop31
280
     0
102
RTVSPost2010PropOp31
 70
     0
102
RTVSPost2010Prop32
280
     0
102
RTVSPost2010PropOp32
 70
     0
102
RTVSPost2010Prop33
280
     0
102
RTVSPost2010PropOp33
 70
     0
102
RTVSPost2010Prop34
280
     0
102
RTVSPost2010PropOp34
 70
     0
102
RTVSPost2010Prop35
280
     0
102
RTVSPost2010PropOp35
 70
     0
102
RTVSPost2010Prop36
280
     0
102
RTVSPost2010PropOp36
 70
     0
102
RTVSPost2010Prop37
 90
       50
102
RTVSPost2010PropOp37
 70
     0
102
RTVSPost2010Prop38
140
0.0
102
RTVSPost2010PropOp38
 70
     0
102
RTVSPost2010Prop39
140
1.0
102
RTVSPost2010PropOp39
 70
     0
102
RTVSPost2010Prop40
 90
        0
102
RTVSPost2010PropOp40
 70
     0
102
RTVSPost2010Prop41ColorIndex
 90
       18
102
RTVSPost2010Prop41ColorRGB
 90
        0
102
RTVSPost2010PropOp41
 70
     0
102
RTVSPost2010Prop42
 90
       50
102
RTVSPost2010PropOp42
 70
     0
102
RTVSPost2010Prop43
 90
        3
102
RTVSPost2010PropOp43
 70
     0
102
RTVSPost2010Prop44ColorIndex
 90
        5
102
RTVSPost2010Prop44ColorRGB
 90
      255
102
RTVSPost2010PropOp44
 70
     0
102
RTVSPost2010Prop45
280
     0
102
RTVSPost2010PropOp45
 70
     0
102
RTVSPost2010Prop46
 90
       50
102
RTVSPost2010PropOp46
 70
     0
102
RTVSPost2010Prop47
 90
       50
102
RTVSPost2010PropOp47
 70
     0
102
RTVSPost2010Prop48
 90
       50
102
RTVSPost2010PropOp48
 70
     0
102
RTVSPost2010Prop49
280
     0
102
RTVSPost2010PropOp49
 70
     0
102
RTVSPost2010Prop50
 90
       50
102
RTVSPost2010PropOp50
 70
     0
102
RTVSPost2010Prop51ColorIndex
 90
      256
102
RTVSPost2010Prop51ColorRGB
 90
-16777216
102
RTVSPost2010PropOp51
 70
     0
102
RTVSPost2010Prop52
140
1.0
102
RTVSPost2010PropOp52
 70
     0
102
RTVSPost2010Prop53
 90
        2
102
RTVSPost2010PropOp53
 70
     0
102
RTVSPost2010Prop54
  1
strokes_ogs.tif
102
RTVSPost2010PropOp54
 70
     0
102
RTVSPost2010Prop55
280
     0
102
RTVSPost2010PropOp55
 70
     0
102
RTVSPost2010Prop56
140
1.0
102
RTVSPost2010PropOp56
 70
     0
102
RTVSPost2010Prop57
140
1.0
102
RTVSPost2010PropOp57
 70
     0
102
RTVSPropertyOp0
 70
     0
102
RTVSPropertyOp1
 70
     0
102
RTVSPropertyOp2
 70
     0
102
RTVSPropertyOp3
 70
     0
102
RTVSPropertyOp4
 70
     0
102
RTVSPropertyOp5
 70
     0
102
RTVSPropertyOp6
 70
     0
102
RTVSPropertyOp7
 70
     0
102
RTVSPropertyOp8
 70
     0
102
RTVSPropertyOp9
 70
     0
102
RTVSPropertyOp10
 70
     0
102
RTVSPropertyOp11
 70
     0
102
RTVSPropertyOp12
 70
     0
102
RTVSPropertyOp13
 70
     0
102
RTVSPropertyOp14
 70
     2
102
RTVSPropertyOp15
 70
     0
102
RTVSPropertyOp16
 70
     0
102
RTVSPropertyOp17
 70
     0
102
RTVSPropertyOp18
 70
     0
102
RTVSPropertyOp19
 70
     0
102
RTVSPropertyOp20
 70
     0
102
RTVSPropertyOp21
 70
     0
102
RTVSPropertyOp22
 70
     0
102
RTVSPropertyOp23
 70
     0
102
RTVSPropertyOp24
 70
     0
102
RTVSPropertyOp25
 70
     0
102
RTVSPropertyOp26
 70
     0
102
RTVSPropertyOp27
 70
     0
102
RTVSPropertyOp28
 70
     0
102
RTVSPropertyOp29
 70
     0
102
RTVSPropertyOp30
 70
     0
102
RTVSPropertyOp31
 70
     0
102
RTVSPropertyOp32
 70
     0
102
RTVSPropertyOp33
 70
     0
102
RTVSPropertyOp34
 70
     0
102
RTVSPropertyOp35
 70
     0
102
RTVSPropertyOp36
 70
     0
102
RTVSPropertyOp37
 70
     0
102
RTVSPropertyOp38
 70
     0
102
RTVSPropertyOp39
 70
     0
102
RTVSPropertyOp40
 70
     0
102
RTVSPropertyOp41
 70
     0
102
RTVSPropertyOp42
 70
     0
102
RTVSPropertyOp43
 70
     0
102
RTVSPropertyOp44
 70
     0
102
RTVSPropertyOp45
 70
     0
102
RTVSPropertyOp46
 70
     0
102
RTVSPropertyOp47
 70
     0
102
RTVSPropertyOp48
 70
     0
102
RTVSPropertyOp49
 70
     0
102
RTVSPropertyOp50
 70
     0
102
RTVSPropertyOp51
 70
     0
102
RTVSPropertyOp52
 70
     0
102
RTVSPropertyOp53
 70
     0
102
RTVSPropertyOp54
 70
     0
102
RTVSPropertyOp55
 70
     0
102
RTVSPropertyOp56
 70
     0
102
RTVSPropertyOp57
 70
     0
102
RTVSPropertyOp58
 70
     1
102
RTVSPropertyOp59
 70
     1
102
RTVSPropertyOp60
 70
     1
102
RTVSPropertyOp61
 70
     1
102
RTVSPropertyOp62
 70
     1
  0
XRECORD
  5
94199
102
{ACAD_REACTORS
330
94198
102
}
330
94198
100
AcDbXrecord
280
     1
102
RTVSPost2010Prop28
280
     0
102
RTVSPost2010PropOp28
 70
     1
102
RTVSPost2010Prop29
280
     1
102
RTVSPost2010PropOp29
 70
     1
102
RTVSPost2010Prop30
280
     1
102
RTVSPost2010PropOp30
 70
     1
102
RTVSPost2010Prop31
280
     0
102
RTVSPost2010PropOp31
 70
     1
102
RTVSPost2010Prop32
280
     0
102
RTVSPost2010PropOp32
 70
     1
102
RTVSPost2010Prop33
280
     0
102
RTVSPost2010PropOp33
 70
     1
102
RTVSPost2010Prop34
280
     0
102
RTVSPost2010PropOp34
 70
     1
102
RTVSPost2010Prop35
280
     0
102
RTVSPost2010PropOp35
 70
     1
102
RTVSPost2010Prop36
280
     0
102
RTVSPost2010PropOp36
 70
     1
102
RTVSPost2010Prop37
 90
       50
102
RTVSPost2010PropOp37
 70
     1
102
RTVSPost2010Prop38
140
0.0
102
RTVSPost2010PropOp38
 70
     1
102
RTVSPost2010Prop39
140
1.0
102
RTVSPost2010PropOp39
 70
     1
102
RTVSPost2010Prop40
 90
        0
102
RTVSPost2010PropOp40
 70
     1
102
RTVSPost2010Prop41ColorIndex
 90
       18
102
RTVSPost2010Prop41ColorRGB
 90
        0
102
RTVSPost2010PropOp41
 70
     1
102
RTVSPost2010Prop42
 90
       50
102
RTVSPost2010PropOp42
 70
     1
102
RTVSPost2010Prop43
 90
        3
102
RTVSPost2010PropOp43
 70
     1
102
RTVSPost2010Prop44ColorIndex
 90
        5
102
RTVSPost2010Prop44ColorRGB
 90
      255
102
RTVSPost2010PropOp44
 70
     1
102
RTVSPost2010Prop45
280
     0
102
RTVSPost2010PropOp45
 70
     1
102
RTVSPost2010Prop46
 90
       50
102
RTVSPost2010PropOp46
 70
     1
102
RTVSPost2010Prop47
 90
       50
102
RTVSPost2010PropOp47
 70
     1
102
RTVSPost2010Prop48
 90
       50
102
RTVSPost2010PropOp48
 70
     1
102
RTVSPost2010Prop49
280
     0
102
RTVSPost2010PropOp49
 70
     1
102
RTVSPost2010Prop50
 90
       50
102
RTVSPost2010PropOp50
 70
     1
102
RTVSPost2010Prop51ColorIndex
 90
      256
102
RTVSPost2010Prop51ColorRGB
 90
-16777216
102
RTVSPost2010PropOp51
 70
     0
102
RTVSPost2010Prop52
140
1.0
102
RTVSPost2010PropOp52
 70
     0
102
RTVSPost2010Prop53
 90
        2
102
RTVSPost2010PropOp53
 70
     1
102
RTVSPost2010Prop54
  1
strokes_ogs.tif
102
RTVSPost2010PropOp54
 70
     1
102
RTVSPost2010Prop55
280
     0
102
RTVSPost2010PropOp55
 70
     1
102
RTVSPost2010Prop56
140
1.0
102
RTVSPost2010PropOp56
 70
     1
102
RTVSPost2010Prop57
140
1.0
102
RTVSPost2010PropOp57
 70
     1
102
RTVSPropertyOp0
 70
     1
102
RTVSPropertyOp1
 70
     1
102
RTVSPropertyOp2
 70
     1
102
RTVSPropertyOp3
 70
     1
102
RTVSPropertyOp4
 70
     1
102
RTVSPropertyOp5
 70
     1
102
RTVSPropertyOp6
 70
     1
102
RTVSPropertyOp7
 70
     1
102
RTVSPropertyOp8
 70
     1
102
RTVSPropertyOp9
 70
     1
102
RTVSPropertyOp10
 70
     1
102
RTVSPropertyOp11
 70
     1
102
RTVSPropertyOp12
 70
     1
102
RTVSPropertyOp13
 70
     1
102
RTVSPropertyOp14
 70
     1
102
RTVSPropertyOp15
 70
     1
102
RTVSPropertyOp16
 70
     1
102
RTVSPropertyOp17
 70
     1
102
RTVSPropertyOp18
 70
     1
102
RTVSPropertyOp19
 70
     1
102
RTVSPropertyOp20
 70
     1
102
RTVSPropertyOp21
 70
     1
102
RTVSPropertyOp22
 70
     1
102
RTVSPropertyOp23
 70
     1
102
RTVSPropertyOp24
 70
     1
102
RTVSPropertyOp25
 70
     1
102
RTVSPropertyOp26
 70
     1
102
RTVSPropertyOp27
 70
     1
102
RTVSPropertyOp28
 70
     1
102
RTVSPropertyOp29
 70
     1
102
RTVSPropertyOp30
 70
     1
102
RTVSPropertyOp31
 70
     1
102
RTVSPropertyOp32
 70
     1
102
RTVSPropertyOp33
 70
     1
102
RTVSPropertyOp34
 70
     1
102
RTVSPropertyOp35
 70
     1
102
RTVSPropertyOp36
 70
     1
102
RTVSPropertyOp37
 70
     1
102
RTVSPropertyOp38
 70
     1
102
RTVSPropertyOp39
 70
     1
102
RTVSPropertyOp40
 70
     1
102
RTVSPropertyOp41
 70
     1
102
RTVSPropertyOp42
 70
     1
102
RTVSPropertyOp43
 70
     1
102
RTVSPropertyOp44
 70
     1
102
RTVSPropertyOp45
 70
     1
102
RTVSPropertyOp46
 70
     1
102
RTVSPropertyOp47
 70
     1
102
RTVSPropertyOp48
 70
     1
102
RTVSPropertyOp49
 70
     1
102
RTVSPropertyOp50
 70
     1
102
RTVSPropertyOp51
 70
     0
102
RTVSPropertyOp52
 70
     0
102
RTVSPropertyOp53
 70
     1
102
RTVSPropertyOp54
 70
     1
102
RTVSPropertyOp55
 70
     1
102
RTVSPropertyOp56
 70
     1
102
RTVSPropertyOp57
 70
     1
102
RTVSPropertyOp58
 70
     1
102
RTVSPropertyOp59
 70
     1
102
RTVSPropertyOp60
 70
     1
102
RTVSPropertyOp61
 70
     1
102
RTVSPropertyOp62
 70
     1
  0
XRECORD
  5
941AF
102
{ACAD_REACTORS
330
941AE
102
}
330
941AE
100
AcDbXrecord
280
     1
102
RTVSPost2010Prop28
280
     0
102
RTVSPost2010PropOp28
 70
     1
102
RTVSPost2010Prop29
280
     1
102
RTVSPost2010PropOp29
 70
     1
102
RTVSPost2010Prop30
280
     1
102
RTVSPost2010PropOp30
 70
     1
102
RTVSPost2010Prop31
280
     0
102
RTVSPost2010PropOp31
 70
     1
102
RTVSPost2010Prop32
280
     0
102
RTVSPost2010PropOp32
 70
     1
102
RTVSPost2010Prop33
280
     0
102
RTVSPost2010PropOp33
 70
     1
102
RTVSPost2010Prop34
280
     0
102
RTVSPost2010PropOp34
 70
     1
102
RTVSPost2010Prop35
280
     0
102
RTVSPost2010PropOp35
 70
     1
102
RTVSPost2010Prop36
280
     0
102
RTVSPost2010PropOp36
 70
     1
102
RTVSPost2010Prop37
 90
       50
102
RTVSPost2010PropOp37
 70
     1
102
RTVSPost2010Prop38
140
0.0
102
RTVSPost2010PropOp38
 70
     1
102
RTVSPost2010Prop39
140
1.0
102
RTVSPost2010PropOp39
 70
     1
102
RTVSPost2010Prop40
 90
        0
102
RTVSPost2010PropOp40
 70
     1
102
RTVSPost2010Prop41ColorIndex
 90
       18
102
RTVSPost2010Prop41ColorRGB
 90
        0
102
RTVSPost2010PropOp41
 70
     1
102
RTVSPost2010Prop42
 90
       50
102
RTVSPost2010PropOp42
 70
     1
102
RTVSPost2010Prop43
 90
        3
102
RTVSPost2010PropOp43
 70
     1
102
RTVSPost2010Prop44ColorIndex
 90
        5
102
RTVSPost2010Prop44ColorRGB
 90
      255
102
RTVSPost2010PropOp44
 70
     1
102
RTVSPost2010Prop45
280
     0
102
RTVSPost2010PropOp45
 70
     1
102
RTVSPost2010Prop46
 90
       50
102
RTVSPost2010PropOp46
 70
     1
102
RTVSPost2010Prop47
 90
       50
102
RTVSPost2010PropOp47
 70
     1
102
RTVSPost2010Prop48
 90
       50
102
RTVSPost2010PropOp48
 70
     1
102
RTVSPost2010Prop49
280
     0
102
RTVSPost2010PropOp49
 70
     1
102
RTVSPost2010Prop50
 90
       50
102
RTVSPost2010PropOp50
 70
     1
102
RTVSPost2010Prop51ColorIndex
 90
      256
102
RTVSPost2010Prop51ColorRGB
 90
-16777216
102
RTVSPost2010PropOp51
 70
     0
102
RTVSPost2010Prop52
140
1.0
102
RTVSPost2010PropOp52
 70
     0
102
RTVSPost2010Prop53
 90
        2
102
RTVSPost2010PropOp53
 70
     1
102
RTVSPost2010Prop54
  1
strokes_ogs.tif
102
RTVSPost2010PropOp54
 70
     1
102
RTVSPost2010Prop55
280
     0
102
RTVSPost2010PropOp55
 70
     1
102
RTVSPost2010Prop56
140
1.0
102
RTVSPost2010PropOp56
 70
     1
102
RTVSPost2010Prop57
140
1.0
102
RTVSPost2010PropOp57
 70
     1
102
RTVSPropertyOp0
 70
     1
102
RTVSPropertyOp1
 70
     1
102
RTVSPropertyOp2
 70
     1
102
RTVSPropertyOp3
 70
     1
102
RTVSPropertyOp4
 70
     1
102
RTVSPropertyOp5
 70
     1
102
RTVSPropertyOp6
 70
     1
102
RTVSPropertyOp7
 70
     1
102
RTVSPropertyOp8
 70
     1
102
RTVSPropertyOp9
 70
     1
102
RTVSPropertyOp10
 70
     1
102
RTVSPropertyOp11
 70
     1
102
RTVSPropertyOp12
 70
     1
102
RTVSPropertyOp13
 70
     1
102
RTVSPropertyOp14
 70
     1
102
RTVSPropertyOp15
 70
     1
102
RTVSPropertyOp16
 70
     1
102
RTVSPropertyOp17
 70
     1
102
RTVSPropertyOp18
 70
     1
102
RTVSPropertyOp19
 70
     1
102
RTVSPropertyOp20
 70
     1
102
RTVSPropertyOp21
 70
     1
102
RTVSPropertyOp22
 70
     1
102
RTVSPropertyOp23
 70
     1
102
RTVSPropertyOp24
 70
     1
102
RTVSPropertyOp25
 70
     1
102
RTVSPropertyOp26
 70
     1
102
RTVSPropertyOp27
 70
     1
102
RTVSPropertyOp28
 70
     1
102
RTVSPropertyOp29
 70
     1
102
RTVSPropertyOp30
 70
     1
102
RTVSPropertyOp31
 70
     1
102
RTVSPropertyOp32
 70
     1
102
RTVSPropertyOp33
 70
     1
102
RTVSPropertyOp34
 70
     1
102
RTVSPropertyOp35
 70
     1
102
RTVSPropertyOp36
 70
     1
102
RTVSPropertyOp37
 70
     1
102
RTVSPropertyOp38
 70
     1
102
RTVSPropertyOp39
 70
     1
102
RTVSPropertyOp40
 70
     1
102
RTVSPropertyOp41
 70
     1
102
RTVSPropertyOp42
 70
     1
102
RTVSPropertyOp43
 70
     1
102
RTVSPropertyOp44
 70
     1
102
RTVSPropertyOp45
 70
     1
102
RTVSPropertyOp46
 70
     1
102
RTVSPropertyOp47
 70
     1
102
RTVSPropertyOp48
 70
     1
102
RTVSPropertyOp49
 70
     1
102
RTVSPropertyOp50
 70
     1
102
RTVSPropertyOp51
 70
     0
102
RTVSPropertyOp52
 70
     0
102
RTVSPropertyOp53
 70
     1
102
RTVSPropertyOp54
 70
     1
102
RTVSPropertyOp55
 70
     1
102
RTVSPropertyOp56
 70
     1
102
RTVSPropertyOp57
 70
     1
102
RTVSPropertyOp58
 70
     1
102
RTVSPropertyOp59
 70
     1
102
RTVSPropertyOp60
 70
     1
102
RTVSPropertyOp61
 70
     1
102
RTVSPropertyOp62
 70
     1
  0
XRECORD
  5
941AD
102
{ACAD_REACTORS
330
941AC
102
}
330
941AC
100
AcDbXrecord
280
     1
102
RTVSPost2010Prop28
280
     0
102
RTVSPost2010PropOp28
 70
     1
102
RTVSPost2010Prop29
280
     1
102
RTVSPost2010PropOp29
 70
     1
102
RTVSPost2010Prop30
280
     1
102
RTVSPost2010PropOp30
 70
     1
102
RTVSPost2010Prop31
280
     0
102
RTVSPost2010PropOp31
 70
     1
102
RTVSPost2010Prop32
280
     0
102
RTVSPost2010PropOp32
 70
     1
102
RTVSPost2010Prop33
280
     0
102
RTVSPost2010PropOp33
 70
     1
102
RTVSPost2010Prop34
280
     0
102
RTVSPost2010PropOp34
 70
     1
102
RTVSPost2010Prop35
280
     0
102
RTVSPost2010PropOp35
 70
     1
102
RTVSPost2010Prop36
280
     0
102
RTVSPost2010PropOp36
 70
     1
102
RTVSPost2010Prop37
 90
       50
102
RTVSPost2010PropOp37
 70
     1
102
RTVSPost2010Prop38
140
0.0
102
RTVSPost2010PropOp38
 70
     1
102
RTVSPost2010Prop39
140
1.0
102
RTVSPost2010PropOp39
 70
     1
102
RTVSPost2010Prop40
 90
        0
102
RTVSPost2010PropOp40
 70
     1
102
RTVSPost2010Prop41ColorIndex
 90
       18
102
RTVSPost2010Prop41ColorRGB
 90
        0
102
RTVSPost2010PropOp41
 70
     1
102
RTVSPost2010Prop42
 90
       50
102
RTVSPost2010PropOp42
 70
     1
102
RTVSPost2010Prop43
 90
        3
102
RTVSPost2010PropOp43
 70
     1
102
RTVSPost2010Prop44ColorIndex
 90
        5
102
RTVSPost2010Prop44ColorRGB
 90
      255
102
RTVSPost2010PropOp44
 70
     1
102
RTVSPost2010Prop45
280
     0
102
RTVSPost2010PropOp45
 70
     1
102
RTVSPost2010Prop46
 90
       50
102
RTVSPost2010PropOp46
 70
     1
102
RTVSPost2010Prop47
 90
       50
102
RTVSPost2010PropOp47
 70
     1
102
RTVSPost2010Prop48
 90
       50
102
RTVSPost2010PropOp48
 70
     1
102
RTVSPost2010Prop49
280
     0
102
RTVSPost2010PropOp49
 70
     1
102
RTVSPost2010Prop50
 90
       50
102
RTVSPost2010PropOp50
 70
     1
102
RTVSPost2010Prop51ColorIndex
 90
      256
102
RTVSPost2010Prop51ColorRGB
 90
-16777216
102
RTVSPost2010PropOp51
 70
     0
102
RTVSPost2010Prop52
140
1.0
102
RTVSPost2010PropOp52
 70
     0
102
RTVSPost2010Prop53
 90
        2
102
RTVSPost2010PropOp53
 70
     1
102
RTVSPost2010Prop54
  1
strokes_ogs.tif
102
RTVSPost2010PropOp54
 70
     1
102
RTVSPost2010Prop55
280
     0
102
RTVSPost2010PropOp55
 70
     1
102
RTVSPost2010Prop56
140
1.0
102
RTVSPost2010PropOp56
 70
     1
102
RTVSPost2010Prop57
140
1.0
102
RTVSPost2010PropOp57
 70
     1
102
RTVSPropertyOp0
 70
     1
102
RTVSPropertyOp1
 70
     1
102
RTVSPropertyOp2
 70
     1
102
RTVSPropertyOp3
 70
     1
102
RTVSPropertyOp4
 70
     1
102
RTVSPropertyOp5
 70
     1
102
RTVSPropertyOp6
 70
     1
102
RTVSPropertyOp7
 70
     1
102
RTVSPropertyOp8
 70
     1
102
RTVSPropertyOp9
 70
     1
102
RTVSPropertyOp10
 70
     1
102
RTVSPropertyOp11
 70
     1
102
RTVSPropertyOp12
 70
     1
102
RTVSPropertyOp13
 70
     1
102
RTVSPropertyOp14
 70
     1
102
RTVSPropertyOp15
 70
     1
102
RTVSPropertyOp16
 70
     1
102
RTVSPropertyOp17
 70
     1
102
RTVSPropertyOp18
 70
     1
102
RTVSPropertyOp19
 70
     1
102
RTVSPropertyOp20
 70
     1
102
RTVSPropertyOp21
 70
     1
102
RTVSPropertyOp22
 70
     1
102
RTVSPropertyOp23
 70
     1
102
RTVSPropertyOp24
 70
     1
102
RTVSPropertyOp25
 70
     1
102
RTVSPropertyOp26
 70
     1
102
RTVSPropertyOp27
 70
     1
102
RTVSPropertyOp28
 70
     1
102
RTVSPropertyOp29
 70
     1
102
RTVSPropertyOp30
 70
     1
102
RTVSPropertyOp31
 70
     1
102
RTVSPropertyOp32
 70
     1
102
RTVSPropertyOp33
 70
     1
102
RTVSPropertyOp34
 70
     1
102
RTVSPropertyOp35
 70
     1
102
RTVSPropertyOp36
 70
     1
102
RTVSPropertyOp37
 70
     1
102
RTVSPropertyOp38
 70
     1
102
RTVSPropertyOp39
 70
     1
102
RTVSPropertyOp40
 70
     1
102
RTVSPropertyOp41
 70
     1
102
RTVSPropertyOp42
 70
     1
102
RTVSPropertyOp43
 70
     1
102
RTVSPropertyOp44
 70
     1
102
RTVSPropertyOp45
 70
     1
102
RTVSPropertyOp46
 70
     1
102
RTVSPropertyOp47
 70
     1
102
RTVSPropertyOp48
 70
     1
102
RTVSPropertyOp49
 70
     1
102
RTVSPropertyOp50
 70
     1
102
RTVSPropertyOp51
 70
     0
102
RTVSPropertyOp52
 70
     0
102
RTVSPropertyOp53
 70
     1
102
RTVSPropertyOp54
 70
     1
102
RTVSPropertyOp55
 70
     1
102
RTVSPropertyOp56
 70
     1
102
RTVSPropertyOp57
 70
     1
102
RTVSPropertyOp58
 70
     1
102
RTVSPropertyOp59
 70
     1
102
RTVSPropertyOp60
 70
     1
102
RTVSPropertyOp61
 70
     1
102
RTVSPropertyOp62
 70
     1
  0
XRECORD
  5
941A7
102
{ACAD_REACTORS
330
941A6
102
}
330
941A6
100
AcDbXrecord
280
     1
102
RTVSPost2010Prop28
280
     0
102
RTVSPost2010PropOp28
 70
     1
102
RTVSPost2010Prop29
280
     1
102
RTVSPost2010PropOp29
 70
     1
102
RTVSPost2010Prop30
280
     1
102
RTVSPost2010PropOp30
 70
     1
102
RTVSPost2010Prop31
280
     0
102
RTVSPost2010PropOp31
 70
     1
102
RTVSPost2010Prop32
280
     0
102
RTVSPost2010PropOp32
 70
     1
102
RTVSPost2010Prop33
280
     0
102
RTVSPost2010PropOp33
 70
     1
102
RTVSPost2010Prop34
280
     0
102
RTVSPost2010PropOp34
 70
     1
102
RTVSPost2010Prop35
280
     0
102
RTVSPost2010PropOp35
 70
     1
102
RTVSPost2010Prop36
280
     0
102
RTVSPost2010PropOp36
 70
     1
102
RTVSPost2010Prop37
 90
       50
102
RTVSPost2010PropOp37
 70
     1
102
RTVSPost2010Prop38
140
0.0
102
RTVSPost2010PropOp38
 70
     1
102
RTVSPost2010Prop39
140
1.0
102
RTVSPost2010PropOp39
 70
     1
102
RTVSPost2010Prop40
 90
        0
102
RTVSPost2010PropOp40
 70
     1
102
RTVSPost2010Prop41ColorIndex
 90
       18
102
RTVSPost2010Prop41ColorRGB
 90
        0
102
RTVSPost2010PropOp41
 70
     1
102
RTVSPost2010Prop42
 90
       50
102
RTVSPost2010PropOp42
 70
     1
102
RTVSPost2010Prop43
 90
        3
102
RTVSPost2010PropOp43
 70
     1
102
RTVSPost2010Prop44ColorIndex
 90
        5
102
RTVSPost2010Prop44ColorRGB
 90
      255
102
RTVSPost2010PropOp44
 70
     1
102
RTVSPost2010Prop45
280
     0
102
RTVSPost2010PropOp45
 70
     1
102
RTVSPost2010Prop46
 90
       50
102
RTVSPost2010PropOp46
 70
     1
102
RTVSPost2010Prop47
 90
       50
102
RTVSPost2010PropOp47
 70
     1
102
RTVSPost2010Prop48
 90
       50
102
RTVSPost2010PropOp48
 70
     1
102
RTVSPost2010Prop49
280
     0
102
RTVSPost2010PropOp49
 70
     1
102
RTVSPost2010Prop50
 90
       50
102
RTVSPost2010PropOp50
 70
     1
102
RTVSPost2010Prop51ColorIndex
 90
      256
102
RTVSPost2010Prop51ColorRGB
 90
-16777216
102
RTVSPost2010PropOp51
 70
     0
102
RTVSPost2010Prop52
140
1.0
102
RTVSPost2010PropOp52
 70
     0
102
RTVSPost2010Prop53
 90
        2
102
RTVSPost2010PropOp53
 70
     1
102
RTVSPost2010Prop54
  1
strokes_ogs.tif
102
RTVSPost2010PropOp54
 70
     1
102
RTVSPost2010Prop55
280
     0
102
RTVSPost2010PropOp55
 70
     1
102
RTVSPost2010Prop56
140
1.0
102
RTVSPost2010PropOp56
 70
     1
102
RTVSPost2010Prop57
140
1.0
102
RTVSPost2010PropOp57
 70
     1
102
RTVSPropertyOp0
 70
     1
102
RTVSPropertyOp1
 70
     1
102
RTVSPropertyOp2
 70
     1
102
RTVSPropertyOp3
 70
     1
102
RTVSPropertyOp4
 70
     1
102
RTVSPropertyOp5
 70
     1
102
RTVSPropertyOp6
 70
     1
102
RTVSPropertyOp7
 70
     1
102
RTVSPropertyOp8
 70
     1
102
RTVSPropertyOp9
 70
     1
102
RTVSPropertyOp10
 70
     1
102
RTVSPropertyOp11
 70
     1
102
RTVSPropertyOp12
 70
     1
102
RTVSPropertyOp13
 70
     1
102
RTVSPropertyOp14
 70
     1
102
RTVSPropertyOp15
 70
     1
102
RTVSPropertyOp16
 70
     1
102
RTVSPropertyOp17
 70
     1
102
RTVSPropertyOp18
 70
     1
102
RTVSPropertyOp19
 70
     1
102
RTVSPropertyOp20
 70
     1
102
RTVSPropertyOp21
 70
     1
102
RTVSPropertyOp22
 70
     1
102
RTVSPropertyOp23
 70
     1
102
RTVSPropertyOp24
 70
     1
102
RTVSPropertyOp25
 70
     1
102
RTVSPropertyOp26
 70
     1
102
RTVSPropertyOp27
 70
     1
102
RTVSPropertyOp28
 70
     1
102
RTVSPropertyOp29
 70
     1
102
RTVSPropertyOp30
 70
     1
102
RTVSPropertyOp31
 70
     1
102
RTVSPropertyOp32
 70
     1
102
RTVSPropertyOp33
 70
     1
102
RTVSPropertyOp34
 70
     1
102
RTVSPropertyOp35
 70
     1
102
RTVSPropertyOp36
 70
     1
102
RTVSPropertyOp37
 70
     1
102
RTVSPropertyOp38
 70
     1
102
RTVSPropertyOp39
 70
     1
102
RTVSPropertyOp40
 70
     1
102
RTVSPropertyOp41
 70
     1
102
RTVSPropertyOp42
 70
     1
102
RTVSPropertyOp43
 70
     1
102
RTVSPropertyOp44
 70
     1
102
RTVSPropertyOp45
 70
     1
102
RTVSPropertyOp46
 70
     1
102
RTVSPropertyOp47
 70
     1
102
RTVSPropertyOp48
 70
     1
102
RTVSPropertyOp49
 70
     1
102
RTVSPropertyOp50
 70
     1
102
RTVSPropertyOp51
 70
     0
102
RTVSPropertyOp52
 70
     0
102
RTVSPropertyOp53
 70
     1
102
RTVSPropertyOp54
 70
     1
102
RTVSPropertyOp55
 70
     1
102
RTVSPropertyOp56
 70
     1
102
RTVSPropertyOp57
 70
     1
102
RTVSPropertyOp58
 70
     1
102
RTVSPropertyOp59
 70
     1
102
RTVSPropertyOp60
 70
     1
102
RTVSPropertyOp61
 70
     1
102
RTVSPropertyOp62
 70
     1
  0
XRECORD
  5
941A9
102
{ACAD_REACTORS
330
941A8
102
}
330
941A8
100
AcDbXrecord
280
     1
102
RTVSPost2010Prop28
280
     0
102
RTVSPost2010PropOp28
 70
     1
102
RTVSPost2010Prop29
280
     1
102
RTVSPost2010PropOp29
 70
     1
102
RTVSPost2010Prop30
280
     1
102
RTVSPost2010PropOp30
 70
     1
102
RTVSPost2010Prop31
280
     0
102
RTVSPost2010PropOp31
 70
     1
102
RTVSPost2010Prop32
280
     0
102
RTVSPost2010PropOp32
 70
     1
102
RTVSPost2010Prop33
280
     0
102
RTVSPost2010PropOp33
 70
     1
102
RTVSPost2010Prop34
280
     0
102
RTVSPost2010PropOp34
 70
     1
102
RTVSPost2010Prop35
280
     0
102
RTVSPost2010PropOp35
 70
     1
102
RTVSPost2010Prop36
280
     0
102
RTVSPost2010PropOp36
 70
     1
102
RTVSPost2010Prop37
 90
       50
102
RTVSPost2010PropOp37
 70
     1
102
RTVSPost2010Prop38
140
0.0
102
RTVSPost2010PropOp38
 70
     1
102
RTVSPost2010Prop39
140
1.0
102
RTVSPost2010PropOp39
 70
     1
102
RTVSPost2010Prop40
 90
        0
102
RTVSPost2010PropOp40
 70
     1
102
RTVSPost2010Prop41ColorIndex
 90
       18
102
RTVSPost2010Prop41ColorRGB
 90
        0
102
RTVSPost2010PropOp41
 70
     1
102
RTVSPost2010Prop42
 90
       50
102
RTVSPost2010PropOp42
 70
     1
102
RTVSPost2010Prop43
 90
        3
102
RTVSPost2010PropOp43
 70
     1
102
RTVSPost2010Prop44ColorIndex
 90
        5
102
RTVSPost2010Prop44ColorRGB
 90
      255
102
RTVSPost2010PropOp44
 70
     1
102
RTVSPost2010Prop45
280
     0
102
RTVSPost2010PropOp45
 70
     1
102
RTVSPost2010Prop46
 90
       50
102
RTVSPost2010PropOp46
 70
     1
102
RTVSPost2010Prop47
 90
       50
102
RTVSPost2010PropOp47
 70
     1
102
RTVSPost2010Prop48
 90
       50
102
RTVSPost2010PropOp48
 70
     1
102
RTVSPost2010Prop49
280
     0
102
RTVSPost2010PropOp49
 70
     1
102
RTVSPost2010Prop50
 90
       50
102
RTVSPost2010PropOp50
 70
     1
102
RTVSPost2010Prop51ColorIndex
 90
      256
102
RTVSPost2010Prop51ColorRGB
 90
-16777216
102
RTVSPost2010PropOp51
 70
     0
102
RTVSPost2010Prop52
140
1.0
102
RTVSPost2010PropOp52
 70
     0
102
RTVSPost2010Prop53
 90
        2
102
RTVSPost2010PropOp53
 70
     1
102
RTVSPost2010Prop54
  1
strokes_ogs.tif
102
RTVSPost2010PropOp54
 70
     1
102
RTVSPost2010Prop55
280
     0
102
RTVSPost2010PropOp55
 70
     1
102
RTVSPost2010Prop56
140
1.0
102
RTVSPost2010PropOp56
 70
     1
102
RTVSPost2010Prop57
140
1.0
102
RTVSPost2010PropOp57
 70
     1
102
RTVSPropertyOp0
 70
     1
102
RTVSPropertyOp1
 70
     1
102
RTVSPropertyOp2
 70
     1
102
RTVSPropertyOp3
 70
     1
102
RTVSPropertyOp4
 70
     1
102
RTVSPropertyOp5
 70
     1
102
RTVSPropertyOp6
 70
     1
102
RTVSPropertyOp7
 70
     1
102
RTVSPropertyOp8
 70
     1
102
RTVSPropertyOp9
 70
     1
102
RTVSPropertyOp10
 70
     1
102
RTVSPropertyOp11
 70
     1
102
RTVSPropertyOp12
 70
     1
102
RTVSPropertyOp13
 70
     1
102
RTVSPropertyOp14
 70
     1
102
RTVSPropertyOp15
 70
     1
102
RTVSPropertyOp16
 70
     1
102
RTVSPropertyOp17
 70
     1
102
RTVSPropertyOp18
 70
     1
102
RTVSPropertyOp19
 70
     1
102
RTVSPropertyOp20
 70
     1
102
RTVSPropertyOp21
 70
     1
102
RTVSPropertyOp22
 70
     1
102
RTVSPropertyOp23
 70
     1
102
RTVSPropertyOp24
 70
     1
102
RTVSPropertyOp25
 70
     1
102
RTVSPropertyOp26
 70
     1
102
RTVSPropertyOp27
 70
     1
102
RTVSPropertyOp28
 70
     1
102
RTVSPropertyOp29
 70
     1
102
RTVSPropertyOp30
 70
     1
102
RTVSPropertyOp31
 70
     1
102
RTVSPropertyOp32
 70
     1
102
RTVSPropertyOp33
 70
     1
102
RTVSPropertyOp34
 70
     1
102
RTVSPropertyOp35
 70
     1
102
RTVSPropertyOp36
 70
     1
102
RTVSPropertyOp37
 70
     1
102
RTVSPropertyOp38
 70
     1
102
RTVSPropertyOp39
 70
     1
102
RTVSPropertyOp40
 70
     1
102
RTVSPropertyOp41
 70
     1
102
RTVSPropertyOp42
 70
     1
102
RTVSPropertyOp43
 70
     1
102
RTVSPropertyOp44
 70
     1
102
RTVSPropertyOp45
 70
     1
102
RTVSPropertyOp46
 70
     1
102
RTVSPropertyOp47
 70
     1
102
RTVSPropertyOp48
 70
     1
102
RTVSPropertyOp49
 70
     1
102
RTVSPropertyOp50
 70
     1
102
RTVSPropertyOp51
 70
     0
102
RTVSPropertyOp52
 70
     0
102
RTVSPropertyOp53
 70
     1
102
RTVSPropertyOp54
 70
     1
102
RTVSPropertyOp55
 70
     1
102
RTVSPropertyOp56
 70
     1
102
RTVSPropertyOp57
 70
     1
102
RTVSPropertyOp58
 70
     1
102
RTVSPropertyOp59
 70
     1
102
RTVSPropertyOp60
 70
     1
102
RTVSPropertyOp61
 70
     1
102
RTVSPropertyOp62
 70
     1
  0
XRECORD
  5
9419F
102
{ACAD_REACTORS
330
9419E
102
}
330
9419E
100
AcDbXrecord
280
     1
102
RTVSPost2010Prop28
280
     0
102
RTVSPost2010PropOp28
 70
     1
102
RTVSPost2010Prop29
280
     1
102
RTVSPost2010PropOp29
 70
     1
102
RTVSPost2010Prop30
280
     1
102
RTVSPost2010PropOp30
 70
     1
102
RTVSPost2010Prop31
280
     0
102
RTVSPost2010PropOp31
 70
     1
102
RTVSPost2010Prop32
280
     0
102
RTVSPost2010PropOp32
 70
     1
102
RTVSPost2010Prop33
280
     0
102
RTVSPost2010PropOp33
 70
     1
102
RTVSPost2010Prop34
280
     0
102
RTVSPost2010PropOp34
 70
     1
102
RTVSPost2010Prop35
280
     0
102
RTVSPost2010PropOp35
 70
     1
102
RTVSPost2010Prop36
280
     0
102
RTVSPost2010PropOp36
 70
     1
102
RTVSPost2010Prop37
 90
       50
102
RTVSPost2010PropOp37
 70
     1
102
RTVSPost2010Prop38
140
0.0
102
RTVSPost2010PropOp38
 70
     1
102
RTVSPost2010Prop39
140
1.0
102
RTVSPost2010PropOp39
 70
     1
102
RTVSPost2010Prop40
 90
        0
102
RTVSPost2010PropOp40
 70
     1
102
RTVSPost2010Prop41ColorIndex
 90
       18
102
RTVSPost2010Prop41ColorRGB
 90
        0
102
RTVSPost2010PropOp41
 70
     1
102
RTVSPost2010Prop42
 90
       50
102
RTVSPost2010PropOp42
 70
     1
102
RTVSPost2010Prop43
 90
        3
102
RTVSPost2010PropOp43
 70
     1
102
RTVSPost2010Prop44ColorIndex
 90
        5
102
RTVSPost2010Prop44ColorRGB
 90
      255
102
RTVSPost2010PropOp44
 70
     1
102
RTVSPost2010Prop45
280
     0
102
RTVSPost2010PropOp45
 70
     1
102
RTVSPost2010Prop46
 90
       50
102
RTVSPost2010PropOp46
 70
     1
102
RTVSPost2010Prop47
 90
       50
102
RTVSPost2010PropOp47
 70
     1
102
RTVSPost2010Prop48
 90
       50
102
RTVSPost2010PropOp48
 70
     1
102
RTVSPost2010Prop49
280
     0
102
RTVSPost2010PropOp49
 70
     1
102
RTVSPost2010Prop50
 90
       50
102
RTVSPost2010PropOp50
 70
     1
102
RTVSPost2010Prop51ColorIndex
 90
      256
102
RTVSPost2010Prop51ColorRGB
 90
-16777216
102
RTVSPost2010PropOp51
 70
     0
102
RTVSPost2010Prop52
140
1.0
102
RTVSPost2010PropOp52
 70
     0
102
RTVSPost2010Prop53
 90
        2
102
RTVSPost2010PropOp53
 70
     1
102
RTVSPost2010Prop54
  1
strokes_ogs.tif
102
RTVSPost2010PropOp54
 70
     1
102
RTVSPost2010Prop55
280
     0
102
RTVSPost2010PropOp55
 70
     1
102
RTVSPost2010Prop56
140
1.0
102
RTVSPost2010PropOp56
 70
     1
102
RTVSPost2010Prop57
140
1.0
102
RTVSPost2010PropOp57
 70
     1
102
RTVSPropertyOp0
 70
     1
102
RTVSPropertyOp1
 70
     1
102
RTVSPropertyOp2
 70
     1
102
RTVSPropertyOp3
 70
     1
102
RTVSPropertyOp4
 70
     1
102
RTVSPropertyOp5
 70
     1
102
RTVSPropertyOp6
 70
     1
102
RTVSPropertyOp7
 70
     1
102
RTVSPropertyOp8
 70
     1
102
RTVSPropertyOp9
 70
     1
102
RTVSPropertyOp10
 70
     1
102
RTVSPropertyOp11
 70
     1
102
RTVSPropertyOp12
 70
     1
102
RTVSPropertyOp13
 70
     1
102
RTVSPropertyOp14
 70
     1
102
RTVSPropertyOp15
 70
     1
102
RTVSPropertyOp16
 70
     1
102
RTVSPropertyOp17
 70
     1
102
RTVSPropertyOp18
 70
     1
102
RTVSPropertyOp19
 70
     1
102
RTVSPropertyOp20
 70
     1
102
RTVSPropertyOp21
 70
     1
102
RTVSPropertyOp22
 70
     1
102
RTVSPropertyOp23
 70
     1
102
RTVSPropertyOp24
 70
     1
102
RTVSPropertyOp25
 70
     1
102
RTVSPropertyOp26
 70
     1
102
RTVSPropertyOp27
 70
     1
102
RTVSPropertyOp28
 70
     1
102
RTVSPropertyOp29
 70
     1
102
RTVSPropertyOp30
 70
     1
102
RTVSPropertyOp31
 70
     1
102
RTVSPropertyOp32
 70
     1
102
RTVSPropertyOp33
 70
     1
102
RTVSPropertyOp34
 70
     1
102
RTVSPropertyOp35
 70
     1
102
RTVSPropertyOp36
 70
     1
102
RTVSPropertyOp37
 70
     1
102
RTVSPropertyOp38
 70
     1
102
RTVSPropertyOp39
 70
     1
102
RTVSPropertyOp40
 70
     1
102
RTVSPropertyOp41
 70
     1
102
RTVSPropertyOp42
 70
     1
102
RTVSPropertyOp43
 70
     1
102
RTVSPropertyOp44
 70
     1
102
RTVSPropertyOp45
 70
     1
102
RTVSPropertyOp46
 70
     1
102
RTVSPropertyOp47
 70
     1
102
RTVSPropertyOp48
 70
     1
102
RTVSPropertyOp49
 70
     1
102
RTVSPropertyOp50
 70
     1
102
RTVSPropertyOp51
 70
     0
102
RTVSPropertyOp52
 70
     0
102
RTVSPropertyOp53
 70
     1
102
RTVSPropertyOp54
 70
     1
102
RTVSPropertyOp55
 70
     1
102
RTVSPropertyOp56
 70
     1
102
RTVSPropertyOp57
 70
     1
102
RTVSPropertyOp58
 70
     1
102
RTVSPropertyOp59
 70
     1
102
RTVSPropertyOp60
 70
     1
102
RTVSPropertyOp61
 70
     1
102
RTVSPropertyOp62
 70
     1
  0
XRECORD
  5
94193
102
{ACAD_REACTORS
330
94192
102
}
330
94192
100
AcDbXrecord
280
     1
102
RTVSPost2010Prop28
280
     0
102
RTVSPost2010PropOp28
 70
     1
102
RTVSPost2010Prop29
280
     1
102
RTVSPost2010PropOp29
 70
     1
102
RTVSPost2010Prop30
280
     1
102
RTVSPost2010PropOp30
 70
     1
102
RTVSPost2010Prop31
280
     0
102
RTVSPost2010PropOp31
 70
     1
102
RTVSPost2010Prop32
280
     0
102
RTVSPost2010PropOp32
 70
     1
102
RTVSPost2010Prop33
280
     0
102
RTVSPost2010PropOp33
 70
     1
102
RTVSPost2010Prop34
280
     0
102
RTVSPost2010PropOp34
 70
     1
102
RTVSPost2010Prop35
280
     0
102
RTVSPost2010PropOp35
 70
     1
102
RTVSPost2010Prop36
280
     0
102
RTVSPost2010PropOp36
 70
     1
102
RTVSPost2010Prop37
 90
       50
102
RTVSPost2010PropOp37
 70
     1
102
RTVSPost2010Prop38
140
0.0
102
RTVSPost2010PropOp38
 70
     1
102
RTVSPost2010Prop39
140
1.0
102
RTVSPost2010PropOp39
 70
     1
102
RTVSPost2010Prop40
 90
        0
102
RTVSPost2010PropOp40
 70
     1
102
RTVSPost2010Prop41ColorIndex
 90
       18
102
RTVSPost2010Prop41ColorRGB
 90
        0
102
RTVSPost2010PropOp41
 70
     1
102
RTVSPost2010Prop42
 90
       50
102
RTVSPost2010PropOp42
 70
     1
102
RTVSPost2010Prop43
 90
        3
102
RTVSPost2010PropOp43
 70
     1
102
RTVSPost2010Prop44ColorIndex
 90
        5
102
RTVSPost2010Prop44ColorRGB
 90
      255
102
RTVSPost2010PropOp44
 70
     1
102
RTVSPost2010Prop45
280
     0
102
RTVSPost2010PropOp45
 70
     1
102
RTVSPost2010Prop46
 90
       50
102
RTVSPost2010PropOp46
 70
     1
102
RTVSPost2010Prop47
 90
       50
102
RTVSPost2010PropOp47
 70
     1
102
RTVSPost2010Prop48
 90
       50
102
RTVSPost2010PropOp48
 70
     1
102
RTVSPost2010Prop49
280
     0
102
RTVSPost2010PropOp49
 70
     1
102
RTVSPost2010Prop50
 90
       50
102
RTVSPost2010PropOp50
 70
     1
102
RTVSPost2010Prop51ColorIndex
 90
      256
102
RTVSPost2010Prop51ColorRGB
 90
-16777216
102
RTVSPost2010PropOp51
 70
     0
102
RTVSPost2010Prop52
140
1.0
102
RTVSPost2010PropOp52
 70
     0
102
RTVSPost2010Prop53
 90
        2
102
RTVSPost2010PropOp53
 70
     1
102
RTVSPost2010Prop54
  1
strokes_ogs.tif
102
RTVSPost2010PropOp54
 70
     1
102
RTVSPost2010Prop55
280
     0
102
RTVSPost2010PropOp55
 70
     1
102
RTVSPost2010Prop56
140
1.0
102
RTVSPost2010PropOp56
 70
     1
102
RTVSPost2010Prop57
140
1.0
102
RTVSPost2010PropOp57
 70
     1
102
RTVSPropertyOp0
 70
     1
102
RTVSPropertyOp1
 70
     1
102
RTVSPropertyOp2
 70
     1
102
RTVSPropertyOp3
 70
     1
102
RTVSPropertyOp4
 70
     1
102
RTVSPropertyOp5
 70
     1
102
RTVSPropertyOp6
 70
     1
102
RTVSPropertyOp7
 70
     1
102
RTVSPropertyOp8
 70
     1
102
RTVSPropertyOp9
 70
     1
102
RTVSPropertyOp10
 70
     1
102
RTVSPropertyOp11
 70
     1
102
RTVSPropertyOp12
 70
     1
102
RTVSPropertyOp13
 70
     1
102
RTVSPropertyOp14
 70
     1
102
RTVSPropertyOp15
 70
     1
102
RTVSPropertyOp16
 70
     1
102
RTVSPropertyOp17
 70
     1
102
RTVSPropertyOp18
 70
     1
102
RTVSPropertyOp19
 70
     1
102
RTVSPropertyOp20
 70
     1
102
RTVSPropertyOp21
 70
     1
102
RTVSPropertyOp22
 70
     1
102
RTVSPropertyOp23
 70
     1
102
RTVSPropertyOp24
 70
     1
102
RTVSPropertyOp25
 70
     1
102
RTVSPropertyOp26
 70
     1
102
RTVSPropertyOp27
 70
     1
102
RTVSPropertyOp28
 70
     1
102
RTVSPropertyOp29
 70
     1
102
RTVSPropertyOp30
 70
     1
102
RTVSPropertyOp31
 70
     1
102
RTVSPropertyOp32
 70
     1
102
RTVSPropertyOp33
 70
     1
102
RTVSPropertyOp34
 70
     1
102
RTVSPropertyOp35
 70
     1
102
RTVSPropertyOp36
 70
     1
102
RTVSPropertyOp37
 70
     1
102
RTVSPropertyOp38
 70
     1
102
RTVSPropertyOp39
 70
     1
102
RTVSPropertyOp40
 70
     1
102
RTVSPropertyOp41
 70
     1
102
RTVSPropertyOp42
 70
     1
102
RTVSPropertyOp43
 70
     1
102
RTVSPropertyOp44
 70
     1
102
RTVSPropertyOp45
 70
     1
102
RTVSPropertyOp46
 70
     1
102
RTVSPropertyOp47
 70
     1
102
RTVSPropertyOp48
 70
     1
102
RTVSPropertyOp49
 70
     1
102
RTVSPropertyOp50
 70
     1
102
RTVSPropertyOp51
 70
     0
102
RTVSPropertyOp52
 70
     0
102
RTVSPropertyOp53
 70
     1
102
RTVSPropertyOp54
 70
     1
102
RTVSPropertyOp55
 70
     1
102
RTVSPropertyOp56
 70
     1
102
RTVSPropertyOp57
 70
     1
102
RTVSPropertyOp58
 70
     1
102
RTVSPropertyOp59
 70
     1
102
RTVSPropertyOp60
 70
     1
102
RTVSPropertyOp61
 70
     1
102
RTVSPropertyOp62
 70
     1
  0
XRECORD
  5
941AB
102
{ACAD_REACTORS
330
941AA
102
}
330
941AA
100
AcDbXrecord
280
     1
102
RTVSPost2010Prop28
280
     0
102
RTVSPost2010PropOp28
 70
     1
102
RTVSPost2010Prop29
280
     1
102
RTVSPost2010PropOp29
 70
     1
102
RTVSPost2010Prop30
280
     1
102
RTVSPost2010PropOp30
 70
     1
102
RTVSPost2010Prop31
280
     0
102
RTVSPost2010PropOp31
 70
     1
102
RTVSPost2010Prop32
280
     0
102
RTVSPost2010PropOp32
 70
     1
102
RTVSPost2010Prop33
280
     0
102
RTVSPost2010PropOp33
 70
     1
102
RTVSPost2010Prop34
280
     0
102
RTVSPost2010PropOp34
 70
     1
102
RTVSPost2010Prop35
280
     0
102
RTVSPost2010PropOp35
 70
     1
102
RTVSPost2010Prop36
280
     0
102
RTVSPost2010PropOp36
 70
     1
102
RTVSPost2010Prop37
 90
       50
102
RTVSPost2010PropOp37
 70
     1
102
RTVSPost2010Prop38
140
0.0
102
RTVSPost2010PropOp38
 70
     1
102
RTVSPost2010Prop39
140
1.0
102
RTVSPost2010PropOp39
 70
     1
102
RTVSPost2010Prop40
 90
        0
102
RTVSPost2010PropOp40
 70
     1
102
RTVSPost2010Prop41ColorIndex
 90
       18
102
RTVSPost2010Prop41ColorRGB
 90
        0
102
RTVSPost2010PropOp41
 70
     1
102
RTVSPost2010Prop42
 90
       50
102
RTVSPost2010PropOp42
 70
     1
102
RTVSPost2010Prop43
 90
        3
102
RTVSPost2010PropOp43
 70
     1
102
RTVSPost2010Prop44ColorIndex
 90
        5
102
RTVSPost2010Prop44ColorRGB
 90
      255
102
RTVSPost2010PropOp44
 70
     1
102
RTVSPost2010Prop45
280
     0
102
RTVSPost2010PropOp45
 70
     1
102
RTVSPost2010Prop46
 90
       50
102
RTVSPost2010PropOp46
 70
     1
102
RTVSPost2010Prop47
 90
       50
102
RTVSPost2010PropOp47
 70
     1
102
RTVSPost2010Prop48
 90
       50
102
RTVSPost2010PropOp48
 70
     1
102
RTVSPost2010Prop49
280
     0
102
RTVSPost2010PropOp49
 70
     1
102
RTVSPost2010Prop50
 90
       50
102
RTVSPost2010PropOp50
 70
     1
102
RTVSPost2010Prop51ColorIndex
 90
      256
102
RTVSPost2010Prop51ColorRGB
 90
-16777216
102
RTVSPost2010PropOp51
 70
     0
102
RTVSPost2010Prop52
140
1.0
102
RTVSPost2010PropOp52
 70
     0
102
RTVSPost2010Prop53
 90
        2
102
RTVSPost2010PropOp53
 70
     1
102
RTVSPost2010Prop54
  1
strokes_ogs.tif
102
RTVSPost2010PropOp54
 70
     1
102
RTVSPost2010Prop55
280
     0
102
RTVSPost2010PropOp55
 70
     1
102
RTVSPost2010Prop56
140
1.0
102
RTVSPost2010PropOp56
 70
     1
102
RTVSPost2010Prop57
140
1.0
102
RTVSPost2010PropOp57
 70
     1
102
RTVSPropertyOp0
 70
     1
102
RTVSPropertyOp1
 70
     1
102
RTVSPropertyOp2
 70
     1
102
RTVSPropertyOp3
 70
     1
102
RTVSPropertyOp4
 70
     1
102
RTVSPropertyOp5
 70
     1
102
RTVSPropertyOp6
 70
     1
102
RTVSPropertyOp7
 70
     1
102
RTVSPropertyOp8
 70
     1
102
RTVSPropertyOp9
 70
     1
102
RTVSPropertyOp10
 70
     1
102
RTVSPropertyOp11
 70
     1
102
RTVSPropertyOp12
 70
     1
102
RTVSPropertyOp13
 70
     1
102
RTVSPropertyOp14
 70
     1
102
RTVSPropertyOp15
 70
     1
102
RTVSPropertyOp16
 70
     1
102
RTVSPropertyOp17
 70
     1
102
RTVSPropertyOp18
 70
     1
102
RTVSPropertyOp19
 70
     1
102
RTVSPropertyOp20
 70
     1
102
RTVSPropertyOp21
 70
     1
102
RTVSPropertyOp22
 70
     1
102
RTVSPropertyOp23
 70
     1
102
RTVSPropertyOp24
 70
     1
102
RTVSPropertyOp25
 70
     1
102
RTVSPropertyOp26
 70
     1
102
RTVSPropertyOp27
 70
     1
102
RTVSPropertyOp28
 70
     1
102
RTVSPropertyOp29
 70
     1
102
RTVSPropertyOp30
 70
     1
102
RTVSPropertyOp31
 70
     1
102
RTVSPropertyOp32
 70
     1
102
RTVSPropertyOp33
 70
     1
102
RTVSPropertyOp34
 70
     1
102
RTVSPropertyOp35
 70
     1
102
RTVSPropertyOp36
 70
     1
102
RTVSPropertyOp37
 70
     1
102
RTVSPropertyOp38
 70
     1
102
RTVSPropertyOp39
 70
     1
102
RTVSPropertyOp40
 70
     1
102
RTVSPropertyOp41
 70
     1
102
RTVSPropertyOp42
 70
     1
102
RTVSPropertyOp43
 70
     1
102
RTVSPropertyOp44
 70
     1
102
RTVSPropertyOp45
 70
     1
102
RTVSPropertyOp46
 70
     1
102
RTVSPropertyOp47
 70
     1
102
RTVSPropertyOp48
 70
     1
102
RTVSPropertyOp49
 70
     1
102
RTVSPropertyOp50
 70
     1
102
RTVSPropertyOp51
 70
     0
102
RTVSPropertyOp52
 70
     0
102
RTVSPropertyOp53
 70
     1
102
RTVSPropertyOp54
 70
     1
102
RTVSPropertyOp55
 70
     1
102
RTVSPropertyOp56
 70
     1
102
RTVSPropertyOp57
 70
     1
102
RTVSPropertyOp58
 70
     1
102
RTVSPropertyOp59
 70
     1
102
RTVSPropertyOp60
 70
     1
102
RTVSPropertyOp61
 70
     1
102
RTVSPropertyOp62
 70
     1
  0
ENDSEC
  0
EOF
