  0
SECTION
  2
HEADER
  9
$ACADVER
  1
AC1015
  9
$ACADMAINTVER
 70
    13
  9
$DWGCODEPAGE
  3
ANSI_932
  9
$INSBASE
 10
0.0
 20
0.0
 30
0.0
  9
$EXTMIN
 10
1053.17994516919
 20
927.0605830477434
 30
0.0
  9
$EXTMAX
 10
79765.3123243973
 20
61081.18894980424
 30
0.0
  9
$LIMMIN
 10
0.0
 20
0.0
  9
$LIMMAX
 10
420.0
 20
297.0
  9
$ORTHOMODE
 70
     0
  9
$REGENMODE
 70
     1
  9
$FILLMODE
 70
     1
  9
$QTEXTMODE
 70
     0
  9
$MIRRTEXT
 70
     1
  9
$LTSCALE
 40
1.0
  9
$ATTMODE
 70
     1
  9
$TEXTSIZE
 40
2.5
  9
$TRACEWID
 40
1.0
  9
$TEXTSTYLE
  7
Standard
  9
$CLAYER
  8
0
  9
$CELTYPE
  6
ByLayer
  9
$CECOLOR
 62
   256
  9
$CELTSCALE
 40
1.0
  9
$DISPSILH
 70
     0
  9
$DIMSCALE
 40
1.0
  9
$DIMASZ
 40
2.5
  9
$DIMEXO
 40
0.625
  9
$DIMDLI
 40
3.75
  9
$DIMRND
 40
0.0
  9
$DIMDLE
 40
0.0
  9
$DIMEXE
 40
1.25
  9
$DIMTP
 40
0.0
  9
$DIMTM
 40
0.0
  9
$DIMTXT
 40
2.5
  9
$DIMCEN
 40
2.5
  9
$DIMTSZ
 40
0.0
  9
$DIMTOL
 70
     0
  9
$DIMLIM
 70
     0
  9
$DIMTIH
 70
     0
  9
$DIMTOH
 70
     0
  9
$DIMSE1
 70
     0
  9
$DIMSE2
 70
     0
  9
$DIMTAD
 70
     1
  9
$DIMZIN
 70
     8
  9
$DIMBLK
  1

  9
$DIMASO
 70
     1
  9
$DIMSHO
 70
     1
  9
$DIMPOST
  1

  9
$DIMAPOST
  1

  9
$DIMALT
 70
     0
  9
$DIMALTD
 70
     3
  9
$DIMALTF
 40
0.03937007874016
  9
$DIMLFAC
 40
1.0
  9
$DIMTOFL
 70
     1
  9
$DIMTVP
 40
0.0
  9
$DIMTIX
 70
     0
  9
$DIMSOXD
 70
     0
  9
$DIMSAH
 70
     0
  9
$DIMBLK1
  1

  9
$DIMBLK2
  1

  9
$DIMSTYLE
  2
ISO-25
  9
$DIMCLRD
 70
     0
  9
$DIMCLRE
 70
     0
  9
$DIMCLRT
 70
     0
  9
$DIMTFAC
 40
1.0
  9
$DIMGAP
 40
0.625
  9
$DIMJUST
 70
     0
  9
$DIMSD1
 70
     0
  9
$DIMSD2
 70
     0
  9
$DIMTOLJ
 70
     0
  9
$DIMTZIN
 70
     8
  9
$DIMALTZ
 70
     0
  9
$DIMALTTZ
 70
     0
  9
$DIMUPT
 70
     0
  9
$DIMDEC
 70
     2
  9
$DIMTDEC
 70
     2
  9
$DIMALTU
 70
     2
  9
$DIMALTTD
 70
     3
  9
$DIMTXSTY
  7
Standard
  9
$DIMAUNIT
 70
     0
  9
$DIMADEC
 70
     0
  9
$DIMALTRND
 40
0.0
  9
$DIMAZIN
 70
     0
  9
$DIMDSEP
 70
    46
  9
$DIMATFIT
 70
     3
  9
$DIMFRAC
 70
     0
  9
$DIMLDRBLK
  1

  9
$DIMLUNIT
 70
     2
  9
$DIMLWD
 70
    -2
  9
$DIMLWE
 70
    -2
  9
$DIMTMOVE
 70
     0
  9
$LUNITS
 70
     2
  9
$LUPREC
 70
     4
  9
$SKETCHINC
 40
1.0
  9
$FILLETRAD
 40
10.0
  9
$AUNITS
 70
     0
  9
$AUPREC
 70
     0
  9
$MENU
  1
.
  9
$ELEVATION
 40
0.0
  9
$PELEVATION
 40
0.0
  9
$THICKNESS
 40
0.0
  9
$LIMCHECK
 70
     0
  9
$CHAMFERA
 40
10.0
  9
$CHAMFERB
 40
10.0
  9
$CHAMFERC
 40
20.0
  9
$CHAMFERD
 40
0.0
  9
$SKPOLY
 70
     0
  9
$TDCREATE
 40
2455236.659162499
  9
$TDUCREATE
 40
2455236.284162499
  9
$TDUPDATE
 40
2455922.450213322
  9
$TDUUPDATE
 40
2455922.075213321
  9
$TDINDWG
 40
0.0184327199
  9
$TDUSRTIMER
 40
0.0184319907
  9
$USRTIMER
 70
     1
  9
$ANGBASE
 50
0.0
  9
$ANGDIR
 70
     0
  9
$PDMODE
 70
     0
  9
$PDSIZE
 40
0.0
  9
$PLINEWID
 40
0.0
  9
$SPLFRAME
 70
     0
  9
$SPLINETYPE
 70
     6
  9
$SPLINESEGS
 70
     8
  9
$HANDSEED
  5
36CD
  9
$SURFTAB1
 70
     6
  9
$SURFTAB2
 70
     6
  9
$SURFTYPE
 70
     6
  9
$SURFU
 70
     6
  9
$SURFV
 70
     6
  9
$UCSBASE
  2

  9
$UCSNAME
  2

  9
$UCSORG
 10
0.0
 20
0.0
 30
0.0
  9
$UCSXDIR
 10
1.0
 20
0.0
 30
0.0
  9
$UCSYDIR
 10
0.0
 20
1.0
 30
0.0
  9
$UCSORTHOREF
  2

  9
$UCSORTHOVIEW
 70
     0
  9
$UCSORGTOP
 10
0.0
 20
0.0
 30
0.0
  9
$UCSORGBOTTOM
 10
0.0
 20
0.0
 30
0.0
  9
$UCSORGLEFT
 10
0.0
 20
0.0
 30
0.0
  9
$UCSORGRIGHT
 10
0.0
 20
0.0
 30
0.0
  9
$UCSORGFRONT
 10
0.0
 20
0.0
 30
0.0
  9
$UCSORGBACK
 10
0.0
 20
0.0
 30
0.0
  9
$PUCSBASE
  2

  9
$PUCSNAME
  2

  9
$PUCSORG
 10
0.0
 20
0.0
 30
0.0
  9
$PUCSXDIR
 10
1.0
 20
0.0
 30
0.0
  9
$PUCSYDIR
 10
0.0
 20
1.0
 30
0.0
  9
$PUCSORTHOREF
  2

  9
$PUCSORTHOVIEW
 70
     0
  9
$PUCSORGTOP
 10
0.0
 20
0.0
 30
0.0
  9
$PUCSORGBOTTOM
 10
0.0
 20
0.0
 30
0.0
  9
$PUCSORGLEFT
 10
0.0
 20
0.0
 30
0.0
  9
$PUCSORGRIGHT
 10
0.0
 20
0.0
 30
0.0
  9
$PUCSORGFRONT
 10
0.0
 20
0.0
 30
0.0
  9
$PUCSORGBACK
 10
0.0
 20
0.0
 30
0.0
  9
$USERI1
 70
     0
  9
$USERI2
 70
     0
  9
$USERI3
 70
     0
  9
$USERI4
 70
     0
  9
$USERI5
 70
     0
  9
$USERR1
 40
0.0
  9
$USERR2
 40
0.0
  9
$USERR3
 40
0.0
  9
$USERR4
 40
0.0
  9
$USERR5
 40
0.0
  9
$WORLDVIEW
 70
     1
  9
$SHADEDGE
 70
     3
  9
$SHADEDIF
 70
    70
  9
$TILEMODE
 70
     1
  9
$MAXACTVP
 70
    64
  9
$PINSBASE
 10
0.0
 20
0.0
 30
0.0
  9
$PLIMCHECK
 70
     0
  9
$PEXTMIN
 10
1.000000000000000E+20
 20
1.000000000000000E+20
 30
1.000000000000000E+20
  9
$PEXTMAX
 10
-1.000000000000000E+20
 20
-1.000000000000000E+20
 30
-1.000000000000000E+20
  9
$PLIMMIN
 10
0.0
 20
0.0
  9
$PLIMMAX
 10
420.0
 20
297.0
  9
$UNITMODE
 70
     0
  9
$VISRETAIN
 70
     1
  9
$PLINEGEN
 70
     0
  9
$PSLTSCALE
 70
     1
  9
$TREEDEPTH
 70
  3020
  9
$CMLSTYLE
  2
Standard
  9
$CMLJUST
 70
     0
  9
$CMLSCALE
 40
20.0
  9
$PROXYGRAPHICS
 70
     1
  9
$MEASUREMENT
 70
     1
  9
$CELWEIGHT
370
    -1
  9
$ENDCAPS
280
     0
  9
$JOINSTYLE
280
     0
  9
$LWDISPLAY
290
     0
  9
$INSUNITS
 70
     4
  9
$HYPERLINKBASE
  1

  9
$STYLESHEET
  1

  9
$XEDIT
290
     1
  9
$CEPSNTYPE
380
     0
  9
$PSTYLEMODE
290
     1
  9
$FINGERPRINTGUID
  2
{9F70917D-061E-40C1-9485-7AD4368FB371}
  9
$VERSIONGUID
  2
{55212F88-615E-4EC8-8545-CC006EB56909}
  9
$EXTNAMES
290
     1
  9
$PSVPSCALE
 40
0.0
  9
$OLESTARTUP
290
     0
  0
ENDSEC
  0
SECTION
  2
CLASSES
  0
CLASS
  1
ACDBDICTIONARYWDFLT
  2
AcDbDictionaryWithDefault
  3
AutoCAD 2000
 90
        0
280
     0
281
     0
  0
CLASS
  1
ACDBPLACEHOLDER
  2
AcDbPlaceHolder
  3
AutoCAD 2000
 90
        0
280
     0
281
     0
  0
CLASS
  1
LAYOUT
  2
AcDbLayout
  3
AutoCAD 2000
 90
        0
280
     0
281
     0
  0
CLASS
  1
DICTIONARYVAR
  2
AcDbDictionaryVar
  3
AutoCAD 2000
 90
        0
280
     0
281
     0
  0
ENDSEC
  0
SECTION
  2
TABLES
  0
TABLE
  2
VPORT
  5
8
330
0
100
AcDbSymbolTable
 70
     3
  0
VPORT
  5
36CC
330
8
100
AcDbSymbolTableRecord
100
AcDbViewportTableRecord
  2
*Active
 70
     0
 10
0.0
 20
0.0
 11
1.0
 21
1.0
 12
13930.90050035846
 22
13592.48851730793
 13
0.0
 23
0.0
 14
10.0
 24
10.0
 15
10.0
 25
10.0
 16
0.0
 26
0.0
 36
1.0
 17
0.0
 27
0.0
 37
0.0
 40
29651.16157965396
 41
1.657444005270092
 42
50.0
 43
0.0
 44
0.0
 50
0.0
 51
0.0
 71
     0
 72
   100
 73
     1
 74
     3
 75
     0
 76
     0
 77
     0
 78
     0
281
     0
 65
     1
110
0.0
120
0.0
130
0.0
111
1.0
121
0.0
131
0.0
112
0.0
122
1.0
132
0.0
 79
     0
146
0.0
  0
ENDTAB
  0
TABLE
  2
LTYPE
  5
5
330
0
100
AcDbSymbolTable
 70
     4
  0
LTYPE
  5
14
330
5
100
AcDbSymbolTableRecord
100
AcDbLinetypeTableRecord
  2
ByBlock
 70
     0
  3

 72
    65
 73
     0
 40
0.0
  0
LTYPE
  5
15
330
5
100
AcDbSymbolTableRecord
100
AcDbLinetypeTableRecord
  2
ByLayer
 70
     0
  3

 72
    65
 73
     0
 40
0.0
  0
LTYPE
  5
16
330
5
100
AcDbSymbolTableRecord
100
AcDbLinetypeTableRecord
  2
Continuous
 70
     0
  3
Solid line
 72
    65
 73
     0
 40
0.0
  0
LTYPE
  5
1294
330
5
100
AcDbSymbolTableRecord
100
AcDbLinetypeTableRecord
  2
HIDDEN
 70
     0
  3
------------------------
 72
    65
 73
     2
 40
12.6
 49
8.4
 74
     0
 49
-4.2
 74
     0
  0
LTYPE
  5
1878
330
5
100
AcDbSymbolTableRecord
100
AcDbLinetypeTableRecord
  2
DASHDOT
 70
     0
  3
--･--･--･--･--･--･--･--
 72
    65
 73
     4
 40
50.5
 49
30.0
 74
     0
 49
-9.0
 74
     0
 49
2.5
 74
     0
 49
-9.0
 74
     0
  0
LTYPE
  5
1B41
330
5
100
AcDbSymbolTableRecord
100
AcDbLinetypeTableRecord
  2
DIVIDE
 70
     0
  3
--･･--･･--･･--･･--･･--
 72
    65
 73
     6
 40
58.0
 49
30.0
 74
     0
 49
-9.0
 74
     0
 49
2.5
 74
     0
 49
-5.0
 74
     0
 49
2.5
 74
     0
 49
-9.0
 74
     0
  0
ENDTAB
  0
TABLE
  2
LAYER
  5
2
102
{ACAD_XDICTIONARY
360
5A
102
}
330
0
100
AcDbSymbolTable
 70
     3
  0
LAYER
  5
10
330
2
100
AcDbSymbolTableRecord
100
AcDbLayerTableRecord
  2
0
 70
     0
 62
     7
  6
Continuous
370
    -3
390
F
  0
LAYER
  5
55
330
2
100
AcDbSymbolTableRecord
100
AcDbLayerTableRecord
  2
1
 70
     0
 62
     7
  6
Continuous
370
    -3
390
F
  0
LAYER
  5
56
330
2
100
AcDbSymbolTableRecord
100
AcDbLayerTableRecord
  2
DEFPOINTS
 70
     0
 62
     7
  6
Continuous
290
     0
370
    -3
390
F
  0
ENDTAB
  0
TABLE
  2
STYLE
  5
3
330
0
100
AcDbSymbolTable
 70
     2
  0
STYLE
  5
11
330
3
100
AcDbSymbolTableRecord
100
AcDbTextStyleTableRecord
  2
Standard
 70
     0
 40
0.0
 41
1.0
 50
0.0
 71
     0
 42
2.5
  3
txt
  4

  0
STYLE
  5
57
330
3
100
AcDbSymbolTableRecord
100
AcDbTextStyleTableRecord
  2
KANJI
 70
     0
 40
0.0
 41
1.0
 50
0.0
 71
     0
 42
0.2
  3
TXT
  4
BIGFONT
  0
ENDTAB
  0
TABLE
  2
VIEW
  5
6
330
0
100
AcDbSymbolTable
 70
     0
  0
ENDTAB
  0
TABLE
  2
UCS
  5
7
330
0
100
AcDbSymbolTable
 70
     0
  0
ENDTAB
  0
TABLE
  2
APPID
  5
9
330
0
100
AcDbSymbolTable
 70
     2
  0
APPID
  5
12
330
9
100
AcDbSymbolTableRecord
100
AcDbRegAppTableRecord
  2
ACAD
 70
     0
  0
APPID
  5
59
330
9
100
AcDbSymbolTableRecord
100
AcDbRegAppTableRecord
  2
ACAD_PSEXT
 70
     0
  0
ENDTAB
  0
TABLE
  2
DIMSTYLE
  5
A
330
0
100
AcDbSymbolTable
 70
     2
100
AcDbDimStyleTable
 71
     1
340
58
  0
DIMSTYLE
105
27
330
A
100
AcDbSymbolTableRecord
100
AcDbDimStyleTableRecord
  2
ISO-25
 70
     0
 41
2.5
 42
0.625
 43
3.75
 44
1.25
 73
     0
 74
     0
 77
     1
 78
     8
140
2.5
141
2.5
143
0.03937007874016
147
0.625
171
     3
172
     1
271
     2
272
     2
274
     3
283
     0
284
     8
340
11
  0
DIMSTYLE
105
58
102
{ACAD_REACTORS
330
3350
330
334F
330
322C
330
322B
330
3212
102
}
330
A
100
AcDbSymbolTableRecord
100
AcDbDimStyleTableRecord
  2
Standard
 70
     0
340
11
  0
ENDTAB
  0
TABLE
  2
BLOCK_RECORD
  5
1
330
0
100
AcDbSymbolTable
 70
    19
  0
BLOCK_RECORD
  5
1F
330
1
100
AcDbSymbolTableRecord
100
AcDbBlockTableRecord
  2
*Model_Space
340
22
  0
BLOCK_RECORD
  5
1B
330
1
100
AcDbSymbolTableRecord
100
AcDbBlockTableRecord
  2
*Paper_Space
340
1E
  0
BLOCK_RECORD
  5
23
330
1
100
AcDbSymbolTableRecord
100
AcDbBlockTableRecord
  2
*Paper_Space0
340
26
  0
BLOCK_RECORD
  5
2B
330
1
100
AcDbSymbolTableRecord
100
AcDbBlockTableRecord
  2
_OPEN30
340
0
102
{BLKREFS
331
1253
331
1254
331
125C
331
125D
331
1265
331
1266
331
1274
331
1275
331
1280
331
1281
331
128C
331
128D
331
1560
331
1561
331
1569
331
156A
331
1572
331
1573
331
157D
331
157E
331
1589
331
158A
331
1595
331
1596
331
1822
331
1823
331
182B
331
182C
331
1834
331
1835
331
183F
331
1840
331
184B
331
184C
331
1858
331
1859
331
1864
331
1865
331
1870
331
1871
331
1ABF
331
1AC0
331
1AC8
331
1AC9
331
1AD2
331
1AD3
331
1ADB
331
1ADC
331
1AE4
331
1AE5
331
1AEF
331
1AF0
331
1AFB
331
1AFC
331
1B07
331
1B08
331
1B13
331
1B14
331
1B1F
331
1B20
331
1B2C
331
1B2D
331
1B39
331
1B3A
331
2547
331
2548
331
2550
331
2551
331
2559
331
255A
331
2562
331
2563
331
256B
331
256C
331
2575
331
2576
331
257F
331
2580
331
258B
331
258C
331
2597
331
2598
331
25A3
331
25A4
331
25AF
331
25B0
331
25BB
331
25BC
331
25C7
331
25C8
331
2E6C
331
2E6D
331
2E75
331
2E76
331
2E7E
331
2E7F
331
2E87
331
2E88
331
2E90
331
2E91
331
2E99
331
2E9A
331
3619
331
361A
331
3622
331
3623
331
362B
331
362C
331
3634
331
3635
331
363D
331
363E
331
3646
331
3647
331
364F
331
3650
331
3658
331
3659
331
3661
331
3662
331
366A
331
366B
331
3673
331
3674
331
367C
331
367D
331
3685
331
3686
331
368E
331
368F
331
3697
331
3698
331
36A0
331
36A1
331
36A9
331
36AA
331
36B2
331
36B3
331
36BB
331
36BC
331
36C4
331
36C5
102
}
  0
BLOCK_RECORD
  5
2E21
330
1
100
AcDbSymbolTableRecord
100
AcDbBlockTableRecord
  2
*D2
340
0
  0
BLOCK_RECORD
  5
2E2D
330
1
100
AcDbSymbolTableRecord
100
AcDbBlockTableRecord
  2
*D3
340
0
  0
BLOCK_RECORD
  5
2E39
330
1
100
AcDbSymbolTableRecord
100
AcDbBlockTableRecord
  2
*D4
340
0
  0
BLOCK_RECORD
  5
2E45
330
1
100
AcDbSymbolTableRecord
100
AcDbBlockTableRecord
  2
*D5
340
0
  0
BLOCK_RECORD
  5
2E51
330
1
100
AcDbSymbolTableRecord
100
AcDbBlockTableRecord
  2
*D6
340
0
  0
BLOCK_RECORD
  5
2E5D
330
1
100
AcDbSymbolTableRecord
100
AcDbBlockTableRecord
  2
*D7
340
0
  0
BLOCK_RECORD
  5
2EAA
330
1
100
AcDbSymbolTableRecord
100
AcDbBlockTableRecord
  2
*D8
340
0
  0
BLOCK_RECORD
  5
2EB5
330
1
100
AcDbSymbolTableRecord
100
AcDbBlockTableRecord
  2
*D9
340
0
  0
BLOCK_RECORD
  5
2EC0
330
1
100
AcDbSymbolTableRecord
100
AcDbBlockTableRecord
  2
*D10
340
0
  0
BLOCK_RECORD
  5
2ECB
330
1
100
AcDbSymbolTableRecord
100
AcDbBlockTableRecord
  2
*D11
340
0
  0
BLOCK_RECORD
  5
2ED6
330
1
100
AcDbSymbolTableRecord
100
AcDbBlockTableRecord
  2
*D12
340
0
  0
BLOCK_RECORD
  5
353F
330
1
100
AcDbSymbolTableRecord
100
AcDbBlockTableRecord
  2
*D14
340
0
  0
BLOCK_RECORD
  5
354C
330
1
100
AcDbSymbolTableRecord
100
AcDbBlockTableRecord
  2
*D15
340
0
  0
BLOCK_RECORD
  5
3559
330
1
100
AcDbSymbolTableRecord
100
AcDbBlockTableRecord
  2
*D16
340
0
  0
BLOCK_RECORD
  5
3566
330
1
100
AcDbSymbolTableRecord
100
AcDbBlockTableRecord
  2
*D17
340
0
  0
BLOCK_RECORD
  5
3573
330
1
100
AcDbSymbolTableRecord
100
AcDbBlockTableRecord
  2
*D18
340
0
  0
ENDTAB
  0
ENDSEC
  0
SECTION
  2
BLOCKS
  0
BLOCK
  5
20
330
1F
100
AcDbEntity
  8
0
100
AcDbBlockBegin
  2
*Model_Space
 70
     0
 10
0.0
 20
0.0
 30
0.0
  3
*Model_Space
  1

  0
ENDBLK
  5
21
330
1F
100
AcDbEntity
  8
0
100
AcDbBlockEnd
  0
BLOCK
  5
1C
330
1B
100
AcDbEntity
 67
     1
  8
0
100
AcDbBlockBegin
  2
*Paper_Space
 70
     0
 10
0.0
 20
0.0
 30
0.0
  3
*Paper_Space
  1

  0
ENDBLK
  5
1D
330
1B
100
AcDbEntity
 67
     1
  8
0
100
AcDbBlockEnd
  0
BLOCK
  5
24
330
23
100
AcDbEntity
  8
0
100
AcDbBlockBegin
  2
*Paper_Space0
 70
     0
 10
0.0
 20
0.0
 30
0.0
  3
*Paper_Space0
  1

  0
ENDBLK
  5
25
330
23
100
AcDbEntity
  8
0
100
AcDbBlockEnd
  0
BLOCK
  5
2F
330
2B
100
AcDbEntity
  8
0
 62
     0
100
AcDbBlockBegin
  2
_OPEN30
 70
     2
 10
0.0
 20
0.0
 30
0.0
  3
_OPEN30
  1

  0
LINE
  5
2C
330
2B
100
AcDbEntity
  8
0
  6
ByBlock
 62
     0
100
AcDbLine
 10
-1.0
 20
0.267949
 30
0.0
 11
0.0
 21
0.0
 31
0.0
  0
LINE
  5
2D
330
2B
100
AcDbEntity
  8
0
  6
ByBlock
 62
     0
100
AcDbLine
 10
0.0
 20
0.0
 30
0.0
 11
-1.0
 21
-0.267949
 31
0.0
  0
LINE
  5
2E
330
2B
100
AcDbEntity
  8
0
  6
ByBlock
 62
     0
100
AcDbLine
 10
0.0
 20
0.0
 30
0.0
 11
-1.0
 21
0.0
 31
0.0
  0
ENDBLK
  5
30
330
2B
100
AcDbEntity
  8
0
 62
     0
100
AcDbBlockEnd
  0
BLOCK
  5
2E2B
330
2E21
100
AcDbEntity
  8
0
100
AcDbBlockBegin
  2
*D2
 70
     1
 10
0.0
 20
0.0
 30
0.0
  3
*D2
  1

  0
LINE
  5
2E69
330
2E21
100
AcDbEntity
  8
1
  6
Continuous
 62
     0
370
    13
100
AcDbLine
 10
4048.037288095161
 20
21232.26684618031
 30
0.0
 11
4048.037288095161
 21
23172.15448332724
 31
0.0
  0
LINE
  5
2E6A
330
2E21
100
AcDbEntity
  8
1
  6
Continuous
 62
     0
370
    13
100
AcDbLine
 10
8578.068463672883
 20
21232.26684618031
 30
0.0
 11
8578.068463672883
 21
23172.15448332724
 31
0.0
  0
LINE
  5
2E6B
330
2E21
100
AcDbEntity
  8
1
  6
Continuous
 62
     0
370
    13
100
AcDbLine
 10
4548.037288095161
 20
23171.97448332724
 30
0.0
 11
8078.068463672883
 21
23171.97448332724
 31
0.0
  0
INSERT
  5
2E6C
330
2E21
100
AcDbEntity
  8
1
  6
Continuous
 62
     0
370
    13
100
AcDbBlockReference
  2
_OPEN30
 10
4048.037288095161
 20
23171.97448332724
 30
0.0
 41
500.0
 42
500.0
 43
500.0
 50
180.0
  0
INSERT
  5
2E6D
330
2E21
100
AcDbEntity
  8
1
  6
Continuous
 62
     0
370
    13
100
AcDbBlockReference
  2
_OPEN30
 10
8578.068463672883
 20
23171.97448332724
 30
0.0
 41
500.0
 42
500.0
 43
500.0
  0
MTEXT
  5
2E6E
330
2E21
100
AcDbEntity
  8
1
  6
Continuous
 62
     0
370
    13
100
AcDbMText
 10
6313.087938177807
 20
23421.97448332724
 30
0.0
 40
400.0
 41
0.0
 71
     5
 72
     1
  1
\A1;42
 73
     1
 44
1.0
  0
POINT
  5
2E6F
330
2E21
100
AcDbEntity
  8
DEFPOINTS
  6
Continuous
 62
     0
100
AcDbPoint
 10
4048.037288095161
 20
21182.26684618031
 30
0.0
  0
POINT
  5
2E70
330
2E21
100
AcDbEntity
  8
DEFPOINTS
  6
Continuous
 62
     0
100
AcDbPoint
 10
8578.068463672883
 20
21182.26684618031
 30
0.0
  0
POINT
  5
2E71
330
2E21
100
AcDbEntity
  8
DEFPOINTS
  6
Continuous
 62
     0
100
AcDbPoint
 10
8578.068463672883
 20
23171.97448332724
 30
0.0
  0
ENDBLK
  5
2E2C
330
2E21
100
AcDbEntity
  8
0
100
AcDbBlockEnd
  0
BLOCK
  5
2E37
330
2E2D
100
AcDbEntity
  8
0
100
AcDbBlockBegin
  2
*D3
 70
     1
 10
0.0
 20
0.0
 30
0.0
  3
*D3
  1

  0
LINE
  5
2E72
330
2E2D
100
AcDbEntity
  8
1
  6
Continuous
 62
     0
370
    13
100
AcDbLine
 10
4587.013710176282
 20
21110.52463120966
 30
0.0
 11
4587.013710176282
 21
22240.79250466648
 31
0.0
  0
LINE
  5
2E73
330
2E2D
100
AcDbEntity
  8
1
  6
Continuous
 62
     0
370
    13
100
AcDbLine
 10
8038.735679137898
 20
21110.52463120966
 30
0.0
 11
8038.735679137898
 21
22240.79250466648
 31
0.0
  0
LINE
  5
2E74
330
2E2D
100
AcDbEntity
  8
1
  6
Continuous
 62
     0
370
    13
100
AcDbLine
 10
5087.013710176282
 20
22240.61250466648
 30
0.0
 11
7538.735679137899
 21
22240.61250466648
 31
0.0
  0
INSERT
  5
2E75
330
2E2D
100
AcDbEntity
  8
1
  6
Continuous
 62
     0
370
    13
100
AcDbBlockReference
  2
_OPEN30
 10
4587.013710176282
 20
22240.61250466648
 30
0.0
 41
500.0
 42
500.0
 43
500.0
 50
180.0
  0
INSERT
  5
2E76
330
2E2D
100
AcDbEntity
  8
1
  6
Continuous
 62
     0
370
    13
100
AcDbBlockReference
  2
_OPEN30
 10
8038.735679137898
 20
22240.61250466648
 30
0.0
 41
500.0
 42
500.0
 43
500.0
  0
MTEXT
  5
2E77
330
2E2D
100
AcDbEntity
  8
1
  6
Continuous
 62
     0
370
    13
100
AcDbMText
 10
6312.874694657089
 20
22490.61250466648
 30
0.0
 40
400.0
 41
0.0
 71
     5
 72
     1
  1
\A1;32
 73
     1
 44
1.0
  0
POINT
  5
2E78
330
2E2D
100
AcDbEntity
  8
DEFPOINTS
  6
Continuous
 62
     0
100
AcDbPoint
 10
4587.013710176282
 20
21060.52463120966
 30
0.0
  0
POINT
  5
2E79
330
2E2D
100
AcDbEntity
  8
DEFPOINTS
  6
Continuous
 62
     0
100
AcDbPoint
 10
8038.735679137898
 20
21060.52463120966
 30
0.0
  0
POINT
  5
2E7A
330
2E2D
100
AcDbEntity
  8
DEFPOINTS
  6
Continuous
 62
     0
100
AcDbPoint
 10
8038.735679137898
 20
22240.61250466648
 30
0.0
  0
ENDBLK
  5
2E38
330
2E2D
100
AcDbEntity
  8
0
100
AcDbBlockEnd
  0
BLOCK
  5
2E43
330
2E39
100
AcDbEntity
  8
0
100
AcDbBlockBegin
  2
*D4
 70
     1
 10
0.0
 20
0.0
 30
0.0
  3
*D4
  1

  0
LINE
  5
2E7B
330
2E39
100
AcDbEntity
  8
1
  6
Continuous
 62
     0
370
    13
100
AcDbLine
 10
8578.068463672883
 20
21457.17893622205
 30
0.0
 11
8578.068463672883
 21
23172.15448332724
 31
0.0
  0
LINE
  5
2E7C
330
2E39
100
AcDbEntity
  8
1
  6
Continuous
 62
     0
370
    13
100
AcDbLine
 10
13108.09802138223
 20
21232.26684618031
 30
0.0
 11
13108.09802138223
 21
23172.15448332724
 31
0.0
  0
LINE
  5
2E7D
330
2E39
100
AcDbEntity
  8
1
  6
Continuous
 62
     0
370
    13
100
AcDbLine
 10
9078.068463672883
 20
23171.97448332724
 30
0.0
 11
12608.09802138223
 21
23171.97448332724
 31
0.0
  0
INSERT
  5
2E7E
330
2E39
100
AcDbEntity
  8
1
  6
Continuous
 62
     0
370
    13
100
AcDbBlockReference
  2
_OPEN30
 10
8578.068463672883
 20
23171.97448332724
 30
0.0
 41
500.0
 42
500.0
 43
500.0
 50
180.0
  0
INSERT
  5
2E7F
330
2E39
100
AcDbEntity
  8
1
  6
Continuous
 62
     0
370
    13
100
AcDbBlockReference
  2
_OPEN30
 10
13108.09802138223
 20
23171.97448332724
 30
0.0
 41
500.0
 42
500.0
 43
500.0
  0
MTEXT
  5
2E80
330
2E39
100
AcDbEntity
  8
1
  6
Continuous
 62
     0
370
    13
100
AcDbMText
 10
10843.04898916796
 20
23421.97448332724
 30
0.0
 40
400.0
 41
0.0
 71
     5
 72
     1
  1
\A1;42
 73
     1
 44
1.0
  0
POINT
  5
2E81
330
2E39
100
AcDbEntity
  8
DEFPOINTS
  6
Continuous
 62
     0
100
AcDbPoint
 10
8578.068463672883
 20
21407.17893622205
 30
0.0
  0
POINT
  5
2E82
330
2E39
100
AcDbEntity
  8
DEFPOINTS
  6
Continuous
 62
     0
100
AcDbPoint
 10
13108.09802138223
 20
21182.26684618031
 30
0.0
  0
POINT
  5
2E83
330
2E39
100
AcDbEntity
  8
DEFPOINTS
  6
Continuous
 62
     0
100
AcDbPoint
 10
13108.09802138223
 20
23171.97448332724
 30
0.0
  0
ENDBLK
  5
2E44
330
2E39
100
AcDbEntity
  8
0
100
AcDbBlockEnd
  0
BLOCK
  5
2E4F
330
2E45
100
AcDbEntity
  8
0
100
AcDbBlockBegin
  2
*D5
 70
     1
 10
0.0
 20
0.0
 30
0.0
  3
*D5
  1

  0
LINE
  5
2E84
330
2E45
100
AcDbEntity
  8
1
  6
Continuous
 62
     0
370
    13
100
AcDbLine
 10
9117.220100888898
 20
20982.14942594897
 30
0.0
 11
9117.220100888898
 21
22232.43675430636
 31
0.0
  0
LINE
  5
2E85
330
2E45
100
AcDbEntity
  8
1
  6
Continuous
 62
     0
370
    13
100
AcDbLine
 10
12568.83156944702
 20
20982.14942594897
 30
0.0
 11
12568.83156944702
 21
22232.43675430636
 31
0.0
  0
LINE
  5
2E86
330
2E45
100
AcDbEntity
  8
1
  6
Continuous
 62
     0
370
    13
100
AcDbLine
 10
9617.220100888898
 20
22232.25675430636
 30
0.0
 11
12068.83156944702
 21
22232.25675430636
 31
0.0
  0
INSERT
  5
2E87
330
2E45
100
AcDbEntity
  8
1
  6
Continuous
 62
     0
370
    13
100
AcDbBlockReference
  2
_OPEN30
 10
9117.220100888898
 20
22232.25675430636
 30
0.0
 41
500.0
 42
500.0
 43
500.0
 50
180.0
  0
INSERT
  5
2E88
330
2E45
100
AcDbEntity
  8
1
  6
Continuous
 62
     0
370
    13
100
AcDbBlockReference
  2
_OPEN30
 10
12568.83156944702
 20
22232.25675430636
 30
0.0
 41
500.0
 42
500.0
 43
500.0
  0
MTEXT
  5
2E89
330
2E45
100
AcDbEntity
  8
1
  6
Continuous
 62
     0
370
    13
100
AcDbMText
 10
10843.02583516795
 20
22482.25675430636
 30
0.0
 40
400.0
 41
0.0
 71
     5
 72
     1
  1
\A1;32
 73
     1
 44
1.0
  0
POINT
  5
2E8A
330
2E45
100
AcDbEntity
  8
DEFPOINTS
  6
Continuous
 62
     0
100
AcDbPoint
 10
9117.220100888898
 20
20932.14942594896
 30
0.0
  0
POINT
  5
2E8B
330
2E45
100
AcDbEntity
  8
DEFPOINTS
  6
Continuous
 62
     0
100
AcDbPoint
 10
12568.83156944702
 20
20932.14942594896
 30
0.0
  0
POINT
  5
2E8C
330
2E45
100
AcDbEntity
  8
DEFPOINTS
  6
Continuous
 62
     0
100
AcDbPoint
 10
12568.83156944702
 20
22232.25675430636
 30
0.0
  0
ENDBLK
  5
2E50
330
2E45
100
AcDbEntity
  8
0
100
AcDbBlockEnd
  0
BLOCK
  5
2E5B
330
2E51
100
AcDbEntity
  8
0
100
AcDbBlockBegin
  2
*D6
 70
     1
 10
0.0
 20
0.0
 30
0.0
  3
*D6
  1

  0
LINE
  5
2E8D
330
2E51
100
AcDbEntity
  8
1
  6
Continuous
 62
     0
370
    13
100
AcDbLine
 10
12956.02535679345
 20
20643.29797414965
 30
0.0
 11
14177.38909030313
 21
20643.29797414965
 31
0.0
  0
LINE
  5
2E8E
330
2E51
100
AcDbEntity
  8
1
  6
Continuous
 62
     0
370
    13
100
AcDbLine
 10
12956.02535679345
 20
16005.23634082355
 30
0.0
 11
14177.38909030313
 21
16005.23634082355
 31
0.0
  0
LINE
  5
2E8F
330
2E51
100
AcDbEntity
  8
1
  6
Continuous
 62
     0
370
    13
100
AcDbLine
 10
14177.20909030313
 20
20143.29797414965
 30
0.0
 11
14177.20909030313
 21
16505.23634082355
 31
0.0
  0
INSERT
  5
2E90
330
2E51
100
AcDbEntity
  8
1
  6
Continuous
 62
     0
370
    13
100
AcDbBlockReference
  2
_OPEN30
 10
14177.20909030314
 20
20643.29797414965
 30
0.0
 41
500.0
 42
500.0
 43
500.0
 50
90.0
  0
INSERT
  5
2E91
330
2E51
100
AcDbEntity
  8
1
  6
Continuous
 62
     0
370
    13
100
AcDbBlockReference
  2
_OPEN30
 10
14177.20909030313
 20
16005.23634082355
 30
0.0
 41
500.0
 42
500.0
 43
500.0
 50
270.0
  0
MTEXT
  5
2E92
330
2E51
100
AcDbEntity
  8
1
  6
Continuous
 62
     0
370
    13
100
AcDbMText
 10
13927.20909030312
 20
18324.2671574866
 30
0.0
 40
400.0
 41
0.0
 71
     5
 72
     1
  1
\A1;43
 11
0.0000000000000001
 21
1.0
 31
0.0
 73
     1
 44
1.0
  0
POINT
  5
2E93
330
2E51
100
AcDbEntity
  8
DEFPOINTS
  6
Continuous
 62
     0
100
AcDbPoint
 10
12906.02535679345
 20
20643.29797414965
 30
0.0
  0
POINT
  5
2E94
330
2E51
100
AcDbEntity
  8
DEFPOINTS
  6
Continuous
 62
     0
100
AcDbPoint
 10
12906.02535679345
 20
16005.23634082355
 30
0.0
  0
POINT
  5
2E95
330
2E51
100
AcDbEntity
  8
DEFPOINTS
  6
Continuous
 62
     0
100
AcDbPoint
 10
14177.20909030313
 20
16005.23634082355
 30
0.0
  0
ENDBLK
  5
2E5C
330
2E51
100
AcDbEntity
  8
0
100
AcDbBlockEnd
  0
BLOCK
  5
2E67
330
2E5D
100
AcDbEntity
  8
0
100
AcDbBlockBegin
  2
*D7
 70
     1
 10
0.0
 20
0.0
 30
0.0
  3
*D7
  1

  0
LINE
  5
2E96
330
2E5D
100
AcDbEntity
  8
1
  6
Continuous
 62
     0
370
    13
100
AcDbLine
 10
13158.09802138222
 20
21182.26684618031
 30
0.0
 11
15124.91753844973
 21
21182.26684618031
 31
0.0
  0
LINE
  5
2E97
330
2E5D
100
AcDbEntity
  8
1
  6
Continuous
 62
     0
370
    13
100
AcDbLine
 10
13158.09802138222
 20
15465.79893414194
 30
0.0
 11
15124.91753844973
 21
15465.79893414194
 31
0.0
  0
LINE
  5
2E98
330
2E5D
100
AcDbEntity
  8
1
  6
Continuous
 62
     0
370
    13
100
AcDbLine
 10
15124.73753844973
 20
20682.26684618032
 30
0.0
 11
15124.73753844973
 21
15965.79893414194
 31
0.0
  0
INSERT
  5
2E99
330
2E5D
100
AcDbEntity
  8
1
  6
Continuous
 62
     0
370
    13
100
AcDbBlockReference
  2
_OPEN30
 10
15124.73753844973
 20
21182.26684618031
 30
0.0
 41
500.0
 42
500.0
 43
500.0
 50
90.0
  0
INSERT
  5
2E9A
330
2E5D
100
AcDbEntity
  8
1
  6
Continuous
 62
     0
370
    13
100
AcDbBlockReference
  2
_OPEN30
 10
15124.73753844973
 20
15465.79893414194
 30
0.0
 41
500.0
 42
500.0
 43
500.0
 50
270.0
  0
MTEXT
  5
2E9B
330
2E5D
100
AcDbEntity
  8
1
  6
Continuous
 62
     0
370
    13
100
AcDbMText
 10
14874.73753844972
 20
18324.30650107029
 30
0.0
 40
400.0
 41
0.0
 71
     5
 72
     1
  1
\A1;53
 11
0.0000000000000001
 21
1.0
 31
0.0
 73
     1
 44
1.0
  0
POINT
  5
2E9C
330
2E5D
100
AcDbEntity
  8
DEFPOINTS
  6
Continuous
 62
     0
100
AcDbPoint
 10
13108.09802138223
 20
21182.26684618031
 30
0.0
  0
POINT
  5
2E9D
330
2E5D
100
AcDbEntity
  8
DEFPOINTS
  6
Continuous
 62
     0
100
AcDbPoint
 10
13108.09802138223
 20
15465.79893414194
 30
0.0
  0
POINT
  5
2E9E
330
2E5D
100
AcDbEntity
  8
DEFPOINTS
  6
Continuous
 62
     0
100
AcDbPoint
 10
15124.73753844973
 20
15465.79893414194
 30
0.0
  0
ENDBLK
  5
2E68
330
2E5D
100
AcDbEntity
  8
0
100
AcDbBlockEnd
  0
BLOCK
  5
2EB3
330
2EAA
100
AcDbEntity
  8
1
  6
Continuous
 62
     7
100
AcDbBlockBegin
  2
*D8
 70
     1
 10
0.0
 20
0.0
 30
0.0
  3
*D8
  1

  0
LINE
  5
2EAB
330
2EAA
100
AcDbEntity
  8
1
  6
Continuous
 62
     7
100
AcDbLine
 10
191.195021
 20
218.0
 30
0.0
 11
218.574
 21
218.0
 31
0.0
  0
LINE
  5
2EAC
330
2EAA
100
AcDbEntity
  8
1
  6
Continuous
 62
     7
100
AcDbLine
 10
191.195021
 20
220.0
 30
0.0
 11
191.195021
 21
182.7951869999999
 31
0.0
  0
LINE
  5
2EAD
330
2EAA
100
AcDbEntity
  8
1
  6
Continuous
 62
     7
100
AcDbLine
 10
218.574
 20
220.0
 30
0.0
 11
218.574
 21
199.992834
 31
0.0
  0
LINE
  5
2EAE
330
2EAA
100
AcDbEntity
  8
1
  6
Continuous
 62
     7
100
AcDbLine
 10
191.195021
 20
218.0
 30
0.0
 11
193.5132429999999
 21
218.621166
 31
0.0
  0
LINE
  5
2EAF
330
2EAA
100
AcDbEntity
  8
1
  6
Continuous
 62
     7
100
AcDbLine
 10
191.195021
 20
218.0
 30
0.0
 11
193.5132429999999
 21
217.3788339999999
 31
0.0
  0
LINE
  5
2EB0
330
2EAA
100
AcDbEntity
  8
1
  6
Continuous
 62
     7
100
AcDbLine
 10
218.574
 20
218.0
 30
0.0
 11
216.2557779999999
 21
217.3788339999999
 31
0.0
  0
LINE
  5
2EB1
330
2EAA
100
AcDbEntity
  8
1
  6
Continuous
 62
     7
100
AcDbLine
 10
218.574
 20
218.0
 30
0.0
 11
216.2557779999999
 21
218.621166
 31
0.0
  0
TEXT
  5
2EB2
330
2EAA
100
AcDbEntity
  8
1
  6
Continuous
 62
     7
100
AcDbText
 10
200.584511
 20
218.5
 30
0.0
 40
3.0
  1
(28)
 41
0.7333330000000001
  7
KANJI
100
AcDbText
  0
ENDBLK
  5
2EB4
330
2EAA
100
AcDbEntity
  8
0
100
AcDbBlockEnd
  0
BLOCK
  5
2EBE
330
2EB5
100
AcDbEntity
  8
1
  6
Continuous
 62
     7
100
AcDbBlockBegin
  2
*D9
 70
     1
 10
0.0
 20
0.0
 30
0.0
  3
*D9
  1

  0
LINE
  5
2EB6
330
2EB5
100
AcDbEntity
  8
1
  6
Continuous
 62
     7
100
AcDbLine
 10
67.56399999999999
 20
208.0
 30
0.0
 11
119.564
 21
208.0
 31
0.0
  0
LINE
  5
2EB7
330
2EB5
100
AcDbEntity
  8
1
  6
Continuous
 62
     7
100
AcDbLine
 10
67.56399999999999
 20
210.0
 30
0.0
 11
67.56399999999999
 21
200.0
 31
0.0
  0
LINE
  5
2EB8
330
2EB5
100
AcDbEntity
  8
1
  6
Continuous
 62
     7
100
AcDbLine
 10
119.564
 20
210.0
 30
0.0
 11
119.564
 21
200.0
 31
0.0
  0
LINE
  5
2EB9
330
2EB5
100
AcDbEntity
  8
1
  6
Continuous
 62
     7
100
AcDbLine
 10
67.56399999999999
 20
208.0
 30
0.0
 11
69.882222
 21
208.621166
 31
0.0
  0
LINE
  5
2EBA
330
2EB5
100
AcDbEntity
  8
1
  6
Continuous
 62
     7
100
AcDbLine
 10
67.56399999999999
 20
208.0
 30
0.0
 11
69.882222
 21
207.378834
 31
0.0
  0
LINE
  5
2EBB
330
2EB5
100
AcDbEntity
  8
1
  6
Continuous
 62
     7
100
AcDbLine
 10
119.564
 20
208.0
 30
0.0
 11
117.245778
 21
207.378834
 31
0.0
  0
LINE
  5
2EBC
330
2EB5
100
AcDbEntity
  8
1
  6
Continuous
 62
     7
100
AcDbLine
 10
119.564
 20
208.0
 30
0.0
 11
117.245778
 21
208.621166
 31
0.0
  0
TEXT
  5
2EBD
330
2EB5
100
AcDbEntity
  8
1
  6
Continuous
 62
     7
100
AcDbText
 10
91.46399999999999
 20
208.4999999999999
 30
0.0
 40
3.0
  1
52
 41
0.7333330000000001
  7
KANJI
100
AcDbText
  0
ENDBLK
  5
2EBF
330
2EB5
100
AcDbEntity
  8
0
100
AcDbBlockEnd
  0
BLOCK
  5
2EC9
330
2EC0
100
AcDbEntity
  8
1
  6
Continuous
 62
     7
100
AcDbBlockBegin
  2
*D10
 70
     1
 10
0.0
 20
0.0
 30
0.0
  3
*D10
  1

  0
LINE
  5
2EC1
330
2EC0
100
AcDbEntity
  8
1
  6
Continuous
 62
     7
100
AcDbLine
 10
63.564
 20
218.0
 30
0.0
 11
123.5639999999999
 21
218.0
 31
0.0
  0
LINE
  5
2EC2
330
2EC0
100
AcDbEntity
  8
1
  6
Continuous
 62
     7
100
AcDbLine
 10
63.564
 20
220.0
 30
0.0
 11
63.564
 21
199.0
 31
0.0
  0
LINE
  5
2EC3
330
2EC0
100
AcDbEntity
  8
1
  6
Continuous
 62
     7
100
AcDbLine
 10
123.5639999999999
 20
220.0
 30
0.0
 11
123.5639999999999
 21
199.0
 31
0.0
  0
LINE
  5
2EC4
330
2EC0
100
AcDbEntity
  8
1
  6
Continuous
 62
     7
100
AcDbLine
 10
63.564
 20
218.0
 30
0.0
 11
65.882222
 21
218.621166
 31
0.0
  0
LINE
  5
2EC5
330
2EC0
100
AcDbEntity
  8
1
  6
Continuous
 62
     7
100
AcDbLine
 10
63.564
 20
218.0
 30
0.0
 11
65.882222
 21
217.3788339999999
 31
0.0
  0
LINE
  5
2EC6
330
2EC0
100
AcDbEntity
  8
1
  6
Continuous
 62
     7
100
AcDbLine
 10
123.5639999999999
 20
218.0
 30
0.0
 11
121.245778
 21
217.3788339999999
 31
0.0
  0
LINE
  5
2EC7
330
2EC0
100
AcDbEntity
  8
1
  6
Continuous
 62
     7
100
AcDbLine
 10
123.5639999999999
 20
218.0
 30
0.0
 11
121.245778
 21
218.621166
 31
0.0
  0
TEXT
  5
2EC8
330
2EC0
100
AcDbEntity
  8
1
  6
Continuous
 62
     7
100
AcDbText
 10
91.46399999999999
 20
218.5
 30
0.0
 40
3.0
  1
60
 41
0.7333330000000001
  7
KANJI
100
AcDbText
  0
ENDBLK
  5
2ECA
330
2EC0
100
AcDbEntity
  8
0
100
AcDbBlockEnd
  0
BLOCK
  5
2ED4
330
2ECB
100
AcDbEntity
  8
1
  6
Continuous
 62
     7
100
AcDbBlockBegin
  2
*D11
 70
     1
 10
0.0
 20
0.0
 30
0.0
  3
*D11
  1

  0
LINE
  5
2ECC
330
2ECB
100
AcDbEntity
  8
1
  6
Continuous
 62
     7
100
AcDbLine
 10
43.56399999999999
 20
198.0
 30
0.0
 11
43.56399999999999
 21
129.0
 31
0.0
  0
LINE
  5
2ECD
330
2ECB
100
AcDbEntity
  8
1
  6
Continuous
 62
     7
100
AcDbLine
 10
41.564
 20
198.0
 30
0.0
 11
62.564
 21
198.0
 31
0.0
  0
LINE
  5
2ECE
330
2ECB
100
AcDbEntity
  8
1
  6
Continuous
 62
     7
100
AcDbLine
 10
41.564
 20
129.0
 30
0.0
 11
61.564
 21
129.0
 31
0.0
  0
LINE
  5
2ECF
330
2ECB
100
AcDbEntity
  8
1
  6
Continuous
 62
     7
100
AcDbLine
 10
43.56399999999999
 20
198.0
 30
0.0
 11
44.18516599999999
 21
195.681778
 31
0.0
  0
LINE
  5
2ED0
330
2ECB
100
AcDbEntity
  8
1
  6
Continuous
 62
     7
100
AcDbLine
 10
43.56399999999999
 20
198.0
 30
0.0
 11
42.942834
 21
195.681778
 31
0.0
  0
LINE
  5
2ED1
330
2ECB
100
AcDbEntity
  8
1
  6
Continuous
 62
     7
100
AcDbLine
 10
43.56399999999999
 20
129.0
 30
0.0
 11
42.942834
 21
131.3182219999999
 31
0.0
  0
LINE
  5
2ED2
330
2ECB
100
AcDbEntity
  8
1
  6
Continuous
 62
     7
100
AcDbLine
 10
43.56399999999999
 20
129.0
 30
0.0
 11
44.18516599999999
 21
131.3182219999999
 31
0.0
  0
TEXT
  5
2ED3
330
2ECB
100
AcDbEntity
  8
1
  6
Continuous
 62
     7
100
AcDbText
 10
43.064
 20
161.4
 30
0.0
 40
3.0
  1
69
 50
90.0
 41
0.7333330000000001
  7
KANJI
100
AcDbText
  0
ENDBLK
  5
2ED5
330
2ECB
100
AcDbEntity
  8
0
100
AcDbBlockEnd
  0
BLOCK
  5
2EDF
330
2ED6
100
AcDbEntity
  8
1
  6
Continuous
 62
     7
100
AcDbBlockBegin
  2
*D12
 70
     1
 10
0.0
 20
0.0
 30
0.0
  3
*D12
  1

  0
LINE
  5
2ED7
330
2ED6
100
AcDbEntity
  8
1
  6
Continuous
 62
     7
100
AcDbLine
 10
53.564
 20
194.5
 30
0.0
 11
53.564
 21
132.4999999999999
 31
0.0
  0
LINE
  5
2ED8
330
2ED6
100
AcDbEntity
  8
1
  6
Continuous
 62
     7
100
AcDbLine
 10
51.564
 20
194.5
 30
0.0
 11
61.564
 21
194.5
 31
0.0
  0
LINE
  5
2ED9
330
2ED6
100
AcDbEntity
  8
1
  6
Continuous
 62
     7
100
AcDbLine
 10
51.564
 20
132.4999999999999
 30
0.0
 11
112.5639999999999
 21
132.4999999999999
 31
0.0
  0
LINE
  5
2EDA
330
2ED6
100
AcDbEntity
  8
1
  6
Continuous
 62
     7
100
AcDbLine
 10
53.564
 20
194.5
 30
0.0
 11
54.185166
 21
192.1817779999999
 31
0.0
  0
LINE
  5
2EDB
330
2ED6
100
AcDbEntity
  8
1
  6
Continuous
 62
     7
100
AcDbLine
 10
53.564
 20
194.5
 30
0.0
 11
52.942834
 21
192.1817779999999
 31
0.0
  0
LINE
  5
2EDC
330
2ED6
100
AcDbEntity
  8
1
  6
Continuous
 62
     7
100
AcDbLine
 10
53.564
 20
132.4999999999999
 30
0.0
 11
52.942834
 21
134.8182219999999
 31
0.0
  0
LINE
  5
2EDD
330
2ED6
100
AcDbEntity
  8
1
  6
Continuous
 62
     7
100
AcDbLine
 10
53.564
 20
132.4999999999999
 30
0.0
 11
54.185166
 21
134.8182219999999
 31
0.0
  0
TEXT
  5
2EDE
330
2ED6
100
AcDbEntity
  8
1
  6
Continuous
 62
     7
100
AcDbText
 10
53.064
 20
161.4
 30
0.0
 40
3.0
  1
62
 50
90.0
 41
0.7333330000000001
  7
KANJI
100
AcDbText
  0
ENDBLK
  5
2EE0
330
2ED6
100
AcDbEntity
  8
0
100
AcDbBlockEnd
  0
BLOCK
  5
354A
330
353F
100
AcDbEntity
  8
0
100
AcDbBlockBegin
  2
*D14
 70
     1
 10
0.0
 20
0.0
 30
0.0
  3
*D14
  1

  0
LINE
  5
36C1
330
353F
100
AcDbEntity
  8
1
  6
Continuous
 62
     0
370
    13
100
AcDbLine
 10
15361.24272548439
 20
19488.74903041305
 30
0.0
 11
15361.24272548439
 21
22255.31407041313
 31
0.0
  0
LINE
  5
36C2
330
353F
100
AcDbEntity
  8
1
  6
Continuous
 62
     0
370
    13
100
AcDbLine
 10
17551.56104548381
 20
20864.56079041319
 30
0.0
 11
17551.56104548381
 21
22255.31407041313
 31
0.0
  0
LINE
  5
36C3
330
353F
100
AcDbEntity
  8
1
  6
Continuous
 62
     0
370
    13
100
AcDbLine
 10
15861.24272548439
 20
22255.13407041313
 30
0.0
 11
17051.56104548381
 21
22255.13407041313
 31
0.0
  0
INSERT
  5
36C4
330
353F
100
AcDbEntity
  8
1
  6
Continuous
 62
     0
370
    13
100
AcDbBlockReference
  2
_OPEN30
 10
15361.24272548439
 20
22255.13407041313
 30
0.0
 41
500.0
 42
500.0
 43
500.0
 50
180.0
  0
INSERT
  5
36C5
330
353F
100
AcDbEntity
  8
1
  6
Continuous
 62
     0
370
    13
100
AcDbBlockReference
  2
_OPEN30
 10
17551.56104548381
 20
22255.13407041313
 30
0.0
 41
500.0
 42
500.0
 43
500.0
  0
MTEXT
  5
36C6
330
353F
100
AcDbEntity
  8
1
  6
Continuous
 62
     0
370
    13
100
AcDbMText
 10
16456.4018854841
 20
22505.13407041313
 30
0.0
 40
400.0
 41
0.0
 71
     5
 72
     1
  1
\A1;(28)
 73
     1
 44
1.0
  0
POINT
  5
36C7
330
353F
100
AcDbEntity
  8
DEFPOINTS
  6
Continuous
 62
     0
100
AcDbPoint
 10
15361.24272548439
 20
19438.74903041305
 30
0.0
  0
POINT
  5
36C8
330
353F
100
AcDbEntity
  8
DEFPOINTS
  6
Continuous
 62
     0
100
AcDbPoint
 10
17551.56104548381
 20
20814.56079041319
 30
0.0
  0
POINT
  5
36C9
330
353F
100
AcDbEntity
  8
DEFPOINTS
  6
Continuous
 62
     0
100
AcDbPoint
 10
17551.56104548381
 20
22255.13407041313
 30
0.0
  0
ENDBLK
  5
354B
330
353F
100
AcDbEntity
  8
0
100
AcDbBlockEnd
  0
BLOCK
  5
3557
330
354C
100
AcDbEntity
  8
0
100
AcDbBlockBegin
  2
*D15
 70
     1
 10
0.0
 20
0.0
 30
0.0
  3
*D15
  1

  0
LINE
  5
36AF
330
354C
100
AcDbEntity
  8
1
  6
Continuous
 62
     0
370
    13
100
AcDbLine
 10
4940.761045483814
 20
20375.13407041313
 30
0.0
 11
4350.581045483814
 21
20375.13407041313
 31
0.0
  0
LINE
  5
36B0
330
354C
100
AcDbEntity
  8
1
  6
Continuous
 62
     0
370
    13
100
AcDbLine
 10
9020.761045483814
 20
15415.13407041313
 30
0.0
 11
4350.581045483814
 21
15415.13407041313
 31
0.0
  0
LINE
  5
36B1
330
354C
100
AcDbEntity
  8
1
  6
Continuous
 62
     0
370
    13
100
AcDbLine
 10
4350.761045483815
 20
19875.13407041313
 30
0.0
 11
4350.761045483814
 21
15915.13407041313
 31
0.0
  0
INSERT
  5
36B2
330
354C
100
AcDbEntity
  8
1
  6
Continuous
 62
     0
370
    13
100
AcDbBlockReference
  2
_OPEN30
 10
4350.761045483815
 20
20375.13407041313
 30
0.0
 41
500.0
 42
500.0
 43
500.0
 50
90.0
  0
INSERT
  5
36B3
330
354C
100
AcDbEntity
  8
1
  6
Continuous
 62
     0
370
    13
100
AcDbBlockReference
  2
_OPEN30
 10
4350.761045483814
 20
15415.13407041313
 30
0.0
 41
500.0
 42
500.0
 43
500.0
 50
270.0
  0
MTEXT
  5
36B4
330
354C
100
AcDbEntity
  8
1
  6
Continuous
 62
     0
370
    13
100
AcDbMText
 10
4100.761045483811
 20
17895.13407041313
 30
0.0
 40
400.0
 41
0.0
 71
     5
 72
     1
  1
\A1;62
 11
0.0000000000000001
 21
1.0
 31
0.0
 73
     1
 44
1.0
  0
POINT
  5
36B5
330
354C
100
AcDbEntity
  8
DEFPOINTS
  6
Continuous
 62
     0
100
AcDbPoint
 10
4990.761045483814
 20
20375.13407041313
 30
0.0
  0
POINT
  5
36B6
330
354C
100
AcDbEntity
  8
DEFPOINTS
  6
Continuous
 62
     0
100
AcDbPoint
 10
9070.761045483815
 20
15415.13407041313
 30
0.0
  0
POINT
  5
36B7
330
354C
100
AcDbEntity
  8
DEFPOINTS
  6
Continuous
 62
     0
100
AcDbPoint
 10
4350.761045483814
 20
15415.13407041313
 30
0.0
  0
ENDBLK
  5
3558
330
354C
100
AcDbEntity
  8
0
100
AcDbBlockEnd
  0
BLOCK
  5
3564
330
3559
100
AcDbEntity
  8
0
100
AcDbBlockBegin
  2
*D16
 70
     1
 10
0.0
 20
0.0
 30
0.0
  3
*D16
  1

  0
LINE
  5
36B8
330
3559
100
AcDbEntity
  8
1
  6
Continuous
 62
     0
370
    13
100
AcDbLine
 10
5020.761045483814
 20
20655.13407041313
 30
0.0
 11
3550.581045483815
 21
20655.13407041313
 31
0.0
  0
LINE
  5
36B9
330
3559
100
AcDbEntity
  8
1
  6
Continuous
 62
     0
370
    13
100
AcDbLine
 10
4940.761045483814
 20
15135.13407041313
 30
0.0
 11
3550.581045483814
 21
15135.13407041314
 31
0.0
  0
LINE
  5
36BA
330
3559
100
AcDbEntity
  8
1
  6
Continuous
 62
     0
370
    13
100
AcDbLine
 10
3550.761045483815
 20
20155.13407041313
 30
0.0
 11
3550.761045483814
 21
15635.13407041314
 31
0.0
  0
INSERT
  5
36BB
330
3559
100
AcDbEntity
  8
1
  6
Continuous
 62
     0
370
    13
100
AcDbBlockReference
  2
_OPEN30
 10
3550.761045483815
 20
20655.13407041313
 30
0.0
 41
500.0
 42
500.0
 43
500.0
 50
90.0
  0
INSERT
  5
36BC
330
3559
100
AcDbEntity
  8
1
  6
Continuous
 62
     0
370
    13
100
AcDbBlockReference
  2
_OPEN30
 10
3550.761045483814
 20
15135.13407041314
 30
0.0
 41
500.0
 42
500.0
 43
500.0
 50
270.0
  0
MTEXT
  5
36BD
330
3559
100
AcDbEntity
  8
1
  6
Continuous
 62
     0
370
    13
100
AcDbMText
 10
3300.761045483811
 20
17895.13407041313
 30
0.0
 40
400.0
 41
0.0
 71
     5
 72
     1
  1
\A1;69
 11
0.0000000000000001
 21
1.0
 31
0.0
 73
     1
 44
1.0
  0
POINT
  5
36BE
330
3559
100
AcDbEntity
  8
DEFPOINTS
  6
Continuous
 62
     0
100
AcDbPoint
 10
5070.761045483814
 20
20655.13407041313
 30
0.0
  0
POINT
  5
36BF
330
3559
100
AcDbEntity
  8
DEFPOINTS
  6
Continuous
 62
     0
100
AcDbPoint
 10
4990.761045483814
 20
15135.13407041313
 30
0.0
  0
POINT
  5
36C0
330
3559
100
AcDbEntity
  8
DEFPOINTS
  6
Continuous
 62
     0
100
AcDbPoint
 10
3550.761045483814
 20
15135.13407041314
 30
0.0
  0
ENDBLK
  5
3565
330
3559
100
AcDbEntity
  8
0
100
AcDbBlockEnd
  0
BLOCK
  5
3571
330
3566
100
AcDbEntity
  8
0
100
AcDbBlockBegin
  2
*D17
 70
     1
 10
0.0
 20
0.0
 30
0.0
  3
*D17
  1

  0
LINE
  5
36A6
330
3566
100
AcDbEntity
  8
1
  6
Continuous
 62
     0
370
    13
100
AcDbLine
 10
5150.761045483815
 20
20785.13407041313
 30
0.0
 11
5150.761045483815
 21
22255.31407041313
 31
0.0
  0
LINE
  5
36A7
330
3566
100
AcDbEntity
  8
1
  6
Continuous
 62
     0
370
    13
100
AcDbLine
 10
9950.761045483815
 20
20785.13407041313
 30
0.0
 11
9950.761045483815
 21
22255.31407041313
 31
0.0
  0
LINE
  5
36A8
330
3566
100
AcDbEntity
  8
1
  6
Continuous
 62
     0
370
    13
100
AcDbLine
 10
5650.761045483815
 20
22255.13407041313
 30
0.0
 11
9450.761045483814
 21
22255.13407041313
 31
0.0
  0
INSERT
  5
36A9
330
3566
100
AcDbEntity
  8
1
  6
Continuous
 62
     0
370
    13
100
AcDbBlockReference
  2
_OPEN30
 10
5150.761045483815
 20
22255.13407041313
 30
0.0
 41
500.0
 42
500.0
 43
500.0
 50
180.0
  0
INSERT
  5
36AA
330
3566
100
AcDbEntity
  8
1
  6
Continuous
 62
     0
370
    13
100
AcDbBlockReference
  2
_OPEN30
 10
9950.761045483815
 20
22255.13407041313
 30
0.0
 41
500.0
 42
500.0
 43
500.0
  0
MTEXT
  5
36AB
330
3566
100
AcDbEntity
  8
1
  6
Continuous
 62
     0
370
    13
100
AcDbMText
 10
7550.761045483814
 20
22505.13407041313
 30
0.0
 40
400.0
 41
0.0
 71
     5
 72
     1
  1
\A1;60
 73
     1
 44
1.0
  0
POINT
  5
36AC
330
3566
100
AcDbEntity
  8
DEFPOINTS
  6
Continuous
 62
     0
100
AcDbPoint
 10
5150.761045483815
 20
20735.13407041313
 30
0.0
  0
POINT
  5
36AD
330
3566
100
AcDbEntity
  8
DEFPOINTS
  6
Continuous
 62
     0
100
AcDbPoint
 10
9950.761045483815
 20
20735.13407041313
 30
0.0
  0
POINT
  5
36AE
330
3566
100
AcDbEntity
  8
DEFPOINTS
  6
Continuous
 62
     0
100
AcDbPoint
 10
9950.761045483815
 20
22255.13407041313
 30
0.0
  0
ENDBLK
  5
3572
330
3566
100
AcDbEntity
  8
0
100
AcDbBlockEnd
  0
BLOCK
  5
357E
330
3573
100
AcDbEntity
  8
0
100
AcDbBlockBegin
  2
*D18
 70
     1
 10
0.0
 20
0.0
 30
0.0
  3
*D18
  1

  0
LINE
  5
369D
330
3573
100
AcDbEntity
  8
1
  6
Continuous
 62
     0
370
    13
100
AcDbLine
 10
5470.761045483814
 20
20865.13407041313
 30
0.0
 11
5470.761045483814
 21
21455.31407041313
 31
0.0
  0
LINE
  5
369E
330
3573
100
AcDbEntity
  8
1
  6
Continuous
 62
     0
370
    13
100
AcDbLine
 10
9630.761045483815
 20
20865.13407041313
 30
0.0
 11
9630.761045483815
 21
21455.31407041313
 31
0.0
  0
LINE
  5
369F
330
3573
100
AcDbEntity
  8
1
  6
Continuous
 62
     0
370
    13
100
AcDbLine
 10
5970.761045483814
 20
21455.13407041313
 30
0.0
 11
9130.761045483813
 21
21455.13407041313
 31
0.0
  0
INSERT
  5
36A0
330
3573
100
AcDbEntity
  8
1
  6
Continuous
 62
     0
370
    13
100
AcDbBlockReference
  2
_OPEN30
 10
5470.761045483814
 20
21455.13407041313
 30
0.0
 41
500.0
 42
500.0
 43
500.0
 50
180.0
  0
INSERT
  5
36A1
330
3573
100
AcDbEntity
  8
1
  6
Continuous
 62
     0
370
    13
100
AcDbBlockReference
  2
_OPEN30
 10
9630.761045483815
 20
21455.13407041313
 30
0.0
 41
500.0
 42
500.0
 43
500.0
  0
MTEXT
  5
36A2
330
3573
100
AcDbEntity
  8
1
  6
Continuous
 62
     0
370
    13
100
AcDbMText
 10
7550.761045483814
 20
21705.13407041313
 30
0.0
 40
400.0
 41
0.0
 71
     5
 72
     1
  1
\A1;52
 73
     1
 44
1.0
  0
POINT
  5
36A3
330
3573
100
AcDbEntity
  8
DEFPOINTS
  6
Continuous
 62
     0
100
AcDbPoint
 10
5470.761045483814
 20
20815.13407041313
 30
0.0
  0
POINT
  5
36A4
330
3573
100
AcDbEntity
  8
DEFPOINTS
  6
Continuous
 62
     0
100
AcDbPoint
 10
9630.761045483815
 20
20815.13407041313
 30
0.0
  0
POINT
  5
36A5
330
3573
100
AcDbEntity
  8
DEFPOINTS
  6
Continuous
 62
     0
100
AcDbPoint
 10
9630.761045483815
 20
21455.13407041313
 30
0.0
  0
ENDBLK
  5
357F
330
3573
100
AcDbEntity
  8
0
100
AcDbBlockEnd
  0
ENDSEC
  0
SECTION
  2
ENTITIES
  0
LINE
  5
29FA
330
1F
100
AcDbEntity
  8
0
370
    13
100
AcDbLine
 10
1053.17994516919
 20
26007.01660783785
 30
0.0
 11
23633.63761721388
 21
26007.01660783785
 31
0.0
  0
LINE
  5
29FB
330
1F
100
AcDbEntity
  8
1
  6
Continuous
 62
     7
370
    13
100
AcDbLine
 10
3808.878722731781
 20
26007.01660783785
 30
0.0
 11
3808.878722731781
 21
24169.88408946289
 31
0.0
  0
LINE
  5
29FC
330
1F
100
AcDbEntity
  8
1
  6
Continuous
 62
     7
370
    13
100
AcDbLine
 10
1053.17994516919
 20
24169.88408946289
 30
0.0
 11
23633.63761721225
 21
24169.88408946289
 31
0.0
  0
LINE
  5
29FD
330
1F
100
AcDbEntity
  8
1
  6
Continuous
 62
     7
370
    13
100
AcDbLine
 10
1053.17994516919
 20
26007.01660783785
 30
0.0
 11
1053.17994516919
 21
927.0605830477434
 31
0.0
  0
LINE
  5
29FE
330
1F
100
AcDbEntity
  8
0
370
    13
100
AcDbLine
 10
1053.17994516919
 20
927.0605830477434
 30
0.0
 11
23633.63761721388
 21
927.0605830477434
 31
0.0
  0
LINE
  5
29FF
330
1F
100
AcDbEntity
  8
1
  6
Continuous
 62
     7
370
    13
100
AcDbLine
 10
23633.63761721388
 20
26007.01660783785
 30
0.0
 11
23633.63761721388
 21
927.0605830477434
 31
0.0
  0
TEXT
  5
2DEA
330
1F
100
AcDbEntity
  8
1
  6
Continuous
 62
     7
370
    13
100
AcDbText
 10
2915.367707906407
 20
5688.70744020048
 30
0.0
 40
459.8415360000001
  1
供給電源
 41
0.944444
  7
KANJI
100
AcDbText
  0
TEXT
  5
2DEB
330
1F
100
AcDbEntity
  8
1
  6
Continuous
 62
     7
370
    13
100
AcDbText
 10
3333.041609132313
 20
7025.934562741356
 30
0.0
 40
459.8415360000001
  1
項　目
 41
0.944444
  7
KANJI
100
AcDbText
  0
LINE
  5
2DEC
330
1F
100
AcDbEntity
  8
1
  6
Continuous
 62
     7
370
    13
100
AcDbLine
 10
2582.443605709704
 20
7550.503073443877
 30
0.0
 11
22151.98778460023
 21
7550.503073443877
 31
0.0
  0
LINE
  5
2DED
330
1F
100
AcDbEntity
  8
1
  6
Continuous
 62
     7
370
    13
100
AcDbLine
 10
2582.443605709704
 20
6892.524749695164
 30
0.0
 11
22151.98778460023
 21
6892.524749695164
 31
0.0
  0
TEXT
  5
2DEE
330
1F
100
AcDbEntity
  8
1
  6
Continuous
 62
     7
370
    13
100
AcDbText
 10
12657.60047326923
 20
7025.934562741356
 30
0.0
 40
459.8415360000001
  1
内　容
 41
0.944444
  7
KANJI
100
AcDbText
  0
TEXT
  5
2DEF
330
1F
100
AcDbEntity
  8
1
  6
Continuous
 62
     7
370
    13
100
AcDbText
 10
2915.367707906407
 20
5040.729034364225
 30
0.0
 40
459.8415360000001
  1
制御方式
 41
0.944444
  7
KANJI
100
AcDbText
  0
TEXT
  5
2DF0
330
1F
100
AcDbEntity
  8
1
  6
Continuous
 62
     7
370
    13
100
AcDbText
 10
2915.367707906407
 20
4404.451174052985
 30
0.0
 40
459.8415360000001
  1
通信方式
 41
0.944444
  7
KANJI
100
AcDbText
  0
TEXT
  5
2DF1
330
1F
100
AcDbEntity
  8
1
  6
Continuous
 62
     7
370
    13
100
AcDbText
 10
5682.545499410831
 20
5688.70744020048
 30
0.0
 40
459.8415360000001
  1
ＤＣ２４Ｖ±１０％　制御装置より供給
 41
0.944444
  7
KANJI
100
AcDbText
  0
TEXT
  5
2DF2
330
1F
100
AcDbEntity
  8
1
  6
Continuous
 62
     7
370
    13
100
AcDbText
 10
5674.6550486529
 20
5040.729034364225
 30
0.0
 40
459.8415360000001
  1
ＣＰＵ制御
 41
0.944444
  7
KANJI
100
AcDbText
  0
TEXT
  5
2DF3
330
1F
100
AcDbEntity
  8
1
  6
Continuous
 62
     7
370
    13
100
AcDbText
 10
5674.6550486529
 20
4404.451174052985
 30
0.0
 40
459.8415360000001
  1
電源搬送波重畳方式
 41
0.944444
  7
KANJI
100
AcDbText
  0
TEXT
  5
2DF4
330
1F
100
AcDbEntity
  8
1
  6
Continuous
 62
     7
370
    13
100
AcDbText
 10
2915.367707906407
 20
3697.652618446416
 30
0.0
 40
459.8415360000001
  1
外部入力
 41
0.944444
  7
KANJI
100
AcDbText
  0
TEXT
  5
2DF5
330
1F
100
AcDbEntity
  8
1
  6
Continuous
 62
     7
370
    13
100
AcDbText
 10
2915.367707906407
 20
6358.378554755982
 30
0.0
 40
459.8415360000001
  1
重　量
 41
0.944444
  7
KANJI
100
AcDbText
  0
TEXT
  5
2DF6
330
1F
100
AcDbEntity
  8
1
  6
Continuous
 62
     7
370
    13
100
AcDbText
 10
5674.6550486529
 20
6358.378554755982
 30
0.0
 40
459.8415360000001
  1
約４０ｇ
 41
0.944444
  7
KANJI
100
AcDbText
  0
TEXT
  5
2DF7
330
1F
100
AcDbEntity
  8
1
  6
Continuous
 62
     7
370
    13
100
AcDbText
 10
5674.6550486529
 20
3697.652618446416
 30
0.0
 40
459.8415360000001
  1
接点容量　ＤＣ２４Ｖ　１０ｍＡ以上
 41
0.8872049999999999
  7
KANJI
100
AcDbText
  0
LINE
  5
2DF8
330
1F
100
AcDbEntity
  8
1
  6
Continuous
 62
     7
370
    13
100
AcDbLine
 10
22151.98778460023
 20
7550.503073443877
 30
0.0
 11
22151.98778460023
 21
2944.654807206127
 31
0.0
  0
LINE
  5
2DF9
330
1F
100
AcDbEntity
  8
1
  6
Continuous
 62
     7
370
    13
100
AcDbLine
 10
2582.443605709704
 20
7550.503073443877
 30
0.0
 11
2582.443605709704
 21
2944.654807206127
 31
0.0
  0
LINE
  5
2DFA
330
1F
100
AcDbEntity
  8
1
  6
Continuous
 62
     7
370
    13
100
AcDbLine
 10
2582.443605709704
 20
6234.54642594709
 30
0.0
 11
22151.98778460023
 21
6234.54642594709
 31
0.0
  0
LINE
  5
2DFB
330
1F
100
AcDbEntity
  8
1
  6
Continuous
 62
     7
370
    13
100
AcDbLine
 10
2582.443605709704
 20
5576.568102198361
 30
0.0
 11
22151.98778460023
 21
5576.568102198361
 31
0.0
  0
LINE
  5
2DFC
330
1F
100
AcDbEntity
  8
1
  6
Continuous
 62
     7
370
    13
100
AcDbLine
 10
2582.443605709704
 20
4918.589778450376
 30
0.0
 11
22151.98778460023
 21
4918.589778450376
 31
0.0
  0
LINE
  5
2DFD
330
1F
100
AcDbEntity
  8
1
  6
Continuous
 62
     7
370
    13
100
AcDbLine
 10
2582.443605709704
 20
4260.611454702361
 30
0.0
 11
22151.98778460023
 21
4260.611454703001
 31
0.0
  0
LINE
  5
2DFE
330
1F
100
AcDbEntity
  8
1
  6
Continuous
 62
     7
370
    13
100
AcDbLine
 10
2582.443605709704
 20
3602.633130954286
 30
0.0
 11
22151.98778460023
 21
3602.633130954286
 31
0.0
  0
LINE
  5
2DFF
330
1F
100
AcDbEntity
  8
0
  6
Continuous
370
    13
100
AcDbLine
 10
5464.761973002111
 20
7550.503073443877
 30
0.0
 11
5464.761973002111
 21
2944.654807206127
 31
0.0
  0
TEXT
  5
2E00
330
1F
100
AcDbEntity
  8
1
  6
Continuous
 62
     7
370
    13
100
AcDbText
 10
2915.367707906407
 20
3039.674294698241
 30
0.0
 40
459.8415360000001
  1
外部出力
 41
0.944444
  7
KANJI
100
AcDbText
  0
TEXT
  5
2E01
330
1F
100
AcDbEntity
  8
1
  6
Continuous
 62
     7
370
    13
100
AcDbText
 10
5674.6550486529
 20
3039.674294698241
 30
0.0
 40
459.8415360000001
  1
接点容量　ＤＣ２４Ｖ　１Ａ以下
 41
0.8872049999999999
  7
KANJI
100
AcDbText
  0
LINE
  5
2E02
330
1F
100
AcDbEntity
  8
1
  6
Continuous
 62
     7
370
    13
100
AcDbLine
 10
2582.443605709704
 20
2944.654807206127
 30
0.0
 11
22151.98778460023
 21
2944.654807206127
 31
0.0
  0
TEXT
  5
2E03
330
1F
100
AcDbEntity
  8
1
  6
Continuous
 62
     7
370
    13
100
AcDbText
 10
4392.48896182602
 20
24697.96936453848
 30
0.0
 40
741.8776780800003
  1
デジタルテンキーＩ／Ｆユニット　Ｔ－３８３０ＩＦ(盤内蔵)
 41
0.75
  7
KANJI
100
AcDbText
  0
TEXT
  5
2E1E
330
1F
100
AcDbEntity
  8
1
  6
Continuous
 62
     7
370
    13
100
AcDbText
 10
2658.462680704134
 20
2391.06818820827
 30
0.0
 40
380.0
  1
Ｃ－Ｕ１１に本ユニットを取付ける場合は、以下のユニットは取付けることができません。
 41
0.7
  7
KANJI
100
AcDbText
  0
TEXT
  5
2E1F
330
1F
100
AcDbEntity
  8
1
  6
Continuous
 62
     7
370
    13
100
AcDbText
 10
2658.028044946039
 20
1926.852755666303
 30
0.0
 40
380.0
  1
・ダブルロックユニット　Ｃ－Ｕ１１ＤＬ
 41
0.7
  7
KANJI
100
AcDbText
  0
TEXT
  5
2E20
330
1F
100
AcDbEntity
  8
1
  6
Continuous
 62
     7
370
    13
100
AcDbText
 10
2658.462680704134
 20
1447.073102665976
 30
0.0
 40
380.0
  1
・タイマユニット　ＡＴ－０１
 41
0.7
  7
KANJI
100
AcDbText
  0
DIMENSION
  5
3212
330
1F
100
AcDbEntity
  8
1
  6
Continuous
 62
     7
370
    13
100
AcDbDimension
  2
*D14
 10
17551.56104548381
 20
22255.13407041313
 30
0.0
 11
16456.4018854841
 21
22505.13407041313
 31
0.0
 70
    32
  1
(28)
 71
     5
 42
2190.318319999423
  3
Standard
100
AcDbAlignedDimension
 13
15361.24272548439
 23
19438.74903041305
 33
0.0
 14
17551.56104548381
 24
20814.56079041319
 34
0.0
100
AcDbRotatedDimension
1001
ACAD
1000
DSTYLE
1002
{
1070
    41
1040
500.0
1070
    42
1040
50.0
1070
    73
1070
     0
1070
    77
1070
     1
1070
   140
1040
400.0
1070
   147
1040
50.0
1070
   173
1070
     1
1070
   343
1005
2B
1070
   344
1005
2B
1070
   371
1070
    13
1070
   372
1070
    13
1002
}
  0
ARC
  5
3213
330
1F
100
AcDbEntity
  8
1
  6
Continuous
 62
     7
370
    13
100
AcDbCircle
 10
16972.13400548399
 20
15080.92575041314
 30
0.0
 40
180.57864
100
AcDbArc
 50
180.0
 51
270.0
  0
ARC
  5
3214
330
1F
100
AcDbEntity
  8
1
  6
Continuous
 62
     7
370
    13
100
AcDbCircle
 10
16972.13400548399
 20
15080.92575041314
 30
0.0
 40
351.37048
100
AcDbArc
 50
180.0
 51
270.0
  0
ARC
  5
3215
330
1F
100
AcDbEntity
  8
1
  6
Continuous
 62
     7
370
    13
100
AcDbCircle
 10
16965.86160548398
 20
14537.39319041312
 30
0.0
 40
351.37048
100
AcDbArc
 50
180.0
 51
270.0
  0
ARC
  5
3216
330
1F
100
AcDbEntity
  8
1
  6
Continuous
 62
     7
370
    13
100
AcDbCircle
 10
16968.28488548361
 20
14539.21423041319
 30
0.0
 40
180.57864
100
AcDbArc
 50
180.0
 51
270.0
  0
ARC
  5
3217
330
1F
100
AcDbEntity
  8
1
  6
Continuous
 62
     7
370
    13
100
AcDbCircle
 10
16968.83080548391
 20
14012.47919041313
 30
0.0
 40
180.57864
100
AcDbArc
 50
180.0
 51
270.0
  0
ARC
  5
3218
330
1F
100
AcDbEntity
  8
1
  6
Continuous
 62
     7
370
    13
100
AcDbCircle
 10
16967.29016548389
 20
14013.15895041319
 30
0.0
 40
351.37048
100
AcDbArc
 50
180.0
 51
270.0
  0
ARC
  5
3219
330
1F
100
AcDbEntity
  8
1
  6
Continuous
 62
     7
370
    13
100
AcDbCircle
 10
16967.10808548395
 20
12565.57535041312
 30
0.0
 40
180.57864
100
AcDbArc
 50
180.0
 51
270.0
  0
ARC
  5
321A
330
1F
100
AcDbEntity
  8
1
  6
Continuous
 62
     7
370
    13
100
AcDbCircle
 10
16967.10808548395
 20
12565.57535041312
 30
0.0
 40
351.37048
100
AcDbArc
 50
180.0
 51
270.0
  0
ARC
  5
321B
330
1F
100
AcDbEntity
  8
1
  6
Continuous
 62
     7
370
    13
100
AcDbCircle
 10
16971.37000548379
 20
12263.62319041319
 30
0.0
 40
180.57864
100
AcDbArc
 50
180.0
 51
270.0
  0
ARC
  5
321C
330
1F
100
AcDbEntity
  8
1
  6
Continuous
 62
     7
370
    13
100
AcDbCircle
 10
16963.34864548366
 20
12263.63695041319
 30
0.0
 40
351.37048
100
AcDbArc
 50
180.0
 51
270.0
  0
LINE
  5
321D
330
1F
100
AcDbEntity
  8
1
  6
Continuous
 62
     7
370
    13
100
AcDbLine
 10
16408.58456548379
 20
17130.12327041316
 30
0.0
 11
16945.11392548406
 21
17130.12327041316
 31
0.0
  0
LINE
  5
321E
330
1F
100
AcDbEntity
  8
1
  6
Continuous
 62
     7
370
    13
100
AcDbLine
 10
16945.11392548406
 20
18000.05151041317
 30
0.0
 11
16408.58456548379
 21
18000.05151041317
 31
0.0
  0
LINE
  5
321F
330
1F
100
AcDbEntity
  8
1
  6
Continuous
 62
     7
370
    13
100
AcDbLine
 10
16301.16896548384
 20
18301.02095041321
 30
0.0
 11
16927.87112548382
 21
18301.02095041321
 31
0.0
  0
LINE
  5
3220
330
1F
100
AcDbEntity
  8
1
  6
Continuous
 62
     7
370
    13
100
AcDbLine
 10
16174.43176548363
 20
19166.56975041318
 30
0.0
 11
16939.40200548403
 21
19166.56975041318
 31
0.0
  0
LINE
  5
3221
330
1F
100
AcDbEntity
  8
1
  6
Continuous
 62
     7
370
    13
100
AcDbLine
 10
16939.40200548403
 20
18610.22775041317
 30
0.0
 11
16174.43176548363
 21
18610.22775041317
 31
0.0
  0
LINE
  5
3222
330
1F
100
AcDbEntity
  8
1
  6
Continuous
 62
     7
370
    13
100
AcDbLine
 10
16945.11392548406
 20
15846.9790304132
 30
0.0
 11
15993.88640548411
 21
15846.9790304132
 31
0.0
  0
LINE
  5
3223
330
1F
100
AcDbEntity
  8
1
  6
Continuous
 62
     7
370
    13
100
AcDbLine
 10
15993.88640548411
 20
16223.44671041311
 30
0.0
 11
16945.11392548406
 21
16223.44671041311
 31
0.0
  0
LINE
  5
3224
330
1F
100
AcDbEntity
  8
1
  6
Continuous
 62
     7
370
    13
100
AcDbLine
 10
16945.11392548406
 20
19565.6748704132
 30
0.0
 11
15993.88640548411
 21
19565.6748704132
 31
0.0
  0
LINE
  5
3225
330
1F
100
AcDbEntity
  8
1
  6
Continuous
 62
     7
370
    13
100
AcDbLine
 10
15993.88640548411
 20
19942.14255041311
 30
0.0
 11
16945.11392548406
 21
19942.14255041311
 31
0.0
  0
LINE
  5
3226
330
1F
100
AcDbEntity
  8
1
  6
Continuous
 62
     7
370
    13
100
AcDbLine
 10
16615.56104548409
 20
20654.56079041323
 30
0.0
 11
17551.56104548386
 21
20654.56079041323
 31
0.0
  0
LINE
  5
3227
330
1F
100
AcDbEntity
  8
1
  6
Continuous
 62
     7
370
    13
100
AcDbLine
 10
16615.56104548409
 20
20094.56079041322
 30
0.0
 11
17551.56104548386
 21
20094.56079041322
 31
0.0
  0
LINE
  5
3228
330
1F
100
AcDbEntity
  8
1
  6
Continuous
 62
     7
370
    13
100
AcDbLine
 10
16615.56104548409
 20
15694.56079041323
 30
0.0
 11
17551.56104548386
 21
15694.56079041323
 31
0.0
  0
LINE
  5
3229
330
1F
100
AcDbEntity
  8
1
  6
Continuous
 62
     7
370
    13
100
AcDbLine
 10
16615.56104548409
 20
15134.56079041323
 30
0.0
 11
17551.70144548366
 21
15134.56079041323
 31
0.0
  0
LINE
  5
322A
330
1F
100
AcDbEntity
  8
1
  6
Continuous
 62
     7
370
    13
100
AcDbLine
 10
7550.761045483698
 20
21055.13407041318
 30
0.0
 11
7550.761045483698
 21
14735.13407041318
 31
0.0
  0
DIMENSION
  5
322B
330
1F
100
AcDbEntity
  8
1
  6
Continuous
 62
     7
370
    13
100
AcDbDimension
  2
*D15
 10
4350.761045483814
 20
15415.13407041313
 30
0.0
 11
4100.761045483811
 21
17895.13407041313
 31
0.0
 70
    32
  1
62
 71
     5
 42
4959.999999999998
  3
Standard
100
AcDbAlignedDimension
 13
4990.761045483814
 23
20375.13407041313
 33
0.0
 14
9070.761045483815
 24
15415.13407041313
 34
0.0
 50
270.0
100
AcDbRotatedDimension
1001
ACAD
1000
DSTYLE
1002
{
1070
    41
1040
500.0
1070
    42
1040
50.0
1070
    73
1070
     0
1070
    77
1070
     1
1070
   140
1040
400.0
1070
   147
1040
50.0
1070
   173
1070
     1
1070
   343
1005
2B
1070
   344
1005
2B
1070
   371
1070
    13
1070
   372
1070
    13
1002
}
  0
DIMENSION
  5
322C
330
1F
100
AcDbEntity
  8
1
  6
Continuous
 62
     7
370
    13
100
AcDbDimension
  2
*D16
 10
3550.761045483814
 20
15135.13407041314
 30
0.0
 11
3300.761045483811
 21
17895.13407041313
 31
0.0
 70
    32
  1
69
 71
     5
 42
5519.999999999996
  3
Standard
100
AcDbAlignedDimension
 13
5070.761045483814
 23
20655.13407041313
 33
0.0
 14
4990.761045483814
 24
15135.13407041313
 34
0.0
 50
270.0
100
AcDbRotatedDimension
1001
ACAD
1000
DSTYLE
1002
{
1070
    41
1040
500.0
1070
    42
1040
50.0
1070
    73
1070
     0
1070
    77
1070
     1
1070
   140
1040
400.0
1070
   147
1040
50.0
1070
   173
1070
     1
1070
   343
1005
2B
1070
   344
1005
2B
1070
   371
1070
    13
1070
   372
1070
    13
1002
}
  0
LINE
  5
322D
330
1F
100
AcDbEntity
  8
1
  6
Continuous
 62
     7
370
    13
100
AcDbLine
 10
9310.761045483697
 20
19999.13407041312
 30
0.0
 11
9310.761045483697
 21
15791.13407041324
 31
0.0
  0
LINE
  5
322E
330
1F
100
AcDbEntity
  8
1
  6
Continuous
 62
     7
370
    13
100
AcDbLine
 10
5790.761045483698
 20
19999.13407041312
 30
0.0
 11
5790.761045483698
 21
15215.13407041318
 31
0.0
  0
LINE
  5
322F
330
1F
100
AcDbEntity
  8
1
  6
Continuous
 62
     7
370
    13
100
AcDbLine
 10
7946.904485483712
 20
16877.86111041321
 30
0.0
 11
9351.901525483874
 21
16381.19711041319
 31
0.0
  0
LINE
  5
3230
330
1F
100
AcDbEntity
  8
1
  6
Continuous
 62
     7
370
    13
100
AcDbLine
 10
7706.904485483711
 20
17117.86111041321
 30
0.0
 11
7706.904485483711
 21
16637.86111041321
 31
0.0
  0
LINE
  5
3231
330
1F
100
AcDbEntity
  8
1
  6
Continuous
 62
     7
370
    13
100
AcDbLine
 10
8186.904485483713
 20
16637.86111041321
 30
0.0
 11
8186.904485483713
 21
17117.86111041321
 31
0.0
  0
LINE
  5
3232
330
1F
100
AcDbEntity
  8
1
  6
Continuous
 62
     7
370
    13
100
AcDbLine
 10
7706.904485483711
 20
17117.86111041321
 30
0.0
 11
7706.904485483711
 21
16637.86111041321
 31
0.0
  0
LINE
  5
3233
330
1F
100
AcDbEntity
  8
1
  6
Continuous
 62
     7
370
    13
100
AcDbLine
 10
6559.318645483756
 20
17223.93511041314
 30
0.0
 11
6559.318645483756
 21
16538.69959041315
 31
0.0
  0
LINE
  5
3234
330
1F
100
AcDbEntity
  8
1
  6
Continuous
 62
     7
370
    13
100
AcDbLine
 10
7261.806725483795
 20
16538.69959041315
 30
0.0
 11
7261.806725483795
 21
17223.93511041314
 31
0.0
  0
CIRCLE
  5
3235
330
1F
100
AcDbEntity
  8
1
  6
Continuous
 62
     7
370
    13
100
AcDbCircle
 10
6910.56272548408
 20
16881.31735041315
 30
0.0
 40
333.7467199999999
  0
LINE
  5
3236
330
1F
100
AcDbEntity
  8
1
  6
Continuous
 62
     7
370
    13
100
AcDbLine
 10
9150.761045483697
 20
20015.13407041318
 30
0.0
 11
9150.761045483697
 21
15775.13407041318
 31
0.0
  0
LINE
  5
3237
330
1F
100
AcDbEntity
  8
1
  6
Continuous
 62
     7
370
    13
100
AcDbLine
 10
5790.761045483698
 20
15775.13407041318
 30
0.0
 11
5790.761045483698
 21
16993.35807041322
 31
0.0
  0
LINE
  5
3238
330
1F
100
AcDbEntity
  8
1
  6
Continuous
 62
     7
370
    13
100
AcDbLine
 10
15627.43928548373
 20
17116.71455041315
 30
0.0
 11
15627.43928548373
 21
16636.71455041315
 31
0.0
  0
LINE
  5
3239
330
1F
100
AcDbEntity
  8
1
  6
Continuous
 62
     7
370
    13
100
AcDbLine
 10
15361.24272548378
 20
19278.74903041316
 30
0.0
 11
15361.24272548378
 21
16537.55303041325
 31
0.0
  0
LINE
  5
323A
330
1F
100
AcDbEntity
  8
1
  6
Continuous
 62
     7
370
    13
100
AcDbLine
 10
15867.43928548373
 20
15775.13407041318
 30
0.0
 11
15867.43928548373
 21
20013.98751041313
 31
0.0
  0
LINE
  5
323B
330
1F
100
AcDbEntity
  8
1
  6
Continuous
 62
     7
370
    13
100
AcDbLine
 10
15993.88640548411
 20
20013.98751041313
 30
0.0
 11
15993.88640548411
 21
15775.13407041318
 31
0.0
  0
LINE
  5
323C
330
1F
100
AcDbEntity
  8
1
  6
Continuous
 62
     7
370
    13
100
AcDbLine
 10
6777.769045483612
 20
15135.13407041318
 30
0.0
 11
5870.761045483698
 21
15135.13407041318
 31
0.0
  0
LINE
  5
323D
330
1F
100
AcDbEntity
  8
1
  6
Continuous
 62
     7
370
    13
100
AcDbLine
 10
9150.761045483697
 20
15775.13407041318
 30
0.0
 11
5790.761045483698
 21
15775.13407041318
 31
0.0
  0
LINE
  5
323E
330
1F
100
AcDbEntity
  8
1
  6
Continuous
 62
     7
370
    13
100
AcDbLine
 10
5967.983365483989
 20
16175.13407041318
 30
0.0
 11
6409.706085483951
 21
16175.13407041318
 31
0.0
  0
LINE
  5
323F
330
1F
100
AcDbEntity
  8
1
  6
Continuous
 62
     7
370
    13
100
AcDbLine
 10
6601.184725483938
 20
12425.26383041316
 30
0.0
 11
6218.186085483933
 21
12425.26383041316
 31
0.0
  0
LINE
  5
3240
330
1F
100
AcDbEntity
  8
1
  6
Continuous
 62
     7
370
    13
100
AcDbLine
 10
6593.163365483808
 20
12596.04199041321
 30
0.0
 11
6218.186085483933
 21
12596.04199041321
 31
0.0
  0
LINE
  5
3241
330
1F
100
AcDbEntity
  8
1
  6
Continuous
 62
     7
370
    13
100
AcDbLine
 10
6597.425285483652
 20
12727.20223041323
 30
0.0
 11
6218.186085483933
 21
12727.20223041323
 31
0.0
  0
LINE
  5
3242
330
1F
100
AcDbEntity
  8
1
  6
Continuous
 62
     7
370
    13
100
AcDbLine
 10
6611.896085483779
 20
12898.57487041313
 30
0.0
 11
6218.186085483933
 21
12898.57487041313
 31
0.0
  0
LINE
  5
3243
330
1F
100
AcDbEntity
  8
1
  6
Continuous
 62
     7
370
    13
100
AcDbLine
 10
5828.417045484123
 20
12208.12343041324
 30
0.0
 11
5828.417045484123
 21
13071.18775041322
 31
0.0
  0
LINE
  5
3244
330
1F
100
AcDbEntity
  8
1
  6
Continuous
 62
     7
370
    13
100
AcDbLine
 10
5302.95304548362
 20
13071.18775041322
 30
0.0
 11
5302.95304548362
 21
12208.12343041324
 31
0.0
  0
LINE
  5
3245
330
1F
100
AcDbEntity
  8
1
  6
Continuous
 62
     7
370
    13
100
AcDbLine
 10
4876.494805484137
 20
12208.12343041324
 30
0.0
 11
4876.494805484137
 21
13071.18775041322
 31
0.0
  0
LINE
  5
3246
330
1F
100
AcDbEntity
  8
1
  6
Continuous
 62
     7
370
    13
100
AcDbLine
 10
4351.030805483635
 20
13071.18775041322
 30
0.0
 11
4351.030805483635
 21
12208.12343041324
 31
0.0
  0
LINE
  5
3247
330
1F
100
AcDbEntity
  8
1
  6
Continuous
 62
     7
370
    13
100
AcDbLine
 10
5302.95304548362
 20
12035.51055041316
 30
0.0
 11
5302.95304548362
 21
13243.80055041314
 31
0.0
  0
LINE
  5
3248
330
1F
100
AcDbEntity
  8
1
  6
Continuous
 62
     7
370
    13
100
AcDbLine
 10
4876.489045483933
 20
13243.80055041314
 30
0.0
 11
4876.489045483933
 21
12035.51055041316
 31
0.0
  0
LINE
  5
3249
330
1F
100
AcDbEntity
  8
1
  6
Continuous
 62
     7
370
    13
100
AcDbLine
 10
4244.562805483758
 20
12425.26383041316
 30
0.0
 11
3163.329765483679
 21
12425.26383041316
 31
0.0
  0
LINE
  5
324A
330
1F
100
AcDbEntity
  8
1
  6
Continuous
 62
     7
370
    13
100
AcDbLine
 10
4244.562805483758
 20
12596.04199041321
 30
0.0
 11
3163.329765483679
 21
12596.04199041321
 31
0.0
  0
LINE
  5
324B
330
1F
100
AcDbEntity
  8
1
  6
Continuous
 62
     7
370
    13
100
AcDbLine
 10
4244.562805483758
 20
12727.20223041323
 30
0.0
 11
3163.329765483679
 21
12727.20223041323
 31
0.0
  0
LINE
  5
324C
330
1F
100
AcDbEntity
  8
1
  6
Continuous
 62
     7
370
    13
100
AcDbLine
 10
4244.562805483758
 20
12898.57487041313
 30
0.0
 11
3163.329765483679
 21
12898.57487041313
 31
0.0
  0
TEXT
  5
324D
330
1F
100
AcDbEntity
  8
1
  6
Continuous
 62
     7
370
    13
100
AcDbText
 10
2786.411925484019
 20
12051.34855041323
 30
0.0
 40
240.0
  1
テンキーへ
 41
1.133332999999999
  7
KANJI
100
AcDbText
  0
LINE
  5
324E
330
1F
100
AcDbEntity
  8
1
  6
Continuous
 62
     7
370
    13
100
AcDbLine
 10
3163.329765483679
 20
12849.94119041322
 30
0.0
 11
2802.961765483662
 21
12849.94119041322
 31
0.0
  0
LINE
  5
324F
330
1F
100
AcDbEntity
  8
1
  6
Continuous
 62
     7
370
    13
100
AcDbLine
 10
2802.961765483662
 20
12768.07719041316
 30
0.0
 11
3163.329765483679
 21
12768.07719041316
 31
0.0
  0
LINE
  5
3250
330
1F
100
AcDbEntity
  8
1
  6
Continuous
 62
     7
370
    13
100
AcDbLine
 10
3156.123125484038
 20
12545.32519041312
 30
0.0
 11
2809.627125483995
 21
12545.32519041312
 31
0.0
  0
LINE
  5
3251
330
1F
100
AcDbEntity
  8
1
  6
Continuous
 62
     7
370
    13
100
AcDbLine
 10
2809.627125483995
 20
12463.46119041321
 30
0.0
 11
3156.123125484038
 21
12463.46119041321
 31
0.0
  0
LINE
  5
3252
330
1F
100
AcDbEntity
  8
1
  6
Continuous
 62
     7
370
    13
100
AcDbLine
 10
2809.627125483995
 20
12545.32519041312
 30
0.0
 11
2809.627125483995
 21
12463.46119041321
 31
0.0
  0
LINE
  5
3253
330
1F
100
AcDbEntity
  8
1
  6
Continuous
 62
     7
370
    13
100
AcDbLine
 10
2802.961765483662
 20
12849.94119041322
 30
0.0
 11
2802.961765483662
 21
12768.07719041316
 31
0.0
  0
LINE
  5
3254
330
1F
100
AcDbEntity
  8
1
  6
Continuous
 62
     7
370
    13
100
AcDbLine
 10
3163.329765483679
 20
12596.04199041321
 30
0.0
 11
3163.329765483679
 21
12425.26383041316
 31
0.0
  0
LINE
  5
3255
330
1F
100
AcDbEntity
  8
1
  6
Continuous
 62
     7
370
    13
100
AcDbLine
 10
3163.329765483679
 20
12898.57487041313
 30
0.0
 11
3163.329765483679
 21
12727.20223041323
 31
0.0
  0
LINE
  5
3256
330
1F
100
AcDbEntity
  8
1
  6
Continuous
 62
     7
370
    13
100
AcDbLine
 10
4876.489045483933
 20
12035.51055041316
 30
0.0
 11
5302.95304548362
 21
12035.51055041316
 31
0.0
  0
LINE
  5
3257
330
1F
100
AcDbEntity
  8
1
  6
Continuous
 62
     7
370
    13
100
AcDbLine
 10
4351.030805483635
 20
12208.12343041324
 30
0.0
 11
4876.494805484137
 21
12208.12343041324
 31
0.0
  0
LINE
  5
3258
330
1F
100
AcDbEntity
  8
1
  6
Continuous
 62
     7
370
    13
100
AcDbLine
 10
4346.310325483965
 20
12425.26383041316
 30
0.0
 11
4244.562805483758
 21
12425.26383041316
 31
0.0
  0
LINE
  5
3259
330
1F
100
AcDbEntity
  8
1
  6
Continuous
 62
     7
370
    13
100
AcDbLine
 10
4346.310325483965
 20
12596.04199041321
 30
0.0
 11
4244.562805483758
 21
12596.04199041321
 31
0.0
  0
LINE
  5
325A
330
1F
100
AcDbEntity
  8
1
  6
Continuous
 62
     7
370
    13
100
AcDbLine
 10
4346.310325483965
 20
12727.20223041323
 30
0.0
 11
4244.562805483758
 21
12727.20223041323
 31
0.0
  0
LINE
  5
325B
330
1F
100
AcDbEntity
  8
1
  6
Continuous
 62
     7
370
    13
100
AcDbLine
 10
4357.733365483756
 20
12898.57487041313
 30
0.0
 11
4244.562805483758
 21
12898.57487041313
 31
0.0
  0
LINE
  5
325C
330
1F
100
AcDbEntity
  8
1
  6
Continuous
 62
     7
370
    13
100
AcDbLine
 10
5302.95304548362
 20
12208.12343041324
 30
0.0
 11
5828.417045484123
 21
12208.12343041324
 31
0.0
  0
LINE
  5
325D
330
1F
100
AcDbEntity
  8
1
  6
Continuous
 62
     7
370
    13
100
AcDbLine
 10
6218.186085483933
 20
12425.26383041316
 30
0.0
 11
5827.797365483886
 21
12425.26383041316
 31
0.0
  0
LINE
  5
325E
330
1F
100
AcDbEntity
  8
1
  6
Continuous
 62
     7
370
    13
100
AcDbLine
 10
6218.186085483933
 20
12596.04199041321
 30
0.0
 11
5828.395365483768
 21
12596.04199041321
 31
0.0
  0
LINE
  5
325F
330
1F
100
AcDbEntity
  8
1
  6
Continuous
 62
     7
370
    13
100
AcDbLine
 10
6218.186085483933
 20
12727.20223041323
 30
0.0
 11
5828.416565483959
 21
12727.20223041323
 31
0.0
  0
LINE
  5
3260
330
1F
100
AcDbEntity
  8
1
  6
Continuous
 62
     7
370
    13
100
AcDbLine
 10
6218.186085483933
 20
12898.57487041313
 30
0.0
 11
5828.417045484123
 21
12898.57487041313
 31
0.0
  0
LINE
  5
3261
330
1F
100
AcDbEntity
  8
1
  6
Continuous
 62
     7
370
    13
100
AcDbLine
 10
5302.95304548362
 20
13243.80055041314
 30
0.0
 11
4876.489045483933
 21
13243.80055041314
 31
0.0
  0
LINE
  5
3262
330
1F
100
AcDbEntity
  8
1
  6
Continuous
 62
     7
370
    13
100
AcDbLine
 10
4876.494805484137
 20
13071.18775041322
 30
0.0
 11
4351.030805483635
 21
13071.18775041322
 31
0.0
  0
LINE
  5
3263
330
1F
100
AcDbEntity
  8
1
  6
Continuous
 62
     7
370
    13
100
AcDbLine
 10
5828.417045484123
 20
13071.18775041322
 30
0.0
 11
5302.95304548362
 21
13071.18775041322
 31
0.0
  0
LINE
  5
3264
330
1F
100
AcDbEntity
  8
1
  6
Continuous
 62
     7
370
    13
100
AcDbLine
 10
5790.761045483698
 20
15215.13407041318
 30
0.0
 11
5870.761045483698
 21
15135.13407041318
 31
0.0
  0
CIRCLE
  5
3265
330
1F
100
AcDbEntity
  8
1
  6
Continuous
 62
     7
370
    13
100
AcDbCircle
 10
6190.761045483697
 20
16175.13407041318
 30
0.0
 40
140.0
  0
LINE
  5
3266
330
1F
100
AcDbEntity
  8
1
  6
Continuous
 62
     7
370
    13
100
AcDbLine
 10
6190.761045483697
 20
16391.2220704132
 30
0.0
 11
6190.761045483697
 21
15960.61999041324
 31
0.0
  0
TEXT
  5
3267
330
1F
100
AcDbEntity
  8
1
  6
Continuous
 62
     7
370
    13
100
AcDbText
 10
10090.64904548361
 20
10586.48519041321
 30
0.0
 40
240.0
  1
電源0Ｖ　 (黒)
 41
0.8814809999999999
  7
KANJI
100
AcDbText
  0
TEXT
  5
3268
330
1F
100
AcDbEntity
  8
1
  6
Continuous
 62
     7
370
    13
100
AcDbText
 10
10092.40904548397
 20
11098.97319041323
 30
0.0
 40
240.0
  1
照合出力　(黄)
 41
0.9916669999999999
  7
KANJI
100
AcDbText
  0
TEXT
  5
3269
330
1F
100
AcDbEntity
  8
1
  6
Continuous
 62
     7
370
    13
100
AcDbText
 10
10091.00104548403
 20
11638.10919041323
 30
0.0
 40
240.0
  1
照合出力　(黄）
 41
1.0625
  7
KANJI
100
AcDbText
  0
TEXT
  5
326A
330
1F
100
AcDbEntity
  8
1
  6
Continuous
 62
     7
370
    13
100
AcDbText
 10
10092.4890454837
 20
12149.89319041312
 30
0.0
 40
240.0
  1
解錠入力　(白)
 41
0.9916669999999999
  7
KANJI
100
AcDbText
  0
TEXT
  5
326B
330
1F
100
AcDbEntity
  8
1
  6
Continuous
 62
     7
370
    13
100
AcDbText
 10
10089.15696548373
 20
12652.50919041325
 30
0.0
 40
240.0
  1
解錠入力　(白)
 41
0.9916669999999999
  7
KANJI
100
AcDbText
  0
TEXT
  5
326C
330
1F
100
AcDbEntity
  8
1
  6
Continuous
 62
     7
370
    13
100
AcDbText
 10
10089.62272548367
 20
10094.50919041322
 30
0.0
 40
240.0
  1
電源ＤＣ２４Ｖ　(赤)
 41
1.030302999999999
  7
KANJI
100
AcDbText
  0
TEXT
  5
326D
330
1F
100
AcDbEntity
  8
1
  6
Continuous
 62
     7
370
    13
100
AcDbText
 10
9356.657925484062
 20
14692.81407041314
 30
0.0
 40
240.0
  1
暗証番号設定ロータリースイッチ
 41
1.133332999999999
  7
KANJI
100
AcDbText
  0
LINE
  5
326E
330
1F
100
AcDbEntity
  8
1
  6
Continuous
 62
     7
370
    13
100
AcDbLine
 10
9369.217925484001
 20
14692.81407041314
 30
0.0
 11
13180.65792548371
 21
14692.81407041314
 31
0.0
  0
TEXT
  5
326F
330
1F
100
AcDbEntity
  8
1
  6
Continuous
 62
     7
370
    13
100
AcDbText
 10
9377.717445483606
 20
16453.58911041315
 30
0.0
 40
240.0
  1
解錠入力切替スイッチ
 41
1.133332999999999
  7
KANJI
100
AcDbText
  0
LINE
  5
3270
330
1F
100
AcDbEntity
  8
1
  6
Continuous
 62
     7
370
    13
100
AcDbLine
 10
9351.901525483874
 20
16381.19711041319
 30
0.0
 11
11921.71744548383
 21
16381.19711041319
 31
0.0
  0
ARC
  5
3271
330
1F
100
AcDbEntity
  8
1
  6
Continuous
 62
     7
370
    13
100
AcDbCircle
 10
8341.649125483993
 20
13077.33247041323
 30
0.0
 40
351.37048
100
AcDbArc
 50
180.0
 51
270.0
  0
ARC
  5
3272
330
1F
100
AcDbEntity
  8
1
  6
Continuous
 62
     7
370
    13
100
AcDbCircle
 10
8344.072405483633
 20
13079.15351041315
 30
0.0
 40
180.57864
100
AcDbArc
 50
180.0
 51
270.0
  0
LINE
  5
3273
330
1F
100
AcDbEntity
  8
1
  6
Continuous
 62
     7
370
    13
100
AcDbLine
 10
7990.505045483762
 20
13522.62935041318
 30
0.0
 11
7990.505045483762
 21
12553.29647041318
 31
0.0
  0
LINE
  5
3274
330
1F
100
AcDbEntity
  8
1
  6
Continuous
 62
     7
370
    13
100
AcDbLine
 10
7817.257045483741
 20
13643.72663041314
 30
0.0
 11
7817.257045483741
 21
12035.48903041315
 31
0.0
  0
LINE
  5
3275
330
1F
100
AcDbEntity
  8
1
  6
Continuous
 62
     7
370
    13
100
AcDbLine
 10
7644.009045483719
 20
13642.22023041322
 30
0.0
 11
7644.009045483719
 21
11517.02079041322
 31
0.0
  0
LINE
  5
3276
330
1F
100
AcDbEntity
  8
1
  6
Continuous
 62
     7
370
    13
100
AcDbLine
 10
7470.761045483698
 20
13532.27031041314
 30
0.0
 11
7470.761045483698
 21
10999.82847041319
 31
0.0
  0
LINE
  5
3277
330
1F
100
AcDbEntity
  8
1
  6
Continuous
 62
     7
370
    13
100
AcDbLine
 10
7297.513045483675
 20
13352.65151041312
 30
0.0
 11
7297.513045483675
 21
10481.97983041317
 31
0.0
  0
LINE
  5
3278
330
1F
100
AcDbEntity
  8
1
  6
Continuous
 62
     7
370
    13
100
AcDbLine
 10
7124.265045483655
 20
13256.2912704132
 30
0.0
 11
7124.265045483655
 21
10481.99471041312
 31
0.0
  0
ARC
  5
3279
330
1F
100
AcDbEntity
  8
1
  6
Continuous
 62
     7
370
    13
100
AcDbCircle
 10
6597.425285483652
 20
13078.57279041316
 30
0.0
 40
180.57864
100
AcDbArc
 50
270.0
 51
0.0
  0
ARC
  5
327A
330
1F
100
AcDbEntity
  8
1
  6
Continuous
 62
     7
370
    13
100
AcDbCircle
 10
6597.425285483652
 20
13078.57279041316
 30
0.0
 40
351.37048
100
AcDbArc
 50
270.0
 51
0.0
  0
LINE
  5
327B
330
1F
100
AcDbEntity
  8
1
  6
Continuous
 62
     7
370
    13
100
AcDbLine
 10
6951.017045483634
 20
13322.13783041311
 30
0.0
 11
6951.017045483634
 21
12776.58207041312
 31
0.0
  0
LINE
  5
327C
330
1F
100
AcDbEntity
  8
1
  6
Continuous
 62
     7
370
    13
100
AcDbLine
 10
8344.072405483633
 20
12898.57487041313
 30
0.0
 11
9193.83304548409
 21
12898.57487041313
 31
0.0
  0
LINE
  5
327D
330
1F
100
AcDbEntity
  8
1
  6
Continuous
 62
     7
370
    13
100
AcDbLine
 10
8341.649125483993
 20
12725.96199041319
 30
0.0
 11
9203.353045483993
 21
12725.96199041319
 31
0.0
  0
LINE
  5
327E
330
1F
100
AcDbEntity
  8
1
  6
Continuous
 62
     7
370
    13
100
AcDbLine
 10
8170.267525483678
 20
12371.83983041322
 30
0.0
 11
9203.353045483993
 21
12371.83983041322
 31
0.0
  0
LINE
  5
327F
330
1F
100
AcDbEntity
  8
1
  6
Continuous
 62
     7
370
    13
100
AcDbLine
 10
9203.353045483993
 20
12201.72783041314
 30
0.0
 11
8168.726805483631
 21
12201.72783041314
 31
0.0
  0
LINE
  5
3280
330
1F
100
AcDbEntity
  8
1
  6
Continuous
 62
     7
370
    13
100
AcDbLine
 10
7997.615205483919
 20
11860.65407041314
 30
0.0
 11
9203.353045483993
 21
11860.65407041314
 31
0.0
  0
LINE
  5
3281
330
1F
100
AcDbEntity
  8
1
  6
Continuous
 62
     7
370
    13
100
AcDbLine
 10
9203.353045483993
 20
11689.54919041323
 30
0.0
 11
7997.615205483919
 21
11689.54919041323
 31
0.0
  0
LINE
  5
3282
330
1F
100
AcDbEntity
  8
1
  6
Continuous
 62
     7
370
    13
100
AcDbLine
 10
7825.582325483731
 20
11330.83999041322
 30
0.0
 11
9203.353045483993
 21
11330.83999041322
 31
0.0
  0
LINE
  5
3283
330
1F
100
AcDbEntity
  8
1
  6
Continuous
 62
     7
370
    13
100
AcDbLine
 10
9203.353045483993
 20
11158.37319041325
 30
0.0
 11
7824.969045483915
 21
11158.37319041325
 31
0.0
  0
LINE
  5
3284
330
1F
100
AcDbEntity
  8
1
  6
Continuous
 62
     7
370
    13
100
AcDbLine
 10
7651.143525483959
 20
10825.81335041322
 30
0.0
 11
9203.353045483993
 21
10825.81335041322
 31
0.0
  0
LINE
  5
3285
330
1F
100
AcDbEntity
  8
1
  6
Continuous
 62
     7
370
    13
100
AcDbLine
 10
9203.353045483993
 20
10648.14119041314
 30
0.0
 11
7654.192005483958
 21
10648.14119041314
 31
0.0
  0
LINE
  5
3286
330
1F
100
AcDbEntity
  8
1
  6
Continuous
 62
     7
370
    13
100
AcDbLine
 10
7476.40712548414
 20
10304.46039041314
 30
0.0
 11
9203.353045483993
 21
10304.46039041314
 31
0.0
  0
LINE
  5
3287
330
1F
100
AcDbEntity
  8
1
  6
Continuous
 62
     7
370
    13
100
AcDbLine
 10
9203.353045483993
 20
10130.30119041315
 30
0.0
 11
7476.40712548414
 21
10130.30119041315
 31
0.0
  0
ARC
  5
3288
330
1F
100
AcDbEntity
  8
1
  6
Continuous
 62
     7
370
    13
100
AcDbCircle
 10
7825.582325483731
 20
11511.41863041324
 30
0.0
 40
351.37048
100
AcDbArc
 50
180.0
 51
270.0
  0
ARC
  5
3289
330
1F
100
AcDbEntity
  8
1
  6
Continuous
 62
     7
370
    13
100
AcDbCircle
 10
7476.40712548414
 20
10485.03895041314
 30
0.0
 40
351.37048
100
AcDbArc
 50
180.0
 51
270.0
  0
ARC
  5
328A
330
1F
100
AcDbEntity
  8
1
  6
Continuous
 62
     7
370
    13
100
AcDbCircle
 10
7654.192005483958
 20
11006.74287041314
 30
0.0
 40
351.37048
100
AcDbArc
 50
180.0
 51
270.0
  0
ARC
  5
328B
330
1F
100
AcDbEntity
  8
1
  6
Continuous
 62
     7
370
    13
100
AcDbCircle
 10
7476.40712548414
 20
10485.03895041314
 30
0.0
 40
180.57864
100
AcDbArc
 50
180.0
 51
270.0
  0
ARC
  5
328C
330
1F
100
AcDbEntity
  8
1
  6
Continuous
 62
     7
370
    13
100
AcDbCircle
 10
7651.143525483959
 20
11006.39199041324
 30
0.0
 40
180.57864
100
AcDbArc
 50
180.0
 51
270.0
  0
ARC
  5
328D
330
1F
100
AcDbEntity
  8
1
  6
Continuous
 62
     7
370
    13
100
AcDbCircle
 10
7997.615205483919
 20
12041.23271041316
 30
0.0
 40
351.37048
100
AcDbArc
 50
180.0
 51
270.0
  0
ARC
  5
328E
330
1F
100
AcDbEntity
  8
1
  6
Continuous
 62
     7
370
    13
100
AcDbCircle
 10
7825.582325483731
 20
11511.41863041324
 30
0.0
 40
180.57864
100
AcDbArc
 50
180.0
 51
270.0
  0
ARC
  5
328F
330
1F
100
AcDbEntity
  8
1
  6
Continuous
 62
     7
370
    13
100
AcDbCircle
 10
6601.184725483938
 20
12776.6343104132
 30
0.0
 40
351.37048
100
AcDbArc
 50
270.0
 51
0.0
  0
ARC
  5
3290
330
1F
100
AcDbEntity
  8
1
  6
Continuous
 62
     7
370
    13
100
AcDbCircle
 10
6593.163365483808
 20
12776.62063041323
 30
0.0
 40
180.57864
100
AcDbArc
 50
270.0
 51
0.0
  0
ARC
  5
3291
330
1F
100
AcDbEntity
  8
1
  6
Continuous
 62
     7
370
    13
100
AcDbCircle
 10
7997.615205483919
 20
12041.23271041316
 30
0.0
 40
180.57864
100
AcDbArc
 50
180.0
 51
270.0
  0
ARC
  5
3292
330
1F
100
AcDbEntity
  8
1
  6
Continuous
 62
     7
370
    13
100
AcDbCircle
 10
8170.267525483678
 20
12552.41847041324
 30
0.0
 40
180.57864
100
AcDbArc
 50
180.0
 51
270.0
  0
ARC
  5
3293
330
1F
100
AcDbEntity
  8
1
  6
Continuous
 62
     7
370
    13
100
AcDbCircle
 10
8168.726805483631
 20
12553.09831041318
 30
0.0
 40
351.37048
100
AcDbArc
 50
180.0
 51
270.0
  0
LINE
  5
3294
330
1F
100
AcDbEntity
  8
1
  6
Continuous
 62
     7
370
    13
100
AcDbLine
 10
9203.353045483993
 20
10304.46039041314
 30
0.0
 11
9203.353045483993
 21
10130.30119041315
 31
0.0
  0
LINE
  5
3295
330
1F
100
AcDbEntity
  8
1
  6
Continuous
 62
     7
370
    13
100
AcDbLine
 10
9646.952165484137
 20
10264.51719041316
 30
0.0
 11
9646.952165484137
 21
10178.84519041311
 31
0.0
  0
LINE
  5
3296
330
1F
100
AcDbEntity
  8
1
  6
Continuous
 62
     7
370
    13
100
AcDbLine
 10
9646.952165484137
 20
10178.84519041311
 30
0.0
 11
9208.116725483735
 21
10178.84519041311
 31
0.0
  0
LINE
  5
3297
330
1F
100
AcDbEntity
  8
1
  6
Continuous
 62
     7
370
    13
100
AcDbLine
 10
9210.01752548403
 20
10781.41319041314
 30
0.0
 11
9648.85296548385
 21
10781.41319041314
 31
0.0
  0
LINE
  5
3298
330
1F
100
AcDbEntity
  8
1
  6
Continuous
 62
     7
370
    13
100
AcDbLine
 10
9648.85296548385
 20
10695.74119041324
 30
0.0
 11
9210.01752548403
 21
10695.74119041324
 31
0.0
  0
LINE
  5
3299
330
1F
100
AcDbEntity
  8
1
  6
Continuous
 62
     7
370
    13
100
AcDbLine
 10
9208.116725483735
 20
10264.51719041316
 30
0.0
 11
9646.952165484137
 21
10264.51719041316
 31
0.0
  0
LINE
  5
329A
330
1F
100
AcDbEntity
  8
1
  6
Continuous
 62
     7
370
    13
100
AcDbLine
 10
9203.353045483993
 20
10825.81335041322
 30
0.0
 11
9203.353045483993
 21
10648.14119041314
 31
0.0
  0
LINE
  5
329B
330
1F
100
AcDbEntity
  8
1
  6
Continuous
 62
     7
370
    13
100
AcDbLine
 10
9648.85296548385
 20
10781.41319041314
 30
0.0
 11
9648.85296548385
 21
10695.74119041324
 31
0.0
  0
LINE
  5
329C
330
1F
100
AcDbEntity
  8
1
  6
Continuous
 62
     7
370
    13
100
AcDbLine
 10
9206.20512548386
 20
11289.74119041318
 30
0.0
 11
9645.040565483681
 21
11289.74119041318
 31
0.0
  0
LINE
  5
329D
330
1F
100
AcDbEntity
  8
1
  6
Continuous
 62
     7
370
    13
100
AcDbLine
 10
9645.040565483681
 20
11204.06919041313
 30
0.0
 11
9206.20512548386
 21
11204.06919041313
 31
0.0
  0
LINE
  5
329E
330
1F
100
AcDbEntity
  8
1
  6
Continuous
 62
     7
370
    13
100
AcDbLine
 10
9203.353045483993
 20
11330.83999041322
 30
0.0
 11
9203.353045483993
 21
11158.37319041325
 31
0.0
  0
LINE
  5
329F
330
1F
100
AcDbEntity
  8
1
  6
Continuous
 62
     7
370
    13
100
AcDbLine
 10
9645.040565483681
 20
11289.74119041318
 30
0.0
 11
9645.040565483681
 21
11204.06919041313
 31
0.0
  0
LINE
  5
32A0
330
1F
100
AcDbEntity
  8
1
  6
Continuous
 62
     7
370
    13
100
AcDbLine
 10
9206.213205483683
 20
11822.82119041323
 30
0.0
 11
9645.048645484088
 21
11822.82119041323
 31
0.0
  0
LINE
  5
32A1
330
1F
100
AcDbEntity
  8
1
  6
Continuous
 62
     7
370
    13
100
AcDbLine
 10
9645.048645484088
 20
11737.14919041318
 30
0.0
 11
9206.213205483683
 21
11737.14919041318
 31
0.0
  0
LINE
  5
32A2
330
1F
100
AcDbEntity
  8
1
  6
Continuous
 62
     7
370
    13
100
AcDbLine
 10
9203.353045483993
 20
11860.65407041314
 30
0.0
 11
9203.353045483993
 21
11689.54919041323
 31
0.0
  0
LINE
  5
32A3
330
1F
100
AcDbEntity
  8
1
  6
Continuous
 62
     7
370
    13
100
AcDbLine
 10
9645.048645484088
 20
11822.82119041323
 30
0.0
 11
9645.048645484088
 21
11737.14919041318
 31
0.0
  0
LINE
  5
32A4
330
1F
100
AcDbEntity
  8
1
  6
Continuous
 62
     7
370
    13
100
AcDbLine
 10
9205.260485483625
 20
12857.5571904132
 30
0.0
 11
9652.660485484114
 21
12857.5571904132
 31
0.0
  0
LINE
  5
32A5
330
1F
100
AcDbEntity
  8
1
  6
Continuous
 62
     7
370
    13
100
AcDbLine
 10
9652.660485484114
 20
12771.88519041315
 30
0.0
 11
9205.260485483625
 21
12771.88519041315
 31
0.0
  0
LINE
  5
32A6
330
1F
100
AcDbEntity
  8
1
  6
Continuous
 62
     7
370
    13
100
AcDbLine
 10
9206.212405483995
 20
12333.04519041324
 30
0.0
 11
9645.047845483816
 21
12333.04519041324
 31
0.0
  0
LINE
  5
32A7
330
1F
100
AcDbEntity
  8
1
  6
Continuous
 62
     7
370
    13
100
AcDbLine
 10
9645.047845483816
 20
12247.37319041319
 30
0.0
 11
9206.212405483995
 21
12247.37319041319
 31
0.0
  0
LINE
  5
32A8
330
1F
100
AcDbEntity
  8
1
  6
Continuous
 62
     7
370
    13
100
AcDbLine
 10
9203.353045483993
 20
12371.83983041322
 30
0.0
 11
9203.353045483993
 21
12201.72783041314
 31
0.0
  0
LINE
  5
32A9
330
1F
100
AcDbEntity
  8
1
  6
Continuous
 62
     7
370
    13
100
AcDbLine
 10
9645.047845483816
 20
12333.04519041324
 30
0.0
 11
9645.047845483816
 21
12247.37319041319
 31
0.0
  0
LINE
  5
32AA
330
1F
100
AcDbEntity
  8
1
  6
Continuous
 62
     7
370
    13
100
AcDbLine
 10
9203.353045483993
 20
12898.57487041313
 30
0.0
 11
9203.353045483993
 21
12725.96199041319
 31
0.0
  0
LINE
  5
32AB
330
1F
100
AcDbEntity
  8
1
  6
Continuous
 62
     7
370
    13
100
AcDbLine
 10
9652.660485484114
 20
12857.5571904132
 30
0.0
 11
9652.660485484114
 21
12771.88519041315
 31
0.0
  0
LINE
  5
32AC
330
1F
100
AcDbEntity
  8
1
  6
Continuous
 62
     7
370
    13
100
AcDbLine
 10
9870.761045483698
 20
15135.13407041318
 30
0.0
 11
8163.753045483783
 21
15135.13407041318
 31
0.0
  0
LINE
  5
32AD
330
1F
100
AcDbEntity
  8
1
  6
Continuous
 62
     7
370
    13
100
AcDbLine
 10
7000.017925484164
 20
16538.69959041315
 30
0.0
 11
9369.217925484001
 21
14692.81407041314
 31
0.0
  0
LINE
  5
32AE
330
1F
100
AcDbEntity
  8
1
  6
Continuous
 62
     7
370
    13
100
AcDbLine
 10
8163.753045483783
 20
15775.13959041316
 30
0.0
 11
8163.753045483783
 21
13584.43231041324
 31
0.0
  0
LINE
  5
32AF
330
1F
100
AcDbEntity
  8
1
  6
Continuous
 62
     7
370
    13
100
AcDbLine
 10
7990.505045483762
 20
15775.18071041325
 30
0.0
 11
7990.505045483762
 21
13749.97791041314
 31
0.0
  0
LINE
  5
32B0
330
1F
100
AcDbEntity
  8
1
  6
Continuous
 62
     7
370
    13
100
AcDbLine
 10
7817.257045483741
 20
15775.13911041314
 30
0.0
 11
7817.257045483741
 21
13863.91383041321
 31
0.0
  0
LINE
  5
32B1
330
1F
100
AcDbEntity
  8
1
  6
Continuous
 62
     7
370
    13
100
AcDbLine
 10
7644.009045483719
 20
15775.13943041325
 30
0.0
 11
7644.009045483719
 21
13859.92127041317
 31
0.0
  0
LINE
  5
32B2
330
1F
100
AcDbEntity
  8
1
  6
Continuous
 62
     7
370
    13
100
AcDbLine
 10
7470.761045483698
 20
15775.13407041318
 30
0.0
 11
7470.761045483698
 21
13721.42063041319
 31
0.0
  0
LINE
  5
32B3
330
1F
100
AcDbEntity
  8
1
  6
Continuous
 62
     7
370
    13
100
AcDbLine
 10
7297.513045483675
 20
15775.2716704132
 30
0.0
 11
7297.513045483675
 21
13544.44031041319
 31
0.0
  0
LINE
  5
32B4
330
1F
100
AcDbEntity
  8
1
  6
Continuous
 62
     7
370
    13
100
AcDbLine
 10
7124.265045483655
 20
15775.1827104132
 30
0.0
 11
7124.265045483655
 21
13465.13871041315
 31
0.0
  0
LINE
  5
32B5
330
1F
100
AcDbEntity
  8
1
  6
Continuous
 62
     7
370
    13
100
AcDbLine
 10
6951.017045483634
 20
15775.13471041325
 30
0.0
 11
6951.017045483634
 21
13551.13167041315
 31
0.0
  0
LINE
  5
32B6
330
1F
100
AcDbEntity
  8
1
  6
Continuous
 62
     7
370
    13
100
AcDbLine
 10
6777.769045483612
 20
15775.1676704132
 30
0.0
 11
6777.769045483612
 21
13742.09175041323
 31
0.0
  0
LINE
  5
32B7
330
1F
100
AcDbEntity
  8
1
  6
Continuous
 62
     7
370
    13
100
AcDbLine
 10
7667.027365483985
 20
13664.41839041319
 30
0.0
 11
7678.183365484176
 21
13666.57391041313
 31
0.0
  0
LINE
  5
32B8
330
1F
100
AcDbEntity
  8
1
  6
Continuous
 62
     7
370
    13
100
AcDbLine
 10
7670.073445483751
 20
13870.49887041313
 30
0.0
 11
7681.144485483703
 21
13873.76735041325
 31
0.0
  0
LINE
  5
32B9
330
1F
100
AcDbEntity
  8
1
  6
Continuous
 62
     7
370
    13
100
AcDbLine
 10
7000.75752548367
 20
13287.41895041311
 30
0.0
 11
7037.613765484014
 21
13269.13583041313
 31
0.0
  0
LINE
  5
32BA
330
1F
100
AcDbEntity
  8
1
  6
Continuous
 62
     7
370
    13
100
AcDbLine
 10
6982.592245483712
 20
13525.0769504132
 30
0.0
 11
7022.351525483711
 21
13498.59415041311
 31
0.0
  0
LINE
  5
32BB
330
1F
100
AcDbEntity
  8
1
  6
Continuous
 62
     7
370
    13
100
AcDbLine
 10
6795.225765484095
 20
13481.89335041315
 30
0.0
 11
6835.362085483677
 21
13434.46367041323
 31
0.0
  0
LINE
  5
32BC
330
1F
100
AcDbEntity
  8
1
  6
Continuous
 62
     7
370
    13
100
AcDbLine
 10
6777.769045483612
 20
13503.77071041322
 30
0.0
 11
6777.769045483612
 21
13081.13927041325
 31
0.0
  0
LINE
  5
32BD
330
1F
100
AcDbEntity
  8
1
  6
Continuous
 62
     7
370
    13
100
AcDbLine
 10
6960.998165483644
 20
13313.9017504132
 30
0.0
 11
7000.75752548367
 21
13287.41895041311
 31
0.0
  0
LINE
  5
32BE
330
1F
100
AcDbEntity
  8
1
  6
Continuous
 62
     7
370
    13
100
AcDbLine
 10
6919.414005484025
 20
13348.21551041313
 30
0.0
 11
6960.998165483644
 21
13313.9017504132
 31
0.0
  0
LINE
  5
32BF
330
1F
100
AcDbEntity
  8
1
  6
Continuous
 62
     7
370
    13
100
AcDbLine
 10
6877.145525483822
 20
13389.07639041324
 30
0.0
 11
6919.414005484025
 21
13348.21551041313
 31
0.0
  0
LINE
  5
32C0
330
1F
100
AcDbEntity
  8
1
  6
Continuous
 62
     7
370
    13
100
AcDbLine
 10
6835.362085483677
 20
13434.46367041323
 30
0.0
 11
6877.145525483822
 21
13389.07639041324
 31
0.0
  0
LINE
  5
32C1
330
1F
100
AcDbEntity
  8
1
  6
Continuous
 62
     7
370
    13
100
AcDbLine
 10
6672.188885483949
 20
13642.37175041314
 30
0.0
 11
6695.471605484083
 21
13610.90655041319
 31
0.0
  0
LINE
  5
32C2
330
1F
100
AcDbEntity
  8
1
  6
Continuous
 62
     7
370
    13
100
AcDbLine
 10
6676.680885483685
 20
13876.79439041312
 30
0.0
 11
6693.782965484017
 21
13853.54695041314
 31
0.0
  0
LINE
  5
32C3
330
1F
100
AcDbEntity
  8
1
  6
Continuous
 62
     7
370
    13
100
AcDbLine
 10
6655.086885483645
 20
13665.61911041324
 30
0.0
 11
6672.188885483949
 21
13642.37175041314
 31
0.0
  0
LINE
  5
32C4
330
1F
100
AcDbEntity
  8
1
  6
Continuous
 62
     7
370
    13
100
AcDbLine
 10
6644.634885483712
 20
13679.85439041323
 30
0.0
 11
6655.086885483645
 21
13665.61911041324
 31
0.0
  0
LINE
  5
32C5
330
1F
100
AcDbEntity
  8
1
  6
Continuous
 62
     7
370
    13
100
AcDbLine
 10
6641.118885483767
 20
13684.64471041311
 30
0.0
 11
6644.634885483712
 21
13679.85439041323
 31
0.0
  0
LINE
  5
32C6
330
1F
100
AcDbEntity
  8
1
  6
Continuous
 62
     7
370
    13
100
AcDbLine
 10
6666.228965483781
 20
13891.02959041323
 30
0.0
 11
6676.680885483685
 21
13876.79439041312
 31
0.0
  0
LINE
  5
32C7
330
1F
100
AcDbEntity
  8
1
  6
Continuous
 62
     7
370
    13
100
AcDbLine
 10
6662.712965483835
 20
13895.81991041311
 30
0.0
 11
6666.228965483781
 21
13891.02959041323
 31
0.0
  0
LINE
  5
32C8
330
1F
100
AcDbEntity
  8
1
  6
Continuous
 62
     7
370
    13
100
AcDbLine
 10
6757.855685483839
 20
13528.72687041322
 30
0.0
 11
6795.225765484095
 21
13481.89335041315
 31
0.0
  0
LINE
  5
32C9
330
1F
100
AcDbEntity
  8
1
  6
Continuous
 62
     7
370
    13
100
AcDbLine
 10
6724.293285483902
 20
13572.45431041315
 30
0.0
 11
6757.855685483839
 21
13528.72687041322
 31
0.0
  0
LINE
  5
32CA
330
1F
100
AcDbEntity
  8
1
  6
Continuous
 62
     7
370
    13
100
AcDbLine
 10
6695.471605484083
 20
13610.90655041319
 30
0.0
 11
6724.293285483902
 21
13572.45431041315
 31
0.0
  0
LINE
  5
32CB
330
1F
100
AcDbEntity
  8
1
  6
Continuous
 62
     7
370
    13
100
AcDbLine
 10
6941.008085484092
 20
13559.39071041313
 30
0.0
 11
6982.592245483712
 21
13525.0769504132
 31
0.0
  0
LINE
  5
32CC
330
1F
100
AcDbEntity
  8
1
  6
Continuous
 62
     7
370
    13
100
AcDbLine
 10
6898.739605483889
 20
13600.25159041324
 30
0.0
 11
6941.008085484092
 21
13559.39071041313
 31
0.0
  0
LINE
  5
32CD
330
1F
100
AcDbEntity
  8
1
  6
Continuous
 62
     7
370
    13
100
AcDbLine
 10
6856.956165483746
 20
13645.63887041323
 30
0.0
 11
6898.739605483889
 21
13600.25159041324
 31
0.0
  0
LINE
  5
32CE
330
1F
100
AcDbEntity
  8
1
  6
Continuous
 62
     7
370
    13
100
AcDbLine
 10
6816.819845484163
 20
13693.06855041315
 30
0.0
 11
6856.956165483746
 21
13645.63887041323
 31
0.0
  0
LINE
  5
32CF
330
1F
100
AcDbEntity
  8
1
  6
Continuous
 62
     7
370
    13
100
AcDbLine
 10
6779.449685483879
 20
13739.90207041322
 30
0.0
 11
6816.819845484163
 21
13693.06855041315
 31
0.0
  0
LINE
  5
32D0
330
1F
100
AcDbEntity
  8
1
  6
Continuous
 62
     7
370
    13
100
AcDbLine
 10
6745.887285483942
 20
13783.62951041315
 30
0.0
 11
6779.449685483879
 21
13739.90207041322
 31
0.0
  0
LINE
  5
32D1
330
1F
100
AcDbEntity
  8
1
  6
Continuous
 62
     7
370
    13
100
AcDbLine
 10
6717.065685484151
 20
13822.08175041319
 30
0.0
 11
6745.887285483942
 21
13783.62951041315
 31
0.0
  0
LINE
  5
32D2
330
1F
100
AcDbEntity
  8
1
  6
Continuous
 62
     7
370
    13
100
AcDbLine
 10
6693.782965484017
 20
13853.54695041314
 30
0.0
 11
6717.065685484151
 21
13822.08175041319
 31
0.0
  0
LINE
  5
32D3
330
1F
100
AcDbEntity
  8
1
  6
Continuous
 62
     7
370
    13
100
AcDbLine
 10
7380.75200548413
 20
13437.67919041317
 30
0.0
 11
7422.466565483657
 21
13482.41015041319
 31
0.0
  0
LINE
  5
32D4
330
1F
100
AcDbEntity
  8
1
  6
Continuous
 62
     7
370
    13
100
AcDbLine
 10
7339.881685484026
 20
13394.51103041312
 30
0.0
 11
7380.75200548413
 21
13437.67919041317
 31
0.0
  0
LINE
  5
32D5
330
1F
100
AcDbEntity
  8
1
  6
Continuous
 62
     7
370
    13
100
AcDbLine
 10
7300.870325484023
 20
13355.66559041311
 30
0.0
 11
7339.881685484026
 21
13394.51103041312
 31
0.0
  0
LINE
  5
32D6
330
1F
100
AcDbEntity
  8
1
  6
Continuous
 62
     7
370
    13
100
AcDbLine
 10
7264.686965483881
 20
13323.18127041318
 30
0.0
 11
7300.870325484023
 21
13355.66559041311
 31
0.0
  0
LINE
  5
32D7
330
1F
100
AcDbEntity
  8
1
  6
Continuous
 62
     7
370
    13
100
AcDbLine
 10
7232.245285483834
 20
13298.08271041314
 30
0.0
 11
7264.686965483881
 21
13323.18127041318
 31
0.0
  0
LINE
  5
32D8
330
1F
100
AcDbEntity
  8
1
  6
Continuous
 62
     7
370
    13
100
AcDbLine
 10
7204.387365483737
 20
13280.31735041323
 30
0.0
 11
7232.245285483834
 21
13298.08271041314
 31
0.0
  0
LINE
  5
32D9
330
1F
100
AcDbEntity
  8
1
  6
Continuous
 62
     7
370
    13
100
AcDbLine
 10
7181.860645484005
 20
13268.93383041314
 30
0.0
 11
7204.387365483737
 21
13280.31735041323
 31
0.0
  0
LINE
  5
32DA
330
1F
100
AcDbEntity
  8
1
  6
Continuous
 62
     7
370
    13
100
AcDbLine
 10
7165.290485483885
 20
13262.45159041325
 30
0.0
 11
7181.860645484005
 21
13268.93383041314
 31
0.0
  0
LINE
  5
32DB
330
1F
100
AcDbEntity
  8
1
  6
Continuous
 62
     7
370
    13
100
AcDbLine
 10
7155.150565483666
 20
13259.33191041316
 30
0.0
 11
7165.290485483885
 21
13262.45159041325
 31
0.0
  0
LINE
  5
32DC
330
1F
100
AcDbEntity
  8
1
  6
Continuous
 62
     7
370
    13
100
AcDbLine
 10
7151.736965484044
 20
13258.43215041313
 30
0.0
 11
7155.150565483666
 21
13259.33191041316
 31
0.0
  0
LINE
  5
32DD
330
1F
100
AcDbEntity
  8
1
  6
Continuous
 62
     7
370
    13
100
AcDbLine
 10
7148.322005483962
 20
13257.60927041322
 30
0.0
 11
7151.736965484044
 21
13258.43215041313
 31
0.0
  0
LINE
  5
32DE
330
1F
100
AcDbEntity
  8
1
  6
Continuous
 62
     7
370
    13
100
AcDbLine
 10
7138.162165483983
 20
13255.61287041316
 30
0.0
 11
7148.322005483962
 21
13257.60927041322
 31
0.0
  0
LINE
  5
32DF
330
1F
100
AcDbEntity
  8
1
  6
Continuous
 62
     7
370
    13
100
AcDbLine
 10
7121.511765484058
 20
13253.76943041322
 30
0.0
 11
7138.162165483983
 21
13255.61287041316
 31
0.0
  0
LINE
  5
32E0
330
1F
100
AcDbEntity
  8
1
  6
Continuous
 62
     7
370
    13
100
AcDbLine
 10
7098.791125483869
 20
13254.00343041313
 30
0.0
 11
7121.511765484058
 21
13253.76943041322
 31
0.0
  0
LINE
  5
32E1
330
1F
100
AcDbEntity
  8
1
  6
Continuous
 62
     7
370
    13
100
AcDbLine
 10
7070.581205483934
 20
13258.4684704132
 30
0.0
 11
7098.791125483869
 21
13254.00343041313
 31
0.0
  0
LINE
  5
32E2
330
1F
100
AcDbEntity
  8
1
  6
Continuous
 62
     7
370
    13
100
AcDbLine
 10
7037.613765484014
 20
13269.13583041313
 30
0.0
 11
7070.581205483934
 21
13258.4684704132
 31
0.0
  0
LINE
  5
32E3
330
1F
100
AcDbEntity
  8
1
  6
Continuous
 62
     7
370
    13
100
AcDbLine
 10
7322.464325484062
 20
13566.84079041311
 30
0.0
 11
7361.475765484094
 21
13605.68623041311
 31
0.0
  0
LINE
  5
32E4
330
1F
100
AcDbEntity
  8
1
  6
Continuous
 62
     7
370
    13
100
AcDbLine
 10
7286.281045483949
 20
13534.3565504132
 30
0.0
 11
7322.464325484062
 21
13566.84079041311
 31
0.0
  0
LINE
  5
32E5
330
1F
100
AcDbEntity
  8
1
  6
Continuous
 62
     7
370
    13
100
AcDbLine
 10
7253.839365483902
 20
13509.25791041314
 30
0.0
 11
7286.281045483949
 21
13534.3565504132
 31
0.0
  0
LINE
  5
32E6
330
1F
100
AcDbEntity
  8
1
  6
Continuous
 62
     7
370
    13
100
AcDbLine
 10
7225.981365483779
 20
13491.49263041311
 30
0.0
 11
7253.839365483902
 21
13509.25791041314
 31
0.0
  0
LINE
  5
32E7
330
1F
100
AcDbEntity
  8
1
  6
Continuous
 62
     7
370
    13
100
AcDbLine
 10
7203.454645484045
 20
13480.10903041314
 30
0.0
 11
7225.981365483779
 21
13491.49263041311
 31
0.0
  0
LINE
  5
32E8
330
1F
100
AcDbEntity
  8
1
  6
Continuous
 62
     7
370
    13
100
AcDbLine
 10
7186.884565483953
 20
13473.62679041325
 30
0.0
 11
7203.454645484045
 21
13480.10903041314
 31
0.0
  0
LINE
  5
32E9
330
1F
100
AcDbEntity
  8
1
  6
Continuous
 62
     7
370
    13
100
AcDbLine
 10
7176.744645483734
 20
13470.50711041316
 30
0.0
 11
7186.884565483953
 21
13473.62679041325
 31
0.0
  0
LINE
  5
32EA
330
1F
100
AcDbEntity
  8
1
  6
Continuous
 62
     7
370
    13
100
AcDbLine
 10
7173.331045484111
 20
13469.60735041313
 30
0.0
 11
7176.744645483734
 21
13470.50711041316
 31
0.0
  0
LINE
  5
32EB
330
1F
100
AcDbEntity
  8
1
  6
Continuous
 62
     7
370
    13
100
AcDbLine
 10
7169.91608548403
 20
13468.78447041322
 30
0.0
 11
7173.331045484111
 21
13469.60735041313
 31
0.0
  0
LINE
  5
32EC
330
1F
100
AcDbEntity
  8
1
  6
Continuous
 62
     7
370
    13
100
AcDbLine
 10
7159.756245484051
 20
13466.78815041319
 30
0.0
 11
7169.91608548403
 21
13468.78447041322
 31
0.0
  0
LINE
  5
32ED
330
1F
100
AcDbEntity
  8
1
  6
Continuous
 62
     7
370
    13
100
AcDbLine
 10
7143.105765484098
 20
13464.94463041322
 30
0.0
 11
7159.756245484051
 21
13466.78815041319
 31
0.0
  0
LINE
  5
32EE
330
1F
100
AcDbEntity
  8
1
  6
Continuous
 62
     7
370
    13
100
AcDbLine
 10
7120.385125483911
 20
13465.17863041313
 30
0.0
 11
7143.105765484098
 21
13464.94463041322
 31
0.0
  0
LINE
  5
32EF
330
1F
100
AcDbEntity
  8
1
  6
Continuous
 62
     7
370
    13
100
AcDbLine
 10
7092.175205483974
 20
13469.6436704132
 30
0.0
 11
7120.385125483911
 21
13465.17863041313
 31
0.0
  0
LINE
  5
32F0
330
1F
100
AcDbEntity
  8
1
  6
Continuous
 62
     7
370
    13
100
AcDbLine
 10
7059.207845484081
 20
13480.31103041313
 30
0.0
 11
7092.175205483974
 21
13469.6436704132
 31
0.0
  0
LINE
  5
32F1
330
1F
100
AcDbEntity
  8
1
  6
Continuous
 62
     7
370
    13
100
AcDbLine
 10
7022.351525483711
 20
13498.59415041311
 30
0.0
 11
7059.207845484081
 21
13480.31103041313
 31
0.0
  0
LINE
  5
32F2
330
1F
100
AcDbEntity
  8
1
  6
Continuous
 62
     7
370
    13
100
AcDbLine
 10
7663.286005483998
 20
13663.54335041323
 30
0.0
 11
7667.027365483985
 21
13664.41839041319
 31
0.0
  0
LINE
  5
32F3
330
1F
100
AcDbEntity
  8
1
  6
Continuous
 62
     7
370
    13
100
AcDbLine
 10
7659.550405483635
 20
13662.59207041322
 30
0.0
 11
7663.286005483998
 21
13663.54335041323
 31
0.0
  0
LINE
  5
32F4
330
1F
100
AcDbEntity
  8
1
  6
Continuous
 62
     7
370
    13
100
AcDbLine
 10
7648.47944548371
 20
13659.32367041313
 30
0.0
 11
7659.550405483635
 21
13662.59207041322
 31
0.0
  0
LINE
  5
32F5
330
1F
100
AcDbEntity
  8
1
  6
Continuous
 62
     7
370
    13
100
AcDbLine
 10
7630.470005484124
 20
13652.61143041323
 30
0.0
 11
7648.47944548371
 21
13659.32367041313
 31
0.0
  0
LINE
  5
32F6
330
1F
100
AcDbEntity
  8
1
  6
Continuous
 62
     7
370
    13
100
AcDbLine
 10
7606.15176548384
 20
13640.94167041315
 30
0.0
 11
7630.470005484124
 21
13652.61143041323
 31
0.0
  0
LINE
  5
32F7
330
1F
100
AcDbEntity
  8
1
  6
Continuous
 62
     7
370
    13
100
AcDbLine
 10
7576.344165483781
 20
13622.86487041317
 30
0.0
 11
7606.15176548384
 21
13640.94167041315
 31
0.0
  0
LINE
  5
32F8
330
1F
100
AcDbEntity
  8
1
  6
Continuous
 62
     7
370
    13
100
AcDbLine
 10
7542.006085483764
 20
13597.46319041325
 30
0.0
 11
7576.344165483781
 21
13622.86487041317
 31
0.0
  0
LINE
  5
32F9
330
1F
100
AcDbEntity
  8
1
  6
Continuous
 62
     7
370
    13
100
AcDbLine
 10
7504.185045483929
 20
13564.7171904132
 30
0.0
 11
7542.006085483764
 21
13597.46319041325
 31
0.0
  0
LINE
  5
32FA
330
1F
100
AcDbEntity
  8
1
  6
Continuous
 62
     7
370
    13
100
AcDbLine
 10
7463.972085484012
 20
13525.67975041325
 30
0.0
 11
7504.185045483929
 21
13564.7171904132
 31
0.0
  0
LINE
  5
32FB
330
1F
100
AcDbEntity
  8
1
  6
Continuous
 62
     7
370
    13
100
AcDbLine
 10
7422.466565483657
 20
13482.41015041319
 30
0.0
 11
7463.972085484012
 21
13525.67975041325
 31
0.0
  0
LINE
  5
32FC
330
1F
100
AcDbEntity
  8
1
  6
Continuous
 62
     7
370
    13
100
AcDbLine
 10
7652.064005484165
 20
13863.78671041311
 30
0.0
 11
7670.073445483751
 21
13870.49887041313
 31
0.0
  0
LINE
  5
32FD
330
1F
100
AcDbEntity
  8
1
  6
Continuous
 62
     7
370
    13
100
AcDbLine
 10
7627.745845483907
 20
13852.11687041315
 30
0.0
 11
7652.064005484165
 21
13863.78671041311
 31
0.0
  0
LINE
  5
32FE
330
1F
100
AcDbEntity
  8
1
  6
Continuous
 62
     7
370
    13
100
AcDbLine
 10
7597.938245483849
 20
13834.04007041317
 30
0.0
 11
7627.745845483907
 21
13852.11687041315
 31
0.0
  0
LINE
  5
32FF
330
1F
100
AcDbEntity
  8
1
  6
Continuous
 62
     7
370
    13
100
AcDbLine
 10
7563.600165483832
 20
13808.63839041325
 30
0.0
 11
7597.938245483849
 21
13834.04007041317
 31
0.0
  0
LINE
  5
3300
330
1F
100
AcDbEntity
  8
1
  6
Continuous
 62
     7
370
    13
100
AcDbLine
 10
7525.779125483997
 20
13775.89247041323
 30
0.0
 11
7563.600165483832
 21
13808.63839041325
 31
0.0
  0
LINE
  5
3301
330
1F
100
AcDbEntity
  8
1
  6
Continuous
 62
     7
370
    13
100
AcDbLine
 10
7485.56616548408
 20
13736.85503041313
 30
0.0
 11
7525.779125483997
 21
13775.89247041323
 31
0.0
  0
LINE
  5
3302
330
1F
100
AcDbEntity
  8
1
  6
Continuous
 62
     7
370
    13
100
AcDbLine
 10
7444.060645483725
 20
13693.58535041319
 30
0.0
 11
7485.56616548408
 21
13736.85503041313
 31
0.0
  0
LINE
  5
3303
330
1F
100
AcDbEntity
  8
1
  6
Continuous
 62
     7
370
    13
100
AcDbLine
 10
7402.346085483616
 20
13648.85439041317
 30
0.0
 11
7444.060645483725
 21
13693.58535041319
 31
0.0
  0
LINE
  5
3304
330
1F
100
AcDbEntity
  8
1
  6
Continuous
 62
     7
370
    13
100
AcDbLine
 10
7361.475765484094
 20
13605.68623041311
 30
0.0
 11
7402.346085483616
 21
13648.85439041317
 31
0.0
  0
LINE
  5
3305
330
1F
100
AcDbEntity
  8
1
  6
Continuous
 62
     7
370
    13
100
AcDbLine
 10
8071.013525483605
 20
13448.26575041311
 30
0.0
 11
8115.049125483666
 21
13402.49727041314
 31
0.0
  0
LINE
  5
3306
330
1F
100
AcDbEntity
  8
1
  6
Continuous
 62
     7
370
    13
100
AcDbLine
 10
8248.976245483675
 20
13254.67831041314
 30
0.0
 11
8253.140645483684
 21
13249.99159041311
 31
0.0
  0
LINE
  5
3307
330
1F
100
AcDbEntity
  8
1
  6
Continuous
 62
     7
370
    13
100
AcDbLine
 10
8236.597045483824
 20
13268.6055904132
 30
0.0
 11
8248.976245483675
 21
13254.67831041314
 31
0.0
  0
LINE
  5
3308
330
1F
100
AcDbEntity
  8
1
  6
Continuous
 62
     7
370
    13
100
AcDbLine
 10
8216.344085483752
 20
13291.34951041312
 30
0.0
 11
8236.597045483824
 21
13268.6055904132
 31
0.0
  0
LINE
  5
3309
330
1F
100
AcDbEntity
  8
1
  6
Continuous
 62
     7
370
    13
100
AcDbLine
 10
8188.781845483637
 20
13322.13095041311
 30
0.0
 11
8216.344085483752
 21
13291.34951041312
 31
0.0
  0
LINE
  5
330A
330
1F
100
AcDbEntity
  8
1
  6
Continuous
 62
     7
370
    13
100
AcDbLine
 10
8154.690245483827
 20
13359.74111041315
 30
0.0
 11
8188.781845483637
 21
13322.13095041311
 31
0.0
  0
LINE
  5
330B
330
1F
100
AcDbEntity
  8
1
  6
Continuous
 62
     7
370
    13
100
AcDbLine
 10
8115.049125483666
 20
13402.49727041314
 30
0.0
 11
8154.690245483827
 21
13359.74111041315
 31
0.0
  0
LINE
  5
330C
330
1F
100
AcDbEntity
  8
1
  6
Continuous
 62
     7
370
    13
100
AcDbLine
 10
8163.753045483783
 20
13343.02535041322
 30
0.0
 11
8163.753045483783
 21
13081.13927041325
 31
0.0
  0
LINE
  5
330D
330
1F
100
AcDbEntity
  8
1
  6
Continuous
 62
     7
370
    13
100
AcDbLine
 10
7975.027605483949
 20
13538.83511041319
 30
0.0
 11
8023.877285483933
 21
13494.57695041317
 31
0.0
  0
LINE
  5
330E
330
1F
100
AcDbEntity
  8
1
  6
Continuous
 62
     7
370
    13
100
AcDbLine
 10
7996.621685484017
 20
13750.01031041319
 30
0.0
 11
8045.471365484003
 21
13705.75215041317
 31
0.0
  0
LINE
  5
330F
330
1F
100
AcDbEntity
  8
1
  6
Continuous
 62
     7
370
    13
100
AcDbLine
 10
7925.890965484025
 20
13578.59855041315
 30
0.0
 11
7975.027605483949
 21
13538.83511041319
 31
0.0
  0
LINE
  5
3310
330
1F
100
AcDbEntity
  8
1
  6
Continuous
 62
     7
370
    13
100
AcDbLine
 10
7877.875765483652
 20
13611.88479041316
 30
0.0
 11
7925.890965484025
 21
13578.59855041315
 31
0.0
  0
LINE
  5
3311
330
1F
100
AcDbEntity
  8
1
  6
Continuous
 62
     7
370
    13
100
AcDbLine
 10
7832.31816548406
 20
13637.44111041319
 30
0.0
 11
7877.875765483652
 21
13611.88479041316
 31
0.0
  0
LINE
  5
3312
330
1F
100
AcDbEntity
  8
1
  6
Continuous
 62
     7
370
    13
100
AcDbLine
 10
7790.434085483605
 20
13654.92079041315
 30
0.0
 11
7832.31816548406
 21
13637.44111041319
 31
0.0
  0
LINE
  5
3313
330
1F
100
AcDbEntity
  8
1
  6
Continuous
 62
     7
370
    13
100
AcDbLine
 10
7753.284405484039
 20
13664.91991041315
 30
0.0
 11
7790.434085483605
 21
13654.92079041315
 31
0.0
  0
LINE
  5
3314
330
1F
100
AcDbEntity
  8
1
  6
Continuous
 62
     7
370
    13
100
AcDbLine
 10
7721.754085484019
 20
13668.85439041317
 30
0.0
 11
7753.284405484039
 21
13664.91991041315
 31
0.0
  0
LINE
  5
3315
330
1F
100
AcDbEntity
  8
1
  6
Continuous
 62
     7
370
    13
100
AcDbLine
 10
7696.545445483818
 20
13668.69087041311
 30
0.0
 11
7721.754085484019
 21
13668.85439041317
 31
0.0
  0
LINE
  5
3316
330
1F
100
AcDbEntity
  8
1
  6
Continuous
 62
     7
370
    13
100
AcDbLine
 10
7678.183365484176
 20
13666.57391041313
 30
0.0
 11
7696.545445483818
 21
13668.69087041311
 31
0.0
  0
LINE
  5
3317
330
1F
100
AcDbEntity
  8
1
  6
Continuous
 62
     7
370
    13
100
AcDbLine
 10
7947.484965484065
 20
13789.77375041314
 30
0.0
 11
7996.621685484017
 21
13750.01031041319
 31
0.0
  0
LINE
  5
3318
330
1F
100
AcDbEntity
  8
1
  6
Continuous
 62
     7
370
    13
100
AcDbLine
 10
7899.469845483721
 20
13823.05999041316
 30
0.0
 11
7947.484965484065
 21
13789.77375041314
 31
0.0
  0
LINE
  5
3319
330
1F
100
AcDbEntity
  8
1
  6
Continuous
 62
     7
370
    13
100
AcDbLine
 10
7853.912245484128
 20
13848.61631041319
 30
0.0
 11
7899.469845483721
 21
13823.05999041316
 31
0.0
  0
LINE
  5
331A
330
1F
100
AcDbEntity
  8
1
  6
Continuous
 62
     7
370
    13
100
AcDbLine
 10
7812.028085483645
 20
13866.09607041318
 30
0.0
 11
7853.912245484128
 21
13848.61631041319
 31
0.0
  0
LINE
  5
331B
330
1F
100
AcDbEntity
  8
1
  6
Continuous
 62
     7
370
    13
100
AcDbLine
 10
7774.878485484108
 20
13876.09511041314
 30
0.0
 11
7812.028085483645
 21
13866.09607041318
 31
0.0
  0
LINE
  5
331C
330
1F
100
AcDbEntity
  8
1
  6
Continuous
 62
     7
370
    13
100
AcDbLine
 10
7743.348165484087
 20
13880.0296704132
 30
0.0
 11
7774.878485484108
 21
13876.09511041314
 31
0.0
  0
LINE
  5
331D
330
1F
100
AcDbEntity
  8
1
  6
Continuous
 62
     7
370
    13
100
AcDbLine
 10
7718.139525483886
 20
13879.86607041311
 30
0.0
 11
7743.348165484087
 21
13880.0296704132
 31
0.0
  0
LINE
  5
331E
330
1F
100
AcDbEntity
  8
1
  6
Continuous
 62
     7
370
    13
100
AcDbLine
 10
7699.777445483661
 20
13877.74911041313
 30
0.0
 11
7718.139525483886
 21
13879.86607041311
 31
0.0
  0
LINE
  5
331F
330
1F
100
AcDbEntity
  8
1
  6
Continuous
 62
     7
370
    13
100
AcDbLine
 10
7688.621445484052
 20
13875.59359041318
 30
0.0
 11
7699.777445483661
 21
13877.74911041313
 31
0.0
  0
LINE
  5
3320
330
1F
100
AcDbEntity
  8
1
  6
Continuous
 62
     7
370
    13
100
AcDbLine
 10
7684.880085484066
 20
13874.71855041323
 30
0.0
 11
7688.621445484052
 21
13875.59359041318
 31
0.0
  0
LINE
  5
3321
330
1F
100
AcDbEntity
  8
1
  6
Continuous
 62
     7
370
    13
100
AcDbLine
 10
7681.144485483703
 20
13873.76735041325
 30
0.0
 11
7684.880085484066
 21
13874.71855041323
 31
0.0
  0
LINE
  5
3322
330
1F
100
AcDbEntity
  8
1
  6
Continuous
 62
     7
370
    13
100
AcDbLine
 10
8023.877285483933
 20
13494.57695041317
 30
0.0
 11
8071.013525483605
 21
13448.26575041311
 31
0.0
  0
LINE
  5
3323
330
1F
100
AcDbEntity
  8
1
  6
Continuous
 62
     7
370
    13
100
AcDbLine
 10
8270.570325483744
 20
13465.85359041316
 30
0.0
 11
8274.734725483751
 21
13461.16679041311
 31
0.0
  0
LINE
  5
3324
330
1F
100
AcDbEntity
  8
1
  6
Continuous
 62
     7
370
    13
100
AcDbLine
 10
8258.191125483893
 20
13479.78087041322
 30
0.0
 11
8270.570325483744
 21
13465.85359041316
 31
0.0
  0
LINE
  5
3325
330
1F
100
AcDbEntity
  8
1
  6
Continuous
 62
     7
370
    13
100
AcDbLine
 10
8237.938165483821
 20
13502.52479041315
 30
0.0
 11
8258.191125483893
 21
13479.78087041322
 31
0.0
  0
LINE
  5
3326
330
1F
100
AcDbEntity
  8
1
  6
Continuous
 62
     7
370
    13
100
AcDbLine
 10
8210.375925483706
 20
13533.30615041311
 30
0.0
 11
8237.938165483821
 21
13502.52479041315
 31
0.0
  0
LINE
  5
3327
330
1F
100
AcDbEntity
  8
1
  6
Continuous
 62
     7
370
    13
100
AcDbLine
 10
8176.284325483896
 20
13570.91631041315
 30
0.0
 11
8210.375925483706
 21
13533.30615041311
 31
0.0
  0
LINE
  5
3328
330
1F
100
AcDbEntity
  8
1
  6
Continuous
 62
     7
370
    13
100
AcDbLine
 10
8136.643205483734
 20
13613.67247041314
 30
0.0
 11
8176.284325483896
 21
13570.91631041315
 31
0.0
  0
LINE
  5
3329
330
1F
100
AcDbEntity
  8
1
  6
Continuous
 62
     7
370
    13
100
AcDbLine
 10
8092.607525483648
 20
13659.44095041311
 30
0.0
 11
8136.643205483734
 21
13613.67247041314
 31
0.0
  0
LINE
  5
332A
330
1F
100
AcDbEntity
  8
1
  6
Continuous
 62
     7
370
    13
100
AcDbLine
 10
8045.471365484003
 20
13705.75215041317
 30
0.0
 11
8092.607525483648
 21
13659.44095041311
 31
0.0
  0
LINE
  5
332B
330
1F
100
AcDbEntity
  8
1
  6
Continuous
 62
     7
370
    13
100
AcDbLine
 10
7124.265045483655
 20
15135.13407041318
 30
0.0
 11
6951.017045483634
 21
15135.13407041318
 31
0.0
  0
LINE
  5
332C
330
1F
100
AcDbEntity
  8
1
  6
Continuous
 62
     7
370
    13
100
AcDbLine
 10
7000.017925484164
 20
16538.69959041315
 30
0.0
 11
7192.942965483701
 21
16283.39599041311
 31
0.0
  0
LINE
  5
332D
330
1F
100
AcDbEntity
  8
1
  6
Continuous
 62
     7
370
    13
100
AcDbLine
 10
7000.017925484164
 20
16538.69959041315
 30
0.0
 11
7294.747685484065
 21
16414.06271041312
 31
0.0
  0
LINE
  5
332E
330
1F
100
AcDbEntity
  8
1
  6
Continuous
 62
     7
370
    13
100
AcDbLine
 10
6559.318645483756
 20
16538.69959041315
 30
0.0
 11
7261.806725483795
 21
16538.69959041315
 31
0.0
  0
LINE
  5
332F
330
1F
100
AcDbEntity
  8
1
  6
Continuous
 62
     7
370
    13
100
AcDbLine
 10
7706.904485483711
 20
16637.86111041321
 30
0.0
 11
8186.904485483713
 21
16637.86111041321
 31
0.0
  0
CIRCLE
  5
3330
330
1F
100
AcDbEntity
  8
1
  6
Continuous
 62
     7
370
    13
100
AcDbCircle
 10
8750.761045483697
 20
16175.13407041318
 30
0.0
 40
140.0
  0
LINE
  5
3331
330
1F
100
AcDbEntity
  8
1
  6
Continuous
 62
     7
370
    13
100
AcDbLine
 10
8750.761045483697
 20
16391.2220704132
 30
0.0
 11
8750.761045483697
 21
15960.61999041324
 31
0.0
  0
LINE
  5
3332
330
1F
100
AcDbEntity
  8
1
  6
Continuous
 62
     7
370
    13
100
AcDbLine
 10
8527.983365483988
 20
16175.13407041318
 30
0.0
 11
8969.70608548395
 21
16175.13407041318
 31
0.0
  0
LINE
  5
3333
330
1F
100
AcDbEntity
  8
1
  6
Continuous
 62
     7
370
    13
100
AcDbLine
 10
9230.761045483697
 20
15135.13407041318
 30
0.0
 11
9230.761045483697
 21
15791.13407041324
 31
0.0
  0
LINE
  5
3334
330
1F
100
AcDbEntity
  8
1
  6
Continuous
 62
     7
370
    13
100
AcDbLine
 10
9390.761045483698
 20
15415.13407041318
 30
0.0
 11
9870.761045483698
 21
15415.13407041318
 31
0.0
  0
LINE
  5
3335
330
1F
100
AcDbEntity
  8
1
  6
Continuous
 62
     7
370
    13
100
AcDbLine
 10
9230.761045483697
 20
15695.13407041318
 30
0.0
 11
9870.761045483698
 21
15695.13407041318
 31
0.0
  0
CIRCLE
  5
3336
330
1F
100
AcDbEntity
  8
1
  6
Continuous
 62
     7
370
    13
100
AcDbCircle
 10
9630.761045483698
 20
15415.13407041318
 30
0.0
 40
128.0
  0
LINE
  5
3337
330
1F
100
AcDbEntity
  8
1
  6
Continuous
 62
     7
370
    13
100
AcDbLine
 10
9630.761045483698
 20
15655.13407041318
 30
0.0
 11
9630.761045483698
 21
15175.13407041318
 31
0.0
  0
LINE
  5
3338
330
1F
100
AcDbEntity
  8
1
  6
Continuous
 62
     7
370
    13
100
AcDbLine
 10
9950.761045483698
 20
15615.13407041318
 30
0.0
 11
9950.761045483698
 21
15215.13407041318
 31
0.0
  0
LINE
  5
3339
330
1F
100
AcDbEntity
  8
1
  6
Continuous
 62
     7
370
    13
100
AcDbLine
 10
9950.761045483698
 20
15215.13407041318
 30
0.0
 11
9870.761045483698
 21
15135.13407041318
 31
0.0
  0
LINE
  5
333A
330
1F
100
AcDbEntity
  8
1
  6
Continuous
 62
     7
370
    13
100
AcDbLine
 10
9870.761045483698
 20
15695.13407041318
 30
0.0
 11
9950.761045483698
 21
15615.13407041318
 31
0.0
  0
LINE
  5
333B
330
1F
100
AcDbEntity
  8
1
  6
Continuous
 62
     7
370
    13
100
AcDbLine
 10
9310.761045483697
 20
15791.13407041324
 30
0.0
 11
9230.761045483697
 21
15791.13407041324
 31
0.0
  0
LINE
  5
333C
330
1F
100
AcDbEntity
  8
1
  6
Continuous
 62
     7
370
    13
100
AcDbLine
 10
16613.51624548394
 20
13970.4337504132
 30
0.0
 11
16613.51624548394
 21
12263.58471041312
 31
0.0
  0
LINE
  5
333D
330
1F
100
AcDbEntity
  8
1
  6
Continuous
 62
     7
370
    13
100
AcDbLine
 10
16786.76424548396
 20
13718.02927041324
 30
0.0
 11
16786.76424548396
 21
12568.14191041324
 31
0.0
  0
LINE
  5
333E
330
1F
100
AcDbEntity
  8
1
  6
Continuous
 62
     7
370
    13
100
AcDbLine
 10
16618.52784548379
 20
15359.11351041315
 30
0.0
 11
16618.52784548379
 21
14013.15775041322
 31
0.0
  0
LINE
  5
333F
330
1F
100
AcDbEntity
  8
1
  6
Continuous
 62
     7
370
    13
100
AcDbLine
 10
16789.06840548402
 20
14233.73983041324
 30
0.0
 11
16789.06840548402
 21
14013.35719041322
 31
0.0
  0
LINE
  5
3340
330
1F
100
AcDbEntity
  8
1
  6
Continuous
 62
     7
370
    13
100
AcDbLine
 10
16787.96552548377
 20
14803.08607041311
 30
0.0
 11
16787.96552548377
 21
14541.19999041314
 31
0.0
  0
LINE
  5
3341
330
1F
100
AcDbEntity
  8
1
  6
Continuous
 62
     7
370
    13
100
AcDbLine
 10
15366.95784548373
 20
16537.55303041325
 30
0.0
 11
15867.43928548373
 21
16537.55303041325
 31
0.0
  0
LINE
  5
3342
330
1F
100
AcDbEntity
  8
1
  6
Continuous
 62
     7
370
    13
100
AcDbLine
 10
16618.52784548379
 20
15846.71135041324
 30
0.0
 11
16618.52784548379
 21
15530.95351041323
 31
0.0
  0
LINE
  5
3343
330
1F
100
AcDbEntity
  8
1
  6
Continuous
 62
     7
370
    13
100
AcDbLine
 10
16791.77584548381
 20
15846.71135041324
 30
0.0
 11
16791.77584548381
 21
15703.33543041313
 31
0.0
  0
LINE
  5
3344
330
1F
100
AcDbEntity
  8
1
  6
Continuous
 62
     7
370
    13
100
AcDbLine
 10
16615.56104548409
 20
15694.56079041323
 30
0.0
 11
16615.56104548409
 21
15134.56079041323
 31
0.0
  0
LINE
  5
3345
330
1F
100
AcDbEntity
  8
1
  6
Continuous
 62
     7
370
    13
100
AcDbLine
 10
16695.56104548409
 20
15694.56079041323
 30
0.0
 11
16695.56104548409
 21
15134.56079041323
 31
0.0
  0
LINE
  5
3346
330
1F
100
AcDbEntity
  8
1
  6
Continuous
 62
     7
370
    13
100
AcDbLine
 10
16791.77584548381
 20
15134.56079041323
 30
0.0
 11
16791.77584548381
 21
15108.42991041324
 31
0.0
  0
LINE
  5
3347
330
1F
100
AcDbEntity
  8
1
  6
Continuous
 62
     7
370
    13
100
AcDbLine
 10
16791.77584548381
 20
15108.42991041324
 30
0.0
 11
16791.77584548381
 21
15075.18207041313
 31
0.0
  0
LINE
  5
3348
330
1F
100
AcDbEntity
  8
1
  6
Continuous
 62
     7
370
    13
100
AcDbLine
 10
16615.56104548409
 20
15214.56079041323
 30
0.0
 11
16695.56104548409
 21
15214.56079041323
 31
0.0
  0
LINE
  5
3349
330
1F
100
AcDbEntity
  8
1
  6
Continuous
 62
     7
370
    13
100
AcDbLine
 10
16618.52784548379
 20
15425.63607041316
 30
0.0
 11
16618.52784548379
 21
15359.11351041315
 31
0.0
  0
LINE
  5
334A
330
1F
100
AcDbEntity
  8
1
  6
Continuous
 62
     7
370
    13
100
AcDbLine
 10
16615.56104548409
 20
15614.56079041322
 30
0.0
 11
16695.56104548409
 21
15614.56079041322
 31
0.0
  0
LINE
  5
334B
330
1F
100
AcDbEntity
  8
1
  6
Continuous
 62
     7
370
    13
100
AcDbLine
 10
15993.88640548411
 20
15775.13407041318
 30
0.0
 11
15867.43928548373
 21
15775.13407041318
 31
0.0
  0
LINE
  5
334C
330
1F
100
AcDbEntity
  8
1
  6
Continuous
 62
     7
370
    13
100
AcDbLine
 10
15993.88640548411
 20
15846.9790304132
 30
0.0
 11
15993.88640548411
 21
16223.44671041311
 31
0.0
  0
LINE
  5
334D
330
1F
100
AcDbEntity
  8
1
  6
Continuous
 62
     7
370
    13
100
AcDbLine
 10
15627.43928548373
 20
16636.71455041315
 30
0.0
 11
15867.43928548373
 21
16636.71455041315
 31
0.0
  0
LINE
  5
334E
330
1F
100
AcDbEntity
  8
1
  6
Continuous
 62
     7
370
    13
100
AcDbLine
 10
4750.761045483698
 20
17895.13407041318
 30
0.0
 11
10350.76104548369
 21
17895.13407041318
 31
0.0
  0
DIMENSION
  5
334F
330
1F
100
AcDbEntity
  8
1
  6
Continuous
 62
     7
370
    13
100
AcDbDimension
  2
*D17
 10
9950.761045483815
 20
22255.13407041313
 30
0.0
 11
7550.761045483814
 21
22505.13407041313
 31
0.0
 70
    32
  1
60
 71
     5
 42
4800.0
  3
Standard
100
AcDbAlignedDimension
 13
5150.761045483815
 23
20735.13407041313
 33
0.0
 14
9950.761045483815
 24
20735.13407041313
 34
0.0
100
AcDbRotatedDimension
1001
ACAD
1000
DSTYLE
1002
{
1070
    41
1040
500.0
1070
    42
1040
50.0
1070
    73
1070
     0
1070
    77
1070
     1
1070
   140
1040
400.0
1070
   147
1040
50.0
1070
   173
1070
     1
1070
   343
1005
2B
1070
   344
1005
2B
1070
   371
1070
    13
1070
   372
1070
    13
1002
}
  0
DIMENSION
  5
3350
330
1F
100
AcDbEntity
  8
1
  6
Continuous
 62
     7
370
    13
100
AcDbDimension
  2
*D18
 10
9630.761045483815
 20
21455.13407041313
 30
0.0
 11
7550.761045483814
 21
21705.13407041313
 31
0.0
 70
    32
  1
52
 71
     5
 42
4160.0
  3
Standard
100
AcDbAlignedDimension
 13
5470.761045483814
 23
20815.13407041313
 33
0.0
 14
9630.761045483815
 24
20815.13407041313
 34
0.0
100
AcDbRotatedDimension
1001
ACAD
1000
DSTYLE
1002
{
1070
    41
1040
500.0
1070
    42
1040
50.0
1070
    73
1070
     0
1070
    77
1070
     1
1070
   140
1040
400.0
1070
   147
1040
50.0
1070
   173
1070
     1
1070
   343
1005
2B
1070
   344
1005
2B
1070
   371
1070
    13
1070
   372
1070
    13
1002
}
  0
LINE
  5
3351
330
1F
100
AcDbEntity
  8
1
  6
Continuous
 62
     7
370
    13
100
AcDbLine
 10
9870.761045483698
 20
20655.13407041318
 30
0.0
 11
5230.761045483697
 21
20655.13407041318
 31
0.0
  0
LINE
  5
3352
330
1F
100
AcDbEntity
  8
1
  6
Continuous
 62
     7
370
    13
100
AcDbLine
 10
6073.225845484005
 20
16810.59007041316
 30
0.0
 11
6435.772405484051
 21
16810.59007041316
 31
0.0
  0
LINE
  5
3353
330
1F
100
AcDbEntity
  8
1
  6
Continuous
 62
     7
370
    13
100
AcDbLine
 10
6435.772405484051
 20
18988.59007041318
 30
0.0
 11
6073.225845484005
 21
18988.59007041318
 31
0.0
  0
LINE
  5
3354
330
1F
100
AcDbEntity
  8
1
  6
Continuous
 62
     7
370
    13
100
AcDbLine
 10
5790.761045483698
 20
20015.13407041318
 30
0.0
 11
9150.761045483697
 21
20015.13407041318
 31
0.0
  0
LINE
  5
3355
330
1F
100
AcDbEntity
  8
1
  6
Continuous
 62
     7
370
    13
100
AcDbLine
 10
5967.983365483989
 20
19615.13407041318
 30
0.0
 11
6409.706085483951
 21
19615.13407041318
 31
0.0
  0
LINE
  5
3356
330
1F
100
AcDbEntity
  8
1
  6
Continuous
 62
     7
370
    13
100
AcDbLine
 10
5470.761045483698
 20
20615.13407041318
 30
0.0
 11
5470.761045483698
 21
20135.13407041318
 31
0.0
  0
LINE
  5
3357
330
1F
100
AcDbEntity
  8
1
  6
Continuous
 62
     7
370
    13
100
AcDbLine
 10
5870.761045483698
 20
20655.13407041318
 30
0.0
 11
5870.761045483698
 21
20015.13407041318
 31
0.0
  0
LINE
  5
3358
330
1F
100
AcDbEntity
  8
1
  6
Continuous
 62
     7
370
    13
100
AcDbLine
 10
5150.761045483697
 20
20575.13407041318
 30
0.0
 11
5150.761045483697
 21
20175.13407041318
 31
0.0
  0
CIRCLE
  5
3359
330
1F
100
AcDbEntity
  8
1
  6
Continuous
 62
     7
370
    13
100
AcDbCircle
 10
5470.761045483698
 20
20375.13407041318
 30
0.0
 40
128.0
  0
LINE
  5
335A
330
1F
100
AcDbEntity
  8
1
  6
Continuous
 62
     7
370
    13
100
AcDbLine
 10
6233.586805483966
 20
16993.35807041322
 30
0.0
 11
6233.586805483966
 21
18805.82207041312
 31
0.0
  0
LINE
  5
335B
330
1F
100
AcDbEntity
  8
1
  6
Continuous
 62
     7
370
    13
100
AcDbLine
 10
5212.577925484104
 20
16993.35807041322
 30
0.0
 11
5212.577925484104
 21
18805.82207041312
 31
0.0
  0
LINE
  5
335C
330
1F
100
AcDbEntity
  8
1
  6
Continuous
 62
     7
370
    13
100
AcDbLine
 10
5519.637445483997
 20
16993.35807041322
 30
0.0
 11
6233.586805483966
 21
16993.35807041322
 31
0.0
  0
LINE
  5
335D
330
1F
100
AcDbEntity
  8
1
  6
Continuous
 62
     7
370
    13
100
AcDbLine
 10
5512.021445483726
 20
16993.35807041322
 30
0.0
 11
5784.528085483646
 21
16993.35807041322
 31
0.0
  0
LINE
  5
335E
330
1F
100
AcDbEntity
  8
1
  6
Continuous
 62
     7
370
    13
100
AcDbLine
 10
5580.775045483781
 20
16993.35807041322
 30
0.0
 11
5212.577925484104
 21
16993.35807041322
 31
0.0
  0
LINE
  5
335F
330
1F
100
AcDbEntity
  8
1
  6
Continuous
 62
     7
370
    13
100
AcDbLine
 10
6073.225845484005
 20
16993.35807041322
 30
0.0
 11
6073.225845484005
 21
16810.59007041316
 31
0.0
  0
CIRCLE
  5
3360
330
1F
100
AcDbEntity
  8
1
  6
Continuous
 62
     7
370
    13
100
AcDbCircle
 10
6190.761045483697
 20
19615.13407041318
 30
0.0
 40
140.0
  0
LINE
  5
3361
330
1F
100
AcDbEntity
  8
1
  6
Continuous
 62
     7
370
    13
100
AcDbLine
 10
5790.761045483698
 20
18805.82207041312
 30
0.0
 11
5790.761045483698
 21
20015.13407041318
 31
0.0
  0
LINE
  5
3362
330
1F
100
AcDbEntity
  8
1
  6
Continuous
 62
     7
370
    13
100
AcDbLine
 10
6190.761045483697
 20
19831.2220704132
 30
0.0
 11
6190.761045483697
 21
19400.61999041324
 31
0.0
  0
LINE
  5
3363
330
1F
100
AcDbEntity
  8
1
  6
Continuous
 62
     7
370
    13
100
AcDbLine
 10
6233.586805483966
 20
18805.82207041312
 30
0.0
 11
5519.637445483997
 21
18805.82207041312
 31
0.0
  0
LINE
  5
3364
330
1F
100
AcDbEntity
  8
1
  6
Continuous
 62
     7
370
    13
100
AcDbLine
 10
5784.528085483646
 20
18805.82207041312
 30
0.0
 11
5519.637445483997
 21
18805.82207041312
 31
0.0
  0
LINE
  5
3365
330
1F
100
AcDbEntity
  8
1
  6
Continuous
 62
     7
370
    13
100
AcDbLine
 10
5212.577925484104
 20
18805.82207041312
 30
0.0
 11
5573.159045484092
 21
18805.82207041312
 31
0.0
  0
LINE
  5
3366
330
1F
100
AcDbEntity
  8
1
  6
Continuous
 62
     7
370
    13
100
AcDbLine
 10
6073.225845484005
 20
18988.59007041318
 30
0.0
 11
6073.225845484005
 21
18805.82207041312
 31
0.0
  0
LINE
  5
3367
330
1F
100
AcDbEntity
  8
1
  6
Continuous
 62
     7
370
    13
100
AcDbLine
 10
5230.761045483697
 20
20375.13407041318
 30
0.0
 11
5710.761045483698
 21
20375.13407041318
 31
0.0
  0
LINE
  5
3368
330
1F
100
AcDbEntity
  8
1
  6
Continuous
 62
     7
370
    13
100
AcDbLine
 10
5870.761045483698
 20
20095.13407041318
 30
0.0
 11
5230.761045483697
 21
20095.13407041318
 31
0.0
  0
LINE
  5
3369
330
1F
100
AcDbEntity
  8
1
  6
Continuous
 62
     7
370
    13
100
AcDbLine
 10
5150.761045483697
 20
20175.13407041318
 30
0.0
 11
5230.761045483697
 21
20095.13407041318
 31
0.0
  0
LINE
  5
336A
330
1F
100
AcDbEntity
  8
1
  6
Continuous
 62
     7
370
    13
100
AcDbLine
 10
5230.761045483697
 20
20655.13407041318
 30
0.0
 11
5150.761045483697
 21
20575.13407041318
 31
0.0
  0
TEXT
  5
336B
330
1F
100
AcDbEntity
  8
1
  6
Continuous
 62
     7
370
    13
100
AcDbText
 10
9428.917445484142
 20
17431.20455041323
 30
0.0
 40
240.0
  1
アドレス設定表示灯(橙）
 41
1.086111
  7
KANJI
100
AcDbText
  0
LINE
  5
336C
330
1F
100
AcDbEntity
  8
1
  6
Continuous
 62
     7
370
    13
100
AcDbLine
 10
9403.841045483888
 20
17431.20455041323
 30
0.0
 11
12364.9174454839
 21
17431.20455041323
 31
0.0
  0
TEXT
  5
336D
330
1F
100
AcDbEntity
  8
1
  6
Continuous
 62
     7
370
    13
100
AcDbText
 10
8741.554485483968
 20
19910.01407041316
 30
0.0
 40
240.0
  1
          解錠入力有/無切替スイッチ
 41
0.8623190000000001
  7
KANJI
100
AcDbText
  0
LINE
  5
336E
330
1F
100
AcDbEntity
  8
1
  6
Continuous
 62
     7
370
    13
100
AcDbLine
 10
8741.554485483968
 20
19910.01407041316
 30
0.0
 11
13293.55448548408
 21
19910.01407041316
 31
0.0
  0
LINE
  5
336F
330
1F
100
AcDbEntity
  8
1
  6
Continuous
 62
     7
370
    13
100
AcDbLine
 10
9630.761045483698
 20
20615.13407041318
 30
0.0
 11
9630.761045483698
 21
20135.13407041318
 31
0.0
  0
LINE
  5
3370
330
1F
100
AcDbEntity
  8
1
  6
Continuous
 62
     7
370
    13
100
AcDbLine
 10
9230.761045483697
 20
20655.13407041318
 30
0.0
 11
9230.761045483697
 21
19999.13407041312
 31
0.0
  0
LINE
  5
3371
330
1F
100
AcDbEntity
  8
1
  6
Continuous
 62
     7
370
    13
100
AcDbLine
 10
9950.761045483698
 20
20575.13407041318
 30
0.0
 11
9950.761045483698
 21
20175.13407041318
 31
0.0
  0
CIRCLE
  5
3372
330
1F
100
AcDbEntity
  8
1
  6
Continuous
 62
     7
370
    13
100
AcDbCircle
 10
9630.761045483698
 20
20375.13407041318
 30
0.0
 40
128.0
  0
LINE
  5
3373
330
1F
100
AcDbEntity
  8
1
  6
Continuous
 62
     7
370
    13
100
AcDbLine
 10
8870.761045483698
 20
18955.97439041317
 30
0.0
 11
9037.337845483737
 21
19051.45303041324
 31
0.0
  0
LINE
  5
3374
330
1F
100
AcDbEntity
  8
1
  6
Continuous
 62
     7
370
    13
100
AcDbLine
 10
8870.761045483698
 20
18955.97439041317
 30
0.0
 11
9403.841045483888
 21
19485.72479041322
 31
0.0
  0
LINE
  5
3375
330
1F
100
AcDbEntity
  8
1
  6
Continuous
 62
     7
370
    13
100
AcDbLine
 10
8870.761045483698
 20
18267.97879041317
 30
0.0
 11
9037.337845483737
 21
18363.45743041325
 31
0.0
  0
LINE
  5
3376
330
1F
100
AcDbEntity
  8
1
  6
Continuous
 62
     7
370
    13
100
AcDbLine
 10
8870.761045483698
 20
18267.97879041317
 30
0.0
 11
9403.841045483888
 21
18797.72919041322
 31
0.0
  0
LINE
  5
3377
330
1F
100
AcDbEntity
  8
1
  6
Continuous
 62
     7
370
    13
100
AcDbLine
 10
8870.761045483698
 20
17595.5768704132
 30
0.0
 11
9037.337845483737
 21
17691.05551041313
 31
0.0
  0
LINE
  5
3378
330
1F
100
AcDbEntity
  8
1
  6
Continuous
 62
     7
370
    13
100
AcDbLine
 10
8870.761045483698
 20
17595.5768704132
 30
0.0
 11
9403.841045483888
 21
18125.32735041313
 31
0.0
  0
LINE
  5
3379
330
1F
100
AcDbEntity
  8
1
  6
Continuous
 62
     7
370
    13
100
AcDbLine
 10
8870.761045483698
 20
16901.45407041316
 30
0.0
 11
9037.337845483737
 21
16996.93271041323
 31
0.0
  0
LINE
  5
337A
330
1F
100
AcDbEntity
  8
1
  6
Continuous
 62
     7
370
    13
100
AcDbLine
 10
8870.761045483698
 20
16901.45407041316
 30
0.0
 11
9403.841045483888
 21
17431.20455041323
 31
0.0
  0
TEXT
  5
337B
330
1F
100
AcDbEntity
  8
1
  6
Continuous
 62
     7
370
    13
100
AcDbText
 10
8521.615925483812
 20
17705.54999041312
 30
0.0
 40
240.0
  1
解錠
 41
1.133332999999999
  7
KANJI
100
AcDbText
  0
TEXT
  5
337C
330
1F
100
AcDbEntity
  8
1
  6
Continuous
 62
     7
370
    13
100
AcDbText
 10
8521.619045483705
 20
19067.16911041323
 30
0.0
 40
240.0
  1
電源
 41
1.133332999999999
  7
KANJI
100
AcDbText
  0
TEXT
  5
337D
330
1F
100
AcDbEntity
  8
1
  6
Continuous
 62
     7
370
    13
100
AcDbText
 10
8521.615925483812
 20
18376.05415041325
 30
0.0
 40
240.0
  1
照合
 41
1.133332999999999
  7
KANJI
100
AcDbText
  0
LINE
  5
337E
330
1F
100
AcDbEntity
  8
1
  6
Continuous
 62
     7
370
    13
100
AcDbLine
 10
7946.201045483642
 20
18425.56215041316
 30
0.0
 11
8165.182565484021
 21
18658.90119041315
 31
0.0
  0
LINE
  5
337F
330
1F
100
AcDbEntity
  8
1
  6
Continuous
 62
     7
370
    13
100
AcDbLine
 10
7946.201045483642
 20
18425.56215041316
 30
0.0
 11
8019.175045484038
 21
18737.13047041324
 31
0.0
  0
LINE
  5
3380
330
1F
100
AcDbEntity
  8
1
  6
Continuous
 62
     7
370
    13
100
AcDbLine
 10
7946.201045483642
 20
18425.56215041316
 30
0.0
 11
8741.554485483968
 21
19910.01407041316
 31
0.0
  0
LINE
  5
3381
330
1F
100
AcDbEntity
  8
1
  6
Continuous
 62
     7
370
    13
100
AcDbLine
 10
6435.772405484051
 20
16810.59007041316
 30
0.0
 11
6435.772405484051
 21
18988.59007041318
 31
0.0
  0
LINE
  5
3382
330
1F
100
AcDbEntity
  8
1
  6
Continuous
 62
     7
370
    13
100
AcDbLine
 10
6560.55976548366
 20
18594.40623041314
 30
0.0
 11
6560.55976548366
 21
17909.17071041316
 31
0.0
  0
LINE
  5
3383
330
1F
100
AcDbEntity
  8
1
  6
Continuous
 62
     7
370
    13
100
AcDbLine
 10
7263.047925483727
 20
17909.17071041316
 30
0.0
 11
7263.047925483727
 21
18594.40623041314
 31
0.0
  0
CIRCLE
  5
3384
330
1F
100
AcDbEntity
  8
1
  6
Continuous
 62
     7
370
    13
100
AcDbCircle
 10
6911.803845483984
 20
18251.78847041315
 30
0.0
 40
333.7467199999999
  0
LINE
  5
3385
330
1F
100
AcDbEntity
  8
1
  6
Continuous
 62
     7
370
    13
100
AcDbLine
 10
7008.677445483802
 20
17584.82047041324
 30
0.0
 11
6903.297205483716
 21
17689.75423041323
 31
0.0
  0
LINE
  5
3386
330
1F
100
AcDbEntity
  8
1
  6
Continuous
 62
     7
370
    13
100
AcDbLine
 10
6886.924565484107
 20
17672.04199041312
 30
0.0
 11
6800.134645484097
 21
17584.82047041324
 31
0.0
  0
CIRCLE
  5
3387
330
1F
100
AcDbEntity
  8
1
  6
Continuous
 62
     7
370
    13
100
AcDbCircle
 10
6911.961045483652
 20
17566.55287041313
 30
0.0
 40
181.69032
  0
LINE
  5
3388
330
1F
100
AcDbEntity
  8
1
  6
Continuous
 62
     7
370
    13
100
AcDbLine
 10
6560.716965483909
 20
17909.17071041316
 30
0.0
 11
6560.716965483909
 21
17223.93511041314
 31
0.0
  0
LINE
  5
3389
330
1F
100
AcDbEntity
  8
1
  6
Continuous
 62
     7
370
    13
100
AcDbLine
 10
7263.205045483949
 20
17223.93511041314
 30
0.0
 11
7263.205045483949
 21
17909.17071041316
 31
0.0
  0
CIRCLE
  5
338A
330
1F
100
AcDbEntity
  8
1
  6
Continuous
 62
     7
370
    13
100
AcDbCircle
 10
6911.961045483652
 20
17566.55287041313
 30
0.0
 40
333.7467199999999
  0
CIRCLE
  5
338B
330
1F
100
AcDbEntity
  8
1
  6
Continuous
 62
     7
370
    13
100
AcDbCircle
 10
6910.56272548408
 20
16881.31735041315
 30
0.0
 40
181.69032
  0
LINE
  5
338C
330
1F
100
AcDbEntity
  8
1
  6
Continuous
 62
     7
370
    13
100
AcDbLine
 10
7261.806725483795
 20
17223.93511041314
 30
0.0
 11
6559.318645483756
 21
17223.93511041314
 31
0.0
  0
LINE
  5
338D
330
1F
100
AcDbEntity
  8
1
  6
Continuous
 62
     7
370
    13
100
AcDbLine
 10
6560.716965483909
 20
17223.93511041314
 30
0.0
 11
7263.205045483949
 21
17223.93511041314
 31
0.0
  0
LINE
  5
338E
330
1F
100
AcDbEntity
  8
1
  6
Continuous
 62
     7
370
    13
100
AcDbLine
 10
7007.279125483648
 20
16899.58495041311
 30
0.0
 11
6901.898805484117
 21
17004.51863041321
 31
0.0
  0
LINE
  5
338F
330
1F
100
AcDbEntity
  8
1
  6
Continuous
 62
     7
370
    13
100
AcDbLine
 10
6957.684885483643
 20
16899.58495041311
 30
0.0
 11
7007.279125483648
 21
16899.58495041311
 31
0.0
  0
LINE
  5
3390
330
1F
100
AcDbEntity
  8
1
  6
Continuous
 62
     7
370
    13
100
AcDbLine
 10
6957.684885483643
 20
16765.86511041313
 30
0.0
 11
6957.684885483643
 21
16899.58495041311
 31
0.0
  0
LINE
  5
3391
330
1F
100
AcDbEntity
  8
1
  6
Continuous
 62
     7
370
    13
100
AcDbLine
 10
6863.378485483874
 20
16765.41863041318
 30
0.0
 11
6957.684885483643
 21
16765.86511041313
 31
0.0
  0
LINE
  5
3392
330
1F
100
AcDbEntity
  8
1
  6
Continuous
 62
     7
370
    13
100
AcDbLine
 10
6863.378485483874
 20
16899.58495041311
 30
0.0
 11
6863.378485483874
 21
16765.41863041318
 31
0.0
  0
LINE
  5
3393
330
1F
100
AcDbEntity
  8
1
  6
Continuous
 62
     7
370
    13
100
AcDbLine
 10
6798.736325483943
 20
16899.58495041311
 30
0.0
 11
6863.378485483874
 21
16899.58495041311
 31
0.0
  0
LINE
  5
3394
330
1F
100
AcDbEntity
  8
1
  6
Continuous
 62
     7
370
    13
100
AcDbLine
 10
6885.526165483927
 20
16986.80647041313
 30
0.0
 11
6798.736325483943
 21
16899.58495041311
 31
0.0
  0
LINE
  5
3395
330
1F
100
AcDbEntity
  8
1
  6
Continuous
 62
     7
370
    13
100
AcDbLine
 10
6901.898805484117
 20
17004.51863041321
 30
0.0
 11
6885.526165483927
 21
16986.80647041313
 31
0.0
  0
LINE
  5
3396
330
1F
100
AcDbEntity
  8
1
  6
Continuous
 62
     7
370
    13
100
AcDbLine
 10
6959.083205483796
 20
17584.82047041324
 30
0.0
 11
7008.677445483802
 21
17584.82047041324
 31
0.0
  0
LINE
  5
3397
330
1F
100
AcDbEntity
  8
1
  6
Continuous
 62
     7
370
    13
100
AcDbLine
 10
6959.083205483796
 20
17451.10071041315
 30
0.0
 11
6959.083205483796
 21
17584.82047041324
 31
0.0
  0
LINE
  5
3398
330
1F
100
AcDbEntity
  8
1
  6
Continuous
 62
     7
370
    13
100
AcDbLine
 10
6864.776805484027
 20
17450.65415041317
 30
0.0
 11
6959.083205483796
 21
17451.10071041315
 31
0.0
  0
LINE
  5
3399
330
1F
100
AcDbEntity
  8
1
  6
Continuous
 62
     7
370
    13
100
AcDbLine
 10
6864.776805484027
 20
17584.82047041324
 30
0.0
 11
6864.776805484027
 21
17450.65415041317
 31
0.0
  0
LINE
  5
339A
330
1F
100
AcDbEntity
  8
1
  6
Continuous
 62
     7
370
    13
100
AcDbLine
 10
6800.134645484097
 20
17584.82047041324
 30
0.0
 11
6864.776805484027
 21
17584.82047041324
 31
0.0
  0
LINE
  5
339B
330
1F
100
AcDbEntity
  8
1
  6
Continuous
 62
     7
370
    13
100
AcDbLine
 10
7263.205045483949
 20
17909.17071041316
 30
0.0
 11
6560.716965483909
 21
17909.17071041316
 31
0.0
  0
CIRCLE
  5
339C
330
1F
100
AcDbEntity
  8
1
  6
Continuous
 62
     7
370
    13
100
AcDbCircle
 10
6911.803845483984
 20
18251.78847041315
 30
0.0
 40
181.69032
  0
LINE
  5
339D
330
1F
100
AcDbEntity
  8
1
  6
Continuous
 62
     7
370
    13
100
AcDbLine
 10
6560.55976548366
 20
17909.17071041316
 30
0.0
 11
7263.047925483727
 21
17909.17071041316
 31
0.0
  0
LINE
  5
339E
330
1F
100
AcDbEntity
  8
1
  6
Continuous
 62
     7
370
    13
100
AcDbLine
 10
6903.297205483716
 20
17689.75423041323
 30
0.0
 11
6886.924565484107
 21
17672.04199041312
 31
0.0
  0
LINE
  5
339F
330
1F
100
AcDbEntity
  8
1
  6
Continuous
 62
     7
370
    13
100
AcDbLine
 10
7008.520245484135
 20
18270.05607041311
 30
0.0
 11
6903.140005484049
 21
18374.98975041322
 31
0.0
  0
LINE
  5
33A0
330
1F
100
AcDbEntity
  8
1
  6
Continuous
 62
     7
370
    13
100
AcDbLine
 10
6958.926005484129
 20
18270.05607041311
 30
0.0
 11
7008.520245484135
 21
18270.05607041311
 31
0.0
  0
LINE
  5
33A1
330
1F
100
AcDbEntity
  8
1
  6
Continuous
 62
     7
370
    13
100
AcDbLine
 10
6958.926005484129
 20
18136.33623041314
 30
0.0
 11
6958.926005484129
 21
18270.05607041311
 31
0.0
  0
LINE
  5
33A2
330
1F
100
AcDbEntity
  8
1
  6
Continuous
 62
     7
370
    13
100
AcDbLine
 10
6864.619605483778
 20
18135.88967041315
 30
0.0
 11
6958.926005484129
 21
18136.33623041314
 31
0.0
  0
LINE
  5
33A3
330
1F
100
AcDbEntity
  8
1
  6
Continuous
 62
     7
370
    13
100
AcDbLine
 10
6864.619605483778
 20
18270.05607041311
 30
0.0
 11
6864.619605483778
 21
18135.88967041315
 31
0.0
  0
LINE
  5
33A4
330
1F
100
AcDbEntity
  8
1
  6
Continuous
 62
     7
370
    13
100
AcDbLine
 10
6799.977445483849
 20
18270.05607041311
 30
0.0
 11
6864.619605483778
 21
18270.05607041311
 31
0.0
  0
LINE
  5
33A5
330
1F
100
AcDbEntity
  8
1
  6
Continuous
 62
     7
370
    13
100
AcDbLine
 10
6886.767365483859
 20
18357.27751041325
 30
0.0
 11
6799.977445483849
 21
18270.05607041311
 31
0.0
  0
LINE
  5
33A6
330
1F
100
AcDbEntity
  8
1
  6
Continuous
 62
     7
370
    13
100
AcDbLine
 10
6903.140005484049
 20
18374.98975041322
 30
0.0
 11
6886.767365483859
 21
18357.27751041325
 31
0.0
  0
LINE
  5
33A7
330
1F
100
AcDbEntity
  8
1
  6
Continuous
 62
     7
370
    13
100
AcDbLine
 10
8870.761045483698
 20
17595.5768704132
 30
0.0
 11
8967.281445483852
 21
17761.55223041321
 31
0.0
  0
LINE
  5
33A8
330
1F
100
AcDbEntity
  8
1
  6
Continuous
 62
     7
370
    13
100
AcDbLine
 10
8870.761045483698
 20
17534.52767041322
 30
0.0
 11
8870.761045483698
 21
17654.52767041322
 31
0.0
  0
LINE
  5
33A9
330
1F
100
AcDbEntity
  8
1
  6
Continuous
 62
     7
370
    13
100
AcDbLine
 10
8630.761045483698
 20
17654.52767041322
 30
0.0
 11
8630.761045483698
 21
17534.52767041322
 31
0.0
  0
LINE
  5
33AA
330
1F
100
AcDbEntity
  8
1
  6
Continuous
 62
     7
370
    13
100
AcDbLine
 10
7946.904485483712
 20
16877.86111041321
 30
0.0
 11
8105.196645484133
 21
16769.19831041319
 31
0.0
  0
LINE
  5
33AB
330
1F
100
AcDbEntity
  8
1
  6
Continuous
 62
     7
370
    13
100
AcDbLine
 10
7946.904485483712
 20
16877.86111041321
 30
0.0
 11
8138.320885484166
 21
16862.90247041324
 31
0.0
  0
CIRCLE
  5
33AC
330
1F
100
AcDbEntity
  8
1
  6
Continuous
 62
     7
370
    13
100
AcDbCircle
 10
7946.904485483712
 20
16877.86111041321
 30
0.0
 40
152.0
  0
CIRCLE
  5
33AD
330
1F
100
AcDbEntity
  8
1
  6
Continuous
 62
     7
370
    13
100
AcDbCircle
 10
7946.904485483712
 20
16877.86111041321
 30
0.0
 40
168.0
  0
LINE
  5
33AE
330
1F
100
AcDbEntity
  8
1
  6
Continuous
 62
     7
370
    13
100
AcDbLine
 10
8186.904485483713
 20
17117.86111041321
 30
0.0
 11
7706.904485483711
 21
17117.86111041321
 31
0.0
  0
TEXT
  5
33AF
330
1F
100
AcDbEntity
  8
1
  6
Continuous
 62
     7
370
    13
100
AcDbText
 10
8392.755525483691
 20
16981.86975041316
 30
0.0
 40
240.0
  1
ｱﾄﾞﾚｽ
 41
0.566667
  7
KANJI
100
AcDbText
  0
LINE
  5
33B0
330
1F
100
AcDbEntity
  8
1
  6
Continuous
 62
     7
370
    13
100
AcDbLine
 10
8870.761045483698
 20
16960.40487041318
 30
0.0
 11
8630.761045483698
 21
16960.40487041318
 31
0.0
  0
LINE
  5
33B1
330
1F
100
AcDbEntity
  8
1
  6
Continuous
 62
     7
370
    13
100
AcDbLine
 10
8630.761045483698
 20
16840.40487041318
 30
0.0
 11
8870.761045483698
 21
16840.40487041318
 31
0.0
  0
LINE
  5
33B2
330
1F
100
AcDbEntity
  8
1
  6
Continuous
 62
     7
370
    13
100
AcDbLine
 10
8630.761045483698
 20
16960.40487041318
 30
0.0
 11
8630.761045483698
 21
16840.40487041318
 31
0.0
  0
LINE
  5
33B3
330
1F
100
AcDbEntity
  8
1
  6
Continuous
 62
     7
370
    13
100
AcDbLine
 10
8870.761045483698
 20
16901.45407041316
 30
0.0
 11
8967.281445483852
 21
17067.42943041317
 31
0.0
  0
LINE
  5
33B4
330
1F
100
AcDbEntity
  8
1
  6
Continuous
 62
     7
370
    13
100
AcDbLine
 10
8870.761045483698
 20
16840.40487041318
 30
0.0
 11
8870.761045483698
 21
16960.40487041318
 31
0.0
  0
LINE
  5
33B5
330
1F
100
AcDbEntity
  8
1
  6
Continuous
 62
     7
370
    13
100
AcDbLine
 10
8630.761045483698
 20
17534.52767041322
 30
0.0
 11
8870.761045483698
 21
17534.52767041322
 31
0.0
  0
LINE
  5
33B6
330
1F
100
AcDbEntity
  8
1
  6
Continuous
 62
     7
370
    13
100
AcDbLine
 10
8106.904485483712
 20
17749.17071041316
 30
0.0
 11
8106.904485483712
 21
18425.56215041316
 31
0.0
  0
LINE
  5
33B7
330
1F
100
AcDbEntity
  8
1
  6
Continuous
 62
     7
370
    13
100
AcDbLine
 10
7786.904485483713
 20
18425.56215041316
 30
0.0
 11
7786.904485483713
 21
17749.17071041316
 31
0.0
  0
LINE
  5
33B8
330
1F
100
AcDbEntity
  8
1
  6
Continuous
 62
     7
370
    13
100
AcDbLine
 10
8042.904485484061
 20
17940.16639041321
 30
0.0
 11
8042.904485484061
 21
18087.36639041322
 31
0.0
  0
LINE
  5
33B9
330
1F
100
AcDbEntity
  8
1
  6
Continuous
 62
     7
370
    13
100
AcDbLine
 10
7850.904485483944
 20
18087.36639041322
 30
0.0
 11
7850.904485483944
 21
17940.16639041321
 31
0.0
  0
LINE
  5
33BA
330
1F
100
AcDbEntity
  8
1
  6
Continuous
 62
     7
370
    13
100
AcDbLine
 10
7786.904485483713
 20
17749.17071041316
 30
0.0
 11
8106.904485483712
 21
17749.17071041316
 31
0.0
  0
LINE
  5
33BB
330
1F
100
AcDbEntity
  8
1
  6
Continuous
 62
     7
370
    13
100
AcDbLine
 10
7850.904485483944
 20
17940.16639041321
 30
0.0
 11
8042.904485484061
 21
17940.16639041321
 31
0.0
  0
LINE
  5
33BC
330
1F
100
AcDbEntity
  8
1
  6
Continuous
 62
     7
370
    13
100
AcDbLine
 10
8106.904485483712
 20
18425.56215041316
 30
0.0
 11
7786.904485483713
 21
18425.56215041316
 31
0.0
  0
LINE
  5
33BD
330
1F
100
AcDbEntity
  8
1
  6
Continuous
 62
     7
370
    13
100
AcDbLine
 10
7850.904485483944
 20
18087.36639041322
 30
0.0
 11
8042.904485484061
 21
18087.36639041322
 31
0.0
  0
LINE
  5
33BE
330
1F
100
AcDbEntity
  8
1
  6
Continuous
 62
     7
370
    13
100
AcDbLine
 10
7850.904485483944
 20
18234.56639041323
 30
0.0
 11
8042.904485484061
 21
18234.56639041323
 31
0.0
  0
LINE
  5
33BF
330
1F
100
AcDbEntity
  8
1
  6
Continuous
 62
     7
370
    13
100
AcDbLine
 10
7850.904485483944
 20
18087.36639041322
 30
0.0
 11
8042.904485484061
 21
18087.36639041322
 31
0.0
  0
LINE
  5
33C0
330
1F
100
AcDbEntity
  8
1
  6
Continuous
 62
     7
370
    13
100
AcDbLine
 10
7850.904485483944
 20
18234.56639041323
 30
0.0
 11
7850.904485483944
 21
18087.36639041322
 31
0.0
  0
LINE
  5
33C1
330
1F
100
AcDbEntity
  8
1
  6
Continuous
 62
     7
370
    13
100
AcDbLine
 10
8042.904485484061
 20
18087.36639041322
 30
0.0
 11
8042.904485484061
 21
18234.56639041323
 31
0.0
  0
LINE
  5
33C2
330
1F
100
AcDbEntity
  8
1
  6
Continuous
 62
     7
370
    13
100
AcDbLine
 10
8870.761045483698
 20
17654.52767041322
 30
0.0
 11
8630.761045483698
 21
17654.52767041322
 31
0.0
  0
LINE
  5
33C3
330
1F
100
AcDbEntity
  8
1
  6
Continuous
 62
     7
370
    13
100
AcDbLine
 10
8870.761045483698
 20
18326.92959041319
 30
0.0
 11
8630.761045483698
 21
18326.92959041319
 31
0.0
  0
LINE
  5
33C4
330
1F
100
AcDbEntity
  8
1
  6
Continuous
 62
     7
370
    13
100
AcDbLine
 10
8630.761045483698
 20
18206.92959041319
 30
0.0
 11
8870.761045483698
 21
18206.92959041319
 31
0.0
  0
LINE
  5
33C5
330
1F
100
AcDbEntity
  8
1
  6
Continuous
 62
     7
370
    13
100
AcDbLine
 10
8630.761045483698
 20
18326.92959041319
 30
0.0
 11
8630.761045483698
 21
18206.92959041319
 31
0.0
  0
LINE
  5
33C6
330
1F
100
AcDbEntity
  8
1
  6
Continuous
 62
     7
370
    13
100
AcDbLine
 10
8870.761045483698
 20
18267.97879041317
 30
0.0
 11
8967.281445483852
 21
18433.95407041316
 31
0.0
  0
LINE
  5
33C7
330
1F
100
AcDbEntity
  8
1
  6
Continuous
 62
     7
370
    13
100
AcDbLine
 10
8870.761045483698
 20
18206.92959041319
 30
0.0
 11
8870.761045483698
 21
18326.92959041319
 31
0.0
  0
CIRCLE
  5
33C8
330
1F
100
AcDbEntity
  8
1
  6
Continuous
 62
     7
370
    13
100
AcDbCircle
 10
6911.345525483659
 20
18937.27783041321
 30
0.0
 40
181.69032
  0
LINE
  5
33C9
330
1F
100
AcDbEntity
  8
1
  6
Continuous
 62
     7
370
    13
100
AcDbLine
 10
7262.589605483983
 20
19279.89559041321
 30
0.0
 11
6560.101445483917
 21
19279.89559041321
 31
0.0
  0
LINE
  5
33CA
330
1F
100
AcDbEntity
  8
1
  6
Continuous
 62
     7
370
    13
100
AcDbLine
 10
6560.101445483917
 20
18594.66007041322
 30
0.0
 11
7262.589605483983
 21
18594.66007041322
 31
0.0
  0
CIRCLE
  5
33CB
330
1F
100
AcDbEntity
  8
1
  6
Continuous
 62
     7
370
    13
100
AcDbCircle
 10
6911.345525483659
 20
18937.27783041321
 30
0.0
 40
333.7467199999999
  0
LINE
  5
33CC
330
1F
100
AcDbEntity
  8
1
  6
Continuous
 62
     7
370
    13
100
AcDbLine
 10
7263.047925483727
 20
18594.40623041314
 30
0.0
 11
6560.55976548366
 21
18594.40623041314
 31
0.0
  0
LINE
  5
33CD
330
1F
100
AcDbEntity
  8
1
  6
Continuous
 62
     7
370
    13
100
AcDbLine
 10
7008.06192548381
 20
18955.54543041318
 30
0.0
 11
6902.681685483724
 21
19060.47911041314
 31
0.0
  0
LINE
  5
33CE
330
1F
100
AcDbEntity
  8
1
  6
Continuous
 62
     7
370
    13
100
AcDbLine
 10
6886.309045484115
 20
19042.76687041317
 30
0.0
 11
6799.519125484104
 21
18955.54543041318
 31
0.0
  0
LINE
  5
33CF
330
1F
100
AcDbEntity
  8
1
  6
Continuous
 62
     7
370
    13
100
AcDbLine
 10
6560.101445483917
 20
19279.89559041321
 30
0.0
 11
6560.101445483917
 21
18594.66007041322
 31
0.0
  0
LINE
  5
33D0
330
1F
100
AcDbEntity
  8
1
  6
Continuous
 62
     7
370
    13
100
AcDbLine
 10
6958.467685483803
 20
18955.54543041318
 30
0.0
 11
7008.06192548381
 21
18955.54543041318
 31
0.0
  0
LINE
  5
33D1
330
1F
100
AcDbEntity
  8
1
  6
Continuous
 62
     7
370
    13
100
AcDbLine
 10
6958.467685483803
 20
18821.8255904132
 30
0.0
 11
6958.467685483803
 21
18955.54543041318
 31
0.0
  0
LINE
  5
33D2
330
1F
100
AcDbEntity
  8
1
  6
Continuous
 62
     7
370
    13
100
AcDbLine
 10
6864.161285484034
 20
18821.37903041322
 30
0.0
 11
6958.467685483803
 21
18821.8255904132
 31
0.0
  0
LINE
  5
33D3
330
1F
100
AcDbEntity
  8
1
  6
Continuous
 62
     7
370
    13
100
AcDbLine
 10
6864.161285484034
 20
18955.54543041318
 30
0.0
 11
6864.161285484034
 21
18821.37903041322
 31
0.0
  0
LINE
  5
33D4
330
1F
100
AcDbEntity
  8
1
  6
Continuous
 62
     7
370
    13
100
AcDbLine
 10
6799.519125484104
 20
18955.54543041318
 30
0.0
 11
6864.161285484034
 21
18955.54543041318
 31
0.0
  0
LINE
  5
33D5
330
1F
100
AcDbEntity
  8
1
  6
Continuous
 62
     7
370
    13
100
AcDbLine
 10
6896.933445483622
 20
19058.92991041313
 30
0.0
 11
6880.560805484012
 21
19041.21767041316
 31
0.0
  0
LINE
  5
33D6
330
1F
100
AcDbEntity
  8
1
  6
Continuous
 62
     7
370
    13
100
AcDbLine
 10
7262.589605483983
 20
18594.66007041322
 30
0.0
 11
7262.589605483983
 21
19279.89559041321
 31
0.0
  0
CIRCLE
  5
33D7
330
1F
100
AcDbEntity
  8
1
  6
Continuous
 62
     7
370
    13
100
AcDbCircle
 10
8750.761045483697
 20
19615.13407041318
 30
0.0
 40
140.0
  0
LINE
  5
33D8
330
1F
100
AcDbEntity
  8
1
  6
Continuous
 62
     7
370
    13
100
AcDbLine
 10
8750.761045483697
 20
19831.2220704132
 30
0.0
 11
8750.761045483697
 21
19400.61999041324
 31
0.0
  0
LINE
  5
33D9
330
1F
100
AcDbEntity
  8
1
  6
Continuous
 62
     7
370
    13
100
AcDbLine
 10
8870.761045483698
 20
18955.97439041317
 30
0.0
 11
8967.281445483852
 21
19121.94967041315
 31
0.0
  0
LINE
  5
33DA
330
1F
100
AcDbEntity
  8
1
  6
Continuous
 62
     7
370
    13
100
AcDbLine
 10
8870.761045483698
 20
19014.92519041319
 30
0.0
 11
8630.761045483698
 21
19014.92519041319
 31
0.0
  0
LINE
  5
33DB
330
1F
100
AcDbEntity
  8
1
  6
Continuous
 62
     7
370
    13
100
AcDbLine
 10
8630.761045483698
 20
18894.92519041319
 30
0.0
 11
8870.761045483698
 21
18894.92519041319
 31
0.0
  0
LINE
  5
33DC
330
1F
100
AcDbEntity
  8
1
  6
Continuous
 62
     7
370
    13
100
AcDbLine
 10
8630.761045483698
 20
19014.92519041319
 30
0.0
 11
8630.761045483698
 21
18894.92519041319
 31
0.0
  0
LINE
  5
33DD
330
1F
100
AcDbEntity
  8
1
  6
Continuous
 62
     7
370
    13
100
AcDbLine
 10
8870.761045483698
 20
18894.92519041319
 30
0.0
 11
8870.761045483698
 21
19014.92519041319
 31
0.0
  0
LINE
  5
33DE
330
1F
100
AcDbEntity
  8
1
  6
Continuous
 62
     7
370
    13
100
AcDbLine
 10
8527.983365483988
 20
19615.13407041318
 30
0.0
 11
8969.70608548395
 21
19615.13407041318
 31
0.0
  0
TEXT
  5
33DF
330
1F
100
AcDbEntity
  8
1
  6
Continuous
 62
     7
370
    13
100
AcDbText
 10
9431.414005484141
 20
18125.32735041313
 30
0.0
 40
240.0
  1
解錠表示灯(赤)
 41
0.9916669999999999
  7
KANJI
100
AcDbText
  0
LINE
  5
33E0
330
1F
100
AcDbEntity
  8
1
  6
Continuous
 62
     7
370
    13
100
AcDbLine
 10
9403.841045483888
 20
18125.32735041313
 30
0.0
 11
11223.41400548367
 21
18125.32735041313
 31
0.0
  0
TEXT
  5
33E1
330
1F
100
AcDbEntity
  8
1
  6
Continuous
 62
     7
370
    13
100
AcDbText
 10
9416.59744548396
 20
19485.72479041322
 30
0.0
 40
240.0
  1
電源表示灯(赤)
 41
0.9916669999999999
  7
KANJI
100
AcDbText
  0
LINE
  5
33E2
330
1F
100
AcDbEntity
  8
1
  6
Continuous
 62
     7
370
    13
100
AcDbLine
 10
9403.841045483888
 20
19485.72479041322
 30
0.0
 11
11208.59744548407
 21
19485.72479041322
 31
0.0
  0
TEXT
  5
33E3
330
1F
100
AcDbEntity
  8
1
  6
Continuous
 62
     7
370
    13
100
AcDbText
 10
9420.124965483729
 20
18797.72919041322
 30
0.0
 40
240.0
  1
照合表示灯(緑）
 41
1.0625
  7
KANJI
100
AcDbText
  0
LINE
  5
33E4
330
1F
100
AcDbEntity
  8
1
  6
Continuous
 62
     7
370
    13
100
AcDbLine
 10
9403.841045483888
 20
18797.72919041322
 30
0.0
 11
11332.12496548384
 21
18797.72919041322
 31
0.0
  0
LINE
  5
33E5
330
1F
100
AcDbEntity
  8
1
  6
Continuous
 62
     7
370
    13
100
AcDbLine
 10
9390.761045483698
 20
20375.13407041318
 30
0.0
 11
9870.761045483698
 21
20375.13407041318
 31
0.0
  0
LINE
  5
33E6
330
1F
100
AcDbEntity
  8
1
  6
Continuous
 62
     7
370
    13
100
AcDbLine
 10
9230.761045483697
 20
20095.13407041318
 30
0.0
 11
9870.761045483698
 21
20095.13407041318
 31
0.0
  0
LINE
  5
33E7
330
1F
100
AcDbEntity
  8
1
  6
Continuous
 62
     7
370
    13
100
AcDbLine
 10
9310.761045483697
 20
19999.13407041312
 30
0.0
 11
9230.761045483697
 21
19999.13407041312
 31
0.0
  0
LINE
  5
33E8
330
1F
100
AcDbEntity
  8
1
  6
Continuous
 62
     7
370
    13
100
AcDbLine
 10
9950.761045483698
 20
20175.13407041318
 30
0.0
 11
9870.761045483698
 21
20095.13407041318
 31
0.0
  0
LINE
  5
33E9
330
1F
100
AcDbEntity
  8
1
  6
Continuous
 62
     7
370
    13
100
AcDbLine
 10
9870.761045483698
 20
20655.13407041318
 30
0.0
 11
9950.761045483698
 21
20575.13407041318
 31
0.0
  0
LINE
  5
33EA
330
1F
100
AcDbEntity
  8
1
  6
Continuous
 62
     7
370
    13
100
AcDbLine
 10
16695.56104548409
 20
20654.56079041323
 30
0.0
 11
16695.56104548409
 21
20094.56079041322
 31
0.0
  0
LINE
  5
33EB
330
1F
100
AcDbEntity
  8
1
  6
Continuous
 62
     7
370
    13
100
AcDbLine
 10
16615.56104548409
 20
20654.56079041323
 30
0.0
 11
16615.56104548409
 21
20094.56079041322
 31
0.0
  0
LINE
  5
33EC
330
1F
100
AcDbEntity
  8
1
  6
Continuous
 62
     7
370
    13
100
AcDbLine
 10
15547.43928548373
 20
16724.71455041318
 30
0.0
 11
15627.43928548373
 21
16708.71455041313
 31
0.0
  0
LINE
  5
33ED
330
1F
100
AcDbEntity
  8
1
  6
Continuous
 62
     7
370
    13
100
AcDbLine
 10
15627.43928548373
 20
17044.71455041318
 30
0.0
 11
15547.43928548373
 21
17028.71455041313
 31
0.0
  0
LINE
  5
33EE
330
1F
100
AcDbEntity
  8
1
  6
Continuous
 62
     7
370
    13
100
AcDbLine
 10
15547.43928548373
 20
17748.02415041325
 30
0.0
 11
15867.43928548373
 21
17748.02415041325
 31
0.0
  0
LINE
  5
33EF
330
1F
100
AcDbEntity
  8
1
  6
Continuous
 62
     7
370
    13
100
AcDbLine
 10
15867.43928548373
 20
18424.41559041311
 30
0.0
 11
15547.43928548373
 21
18424.41559041311
 31
0.0
  0
LINE
  5
33F0
330
1F
100
AcDbEntity
  8
1
  6
Continuous
 62
     7
370
    13
100
AcDbLine
 10
15361.24272548378
 20
17222.78855041323
 30
0.0
 11
15867.43928548373
 21
17222.78855041323
 31
0.0
  0
LINE
  5
33F1
330
1F
100
AcDbEntity
  8
1
  6
Continuous
 62
     7
370
    13
100
AcDbLine
 10
15547.43928548373
 20
17028.71455041313
 30
0.0
 11
15547.43928548373
 21
16724.71455041318
 31
0.0
  0
LINE
  5
33F2
330
1F
100
AcDbEntity
  8
1
  6
Continuous
 62
     7
370
    13
100
AcDbLine
 10
15467.43928548373
 20
18233.41983041318
 30
0.0
 11
15467.43928548373
 21
18086.21983041317
 31
0.0
  0
LINE
  5
33F3
330
1F
100
AcDbEntity
  8
1
  6
Continuous
 62
     7
370
    13
100
AcDbLine
 10
15547.43928548373
 20
18424.41559041311
 30
0.0
 11
15547.43928548373
 21
17748.02415041325
 31
0.0
  0
LINE
  5
33F4
330
1F
100
AcDbEntity
  8
1
  6
Continuous
 62
     7
370
    13
100
AcDbLine
 10
15361.24272548378
 20
17908.02415041325
 30
0.0
 11
15547.43928548373
 21
17908.02415041325
 31
0.0
  0
LINE
  5
33F5
330
1F
100
AcDbEntity
  8
1
  6
Continuous
 62
     7
370
    13
100
AcDbLine
 10
15467.43928548373
 20
18086.21983041317
 30
0.0
 11
15547.43928548373
 21
18086.21983041317
 31
0.0
  0
LINE
  5
33F6
330
1F
100
AcDbEntity
  8
1
  6
Continuous
 62
     7
370
    13
100
AcDbLine
 10
15547.43928548373
 20
18233.41983041318
 30
0.0
 11
15467.43928548373
 21
18233.41983041318
 31
0.0
  0
LINE
  5
33F7
330
1F
100
AcDbEntity
  8
1
  6
Continuous
 62
     7
370
    13
100
AcDbLine
 10
16408.58456548379
 20
18000.05151041317
 30
0.0
 11
16408.58456548379
 21
17130.12327041316
 31
0.0
  0
LINE
  5
33F8
330
1F
100
AcDbEntity
  8
1
  6
Continuous
 62
     7
370
    13
100
AcDbLine
 10
16301.16896548384
 20
17427.56847041324
 30
0.0
 11
16301.16896548384
 21
18301.02095041321
 31
0.0
  0
LINE
  5
33F9
330
1F
100
AcDbEntity
  8
1
  6
Continuous
 62
     7
370
    13
100
AcDbLine
 10
15867.43928548373
 20
17116.71455041315
 30
0.0
 11
15627.43928548373
 21
17116.71455041315
 31
0.0
  0
LINE
  5
33FA
330
1F
100
AcDbEntity
  8
1
  6
Continuous
 62
     7
370
    13
100
AcDbLine
 10
16410.35048548382
 20
17427.56847041324
 30
0.0
 11
16301.16896548384
 21
17427.56847041324
 31
0.0
  0
LINE
  5
33FB
330
1F
100
AcDbEntity
  8
1
  6
Continuous
 62
     7
370
    13
100
AcDbLine
 10
15361.24272548378
 20
18593.51351041317
 30
0.0
 11
15867.43928548373
 21
18593.51351041317
 31
0.0
  0
LINE
  5
33FC
330
1F
100
AcDbEntity
  8
1
  6
Continuous
 62
     7
370
    13
100
AcDbLine
 10
15867.43928548373
 20
19278.74903041316
 30
0.0
 11
15361.24272548378
 21
19278.74903041316
 31
0.0
  0
LINE
  5
33FD
330
1F
100
AcDbEntity
  8
1
  6
Continuous
 62
     7
370
    13
100
AcDbLine
 10
16174.43176548363
 20
18610.22775041317
 30
0.0
 11
16174.43176548363
 21
19166.56975041318
 31
0.0
  0
LINE
  5
33FE
330
1F
100
AcDbEntity
  8
1
  6
Continuous
 62
     7
370
    13
100
AcDbLine
 10
15993.88640548411
 20
19565.6748704132
 30
0.0
 11
15993.88640548411
 21
19942.14255041311
 31
0.0
  0
LINE
  5
33FF
330
1F
100
AcDbEntity
  8
1
  6
Continuous
 62
     7
370
    13
100
AcDbLine
 10
15867.43928548373
 20
20013.98751041313
 30
0.0
 11
15993.88640548411
 21
20013.98751041313
 31
0.0
  0
LINE
  5
3400
330
1F
100
AcDbEntity
  8
1
  6
Continuous
 62
     7
370
    13
100
AcDbLine
 10
16615.56104548409
 20
20174.56079041322
 30
0.0
 11
16695.56104548409
 21
20174.56079041322
 31
0.0
  0
LINE
  5
3401
330
1F
100
AcDbEntity
  8
1
  6
Continuous
 62
     7
370
    13
100
AcDbLine
 10
16615.56104548409
 20
20574.56079041322
 30
0.0
 11
16695.56104548409
 21
20574.56079041322
 31
0.0
  0
LINE
  5
3402
330
1F
100
AcDbEntity
  8
1
  6
Continuous
 62
     7
370
    13
100
AcDbLine
 10
16945.11392548406
 20
15775.13407041318
 30
0.0
 11
16945.11392548406
 21
20013.98751041313
 31
0.0
  0
LINE
  5
3403
330
1F
100
AcDbEntity
  8
1
  6
Continuous
 62
     7
370
    13
100
AcDbLine
 10
17071.56104548386
 20
20013.98751041313
 30
0.0
 11
17071.56104548386
 21
15775.13407041318
 31
0.0
  0
LINE
  5
3404
330
1F
100
AcDbEntity
  8
1
  6
Continuous
 62
     7
370
    13
100
AcDbLine
 10
17471.56104548386
 20
20094.56079041322
 30
0.0
 11
17471.56104548386
 21
15694.56079041323
 31
0.0
  0
LINE
  5
3405
330
1F
100
AcDbEntity
  8
1
  6
Continuous
 62
     7
370
    13
100
AcDbLine
 10
17551.56104548386
 20
20654.56079041323
 30
0.0
 11
17551.56104548386
 21
15134.56079041323
 31
0.0
  0
LINE
  5
3406
330
1F
100
AcDbEntity
  8
1
  6
Continuous
 62
     7
370
    13
100
AcDbLine
 10
21994.79376548394
 20
14864.45095041315
 30
0.0
 11
22433.62920548376
 21
14864.45095041315
 31
0.0
  0
LINE
  5
3407
330
1F
100
AcDbEntity
  8
1
  6
Continuous
 62
     7
370
    13
100
AcDbLine
 10
22433.62920548376
 20
14778.77895041324
 30
0.0
 11
21994.79376548394
 21
14778.77895041324
 31
0.0
  0
LINE
  5
3408
330
1F
100
AcDbEntity
  8
1
  6
Continuous
 62
     7
370
    13
100
AcDbLine
 10
21993.01448548404
 20
14319.55463041318
 30
0.0
 11
22440.41448548395
 21
14319.55463041318
 31
0.0
  0
LINE
  5
3409
330
1F
100
AcDbEntity
  8
1
  6
Continuous
 62
     7
370
    13
100
AcDbLine
 10
22440.41448548395
 20
14233.88263041313
 30
0.0
 11
21993.01448548404
 21
14233.88263041313
 31
0.0
  0
LINE
  5
340A
330
1F
100
AcDbEntity
  8
1
  6
Continuous
 62
     7
370
    13
100
AcDbLine
 10
21994.79376548394
 20
13795.04263041322
 30
0.0
 11
22433.62920548376
 21
13795.04263041322
 31
0.0
  0
LINE
  5
340B
330
1F
100
AcDbEntity
  8
1
  6
Continuous
 62
     7
370
    13
100
AcDbLine
 10
22433.62920548376
 20
13709.37063041317
 30
0.0
 11
21994.79376548394
 21
13709.37063041317
 31
0.0
  0
LINE
  5
340C
330
1F
100
AcDbEntity
  8
1
  6
Continuous
 62
     7
370
    13
100
AcDbLine
 10
21996.75464548362
 20
12334.79463041323
 30
0.0
 11
22357.12264548364
 21
12334.79463041323
 31
0.0
  0
LINE
  5
340D
330
1F
100
AcDbEntity
  8
1
  6
Continuous
 62
     7
370
    13
100
AcDbLine
 10
22357.12264548364
 20
12252.93063041317
 30
0.0
 11
21996.75464548362
 21
12252.93063041317
 31
0.0
  0
LINE
  5
340E
330
1F
100
AcDbEntity
  8
1
  6
Continuous
 62
     7
370
    13
100
AcDbLine
 10
22003.96128548384
 20
12030.17863041313
 30
0.0
 11
22350.45728548389
 21
12030.17863041313
 31
0.0
  0
LINE
  5
340F
330
1F
100
AcDbEntity
  8
1
  6
Continuous
 62
     7
370
    13
100
AcDbLine
 10
22350.45728548389
 20
11948.31463041322
 30
0.0
 11
22003.96128548384
 21
11948.31463041322
 31
0.0
  0
LINE
  5
3410
330
1F
100
AcDbEntity
  8
1
  6
Continuous
 62
     7
370
    13
100
AcDbLine
 10
20375.18712548382
 20
13024.63631041318
 30
0.0
 11
20310.19008548365
 21
12979.12311041319
 31
0.0
  0
LINE
  5
3411
330
1F
100
AcDbEntity
  8
1
  6
Continuous
 62
     7
370
    13
100
AcDbLine
 10
20101.01560548372
 20
13013.58471041312
 30
0.0
 11
20036.01848548412
 21
12968.07151041313
 31
0.0
  0
LINE
  5
3412
330
1F
100
AcDbEntity
  8
1
  6
Continuous
 62
     7
370
    13
100
AcDbLine
 10
19339.77920548367
 20
11912.14847041322
 30
0.0
 11
20275.09752548375
 21
11912.14847041322
 31
0.0
  0
LINE
  5
3413
330
1F
100
AcDbEntity
  8
1
  6
Continuous
 62
     7
370
    13
100
AcDbLine
 10
19339.77920548367
 20
12082.92663041312
 30
0.0
 11
20128.6172854838
 21
12082.92663041312
 31
0.0
  0
LINE
  5
3414
330
1F
100
AcDbEntity
  8
1
  6
Continuous
 62
     7
370
    13
100
AcDbLine
 10
19339.77920548367
 20
12214.08695041318
 30
0.0
 11
19902.38752548367
 21
12214.08695041318
 31
0.0
  0
LINE
  5
3415
330
1F
100
AcDbEntity
  8
1
  6
Continuous
 62
     7
370
    13
100
AcDbLine
 10
19339.77920548367
 20
12385.45951041319
 30
0.0
 11
19683.22000548377
 21
12385.45951041319
 31
0.0
  0
LINE
  5
3416
330
1F
100
AcDbEntity
  8
1
  6
Continuous
 62
     7
370
    13
100
AcDbLine
 10
17869.41440548416
 20
12558.19031041318
 30
0.0
 11
18394.87840548408
 21
12558.19031041318
 31
0.0
  0
LINE
  5
3417
330
1F
100
AcDbEntity
  8
1
  6
Continuous
 62
     7
370
    13
100
AcDbLine
 10
18394.87840548408
 20
11695.12607041323
 30
0.0
 11
17869.41440548416
 21
11695.12607041323
 31
0.0
  0
LINE
  5
3418
330
1F
100
AcDbEntity
  8
1
  6
Continuous
 62
     7
370
    13
100
AcDbLine
 10
17869.41440548416
 20
11695.12607041323
 30
0.0
 11
17869.41440548416
 21
12558.19031041318
 31
0.0
  0
LINE
  5
3419
330
1F
100
AcDbEntity
  8
1
  6
Continuous
 62
     7
370
    13
100
AcDbLine
 10
17455.61920548399
 20
11912.26647041315
 30
0.0
 11
17870.03408548381
 21
11912.26647041315
 31
0.0
  0
LINE
  5
341A
330
1F
100
AcDbEntity
  8
1
  6
Continuous
 62
     7
370
    13
100
AcDbLine
 10
16898.5075254839
 20
11912.26647041315
 30
0.0
 11
17455.61920548399
 21
11912.26647041315
 31
0.0
  0
LINE
  5
341B
330
1F
100
AcDbEntity
  8
1
  6
Continuous
 62
     7
370
    13
100
AcDbLine
 10
16963.34864548366
 20
11912.26647041315
 30
0.0
 11
17142.93224548414
 21
11912.26647041315
 31
0.0
  0
LINE
  5
341C
330
1F
100
AcDbEntity
  8
1
  6
Continuous
 62
     7
370
    13
100
AcDbLine
 10
17455.61920548399
 20
12083.04455041317
 30
0.0
 11
17869.43608548393
 21
12083.04455041317
 31
0.0
  0
LINE
  5
341D
330
1F
100
AcDbEntity
  8
1
  6
Continuous
 62
     7
370
    13
100
AcDbLine
 10
17455.61920548399
 20
12214.20487041322
 30
0.0
 11
17869.41488548374
 21
12214.20487041322
 31
0.0
  0
LINE
  5
341E
330
1F
100
AcDbEntity
  8
1
  6
Continuous
 62
     7
370
    13
100
AcDbLine
 10
17455.61920548399
 20
12385.57751041312
 30
0.0
 11
17869.41440548416
 21
12385.57751041312
 31
0.0
  0
LINE
  5
341F
330
1F
100
AcDbEntity
  8
1
  6
Continuous
 62
     7
370
    13
100
AcDbLine
 10
16939.39984548388
 20
12083.04455041317
 30
0.0
 11
17455.61920548399
 21
12083.04455041317
 31
0.0
  0
LINE
  5
3420
330
1F
100
AcDbEntity
  8
1
  6
Continuous
 62
     7
370
    13
100
AcDbLine
 10
16967.10808548395
 20
12214.20487041322
 30
0.0
 11
17455.61920548399
 21
12214.20487041322
 31
0.0
  0
LINE
  5
3421
330
1F
100
AcDbEntity
  8
1
  6
Continuous
 62
     7
370
    13
100
AcDbLine
 10
16952.63720548379
 20
12385.57751041312
 30
0.0
 11
17455.61920548399
 21
12385.57751041312
 31
0.0
  0
LINE
  5
3422
330
1F
100
AcDbEntity
  8
1
  6
Continuous
 62
     7
370
    13
100
AcDbLine
 10
16952.63720548379
 20
12385.57751041312
 30
0.0
 11
17142.93224548414
 21
12385.57751041312
 31
0.0
  0
LINE
  5
3423
330
1F
100
AcDbEntity
  8
1
  6
Continuous
 62
     7
370
    13
100
AcDbLine
 10
16967.10808548395
 20
12214.20487041322
 30
0.0
 11
17142.93224548414
 21
12214.20487041322
 31
0.0
  0
LINE
  5
3424
330
1F
100
AcDbEntity
  8
1
  6
Continuous
 62
     7
370
    13
100
AcDbLine
 10
16971.37000548379
 20
12083.04455041317
 30
0.0
 11
17142.93224548414
 21
12083.04455041317
 31
0.0
  0
TEXT
  5
3425
330
1F
100
AcDbEntity
  8
1
  6
Continuous
 62
     7
370
    13
100
AcDbText
 10
16930.9189654836
 20
12567.52951041314
 30
0.0
 40
240.0
  1
150mm
 41
0.566667
  7
KANJI
100
AcDbText
  0
LINE
  5
3426
330
1F
100
AcDbEntity
  8
1
  6
Continuous
 62
     7
370
    13
100
AcDbLine
 10
18394.87840548408
 20
12558.19031041318
 30
0.0
 11
18394.87840548408
 21
11695.12607041323
 31
0.0
  0
LINE
  5
3427
330
1F
100
AcDbEntity
  8
1
  6
Continuous
 62
     7
370
    13
100
AcDbLine
 10
18821.33656548411
 20
11695.12607041323
 30
0.0
 11
18821.33656548411
 21
12558.19031041318
 31
0.0
  0
LINE
  5
3428
330
1F
100
AcDbEntity
  8
1
  6
Continuous
 62
     7
370
    13
100
AcDbLine
 10
19346.80056548403
 20
12558.19031041318
 30
0.0
 11
19346.80056548403
 21
11695.12607041323
 31
0.0
  0
LINE
  5
3429
330
1F
100
AcDbEntity
  8
1
  6
Continuous
 62
     7
370
    13
100
AcDbLine
 10
18394.87840548408
 20
11522.51319041315
 30
0.0
 11
18394.87840548408
 21
12730.80319041313
 31
0.0
  0
LINE
  5
342A
330
1F
100
AcDbEntity
  8
1
  6
Continuous
 62
     7
370
    13
100
AcDbLine
 10
18821.34240548376
 20
12730.80319041313
 30
0.0
 11
18821.34240548376
 21
11522.51319041315
 31
0.0
  0
LINE
  5
342B
330
1F
100
AcDbEntity
  8
1
  6
Continuous
 62
     7
370
    13
100
AcDbLine
 10
19346.80056548403
 20
11695.12607041323
 30
0.0
 11
18821.33656548411
 21
11695.12607041323
 31
0.0
  0
LINE
  5
342C
330
1F
100
AcDbEntity
  8
1
  6
Continuous
 62
     7
370
    13
100
AcDbLine
 10
18821.34240548376
 20
11522.51319041315
 30
0.0
 11
18394.87840548408
 21
11522.51319041315
 31
0.0
  0
LINE
  5
342D
330
1F
100
AcDbEntity
  8
1
  6
Continuous
 62
     7
370
    13
100
AcDbLine
 10
18821.33656548411
 20
12558.19031041318
 30
0.0
 11
19346.80056548403
 21
12558.19031041318
 31
0.0
  0
LINE
  5
342E
330
1F
100
AcDbEntity
  8
1
  6
Continuous
 62
     7
370
    13
100
AcDbLine
 10
18394.87840548408
 20
12730.80319041313
 30
0.0
 11
18821.34240548376
 21
12730.80319041313
 31
0.0
  0
LINE
  5
342F
330
1F
100
AcDbEntity
  8
1
  6
Continuous
 62
     7
370
    13
100
AcDbLine
 10
19914.2967254839
 20
11129.23239041323
 30
0.0
 11
19906.98888548376
 21
11123.17903041315
 31
0.0
  0
LINE
  5
3430
330
1F
100
AcDbEntity
  8
1
  6
Continuous
 62
     7
370
    13
100
AcDbLine
 10
19661.84152548393
 20
11136.17447041324
 30
0.0
 11
19640.12512548378
 21
11118.18087041319
 31
0.0
  0
LINE
  5
3431
330
1F
100
AcDbEntity
  8
1
  6
Continuous
 62
     7
370
    13
100
AcDbLine
 10
19640.12512548378
 20
11118.18087041319
 30
0.0
 11
19632.81728548364
 21
11112.12743041323
 31
0.0
  0
LINE
  5
3432
330
1F
100
AcDbEntity
  8
1
  6
Continuous
 62
     7
370
    13
100
AcDbLine
 10
20560.8252854839
 20
11912.14847041322
 30
0.0
 11
21991.22664548415
 21
11912.14847041322
 31
0.0
  0
LINE
  5
3433
330
1F
100
AcDbEntity
  8
1
  6
Continuous
 62
     7
370
    13
100
AcDbLine
 10
20450.89272548403
 20
12082.92663041312
 30
0.0
 11
21991.22664548415
 21
12082.92663041312
 31
0.0
  0
LINE
  5
3434
330
1F
100
AcDbEntity
  8
1
  6
Continuous
 62
     7
370
    13
100
AcDbLine
 10
20272.00016548408
 20
12214.08695041318
 30
0.0
 11
21996.22248548391
 21
12214.08695041318
 31
0.0
  0
LINE
  5
3435
330
1F
100
AcDbEntity
  8
1
  6
Continuous
 62
     7
370
    13
100
AcDbLine
 10
19991.52520548395
 20
12385.45951041319
 30
0.0
 11
21991.22664548415
 21
12385.45951041319
 31
0.0
  0
LINE
  5
3436
330
1F
100
AcDbEntity
  8
1
  6
Continuous
 62
     7
370
    13
100
AcDbLine
 10
20450.90760548383
 20
12071.50815041313
 30
0.0
 11
20490.26344548404
 21
12033.73543041321
 31
0.0
  0
LINE
  5
3437
330
1F
100
AcDbEntity
  8
1
  6
Continuous
 62
     7
370
    13
100
AcDbLine
 10
20176.73600548372
 20
12060.45655041321
 30
0.0
 11
20216.09184548392
 21
12022.68383041315
 31
0.0
  0
LINE
  5
3438
330
1F
100
AcDbEntity
  8
1
  6
Continuous
 62
     7
370
    13
100
AcDbLine
 10
20216.18352548411
 20
11386.6596704132
 30
0.0
 11
20144.79984548367
 21
11323.36263041317
 31
0.0
  0
LINE
  5
3439
330
1F
100
AcDbEntity
  8
1
  6
Continuous
 62
     7
370
    13
100
AcDbLine
 10
20197.40016548388
 20
11646.23743041316
 30
0.0
 11
20145.39664548373
 21
11580.34855041317
 31
0.0
  0
LINE
  5
343A
330
1F
100
AcDbEntity
  8
1
  6
Continuous
 62
     7
370
    13
100
AcDbLine
 10
19870.62824548414
 20
11312.31103041325
 30
0.0
 11
19803.95096548384
 21
11255.03807041313
 31
0.0
  0
LINE
  5
343B
330
1F
100
AcDbEntity
  8
1
  6
Continuous
 62
     7
370
    13
100
AcDbLine
 10
19697.30552548385
 20
11165.60503041313
 30
0.0
 11
19661.84152548393
 21
11136.17447041324
 31
0.0
  0
LINE
  5
343C
330
1F
100
AcDbEntity
  8
1
  6
Continuous
 62
     7
370
    13
100
AcDbLine
 10
19745.30304548406
 20
11205.62487041315
 30
0.0
 11
19697.30552548385
 21
11165.60503041313
 31
0.0
  0
LINE
  5
343D
330
1F
100
AcDbEntity
  8
1
  6
Continuous
 62
     7
370
    13
100
AcDbLine
 10
19803.95096548384
 20
11255.03807041313
 30
0.0
 11
19745.30304548406
 21
11205.62487041315
 31
0.0
  0
LINE
  5
343E
330
1F
100
AcDbEntity
  8
1
  6
Continuous
 62
     7
370
    13
100
AcDbLine
 10
19936.01312548405
 20
11147.22607041315
 30
0.0
 11
19914.2967254839
 21
11129.23239041323
 31
0.0
  0
LINE
  5
343F
330
1F
100
AcDbEntity
  8
1
  6
Continuous
 62
     7
370
    13
100
AcDbLine
 10
19971.47712548397
 20
11176.65663041319
 30
0.0
 11
19936.01312548405
 21
11147.22607041315
 31
0.0
  0
LINE
  5
3440
330
1F
100
AcDbEntity
  8
1
  6
Continuous
 62
     7
370
    13
100
AcDbLine
 10
20019.47464548418
 20
11216.67647041321
 30
0.0
 11
19971.47712548397
 21
11176.65663041319
 31
0.0
  0
LINE
  5
3441
330
1F
100
AcDbEntity
  8
1
  6
Continuous
 62
     7
370
    13
100
AcDbLine
 10
20078.12256548396
 20
11266.08967041319
 30
0.0
 11
20019.47464548418
 21
11216.67647041321
 31
0.0
  0
LINE
  5
3442
330
1F
100
AcDbEntity
  8
1
  6
Continuous
 62
     7
370
    13
100
AcDbLine
 10
20144.79984548367
 20
11323.36263041317
 30
0.0
 11
20078.12256548396
 21
11266.08967041319
 31
0.0
  0
LINE
  5
3443
330
1F
100
AcDbEntity
  8
1
  6
Continuous
 62
     7
370
    13
100
AcDbLine
 10
19942.01192548399
 20
11375.60807041314
 30
0.0
 11
19870.62824548414
 21
11312.31103041325
 31
0.0
  0
LINE
  5
3444
330
1F
100
AcDbEntity
  8
1
  6
Continuous
 62
     7
370
    13
100
AcDbLine
 10
20014.25632548361
 20
11442.85735041324
 30
0.0
 11
19942.01192548399
 21
11375.60807041314
 31
0.0
  0
LINE
  5
3445
330
1F
100
AcDbEntity
  8
1
  6
Continuous
 62
     7
370
    13
100
AcDbLine
 10
20083.31896548409
 20
11511.84775041314
 30
0.0
 11
20014.25632548361
 21
11442.85735041324
 31
0.0
  0
LINE
  5
3446
330
1F
100
AcDbEntity
  8
1
  6
Continuous
 62
     7
370
    13
100
AcDbLine
 10
20145.39664548373
 20
11580.34855041317
 30
0.0
 11
20083.31896548409
 21
11511.84775041314
 31
0.0
  0
LINE
  5
3447
330
1F
100
AcDbEntity
  8
1
  6
Continuous
 62
     7
370
    13
100
AcDbLine
 10
20419.56824548385
 20
11591.40015041324
 30
0.0
 11
20357.49056548363
 21
11522.8993504132
 31
0.0
  0
LINE
  5
3448
330
1F
100
AcDbEntity
  8
1
  6
Continuous
 62
     7
370
    13
100
AcDbLine
 10
20288.42792548373
 20
11453.90887041313
 30
0.0
 11
20216.18352548411
 21
11386.6596704132
 31
0.0
  0
LINE
  5
3449
330
1F
100
AcDbEntity
  8
1
  6
Continuous
 62
     7
370
    13
100
AcDbLine
 10
20357.49056548363
 20
11522.8993504132
 30
0.0
 11
20288.42792548373
 21
11453.90887041313
 31
0.0
  0
LINE
  5
344A
330
1F
100
AcDbEntity
  8
1
  6
Continuous
 62
     7
370
    13
100
AcDbLine
 10
20511.54656548361
 20
11718.67111041312
 30
0.0
 11
20471.57176548399
 21
11657.28903041322
 31
0.0
  0
LINE
  5
344B
330
1F
100
AcDbEntity
  8
1
  6
Continuous
 62
     7
370
    13
100
AcDbLine
 10
20471.57176548399
 20
11657.28903041322
 30
0.0
 11
20419.56824548385
 21
11591.40015041324
 31
0.0
  0
LINE
  5
344C
330
1F
100
AcDbEntity
  8
1
  6
Continuous
 62
     7
370
    13
100
AcDbLine
 10
20237.37496548407
 20
11707.6195104132
 30
0.0
 11
20197.40016548388
 21
11646.23743041316
 31
0.0
  0
LINE
  5
344D
330
1F
100
AcDbEntity
  8
1
  6
Continuous
 62
     7
370
    13
100
AcDbLine
 10
20264.77552548417
 20
11762.91959041321
 30
0.0
 11
20237.37496548407
 21
11707.6195104132
 31
0.0
  0
LINE
  5
344E
330
1F
100
AcDbEntity
  8
1
  6
Continuous
 62
     7
370
    13
100
AcDbLine
 10
20280.52224548376
 20
11810.93255041312
 30
0.0
 11
20264.77552548417
 21
11762.91959041321
 31
0.0
  0
LINE
  5
344F
330
1F
100
AcDbEntity
  8
1
  6
Continuous
 62
     7
370
    13
100
AcDbLine
 10
20286.81144548364
 20
11850.82607041316
 30
0.0
 11
20280.52224548376
 21
11810.93255041312
 31
0.0
  0
LINE
  5
3450
330
1F
100
AcDbEntity
  8
1
  6
Continuous
 62
     7
370
    13
100
AcDbLine
 10
20286.69592548411
 20
11882.09815041321
 30
0.0
 11
20286.81144548364
 21
11850.82607041316
 31
0.0
  0
LINE
  5
3451
330
1F
100
AcDbEntity
  8
1
  6
Continuous
 62
     7
370
    13
100
AcDbLine
 10
20283.5064054841
 20
11904.50087041317
 30
0.0
 11
20286.69592548411
 21
11882.09815041321
 31
0.0
  0
LINE
  5
3452
330
1F
100
AcDbEntity
  8
1
  6
Continuous
 62
     7
370
    13
100
AcDbLine
 10
20280.21736548416
 20
11917.94807041325
 30
0.0
 11
20283.5064054841
 21
11904.50087041317
 31
0.0
  0
LINE
  5
3453
330
1F
100
AcDbEntity
  8
1
  6
Continuous
 62
     7
370
    13
100
AcDbLine
 10
20278.87768548406
 20
11922.42919041323
 30
0.0
 11
20280.21736548416
 21
11917.94807041325
 31
0.0
  0
LINE
  5
3454
330
1F
100
AcDbEntity
  8
1
  6
Continuous
 62
     7
370
    13
100
AcDbLine
 10
20277.41976548411
 20
11926.88879041321
 30
0.0
 11
20278.87768548406
 21
11922.42919041323
 31
0.0
  0
LINE
  5
3455
330
1F
100
AcDbEntity
  8
1
  6
Continuous
 62
     7
370
    13
100
AcDbLine
 10
20272.40016548387
 20
11940.02079041325
 30
0.0
 11
20277.41976548411
 21
11926.88879041321
 31
0.0
  0
LINE
  5
3456
330
1F
100
AcDbEntity
  8
1
  6
Continuous
 62
     7
370
    13
100
AcDbLine
 10
20262.06424548366
 20
11961.11823041311
 30
0.0
 11
20272.40016548387
 21
11940.02079041325
 31
0.0
  0
LINE
  5
3457
330
1F
100
AcDbEntity
  8
1
  6
Continuous
 62
     7
370
    13
100
AcDbLine
 10
20244.05096548393
 20
11989.10775041323
 30
0.0
 11
20262.06424548366
 21
11961.11823041311
 31
0.0
  0
LINE
  5
3458
330
1F
100
AcDbEntity
  8
1
  6
Continuous
 62
     7
370
    13
100
AcDbLine
 10
20216.09184548392
 20
12022.68383041315
 30
0.0
 11
20244.05096548393
 21
11989.10775041323
 31
0.0
  0
LINE
  5
3459
330
1F
100
AcDbEntity
  8
1
  6
Continuous
 62
     7
370
    13
100
AcDbLine
 10
20538.94712548371
 20
11773.97119041313
 30
0.0
 11
20511.54656548361
 21
11718.67111041312
 31
0.0
  0
LINE
  5
345A
330
1F
100
AcDbEntity
  8
1
  6
Continuous
 62
     7
370
    13
100
AcDbLine
 10
20554.69384548388
 20
11821.98415041318
 30
0.0
 11
20538.94712548371
 21
11773.97119041313
 31
0.0
  0
LINE
  5
345B
330
1F
100
AcDbEntity
  8
1
  6
Continuous
 62
     7
370
    13
100
AcDbLine
 10
20560.98304548376
 20
11861.87767041323
 30
0.0
 11
20554.69384548388
 21
11821.98415041318
 31
0.0
  0
LINE
  5
345C
330
1F
100
AcDbEntity
  8
1
  6
Continuous
 62
     7
370
    13
100
AcDbLine
 10
20560.86752548365
 20
11893.14975041313
 30
0.0
 11
20560.98304548376
 21
11861.87767041323
 31
0.0
  0
LINE
  5
345D
330
1F
100
AcDbEntity
  8
1
  6
Continuous
 62
     7
370
    13
100
AcDbLine
 10
20557.67800548364
 20
11915.55247041323
 30
0.0
 11
20560.86752548365
 21
11893.14975041313
 31
0.0
  0
LINE
  5
345E
330
1F
100
AcDbEntity
  8
1
  6
Continuous
 62
     7
370
    13
100
AcDbLine
 10
20554.38896548369
 20
11928.99967041317
 30
0.0
 11
20557.67800548364
 21
11915.55247041323
 31
0.0
  0
LINE
  5
345F
330
1F
100
AcDbEntity
  8
1
  6
Continuous
 62
     7
370
    13
100
AcDbLine
 10
20553.0492854836
 20
11933.48079041315
 30
0.0
 11
20554.38896548369
 21
11928.99967041317
 31
0.0
  0
LINE
  5
3460
330
1F
100
AcDbEntity
  8
1
  6
Continuous
 62
     7
370
    13
100
AcDbLine
 10
20551.59128548362
 20
11937.94039041312
 30
0.0
 11
20553.0492854836
 21
11933.48079041315
 31
0.0
  0
LINE
  5
3461
330
1F
100
AcDbEntity
  8
1
  6
Continuous
 62
     7
370
    13
100
AcDbLine
 10
20546.57168548397
 20
11951.07239041317
 30
0.0
 11
20551.59128548362
 21
11937.94039041312
 31
0.0
  0
LINE
  5
3462
330
1F
100
AcDbEntity
  8
1
  6
Continuous
 62
     7
370
    13
100
AcDbLine
 10
20536.23584548378
 20
11972.16983041318
 30
0.0
 11
20546.57168548397
 21
11951.07239041317
 31
0.0
  0
LINE
  5
3463
330
1F
100
AcDbEntity
  8
1
  6
Continuous
 62
     7
370
    13
100
AcDbLine
 10
20518.22256548406
 20
12000.15935041315
 30
0.0
 11
20536.23584548378
 21
11972.16983041318
 31
0.0
  0
LINE
  5
3464
330
1F
100
AcDbEntity
  8
1
  6
Continuous
 62
     7
370
    13
100
AcDbLine
 10
20490.26344548404
 20
12033.73543041321
 30
0.0
 11
20518.22256548406
 21
12000.15935041315
 31
0.0
  0
LINE
  5
3465
330
1F
100
AcDbEntity
  8
1
  6
Continuous
 62
     7
370
    13
100
AcDbLine
 10
20134.6640854837
 20
12281.65879041319
 30
0.0
 11
20202.22104548377
 21
12239.98391041313
 31
0.0
  0
LINE
  5
3466
330
1F
100
AcDbEntity
  8
1
  6
Continuous
 62
     7
370
    13
100
AcDbLine
 10
20170.3392854841
 20
12875.01391041325
 30
0.0
 11
20103.22984548361
 21
12819.69359041322
 31
0.0
  0
LINE
  5
3467
330
1F
100
AcDbEntity
  8
1
  6
Continuous
 62
     7
370
    13
100
AcDbLine
 10
20125.91992548393
 20
12101.08327041321
 30
0.0
 11
20176.73600548372
 21
12060.45655041321
 31
0.0
  0
LINE
  5
3468
330
1F
100
AcDbEntity
  8
1
  6
Continuous
 62
     7
370
    13
100
AcDbLine
 10
19908.47968548379
 20
12541.90255041321
 30
0.0
 11
19909.2829654839
 21
12515.44367041321
 31
0.0
  0
LINE
  5
3469
330
1F
100
AcDbEntity
  8
1
  6
Continuous
 62
     7
370
    13
100
AcDbLine
 10
19634.30808548367
 20
12530.85095041314
 30
0.0
 11
19635.11136548378
 21
12504.39207041315
 31
0.0
  0
LINE
  5
346A
330
1F
100
AcDbEntity
  8
1
  6
Continuous
 62
     7
370
    13
100
AcDbLine
 10
19799.48120548407
 20
12310.56031041312
 30
0.0
 11
19860.49248548416
 21
12270.60719041313
 31
0.0
  0
LINE
  5
346B
330
1F
100
AcDbEntity
  8
1
  6
Continuous
 62
     7
370
    13
100
AcDbLine
 10
19748.21240548411
 20
12348.01863041313
 30
0.0
 11
19799.48120548407
 21
12310.56031041312
 31
0.0
  0
LINE
  5
346C
330
1F
100
AcDbEntity
  8
1
  6
Continuous
 62
     7
370
    13
100
AcDbLine
 10
19708.33240548398
 20
12382.12255041318
 30
0.0
 11
19748.21240548411
 21
12348.01863041313
 31
0.0
  0
LINE
  5
346D
330
1F
100
AcDbEntity
  8
1
  6
Continuous
 62
     7
370
    13
100
AcDbLine
 10
19679.83440548373
 20
12411.92695041317
 30
0.0
 11
19708.33240548398
 21
12382.12255041318
 31
0.0
  0
LINE
  5
346E
330
1F
100
AcDbEntity
  8
1
  6
Continuous
 62
     7
370
    13
100
AcDbLine
 10
19661.32592548401
 20
12436.45063041316
 30
0.0
 11
19679.83440548373
 21
12411.92695041317
 31
0.0
  0
LINE
  5
346F
330
1F
100
AcDbEntity
  8
1
  6
Continuous
 62
     7
370
    13
100
AcDbLine
 10
19650.59216548415
 20
12454.7635904132
 30
0.0
 11
19661.32592548401
 21
12436.45063041316
 31
0.0
  0
LINE
  5
3470
330
1F
100
AcDbEntity
  8
1
  6
Continuous
 62
     7
370
    13
100
AcDbLine
 10
19645.3152054841
 20
12466.09431041316
 30
0.0
 11
19650.59216548415
 21
12454.7635904132
 31
0.0
  0
LINE
  5
3471
330
1F
100
AcDbEntity
  8
1
  6
Continuous
 62
     7
370
    13
100
AcDbLine
 10
19643.76824548368
 20
12469.93103041313
 30
0.0
 11
19645.3152054841
 21
12466.09431041316
 31
0.0
  0
LINE
  5
3472
330
1F
100
AcDbEntity
  8
1
  6
Continuous
 62
     7
370
    13
100
AcDbLine
 10
19642.33840548392
 20
12473.78063041323
 30
0.0
 11
19643.76824548368
 21
12469.93103041313
 31
0.0
  0
LINE
  5
3473
330
1F
100
AcDbEntity
  8
1
  6
Continuous
 62
     7
370
    13
100
AcDbLine
 10
19638.77400548389
 20
12485.30071041313
 30
0.0
 11
19642.33840548392
 21
12473.78063041323
 31
0.0
  0
LINE
  5
3474
330
1F
100
AcDbEntity
  8
1
  6
Continuous
 62
     7
370
    13
100
AcDbLine
 10
19635.11136548378
 20
12504.39207041315
 30
0.0
 11
19638.77400548389
 21
12485.30071041313
 31
0.0
  0
LINE
  5
3475
330
1F
100
AcDbEntity
  8
1
  6
Continuous
 62
     7
370
    13
100
AcDbLine
 10
20073.65280548361
 20
12321.61191041319
 30
0.0
 11
20134.6640854837
 21
12281.65879041319
 31
0.0
  0
LINE
  5
3476
330
1F
100
AcDbEntity
  8
1
  6
Continuous
 62
     7
370
    13
100
AcDbLine
 10
20022.38400548364
 20
12359.07023041319
 30
0.0
 11
20073.65280548361
 21
12321.61191041319
 31
0.0
  0
LINE
  5
3477
330
1F
100
AcDbEntity
  8
1
  6
Continuous
 62
     7
370
    13
100
AcDbLine
 10
19982.5040054841
 20
12393.17407041322
 30
0.0
 11
20022.38400548364
 21
12359.07023041319
 31
0.0
  0
LINE
  5
3478
330
1F
100
AcDbEntity
  8
1
  6
Continuous
 62
     7
370
    13
100
AcDbLine
 10
19954.00600548385
 20
12422.97855041324
 30
0.0
 11
19982.5040054841
 21
12393.17407041322
 31
0.0
  0
LINE
  5
3479
330
1F
100
AcDbEntity
  8
1
  6
Continuous
 62
     7
370
    13
100
AcDbLine
 10
19935.49752548412
 20
12447.50223041322
 30
0.0
 11
19954.00600548385
 21
12422.97855041324
 31
0.0
  0
LINE
  5
347A
330
1F
100
AcDbEntity
  8
1
  6
Continuous
 62
     7
370
    13
100
AcDbLine
 10
19924.76376548368
 20
12465.81519041311
 30
0.0
 11
19935.49752548412
 21
12447.50223041322
 31
0.0
  0
LINE
  5
347B
330
1F
100
AcDbEntity
  8
1
  6
Continuous
 62
     7
370
    13
100
AcDbLine
 10
19919.48680548364
 20
12477.14591041323
 30
0.0
 11
19924.76376548368
 21
12465.81519041311
 31
0.0
  0
LINE
  5
347C
330
1F
100
AcDbEntity
  8
1
  6
Continuous
 62
     7
370
    13
100
AcDbLine
 10
19917.9398454838
 20
12480.98263041319
 30
0.0
 11
19919.48680548364
 21
12477.14591041323
 31
0.0
  0
LINE
  5
347D
330
1F
100
AcDbEntity
  8
1
  6
Continuous
 62
     7
370
    13
100
AcDbLine
 10
19916.51000548404
 20
12484.83223041315
 30
0.0
 11
19917.9398454838
 21
12480.98263041319
 31
0.0
  0
LINE
  5
347E
330
1F
100
AcDbEntity
  8
1
  6
Continuous
 62
     7
370
    13
100
AcDbLine
 10
19912.94560548401
 20
12496.3523104132
 30
0.0
 11
19916.51000548404
 21
12484.83223041315
 31
0.0
  0
LINE
  5
347F
330
1F
100
AcDbEntity
  8
1
  6
Continuous
 62
     7
370
    13
100
AcDbLine
 10
19909.2829654839
 20
12515.44367041321
 30
0.0
 11
19912.94560548401
 21
12496.3523104132
 31
0.0
  0
LINE
  5
3480
330
1F
100
AcDbEntity
  8
1
  6
Continuous
 62
     7
370
    13
100
AcDbLine
 10
20065.24080548394
 20
12143.36087041315
 30
0.0
 11
20125.91992548393
 21
12101.08327041321
 31
0.0
  0
LINE
  5
3481
330
1F
100
AcDbEntity
  8
1
  6
Continuous
 62
     7
370
    13
100
AcDbLine
 10
19997.85944548394
 20
12186.2646304132
 30
0.0
 11
20065.24080548394
 21
12143.36087041315
 31
0.0
  0
LINE
  5
3482
330
1F
100
AcDbEntity
  8
1
  6
Continuous
 62
     7
370
    13
100
AcDbLine
 10
19928.04944548366
 20
12228.93231041321
 30
0.0
 11
19997.85944548394
 21
12186.2646304132
 31
0.0
  0
LINE
  5
3483
330
1F
100
AcDbEntity
  8
1
  6
Continuous
 62
     7
370
    13
100
AcDbLine
 10
19860.49248548416
 20
12270.60719041313
 30
0.0
 11
19928.04944548366
 21
12228.93231041321
 31
0.0
  0
LINE
  5
3484
330
1F
100
AcDbEntity
  8
1
  6
Continuous
 62
     7
370
    13
100
AcDbLine
 10
19829.05824548407
 20
12808.64199041315
 30
0.0
 11
19768.87896548392
 21
12753.42847041319
 31
0.0
  0
LINE
  5
3485
330
1F
100
AcDbEntity
  8
1
  6
Continuous
 62
     7
370
    13
100
AcDbLine
 10
19639.67944548366
 20
12564.3208704132
 30
0.0
 11
19634.30808548367
 21
12530.85095041314
 31
0.0
  0
LINE
  5
3486
330
1F
100
AcDbEntity
  8
1
  6
Continuous
 62
     7
370
    13
100
AcDbLine
 10
19654.27024548366
 20
12604.24287041314
 30
0.0
 11
19639.67944548366
 21
12564.3208704132
 31
0.0
  0
LINE
  5
3487
330
1F
100
AcDbEntity
  8
1
  6
Continuous
 62
     7
370
    13
100
AcDbLine
 10
19680.28096548415
 20
12649.81623041312
 30
0.0
 11
19654.27024548366
 21
12604.24287041314
 31
0.0
  0
LINE
  5
3488
330
1F
100
AcDbEntity
  8
1
  6
Continuous
 62
     7
370
    13
100
AcDbLine
 10
19718.65304548369
 20
12699.98095041315
 30
0.0
 11
19680.28096548415
 21
12649.81623041312
 31
0.0
  0
LINE
  5
3489
330
1F
100
AcDbEntity
  8
1
  6
Continuous
 62
     7
370
    13
100
AcDbLine
 10
19768.87896548392
 20
12753.42847041319
 30
0.0
 11
19718.65304548369
 21
12699.98095041315
 31
0.0
  0
LINE
  5
348A
330
1F
100
AcDbEntity
  8
1
  6
Continuous
 62
     7
370
    13
100
AcDbLine
 10
19913.85104548378
 20
12575.37239041324
 30
0.0
 11
19908.47968548379
 21
12541.90255041321
 31
0.0
  0
LINE
  5
348B
330
1F
100
AcDbEntity
  8
1
  6
Continuous
 62
     7
370
    13
100
AcDbLine
 10
19928.44184548378
 20
12615.29439041317
 30
0.0
 11
19913.85104548378
 21
12575.37239041324
 31
0.0
  0
LINE
  5
348C
330
1F
100
AcDbEntity
  8
1
  6
Continuous
 62
     7
370
    13
100
AcDbLine
 10
19954.45256548369
 20
12660.86775041316
 30
0.0
 11
19928.44184548378
 21
12615.29439041317
 31
0.0
  0
LINE
  5
348D
330
1F
100
AcDbEntity
  8
1
  6
Continuous
 62
     7
370
    13
100
AcDbLine
 10
19992.8246454838
 20
12711.03247041319
 30
0.0
 11
19954.45256548369
 21
12660.86775041316
 31
0.0
  0
LINE
  5
348E
330
1F
100
AcDbEntity
  8
1
  6
Continuous
 62
     7
370
    13
100
AcDbLine
 10
20043.05056548403
 20
12764.47999041323
 30
0.0
 11
19992.8246454838
 21
12711.03247041319
 31
0.0
  0
LINE
  5
348F
330
1F
100
AcDbEntity
  8
1
  6
Continuous
 62
     7
370
    13
100
AcDbLine
 10
20103.22984548361
 20
12819.69359041322
 30
0.0
 11
20043.05056548403
 21
12764.47999041323
 31
0.0
  0
LINE
  5
3490
330
1F
100
AcDbEntity
  8
1
  6
Continuous
 62
     7
370
    13
100
AcDbLine
 10
19896.16768548398
 20
12863.96231041318
 30
0.0
 11
19829.05824548407
 21
12808.64199041315
 31
0.0
  0
LINE
  5
3491
330
1F
100
AcDbEntity
  8
1
  6
Continuous
 62
     7
370
    13
100
AcDbLine
 10
19966.477205484
 20
12917.66959041313
 30
0.0
 11
19896.16768548398
 21
12863.96231041318
 31
0.0
  0
LINE
  5
3492
330
1F
100
AcDbEntity
  8
1
  6
Continuous
 62
     7
370
    13
100
AcDbLine
 10
20036.01848548412
 20
12968.07151041313
 30
0.0
 11
19966.477205484
 21
12917.66959041313
 31
0.0
  0
LINE
  5
3493
330
1F
100
AcDbEntity
  8
1
  6
Continuous
 62
     7
370
    13
100
AcDbLine
 10
20400.09152548405
 20
12112.13479041325
 30
0.0
 11
20450.90760548383
 21
12071.50815041313
 31
0.0
  0
LINE
  5
3494
330
1F
100
AcDbEntity
  8
1
  6
Continuous
 62
     7
370
    13
100
AcDbLine
 10
20339.41240548406
 20
12154.41247041322
 30
0.0
 11
20400.09152548405
 21
12112.13479041325
 31
0.0
  0
LINE
  5
3495
330
1F
100
AcDbEntity
  8
1
  6
Continuous
 62
     7
370
    13
100
AcDbLine
 10
20272.03104548406
 20
12197.31623041312
 30
0.0
 11
20339.41240548406
 21
12154.41247041322
 31
0.0
  0
LINE
  5
3496
330
1F
100
AcDbEntity
  8
1
  6
Continuous
 62
     7
370
    13
100
AcDbLine
 10
20202.22104548377
 20
12239.98391041313
 30
0.0
 11
20272.03104548406
 21
12197.31623041312
 31
0.0
  0
LINE
  5
3497
330
1F
100
AcDbEntity
  8
1
  6
Continuous
 62
     7
370
    13
100
AcDbLine
 10
20240.64880548412
 20
12928.72119041319
 30
0.0
 11
20170.3392854841
 21
12875.01391041325
 31
0.0
  0
LINE
  5
3498
330
1F
100
AcDbEntity
  8
1
  6
Continuous
 62
     7
370
    13
100
AcDbLine
 10
20310.19008548365
 20
12979.12311041319
 30
0.0
 11
20240.64880548412
 21
12928.72119041319
 31
0.0
  0
LINE
  5
3499
330
1F
100
AcDbEntity
  8
1
  6
Continuous
 62
     7
370
    13
100
AcDbLine
 10
21996.75464548362
 20
12080.89535041318
 30
0.0
 11
21996.75464548362
 21
11910.11719041314
 31
0.0
  0
TEXT
  5
349A
330
1F
100
AcDbEntity
  8
1
  6
Continuous
 62
     7
370
    13
100
AcDbText
 10
20844.39096548379
 20
12428.09247041324
 30
0.0
 40
240.0
  1
150mm
 41
0.566667
  7
KANJI
100
AcDbText
  0
LINE
  5
349B
330
1F
100
AcDbEntity
  8
1
  6
Continuous
 62
     7
370
    13
100
AcDbLine
 10
21996.75464548362
 20
12383.42823041311
 30
0.0
 11
21996.75464548362
 21
12212.05567041324
 31
0.0
  0
LINE
  5
349C
330
1F
100
AcDbEntity
  8
1
  6
Continuous
 62
     7
370
    13
100
AcDbLine
 10
19339.77920548367
 20
13660.72591041316
 30
0.0
 11
20441.67760548373
 21
13660.72591041316
 31
0.0
  0
LINE
  5
349D
330
1F
100
AcDbEntity
  8
1
  6
Continuous
 62
     7
370
    13
100
AcDbLine
 10
19339.77920548367
 20
13830.83791041324
 30
0.0
 11
20560.97704548406
 21
13830.83791041324
 31
0.0
  0
LINE
  5
349E
330
1F
100
AcDbEntity
  8
1
  6
Continuous
 62
     7
370
    13
100
AcDbLine
 10
19339.77920548367
 20
14184.96015041324
 30
0.0
 11
20361.39120548399
 21
14184.96015041324
 31
0.0
  0
LINE
  5
349F
330
1F
100
AcDbEntity
  8
1
  6
Continuous
 62
     7
370
    13
100
AcDbLine
 10
19339.77920548367
 20
14357.57295041315
 30
0.0
 11
20095.62992548413
 21
14357.57295041315
 31
0.0
  0
LINE
  5
34A0
330
1F
100
AcDbEntity
  8
1
  6
Continuous
 62
     7
370
    13
100
AcDbLine
 10
19339.77920548367
 20
14728.49263041323
 30
0.0
 11
20014.83736548415
 21
14728.49263041323
 31
0.0
  0
LINE
  5
34A1
330
1F
100
AcDbEntity
  8
1
  6
Continuous
 62
     7
370
    13
100
AcDbLine
 10
19339.77920548367
 20
14899.28447041325
 30
0.0
 11
20192.32872548414
 21
14899.28447041325
 31
0.0
  0
LINE
  5
34A2
330
1F
100
AcDbEntity
  8
1
  6
Continuous
 62
     7
370
    13
100
AcDbLine
 10
17455.61920548399
 20
13660.72591041316
 30
0.0
 11
19339.77920548367
 21
13660.72591041316
 31
0.0
  0
LINE
  5
34A3
330
1F
100
AcDbEntity
  8
1
  6
Continuous
 62
     7
370
    13
100
AcDbLine
 10
17455.61920548399
 20
13830.83791041324
 30
0.0
 11
19339.77920548367
 21
13830.83791041324
 31
0.0
  0
LINE
  5
34A4
330
1F
100
AcDbEntity
  8
1
  6
Continuous
 62
     7
370
    13
100
AcDbLine
 10
17455.61920548399
 20
14184.96015041324
 30
0.0
 11
19339.77920548367
 21
14184.96015041324
 31
0.0
  0
LINE
  5
34A5
330
1F
100
AcDbEntity
  8
1
  6
Continuous
 62
     7
370
    13
100
AcDbLine
 10
17455.61920548399
 20
14357.57295041315
 30
0.0
 11
19339.77920548367
 21
14357.57295041315
 31
0.0
  0
LINE
  5
34A6
330
1F
100
AcDbEntity
  8
1
  6
Continuous
 62
     7
370
    13
100
AcDbLine
 10
17455.61920548399
 20
14728.49263041323
 30
0.0
 11
19339.77920548367
 21
14728.49263041323
 31
0.0
  0
LINE
  5
34A7
330
1F
100
AcDbEntity
  8
1
  6
Continuous
 62
     7
370
    13
100
AcDbLine
 10
16970.19440548395
 20
13660.72591041316
 30
0.0
 11
17455.61920548399
 21
13660.72591041316
 31
0.0
  0
LINE
  5
34A8
330
1F
100
AcDbEntity
  8
1
  6
Continuous
 62
     7
370
    13
100
AcDbLine
 10
16971.73504548397
 20
13830.83791041324
 30
0.0
 11
17455.61920548399
 21
13830.83791041324
 31
0.0
  0
LINE
  5
34A9
330
1F
100
AcDbEntity
  8
1
  6
Continuous
 62
     7
370
    13
100
AcDbLine
 10
16968.76576548401
 20
14184.96015041324
 30
0.0
 11
17455.61920548399
 21
14184.96015041324
 31
0.0
  0
LINE
  5
34AA
330
1F
100
AcDbEntity
  8
1
  6
Continuous
 62
     7
370
    13
100
AcDbLine
 10
16971.18904548365
 20
14357.57295041315
 30
0.0
 11
17455.61920548399
 21
14357.57295041315
 31
0.0
  0
LINE
  5
34AB
330
1F
100
AcDbEntity
  8
1
  6
Continuous
 62
     7
370
    13
100
AcDbLine
 10
16975.03824548405
 20
14728.49263041323
 30
0.0
 11
17455.61920548399
 21
14728.49263041323
 31
0.0
  0
TEXT
  5
34AC
330
1F
100
AcDbEntity
  8
1
  6
Continuous
 62
     7
370
    13
100
AcDbText
 10
18119.47896548389
 20
14975.06711041321
 30
0.0
 40
240.0
  1
200mm
 41
0.566667
  7
KANJI
100
AcDbText
  0
LINE
  5
34AD
330
1F
100
AcDbEntity
  8
1
  6
Continuous
 62
     7
370
    13
100
AcDbLine
 10
17455.61920548399
 20
14899.28447041325
 30
0.0
 11
19339.77920548367
 21
14899.28447041325
 31
0.0
  0
LINE
  5
34AE
330
1F
100
AcDbEntity
  8
1
  6
Continuous
 62
     7
370
    13
100
AcDbLine
 10
16975.03824548405
 20
14899.28447041325
 30
0.0
 11
17455.61920548399
 21
14899.28447041325
 31
0.0
  0
LINE
  5
34AF
330
1F
100
AcDbEntity
  8
1
  6
Continuous
 62
     7
370
    13
100
AcDbLine
 10
17471.56104548386
 20
15790.56079041314
 30
0.0
 11
17551.56104548386
 21
15790.56079041314
 31
0.0
  0
LINE
  5
34B0
330
1F
100
AcDbEntity
  8
1
  6
Continuous
 62
     7
370
    13
100
AcDbLine
 10
16945.11392548406
 20
16223.44671041311
 30
0.0
 11
16945.11392548406
 21
15846.9790304132
 31
0.0
  0
LINE
  5
34B1
330
1F
100
AcDbEntity
  8
1
  6
Continuous
 62
     7
370
    13
100
AcDbLine
 10
17071.56104548386
 20
15775.13407041318
 30
0.0
 11
16945.11392548406
 21
15775.13407041318
 31
0.0
  0
LINE
  5
34B2
330
1F
100
AcDbEntity
  8
1
  6
Continuous
 62
     7
370
    13
100
AcDbLine
 10
20399.37832548416
 20
14865.36311041316
 30
0.0
 11
20339.19912548403
 21
14810.1495904132
 31
0.0
  0
LINE
  5
34B3
330
1F
100
AcDbEntity
  8
1
  6
Continuous
 62
     7
370
    13
100
AcDbLine
 10
20125.20680548407
 20
14854.31159041312
 30
0.0
 11
20065.02752548392
 21
14799.09799041313
 31
0.0
  0
LINE
  5
34B4
330
1F
100
AcDbEntity
  8
1
  6
Continuous
 62
     7
370
    13
100
AcDbLine
 10
21991.93360548367
 20
14902.28375041318
 30
0.0
 11
21991.93360548367
 21
14731.17895041315
 31
0.0
  0
LINE
  5
34B5
330
1F
100
AcDbEntity
  8
1
  6
Continuous
 62
     7
370
    13
100
AcDbLine
 10
20807.69512548361
 20
13764.3406304132
 30
0.0
 11
20767.720325484
 21
13702.95855041316
 31
0.0
  0
LINE
  5
34B6
330
1F
100
AcDbEntity
  8
1
  6
Continuous
 62
     7
370
    13
100
AcDbLine
 10
20786.41200548404
 20
14079.40503041317
 30
0.0
 11
20814.37104548403
 21
14045.82887041323
 31
0.0
  0
LINE
  5
34B7
330
1F
100
AcDbEntity
  8
1
  6
Continuous
 62
     7
370
    13
100
AcDbLine
 10
21991.22664548415
 20
13660.72591041316
 30
0.0
 11
20734.38776548387
 21
13660.72591041316
 31
0.0
  0
LINE
  5
34B8
330
1F
100
AcDbEntity
  8
1
  6
Continuous
 62
     7
370
    13
100
AcDbLine
 10
20635.53320548398
 20
14184.96015041324
 30
0.0
 11
21991.22664548415
 21
14184.96015041324
 31
0.0
  0
LINE
  5
34B9
330
1F
100
AcDbEntity
  8
1
  6
Continuous
 62
     7
370
    13
100
AcDbLine
 10
20369.79056548402
 20
14357.57295041315
 30
0.0
 11
21991.22664548415
 21
14357.57295041315
 31
0.0
  0
LINE
  5
34BA
330
1F
100
AcDbEntity
  8
1
  6
Continuous
 62
     7
370
    13
100
AcDbLine
 10
21993.53792548371
 20
14728.17967041322
 30
0.0
 11
20250.54912548413
 21
14728.17967041322
 31
0.0
  0
LINE
  5
34BB
330
1F
100
AcDbEntity
  8
1
  6
Continuous
 62
     7
370
    13
100
AcDbLine
 10
20582.84448548412
 20
13927.76775041318
 30
0.0
 11
20582.96000548364
 21
13896.49559041324
 31
0.0
  0
LINE
  5
34BC
330
1F
100
AcDbEntity
  8
1
  6
Continuous
 62
     7
370
    13
100
AcDbLine
 10
20166.77680548414
 20
13357.98063041321
 30
0.0
 11
20100.09952548385
 21
13300.70767041324
 31
0.0
  0
LINE
  5
34BD
330
1F
100
AcDbEntity
  8
1
  6
Continuous
 62
     7
370
    13
100
AcDbLine
 10
20158.20680548396
 20
13052.8026304132
 30
0.0
 11
20101.01560548372
 21
13013.58471041312
 31
0.0
  0
LINE
  5
34BE
330
1F
100
AcDbEntity
  8
1
  6
Continuous
 62
     7
370
    13
100
AcDbLine
 10
19936.27368548378
 20
13163.85039041313
 30
0.0
 11
19928.96584548364
 21
13157.7970304132
 31
0.0
  0
LINE
  5
34BF
330
1F
100
AcDbEntity
  8
1
  6
Continuous
 62
     7
370
    13
100
AcDbLine
 10
19957.99000548391
 20
13181.84399041317
 30
0.0
 11
19936.27368548378
 21
13163.85039041313
 31
0.0
  0
LINE
  5
34C0
330
1F
100
AcDbEntity
  8
1
  6
Continuous
 62
     7
370
    13
100
AcDbLine
 10
19993.45408548385
 20
13211.27455041321
 30
0.0
 11
19957.99000548391
 21
13181.84399041317
 31
0.0
  0
LINE
  5
34C1
330
1F
100
AcDbEntity
  8
1
  6
Continuous
 62
     7
370
    13
100
AcDbLine
 10
20041.45160548406
 20
13251.29447041311
 30
0.0
 11
19993.45408548385
 21
13211.27455041321
 31
0.0
  0
LINE
  5
34C2
330
1F
100
AcDbEntity
  8
1
  6
Continuous
 62
     7
370
    13
100
AcDbLine
 10
20100.09952548385
 20
13300.70767041324
 30
0.0
 11
20041.45160548406
 21
13251.29447041311
 31
0.0
  0
LINE
  5
34C3
330
1F
100
AcDbEntity
  8
1
  6
Continuous
 62
     7
370
    13
100
AcDbLine
 10
20584.57648548373
 20
13499.57847041324
 30
0.0
 11
20512.33208548411
 21
13432.32919041314
 31
0.0
  0
LINE
  5
34C4
330
1F
100
AcDbEntity
  8
1
  6
Continuous
 62
     7
370
    13
100
AcDbLine
 10
20310.40488548361
 20
13488.52687041318
 30
0.0
 11
20238.16048548399
 21
13421.27759041322
 31
0.0
  0
LINE
  5
34C5
330
1F
100
AcDbEntity
  8
1
  6
Continuous
 62
     7
370
    13
100
AcDbLine
 10
20512.33208548411
 20
13432.32919041314
 30
0.0
 11
20440.94840548368
 21
13369.03215041325
 31
0.0
  0
LINE
  5
34C6
330
1F
100
AcDbEntity
  8
1
  6
Continuous
 62
     7
370
    13
100
AcDbLine
 10
20479.1929654837
 20
13095.59495041321
 30
0.0
 11
20432.37840548408
 21
13063.85423041312
 31
0.0
  0
LINE
  5
34C7
330
1F
100
AcDbEntity
  8
1
  6
Continuous
 62
     7
370
    13
100
AcDbLine
 10
20210.4452854839
 20
13174.90199041319
 30
0.0
 11
20203.13744548376
 21
13168.84855041323
 31
0.0
  0
LINE
  5
34C8
330
1F
100
AcDbEntity
  8
1
  6
Continuous
 62
     7
370
    13
100
AcDbLine
 10
20232.16160548402
 20
13192.89559041324
 30
0.0
 11
20210.4452854839
 21
13174.90199041319
 31
0.0
  0
LINE
  5
34C9
330
1F
100
AcDbEntity
  8
1
  6
Continuous
 62
     7
370
    13
100
AcDbLine
 10
20267.62568548397
 20
13222.32615041313
 30
0.0
 11
20232.16160548402
 21
13192.89559041324
 31
0.0
  0
LINE
  5
34CA
330
1F
100
AcDbEntity
  8
1
  6
Continuous
 62
     7
370
    13
100
AcDbLine
 10
20315.62320548359
 20
13262.34607041318
 30
0.0
 11
20267.62568548397
 21
13222.32615041313
 31
0.0
  0
LINE
  5
34CB
330
1F
100
AcDbEntity
  8
1
  6
Continuous
 62
     7
370
    13
100
AcDbLine
 10
20374.27112548396
 20
13311.75919041313
 30
0.0
 11
20315.62320548359
 21
13262.34607041318
 31
0.0
  0
LINE
  5
34CC
330
1F
100
AcDbEntity
  8
1
  6
Continuous
 62
     7
370
    13
100
AcDbLine
 10
20440.94840548368
 20
13369.03215041325
 30
0.0
 11
20374.27112548396
 21
13311.75919041313
 31
0.0
  0
LINE
  5
34CD
330
1F
100
AcDbEntity
  8
1
  6
Continuous
 62
     7
370
    13
100
AcDbLine
 10
20238.16048548399
 20
13421.27759041322
 30
0.0
 11
20166.77680548414
 21
13357.98063041321
 31
0.0
  0
LINE
  5
34CE
330
1F
100
AcDbEntity
  8
1
  6
Continuous
 62
     7
370
    13
100
AcDbLine
 10
20432.37840548408
 20
13063.85423041312
 30
0.0
 11
20375.18712548382
 21
13024.63631041318
 31
0.0
  0
LINE
  5
34CF
330
1F
100
AcDbEntity
  8
1
  6
Continuous
 62
     7
370
    13
100
AcDbLine
 10
20205.02136548416
 20
13084.54343041317
 30
0.0
 11
20158.20680548396
 21
13052.8026304132
 31
0.0
  0
LINE
  5
34D0
330
1F
100
AcDbEntity
  8
1
  6
Continuous
 62
     7
370
    13
100
AcDbLine
 10
20239.61448548379
 20
13107.87815041315
 30
0.0
 11
20205.02136548416
 21
13084.54343041317
 31
0.0
  0
LINE
  5
34D1
330
1F
100
AcDbEntity
  8
1
  6
Continuous
 62
     7
370
    13
100
AcDbLine
 10
20260.79808548401
 20
13122.14335041324
 30
0.0
 11
20239.61448548379
 21
13107.87815041315
 31
0.0
  0
LINE
  5
34D2
330
1F
100
AcDbEntity
  8
1
  6
Continuous
 62
     7
370
    13
100
AcDbLine
 10
20267.92672548402
 20
13126.94239041316
 30
0.0
 11
20260.79808548401
 21
13122.14335041324
 31
0.0
  0
LINE
  5
34D3
330
1F
100
AcDbEntity
  8
1
  6
Continuous
 62
     7
370
    13
100
AcDbLine
 10
20513.7860854839
 20
13118.92975041322
 30
0.0
 11
20479.1929654837
 21
13095.59495041321
 31
0.0
  0
LINE
  5
34D4
330
1F
100
AcDbEntity
  8
1
  6
Continuous
 62
     7
370
    13
100
AcDbLine
 10
20534.96968548413
 20
13133.19495041316
 30
0.0
 11
20513.7860854839
 21
13118.92975041322
 31
0.0
  0
LINE
  5
34D5
330
1F
100
AcDbEntity
  8
1
  6
Continuous
 62
     7
370
    13
100
AcDbLine
 10
20542.09832548414
 20
13137.99399041323
 30
0.0
 11
20534.96968548413
 21
13133.19495041316
 31
0.0
  0
LINE
  5
34D6
330
1F
100
AcDbEntity
  8
1
  6
Continuous
 62
     7
370
    13
100
AcDbLine
 10
20493.54872548388
 20
13691.90695041324
 30
0.0
 11
20441.54520548373
 21
13626.01815041314
 31
0.0
  0
LINE
  5
34D7
330
1F
100
AcDbEntity
  8
1
  6
Continuous
 62
     7
370
    13
100
AcDbLine
 10
20379.4675254841
 20
13557.51735041325
 30
0.0
 11
20310.40488548361
 21
13488.52687041318
 31
0.0
  0
LINE
  5
34D8
330
1F
100
AcDbEntity
  8
1
  6
Continuous
 62
     7
370
    13
100
AcDbLine
 10
20441.54520548373
 20
13626.01815041314
 30
0.0
 11
20379.4675254841
 21
13557.51735041325
 31
0.0
  0
LINE
  5
34D9
330
1F
100
AcDbEntity
  8
1
  6
Continuous
 62
     7
370
    13
100
AcDbLine
 10
20653.63912548363
 20
13568.56895041317
 30
0.0
 11
20584.57648548373
 21
13499.57847041324
 31
0.0
  0
LINE
  5
34DA
330
1F
100
AcDbEntity
  8
1
  6
Continuous
 62
     7
370
    13
100
AcDbLine
 10
20715.71680548385
 20
13637.0697504132
 30
0.0
 11
20653.63912548363
 21
13568.56895041317
 31
0.0
  0
LINE
  5
34DB
330
1F
100
AcDbEntity
  8
1
  6
Continuous
 62
     7
370
    13
100
AcDbLine
 10
20767.720325484
 20
13702.95855041316
 30
0.0
 11
20715.71680548385
 21
13637.0697504132
 31
0.0
  0
LINE
  5
34DC
330
1F
100
AcDbEntity
  8
1
  6
Continuous
 62
     7
370
    13
100
AcDbLine
 10
20533.52352548408
 20
13753.28903041314
 30
0.0
 11
20493.54872548388
 21
13691.90695041324
 31
0.0
  0
LINE
  5
34DD
330
1F
100
AcDbEntity
  8
1
  6
Continuous
 62
     7
370
    13
100
AcDbLine
 10
20560.92400548414
 20
13808.58919041318
 30
0.0
 11
20533.52352548408
 21
13753.28903041314
 31
0.0
  0
LINE
  5
34DE
330
1F
100
AcDbEntity
  8
1
  6
Continuous
 62
     7
370
    13
100
AcDbLine
 10
20576.67080548376
 20
13856.60215041323
 30
0.0
 11
20560.92400548414
 21
13808.58919041318
 31
0.0
  0
LINE
  5
34DF
330
1F
100
AcDbEntity
  8
1
  6
Continuous
 62
     7
370
    13
100
AcDbLine
 10
20582.96000548364
 20
13896.49559041324
 30
0.0
 11
20576.67080548376
 21
13856.60215041323
 31
0.0
  0
LINE
  5
34E0
330
1F
100
AcDbEntity
  8
1
  6
Continuous
 62
     7
370
    13
100
AcDbLine
 10
20095.62976548407
 20
14356.2298304132
 30
0.0
 11
20156.64096548414
 21
14316.27679041324
 31
0.0
  0
LINE
  5
34E1
330
1F
100
AcDbEntity
  8
1
  6
Continuous
 62
     7
370
    13
100
AcDbLine
 10
20044.36096548411
 20
14393.68815041321
 30
0.0
 11
20095.62976548407
 21
14356.2298304132
 31
0.0
  0
LINE
  5
34E2
330
1F
100
AcDbEntity
  8
1
  6
Continuous
 62
     7
370
    13
100
AcDbLine
 10
20004.48088548396
 20
14427.79207041312
 30
0.0
 11
20044.36096548411
 21
14393.68815041321
 31
0.0
  0
LINE
  5
34E3
330
1F
100
AcDbEntity
  8
1
  6
Continuous
 62
     7
370
    13
100
AcDbLine
 10
19975.98296548373
 20
14457.59647041311
 30
0.0
 11
20004.48088548396
 21
14427.79207041312
 31
0.0
  0
LINE
  5
34E4
330
1F
100
AcDbEntity
  8
1
  6
Continuous
 62
     7
370
    13
100
AcDbLine
 10
19957.47440548398
 20
14482.12015041324
 30
0.0
 11
19975.98296548373
 21
14457.59647041311
 31
0.0
  0
LINE
  5
34E5
330
1F
100
AcDbEntity
  8
1
  6
Continuous
 62
     7
370
    13
100
AcDbLine
 10
19946.74072548415
 20
14500.43319041316
 30
0.0
 11
19957.47440548398
 21
14482.12015041324
 31
0.0
  0
LINE
  5
34E6
330
1F
100
AcDbEntity
  8
1
  6
Continuous
 62
     7
370
    13
100
AcDbLine
 10
19941.4637654841
 20
14511.76391041313
 30
0.0
 11
19946.74072548415
 21
14500.43319041316
 31
0.0
  0
LINE
  5
34E7
330
1F
100
AcDbEntity
  8
1
  6
Continuous
 62
     7
370
    13
100
AcDbLine
 10
19939.91680548369
 20
14515.60055041321
 30
0.0
 11
19941.4637654841
 21
14511.76391041313
 31
0.0
  0
LINE
  5
34E8
330
1F
100
AcDbEntity
  8
1
  6
Continuous
 62
     7
370
    13
100
AcDbLine
 10
19938.48696548392
 20
14519.4502304132
 30
0.0
 11
19939.91680548369
 21
14515.60055041321
 31
0.0
  0
LINE
  5
34E9
330
1F
100
AcDbEntity
  8
1
  6
Continuous
 62
     7
370
    13
100
AcDbLine
 10
19934.92248548387
 20
14530.97031041324
 30
0.0
 11
19938.48696548392
 21
14519.4502304132
 31
0.0
  0
LINE
  5
34EA
330
1F
100
AcDbEntity
  8
1
  6
Continuous
 62
     7
370
    13
100
AcDbLine
 10
19931.25984548375
 20
14550.06167041312
 30
0.0
 11
19934.92248548387
 21
14530.97031041324
 31
0.0
  0
LINE
  5
34EB
330
1F
100
AcDbEntity
  8
1
  6
Continuous
 62
     7
370
    13
100
AcDbLine
 10
19930.45664548367
 20
14576.52047041323
 30
0.0
 11
19931.25984548375
 21
14550.06167041312
 31
0.0
  0
LINE
  5
34EC
330
1F
100
AcDbEntity
  8
1
  6
Continuous
 62
     7
370
    13
100
AcDbLine
 10
19935.82800548366
 20
14609.99039041314
 30
0.0
 11
19930.45664548367
 21
14576.52047041323
 31
0.0
  0
LINE
  5
34ED
330
1F
100
AcDbEntity
  8
1
  6
Continuous
 62
     7
370
    13
100
AcDbLine
 10
19950.41880548367
 20
14649.91239041322
 30
0.0
 11
19935.82800548366
 21
14609.99039041314
 31
0.0
  0
LINE
  5
34EE
330
1F
100
AcDbEntity
  8
1
  6
Continuous
 62
     7
370
    13
100
AcDbLine
 10
19976.42952548415
 20
14695.4857504132
 30
0.0
 11
19950.41880548367
 21
14649.91239041322
 31
0.0
  0
LINE
  5
34EF
330
1F
100
AcDbEntity
  8
1
  6
Continuous
 62
     7
370
    13
100
AcDbLine
 10
20014.80160548369
 20
14745.65047041323
 30
0.0
 11
19976.42952548415
 21
14695.4857504132
 31
0.0
  0
LINE
  5
34F0
330
1F
100
AcDbEntity
  8
1
  6
Continuous
 62
     7
370
    13
100
AcDbLine
 10
20065.02752548392
 20
14799.09799041313
 30
0.0
 11
20014.80160548369
 21
14745.65047041323
 31
0.0
  0
LINE
  5
34F1
330
1F
100
AcDbEntity
  8
1
  6
Continuous
 62
     7
370
    13
100
AcDbLine
 10
20318.53256548365
 20
14404.73975041313
 30
0.0
 11
20369.80136548361
 21
14367.28143041312
 31
0.0
  0
LINE
  5
34F2
330
1F
100
AcDbEntity
  8
1
  6
Continuous
 62
     7
370
    13
100
AcDbLine
 10
20430.81256548367
 20
14327.32839041316
 30
0.0
 11
20498.36952548375
 21
14285.65351041324
 31
0.0
  0
LINE
  5
34F3
330
1F
100
AcDbEntity
  8
1
  6
Continuous
 62
     7
370
    13
100
AcDbLine
 10
20472.88456548371
 20
14106.12615041318
 30
0.0
 11
20512.24040548393
 21
14068.35343041311
 31
0.0
  0
LINE
  5
34F4
330
1F
100
AcDbEntity
  8
1
  6
Continuous
 62
     7
370
    13
100
AcDbLine
 10
20369.80136548361
 20
14367.28143041312
 30
0.0
 11
20430.81256548367
 21
14327.32839041316
 31
0.0
  0
LINE
  5
34F5
330
1F
100
AcDbEntity
  8
1
  6
Continuous
 62
     7
370
    13
100
AcDbLine
 10
20422.06848548393
 20
14146.75279041315
 30
0.0
 11
20472.88456548371
 21
14106.12615041318
 31
0.0
  0
LINE
  5
34F6
330
1F
100
AcDbEntity
  8
1
  6
Continuous
 62
     7
370
    13
100
AcDbLine
 10
20361.38936548395
 20
14189.03039041324
 30
0.0
 11
20422.06848548393
 21
14146.75279041315
 31
0.0
  0
LINE
  5
34F7
330
1F
100
AcDbEntity
  8
1
  6
Continuous
 62
     7
370
    13
100
AcDbLine
 10
20294.00792548392
 20
14231.93415041314
 30
0.0
 11
20361.38936548395
 21
14189.03039041324
 31
0.0
  0
LINE
  5
34F8
330
1F
100
AcDbEntity
  8
1
  6
Continuous
 62
     7
370
    13
100
AcDbLine
 10
20224.19792548363
 20
14274.60191041318
 30
0.0
 11
20294.00792548392
 21
14231.93415041314
 31
0.0
  0
LINE
  5
34F9
330
1F
100
AcDbEntity
  8
1
  6
Continuous
 62
     7
370
    13
100
AcDbLine
 10
20156.64096548414
 20
14316.27679041324
 30
0.0
 11
20224.19792548363
 21
14274.60191041318
 31
0.0
  0
LINE
  5
34FA
330
1F
100
AcDbEntity
  8
1
  6
Continuous
 62
     7
370
    13
100
AcDbLine
 10
20747.05616548384
 20
14117.17767041321
 30
0.0
 11
20786.41200548404
 21
14079.40503041317
 31
0.0
  0
LINE
  5
34FB
330
1F
100
AcDbEntity
  8
1
  6
Continuous
 62
     7
370
    13
100
AcDbLine
 10
20696.24008548405
 20
14157.80439041321
 30
0.0
 11
20747.05616548384
 21
14117.17767041321
 31
0.0
  0
LINE
  5
34FC
330
1F
100
AcDbEntity
  8
1
  6
Continuous
 62
     7
370
    13
100
AcDbLine
 10
20635.56088548403
 20
14200.08199041316
 30
0.0
 11
20696.24008548405
 21
14157.80439041321
 31
0.0
  0
LINE
  5
34FD
330
1F
100
AcDbEntity
  8
1
  6
Continuous
 62
     7
370
    13
100
AcDbLine
 10
20568.17952548404
 20
14242.9857504132
 30
0.0
 11
20635.56088548403
 21
14200.08199041316
 31
0.0
  0
LINE
  5
34FE
330
1F
100
AcDbEntity
  8
1
  6
Continuous
 62
     7
370
    13
100
AcDbLine
 10
20498.36952548375
 20
14285.65351041324
 30
0.0
 11
20568.17952548404
 21
14242.9857504132
 31
0.0
  0
LINE
  5
34FF
330
1F
100
AcDbEntity
  8
1
  6
Continuous
 62
     7
370
    13
100
AcDbLine
 10
20579.6549654841
 20
13950.17039041325
 30
0.0
 11
20582.84448548412
 21
13927.76775041318
 31
0.0
  0
LINE
  5
3500
330
1F
100
AcDbEntity
  8
1
  6
Continuous
 62
     7
370
    13
100
AcDbLine
 10
20576.36584548413
 20
13963.61759041319
 30
0.0
 11
20579.6549654841
 21
13950.17039041325
 31
0.0
  0
LINE
  5
3501
330
1F
100
AcDbEntity
  8
1
  6
Continuous
 62
     7
370
    13
100
AcDbLine
 10
20575.02624548407
 20
13968.0987904132
 30
0.0
 11
20576.36584548413
 21
13963.61759041319
 31
0.0
  0
LINE
  5
3502
330
1F
100
AcDbEntity
  8
1
  6
Continuous
 62
     7
370
    13
100
AcDbLine
 10
20573.56824548408
 20
13972.55839041317
 30
0.0
 11
20575.02624548407
 21
13968.0987904132
 31
0.0
  0
LINE
  5
3503
330
1F
100
AcDbEntity
  8
1
  6
Continuous
 62
     7
370
    13
100
AcDbLine
 10
20568.54864548385
 20
13985.69031041319
 30
0.0
 11
20573.56824548408
 21
13972.55839041317
 31
0.0
  0
LINE
  5
3504
330
1F
100
AcDbEntity
  8
1
  6
Continuous
 62
     7
370
    13
100
AcDbLine
 10
20558.21280548366
 20
14006.7877504132
 30
0.0
 11
20568.54864548385
 21
13985.69031041319
 31
0.0
  0
LINE
  5
3505
330
1F
100
AcDbEntity
  8
1
  6
Continuous
 62
     7
370
    13
100
AcDbLine
 10
20540.19944548391
 20
14034.77727041317
 30
0.0
 11
20558.21280548366
 21
14006.7877504132
 31
0.0
  0
LINE
  5
3506
330
1F
100
AcDbEntity
  8
1
  6
Continuous
 62
     7
370
    13
100
AcDbLine
 10
20512.24040548393
 20
14068.35343041311
 30
0.0
 11
20540.19944548391
 21
14034.77727041317
 31
0.0
  0
LINE
  5
3507
330
1F
100
AcDbEntity
  8
1
  6
Continuous
 62
     7
370
    13
100
AcDbLine
 10
20278.65248548408
 20
14438.84367041318
 30
0.0
 11
20318.53256548365
 21
14404.73975041313
 31
0.0
  0
LINE
  5
3508
330
1F
100
AcDbEntity
  8
1
  6
Continuous
 62
     7
370
    13
100
AcDbLine
 10
20250.15456548385
 20
14468.64807041317
 30
0.0
 11
20278.65248548408
 21
14438.84367041318
 31
0.0
  0
LINE
  5
3509
330
1F
100
AcDbEntity
  8
1
  6
Continuous
 62
     7
370
    13
100
AcDbLine
 10
20231.6460054841
 20
14493.17175041316
 30
0.0
 11
20250.15456548385
 21
14468.64807041317
 31
0.0
  0
LINE
  5
350A
330
1F
100
AcDbEntity
  8
1
  6
Continuous
 62
     7
370
    13
100
AcDbLine
 10
20220.91232548369
 20
14511.48479041322
 30
0.0
 11
20231.6460054841
 21
14493.17175041316
 31
0.0
  0
LINE
  5
350B
330
1F
100
AcDbEntity
  8
1
  6
Continuous
 62
     7
370
    13
100
AcDbLine
 10
20215.63536548364
 20
14522.81543041317
 30
0.0
 11
20220.91232548369
 21
14511.48479041322
 31
0.0
  0
LINE
  5
350C
330
1F
100
AcDbEntity
  8
1
  6
Continuous
 62
     7
370
    13
100
AcDbLine
 10
20214.08840548381
 20
14526.65215041313
 30
0.0
 11
20215.63536548364
 21
14522.81543041317
 31
0.0
  0
LINE
  5
350D
330
1F
100
AcDbEntity
  8
1
  6
Continuous
 62
     7
370
    13
100
AcDbLine
 10
20212.65856548404
 20
14530.50183041312
 30
0.0
 11
20214.08840548381
 21
14526.65215041313
 31
0.0
  0
LINE
  5
350E
330
1F
100
AcDbEntity
  8
1
  6
Continuous
 62
     7
370
    13
100
AcDbLine
 10
20209.09408548398
 20
14542.02191041316
 30
0.0
 11
20212.65856548404
 21
14530.50183041312
 31
0.0
  0
LINE
  5
350F
330
1F
100
AcDbEntity
  8
1
  6
Continuous
 62
     7
370
    13
100
AcDbLine
 10
20205.43144548387
 20
14561.11319041315
 30
0.0
 11
20209.09408548398
 21
14542.02191041316
 31
0.0
  0
LINE
  5
3510
330
1F
100
AcDbEntity
  8
1
  6
Continuous
 62
     7
370
    13
100
AcDbLine
 10
20204.62824548379
 20
14587.57207041315
 30
0.0
 11
20205.43144548387
 21
14561.11319041315
 31
0.0
  0
LINE
  5
3511
330
1F
100
AcDbEntity
  8
1
  6
Continuous
 62
     7
370
    13
100
AcDbLine
 10
20209.99960548378
 20
14621.04199041321
 30
0.0
 11
20204.62824548379
 21
14587.57207041315
 31
0.0
  0
LINE
  5
3512
330
1F
100
AcDbEntity
  8
1
  6
Continuous
 62
     7
370
    13
100
AcDbLine
 10
20224.59040548378
 20
14660.96399041314
 30
0.0
 11
20209.99960548378
 21
14621.04199041321
 31
0.0
  0
LINE
  5
3513
330
1F
100
AcDbEntity
  8
1
  6
Continuous
 62
     7
370
    13
100
AcDbLine
 10
20250.60112548369
 20
14706.53735041312
 30
0.0
 11
20224.59040548378
 21
14660.96399041314
 31
0.0
  0
LINE
  5
3514
330
1F
100
AcDbEntity
  8
1
  6
Continuous
 62
     7
370
    13
100
AcDbLine
 10
20288.9732054838
 20
14756.70207041315
 30
0.0
 11
20250.60112548369
 21
14706.53735041312
 31
0.0
  0
LINE
  5
3515
330
1F
100
AcDbEntity
  8
1
  6
Continuous
 62
     7
370
    13
100
AcDbLine
 10
20339.19912548403
 20
14810.1495904132
 30
0.0
 11
20288.9732054838
 21
14756.70207041315
 31
0.0
  0
LINE
  5
3516
330
1F
100
AcDbEntity
  8
1
  6
Continuous
 62
     7
370
    13
100
AcDbLine
 10
20857.01608548365
 20
13938.81927041322
 30
0.0
 11
20857.13160548376
 21
13907.54719041316
 31
0.0
  0
LINE
  5
3517
330
1F
100
AcDbEntity
  8
1
  6
Continuous
 62
     7
370
    13
100
AcDbLine
 10
20850.66888548392
 20
13830.83791041324
 30
0.0
 11
21991.22664548415
 21
13830.83791041324
 31
0.0
  0
LINE
  5
3518
330
1F
100
AcDbEntity
  8
1
  6
Continuous
 62
     7
370
    13
100
AcDbLine
 10
20835.09560548368
 20
13819.64079041324
 30
0.0
 11
20807.69512548361
 21
13764.3406304132
 31
0.0
  0
LINE
  5
3519
330
1F
100
AcDbEntity
  8
1
  6
Continuous
 62
     7
370
    13
100
AcDbLine
 10
20850.84240548388
 20
13867.65367041312
 30
0.0
 11
20835.09560548368
 21
13819.64079041324
 31
0.0
  0
LINE
  5
351A
330
1F
100
AcDbEntity
  8
1
  6
Continuous
 62
     7
370
    13
100
AcDbLine
 10
20857.13160548376
 20
13907.54719041316
 30
0.0
 11
20850.84240548388
 21
13867.65367041312
 31
0.0
  0
LINE
  5
351B
330
1F
100
AcDbEntity
  8
1
  6
Continuous
 62
     7
370
    13
100
AcDbLine
 10
21991.93448548397
 20
13833.83719041317
 30
0.0
 11
21991.93448548397
 21
13663.72519041324
 31
0.0
  0
LINE
  5
351C
330
1F
100
AcDbEntity
  8
1
  6
Continuous
 62
     7
370
    13
100
AcDbLine
 10
20853.82656548364
 20
13961.22199041317
 30
0.0
 11
20857.01608548365
 21
13938.81927041322
 31
0.0
  0
LINE
  5
351D
330
1F
100
AcDbEntity
  8
1
  6
Continuous
 62
     7
370
    13
100
AcDbLine
 10
20850.53744548367
 20
13974.66919041311
 30
0.0
 11
20853.82656548364
 21
13961.22199041317
 31
0.0
  0
LINE
  5
351E
330
1F
100
AcDbEntity
  8
1
  6
Continuous
 62
     7
370
    13
100
AcDbLine
 10
20849.1978454836
 20
13979.15031041323
 30
0.0
 11
20850.53744548367
 21
13974.66919041311
 31
0.0
  0
LINE
  5
351F
330
1F
100
AcDbEntity
  8
1
  6
Continuous
 62
     7
370
    13
100
AcDbLine
 10
20847.73984548362
 20
13983.60991041321
 30
0.0
 11
20849.1978454836
 21
13979.15031041323
 31
0.0
  0
LINE
  5
3520
330
1F
100
AcDbEntity
  8
1
  6
Continuous
 62
     7
370
    13
100
AcDbLine
 10
20842.72024548397
 20
13996.74191041325
 30
0.0
 11
20847.73984548362
 21
13983.60991041321
 31
0.0
  0
LINE
  5
3521
330
1F
100
AcDbEntity
  8
1
  6
Continuous
 62
     7
370
    13
100
AcDbLine
 10
20832.38440548378
 20
14017.83935041312
 30
0.0
 11
20842.72024548397
 21
13996.74191041325
 31
0.0
  0
LINE
  5
3522
330
1F
100
AcDbEntity
  8
1
  6
Continuous
 62
     7
370
    13
100
AcDbLine
 10
20814.37104548403
 20
14045.82887041323
 30
0.0
 11
20832.38440548378
 21
14017.83935041312
 31
0.0
  0
LINE
  5
3523
330
1F
100
AcDbEntity
  8
1
  6
Continuous
 62
     7
370
    13
100
AcDbLine
 10
21991.10704548383
 20
14360.57223041323
 30
0.0
 11
21991.10704548383
 21
14187.95943041317
 31
0.0
  0
LINE
  5
3524
330
1F
100
AcDbEntity
  8
1
  6
Continuous
 62
     7
370
    13
100
AcDbLine
 10
20809.93464548391
 20
15164.59935041318
 30
0.0
 11
20775.3415254837
 21
15141.26455041317
 31
0.0
  0
LINE
  5
3525
330
1F
100
AcDbEntity
  8
1
  6
Continuous
 62
     7
370
    13
100
AcDbLine
 10
20466.43448548409
 20
14899.28447041325
 30
0.0
 11
21993.22376548388
 21
14899.28447041325
 31
0.0
  0
LINE
  5
3526
330
1F
100
AcDbEntity
  8
1
  6
Continuous
 62
     7
370
    13
100
AcDbLine
 10
20192.31624548399
 20
14909.63183041312
 30
0.0
 11
20125.20680548407
 21
14854.31159041312
 31
0.0
  0
LINE
  5
3527
330
1F
100
AcDbEntity
  8
1
  6
Continuous
 62
     7
370
    13
100
AcDbLine
 10
20536.79736548411
 20
14974.39071041313
 30
0.0
 11
20466.4878454841
 21
14920.68343041318
 31
0.0
  0
LINE
  5
3528
330
1F
100
AcDbEntity
  8
1
  6
Continuous
 62
     7
370
    13
100
AcDbLine
 10
20501.16992548416
 20
15130.21295041311
 30
0.0
 11
20454.35528548393
 21
15098.47215041314
 31
0.0
  0
LINE
  5
3529
330
1F
100
AcDbEntity
  8
1
  6
Continuous
 62
     7
370
    13
100
AcDbLine
 10
20466.4878454841
 20
14920.68343041318
 30
0.0
 11
20399.37832548416
 21
14865.36311041316
 31
0.0
  0
LINE
  5
352A
330
1F
100
AcDbEntity
  8
1
  6
Continuous
 62
     7
370
    13
100
AcDbLine
 10
20262.625765484
 20
14963.33919041324
 30
0.0
 11
20192.31624548399
 21
14909.63183041312
 31
0.0
  0
LINE
  5
352B
330
1F
100
AcDbEntity
  8
1
  6
Continuous
 62
     7
370
    13
100
AcDbLine
 10
20332.16704548412
 20
15013.74103041321
 30
0.0
 11
20262.625765484
 21
14963.33919041324
 31
0.0
  0
LINE
  5
352C
330
1F
100
AcDbEntity
  8
1
  6
Continuous
 62
     7
370
    13
100
AcDbLine
 10
20397.1640854837
 20
15059.2542304132
 30
0.0
 11
20332.16704548412
 21
15013.74103041321
 31
0.0
  0
LINE
  5
352D
330
1F
100
AcDbEntity
  8
1
  6
Continuous
 62
     7
370
    13
100
AcDbLine
 10
20454.35528548393
 20
15098.47215041314
 30
0.0
 11
20397.1640854837
 21
15059.2542304132
 31
0.0
  0
LINE
  5
352E
330
1F
100
AcDbEntity
  8
1
  6
Continuous
 62
     7
370
    13
100
AcDbLine
 10
20606.33864548365
 20
15024.79263041313
 30
0.0
 11
20536.79736548411
 21
14974.39071041313
 31
0.0
  0
LINE
  5
352F
330
1F
100
AcDbEntity
  8
1
  6
Continuous
 62
     7
370
    13
100
AcDbLine
 10
20671.33568548382
 20
15070.30583041312
 30
0.0
 11
20606.33864548365
 21
15024.79263041313
 31
0.0
  0
LINE
  5
3530
330
1F
100
AcDbEntity
  8
1
  6
Continuous
 62
     7
370
    13
100
AcDbLine
 10
20728.52688548405
 20
15109.5237504132
 30
0.0
 11
20671.33568548382
 21
15070.30583041312
 31
0.0
  0
LINE
  5
3531
330
1F
100
AcDbEntity
  8
1
  6
Continuous
 62
     7
370
    13
100
AcDbLine
 10
20775.3415254837
 20
15141.26455041317
 30
0.0
 11
20728.52688548405
 21
15109.5237504132
 31
0.0
  0
LINE
  5
3532
330
1F
100
AcDbEntity
  8
1
  6
Continuous
 62
     7
370
    13
100
AcDbLine
 10
20535.76304548379
 20
15153.54775041312
 30
0.0
 11
20501.16992548416
 21
15130.21295041311
 31
0.0
  0
LINE
  5
3533
330
1F
100
AcDbEntity
  8
1
  6
Continuous
 62
     7
370
    13
100
AcDbLine
 10
20556.94664548401
 20
15167.8129504132
 30
0.0
 11
20535.76304548379
 21
15153.54775041312
 31
0.0
  0
LINE
  5
3534
330
1F
100
AcDbEntity
  8
1
  6
Continuous
 62
     7
370
    13
100
AcDbLine
 10
20564.07528548402
 20
15172.61191041324
 30
0.0
 11
20556.94664548401
 21
15167.8129504132
 31
0.0
  0
LINE
  5
3535
330
1F
100
AcDbEntity
  8
1
  6
Continuous
 62
     7
370
    13
100
AcDbLine
 10
20831.11824548413
 20
15178.86455041312
 30
0.0
 11
20809.93464548391
 21
15164.59935041318
 31
0.0
  0
LINE
  5
3536
330
1F
100
AcDbEntity
  8
1
  6
Continuous
 62
     7
370
    13
100
AcDbLine
 10
20838.24688548414
 20
15183.66351041316
 30
0.0
 11
20831.11824548413
 21
15178.86455041312
 31
0.0
  0
LINE
  5
3537
330
1F
100
AcDbEntity
  8
1
  6
Continuous
 62
     7
370
    13
100
AcDbLine
 10
22350.45728548389
 20
12030.17863041313
 30
0.0
 11
22350.45728548389
 21
11948.31463041322
 31
0.0
  0
LINE
  5
3538
330
1F
100
AcDbEntity
  8
1
  6
Continuous
 62
     7
370
    13
100
AcDbLine
 10
22357.12264548364
 20
12334.79463041323
 30
0.0
 11
22357.12264548364
 21
12252.93063041317
 31
0.0
  0
LINE
  5
3539
330
1F
100
AcDbEntity
  8
1
  6
Continuous
 62
     7
370
    13
100
AcDbLine
 10
22433.62920548376
 20
14864.45095041315
 30
0.0
 11
22433.62920548376
 21
14778.77895041324
 31
0.0
  0
LINE
  5
353A
330
1F
100
AcDbEntity
  8
1
  6
Continuous
 62
     7
370
    13
100
AcDbLine
 10
22433.62920548376
 20
13795.04263041322
 30
0.0
 11
22433.62920548376
 21
13709.37063041317
 31
0.0
  0
LINE
  5
353B
330
1F
100
AcDbEntity
  8
1
  6
Continuous
 62
     7
370
    13
100
AcDbLine
 10
22440.41448548395
 20
14319.55463041318
 30
0.0
 11
22440.41448548395
 21
14233.88263041313
 31
0.0
  0
LINE
  5
353C
330
1F
100
AcDbEntity
  8
1
  6
Continuous
 62
     7
370
    13
100
AcDbLine
 10
17471.56104548386
 20
19998.56079041317
 30
0.0
 11
17551.56104548386
 21
19998.56079041317
 31
0.0
  0
LINE
  5
353D
330
1F
100
AcDbEntity
  8
1
  6
Continuous
 62
     7
370
    13
100
AcDbLine
 10
16945.11392548406
 20
19942.14255041311
 30
0.0
 11
16945.11392548406
 21
19565.6748704132
 31
0.0
  0
LINE
  5
353E
330
1F
100
AcDbEntity
  8
1
  6
Continuous
 62
     7
370
    13
100
AcDbLine
 10
16945.11392548406
 20
20013.98751041313
 30
0.0
 11
17071.56104548386
 21
20013.98751041313
 31
0.0
  0
TEXT
  5
36CA
330
1F
100
AcDbEntity
  8
1
  6
Continuous
 62
     7
370
    13
100
AcDbText
 10
20227.60427480092
 20
23503.19783483585
 30
0.0
 40
459.8415360000001
  1
取付金具付き
 41
0.944444
  7
KANJI
100
AcDbText
  0
ENDSEC
  0
SECTION
  2
OBJECTS
  0
DICTIONARY
  5
C
330
0
100
AcDbDictionary
281
     1
  3
ACAD_GROUP
350
D
  3
ACAD_LAYOUT
350
1A
  3
ACAD_MLINESTYLE
350
17
  3
ACAD_PLOTSETTINGS
350
19
  3
ACAD_PLOTSTYLENAME
350
E
  3
AcDbVariableDictionary
350
932
  0
DICTIONARY
  5
5A
330
2
100
AcDbDictionary
280
     1
281
     1
  3
ACAD_LAYERSTATES
360
5B
  0
DICTIONARY
  5
D
102
{ACAD_REACTORS
330
C
102
}
330
C
100
AcDbDictionary
281
     1
  0
DICTIONARY
  5
1A
102
{ACAD_REACTORS
330
C
102
}
330
C
100
AcDbDictionary
281
     1
  3
Model
350
22
  3
ﾚｲｱｳﾄ1
350
1E
  3
ﾚｲｱｳﾄ2
350
26
  0
DICTIONARY
  5
17
102
{ACAD_REACTORS
330
C
102
}
330
C
100
AcDbDictionary
281
     1
  3
Standard
350
18
  0
DICTIONARY
  5
19
102
{ACAD_REACTORS
330
C
102
}
330
C
100
AcDbDictionary
281
     1
  0
ACDBDICTIONARYWDFLT
  5
E
102
{ACAD_REACTORS
330
C
102
}
330
C
100
AcDbDictionary
281
     1
  3
Normal
350
F
100
AcDbDictionaryWithDefault
340
F
  0
DICTIONARY
  5
932
102
{ACAD_REACTORS
330
C
102
}
330
C
100
AcDbDictionary
281
     1
  3
DIMASSOC
350
934
  3
HIDETEXT
350
933
  0
DICTIONARY
  5
5B
102
{ACAD_REACTORS
330
5A
102
}
330
5A
100
AcDbDictionary
281
     1
  0
LAYOUT
  5
22
102
{ACAD_REACTORS
330
1A
102
}
330
1A
100
AcDbPlotSettings
  1

  2
DocuCentre a235
  4

  6

 40
0.0
 41
0.0
 42
0.0
 43
0.0
 44
0.0
 45
0.0
 46
0.0
 47
0.0
 48
0.0
 49
0.0
140
0.0
141
0.0
142
1.0
143
1.0
 70
  1712
 72
     0
 73
     0
 74
     0
  7

 75
     0
147
1.0
148
0.0
149
0.0
100
AcDbLayout
  1
Model
 70
     1
 71
     0
 10
0.0
 20
0.0
 11
12.0
 21
9.0
 12
0.0
 22
0.0
 32
0.0
 14
0.0
 24
0.0
 34
0.0
 15
0.0
 25
0.0
 35
0.0
146
0.0
 13
0.0
 23
0.0
 33
0.0
 16
1.0
 26
0.0
 36
0.0
 17
0.0
 27
1.0
 37
0.0
 76
     0
330
1F
  0
LAYOUT
  5
1E
102
{ACAD_REACTORS
330
1A
102
}
330
1A
100
AcDbPlotSettings
  1

  2
DocuCentre a235
  4

  6

 40
0.0
 41
0.0
 42
0.0
 43
0.0
 44
0.0
 45
0.0
 46
0.0
 47
0.0
 48
0.0
 49
0.0
140
0.0
141
0.0
142
1.0
143
1.0
 70
   688
 72
     0
 73
     0
 74
     5
  7

 75
    16
147
1.0
148
0.0
149
0.0
100
AcDbLayout
  1
ﾚｲｱｳﾄ1
 70
     1
 71
     1
 10
0.0
 20
0.0
 11
420.0
 21
297.0
 12
0.0
 22
0.0
 32
0.0
 14
1.000000000000000E+20
 24
1.000000000000000E+20
 34
1.000000000000000E+20
 15
-1.000000000000000E+20
 25
-1.000000000000000E+20
 35
-1.000000000000000E+20
146
0.0
 13
0.0
 23
0.0
 33
0.0
 16
1.0
 26
0.0
 36
0.0
 17
0.0
 27
1.0
 37
0.0
 76
     0
330
1B
  0
LAYOUT
  5
26
102
{ACAD_REACTORS
330
1A
102
}
330
1A
100
AcDbPlotSettings
  1

  2
DocuCentre a235
  4

  6

 40
0.0
 41
0.0
 42
0.0
 43
0.0
 44
0.0
 45
0.0
 46
0.0
 47
0.0
 48
0.0
 49
0.0
140
0.0
141
0.0
142
1.0
143
1.0
 70
   688
 72
     0
 73
     0
 74
     5
  7

 75
    16
147
1.0
148
0.0
149
0.0
100
AcDbLayout
  1
ﾚｲｱｳﾄ2
 70
     1
 71
     2
 10
0.0
 20
0.0
 11
12.0
 21
9.0
 12
0.0
 22
0.0
 32
0.0
 14
0.0
 24
0.0
 34
0.0
 15
0.0
 25
0.0
 35
0.0
146
0.0
 13
0.0
 23
0.0
 33
0.0
 16
1.0
 26
0.0
 36
0.0
 17
0.0
 27
1.0
 37
0.0
 76
     0
330
23
  0
MLINESTYLE
  5
18
102
{ACAD_REACTORS
330
17
102
}
330
17
100
AcDbMlineStyle
  2
STANDARD
 70
     0
  3

 62
   256
 51
90.0
 52
90.0
 71
     2
 49
0.5
 62
   256
  6
BYLAYER
 49
-0.5
 62
   256
  6
BYLAYER
  0
ACDBPLACEHOLDER
  5
F
102
{ACAD_REACTORS
330
E
102
}
330
E
  0
DICTIONARYVAR
  5
934
102
{ACAD_REACTORS
330
932
102
}
330
932
100
DictionaryVariables
280
     0
  1
2
  0
DICTIONARYVAR
  5
933
102
{ACAD_REACTORS
330
932
102
}
330
932
100
DictionaryVariables
280
     0
  1
1
  0
ENDSEC
  0
EOF
