  0
SECTION
  2
HEADER
  9
$ACADVER
  1
AC1015
  9
$ACADMAINTVER
 70
    13
  9
$DWGCODEPAGE
  3
ANSI_932
  9
$INSBASE
 10
0.0
 20
0.0
 30
0.0
  9
$EXTMIN
 10
1052.291233116462
 20
925.8174710857565
 30
-0.0015258207003583
  9
$EXTMAX
 10
23634.35891362342
 20
26007.81033955222
 30
0.0000000349246037
  9
$LIMMIN
 10
0.0
 20
0.0
  9
$LIMMAX
 10
420.0
 20
297.0
  9
$ORTHOMODE
 70
     0
  9
$REGENMODE
 70
     1
  9
$FILLMODE
 70
     1
  9
$QTEXTMODE
 70
     0
  9
$MIRRTEXT
 70
     1
  9
$LTSCALE
 40
1.0
  9
$ATTMODE
 70
     1
  9
$TEXTSIZE
 40
2.5
  9
$TRACEWID
 40
1.0
  9
$TEXTSTYLE
  7
Standard
  9
$CLAYER
  8
0
  9
$CELTYPE
  6
ByLayer
  9
$CECOLOR
 62
   256
  9
$CELTSCALE
 40
1.0
  9
$DISPSILH
 70
     0
  9
$DIMSCALE
 40
1.0
  9
$DIMASZ
 40
2.5
  9
$DIMEXO
 40
0.625
  9
$DIMDLI
 40
3.75
  9
$DIMRND
 40
0.0
  9
$DIMDLE
 40
0.0
  9
$DIMEXE
 40
1.25
  9
$DIMTP
 40
0.0
  9
$DIMTM
 40
0.0
  9
$DIMTXT
 40
2.5
  9
$DIMCEN
 40
2.5
  9
$DIMTSZ
 40
0.0
  9
$DIMTOL
 70
     0
  9
$DIMLIM
 70
     0
  9
$DIMTIH
 70
     0
  9
$DIMTOH
 70
     0
  9
$DIMSE1
 70
     0
  9
$DIMSE2
 70
     0
  9
$DIMTAD
 70
     1
  9
$DIMZIN
 70
     8
  9
$DIMBLK
  1

  9
$DIMASO
 70
     1
  9
$DIMSHO
 70
     1
  9
$DIMPOST
  1

  9
$DIMAPOST
  1

  9
$DIMALT
 70
     0
  9
$DIMALTD
 70
     3
  9
$DIMALTF
 40
0.03937007874016
  9
$DIMLFAC
 40
1.0
  9
$DIMTOFL
 70
     1
  9
$DIMTVP
 40
0.0
  9
$DIMTIX
 70
     0
  9
$DIMSOXD
 70
     0
  9
$DIMSAH
 70
     0
  9
$DIMBLK1
  1

  9
$DIMBLK2
  1

  9
$DIMSTYLE
  2
ISO-25
  9
$DIMCLRD
 70
     0
  9
$DIMCLRE
 70
     0
  9
$DIMCLRT
 70
     0
  9
$DIMTFAC
 40
1.0
  9
$DIMGAP
 40
0.625
  9
$DIMJUST
 70
     0
  9
$DIMSD1
 70
     0
  9
$DIMSD2
 70
     0
  9
$DIMTOLJ
 70
     0
  9
$DIMTZIN
 70
     8
  9
$DIMALTZ
 70
     0
  9
$DIMALTTZ
 70
     0
  9
$DIMUPT
 70
     0
  9
$DIMDEC
 70
     2
  9
$DIMTDEC
 70
     2
  9
$DIMALTU
 70
     2
  9
$DIMALTTD
 70
     3
  9
$DIMTXSTY
  7
Standard
  9
$DIMAUNIT
 70
     0
  9
$DIMADEC
 70
     0
  9
$DIMALTRND
 40
0.0
  9
$DIMAZIN
 70
     0
  9
$DIMDSEP
 70
    46
  9
$DIMATFIT
 70
     3
  9
$DIMFRAC
 70
     0
  9
$DIMLDRBLK
  1

  9
$DIMLUNIT
 70
     2
  9
$DIMLWD
 70
    -2
  9
$DIMLWE
 70
    -2
  9
$DIMTMOVE
 70
     0
  9
$LUNITS
 70
     2
  9
$LUPREC
 70
     4
  9
$SKETCHINC
 40
1.0
  9
$FILLETRAD
 40
10.0
  9
$AUNITS
 70
     0
  9
$AUPREC
 70
     0
  9
$MENU
  1
.
  9
$ELEVATION
 40
0.0
  9
$PELEVATION
 40
0.0
  9
$THICKNESS
 40
0.0
  9
$LIMCHECK
 70
     0
  9
$CHAMFERA
 40
10.0
  9
$CHAMFERB
 40
10.0
  9
$CHAMFERC
 40
20.0
  9
$CHAMFERD
 40
0.0
  9
$SKPOLY
 70
     0
  9
$TDCREATE
 40
2455236.659162499
  9
$TDUCREATE
 40
2455236.284162499
  9
$TDUPDATE
 40
2455922.453271261
  9
$TDUUPDATE
 40
2455922.078271261
  9
$TDINDWG
 40
0.0093854167
  9
$TDUSRTIMER
 40
0.0093848611
  9
$USRTIMER
 70
     1
  9
$ANGBASE
 50
0.0
  9
$ANGDIR
 70
     0
  9
$PDMODE
 70
     0
  9
$PDSIZE
 40
0.0
  9
$PLINEWID
 40
0.0
  9
$SPLFRAME
 70
     0
  9
$SPLINETYPE
 70
     6
  9
$SPLINESEGS
 70
     8
  9
$HANDSEED
  5
2EAB
  9
$SURFTAB1
 70
     6
  9
$SURFTAB2
 70
     6
  9
$SURFTYPE
 70
     6
  9
$SURFU
 70
     6
  9
$SURFV
 70
     6
  9
$UCSBASE
  2

  9
$UCSNAME
  2

  9
$UCSORG
 10
0.0
 20
0.0
 30
0.0
  9
$UCSXDIR
 10
1.0
 20
0.0
 30
0.0
  9
$UCSYDIR
 10
0.0
 20
1.0
 30
0.0
  9
$UCSORTHOREF
  2

  9
$UCSORTHOVIEW
 70
     0
  9
$UCSORGTOP
 10
0.0
 20
0.0
 30
0.0
  9
$UCSORGBOTTOM
 10
0.0
 20
0.0
 30
0.0
  9
$UCSORGLEFT
 10
0.0
 20
0.0
 30
0.0
  9
$UCSORGRIGHT
 10
0.0
 20
0.0
 30
0.0
  9
$UCSORGFRONT
 10
0.0
 20
0.0
 30
0.0
  9
$UCSORGBACK
 10
0.0
 20
0.0
 30
0.0
  9
$PUCSBASE
  2

  9
$PUCSNAME
  2

  9
$PUCSORG
 10
0.0
 20
0.0
 30
0.0
  9
$PUCSXDIR
 10
1.0
 20
0.0
 30
0.0
  9
$PUCSYDIR
 10
0.0
 20
1.0
 30
0.0
  9
$PUCSORTHOREF
  2

  9
$PUCSORTHOVIEW
 70
     0
  9
$PUCSORGTOP
 10
0.0
 20
0.0
 30
0.0
  9
$PUCSORGBOTTOM
 10
0.0
 20
0.0
 30
0.0
  9
$PUCSORGLEFT
 10
0.0
 20
0.0
 30
0.0
  9
$PUCSORGRIGHT
 10
0.0
 20
0.0
 30
0.0
  9
$PUCSORGFRONT
 10
0.0
 20
0.0
 30
0.0
  9
$PUCSORGBACK
 10
0.0
 20
0.0
 30
0.0
  9
$USERI1
 70
     0
  9
$USERI2
 70
     0
  9
$USERI3
 70
     0
  9
$USERI4
 70
     0
  9
$USERI5
 70
     0
  9
$USERR1
 40
0.0
  9
$USERR2
 40
0.0
  9
$USERR3
 40
0.0
  9
$USERR4
 40
0.0
  9
$USERR5
 40
0.0
  9
$WORLDVIEW
 70
     1
  9
$SHADEDGE
 70
     3
  9
$SHADEDIF
 70
    70
  9
$TILEMODE
 70
     1
  9
$MAXACTVP
 70
    64
  9
$PINSBASE
 10
0.0
 20
0.0
 30
0.0
  9
$PLIMCHECK
 70
     0
  9
$PEXTMIN
 10
1.000000000000000E+20
 20
1.000000000000000E+20
 30
1.000000000000000E+20
  9
$PEXTMAX
 10
-1.000000000000000E+20
 20
-1.000000000000000E+20
 30
-1.000000000000000E+20
  9
$PLIMMIN
 10
0.0
 20
0.0
  9
$PLIMMAX
 10
420.0
 20
297.0
  9
$UNITMODE
 70
     0
  9
$VISRETAIN
 70
     1
  9
$PLINEGEN
 70
     0
  9
$PSLTSCALE
 70
     1
  9
$TREEDEPTH
 70
  3020
  9
$CMLSTYLE
  2
Standard
  9
$CMLJUST
 70
     0
  9
$CMLSCALE
 40
20.0
  9
$PROXYGRAPHICS
 70
     1
  9
$MEASUREMENT
 70
     1
  9
$CELWEIGHT
370
    -1
  9
$ENDCAPS
280
     0
  9
$JOINSTYLE
280
     0
  9
$LWDISPLAY
290
     0
  9
$INSUNITS
 70
     4
  9
$HYPERLINKBASE
  1

  9
$STYLESHEET
  1

  9
$XEDIT
290
     1
  9
$CEPSNTYPE
380
     0
  9
$PSTYLEMODE
290
     1
  9
$FINGERPRINTGUID
  2
{9F70917D-061E-40C1-9485-7AD4368FB371}
  9
$VERSIONGUID
  2
{04709AD2-1389-4C86-BF2E-0043F1EA81C2}
  9
$EXTNAMES
290
     1
  9
$PSVPSCALE
 40
0.0
  9
$OLESTARTUP
290
     0
  0
ENDSEC
  0
SECTION
  2
CLASSES
  0
CLASS
  1
ACDBDICTIONARYWDFLT
  2
AcDbDictionaryWithDefault
  3
AutoCAD 2000
 90
        0
280
     0
281
     0
  0
CLASS
  1
ACDBPLACEHOLDER
  2
AcDbPlaceHolder
  3
AutoCAD 2000
 90
        0
280
     0
281
     0
  0
CLASS
  1
LAYOUT
  2
AcDbLayout
  3
AutoCAD 2000
 90
        0
280
     0
281
     0
  0
CLASS
  1
DICTIONARYVAR
  2
AcDbDictionaryVar
  3
AutoCAD 2000
 90
        0
280
     0
281
     0
  0
ENDSEC
  0
SECTION
  2
TABLES
  0
TABLE
  2
VPORT
  5
8
330
0
100
AcDbSymbolTable
 70
     2
  0
VPORT
  5
2EAA
330
8
100
AcDbSymbolTableRecord
100
AcDbViewportTableRecord
  2
*Active
 70
     0
 10
0.0
 20
0.0
 11
1.0
 21
1.0
 12
16416.92258284715
 22
12290.93843172512
 13
0.0
 23
0.0
 14
10.0
 24
10.0
 15
10.0
 25
10.0
 16
0.0
 26
0.0
 36
1.0
 17
0.0
 27
0.0
 37
0.0
 40
40142.77434148706
 41
1.657444005270092
 42
50.0
 43
0.0
 44
0.0
 50
0.0
 51
0.0
 71
     0
 72
   100
 73
     1
 74
     3
 75
     0
 76
     0
 77
     0
 78
     0
281
     0
 65
     1
110
0.0
120
0.0
130
0.0
111
1.0
121
0.0
131
0.0
112
0.0
122
1.0
132
0.0
 79
     0
146
0.0
  0
ENDTAB
  0
TABLE
  2
LTYPE
  5
5
330
0
100
AcDbSymbolTable
 70
     4
  0
LTYPE
  5
14
330
5
100
AcDbSymbolTableRecord
100
AcDbLinetypeTableRecord
  2
ByBlock
 70
     0
  3

 72
    65
 73
     0
 40
0.0
  0
LTYPE
  5
15
330
5
100
AcDbSymbolTableRecord
100
AcDbLinetypeTableRecord
  2
ByLayer
 70
     0
  3

 72
    65
 73
     0
 40
0.0
  0
LTYPE
  5
16
330
5
100
AcDbSymbolTableRecord
100
AcDbLinetypeTableRecord
  2
Continuous
 70
     0
  3
Solid line
 72
    65
 73
     0
 40
0.0
  0
LTYPE
  5
1294
330
5
100
AcDbSymbolTableRecord
100
AcDbLinetypeTableRecord
  2
HIDDEN
 70
     0
  3
------------------------
 72
    65
 73
     2
 40
12.6
 49
8.4
 74
     0
 49
-4.2
 74
     0
  0
LTYPE
  5
1878
330
5
100
AcDbSymbolTableRecord
100
AcDbLinetypeTableRecord
  2
DASHDOT
 70
     0
  3
--･--･--･--･--･--･--･--
 72
    65
 73
     4
 40
50.5
 49
30.0
 74
     0
 49
-9.0
 74
     0
 49
2.5
 74
     0
 49
-9.0
 74
     0
  0
LTYPE
  5
1B41
330
5
100
AcDbSymbolTableRecord
100
AcDbLinetypeTableRecord
  2
DIVIDE
 70
     0
  3
--･･--･･--･･--･･--･･--
 72
    65
 73
     6
 40
58.0
 49
30.0
 74
     0
 49
-9.0
 74
     0
 49
2.5
 74
     0
 49
-5.0
 74
     0
 49
2.5
 74
     0
 49
-9.0
 74
     0
  0
ENDTAB
  0
TABLE
  2
LAYER
  5
2
102
{ACAD_XDICTIONARY
360
5A
102
}
330
0
100
AcDbSymbolTable
 70
     3
  0
LAYER
  5
10
330
2
100
AcDbSymbolTableRecord
100
AcDbLayerTableRecord
  2
0
 70
     0
 62
     7
  6
Continuous
370
    -3
390
F
  0
LAYER
  5
55
330
2
100
AcDbSymbolTableRecord
100
AcDbLayerTableRecord
  2
1
 70
     0
 62
     7
  6
Continuous
370
    -3
390
F
  0
LAYER
  5
56
330
2
100
AcDbSymbolTableRecord
100
AcDbLayerTableRecord
  2
DEFPOINTS
 70
     0
 62
     7
  6
Continuous
290
     0
370
    -3
390
F
  0
ENDTAB
  0
TABLE
  2
STYLE
  5
3
330
0
100
AcDbSymbolTable
 70
     2
  0
STYLE
  5
11
330
3
100
AcDbSymbolTableRecord
100
AcDbTextStyleTableRecord
  2
Standard
 70
     0
 40
0.0
 41
1.0
 50
0.0
 71
     0
 42
2.5
  3
txt
  4

  0
STYLE
  5
57
330
3
100
AcDbSymbolTableRecord
100
AcDbTextStyleTableRecord
  2
KANJI
 70
     0
 40
0.0
 41
1.0
 50
0.0
 71
     0
 42
0.2
  3
TXT
  4
BIGFONT
  0
ENDTAB
  0
TABLE
  2
VIEW
  5
6
330
0
100
AcDbSymbolTable
 70
     0
  0
ENDTAB
  0
TABLE
  2
UCS
  5
7
330
0
100
AcDbSymbolTable
 70
     0
  0
ENDTAB
  0
TABLE
  2
APPID
  5
9
330
0
100
AcDbSymbolTable
 70
     2
  0
APPID
  5
12
330
9
100
AcDbSymbolTableRecord
100
AcDbRegAppTableRecord
  2
ACAD
 70
     0
  0
APPID
  5
59
330
9
100
AcDbSymbolTableRecord
100
AcDbRegAppTableRecord
  2
ACAD_PSEXT
 70
     0
  0
ENDTAB
  0
TABLE
  2
DIMSTYLE
  5
A
330
0
100
AcDbSymbolTable
 70
     2
100
AcDbDimStyleTable
 71
     0
  0
DIMSTYLE
105
27
330
A
100
AcDbSymbolTableRecord
100
AcDbDimStyleTableRecord
  2
ISO-25
 70
     0
 41
2.5
 42
0.625
 43
3.75
 44
1.25
 73
     0
 74
     0
 77
     1
 78
     8
140
2.5
141
2.5
143
0.03937007874016
147
0.625
171
     3
172
     1
271
     2
272
     2
274
     3
283
     0
284
     8
340
11
  0
DIMSTYLE
105
58
102
{ACAD_REACTORS
330
2E04
330
2E05
330
2E06
330
2E07
330
2E08
330
2E09
102
}
330
A
100
AcDbSymbolTableRecord
100
AcDbDimStyleTableRecord
  2
Standard
 70
     0
340
11
  0
ENDTAB
  0
TABLE
  2
BLOCK_RECORD
  5
1
330
0
100
AcDbSymbolTable
 70
     8
  0
BLOCK_RECORD
  5
1F
330
1
100
AcDbSymbolTableRecord
100
AcDbBlockTableRecord
  2
*Model_Space
340
22
  0
BLOCK_RECORD
  5
1B
330
1
100
AcDbSymbolTableRecord
100
AcDbBlockTableRecord
  2
*Paper_Space
340
1E
  0
BLOCK_RECORD
  5
23
330
1
100
AcDbSymbolTableRecord
100
AcDbBlockTableRecord
  2
*Paper_Space0
340
26
  0
BLOCK_RECORD
  5
2B
330
1
100
AcDbSymbolTableRecord
100
AcDbBlockTableRecord
  2
_OPEN30
340
0
102
{BLKREFS
331
1253
331
1254
331
125C
331
125D
331
1265
331
1266
331
1274
331
1275
331
1280
331
1281
331
128C
331
128D
331
1560
331
1561
331
1569
331
156A
331
1572
331
1573
331
157D
331
157E
331
1589
331
158A
331
1595
331
1596
331
1822
331
1823
331
182B
331
182C
331
1834
331
1835
331
183F
331
1840
331
184B
331
184C
331
1858
331
1859
331
1864
331
1865
331
1870
331
1871
331
1ABF
331
1AC0
331
1AC8
331
1AC9
331
1AD2
331
1AD3
331
1ADB
331
1ADC
331
1AE4
331
1AE5
331
1AEF
331
1AF0
331
1AFB
331
1AFC
331
1B07
331
1B08
331
1B13
331
1B14
331
1B1F
331
1B20
331
1B2C
331
1B2D
331
1B39
331
1B3A
331
2547
331
2548
331
2550
331
2551
331
2559
331
255A
331
2562
331
2563
331
256B
331
256C
331
2575
331
2576
331
257F
331
2580
331
258B
331
258C
331
2597
331
2598
331
25A3
331
25A4
331
25AF
331
25B0
331
25BB
331
25BC
331
25C7
331
25C8
331
2E6C
331
2E6D
331
2E75
331
2E76
331
2E7E
331
2E7F
331
2E87
331
2E88
331
2E90
331
2E91
331
2E99
331
2E9A
102
}
  0
BLOCK_RECORD
  5
2E21
330
1
100
AcDbSymbolTableRecord
100
AcDbBlockTableRecord
  2
*D2
340
0
  0
BLOCK_RECORD
  5
2E2D
330
1
100
AcDbSymbolTableRecord
100
AcDbBlockTableRecord
  2
*D3
340
0
  0
BLOCK_RECORD
  5
2E39
330
1
100
AcDbSymbolTableRecord
100
AcDbBlockTableRecord
  2
*D4
340
0
  0
BLOCK_RECORD
  5
2E45
330
1
100
AcDbSymbolTableRecord
100
AcDbBlockTableRecord
  2
*D5
340
0
  0
BLOCK_RECORD
  5
2E51
330
1
100
AcDbSymbolTableRecord
100
AcDbBlockTableRecord
  2
*D6
340
0
  0
BLOCK_RECORD
  5
2E5D
330
1
100
AcDbSymbolTableRecord
100
AcDbBlockTableRecord
  2
*D7
340
0
  0
ENDTAB
  0
ENDSEC
  0
SECTION
  2
BLOCKS
  0
BLOCK
  5
20
330
1F
100
AcDbEntity
  8
0
100
AcDbBlockBegin
  2
*Model_Space
 70
     0
 10
0.0
 20
0.0
 30
0.0
  3
*Model_Space
  1

  0
ENDBLK
  5
21
330
1F
100
AcDbEntity
  8
0
100
AcDbBlockEnd
  0
BLOCK
  5
1C
330
1B
100
AcDbEntity
 67
     1
  8
0
100
AcDbBlockBegin
  2
*Paper_Space
 70
     0
 10
0.0
 20
0.0
 30
0.0
  3
*Paper_Space
  1

  0
ENDBLK
  5
1D
330
1B
100
AcDbEntity
 67
     1
  8
0
100
AcDbBlockEnd
  0
BLOCK
  5
24
330
23
100
AcDbEntity
  8
0
100
AcDbBlockBegin
  2
*Paper_Space0
 70
     0
 10
0.0
 20
0.0
 30
0.0
  3
*Paper_Space0
  1

  0
ENDBLK
  5
25
330
23
100
AcDbEntity
  8
0
100
AcDbBlockEnd
  0
BLOCK
  5
2F
330
2B
100
AcDbEntity
  8
0
 62
     0
100
AcDbBlockBegin
  2
_OPEN30
 70
     2
 10
0.0
 20
0.0
 30
0.0
  3
_OPEN30
  1

  0
LINE
  5
2C
330
2B
100
AcDbEntity
  8
0
  6
ByBlock
 62
     0
100
AcDbLine
 10
-1.0
 20
0.267949
 30
0.0
 11
0.0
 21
0.0
 31
0.0
  0
LINE
  5
2D
330
2B
100
AcDbEntity
  8
0
  6
ByBlock
 62
     0
100
AcDbLine
 10
0.0
 20
0.0
 30
0.0
 11
-1.0
 21
-0.267949
 31
0.0
  0
LINE
  5
2E
330
2B
100
AcDbEntity
  8
0
  6
ByBlock
 62
     0
100
AcDbLine
 10
0.0
 20
0.0
 30
0.0
 11
-1.0
 21
0.0
 31
0.0
  0
ENDBLK
  5
30
330
2B
100
AcDbEntity
  8
0
 62
     0
100
AcDbBlockEnd
  0
BLOCK
  5
2E2B
330
2E21
100
AcDbEntity
  8
0
100
AcDbBlockBegin
  2
*D2
 70
     1
 10
0.0
 20
0.0
 30
0.0
  3
*D2
  1

  0
LINE
  5
2E69
330
2E21
100
AcDbEntity
  8
1
  6
Continuous
 62
     0
370
    13
100
AcDbLine
 10
4048.037288095161
 20
21232.26684618031
 30
0.0
 11
4048.037288095161
 21
23172.15448332724
 31
0.0
  0
LINE
  5
2E6A
330
2E21
100
AcDbEntity
  8
1
  6
Continuous
 62
     0
370
    13
100
AcDbLine
 10
8578.068463672883
 20
21232.26684618031
 30
0.0
 11
8578.068463672883
 21
23172.15448332724
 31
0.0
  0
LINE
  5
2E6B
330
2E21
100
AcDbEntity
  8
1
  6
Continuous
 62
     0
370
    13
100
AcDbLine
 10
4548.037288095161
 20
23171.97448332724
 30
0.0
 11
8078.068463672883
 21
23171.97448332724
 31
0.0
  0
INSERT
  5
2E6C
330
2E21
100
AcDbEntity
  8
1
  6
Continuous
 62
     0
370
    13
100
AcDbBlockReference
  2
_OPEN30
 10
4048.037288095161
 20
23171.97448332724
 30
0.0
 41
500.0
 42
500.0
 43
500.0
 50
180.0
  0
INSERT
  5
2E6D
330
2E21
100
AcDbEntity
  8
1
  6
Continuous
 62
     0
370
    13
100
AcDbBlockReference
  2
_OPEN30
 10
8578.068463672883
 20
23171.97448332724
 30
0.0
 41
500.0
 42
500.0
 43
500.0
  0
MTEXT
  5
2E6E
330
2E21
100
AcDbEntity
  8
1
  6
Continuous
 62
     0
370
    13
100
AcDbMText
 10
6313.087938177807
 20
23421.97448332724
 30
0.0
 40
400.0
 41
0.0
 71
     5
 72
     1
  1
\A1;42
 73
     1
 44
1.0
  0
POINT
  5
2E6F
330
2E21
100
AcDbEntity
  8
DEFPOINTS
  6
Continuous
 62
     0
100
AcDbPoint
 10
4048.037288095161
 20
21182.26684618031
 30
0.0
  0
POINT
  5
2E70
330
2E21
100
AcDbEntity
  8
DEFPOINTS
  6
Continuous
 62
     0
100
AcDbPoint
 10
8578.068463672883
 20
21182.26684618031
 30
0.0
  0
POINT
  5
2E71
330
2E21
100
AcDbEntity
  8
DEFPOINTS
  6
Continuous
 62
     0
100
AcDbPoint
 10
8578.068463672883
 20
23171.97448332724
 30
0.0
  0
ENDBLK
  5
2E2C
330
2E21
100
AcDbEntity
  8
0
100
AcDbBlockEnd
  0
BLOCK
  5
2E37
330
2E2D
100
AcDbEntity
  8
0
100
AcDbBlockBegin
  2
*D3
 70
     1
 10
0.0
 20
0.0
 30
0.0
  3
*D3
  1

  0
LINE
  5
2E72
330
2E2D
100
AcDbEntity
  8
1
  6
Continuous
 62
     0
370
    13
100
AcDbLine
 10
4587.013710176282
 20
21110.52463120966
 30
0.0
 11
4587.013710176282
 21
22240.79250466648
 31
0.0
  0
LINE
  5
2E73
330
2E2D
100
AcDbEntity
  8
1
  6
Continuous
 62
     0
370
    13
100
AcDbLine
 10
8038.735679137898
 20
21110.52463120966
 30
0.0
 11
8038.735679137898
 21
22240.79250466648
 31
0.0
  0
LINE
  5
2E74
330
2E2D
100
AcDbEntity
  8
1
  6
Continuous
 62
     0
370
    13
100
AcDbLine
 10
5087.013710176282
 20
22240.61250466648
 30
0.0
 11
7538.735679137899
 21
22240.61250466648
 31
0.0
  0
INSERT
  5
2E75
330
2E2D
100
AcDbEntity
  8
1
  6
Continuous
 62
     0
370
    13
100
AcDbBlockReference
  2
_OPEN30
 10
4587.013710176282
 20
22240.61250466648
 30
0.0
 41
500.0
 42
500.0
 43
500.0
 50
180.0
  0
INSERT
  5
2E76
330
2E2D
100
AcDbEntity
  8
1
  6
Continuous
 62
     0
370
    13
100
AcDbBlockReference
  2
_OPEN30
 10
8038.735679137898
 20
22240.61250466648
 30
0.0
 41
500.0
 42
500.0
 43
500.0
  0
MTEXT
  5
2E77
330
2E2D
100
AcDbEntity
  8
1
  6
Continuous
 62
     0
370
    13
100
AcDbMText
 10
6312.874694657089
 20
22490.61250466648
 30
0.0
 40
400.0
 41
0.0
 71
     5
 72
     1
  1
\A1;32
 73
     1
 44
1.0
  0
POINT
  5
2E78
330
2E2D
100
AcDbEntity
  8
DEFPOINTS
  6
Continuous
 62
     0
100
AcDbPoint
 10
4587.013710176282
 20
21060.52463120966
 30
0.0
  0
POINT
  5
2E79
330
2E2D
100
AcDbEntity
  8
DEFPOINTS
  6
Continuous
 62
     0
100
AcDbPoint
 10
8038.735679137898
 20
21060.52463120966
 30
0.0
  0
POINT
  5
2E7A
330
2E2D
100
AcDbEntity
  8
DEFPOINTS
  6
Continuous
 62
     0
100
AcDbPoint
 10
8038.735679137898
 20
22240.61250466648
 30
0.0
  0
ENDBLK
  5
2E38
330
2E2D
100
AcDbEntity
  8
0
100
AcDbBlockEnd
  0
BLOCK
  5
2E43
330
2E39
100
AcDbEntity
  8
0
100
AcDbBlockBegin
  2
*D4
 70
     1
 10
0.0
 20
0.0
 30
0.0
  3
*D4
  1

  0
LINE
  5
2E7B
330
2E39
100
AcDbEntity
  8
1
  6
Continuous
 62
     0
370
    13
100
AcDbLine
 10
8578.068463672883
 20
21457.17893622205
 30
0.0
 11
8578.068463672883
 21
23172.15448332724
 31
0.0
  0
LINE
  5
2E7C
330
2E39
100
AcDbEntity
  8
1
  6
Continuous
 62
     0
370
    13
100
AcDbLine
 10
13108.09802138223
 20
21232.26684618031
 30
0.0
 11
13108.09802138223
 21
23172.15448332724
 31
0.0
  0
LINE
  5
2E7D
330
2E39
100
AcDbEntity
  8
1
  6
Continuous
 62
     0
370
    13
100
AcDbLine
 10
9078.068463672883
 20
23171.97448332724
 30
0.0
 11
12608.09802138223
 21
23171.97448332724
 31
0.0
  0
INSERT
  5
2E7E
330
2E39
100
AcDbEntity
  8
1
  6
Continuous
 62
     0
370
    13
100
AcDbBlockReference
  2
_OPEN30
 10
8578.068463672883
 20
23171.97448332724
 30
0.0
 41
500.0
 42
500.0
 43
500.0
 50
180.0
  0
INSERT
  5
2E7F
330
2E39
100
AcDbEntity
  8
1
  6
Continuous
 62
     0
370
    13
100
AcDbBlockReference
  2
_OPEN30
 10
13108.09802138223
 20
23171.97448332724
 30
0.0
 41
500.0
 42
500.0
 43
500.0
  0
MTEXT
  5
2E80
330
2E39
100
AcDbEntity
  8
1
  6
Continuous
 62
     0
370
    13
100
AcDbMText
 10
10843.04898916796
 20
23421.97448332724
 30
0.0
 40
400.0
 41
0.0
 71
     5
 72
     1
  1
\A1;42
 73
     1
 44
1.0
  0
POINT
  5
2E81
330
2E39
100
AcDbEntity
  8
DEFPOINTS
  6
Continuous
 62
     0
100
AcDbPoint
 10
8578.068463672883
 20
21407.17893622205
 30
0.0
  0
POINT
  5
2E82
330
2E39
100
AcDbEntity
  8
DEFPOINTS
  6
Continuous
 62
     0
100
AcDbPoint
 10
13108.09802138223
 20
21182.26684618031
 30
0.0
  0
POINT
  5
2E83
330
2E39
100
AcDbEntity
  8
DEFPOINTS
  6
Continuous
 62
     0
100
AcDbPoint
 10
13108.09802138223
 20
23171.97448332724
 30
0.0
  0
ENDBLK
  5
2E44
330
2E39
100
AcDbEntity
  8
0
100
AcDbBlockEnd
  0
BLOCK
  5
2E4F
330
2E45
100
AcDbEntity
  8
0
100
AcDbBlockBegin
  2
*D5
 70
     1
 10
0.0
 20
0.0
 30
0.0
  3
*D5
  1

  0
LINE
  5
2E84
330
2E45
100
AcDbEntity
  8
1
  6
Continuous
 62
     0
370
    13
100
AcDbLine
 10
9117.220100888898
 20
20982.14942594897
 30
0.0
 11
9117.220100888898
 21
22232.43675430636
 31
0.0
  0
LINE
  5
2E85
330
2E45
100
AcDbEntity
  8
1
  6
Continuous
 62
     0
370
    13
100
AcDbLine
 10
12568.83156944702
 20
20982.14942594897
 30
0.0
 11
12568.83156944702
 21
22232.43675430636
 31
0.0
  0
LINE
  5
2E86
330
2E45
100
AcDbEntity
  8
1
  6
Continuous
 62
     0
370
    13
100
AcDbLine
 10
9617.220100888898
 20
22232.25675430636
 30
0.0
 11
12068.83156944702
 21
22232.25675430636
 31
0.0
  0
INSERT
  5
2E87
330
2E45
100
AcDbEntity
  8
1
  6
Continuous
 62
     0
370
    13
100
AcDbBlockReference
  2
_OPEN30
 10
9117.220100888898
 20
22232.25675430636
 30
0.0
 41
500.0
 42
500.0
 43
500.0
 50
180.0
  0
INSERT
  5
2E88
330
2E45
100
AcDbEntity
  8
1
  6
Continuous
 62
     0
370
    13
100
AcDbBlockReference
  2
_OPEN30
 10
12568.83156944702
 20
22232.25675430636
 30
0.0
 41
500.0
 42
500.0
 43
500.0
  0
MTEXT
  5
2E89
330
2E45
100
AcDbEntity
  8
1
  6
Continuous
 62
     0
370
    13
100
AcDbMText
 10
10843.02583516795
 20
22482.25675430636
 30
0.0
 40
400.0
 41
0.0
 71
     5
 72
     1
  1
\A1;32
 73
     1
 44
1.0
  0
POINT
  5
2E8A
330
2E45
100
AcDbEntity
  8
DEFPOINTS
  6
Continuous
 62
     0
100
AcDbPoint
 10
9117.220100888898
 20
20932.14942594896
 30
0.0
  0
POINT
  5
2E8B
330
2E45
100
AcDbEntity
  8
DEFPOINTS
  6
Continuous
 62
     0
100
AcDbPoint
 10
12568.83156944702
 20
20932.14942594896
 30
0.0
  0
POINT
  5
2E8C
330
2E45
100
AcDbEntity
  8
DEFPOINTS
  6
Continuous
 62
     0
100
AcDbPoint
 10
12568.83156944702
 20
22232.25675430636
 30
0.0
  0
ENDBLK
  5
2E50
330
2E45
100
AcDbEntity
  8
0
100
AcDbBlockEnd
  0
BLOCK
  5
2E5B
330
2E51
100
AcDbEntity
  8
0
100
AcDbBlockBegin
  2
*D6
 70
     1
 10
0.0
 20
0.0
 30
0.0
  3
*D6
  1

  0
LINE
  5
2E8D
330
2E51
100
AcDbEntity
  8
1
  6
Continuous
 62
     0
370
    13
100
AcDbLine
 10
12956.02535679345
 20
20643.29797414965
 30
0.0
 11
14177.38909030313
 21
20643.29797414965
 31
0.0
  0
LINE
  5
2E8E
330
2E51
100
AcDbEntity
  8
1
  6
Continuous
 62
     0
370
    13
100
AcDbLine
 10
12956.02535679345
 20
16005.23634082355
 30
0.0
 11
14177.38909030313
 21
16005.23634082355
 31
0.0
  0
LINE
  5
2E8F
330
2E51
100
AcDbEntity
  8
1
  6
Continuous
 62
     0
370
    13
100
AcDbLine
 10
14177.20909030313
 20
20143.29797414965
 30
0.0
 11
14177.20909030313
 21
16505.23634082355
 31
0.0
  0
INSERT
  5
2E90
330
2E51
100
AcDbEntity
  8
1
  6
Continuous
 62
     0
370
    13
100
AcDbBlockReference
  2
_OPEN30
 10
14177.20909030314
 20
20643.29797414965
 30
0.0
 41
500.0
 42
500.0
 43
500.0
 50
90.0
  0
INSERT
  5
2E91
330
2E51
100
AcDbEntity
  8
1
  6
Continuous
 62
     0
370
    13
100
AcDbBlockReference
  2
_OPEN30
 10
14177.20909030313
 20
16005.23634082355
 30
0.0
 41
500.0
 42
500.0
 43
500.0
 50
270.0
  0
MTEXT
  5
2E92
330
2E51
100
AcDbEntity
  8
1
  6
Continuous
 62
     0
370
    13
100
AcDbMText
 10
13927.20909030312
 20
18324.2671574866
 30
0.0
 40
400.0
 41
0.0
 71
     5
 72
     1
  1
\A1;43
 11
0.0000000000000001
 21
1.0
 31
0.0
 73
     1
 44
1.0
  0
POINT
  5
2E93
330
2E51
100
AcDbEntity
  8
DEFPOINTS
  6
Continuous
 62
     0
100
AcDbPoint
 10
12906.02535679345
 20
20643.29797414965
 30
0.0
  0
POINT
  5
2E94
330
2E51
100
AcDbEntity
  8
DEFPOINTS
  6
Continuous
 62
     0
100
AcDbPoint
 10
12906.02535679345
 20
16005.23634082355
 30
0.0
  0
POINT
  5
2E95
330
2E51
100
AcDbEntity
  8
DEFPOINTS
  6
Continuous
 62
     0
100
AcDbPoint
 10
14177.20909030313
 20
16005.23634082355
 30
0.0
  0
ENDBLK
  5
2E5C
330
2E51
100
AcDbEntity
  8
0
100
AcDbBlockEnd
  0
BLOCK
  5
2E67
330
2E5D
100
AcDbEntity
  8
0
100
AcDbBlockBegin
  2
*D7
 70
     1
 10
0.0
 20
0.0
 30
0.0
  3
*D7
  1

  0
LINE
  5
2E96
330
2E5D
100
AcDbEntity
  8
1
  6
Continuous
 62
     0
370
    13
100
AcDbLine
 10
13158.09802138222
 20
21182.26684618031
 30
0.0
 11
15124.91753844973
 21
21182.26684618031
 31
0.0
  0
LINE
  5
2E97
330
2E5D
100
AcDbEntity
  8
1
  6
Continuous
 62
     0
370
    13
100
AcDbLine
 10
13158.09802138222
 20
15465.79893414194
 30
0.0
 11
15124.91753844973
 21
15465.79893414194
 31
0.0
  0
LINE
  5
2E98
330
2E5D
100
AcDbEntity
  8
1
  6
Continuous
 62
     0
370
    13
100
AcDbLine
 10
15124.73753844973
 20
20682.26684618032
 30
0.0
 11
15124.73753844973
 21
15965.79893414194
 31
0.0
  0
INSERT
  5
2E99
330
2E5D
100
AcDbEntity
  8
1
  6
Continuous
 62
     0
370
    13
100
AcDbBlockReference
  2
_OPEN30
 10
15124.73753844973
 20
21182.26684618031
 30
0.0
 41
500.0
 42
500.0
 43
500.0
 50
90.0
  0
INSERT
  5
2E9A
330
2E5D
100
AcDbEntity
  8
1
  6
Continuous
 62
     0
370
    13
100
AcDbBlockReference
  2
_OPEN30
 10
15124.73753844973
 20
15465.79893414194
 30
0.0
 41
500.0
 42
500.0
 43
500.0
 50
270.0
  0
MTEXT
  5
2E9B
330
2E5D
100
AcDbEntity
  8
1
  6
Continuous
 62
     0
370
    13
100
AcDbMText
 10
14874.73753844972
 20
18324.30650107029
 30
0.0
 40
400.0
 41
0.0
 71
     5
 72
     1
  1
\A1;53
 11
0.0000000000000001
 21
1.0
 31
0.0
 73
     1
 44
1.0
  0
POINT
  5
2E9C
330
2E5D
100
AcDbEntity
  8
DEFPOINTS
  6
Continuous
 62
     0
100
AcDbPoint
 10
13108.09802138223
 20
21182.26684618031
 30
0.0
  0
POINT
  5
2E9D
330
2E5D
100
AcDbEntity
  8
DEFPOINTS
  6
Continuous
 62
     0
100
AcDbPoint
 10
13108.09802138223
 20
15465.79893414194
 30
0.0
  0
POINT
  5
2E9E
330
2E5D
100
AcDbEntity
  8
DEFPOINTS
  6
Continuous
 62
     0
100
AcDbPoint
 10
15124.73753844973
 20
15465.79893414194
 30
0.0
  0
ENDBLK
  5
2E68
330
2E5D
100
AcDbEntity
  8
0
100
AcDbBlockEnd
  0
ENDSEC
  0
SECTION
  2
ENTITIES
  0
LINE
  5
29FA
330
1F
100
AcDbEntity
  8
0
370
    13
100
AcDbLine
 10
1053.17994516919
 20
26007.01660783785
 30
0.0
 11
23633.63761721388
 21
26007.01660783785
 31
0.0
  0
LINE
  5
29FB
330
1F
100
AcDbEntity
  8
1
  6
Continuous
 62
     7
370
    13
100
AcDbLine
 10
3808.878722731781
 20
26007.01660783785
 30
0.0
 11
3808.878722731781
 21
24169.88408946289
 31
0.0
  0
LINE
  5
29FC
330
1F
100
AcDbEntity
  8
1
  6
Continuous
 62
     7
370
    13
100
AcDbLine
 10
1053.17994516919
 20
24169.88408946289
 30
0.0
 11
23633.63761721225
 21
24169.88408946289
 31
0.0
  0
LINE
  5
29FD
330
1F
100
AcDbEntity
  8
1
  6
Continuous
 62
     7
370
    13
100
AcDbLine
 10
1053.17994516919
 20
26007.01660783785
 30
0.0
 11
1053.17994516919
 21
927.0605830477434
 31
0.0
  0
LINE
  5
29FE
330
1F
100
AcDbEntity
  8
0
370
    13
100
AcDbLine
 10
1053.17994516919
 20
927.0605830477434
 30
0.0
 11
23633.63761721388
 21
927.0605830477434
 31
0.0
  0
LINE
  5
29FF
330
1F
100
AcDbEntity
  8
1
  6
Continuous
 62
     7
370
    13
100
AcDbLine
 10
23633.63761721388
 20
26007.01660783785
 30
0.0
 11
23633.63761721388
 21
927.0605830477434
 31
0.0
  0
LINE
  5
2A00
330
1F
100
AcDbEntity
  8
1
  6
Continuous
 62
     7
370
    13
100
AcDbLine
 10
9529.282105691059
 20
11299.75490814037
 30
0.0
 11
13106.37748711358
 21
11299.75490814037
 31
0.0
  0
LINE
  5
2A01
330
1F
100
AcDbEntity
  8
1
  6
Continuous
 62
     7
370
    13
100
AcDbLine
 10
9623.097379540793
 20
11450.75616304245
 30
0.0
 11
13106.37748711358
 21
11450.75616304245
 31
0.0
  0
LINE
  5
2A02
330
1F
100
AcDbEntity
  8
1
  6
Continuous
 62
     7
370
    13
100
AcDbLine
 10
9654.478307644982
 20
11537.04241721934
 30
0.0
 11
13106.37748711358
 21
11537.04241721934
 31
0.0
  0
LINE
  5
2A03
330
1F
100
AcDbEntity
  8
1
  6
Continuous
 62
     7
370
    13
100
AcDbLine
 10
9655.807278576745
 20
11688.04361819202
 30
0.0
 11
13106.37748711358
 21
11688.04361819202
 31
0.0
  0
LINE
  5
2A04
330
1F
100
AcDbEntity
  8
1
  6
Continuous
 62
     7
370
    13
100
AcDbLine
 10
9618.081880023529
 20
11774.32981844082
 30
0.0
 11
13106.37748711358
 21
11774.32981844082
 31
0.0
  0
LINE
  5
2A05
330
1F
100
AcDbEntity
  8
1
  6
Continuous
 62
     7
370
    13
100
AcDbLine
 10
9507.990689522092
 20
11925.33107334169
 30
0.0
 11
13106.37748711358
 21
11925.33107334169
 31
0.0
  0
LINE
  5
2A06
330
1F
100
AcDbEntity
  8
1
  6
Continuous
 62
     7
370
    13
100
AcDbLine
 10
9442.252441040414
 20
12011.61727359047
 30
0.0
 11
13106.37748711358
 21
12011.61727359047
 31
0.0
  0
LINE
  5
2A07
330
1F
100
AcDbEntity
  8
1
  6
Continuous
 62
     7
370
    13
100
AcDbLine
 10
9368.922183882009
 20
12162.61804313208
 30
0.0
 11
13106.37748711358
 21
12162.61804313208
 31
0.0
  0
LINE
  5
2A08
330
1F
100
AcDbEntity
  8
1
  6
Continuous
 62
     7
370
    13
100
AcDbLine
 10
9362.056813778179
 20
12248.90472874005
 30
0.0
 11
13106.37748711358
 21
12248.90472874005
 31
0.0
  0
LINE
  5
2A09
330
1F
100
AcDbEntity
  8
1
  6
Continuous
 62
     7
370
    13
100
AcDbLine
 10
9397.687126843434
 20
12399.90549828177
 30
0.0
 11
13106.37748711358
 21
12399.90549828177
 31
0.0
  0
LINE
  5
2A0A
330
1F
100
AcDbEntity
  8
1
  6
Continuous
 62
     7
370
    13
100
AcDbLine
 10
9439.007752282428
 20
12486.19169853054
 30
0.0
 11
13106.37748711358
 21
12486.19169853054
 31
0.0
  0
LINE
  5
2A0B
330
1F
100
AcDbEntity
  8
1
  6
Continuous
 62
     7
370
    13
100
AcDbLine
 10
9540.880765156179
 20
12637.19289950326
 30
0.0
 11
13106.37748711358
 21
12637.19289950326
 31
0.0
  0
LINE
  5
2A0C
330
1F
100
AcDbEntity
  8
1
  6
Continuous
 62
     7
370
    13
100
AcDbLine
 10
16889.82850109908
 20
10434.4241390412
 30
0.0
 11
13789.1782317754
 21
10434.4241390412
 31
0.0
  0
LINE
  5
2A0D
330
1F
100
AcDbEntity
  8
1
  6
Continuous
 62
     7
370
    13
100
AcDbLine
 10
17029.81940737
 20
9959.849120884525
 30
0.0
 11
13789.1782317754
 21
9959.849120884525
 31
0.0
  0
LINE
  5
2A0E
330
1F
100
AcDbEntity
  8
1
  6
Continuous
 62
     7
370
    13
100
AcDbLine
 10
16861.29043720095
 20
10283.42272235354
 30
0.0
 11
13789.1782317754
 21
10283.42272235354
 31
0.0
  0
LINE
  5
2A0F
330
1F
100
AcDbEntity
  8
1
  6
Continuous
 62
     7
370
    13
100
AcDbLine
 10
16969.36436167795
 20
10110.85032185724
 30
0.0
 11
13789.1782317754
 21
10110.85032185724
 31
0.0
  0
LINE
  5
2A10
330
1F
100
AcDbEntity
  8
1
  6
Continuous
 62
     7
370
    13
100
AcDbLine
 10
7639.860265921889
 20
12634.52961119279
 30
0.0
 11
9323.066712877771
 21
12634.52961119279
 31
0.0
  0
ARC
  5
2A11
330
1F
100
AcDbEntity
  8
0
370
    13
100
AcDbCircle
 10
7639.860265921889
 20
12934.52961119279
 30
0.0
 40
300.0
100
AcDbArc
 50
180.0
 51
270.0
  0
LINE
  5
2A12
330
1F
100
AcDbEntity
  8
1
  6
Continuous
 62
     7
370
    13
100
AcDbLine
 10
7214.900198508461
 20
12246.24144042959
 30
0.0
 11
9144.24276149983
 21
12246.24144042959
 31
0.0
  0
ARC
  5
2A13
330
1F
100
AcDbEntity
  8
0
370
    13
100
AcDbCircle
 10
7214.900198508461
 20
12546.24144042959
 30
0.0
 40
300.0
100
AcDbArc
 50
180.0
 51
270.0
  0
LINE
  5
2A14
330
1F
100
AcDbEntity
  8
1
  6
Continuous
 62
     7
370
    13
100
AcDbLine
 10
7100.570840257801
 20
12159.95475482163
 30
0.0
 11
9151.108131603688
 21
12159.95475482163
 31
0.0
  0
ARC
  5
2A15
330
1F
100
AcDbEntity
  8
0
370
    13
100
AcDbCircle
 10
7100.570840257801
 20
12459.95475482163
 30
0.0
 40
300.0
100
AcDbArc
 50
180.0
 51
270.0
  0
LINE
  5
2A16
330
1F
100
AcDbEntity
  8
1
  6
Continuous
 62
     7
370
    13
100
AcDbLine
 10
6945.255485676374
 20
12008.95398528001
 30
0.0
 11
9224.438388762299
 21
12008.95398528001
 31
0.0
  0
ARC
  5
2A17
330
1F
100
AcDbEntity
  8
0
370
    13
100
AcDbCircle
 10
6945.255485676374
 20
12308.95398528002
 30
0.0
 40
300.0
100
AcDbArc
 50
180.0
 51
270.0
  0
LINE
  5
2A18
330
1F
100
AcDbEntity
  8
1
  6
Continuous
 62
     7
370
    13
100
AcDbLine
 10
6830.926127425772
 20
11922.66778503124
 30
0.0
 11
9290.176637244032
 21
11922.66778503124
 31
0.0
  0
ARC
  5
2A19
330
1F
100
AcDbEntity
  8
0
370
    13
100
AcDbCircle
 10
6830.926127425772
 20
12222.66778503124
 30
0.0
 40
300.0
100
AcDbArc
 50
180.0
 51
270.0
  0
LINE
  5
2A1A
330
1F
100
AcDbEntity
  8
1
  6
Continuous
 62
     7
370
    13
100
AcDbLine
 10
8225.740758960546
 20
10110.85032185724
 30
0.0
 11
10391.65485009216
 21
10110.85032185724
 31
0.0
  0
LINE
  5
2A1B
330
1F
100
AcDbEntity
  8
1
  6
Continuous
 62
     7
370
    13
100
AcDbLine
 10
8130.126685231983
 20
10283.42272235354
 30
0.0
 11
10391.65485009216
 21
10283.42272235354
 31
0.0
  0
LINE
  5
2A1C
330
1F
100
AcDbEntity
  8
1
  6
Continuous
 62
     7
370
    13
100
AcDbLine
 10
8176.332787507766
 20
10434.4241390412
 30
0.0
 11
10391.65485009216
 21
10434.4241390412
 31
0.0
  0
LINE
  5
2A1D
330
1F
100
AcDbEntity
  8
1
  6
Continuous
 62
     7
370
    13
100
AcDbLine
 10
8365.26102735201
 20
9959.849120884525
 30
0.0
 11
10391.65485009216
 21
9959.849120884525
 31
0.0
  0
LINE
  5
2A1E
330
1F
100
AcDbEntity
  8
1
  6
Continuous
 62
     7
370
    13
100
AcDbLine
 10
7370.21555308986
 20
12397.24220997131
 30
0.0
 11
9179.873074565433
 21
12397.24220997131
 31
0.0
  0
ARC
  5
2A1F
330
1F
100
AcDbEntity
  8
0
370
    13
100
AcDbCircle
 10
7370.21555308986
 20
12697.2422099713
 30
0.0
 40
300.0
100
AcDbArc
 50
180.0
 51
270.0
  0
LINE
  5
2A20
330
1F
100
AcDbEntity
  8
1
  6
Continuous
 62
     7
370
    13
100
AcDbLine
 10
7484.544911340491
 20
12483.52841022009
 30
0.0
 11
9221.19370000402
 21
12483.52841022009
 31
0.0
  0
ARC
  5
2A21
330
1F
100
AcDbEntity
  8
0
370
    13
100
AcDbCircle
 10
7484.544911340491
 20
12783.52841022009
 30
0.0
 40
300.0
100
AcDbArc
 50
180.0
 51
270.0
  0
LINE
  5
2A22
330
1F
100
AcDbEntity
  8
1
  6
Continuous
 62
     7
370
    13
100
AcDbLine
 10
6675.610772844375
 20
11771.66653013034
 30
0.0
 11
9400.267827745468
 21
11771.66653013034
 31
0.0
  0
ARC
  5
2A23
330
1F
100
AcDbEntity
  8
0
370
    13
100
AcDbCircle
 10
6675.610772844375
 20
12071.66653013034
 30
0.0
 40
300.0
100
AcDbArc
 50
180.0
 51
270.0
  0
LINE
  5
2A24
330
1F
100
AcDbEntity
  8
1
  6
Continuous
 62
     7
370
    13
100
AcDbLine
 10
6561.281414593745
 20
11685.38032988156
 30
0.0
 11
9437.993226298541
 21
11685.38032988156
 31
0.0
  0
ARC
  5
2A25
330
1F
100
AcDbEntity
  8
0
370
    13
100
AcDbCircle
 10
6561.281414593745
 20
11985.38032988156
 30
0.0
 40
300.0
100
AcDbArc
 50
180.0
 51
270.0
  0
LINE
  5
2A26
330
1F
100
AcDbEntity
  8
1
  6
Continuous
 62
     7
370
    13
100
AcDbLine
 10
6405.966060012346
 20
11534.37912890889
 30
0.0
 11
9436.664255366661
 21
11534.37912890887
 31
0.0
  0
ARC
  5
2A27
330
1F
100
AcDbEntity
  8
0
370
    13
100
AcDbCircle
 10
6405.966060012346
 20
11834.37912890889
 30
0.0
 40
300.0
100
AcDbArc
 50
180.0
 51
270.0
  0
LINE
  5
2A28
330
1F
100
AcDbEntity
  8
1
  6
Continuous
 62
     7
370
    13
100
AcDbLine
 10
6291.636701761832
 20
11448.092874732
 30
0.0
 11
9405.283327262589
 21
11448.092874732
 31
0.0
  0
ARC
  5
2A29
330
1F
100
AcDbEntity
  8
0
370
    13
100
AcDbCircle
 10
6291.636701761832
 20
11748.09287473199
 30
0.0
 40
300.0
100
AcDbArc
 50
180.0
 51
270.0
  0
LINE
  5
2A2A
330
1F
100
AcDbEntity
  8
1
  6
Continuous
 62
     7
370
    13
100
AcDbLine
 10
6136.321347180435
 20
11297.09161982991
 30
0.0
 11
9311.46805341277
 21
11297.09161982989
 31
0.0
  0
ARC
  5
2A2B
330
1F
100
AcDbEntity
  8
0
370
    13
100
AcDbCircle
 10
6136.321347180435
 20
11597.09161982992
 30
0.0
 40
300.0
100
AcDbArc
 50
180.0
 51
270.0
  0
LINE
  5
2A2C
330
1F
100
AcDbEntity
  8
1
  6
Continuous
 62
     7
370
    13
100
AcDbLine
 10
5752.347276097715
 20
10110.85032185724
 30
0.0
 11
8010.024988694992
 21
10110.85032185724
 31
0.0
  0
ARC
  5
2A2D
330
1F
100
AcDbEntity
  8
0
370
    13
100
AcDbCircle
 10
5752.347276097715
 20
10410.85032185724
 30
0.0
 40
300.0
100
AcDbArc
 50
180.0
 51
270.0
  0
LINE
  5
2A2E
330
1F
100
AcDbEntity
  8
1
  6
Continuous
 62
     7
370
    13
100
AcDbLine
 10
10391.65485009216
 20
10062.31459712112
 30
0.0
 11
12171.30995478347
 21
10062.31459712112
 31
0.0
  0
LINE
  5
2A2F
330
1F
100
AcDbEntity
  8
1
  6
Continuous
 62
     7
370
    13
100
AcDbLine
 10
10391.65485009216
 20
10331.95930995314
 30
0.0
 11
12171.30995478347
 21
10331.95930995314
 31
0.0
  0
LINE
  5
2A30
330
1F
100
AcDbEntity
  8
1
  6
Continuous
 62
     7
370
    13
100
AcDbLine
 10
12171.30995478347
 20
10331.95930995314
 30
0.0
 11
12171.30995478347
 21
10062.31459712112
 31
0.0
  0
LINE
  5
2A31
330
1F
100
AcDbEntity
  8
1
  6
Continuous
 62
     7
370
    13
100
AcDbLine
 10
10391.65485009216
 20
10655.53296535149
 30
0.0
 11
10391.65485009216
 21
9738.740941722689
 31
0.0
  0
LINE
  5
2A32
330
1F
100
AcDbEntity
  8
1
  6
Continuous
 62
     7
370
    13
100
AcDbLine
 10
12440.9546676154
 20
10763.39085048432
 30
0.0
 11
12440.9546676154
 21
9630.883056589851
 31
0.0
  0
LINE
  5
2A33
330
1F
100
AcDbEntity
  8
1
  6
Continuous
 62
     7
370
    13
100
AcDbLine
 10
11416.30475885389
 20
10763.39085048432
 30
0.0
 11
11416.30475885389
 21
9630.883056589851
 31
0.0
  0
LINE
  5
2A34
330
1F
100
AcDbEntity
  8
1
  6
Continuous
 62
     7
370
    13
100
AcDbLine
 10
10391.65485009216
 20
10655.53296535149
 30
0.0
 11
11416.30475885389
 21
10655.53296535149
 31
0.0
  0
LINE
  5
2A35
330
1F
100
AcDbEntity
  8
1
  6
Continuous
 62
     7
370
    13
100
AcDbLine
 10
10391.65485009216
 20
9738.740941722689
 30
0.0
 11
11416.30475885389
 21
9738.740941722689
 31
0.0
  0
LINE
  5
2A36
330
1F
100
AcDbEntity
  8
1
  6
Continuous
 62
     7
370
    13
100
AcDbLine
 10
11416.30475885389
 20
10763.39085048432
 30
0.0
 11
12440.9546676154
 21
10763.39085048432
 31
0.0
  0
LINE
  5
2A37
330
1F
100
AcDbEntity
  8
1
  6
Continuous
 62
     7
370
    13
100
AcDbLine
 10
10391.65485009216
 20
10461.38839460944
 30
0.0
 11
11416.30475885389
 21
10461.38839460944
 31
0.0
  0
LINE
  5
2A38
330
1F
100
AcDbEntity
  8
1
  6
Continuous
 62
     7
370
    13
100
AcDbLine
 10
10391.65485009216
 20
9932.884649601341
 30
0.0
 11
11416.30475885389
 21
9932.884649601341
 31
0.0
  0
LINE
  5
2A39
330
1F
100
AcDbEntity
  8
1
  6
Continuous
 62
     7
370
    13
100
AcDbLine
 10
11416.30475885389
 20
10493.74613765231
 30
0.0
 11
12440.9546676154
 21
10493.74613765231
 31
0.0
  0
LINE
  5
2A3A
330
1F
100
AcDbEntity
  8
1
  6
Continuous
 62
     7
370
    13
100
AcDbLine
 10
13645.66729028042
 20
11569.39967490172
 30
0.0
 11
13645.66729028042
 21
11655.6859290786
 31
0.0
  0
LINE
  5
2A3B
330
1F
100
AcDbEntity
  8
1
  6
Continuous
 62
     7
370
    13
100
AcDbLine
 10
13645.66729028042
 20
11892.97333030011
 30
0.0
 11
13106.37748711358
 21
11892.97333030011
 31
0.0
  0
LINE
  5
2A3C
330
1F
100
AcDbEntity
  8
1
  6
Continuous
 62
     7
370
    13
100
AcDbLine
 10
13645.66729028042
 20
11418.39847392899
 30
0.0
 11
13106.37748711358
 21
11418.39847392899
 31
0.0
  0
LINE
  5
2A3D
330
1F
100
AcDbEntity
  8
1
  6
Continuous
 62
     7
370
    13
100
AcDbLine
 10
13645.66729028042
 20
11332.11259725382
 30
0.0
 11
13106.37748711358
 21
11332.11259725382
 31
0.0
  0
LINE
  5
2A3E
330
1F
100
AcDbEntity
  8
1
  6
Continuous
 62
     7
370
    13
100
AcDbLine
 10
13645.66729028042
 20
11655.6859290786
 30
0.0
 11
13106.37748711358
 21
11655.6859290786
 31
0.0
  0
LINE
  5
2A3F
330
1F
100
AcDbEntity
  8
1
  6
Continuous
 62
     7
370
    13
100
AcDbLine
 10
13645.66729028042
 20
11332.11259725382
 30
0.0
 11
13645.66729028042
 21
11418.39847392899
 31
0.0
  0
LINE
  5
2A40
330
1F
100
AcDbEntity
  8
1
  6
Continuous
 62
     7
370
    13
100
AcDbLine
 10
5597.031921516318
 20
9959.849120884507
 30
0.0
 11
8149.545257086517
 21
9959.849120884525
 31
0.0
  0
ARC
  5
2A41
330
1F
100
AcDbEntity
  8
0
370
    13
100
AcDbCircle
 10
5597.031921516318
 20
10259.84912088449
 30
0.0
 40
300.0
100
AcDbArc
 50
180.0
 51
270.0
  0
LINE
  5
2A42
330
1F
100
AcDbEntity
  8
1
  6
Continuous
 62
     7
370
    13
100
AcDbLine
 10
5866.676634348463
 20
10283.42272235352
 30
0.0
 11
7914.410914966575
 21
10283.42272235354
 31
0.0
  0
ARC
  5
2A43
330
1F
100
AcDbEntity
  8
0
370
    13
100
AcDbCircle
 10
5866.676634348463
 20
10583.42272235351
 30
0.0
 40
300.0
100
AcDbArc
 50
180.0
 51
270.0
  0
LINE
  5
2A44
330
1F
100
AcDbEntity
  8
1
  6
Continuous
 62
     7
370
    13
100
AcDbLine
 10
11416.30475885389
 20
9630.883056589851
 30
0.0
 11
12440.9546676154
 21
9630.883056589851
 31
0.0
  0
LINE
  5
2A45
330
1F
100
AcDbEntity
  8
1
  6
Continuous
 62
     7
370
    13
100
AcDbLine
 10
13789.1782317754
 20
9711.776470439509
 30
0.0
 11
12440.9546676154
 21
9711.776470439509
 31
0.0
  0
LINE
  5
2A46
330
1F
100
AcDbEntity
  8
1
  6
Continuous
 62
     7
370
    13
100
AcDbLine
 10
13789.1782317754
 20
10682.49759842146
 30
0.0
 11
12440.9546676154
 21
10682.49759842146
 31
0.0
  0
LINE
  5
2A47
330
1F
100
AcDbEntity
  8
1
  6
Continuous
 62
     7
370
    13
100
AcDbLine
 10
13789.1782317754
 20
9711.776470439509
 30
0.0
 11
13789.1782317754
 21
10682.49759842146
 31
0.0
  0
LINE
  5
2A48
330
1F
100
AcDbEntity
  8
1
  6
Continuous
 62
     7
370
    13
100
AcDbLine
 10
12171.30995478347
 20
10100.06469513078
 30
0.0
 11
12171.30995478347
 21
10294.20834908001
 31
0.0
  0
LINE
  5
2A49
330
1F
100
AcDbEntity
  8
1
  6
Continuous
 62
     7
370
    13
100
AcDbLine
 10
12494.88361018179
 20
9873.563298138677
 30
0.0
 11
12440.9546676154
 21
9873.563298138677
 31
0.0
  0
LINE
  5
2A4A
330
1F
100
AcDbEntity
  8
1
  6
Continuous
 62
     7
370
    13
100
AcDbLine
 10
12494.88361018179
 20
9711.776470439509
 30
0.0
 11
12494.88361018179
 21
9873.563298138677
 31
0.0
  0
LINE
  5
2A4B
330
1F
100
AcDbEntity
  8
1
  6
Continuous
 62
     7
370
    13
100
AcDbLine
 10
20507.11178445074
 20
9959.849120884525
 30
0.0
 11
17245.53517763574
 21
9959.849120884525
 31
0.0
  0
LINE
  5
2A4C
330
1F
100
AcDbEntity
  8
1
  6
Continuous
 62
     7
370
    13
100
AcDbLine
 10
21046.40115618525
 20
9992.206809997966
 30
0.0
 11
20507.11178445074
 21
9992.206809997966
 31
0.0
  0
LINE
  5
2A4D
330
1F
100
AcDbEntity
  8
1
  6
Continuous
 62
     7
370
    13
100
AcDbLine
 10
21046.40115618525
 20
10402.06644992895
 30
0.0
 11
20507.11178445074
 21
10402.06644992895
 31
0.0
  0
LINE
  5
2A4E
330
1F
100
AcDbEntity
  8
1
  6
Continuous
 62
     7
370
    13
100
AcDbLine
 10
20507.11178445074
 20
9959.849120884525
 30
0.0
 11
20507.11178445074
 21
10110.85032185724
 31
0.0
  0
LINE
  5
2A4F
330
1F
100
AcDbEntity
  8
1
  6
Continuous
 62
     7
370
    13
100
AcDbLine
 10
21046.40115618525
 20
9992.206809997966
 30
0.0
 11
21046.40115618525
 21
10078.49263274372
 31
0.0
  0
LINE
  5
2A50
330
1F
100
AcDbEntity
  8
1
  6
Continuous
 62
     7
370
    13
100
AcDbLine
 10
21046.40115618525
 20
10315.78046539632
 30
0.0
 11
20507.11178445074
 21
10315.78046539632
 31
0.0
  0
LINE
  5
2A51
330
1F
100
AcDbEntity
  8
1
  6
Continuous
 62
     7
370
    13
100
AcDbLine
 10
21046.40115618525
 20
10315.78046539632
 30
0.0
 11
21046.40115618525
 21
10402.06644992895
 31
0.0
  0
LINE
  5
2A52
330
1F
100
AcDbEntity
  8
1
  6
Continuous
 62
     7
370
    13
100
AcDbLine
 10
20507.11178445074
 20
10434.4241390412
 30
0.0
 11
17105.54427136476
 21
10434.4241390412
 31
0.0
  0
LINE
  5
2A53
330
1F
100
AcDbEntity
  8
1
  6
Continuous
 62
     7
370
    13
100
AcDbLine
 10
20507.11178445074
 20
10110.85032185724
 30
0.0
 11
17185.08013194357
 21
10110.85032185724
 31
0.0
  0
LINE
  5
2A54
330
1F
100
AcDbEntity
  8
1
  6
Continuous
 62
     7
370
    13
100
AcDbLine
 10
21046.40115618525
 20
10078.49263274372
 30
0.0
 11
20507.11178445074
 21
10078.49263274372
 31
0.0
  0
LINE
  5
2A55
330
1F
100
AcDbEntity
  8
1
  6
Continuous
 62
     7
370
    13
100
AcDbLine
 10
20507.11178445074
 20
10283.42272235354
 30
0.0
 11
17077.0062074667
 21
10283.42272235354
 31
0.0
  0
LINE
  5
2A56
330
1F
100
AcDbEntity
  8
1
  6
Continuous
 62
     7
370
    13
100
AcDbLine
 10
20507.11178445074
 20
10283.42272235354
 30
0.0
 11
20507.11178445074
 21
10434.4241390412
 31
0.0
  0
LINE
  5
2A57
330
1F
100
AcDbEntity
  8
1
  6
Continuous
 62
     7
370
    13
100
AcDbLine
 10
6021.991988929862
 20
10434.4241390412
 30
0.0
 11
7960.617017242009
 21
10434.4241390412
 31
0.0
  0
ARC
  5
2A58
330
1F
100
AcDbEntity
  8
0
370
    13
100
AcDbCircle
 10
6021.991988929862
 20
10734.4241390412
 30
0.0
 40
300.0
100
AcDbArc
 50
180.0
 51
270.0
  0
LINE
  5
2A59
330
1F
100
AcDbEntity
  8
1
  6
Continuous
 62
     7
370
    13
100
AcDbLine
 10
13645.66729028042
 20
11569.39967490172
 30
0.0
 11
13106.37748711358
 21
11569.39967490172
 31
0.0
  0
LINE
  5
2A5A
330
1F
100
AcDbEntity
  8
1
  6
Continuous
 62
     7
370
    13
100
AcDbLine
 10
13645.66729028042
 20
12367.54780916833
 30
0.0
 11
13106.37748711358
 21
12367.54780916833
 31
0.0
  0
LINE
  5
2A5B
330
1F
100
AcDbEntity
  8
1
  6
Continuous
 62
     7
370
    13
100
AcDbLine
 10
13645.66729028042
 20
12518.54944157205
 30
0.0
 11
13645.66729028042
 21
12604.83521038981
 31
0.0
  0
LINE
  5
2A5C
330
1F
100
AcDbEntity
  8
1
  6
Continuous
 62
     7
370
    13
100
AcDbLine
 10
13645.66729028042
 20
11806.68713005132
 30
0.0
 11
13645.66729028042
 21
11892.97333030011
 31
0.0
  0
LINE
  5
2A5D
330
1F
100
AcDbEntity
  8
1
  6
Continuous
 62
     7
370
    13
100
AcDbLine
 10
13106.37748711358
 20
12486.19169853054
 30
0.0
 11
13106.37748711358
 21
12637.19289950326
 31
0.0
  0
LINE
  5
2A5E
330
1F
100
AcDbEntity
  8
1
  6
Continuous
 62
     7
370
    13
100
AcDbLine
 10
13106.37748711358
 20
11299.75490814037
 30
0.0
 11
13106.37748711358
 21
11450.75616304245
 31
0.0
  0
LINE
  5
2A5F
330
1F
100
AcDbEntity
  8
1
  6
Continuous
 62
     7
370
    13
100
AcDbLine
 10
13106.37748711358
 20
11537.04241721934
 30
0.0
 11
13106.37748711358
 21
11688.04361819202
 31
0.0
  0
LINE
  5
2A60
330
1F
100
AcDbEntity
  8
1
  6
Continuous
 62
     7
370
    13
100
AcDbLine
 10
13106.37748711358
 20
11774.32981844082
 30
0.0
 11
13106.37748711358
 21
11925.33107334169
 31
0.0
  0
LINE
  5
2A61
330
1F
100
AcDbEntity
  8
1
  6
Continuous
 62
     7
370
    13
100
AcDbLine
 10
13106.37748711358
 20
12011.61727359047
 30
0.0
 11
13106.37748711358
 21
12162.61804313208
 31
0.0
  0
LINE
  5
2A62
330
1F
100
AcDbEntity
  8
1
  6
Continuous
 62
     7
370
    13
100
AcDbLine
 10
13106.37748711358
 20
12248.90472874005
 30
0.0
 11
13106.37748711358
 21
12399.90549828177
 31
0.0
  0
LINE
  5
2A63
330
1F
100
AcDbEntity
  8
1
  6
Continuous
 62
     7
370
    13
100
AcDbLine
 10
13645.66729028042
 20
12043.9745312728
 30
0.0
 11
13645.66729028042
 21
12130.2603540174
 31
0.0
  0
LINE
  5
2A64
330
1F
100
AcDbEntity
  8
1
  6
Continuous
 62
     7
370
    13
100
AcDbLine
 10
13645.66729028042
 20
11806.68713005132
 30
0.0
 11
13106.37748711358
 21
11806.68713005132
 31
0.0
  0
LINE
  5
2A65
330
1F
100
AcDbEntity
  8
1
  6
Continuous
 62
     7
370
    13
100
AcDbLine
 10
13645.66729028042
 20
12281.26198642248
 30
0.0
 11
13645.66729028042
 21
12367.54780916833
 31
0.0
  0
LINE
  5
2A66
330
1F
100
AcDbEntity
  8
1
  6
Continuous
 62
     7
370
    13
100
AcDbLine
 10
13645.66729028042
 20
12281.26198642248
 30
0.0
 11
13106.37748711358
 21
12281.26198642248
 31
0.0
  0
LINE
  5
2A67
330
1F
100
AcDbEntity
  8
1
  6
Continuous
 62
     7
370
    13
100
AcDbLine
 10
13645.66729028042
 20
12043.9745312728
 30
0.0
 11
13106.37748711358
 21
12043.9745312728
 31
0.0
  0
LINE
  5
2A68
330
1F
100
AcDbEntity
  8
1
  6
Continuous
 62
     7
370
    13
100
AcDbLine
 10
13645.66729028042
 20
12130.2603540174
 30
0.0
 11
13106.37748711358
 21
12130.2603540174
 31
0.0
  0
LINE
  5
2A69
330
1F
100
AcDbEntity
  8
1
  6
Continuous
 62
     7
370
    13
100
AcDbLine
 10
13645.66729028042
 20
12518.54944157205
 30
0.0
 11
13106.37748711358
 21
12518.54944157205
 31
0.0
  0
LINE
  5
2A6A
330
1F
100
AcDbEntity
  8
1
  6
Continuous
 62
     7
370
    13
100
AcDbLine
 10
13645.66729028042
 20
12604.83521038981
 30
0.0
 11
13106.37748711358
 21
12604.83521038981
 31
0.0
  0
TEXT
  5
2A6B
330
1F
100
AcDbEntity
  8
1
  6
Continuous
 62
     7
370
    13
100
AcDbText
 10
5752.178390957094
 20
20384.11849619758
 30
0.0
 40
302.0020783718399
  1
0305
 41
0.892857
  7
KANJI
100
AcDbText
  0
LINE
  5
2A6C
330
1F
100
AcDbEntity
  8
1
  6
Continuous
 62
     7
370
    13
100
AcDbLine
 10
6437.089443785575
 20
16609.09246262021
 30
0.0
 11
6437.089443785575
 21
16263.94723019525
 31
0.0
  0
LINE
  5
2A6D
330
1F
100
AcDbEntity
  8
1
  6
Continuous
 62
     7
370
    13
100
AcDbLine
 10
6782.234676211635
 20
16609.09251654957
 30
0.0
 11
6437.089443785575
 21
16609.09246262021
 31
0.0
  0
LINE
  5
2A6E
330
1F
100
AcDbEntity
  8
1
  6
Continuous
 62
     7
370
    13
100
AcDbLine
 10
6782.234730139609
 20
16263.94728412345
 30
0.0
 11
6782.234676211635
 21
16609.09251654957
 31
0.0
  0
LINE
  5
2A6F
330
1F
100
AcDbEntity
  8
1
  6
Continuous
 62
     7
370
    13
100
AcDbLine
 10
6437.089443785575
 20
16263.94723019525
 30
0.0
 11
6782.234730139609
 21
16263.94728412345
 31
0.0
  0
LINE
  5
2A70
330
1F
100
AcDbEntity
  8
1
  6
Continuous
 62
     7
370
    13
100
AcDbLine
 10
6782.234730139609
 20
16263.94728412345
 30
0.0
 11
6782.234676211635
 21
16609.09251654957
 31
0.0
  0
LINE
  5
2A71
330
1F
100
AcDbEntity
  8
1
  6
Continuous
 62
     7
370
    13
100
AcDbLine
 10
6437.089443785575
 20
16263.94723019525
 30
0.0
 11
6437.089443785575
 21
16609.09246262021
 31
0.0
  0
LINE
  5
2A72
330
1F
100
AcDbEntity
  8
1
  6
Continuous
 62
     7
370
    13
100
AcDbLine
 10
6852.342301547905
 20
16263.94728412345
 30
0.0
 11
6852.342301547905
 21
16609.09251654957
 31
0.0
  0
LINE
  5
2A73
330
1F
100
AcDbEntity
  8
1
  6
Continuous
 62
     7
370
    13
100
AcDbLine
 10
6366.981818450411
 20
16263.94723019525
 30
0.0
 11
6366.981818450411
 21
16609.09246262021
 31
0.0
  0
LINE
  5
2A74
330
1F
100
AcDbEntity
  8
1
  6
Continuous
 62
     7
370
    13
100
AcDbLine
 10
6852.342301547905
 20
16263.94728412345
 30
0.0
 11
6366.981818450411
 21
16263.94723019525
 31
0.0
  0
LINE
  5
2A75
330
1F
100
AcDbEntity
  8
1
  6
Continuous
 62
     7
370
    13
100
AcDbLine
 10
6852.342301547905
 20
16609.09251654957
 30
0.0
 11
6366.981818450411
 21
16609.09246262021
 31
0.0
  0
LINE
  5
2A76
330
1F
100
AcDbEntity
  8
1
  6
Continuous
 62
     7
370
    13
100
AcDbLine
 10
5385.475063740596
 20
19483.50515533877
 30
0.0
 11
5299.188755635928
 21
19483.50515533877
 31
0.0
  0
LINE
  5
2A77
330
1F
100
AcDbEntity
  8
1
  6
Continuous
 62
     7
370
    13
100
AcDbLine
 10
5385.475063740596
 20
19375.64727020595
 30
0.0
 11
5299.188755635928
 21
19375.64727020595
 31
0.0
  0
LINE
  5
2A78
330
1F
100
AcDbEntity
  8
1
  6
Continuous
 62
     7
370
    13
100
AcDbLine
 10
5385.475063740596
 20
19515.86252087736
 30
0.0
 11
5385.475063740596
 21
19343.28990466608
 31
0.0
  0
LINE
  5
2A79
330
1F
100
AcDbEntity
  8
1
  6
Continuous
 62
     7
370
    13
100
AcDbLine
 10
5299.188755635928
 20
19515.86252087736
 30
0.0
 11
5299.188755635928
 21
19343.28990466608
 31
0.0
  0
LINE
  5
2A7A
330
1F
100
AcDbEntity
  8
1
  6
Continuous
 62
     7
370
    13
100
AcDbLine
 10
5385.475063740596
 20
19343.28990466608
 30
0.0
 11
5299.188755635928
 21
19343.28990466608
 31
0.0
  0
LINE
  5
2A7B
330
1F
100
AcDbEntity
  8
1
  6
Continuous
 62
     7
370
    13
100
AcDbLine
 10
5385.475063740596
 20
19515.86252087736
 30
0.0
 11
5299.188755635928
 21
19515.86252087736
 31
0.0
  0
LINE
  5
2A7C
330
1F
100
AcDbEntity
  8
1
  6
Continuous
 62
     7
370
    13
100
AcDbLine
 10
4867.757215104678
 20
18766.25021920558
 30
0.0
 11
4738.327752943878
 21
18766.25021920558
 31
0.0
  0
LINE
  5
2A7D
330
1F
100
AcDbEntity
  8
1
  6
Continuous
 62
     7
370
    13
100
AcDbLine
 10
4867.757215104678
 20
18636.82075704499
 30
0.0
 11
4738.327752943878
 21
18636.82075704499
 31
0.0
  0
LINE
  5
2A7E
330
1F
100
AcDbEntity
  8
1
  6
Continuous
 62
     7
370
    13
100
AcDbLine
 10
4867.757215104678
 20
18593.67760299313
 30
0.0
 11
4738.327752943878
 21
18593.67760299313
 31
0.0
  0
LINE
  5
2A7F
330
1F
100
AcDbEntity
  8
1
  6
Continuous
 62
     7
370
    13
100
AcDbLine
 10
4867.757215104678
 20
18809.39337325876
 30
0.0
 11
4738.327752943878
 21
18809.39337325876
 31
0.0
  0
LINE
  5
2A80
330
1F
100
AcDbEntity
  8
1
  6
Continuous
 62
     7
370
    13
100
AcDbLine
 10
4738.327752943878
 20
18809.39337325876
 30
0.0
 11
4738.327752943878
 21
18593.67760299313
 31
0.0
  0
LINE
  5
2A81
330
1F
100
AcDbEntity
  8
1
  6
Continuous
 62
     7
370
    13
100
AcDbLine
 10
4867.757215104678
 20
18809.39337325876
 30
0.0
 11
4867.757215104678
 21
18593.67760299313
 31
0.0
  0
LINE
  5
2A82
330
1F
100
AcDbEntity
  8
1
  6
Continuous
 62
     7
370
    13
100
AcDbLine
 10
5137.401927936678
 20
18766.25021920558
 30
0.0
 11
5007.972465776024
 21
18766.25021920558
 31
0.0
  0
LINE
  5
2A83
330
1F
100
AcDbEntity
  8
1
  6
Continuous
 62
     7
370
    13
100
AcDbLine
 10
5137.401927936678
 20
18636.82075704499
 30
0.0
 11
5137.401927936678
 21
18766.25021920558
 31
0.0
  0
LINE
  5
2A84
330
1F
100
AcDbEntity
  8
1
  6
Continuous
 62
     7
370
    13
100
AcDbLine
 10
5007.972465776024
 20
18636.82075704499
 30
0.0
 11
5137.401927936678
 21
18636.82075704499
 31
0.0
  0
LINE
  5
2A85
330
1F
100
AcDbEntity
  8
1
  6
Continuous
 62
     7
370
    13
100
AcDbLine
 10
5007.972465776024
 20
18766.25021920558
 30
0.0
 11
5007.972465776024
 21
18636.82075704499
 31
0.0
  0
LINE
  5
2A86
330
1F
100
AcDbEntity
  8
1
  6
Continuous
 62
     7
370
    13
100
AcDbLine
 10
5007.972465776024
 20
18636.82075704499
 30
0.0
 11
5137.401927936678
 21
18636.82075704499
 31
0.0
  0
LINE
  5
2A87
330
1F
100
AcDbEntity
  8
1
  6
Continuous
 62
     7
370
    13
100
AcDbLine
 10
5007.972465776024
 20
18766.25021920558
 30
0.0
 11
5137.401927936678
 21
18766.25021920558
 31
0.0
  0
LINE
  5
2A88
330
1F
100
AcDbEntity
  8
1
  6
Continuous
 62
     7
370
    13
100
AcDbLine
 10
5007.972465776024
 20
18809.39337325876
 30
0.0
 11
5137.401927936678
 21
18809.39337325876
 31
0.0
  0
LINE
  5
2A89
330
1F
100
AcDbEntity
  8
1
  6
Continuous
 62
     7
370
    13
100
AcDbLine
 10
5007.972465776024
 20
18593.67760299313
 30
0.0
 11
5137.401927936678
 21
18593.67760299313
 31
0.0
  0
LINE
  5
2A8A
330
1F
100
AcDbEntity
  8
1
  6
Continuous
 62
     7
370
    13
100
AcDbLine
 10
5137.401927936678
 20
18593.67760299313
 30
0.0
 11
5137.401927936678
 21
18809.39337325876
 31
0.0
  0
LINE
  5
2A8B
330
1F
100
AcDbEntity
  8
1
  6
Continuous
 62
     7
370
    13
100
AcDbLine
 10
5007.972465776024
 20
18593.67760299313
 30
0.0
 11
5007.972465776024
 21
18809.39337325876
 31
0.0
  0
LINE
  5
2A8C
330
1F
100
AcDbEntity
  8
1
  6
Continuous
 62
     7
370
    13
100
AcDbLine
 10
11382.37347712564
 20
17903.38713814321
 30
0.0
 11
11382.37347712564
 21
17989.67344624816
 31
0.0
  0
LINE
  5
2A8D
330
1F
100
AcDbEntity
  8
1
  6
Continuous
 62
     7
370
    13
100
AcDbLine
 10
11274.51559199287
 20
17903.38713814321
 30
0.0
 11
11274.51559199287
 21
17989.67344624816
 31
0.0
  0
LINE
  5
2A8E
330
1F
100
AcDbEntity
  8
1
  6
Continuous
 62
     7
370
    13
100
AcDbLine
 10
11414.73084266542
 20
17903.38713814321
 30
0.0
 11
11242.15822645302
 21
17903.38713814321
 31
0.0
  0
LINE
  5
2A8F
330
1F
100
AcDbEntity
  8
1
  6
Continuous
 62
     7
370
    13
100
AcDbLine
 10
11414.73084266542
 20
17989.67344624816
 30
0.0
 11
11242.15822645302
 21
17989.67344624816
 31
0.0
  0
LINE
  5
2A90
330
1F
100
AcDbEntity
  8
1
  6
Continuous
 62
     7
370
    13
100
AcDbLine
 10
11242.15822645302
 20
17903.38713814321
 30
0.0
 11
11242.15822645302
 21
17989.67344624816
 31
0.0
  0
LINE
  5
2A91
330
1F
100
AcDbEntity
  8
1
  6
Continuous
 62
     7
370
    13
100
AcDbLine
 10
11414.73084266542
 20
17903.38713814321
 30
0.0
 11
11414.73084266542
 21
17989.67344624816
 31
0.0
  0
LINE
  5
2A92
330
1F
100
AcDbEntity
  8
1
  6
Continuous
 62
     7
370
    13
100
AcDbLine
 10
5924.764489404712
 20
16263.94728412345
 30
0.0
 11
5924.764489404712
 21
16609.09251654957
 31
0.0
  0
LINE
  5
2A93
330
1F
100
AcDbEntity
  8
1
  6
Continuous
 62
     7
370
    13
100
AcDbLine
 10
5407.046640768618
 20
16263.94728412345
 30
0.0
 11
5924.764489404712
 21
16263.94728412345
 31
0.0
  0
LINE
  5
2A94
330
1F
100
AcDbEntity
  8
1
  6
Continuous
 62
     7
370
    13
100
AcDbLine
 10
5407.046640768618
 20
16609.09251654957
 30
0.0
 11
5407.046640768618
 21
16263.94728412345
 31
0.0
  0
LINE
  5
2A95
330
1F
100
AcDbEntity
  8
1
  6
Continuous
 62
     7
370
    13
100
AcDbLine
 10
5924.764489404712
 20
16609.09251654957
 30
0.0
 11
5407.046640768618
 21
16609.09251654957
 31
0.0
  0
LINE
  5
2A96
330
1F
100
AcDbEntity
  8
1
  6
Continuous
 62
     7
370
    13
100
AcDbLine
 10
5407.046640768618
 20
16609.09251654957
 30
0.0
 11
5407.046640768618
 21
16263.94728412345
 31
0.0
  0
LINE
  5
2A97
330
1F
100
AcDbEntity
  8
1
  6
Continuous
 62
     7
370
    13
100
AcDbLine
 10
5924.764489404712
 20
16609.09251654957
 30
0.0
 11
5924.764489404712
 21
16263.94728412345
 31
0.0
  0
LINE
  5
2A98
330
1F
100
AcDbEntity
  8
1
  6
Continuous
 62
     7
370
    13
100
AcDbLine
 10
6011.050797512261
 20
16609.09251654957
 30
0.0
 11
6011.050797512261
 21
16263.94728412345
 31
0.0
  0
LINE
  5
2A99
330
1F
100
AcDbEntity
  8
1
  6
Continuous
 62
     7
370
    13
100
AcDbLine
 10
5320.760332662263
 20
16263.94728412345
 30
0.0
 11
6011.050797512261
 21
16263.94728412345
 31
0.0
  0
LINE
  5
2A9A
330
1F
100
AcDbEntity
  8
1
  6
Continuous
 62
     7
370
    13
100
AcDbLine
 10
5320.760332662263
 20
16609.09251654957
 30
0.0
 11
5320.760332662263
 21
16263.94728412345
 31
0.0
  0
LINE
  5
2A9B
330
1F
100
AcDbEntity
  8
1
  6
Continuous
 62
     7
370
    13
100
AcDbLine
 10
5320.760332662263
 20
16609.09251654957
 30
0.0
 11
6011.050797512261
 21
16609.09251654957
 31
0.0
  0
LINE
  5
2A9C
330
1F
100
AcDbEntity
  8
1
  6
Continuous
 62
     7
370
    13
100
AcDbLine
 10
6393.946343663032
 20
17385.66875021599
 30
0.0
 11
6286.08845853011
 21
17385.66875021599
 31
0.0
  0
LINE
  5
2A9D
330
1F
100
AcDbEntity
  8
1
  6
Continuous
 62
     7
370
    13
100
AcDbLine
 10
6744.484847846354
 20
17504.31344851224
 30
0.0
 11
6722.912569743233
 21
17482.74117040913
 31
0.0
  0
LINE
  5
2A9E
330
1F
100
AcDbEntity
  8
1
  6
Continuous
 62
     7
370
    13
100
AcDbLine
 10
6393.946289733634
 20
17709.24240561445
 30
0.0
 11
6286.088404600858
 21
17709.24240561445
 31
0.0
  0
LINE
  5
2A9F
330
1F
100
AcDbEntity
  8
1
  6
Continuous
 62
     7
370
    13
100
AcDbLine
 10
6744.484416415129
 20
17633.74150851847
 30
0.0
 11
6722.912731529824
 21
17655.31319340378
 31
0.0
  0
LINE
  5
2AA0
330
1F
100
AcDbEntity
  8
1
  6
Continuous
 62
     7
370
    13
100
AcDbLine
 10
6393.946289733634
 20
17542.06316901897
 30
0.0
 11
6286.088404600858
 21
17542.06316901897
 31
0.0
  0
LINE
  5
2AA1
330
1F
100
AcDbEntity
  8
1
  6
Continuous
 62
     7
370
    13
100
AcDbLine
 10
6286.088404600858
 20
17428.81206605599
 30
0.0
 11
6286.08845853011
 21
17385.66875021599
 31
0.0
  0
LINE
  5
2AA2
330
1F
100
AcDbEntity
  8
1
  6
Continuous
 62
     7
370
    13
100
AcDbLine
 10
6393.946289733634
 20
17811.70788185099
 30
0.0
 11
6663.591002565663
 21
17811.70793578033
 31
0.0
  0
LINE
  5
2AA3
330
1F
100
AcDbEntity
  8
1
  6
Continuous
 62
     7
370
    13
100
AcDbLine
 10
6286.088404600858
 20
17752.38572145436
 30
0.0
 11
6286.088404600858
 21
17709.24240561445
 31
0.0
  0
LINE
  5
2AA4
330
1F
100
AcDbEntity
  8
1
  6
Continuous
 62
     7
370
    13
100
AcDbLine
 10
6393.946289733634
 20
17595.99211158543
 30
0.0
 11
6286.088404600858
 21
17595.99211158543
 31
0.0
  0
LINE
  5
2AA5
330
1F
100
AcDbEntity
  8
1
  6
Continuous
 62
     7
370
    13
100
AcDbLine
 10
6393.946289733634
 20
17428.81206605599
 30
0.0
 11
6286.088404600858
 21
17428.81206605599
 31
0.0
  0
LINE
  5
2AA6
330
1F
100
AcDbEntity
  8
1
  6
Continuous
 62
     7
370
    13
100
AcDbLine
 10
6393.946289733634
 20
17752.38572145436
 30
0.0
 11
6286.088404600858
 21
17752.38572145436
 31
0.0
  0
LINE
  5
2AA7
330
1F
100
AcDbEntity
  8
1
  6
Continuous
 62
     7
370
    13
100
AcDbLine
 10
6722.913162962185
 20
17482.74106255044
 30
0.0
 11
6663.591002565663
 21
17482.74106255044
 31
0.0
  0
LINE
  5
2AA8
330
1F
100
AcDbEntity
  8
1
  6
Continuous
 62
     7
370
    13
100
AcDbLine
 10
6663.591002565663
 20
17811.70793578033
 30
0.0
 11
6663.591056495032
 21
17326.34745268275
 31
0.0
  0
LINE
  5
2AA9
330
1F
100
AcDbEntity
  8
1
  6
Continuous
 62
     7
370
    13
100
AcDbLine
 10
6722.913162962185
 20
17655.31351697736
 30
0.0
 11
6663.591002565663
 21
17655.31351697736
 31
0.0
  0
LINE
  5
2AAA
330
1F
100
AcDbEntity
  8
1
  6
Continuous
 62
     7
370
    13
100
AcDbLine
 10
6744.484416415129
 20
17633.7414545891
 30
0.0
 11
6744.484416415129
 21
17504.31231600462
 31
0.0
  0
LINE
  5
2AAB
330
1F
100
AcDbEntity
  8
1
  6
Continuous
 62
     7
370
    13
100
AcDbLine
 10
6393.946289733634
 20
17811.70788185099
 30
0.0
 11
6393.946343663032
 21
17326.34739875341
 31
0.0
  0
LINE
  5
2AAC
330
1F
100
AcDbEntity
  8
1
  6
Continuous
 62
     7
370
    13
100
AcDbLine
 10
6663.591056495032
 20
17326.34745268275
 30
0.0
 11
6393.946343663032
 21
17326.34739875341
 31
0.0
  0
LINE
  5
2AAD
330
1F
100
AcDbEntity
  8
1
  6
Continuous
 62
     7
370
    13
100
AcDbLine
 10
6286.088404600858
 20
17595.99211158543
 30
0.0
 11
6286.088404600858
 21
17542.06316901897
 31
0.0
  0
TEXT
  5
2AAE
330
1F
100
AcDbEntity
  8
1
  6
Continuous
 62
     7
370
    13
100
AcDbText
 10
10104.25786187537
 20
20038.19463769886
 30
0.0
 40
183.35840472576
  1
0
 50
90.00000299988045
 41
0.833333
  7
KANJI
100
AcDbText
  0
TEXT
  5
2AAF
330
1F
100
AcDbEntity
  8
1
  6
Continuous
 62
     7
370
    13
100
AcDbText
 10
10378.95000015804
 20
19791.09982684158
 30
0.0
 40
183.35840472576
  1
8
 50
161.9999980002883
  7
KANJI
100
AcDbText
  0
TEXT
  5
2AB0
330
1F
100
AcDbEntity
  8
1
  6
Continuous
 62
     7
370
    13
100
AcDbText
 10
10201.46084403819
 20
19870.02057390126
 30
0.0
 40
183.35840472576
  1
9
 50
125.9999969989844
  7
KANJI
100
AcDbText
  0
TEXT
  5
2AB1
330
1F
100
AcDbEntity
  8
1
  6
Continuous
 62
     7
370
    13
100
AcDbText
 10
10568.93077117289
 20
19831.5768957612
 30
0.0
 40
183.35840472576
  1
7
 50
198.0000019997115
  7
KANJI
100
AcDbText
  0
TEXT
  5
2AB2
330
1F
100
AcDbEntity
  8
1
  6
Continuous
 62
     7
370
    13
100
AcDbText
 10
10698.83626410798
 20
19975.99105390122
 30
0.0
 40
183.35840472576
  1
6
 50
234.0000030010155
  7
KANJI
100
AcDbText
  0
TEXT
  5
2AB3
330
1F
100
AcDbEntity
  8
1
  6
Continuous
 62
     7
370
    13
100
AcDbText
 10
10719.0496407155
 20
20169.18129807524
 30
0.0
 40
183.35840472576
  1
5
 50
269.9999970001194
  7
KANJI
100
AcDbText
  0
TEXT
  5
2AB4
330
1F
100
AcDbEntity
  8
1
  6
Continuous
 62
     7
370
    13
100
AcDbText
 10
10621.84423175192
 20
20337.35617080805
 30
0.0
 40
183.35840472576
  1
4
 50
305.999997999944
  7
KANJI
100
AcDbText
  0
TEXT
  5
2AB5
330
1F
100
AcDbEntity
  8
1
  6
Continuous
 62
     7
370
    13
100
AcDbText
 10
10444.35502170154
 20
20416.27697179709
 30
0.0
 40
183.35840472576
  1
3
 50
341.9999989998507
  7
KANJI
100
AcDbText
  0
TEXT
  5
2AB6
330
1F
100
AcDbEntity
  8
1
  6
Continuous
 62
     7
370
    13
100
AcDbText
 10
10254.3742506866
 20
20375.79984894814
 30
0.0
 40
183.35840472576
  1
2
 50
18.00000100014914
  7
KANJI
100
AcDbText
  0
TEXT
  5
2AB7
330
1F
100
AcDbEntity
  8
1
  6
Continuous
 62
     7
370
    13
100
AcDbText
 10
10124.46881168088
 20
20231.38574473626
 30
0.0
 40
183.35840472576
  1
1
 50
54.00000200005595
 41
0.666667
  7
KANJI
100
AcDbText
  0
CIRCLE
  5
2AB8
330
1F
100
AcDbEntity
  8
1
  6
Continuous
 62
     7
370
    13
100
AcDbCircle
 10
10411.65251093042
 20
20103.68799485234
 30
0.0
 40
215.7157702656
  0
LINE
  5
2AB9
330
1F
100
AcDbEntity
  8
1
  6
Continuous
 62
     7
370
    13
100
AcDbLine
 10
10950.9419365944
 20
19564.39856918831
 30
0.0
 11
10950.9419365944
 21
20642.97742051631
 31
0.0
  0
LINE
  5
2ABA
330
1F
100
AcDbEntity
  8
1
  6
Continuous
 62
     7
370
    13
100
AcDbLine
 10
9872.36308526635
 20
19564.39856918831
 30
0.0
 11
9872.36308526635
 21
20642.97742051631
 31
0.0
  0
LINE
  5
2ABB
330
1F
100
AcDbEntity
  8
1
  6
Continuous
 62
     7
370
    13
100
AcDbLine
 10
10217.50874912232
 20
20103.68858807021
 30
0.0
 11
10325.36609496673
 21
20028.18844598019
 31
0.0
  0
LINE
  5
2ABC
330
1F
100
AcDbEntity
  8
1
  6
Continuous
 62
     7
370
    13
100
AcDbLine
 10
10325.36668818454
 20
20146.83211962624
 30
0.0
 11
10605.79621880792
 21
20146.83211962624
 31
0.0
  0
LINE
  5
2ABD
330
1F
100
AcDbEntity
  8
1
  6
Continuous
 62
     7
370
    13
100
AcDbLine
 10
10325.36668818454
 20
20028.18779883301
 30
0.0
 11
10325.36668818454
 21
20060.54548794645
 31
0.0
  0
LINE
  5
2ABE
330
1F
100
AcDbEntity
  8
1
  6
Continuous
 62
     7
370
    13
100
AcDbLine
 10
9872.365242424365
 20
20481.18972995375
 30
0.0
 11
10034.1521240515
 21
20642.97661158109
 31
0.0
  0
LINE
  5
2ABF
330
1F
100
AcDbEntity
  8
1
  6
Continuous
 62
     7
370
    13
100
AcDbLine
 10
9872.36308526635
 20
19564.39856918831
 30
0.0
 11
10950.9419365944
 21
19564.39856918831
 31
0.0
  0
LINE
  5
2AC0
330
1F
100
AcDbEntity
  8
1
  6
Continuous
 62
     7
370
    13
100
AcDbLine
 10
9872.36308526635
 20
20642.97742051631
 30
0.0
 11
10950.9419365944
 21
20642.97742051631
 31
0.0
  0
LINE
  5
2AC1
330
1F
100
AcDbEntity
  8
1
  6
Continuous
 62
     7
370
    13
100
AcDbLine
 10
10217.50912662418
 20
20103.68918128803
 30
0.0
 11
10325.36663425524
 21
20179.18943123675
 31
0.0
  0
LINE
  5
2AC2
330
1F
100
AcDbEntity
  8
1
  6
Continuous
 62
     7
370
    13
100
AcDbLine
 10
10325.36668818454
 20
20146.83211962624
 30
0.0
 11
10325.36668818454
 21
20179.18980873852
 31
0.0
  0
LINE
  5
2AC3
330
1F
100
AcDbEntity
  8
1
  6
Continuous
 62
     7
370
    13
100
AcDbLine
 10
10605.79621880792
 20
20060.54548794645
 30
0.0
 11
10605.79621880792
 21
20146.83211962624
 31
0.0
  0
LINE
  5
2AC4
330
1F
100
AcDbEntity
  8
1
  6
Continuous
 62
     7
370
    13
100
AcDbLine
 10
10325.36668818454
 20
20060.54548794645
 30
0.0
 11
10605.79621880792
 21
20060.54548794645
 31
0.0
  0
LINE
  5
2AC5
330
1F
100
AcDbEntity
  8
1
  6
Continuous
 62
     7
370
    13
100
AcDbLine
 10
9872.36308526635
 20
20485.50490822151
 30
0.0
 11
9667.433103514134
 21
20485.50490822151
 31
0.0
  0
LINE
  5
2AC6
330
1F
100
AcDbEntity
  8
1
  6
Continuous
 62
     7
370
    13
100
AcDbLine
 10
9581.146849337093
 20
20018.48026559712
 30
0.0
 11
9872.36308526635
 21
20018.48026559712
 31
0.0
  0
LINE
  5
2AC7
330
1F
100
AcDbEntity
  8
1
  6
Continuous
 62
     7
370
    13
100
AcDbLine
 10
9872.36308526635
 20
20539.43385078785
 30
0.0
 11
9667.433103514134
 21
20539.43385078785
 31
0.0
  0
LINE
  5
2AC8
330
1F
100
AcDbEntity
  8
1
  6
Continuous
 62
     7
370
    13
100
AcDbLine
 10
9581.146849337093
 20
20184.58140870194
 30
0.0
 11
9872.36308526635
 21
20184.58140870194
 31
0.0
  0
LINE
  5
2AC9
330
1F
100
AcDbEntity
  8
1
  6
Continuous
 62
     7
370
    13
100
AcDbLine
 10
9581.146849337093
 20
20292.43929383478
 30
0.0
 11
9581.146849337093
 21
20184.58140870194
 31
0.0
  0
LINE
  5
2ACA
330
1F
100
AcDbEntity
  8
1
  6
Continuous
 62
     7
370
    13
100
AcDbLine
 10
9581.146849337093
 20
20566.39832207105
 30
0.0
 11
9581.146849337093
 21
20458.54043693826
 31
0.0
  0
LINE
  5
2ACB
330
1F
100
AcDbEntity
  8
1
  6
Continuous
 62
     7
370
    13
100
AcDbLine
 10
9581.146849337093
 20
19910.62238046438
 30
0.0
 11
9872.36308526635
 21
19910.62238046438
 31
0.0
  0
LINE
  5
2ACC
330
1F
100
AcDbEntity
  8
1
  6
Continuous
 62
     7
370
    13
100
AcDbLine
 10
9581.146849337093
 20
20458.54043693826
 30
0.0
 11
9872.36308526635
 21
20458.54043693826
 31
0.0
  0
LINE
  5
2ACD
330
1F
100
AcDbEntity
  8
1
  6
Continuous
 62
     7
370
    13
100
AcDbLine
 10
9872.36308526635
 20
19937.58685174759
 30
0.0
 11
9667.433103514134
 21
19937.58685174759
 31
0.0
  0
LINE
  5
2ACE
330
1F
100
AcDbEntity
  8
1
  6
Continuous
 62
     7
370
    13
100
AcDbLine
 10
9667.433103514134
 20
20211.54587998513
 30
0.0
 11
9667.433103514134
 21
20265.47482255159
 31
0.0
  0
LINE
  5
2ACF
330
1F
100
AcDbEntity
  8
1
  6
Continuous
 62
     7
370
    13
100
AcDbLine
 10
9581.146849337093
 20
20018.48026559712
 30
0.0
 11
9581.146849337093
 21
19910.62238046438
 31
0.0
  0
LINE
  5
2AD0
330
1F
100
AcDbEntity
  8
1
  6
Continuous
 62
     7
370
    13
100
AcDbLine
 10
9581.146849337093
 20
20566.39832207105
 30
0.0
 11
9872.36308526635
 21
20566.39832207105
 31
0.0
  0
LINE
  5
2AD1
330
1F
100
AcDbEntity
  8
1
  6
Continuous
 62
     7
370
    13
100
AcDbLine
 10
9581.146849337093
 20
20292.43929383478
 30
0.0
 11
9872.36308526635
 21
20292.43929383478
 31
0.0
  0
LINE
  5
2AD2
330
1F
100
AcDbEntity
  8
1
  6
Continuous
 62
     7
370
    13
100
AcDbLine
 10
9667.433103514134
 20
19667.94213891559
 30
0.0
 11
9667.433103514134
 21
19721.87108148195
 31
0.0
  0
LINE
  5
2AD3
330
1F
100
AcDbEntity
  8
1
  6
Continuous
 62
     7
370
    13
100
AcDbLine
 10
9872.36308526635
 20
19667.94213891559
 30
0.0
 11
9667.433103514134
 21
19667.94213891559
 31
0.0
  0
LINE
  5
2AD4
330
1F
100
AcDbEntity
  8
1
  6
Continuous
 62
     7
370
    13
100
AcDbLine
 10
9581.146849337093
 20
19748.83555276514
 30
0.0
 11
9872.36308526635
 21
19748.83555276514
 31
0.0
  0
LINE
  5
2AD5
330
1F
100
AcDbEntity
  8
1
  6
Continuous
 62
     7
370
    13
100
AcDbLine
 10
9581.146849337093
 20
19640.97766763238
 30
0.0
 11
9872.36308526635
 21
19640.97766763238
 31
0.0
  0
LINE
  5
2AD6
330
1F
100
AcDbEntity
  8
1
  6
Continuous
 62
     7
370
    13
100
AcDbLine
 10
9872.36308526635
 20
19721.87108148195
 30
0.0
 11
9667.433103514134
 21
19721.87108148195
 31
0.0
  0
LINE
  5
2AD7
330
1F
100
AcDbEntity
  8
1
  6
Continuous
 62
     7
370
    13
100
AcDbLine
 10
9581.146849337093
 20
19748.83555276514
 30
0.0
 11
9581.146849337093
 21
19640.97766763238
 31
0.0
  0
LINE
  5
2AD8
330
1F
100
AcDbEntity
  8
1
  6
Continuous
 62
     7
370
    13
100
AcDbLine
 10
9872.36308526635
 20
20265.47482255159
 30
0.0
 11
9667.433103514134
 21
20265.47482255159
 31
0.0
  0
LINE
  5
2AD9
330
1F
100
AcDbEntity
  8
1
  6
Continuous
 62
     7
370
    13
100
AcDbLine
 10
11242.15822645302
 20
20018.48026559712
 30
0.0
 11
11242.15822645302
 21
19910.62238046438
 31
0.0
  0
LINE
  5
2ADA
330
1F
100
AcDbEntity
  8
1
  6
Continuous
 62
     7
370
    13
100
AcDbLine
 10
11242.15822645302
 20
19910.62238046438
 30
0.0
 11
10950.9419365944
 21
19910.62238046438
 31
0.0
  0
LINE
  5
2ADB
330
1F
100
AcDbEntity
  8
1
  6
Continuous
 62
     7
370
    13
100
AcDbLine
 10
11242.15822645302
 20
20018.48026559712
 30
0.0
 11
10950.9419365944
 21
20018.48026559712
 31
0.0
  0
LINE
  5
2ADC
330
1F
100
AcDbEntity
  8
1
  6
Continuous
 62
     7
370
    13
100
AcDbLine
 10
10950.9419365944
 20
19937.58685174759
 30
0.0
 11
11155.87191834557
 21
19937.58685174759
 31
0.0
  0
LINE
  5
2ADD
330
1F
100
AcDbEntity
  8
1
  6
Continuous
 62
     7
370
    13
100
AcDbLine
 10
9872.36308526635
 20
20211.54587998513
 30
0.0
 11
9667.433103514134
 21
20211.54587998513
 31
0.0
  0
LINE
  5
2ADE
330
1F
100
AcDbEntity
  8
1
  6
Continuous
 62
     7
370
    13
100
AcDbLine
 10
9667.433103514134
 20
19937.58685174759
 30
0.0
 11
9667.433103514134
 21
19991.51579431396
 31
0.0
  0
LINE
  5
2ADF
330
1F
100
AcDbEntity
  8
1
  6
Continuous
 62
     7
370
    13
100
AcDbLine
 10
9872.36308526635
 20
19991.51579431396
 30
0.0
 11
9667.433103514134
 21
19991.51579431396
 31
0.0
  0
LINE
  5
2AE0
330
1F
100
AcDbEntity
  8
1
  6
Continuous
 62
     7
370
    13
100
AcDbLine
 10
9667.433103514134
 20
20485.50490822151
 30
0.0
 11
9667.433103514134
 21
20539.43385078785
 31
0.0
  0
LINE
  5
2AE1
330
1F
100
AcDbEntity
  8
1
  6
Continuous
 62
     7
370
    13
100
AcDbLine
 10
10950.9419365944
 20
19991.51579431396
 30
0.0
 11
11155.87191834557
 21
19991.51579431396
 31
0.0
  0
LINE
  5
2AE2
330
1F
100
AcDbEntity
  8
1
  6
Continuous
 62
     7
370
    13
100
AcDbLine
 10
11155.87191834557
 20
19937.58685174759
 30
0.0
 11
11155.87191834557
 21
19991.51579431396
 31
0.0
  0
TEXT
  5
2AE3
330
1F
100
AcDbEntity
  8
1
  6
Continuous
 62
     7
370
    13
100
AcDbText
 10
10104.25786187537
 20
18851.75790123804
 30
0.0
 40
183.35840472576
  1
0
 50
90.00000299988045
 41
0.833333
  7
KANJI
100
AcDbText
  0
TEXT
  5
2AE4
330
1F
100
AcDbEntity
  8
1
  6
Continuous
 62
     7
370
    13
100
AcDbText
 10
10378.95000015804
 20
18604.66309038078
 30
0.0
 40
183.35840472576
  1
8
 50
161.9999980002883
  7
KANJI
100
AcDbText
  0
TEXT
  5
2AE5
330
1F
100
AcDbEntity
  8
1
  6
Continuous
 62
     7
370
    13
100
AcDbText
 10
10201.46084403819
 20
18683.58383744051
 30
0.0
 40
183.35840472576
  1
9
 50
125.9999969989844
  7
KANJI
100
AcDbText
  0
TEXT
  5
2AE6
330
1F
100
AcDbEntity
  8
1
  6
Continuous
 62
     7
370
    13
100
AcDbText
 10
10568.93077117289
 20
18645.14015930039
 30
0.0
 40
183.35840472576
  1
7
 50
198.0000019997115
  7
KANJI
100
AcDbText
  0
TEXT
  5
2AE7
330
1F
100
AcDbEntity
  8
1
  6
Continuous
 62
     7
370
    13
100
AcDbText
 10
10698.83626410798
 20
18789.5543174404
 30
0.0
 40
183.35840472576
  1
6
 50
234.0000030010155
  7
KANJI
100
AcDbText
  0
TEXT
  5
2AE8
330
1F
100
AcDbEntity
  8
1
  6
Continuous
 62
     7
370
    13
100
AcDbText
 10
10719.0496407155
 20
18982.74456161441
 30
0.0
 40
183.35840472576
  1
5
 50
269.9999970001194
  7
KANJI
100
AcDbText
  0
TEXT
  5
2AE9
330
1F
100
AcDbEntity
  8
1
  6
Continuous
 62
     7
370
    13
100
AcDbText
 10
10621.84423175192
 20
19150.91943434724
 30
0.0
 40
183.35840472576
  1
4
 50
305.999997999944
  7
KANJI
100
AcDbText
  0
TEXT
  5
2AEA
330
1F
100
AcDbEntity
  8
1
  6
Continuous
 62
     7
370
    13
100
AcDbText
 10
10444.35502170154
 20
19229.84023533635
 30
0.0
 40
183.35840472576
  1
3
 50
341.9999989998507
  7
KANJI
100
AcDbText
  0
TEXT
  5
2AEB
330
1F
100
AcDbEntity
  8
1
  6
Continuous
 62
     7
370
    13
100
AcDbText
 10
10254.3742506866
 20
19189.36311248732
 30
0.0
 40
183.35840472576
  1
2
 50
18.00000100014914
  7
KANJI
100
AcDbText
  0
TEXT
  5
2AEC
330
1F
100
AcDbEntity
  8
1
  6
Continuous
 62
     7
370
    13
100
AcDbText
 10
10124.46881168088
 20
19044.94900827543
 30
0.0
 40
183.35840472576
  1
1
 50
54.00000200005595
 41
0.666667
  7
KANJI
100
AcDbText
  0
CIRCLE
  5
2AED
330
1F
100
AcDbEntity
  8
1
  6
Continuous
 62
     7
370
    13
100
AcDbCircle
 10
10411.65251093042
 20
18917.25125839161
 30
0.0
 40
215.7157702656
  0
LINE
  5
2AEE
330
1F
100
AcDbEntity
  8
1
  6
Continuous
 62
     7
370
    13
100
AcDbLine
 10
10950.9419365944
 20
18377.96183272758
 30
0.0
 11
10950.9419365944
 21
19456.54068405559
 31
0.0
  0
LINE
  5
2AEF
330
1F
100
AcDbEntity
  8
1
  6
Continuous
 62
     7
370
    13
100
AcDbLine
 10
9872.36308526635
 20
18377.96183272758
 30
0.0
 11
9872.36308526635
 21
19456.54068405559
 31
0.0
  0
LINE
  5
2AF0
330
1F
100
AcDbEntity
  8
1
  6
Continuous
 62
     7
370
    13
100
AcDbLine
 10
10217.50874912232
 20
18917.25185160941
 30
0.0
 11
10325.36609496673
 21
18841.75170951946
 31
0.0
  0
LINE
  5
2AF1
330
1F
100
AcDbEntity
  8
1
  6
Continuous
 62
     7
370
    13
100
AcDbLine
 10
10325.36668818454
 20
18960.39538316545
 30
0.0
 11
10605.79621880792
 21
18960.39538316545
 31
0.0
  0
LINE
  5
2AF2
330
1F
100
AcDbEntity
  8
1
  6
Continuous
 62
     7
370
    13
100
AcDbLine
 10
10325.36668818454
 20
18841.75106237222
 30
0.0
 11
10325.36668818454
 21
18874.10875148565
 31
0.0
  0
LINE
  5
2AF3
330
1F
100
AcDbEntity
  8
1
  6
Continuous
 62
     7
370
    13
100
AcDbLine
 10
9872.365242424365
 20
19294.75299349301
 30
0.0
 11
10034.1521240515
 21
19456.53987512029
 31
0.0
  0
LINE
  5
2AF4
330
1F
100
AcDbEntity
  8
1
  6
Continuous
 62
     7
370
    13
100
AcDbLine
 10
9872.36308526635
 20
18377.96183272758
 30
0.0
 11
10950.9419365944
 21
18377.96183272758
 31
0.0
  0
LINE
  5
2AF5
330
1F
100
AcDbEntity
  8
1
  6
Continuous
 62
     7
370
    13
100
AcDbLine
 10
9872.36308526635
 20
19456.54068405559
 30
0.0
 11
10950.9419365944
 21
19456.54068405559
 31
0.0
  0
LINE
  5
2AF6
330
1F
100
AcDbEntity
  8
1
  6
Continuous
 62
     7
370
    13
100
AcDbLine
 10
10217.50912662418
 20
18917.2524448273
 30
0.0
 11
10325.36663425524
 21
18992.75269477594
 31
0.0
  0
LINE
  5
2AF7
330
1F
100
AcDbEntity
  8
1
  6
Continuous
 62
     7
370
    13
100
AcDbLine
 10
10325.36668818454
 20
18960.39538316545
 30
0.0
 11
10325.36668818454
 21
18992.75307227767
 31
0.0
  0
LINE
  5
2AF8
330
1F
100
AcDbEntity
  8
1
  6
Continuous
 62
     7
370
    13
100
AcDbLine
 10
10605.79621880792
 20
18874.10875148565
 30
0.0
 11
10605.79621880792
 21
18960.39538316545
 31
0.0
  0
LINE
  5
2AF9
330
1F
100
AcDbEntity
  8
1
  6
Continuous
 62
     7
370
    13
100
AcDbLine
 10
10325.36668818454
 20
18874.10875148565
 30
0.0
 11
10605.79621880792
 21
18874.10875148565
 31
0.0
  0
LINE
  5
2AFA
330
1F
100
AcDbEntity
  8
1
  6
Continuous
 62
     7
370
    13
100
AcDbLine
 10
9872.36308526635
 20
19299.06817176066
 30
0.0
 11
9667.433103514134
 21
19299.06817176066
 31
0.0
  0
LINE
  5
2AFB
330
1F
100
AcDbEntity
  8
1
  6
Continuous
 62
     7
370
    13
100
AcDbLine
 10
9581.146849337093
 20
18832.0435291364
 30
0.0
 11
9872.36308526635
 21
18832.0435291364
 31
0.0
  0
LINE
  5
2AFC
330
1F
100
AcDbEntity
  8
1
  6
Continuous
 62
     7
370
    13
100
AcDbLine
 10
9872.36308526635
 20
19352.99711432705
 30
0.0
 11
9667.433103514134
 21
19352.99711432705
 31
0.0
  0
LINE
  5
2AFD
330
1F
100
AcDbEntity
  8
1
  6
Continuous
 62
     7
370
    13
100
AcDbLine
 10
9581.146849337093
 20
18998.14467224113
 30
0.0
 11
9872.36308526635
 21
18998.14467224113
 31
0.0
  0
LINE
  5
2AFE
330
1F
100
AcDbEntity
  8
1
  6
Continuous
 62
     7
370
    13
100
AcDbLine
 10
9581.146849337093
 20
19106.00255737397
 30
0.0
 11
9581.146849337093
 21
18998.14467224113
 31
0.0
  0
LINE
  5
2AFF
330
1F
100
AcDbEntity
  8
1
  6
Continuous
 62
     7
370
    13
100
AcDbLine
 10
9581.146849337093
 20
19379.96158561024
 30
0.0
 11
9581.146849337093
 21
19272.10370047751
 31
0.0
  0
LINE
  5
2B00
330
1F
100
AcDbEntity
  8
1
  6
Continuous
 62
     7
370
    13
100
AcDbLine
 10
9581.146849337093
 20
18724.18564400359
 30
0.0
 11
9872.36308526635
 21
18724.18564400359
 31
0.0
  0
LINE
  5
2B01
330
1F
100
AcDbEntity
  8
1
  6
Continuous
 62
     7
370
    13
100
AcDbLine
 10
9581.146849337093
 20
19272.10370047751
 30
0.0
 11
9872.36308526635
 21
19272.10370047751
 31
0.0
  0
LINE
  5
2B02
330
1F
100
AcDbEntity
  8
1
  6
Continuous
 62
     7
370
    13
100
AcDbLine
 10
9872.36308526635
 20
18751.15011528676
 30
0.0
 11
9667.433103514134
 21
18751.15011528676
 31
0.0
  0
LINE
  5
2B03
330
1F
100
AcDbEntity
  8
1
  6
Continuous
 62
     7
370
    13
100
AcDbLine
 10
9667.433103514134
 20
19025.10914352433
 30
0.0
 11
9667.433103514134
 21
19079.03808609076
 31
0.0
  0
LINE
  5
2B04
330
1F
100
AcDbEntity
  8
1
  6
Continuous
 62
     7
370
    13
100
AcDbLine
 10
9581.146849337093
 20
18832.0435291364
 30
0.0
 11
9581.146849337093
 21
18724.18564400359
 31
0.0
  0
LINE
  5
2B05
330
1F
100
AcDbEntity
  8
1
  6
Continuous
 62
     7
370
    13
100
AcDbLine
 10
9581.146849337093
 20
19379.96158561024
 30
0.0
 11
9872.36308526635
 21
19379.96158561024
 31
0.0
  0
LINE
  5
2B06
330
1F
100
AcDbEntity
  8
1
  6
Continuous
 62
     7
370
    13
100
AcDbLine
 10
9581.146849337093
 20
19106.00255737397
 30
0.0
 11
9872.36308526635
 21
19106.00255737397
 31
0.0
  0
LINE
  5
2B07
330
1F
100
AcDbEntity
  8
1
  6
Continuous
 62
     7
370
    13
100
AcDbLine
 10
9667.433103514134
 20
18481.50540245477
 30
0.0
 11
9667.433103514134
 21
18535.43434502114
 31
0.0
  0
LINE
  5
2B08
330
1F
100
AcDbEntity
  8
1
  6
Continuous
 62
     7
370
    13
100
AcDbLine
 10
9872.36308526635
 20
18481.50540245477
 30
0.0
 11
9667.433103514134
 21
18481.50540245477
 31
0.0
  0
LINE
  5
2B09
330
1F
100
AcDbEntity
  8
1
  6
Continuous
 62
     7
370
    13
100
AcDbLine
 10
9581.146849337093
 20
18562.3988163044
 30
0.0
 11
9872.36308526635
 21
18562.3988163044
 31
0.0
  0
LINE
  5
2B0A
330
1F
100
AcDbEntity
  8
1
  6
Continuous
 62
     7
370
    13
100
AcDbLine
 10
9581.146849337093
 20
18454.54093117156
 30
0.0
 11
9872.36308526635
 21
18454.54093117156
 31
0.0
  0
LINE
  5
2B0B
330
1F
100
AcDbEntity
  8
1
  6
Continuous
 62
     7
370
    13
100
AcDbLine
 10
9872.36308526635
 20
18535.43434502114
 30
0.0
 11
9667.433103514134
 21
18535.43434502114
 31
0.0
  0
LINE
  5
2B0C
330
1F
100
AcDbEntity
  8
1
  6
Continuous
 62
     7
370
    13
100
AcDbLine
 10
9581.146849337093
 20
18562.3988163044
 30
0.0
 11
9581.146849337093
 21
18454.54093117156
 31
0.0
  0
LINE
  5
2B0D
330
1F
100
AcDbEntity
  8
1
  6
Continuous
 62
     7
370
    13
100
AcDbLine
 10
9872.36308526635
 20
19079.03808609076
 30
0.0
 11
9667.433103514134
 21
19079.03808609076
 31
0.0
  0
LINE
  5
2B0E
330
1F
100
AcDbEntity
  8
1
  6
Continuous
 62
     7
370
    13
100
AcDbLine
 10
11242.15822645302
 20
18832.0435291364
 30
0.0
 11
11242.15822645302
 21
18724.18564400359
 31
0.0
  0
LINE
  5
2B0F
330
1F
100
AcDbEntity
  8
1
  6
Continuous
 62
     7
370
    13
100
AcDbLine
 10
11242.15822645302
 20
18724.18564400359
 30
0.0
 11
10950.9419365944
 21
18724.18564400359
 31
0.0
  0
LINE
  5
2B10
330
1F
100
AcDbEntity
  8
1
  6
Continuous
 62
     7
370
    13
100
AcDbLine
 10
11242.15822645302
 20
18832.0435291364
 30
0.0
 11
10950.9419365944
 21
18832.0435291364
 31
0.0
  0
LINE
  5
2B11
330
1F
100
AcDbEntity
  8
1
  6
Continuous
 62
     7
370
    13
100
AcDbLine
 10
10950.9419365944
 20
18751.15011528676
 30
0.0
 11
11155.87191834557
 21
18751.15011528676
 31
0.0
  0
LINE
  5
2B12
330
1F
100
AcDbEntity
  8
1
  6
Continuous
 62
     7
370
    13
100
AcDbLine
 10
9872.36308526635
 20
19025.10914352433
 30
0.0
 11
9667.433103514134
 21
19025.10914352433
 31
0.0
  0
LINE
  5
2B13
330
1F
100
AcDbEntity
  8
1
  6
Continuous
 62
     7
370
    13
100
AcDbLine
 10
9667.433103514134
 20
18751.15011528676
 30
0.0
 11
9667.433103514134
 21
18805.07905785314
 31
0.0
  0
LINE
  5
2B14
330
1F
100
AcDbEntity
  8
1
  6
Continuous
 62
     7
370
    13
100
AcDbLine
 10
9872.36308526635
 20
18805.07905785314
 30
0.0
 11
9667.433103514134
 21
18805.07905785314
 31
0.0
  0
LINE
  5
2B15
330
1F
100
AcDbEntity
  8
1
  6
Continuous
 62
     7
370
    13
100
AcDbLine
 10
9667.433103514134
 20
19299.06817176066
 30
0.0
 11
9667.433103514134
 21
19352.99711432705
 31
0.0
  0
LINE
  5
2B16
330
1F
100
AcDbEntity
  8
1
  6
Continuous
 62
     7
370
    13
100
AcDbLine
 10
10950.9419365944
 20
18805.07905785314
 30
0.0
 11
11155.87191834557
 21
18805.07905785314
 31
0.0
  0
LINE
  5
2B17
330
1F
100
AcDbEntity
  8
1
  6
Continuous
 62
     7
370
    13
100
AcDbLine
 10
11155.87191834557
 20
18751.15011528676
 30
0.0
 11
11155.87191834557
 21
18805.07905785314
 31
0.0
  0
TEXT
  5
2B18
330
1F
100
AcDbEntity
  8
1
  6
Continuous
 62
     7
370
    13
100
AcDbText
 10
10104.25786187537
 20
17665.32116477731
 30
0.0
 40
183.35840472576
  1
0
 50
90.00000299988045
 41
0.833333
  7
KANJI
100
AcDbText
  0
TEXT
  5
2B19
330
1F
100
AcDbEntity
  8
1
  6
Continuous
 62
     7
370
    13
100
AcDbText
 10
10378.95000015804
 20
17418.22635392005
 30
0.0
 40
183.35840472576
  1
8
 50
161.9999980002883
  7
KANJI
100
AcDbText
  0
TEXT
  5
2B1A
330
1F
100
AcDbEntity
  8
1
  6
Continuous
 62
     7
370
    13
100
AcDbText
 10
10201.46084403819
 20
17497.14710097972
 30
0.0
 40
183.35840472576
  1
9
 50
125.9999969989844
  7
KANJI
100
AcDbText
  0
TEXT
  5
2B1B
330
1F
100
AcDbEntity
  8
1
  6
Continuous
 62
     7
370
    13
100
AcDbText
 10
10568.93077117289
 20
17458.70342283956
 30
0.0
 40
183.35840472576
  1
7
 50
198.0000019997115
  7
KANJI
100
AcDbText
  0
TEXT
  5
2B1C
330
1F
100
AcDbEntity
  8
1
  6
Continuous
 62
     7
370
    13
100
AcDbText
 10
10698.83626410798
 20
17603.1175809796
 30
0.0
 40
183.35840472576
  1
6
 50
234.0000030010155
  7
KANJI
100
AcDbText
  0
TEXT
  5
2B1D
330
1F
100
AcDbEntity
  8
1
  6
Continuous
 62
     7
370
    13
100
AcDbText
 10
10719.0496407155
 20
17796.30782515361
 30
0.0
 40
183.35840472576
  1
5
 50
269.9999970001194
  7
KANJI
100
AcDbText
  0
TEXT
  5
2B1E
330
1F
100
AcDbEntity
  8
1
  6
Continuous
 62
     7
370
    13
100
AcDbText
 10
10621.84423175192
 20
17964.4826978865
 30
0.0
 40
183.35840472576
  1
4
 50
305.999997999944
  7
KANJI
100
AcDbText
  0
TEXT
  5
2B1F
330
1F
100
AcDbEntity
  8
1
  6
Continuous
 62
     7
370
    13
100
AcDbText
 10
10444.35502170154
 20
18043.40349887553
 30
0.0
 40
183.35840472576
  1
3
 50
341.9999989998507
  7
KANJI
100
AcDbText
  0
TEXT
  5
2B20
330
1F
100
AcDbEntity
  8
1
  6
Continuous
 62
     7
370
    13
100
AcDbText
 10
10254.3742506866
 20
18002.92637602651
 30
0.0
 40
183.35840472576
  1
2
 50
18.00000100014914
  7
KANJI
100
AcDbText
  0
TEXT
  5
2B21
330
1F
100
AcDbEntity
  8
1
  6
Continuous
 62
     7
370
    13
100
AcDbText
 10
10124.46881168088
 20
17858.51227181464
 30
0.0
 40
183.35840472576
  1
1
 50
54.00000200005595
 41
0.666667
  7
KANJI
100
AcDbText
  0
CIRCLE
  5
2B22
330
1F
100
AcDbEntity
  8
1
  6
Continuous
 62
     7
370
    13
100
AcDbCircle
 10
10411.65251093042
 20
17730.81452193077
 30
0.0
 40
215.7157702656
  0
LINE
  5
2B23
330
1F
100
AcDbEntity
  8
1
  6
Continuous
 62
     7
370
    13
100
AcDbLine
 10
10950.9419365944
 20
17191.52509626676
 30
0.0
 11
10950.9419365944
 21
18270.10394759476
 31
0.0
  0
LINE
  5
2B24
330
1F
100
AcDbEntity
  8
1
  6
Continuous
 62
     7
370
    13
100
AcDbLine
 10
9872.36308526635
 20
17191.52509626676
 30
0.0
 11
9872.36308526635
 21
18270.10394759476
 31
0.0
  0
LINE
  5
2B25
330
1F
100
AcDbEntity
  8
1
  6
Continuous
 62
     7
370
    13
100
AcDbLine
 10
10217.50874912232
 20
17730.81511514866
 30
0.0
 11
10325.36609496673
 21
17655.31497305866
 31
0.0
  0
LINE
  5
2B26
330
1F
100
AcDbEntity
  8
1
  6
Continuous
 62
     7
370
    13
100
AcDbLine
 10
10325.36668818454
 20
17773.9586467047
 30
0.0
 11
10605.79621880792
 21
17773.9586467047
 31
0.0
  0
LINE
  5
2B27
330
1F
100
AcDbEntity
  8
1
  6
Continuous
 62
     7
370
    13
100
AcDbLine
 10
10325.36668818454
 20
17655.3143259114
 30
0.0
 11
10325.36668818454
 21
17687.67201502484
 31
0.0
  0
LINE
  5
2B28
330
1F
100
AcDbEntity
  8
1
  6
Continuous
 62
     7
370
    13
100
AcDbLine
 10
9872.365242424365
 20
18108.3162570322
 30
0.0
 11
10034.1521240515
 21
18270.10313865948
 31
0.0
  0
LINE
  5
2B29
330
1F
100
AcDbEntity
  8
1
  6
Continuous
 62
     7
370
    13
100
AcDbLine
 10
9872.36308526635
 20
17191.52509626676
 30
0.0
 11
10950.9419365944
 21
17191.52509626676
 31
0.0
  0
LINE
  5
2B2A
330
1F
100
AcDbEntity
  8
1
  6
Continuous
 62
     7
370
    13
100
AcDbLine
 10
9872.36308526635
 20
18270.10394759476
 30
0.0
 11
10950.9419365944
 21
18270.10394759476
 31
0.0
  0
LINE
  5
2B2B
330
1F
100
AcDbEntity
  8
1
  6
Continuous
 62
     7
370
    13
100
AcDbLine
 10
10217.50912662418
 20
17730.81570836647
 30
0.0
 11
10325.36663425524
 21
17806.31595831512
 31
0.0
  0
LINE
  5
2B2C
330
1F
100
AcDbEntity
  8
1
  6
Continuous
 62
     7
370
    13
100
AcDbLine
 10
10325.36668818454
 20
17773.9586467047
 30
0.0
 11
10325.36668818454
 21
17806.31633581688
 31
0.0
  0
LINE
  5
2B2D
330
1F
100
AcDbEntity
  8
1
  6
Continuous
 62
     7
370
    13
100
AcDbLine
 10
10605.79621880792
 20
17687.67201502484
 30
0.0
 11
10605.79621880792
 21
17773.9586467047
 31
0.0
  0
LINE
  5
2B2E
330
1F
100
AcDbEntity
  8
1
  6
Continuous
 62
     7
370
    13
100
AcDbLine
 10
10325.36668818454
 20
17687.67201502484
 30
0.0
 11
10605.79621880792
 21
17687.67201502484
 31
0.0
  0
LINE
  5
2B2F
330
1F
100
AcDbEntity
  8
1
  6
Continuous
 62
     7
370
    13
100
AcDbLine
 10
9872.36308526635
 20
18112.63143529989
 30
0.0
 11
9667.433103514134
 21
18112.63143529989
 31
0.0
  0
LINE
  5
2B30
330
1F
100
AcDbEntity
  8
1
  6
Continuous
 62
     7
370
    13
100
AcDbLine
 10
9581.146849337093
 20
17645.60679267558
 30
0.0
 11
9872.36308526635
 21
17645.60679267558
 31
0.0
  0
LINE
  5
2B31
330
1F
100
AcDbEntity
  8
1
  6
Continuous
 62
     7
370
    13
100
AcDbLine
 10
9872.36308526635
 20
18166.56037786625
 30
0.0
 11
9667.433103514134
 21
18166.56037786625
 31
0.0
  0
LINE
  5
2B32
330
1F
100
AcDbEntity
  8
1
  6
Continuous
 62
     7
370
    13
100
AcDbLine
 10
9581.146849337093
 20
17811.70793578033
 30
0.0
 11
9872.36308526635
 21
17811.70793578033
 31
0.0
  0
LINE
  5
2B33
330
1F
100
AcDbEntity
  8
1
  6
Continuous
 62
     7
370
    13
100
AcDbLine
 10
9581.146849337093
 20
17919.56582091313
 30
0.0
 11
9581.146849337093
 21
17811.70793578033
 31
0.0
  0
LINE
  5
2B34
330
1F
100
AcDbEntity
  8
1
  6
Continuous
 62
     7
370
    13
100
AcDbLine
 10
9581.146849337093
 20
18193.5248491495
 30
0.0
 11
9581.146849337093
 21
18085.66696401671
 31
0.0
  0
LINE
  5
2B35
330
1F
100
AcDbEntity
  8
1
  6
Continuous
 62
     7
370
    13
100
AcDbLine
 10
9581.146849337093
 20
17537.74890754278
 30
0.0
 11
9872.36308526635
 21
17537.74890754278
 31
0.0
  0
LINE
  5
2B36
330
1F
100
AcDbEntity
  8
1
  6
Continuous
 62
     7
370
    13
100
AcDbLine
 10
9581.146849337093
 20
18085.66696401671
 30
0.0
 11
9872.36308526635
 21
18085.66696401671
 31
0.0
  0
LINE
  5
2B37
330
1F
100
AcDbEntity
  8
1
  6
Continuous
 62
     7
370
    13
100
AcDbLine
 10
9872.36308526635
 20
17564.71337882596
 30
0.0
 11
9667.433103514134
 21
17564.71337882596
 31
0.0
  0
LINE
  5
2B38
330
1F
100
AcDbEntity
  8
1
  6
Continuous
 62
     7
370
    13
100
AcDbLine
 10
9667.433103514134
 20
17838.67240706359
 30
0.0
 11
9667.433103514134
 21
17892.60134962996
 31
0.0
  0
LINE
  5
2B39
330
1F
100
AcDbEntity
  8
1
  6
Continuous
 62
     7
370
    13
100
AcDbLine
 10
9581.146849337093
 20
17645.60679267558
 30
0.0
 11
9581.146849337093
 21
17537.74890754278
 31
0.0
  0
LINE
  5
2B3A
330
1F
100
AcDbEntity
  8
1
  6
Continuous
 62
     7
370
    13
100
AcDbLine
 10
9581.146849337093
 20
18193.5248491495
 30
0.0
 11
9872.36308526635
 21
18193.5248491495
 31
0.0
  0
LINE
  5
2B3B
330
1F
100
AcDbEntity
  8
1
  6
Continuous
 62
     7
370
    13
100
AcDbLine
 10
9581.146849337093
 20
17919.56582091313
 30
0.0
 11
9872.36308526635
 21
17919.56582091313
 31
0.0
  0
LINE
  5
2B3C
330
1F
100
AcDbEntity
  8
1
  6
Continuous
 62
     7
370
    13
100
AcDbLine
 10
9667.433103514134
 20
17295.06866599396
 30
0.0
 11
9667.433103514134
 21
17348.9976085604
 31
0.0
  0
LINE
  5
2B3D
330
1F
100
AcDbEntity
  8
1
  6
Continuous
 62
     7
370
    13
100
AcDbLine
 10
9872.36308526635
 20
17295.06866599396
 30
0.0
 11
9667.433103514134
 21
17295.06866599396
 31
0.0
  0
LINE
  5
2B3E
330
1F
100
AcDbEntity
  8
1
  6
Continuous
 62
     7
370
    13
100
AcDbLine
 10
9581.146849337093
 20
17375.96207984361
 30
0.0
 11
9872.36308526635
 21
17375.96207984361
 31
0.0
  0
LINE
  5
2B3F
330
1F
100
AcDbEntity
  8
1
  6
Continuous
 62
     7
370
    13
100
AcDbLine
 10
9581.146849337093
 20
17268.10419471076
 30
0.0
 11
9872.36308526635
 21
17268.10419471076
 31
0.0
  0
LINE
  5
2B40
330
1F
100
AcDbEntity
  8
1
  6
Continuous
 62
     7
370
    13
100
AcDbLine
 10
9872.36308526635
 20
17348.9976085604
 30
0.0
 11
9667.433103514134
 21
17348.9976085604
 31
0.0
  0
LINE
  5
2B41
330
1F
100
AcDbEntity
  8
1
  6
Continuous
 62
     7
370
    13
100
AcDbLine
 10
9581.146849337093
 20
17375.96207984361
 30
0.0
 11
9581.146849337093
 21
17268.10419471076
 31
0.0
  0
LINE
  5
2B42
330
1F
100
AcDbEntity
  8
1
  6
Continuous
 62
     7
370
    13
100
AcDbLine
 10
9872.36308526635
 20
17892.60134962996
 30
0.0
 11
9667.433103514134
 21
17892.60134962996
 31
0.0
  0
LINE
  5
2B43
330
1F
100
AcDbEntity
  8
1
  6
Continuous
 62
     7
370
    13
100
AcDbLine
 10
11242.15822645302
 20
17645.60679267558
 30
0.0
 11
11242.15822645302
 21
17537.74890754278
 31
0.0
  0
LINE
  5
2B44
330
1F
100
AcDbEntity
  8
1
  6
Continuous
 62
     7
370
    13
100
AcDbLine
 10
11242.15822645302
 20
17537.74890754278
 30
0.0
 11
10950.9419365944
 21
17537.74890754278
 31
0.0
  0
LINE
  5
2B45
330
1F
100
AcDbEntity
  8
1
  6
Continuous
 62
     7
370
    13
100
AcDbLine
 10
11242.15822645302
 20
17645.60679267558
 30
0.0
 11
10950.9419365944
 21
17645.60679267558
 31
0.0
  0
LINE
  5
2B46
330
1F
100
AcDbEntity
  8
1
  6
Continuous
 62
     7
370
    13
100
AcDbLine
 10
10950.9419365944
 20
17564.71337882596
 30
0.0
 11
11155.87191834557
 21
17564.71337882596
 31
0.0
  0
LINE
  5
2B47
330
1F
100
AcDbEntity
  8
1
  6
Continuous
 62
     7
370
    13
100
AcDbLine
 10
9872.36308526635
 20
17838.67240706359
 30
0.0
 11
9667.433103514134
 21
17838.67240706359
 31
0.0
  0
LINE
  5
2B48
330
1F
100
AcDbEntity
  8
1
  6
Continuous
 62
     7
370
    13
100
AcDbLine
 10
9667.433103514134
 20
17564.71337882596
 30
0.0
 11
9667.433103514134
 21
17618.64232139239
 31
0.0
  0
LINE
  5
2B49
330
1F
100
AcDbEntity
  8
1
  6
Continuous
 62
     7
370
    13
100
AcDbLine
 10
9872.36308526635
 20
17618.64232139239
 30
0.0
 11
9667.433103514134
 21
17618.64232139239
 31
0.0
  0
LINE
  5
2B4A
330
1F
100
AcDbEntity
  8
1
  6
Continuous
 62
     7
370
    13
100
AcDbLine
 10
9667.433103514134
 20
18112.63143529989
 30
0.0
 11
9667.433103514134
 21
18166.56037786625
 31
0.0
  0
LINE
  5
2B4B
330
1F
100
AcDbEntity
  8
1
  6
Continuous
 62
     7
370
    13
100
AcDbLine
 10
10950.9419365944
 20
17618.64232139239
 30
0.0
 11
11155.87191834557
 21
17618.64232139239
 31
0.0
  0
LINE
  5
2B4C
330
1F
100
AcDbEntity
  8
1
  6
Continuous
 62
     7
370
    13
100
AcDbLine
 10
11155.87191834557
 20
17564.71337882596
 30
0.0
 11
11155.87191834557
 21
17618.64232139239
 31
0.0
  0
TEXT
  5
2B4D
330
1F
100
AcDbEntity
  8
1
  6
Continuous
 62
     7
370
    13
100
AcDbText
 10
10104.25786187537
 20
16478.88442831649
 30
0.0
 40
183.35840472576
  1
0
 50
90.00000299988045
 41
0.833333
  7
KANJI
100
AcDbText
  0
TEXT
  5
2B4E
330
1F
100
AcDbEntity
  8
1
  6
Continuous
 62
     7
370
    13
100
AcDbText
 10
10378.95000015804
 20
16231.78961745923
 30
0.0
 40
183.35840472576
  1
8
 50
161.9999980002883
  7
KANJI
100
AcDbText
  0
TEXT
  5
2B4F
330
1F
100
AcDbEntity
  8
1
  6
Continuous
 62
     7
370
    13
100
AcDbText
 10
10201.46084403819
 20
16310.71036451889
 30
0.0
 40
183.35840472576
  1
9
 50
125.9999969989844
  7
KANJI
100
AcDbText
  0
TEXT
  5
2B50
330
1F
100
AcDbEntity
  8
1
  6
Continuous
 62
     7
370
    13
100
AcDbText
 10
10568.93077117289
 20
16272.26668637883
 30
0.0
 40
183.35840472576
  1
7
 50
198.0000019997115
  7
KANJI
100
AcDbText
  0
TEXT
  5
2B51
330
1F
100
AcDbEntity
  8
1
  6
Continuous
 62
     7
370
    13
100
AcDbText
 10
10698.83626410798
 20
16416.68084451885
 30
0.0
 40
183.35840472576
  1
6
 50
234.0000030010155
  7
KANJI
100
AcDbText
  0
TEXT
  5
2B52
330
1F
100
AcDbEntity
  8
1
  6
Continuous
 62
     7
370
    13
100
AcDbText
 10
10719.0496407155
 20
16609.8710886928
 30
0.0
 40
183.35840472576
  1
5
 50
269.9999970001194
  7
KANJI
100
AcDbText
  0
TEXT
  5
2B53
330
1F
100
AcDbEntity
  8
1
  6
Continuous
 62
     7
370
    13
100
AcDbText
 10
10621.84423175192
 20
16778.04596142569
 30
0.0
 40
183.35840472576
  1
4
 50
305.999997999944
  7
KANJI
100
AcDbText
  0
TEXT
  5
2B54
330
1F
100
AcDbEntity
  8
1
  6
Continuous
 62
     7
370
    13
100
AcDbText
 10
10444.35502170154
 20
16856.96676241474
 30
0.0
 40
183.35840472576
  1
3
 50
341.9999989998507
  7
KANJI
100
AcDbText
  0
TEXT
  5
2B55
330
1F
100
AcDbEntity
  8
1
  6
Continuous
 62
     7
370
    13
100
AcDbText
 10
10254.3742506866
 20
16816.48963956578
 30
0.0
 40
183.35840472576
  1
2
 50
18.00000100014914
  7
KANJI
100
AcDbText
  0
TEXT
  5
2B56
330
1F
100
AcDbEntity
  8
1
  6
Continuous
 62
     7
370
    13
100
AcDbText
 10
10124.46881168088
 20
16672.07553535381
 30
0.0
 40
183.35840472576
  1
1
 50
54.00000200005595
 41
0.666667
  7
KANJI
100
AcDbText
  0
CIRCLE
  5
2B57
330
1F
100
AcDbEntity
  8
1
  6
Continuous
 62
     7
370
    13
100
AcDbCircle
 10
10411.65251093042
 20
16544.37778546995
 30
0.0
 40
215.7157702656
  0
LINE
  5
2B58
330
1F
100
AcDbEntity
  8
1
  6
Continuous
 62
     7
370
    13
100
AcDbLine
 10
10950.9419365944
 20
16005.08835980595
 30
0.0
 11
10950.9419365944
 21
17083.66721113393
 31
0.0
  0
LINE
  5
2B59
330
1F
100
AcDbEntity
  8
1
  6
Continuous
 62
     7
370
    13
100
AcDbLine
 10
9872.36308526635
 20
16005.08835980595
 30
0.0
 11
9872.36308526635
 21
17083.66721113393
 31
0.0
  0
LINE
  5
2B5A
330
1F
100
AcDbEntity
  8
1
  6
Continuous
 62
     7
370
    13
100
AcDbLine
 10
10217.50874912232
 20
16544.37837868784
 30
0.0
 11
10325.36609496673
 21
16468.87823659781
 31
0.0
  0
LINE
  5
2B5B
330
1F
100
AcDbEntity
  8
1
  6
Continuous
 62
     7
370
    13
100
AcDbLine
 10
10325.36668818454
 20
16587.52191024388
 30
0.0
 11
10605.79621880792
 21
16587.52191024388
 31
0.0
  0
LINE
  5
2B5C
330
1F
100
AcDbEntity
  8
1
  6
Continuous
 62
     7
370
    13
100
AcDbLine
 10
10325.36668818454
 20
16468.87758945058
 30
0.0
 11
10325.36668818454
 21
16501.23527856399
 31
0.0
  0
LINE
  5
2B5D
330
1F
100
AcDbEntity
  8
1
  6
Continuous
 62
     7
370
    13
100
AcDbLine
 10
9872.365242424365
 20
16921.87952057139
 30
0.0
 11
10034.1521240515
 21
17083.66640219862
 31
0.0
  0
LINE
  5
2B5E
330
1F
100
AcDbEntity
  8
1
  6
Continuous
 62
     7
370
    13
100
AcDbLine
 10
9872.36308526635
 20
16005.08835980595
 30
0.0
 11
10950.9419365944
 21
16005.08835980595
 31
0.0
  0
LINE
  5
2B5F
330
1F
100
AcDbEntity
  8
1
  6
Continuous
 62
     7
370
    13
100
AcDbLine
 10
9872.36308526635
 20
17083.66721113393
 30
0.0
 11
10950.9419365944
 21
17083.66721113393
 31
0.0
  0
LINE
  5
2B60
330
1F
100
AcDbEntity
  8
1
  6
Continuous
 62
     7
370
    13
100
AcDbLine
 10
10217.50912662418
 20
16544.37897190564
 30
0.0
 11
10325.36663425524
 21
16619.8792218544
 31
0.0
  0
LINE
  5
2B61
330
1F
100
AcDbEntity
  8
1
  6
Continuous
 62
     7
370
    13
100
AcDbLine
 10
10325.36668818454
 20
16587.52191024388
 30
0.0
 11
10325.36668818454
 21
16619.87959935607
 31
0.0
  0
LINE
  5
2B62
330
1F
100
AcDbEntity
  8
1
  6
Continuous
 62
     7
370
    13
100
AcDbLine
 10
10605.79621880792
 20
16501.23527856399
 30
0.0
 11
10605.79621880792
 21
16587.52191024388
 31
0.0
  0
LINE
  5
2B63
330
1F
100
AcDbEntity
  8
1
  6
Continuous
 62
     7
370
    13
100
AcDbLine
 10
10325.36668818454
 20
16501.23527856399
 30
0.0
 11
10605.79621880792
 21
16501.23527856399
 31
0.0
  0
LINE
  5
2B64
330
1F
100
AcDbEntity
  8
1
  6
Continuous
 62
     7
370
    13
100
AcDbLine
 10
9872.36308526635
 20
16926.19469883905
 30
0.0
 11
9667.433103514134
 21
16926.19469883905
 31
0.0
  0
LINE
  5
2B65
330
1F
100
AcDbEntity
  8
1
  6
Continuous
 62
     7
370
    13
100
AcDbLine
 10
9581.146849337093
 20
16459.17005621476
 30
0.0
 11
9872.36308526635
 21
16459.17005621476
 31
0.0
  0
LINE
  5
2B66
330
1F
100
AcDbEntity
  8
1
  6
Continuous
 62
     7
370
    13
100
AcDbLine
 10
9872.36308526635
 20
16980.1236414055
 30
0.0
 11
9667.433103514134
 21
16980.1236414055
 31
0.0
  0
LINE
  5
2B67
330
1F
100
AcDbEntity
  8
1
  6
Continuous
 62
     7
370
    13
100
AcDbLine
 10
9581.146849337093
 20
16625.2711993196
 30
0.0
 11
9872.36308526635
 21
16625.2711993196
 31
0.0
  0
LINE
  5
2B68
330
1F
100
AcDbEntity
  8
1
  6
Continuous
 62
     7
370
    13
100
AcDbLine
 10
9581.146849337093
 20
16733.12908445231
 30
0.0
 11
9581.146849337093
 21
16625.2711993196
 31
0.0
  0
LINE
  5
2B69
330
1F
100
AcDbEntity
  8
1
  6
Continuous
 62
     7
370
    13
100
AcDbLine
 10
9581.146849337093
 20
17007.08811268868
 30
0.0
 11
9581.146849337093
 21
16899.23022755588
 31
0.0
  0
LINE
  5
2B6A
330
1F
100
AcDbEntity
  8
1
  6
Continuous
 62
     7
370
    13
100
AcDbLine
 10
9581.146849337093
 20
16351.31217108195
 30
0.0
 11
9872.36308526635
 21
16351.31217108195
 31
0.0
  0
LINE
  5
2B6B
330
1F
100
AcDbEntity
  8
1
  6
Continuous
 62
     7
370
    13
100
AcDbLine
 10
9581.146849337093
 20
16899.23022755588
 30
0.0
 11
9872.36308526635
 21
16899.23022755588
 31
0.0
  0
LINE
  5
2B6C
330
1F
100
AcDbEntity
  8
1
  6
Continuous
 62
     7
370
    13
100
AcDbLine
 10
9872.36308526635
 20
16378.27664236513
 30
0.0
 11
9667.433103514134
 21
16378.27664236513
 31
0.0
  0
LINE
  5
2B6D
330
1F
100
AcDbEntity
  8
1
  6
Continuous
 62
     7
370
    13
100
AcDbLine
 10
9667.433103514134
 20
16652.23567060276
 30
0.0
 11
9667.433103514134
 21
16706.16461316913
 31
0.0
  0
LINE
  5
2B6E
330
1F
100
AcDbEntity
  8
1
  6
Continuous
 62
     7
370
    13
100
AcDbLine
 10
9581.146849337093
 20
16459.17005621476
 30
0.0
 11
9581.146849337093
 21
16351.31217108195
 31
0.0
  0
LINE
  5
2B6F
330
1F
100
AcDbEntity
  8
1
  6
Continuous
 62
     7
370
    13
100
AcDbLine
 10
9581.146849337093
 20
17007.08811268868
 30
0.0
 11
9872.36308526635
 21
17007.08811268868
 31
0.0
  0
LINE
  5
2B70
330
1F
100
AcDbEntity
  8
1
  6
Continuous
 62
     7
370
    13
100
AcDbLine
 10
9581.146849337093
 20
16733.12908445231
 30
0.0
 11
9872.36308526635
 21
16733.12908445231
 31
0.0
  0
LINE
  5
2B71
330
1F
100
AcDbEntity
  8
1
  6
Continuous
 62
     7
370
    13
100
AcDbLine
 10
9667.433103514134
 20
16108.63192953313
 30
0.0
 11
9667.433103514134
 21
16162.56087209956
 31
0.0
  0
LINE
  5
2B72
330
1F
100
AcDbEntity
  8
1
  6
Continuous
 62
     7
370
    13
100
AcDbLine
 10
9872.36308526635
 20
16108.63192953313
 30
0.0
 11
9667.433103514134
 21
16108.63192953313
 31
0.0
  0
LINE
  5
2B73
330
1F
100
AcDbEntity
  8
1
  6
Continuous
 62
     7
370
    13
100
AcDbLine
 10
9581.146849337093
 20
16189.52534338276
 30
0.0
 11
9872.36308526635
 21
16189.52534338276
 31
0.0
  0
LINE
  5
2B74
330
1F
100
AcDbEntity
  8
1
  6
Continuous
 62
     7
370
    13
100
AcDbLine
 10
9581.146849337093
 20
16081.66745824995
 30
0.0
 11
9872.36308526635
 21
16081.66745824995
 31
0.0
  0
LINE
  5
2B75
330
1F
100
AcDbEntity
  8
1
  6
Continuous
 62
     7
370
    13
100
AcDbLine
 10
9872.36308526635
 20
16162.56087209956
 30
0.0
 11
9667.433103514134
 21
16162.56087209956
 31
0.0
  0
LINE
  5
2B76
330
1F
100
AcDbEntity
  8
1
  6
Continuous
 62
     7
370
    13
100
AcDbLine
 10
9581.146849337093
 20
16189.52534338276
 30
0.0
 11
9581.146849337093
 21
16081.66745824995
 31
0.0
  0
LINE
  5
2B77
330
1F
100
AcDbEntity
  8
1
  6
Continuous
 62
     7
370
    13
100
AcDbLine
 10
9872.36308526635
 20
16706.16461316913
 30
0.0
 11
9667.433103514134
 21
16706.16461316913
 31
0.0
  0
LINE
  5
2B78
330
1F
100
AcDbEntity
  8
1
  6
Continuous
 62
     7
370
    13
100
AcDbLine
 10
11242.15822645302
 20
16459.17005621476
 30
0.0
 11
11242.15822645302
 21
16351.31217108195
 31
0.0
  0
LINE
  5
2B79
330
1F
100
AcDbEntity
  8
1
  6
Continuous
 62
     7
370
    13
100
AcDbLine
 10
11242.15822645302
 20
16351.31217108195
 30
0.0
 11
10950.9419365944
 21
16351.31217108195
 31
0.0
  0
LINE
  5
2B7A
330
1F
100
AcDbEntity
  8
1
  6
Continuous
 62
     7
370
    13
100
AcDbLine
 10
11242.15822645302
 20
16459.17005621476
 30
0.0
 11
10950.9419365944
 21
16459.17005621476
 31
0.0
  0
LINE
  5
2B7B
330
1F
100
AcDbEntity
  8
1
  6
Continuous
 62
     7
370
    13
100
AcDbLine
 10
10950.9419365944
 20
16378.27664236513
 30
0.0
 11
11155.87191834557
 21
16378.27664236513
 31
0.0
  0
LINE
  5
2B7C
330
1F
100
AcDbEntity
  8
1
  6
Continuous
 62
     7
370
    13
100
AcDbLine
 10
9872.36308526635
 20
16652.23567060276
 30
0.0
 11
9667.433103514134
 21
16652.23567060276
 31
0.0
  0
LINE
  5
2B7D
330
1F
100
AcDbEntity
  8
1
  6
Continuous
 62
     7
370
    13
100
AcDbLine
 10
9667.433103514134
 20
16378.27664236513
 30
0.0
 11
9667.433103514134
 21
16432.20558493158
 31
0.0
  0
LINE
  5
2B7E
330
1F
100
AcDbEntity
  8
1
  6
Continuous
 62
     7
370
    13
100
AcDbLine
 10
9872.36308526635
 20
16432.20558493158
 30
0.0
 11
9667.433103514134
 21
16432.20558493158
 31
0.0
  0
LINE
  5
2B7F
330
1F
100
AcDbEntity
  8
1
  6
Continuous
 62
     7
370
    13
100
AcDbLine
 10
9667.433103514134
 20
16926.19469883905
 30
0.0
 11
9667.433103514134
 21
16980.1236414055
 31
0.0
  0
LINE
  5
2B80
330
1F
100
AcDbEntity
  8
1
  6
Continuous
 62
     7
370
    13
100
AcDbLine
 10
10950.9419365944
 20
16432.20558493158
 30
0.0
 11
11155.87191834557
 21
16432.20558493158
 31
0.0
  0
LINE
  5
2B81
330
1F
100
AcDbEntity
  8
1
  6
Continuous
 62
     7
370
    13
100
AcDbLine
 10
11155.87191834557
 20
16378.27664236513
 30
0.0
 11
11155.87191834557
 21
16432.20558493158
 31
0.0
  0
LINE
  5
2B82
330
1F
100
AcDbEntity
  8
1
  6
Continuous
 62
     7
370
    13
100
AcDbLine
 10
12665.88231020464
 20
17960.01252783795
 30
0.0
 11
12665.88231020464
 21
17825.19017142198
 31
0.0
  0
LINE
  5
2B83
330
1F
100
AcDbEntity
  8
1
  6
Continuous
 62
     7
370
    13
100
AcDbLine
 10
12795.31177236529
 20
17960.01252783795
 30
0.0
 11
12795.31177236529
 21
17825.19017142198
 31
0.0
  0
LINE
  5
2B84
330
1F
100
AcDbEntity
  8
1
  6
Continuous
 62
     7
370
    13
100
AcDbLine
 10
12838.45492641834
 20
17960.01252783795
 30
0.0
 11
12838.45492641834
 21
17825.19017142198
 31
0.0
  0
LINE
  5
2B85
330
1F
100
AcDbEntity
  8
1
  6
Continuous
 62
     7
370
    13
100
AcDbLine
 10
12622.7391561527
 20
17960.01252783795
 30
0.0
 11
12622.7391561527
 21
17825.19017142198
 31
0.0
  0
LINE
  5
2B86
330
1F
100
AcDbEntity
  8
1
  6
Continuous
 62
     7
370
    13
100
AcDbLine
 10
12622.7391561527
 20
17960.01252783795
 30
0.0
 11
12838.45492641834
 21
17960.01252783795
 31
0.0
  0
LINE
  5
2B87
330
1F
100
AcDbEntity
  8
1
  6
Continuous
 62
     7
370
    13
100
AcDbLine
 10
12622.7391561527
 20
17825.19017142198
 30
0.0
 11
12838.45492641834
 21
17825.19017142198
 31
0.0
  0
LINE
  5
2B88
330
1F
100
AcDbEntity
  8
1
  6
Continuous
 62
     7
370
    13
100
AcDbLine
 10
12665.88231020464
 20
18822.87560890033
 30
0.0
 11
12665.88231020464
 21
18688.05325248433
 31
0.0
  0
LINE
  5
2B89
330
1F
100
AcDbEntity
  8
1
  6
Continuous
 62
     7
370
    13
100
AcDbLine
 10
12795.31177236529
 20
18822.87560890033
 30
0.0
 11
12795.31177236529
 21
18688.05325248433
 31
0.0
  0
LINE
  5
2B8A
330
1F
100
AcDbEntity
  8
1
  6
Continuous
 62
     7
370
    13
100
AcDbLine
 10
12838.45492641834
 20
18822.87560890033
 30
0.0
 11
12838.45492641834
 21
18688.05325248433
 31
0.0
  0
LINE
  5
2B8B
330
1F
100
AcDbEntity
  8
1
  6
Continuous
 62
     7
370
    13
100
AcDbLine
 10
12622.7391561527
 20
18822.87560890033
 30
0.0
 11
12622.7391561527
 21
18688.05325248433
 31
0.0
  0
LINE
  5
2B8C
330
1F
100
AcDbEntity
  8
1
  6
Continuous
 62
     7
370
    13
100
AcDbLine
 10
12622.7391561527
 20
18822.87560890033
 30
0.0
 11
12838.45492641834
 21
18822.87560890033
 31
0.0
  0
LINE
  5
2B8D
330
1F
100
AcDbEntity
  8
1
  6
Continuous
 62
     7
370
    13
100
AcDbLine
 10
12622.7391561527
 20
18688.05325248433
 30
0.0
 11
12838.45492641834
 21
18688.05325248433
 31
0.0
  0
LINE
  5
2B8E
330
1F
100
AcDbEntity
  8
1
  6
Continuous
 62
     7
370
    13
100
AcDbLine
 10
12665.88231020464
 20
19685.73868996276
 30
0.0
 11
12665.88231020464
 21
19550.91633354676
 31
0.0
  0
LINE
  5
2B8F
330
1F
100
AcDbEntity
  8
1
  6
Continuous
 62
     7
370
    13
100
AcDbLine
 10
12795.31177236529
 20
19685.73868996276
 30
0.0
 11
12795.31177236529
 21
19550.91633354676
 31
0.0
  0
LINE
  5
2B90
330
1F
100
AcDbEntity
  8
1
  6
Continuous
 62
     7
370
    13
100
AcDbLine
 10
12838.45492641834
 20
19685.73868996276
 30
0.0
 11
12838.45492641834
 21
19550.91633354676
 31
0.0
  0
LINE
  5
2B91
330
1F
100
AcDbEntity
  8
1
  6
Continuous
 62
     7
370
    13
100
AcDbLine
 10
12622.7391561527
 20
19685.73868996276
 30
0.0
 11
12622.7391561527
 21
19550.91633354676
 31
0.0
  0
LINE
  5
2B92
330
1F
100
AcDbEntity
  8
1
  6
Continuous
 62
     7
370
    13
100
AcDbLine
 10
12622.7391561527
 20
19685.73868996276
 30
0.0
 11
12838.45492641834
 21
19685.73868996276
 31
0.0
  0
LINE
  5
2B93
330
1F
100
AcDbEntity
  8
1
  6
Continuous
 62
     7
370
    13
100
AcDbLine
 10
12622.7391561527
 20
19550.91633354676
 30
0.0
 11
12838.45492641834
 21
19550.91633354676
 31
0.0
  0
ARC
  5
2B94
330
1F
100
AcDbEntity
  8
1
  6
Continuous
 62
     7
370
    13
100
AcDbCircle
 10
5665.899417187553
 20
18226.9359322981
 30
0.0
 40
107.8584244222255
100
AcDbArc
 50
0.0000819997893899
 51
89.99997299940845
  0
ARC
  5
2B95
330
1F
100
AcDbEntity
  8
1
  6
Continuous
 62
     7
370
    13
100
AcDbCircle
 10
5665.899417187553
 20
16911.0766365837
 30
0.0
 40
107.8584244222255
100
AcDbArc
 50
270.000082000623
 51
0.0000819997893899
  0
ARC
  5
2B96
330
1F
100
AcDbEntity
  8
1
  6
Continuous
 62
     7
370
    13
100
AcDbCircle
 10
4371.603986659756
 20
16911.0766365837
 30
0.0
 40
107.8584244222255
100
AcDbArc
 50
179.9999180002106
 51
269.9999179993767
  0
ARC
  5
2B97
330
1F
100
AcDbEntity
  8
1
  6
Continuous
 62
     7
370
    13
100
AcDbCircle
 10
4371.603986659756
 20
18226.93755016617
 30
0.0
 40
107.8584244222255
100
AcDbArc
 50
89.99997299940845
 51
179.9999180002106
  0
ARC
  5
2B98
330
1F
100
AcDbEntity
  8
1
  6
Continuous
 62
     7
370
    13
100
AcDbCircle
 10
5396.254704355553
 20
18280.86978239806
 30
0.0
 40
53.92932006899797
100
AcDbArc
 50
0.0000550000315905
 51
89.99997299940845
  0
ARC
  5
2B99
330
1F
100
AcDbEntity
  8
1
  6
Continuous
 62
     7
370
    13
100
AcDbCircle
 10
4641.248699491989
 20
18280.86978239806
 30
0.0
 40
53.92932006899797
100
AcDbArc
 50
89.99997299940845
 51
179.9999449991345
  0
ARC
  5
2B9A
330
1F
100
AcDbEntity
  8
1
  6
Continuous
 62
     7
370
    13
100
AcDbCircle
 10
5396.253032558131
 20
16857.14769401728
 30
0.0
 40
53.92932006899797
100
AcDbArc
 50
270.000082000623
 51
0.0000550000315905
  0
ARC
  5
2B9B
330
1F
100
AcDbEntity
  8
1
  6
Continuous
 62
     7
370
    13
100
AcDbCircle
 10
4641.245355897088
 20
16857.14769401728
 30
0.0
 40
53.92932006899797
100
AcDbArc
 50
179.9999449991345
 51
269.9999179993767
  0
ARC
  5
2B9C
330
1F
100
AcDbEntity
  8
1
  6
Continuous
 62
     7
370
    13
100
AcDbCircle
 10
4317.675044093455
 20
17461.15249790823
 30
0.0
 40
53.92932006899797
100
AcDbArc
 50
179.9999180002106
 51
269.9999449999684
  0
ARC
  5
2B9D
330
1F
100
AcDbEntity
  8
1
  6
Continuous
 62
     7
370
    13
100
AcDbCircle
 10
4317.675044093455
 20
17676.86497850835
 30
0.0
 40
53.92932006899797
100
AcDbArc
 50
89.99994499996843
 51
179.9999249996536
  0
ARC
  5
2B9E
330
1F
100
AcDbEntity
  8
1
  6
Continuous
 62
     7
370
    13
100
AcDbCircle
 10
5342.325761789165
 20
17569.00709337561
 30
0.0
 40
539.2932006899797
100
AcDbArc
 50
36.86956700031906
 51
78.46301299982913
  0
ARC
  5
2B9F
330
1F
100
AcDbEntity
  8
1
  6
Continuous
 62
     7
370
    13
100
AcDbCircle
 10
4695.174298463475
 20
17569.00709337561
 30
0.0
 40
539.2932006899797
100
AcDbArc
 50
216.8701090001782
 51
258.4631169994234
  0
ARC
  5
2BA0
330
1F
100
AcDbEntity
  8
1
  6
Continuous
 62
     7
370
    13
100
AcDbCircle
 10
5342.325761789165
 20
17569.00709337561
 30
0.0
 40
539.2932006899797
100
AcDbArc
 50
281.5370479992191
 51
323.1304359988918
  0
ARC
  5
2BA1
330
1F
100
AcDbEntity
  8
1
  6
Continuous
 62
     7
370
    13
100
AcDbCircle
 10
4695.174298463475
 20
17569.00709337561
 30
0.0
 40
539.2932006899797
100
AcDbArc
 50
101.5368220006998
 51
143.129837000637
  0
LINE
  5
2BA2
330
1F
100
AcDbEntity
  8
1
  6
Continuous
 62
     7
370
    13
100
AcDbLine
 10
4587.329625921642
 20
17407.24658299984
 30
0.0
 11
4317.684913089702
 21
17407.24658299984
 31
0.0
  0
LINE
  5
2BA3
330
1F
100
AcDbEntity
  8
1
  6
Continuous
 62
     7
370
    13
100
AcDbLine
 10
4263.755970523314
 20
17676.88638829834
 30
0.0
 11
4263.755970523314
 21
17461.17390769823
 31
0.0
  0
LINE
  5
2BA4
330
1F
100
AcDbEntity
  8
1
  6
Continuous
 62
     7
370
    13
100
AcDbLine
 10
5396.25632222352
 20
18334.81193755549
 30
0.0
 11
4641.258568488235
 21
18334.81193755549
 31
0.0
  0
LINE
  5
2BA5
330
1F
100
AcDbEntity
  8
1
  6
Continuous
 62
     7
370
    13
100
AcDbLine
 10
4587.329625921642
 20
17730.81365906739
 30
0.0
 11
4317.684913089702
 21
17730.81365906739
 31
0.0
  0
LINE
  5
2BA6
330
1F
100
AcDbEntity
  8
1
  6
Continuous
 62
     7
370
    13
100
AcDbLine
 10
5773.76220985368
 20
18226.95405242266
 30
0.0
 11
5773.76220985368
 21
16911.10295390711
 31
0.0
  0
LINE
  5
2BA7
330
1F
100
AcDbEntity
  8
1
  6
Continuous
 62
     7
370
    13
100
AcDbLine
 10
4587.329625921642
 20
18280.88299498904
 30
0.0
 11
4587.329625921642
 21
17730.81365906739
 31
0.0
  0
LINE
  5
2BA8
330
1F
100
AcDbEntity
  8
1
  6
Continuous
 62
     7
370
    13
100
AcDbLine
 10
5450.186936587386
 20
18280.88299498904
 30
0.0
 11
5450.186936587386
 21
16857.17401134076
 31
0.0
  0
LINE
  5
2BA9
330
1F
100
AcDbEntity
  8
1
  6
Continuous
 62
     7
370
    13
100
AcDbLine
 10
4587.329625921642
 20
17407.24658299984
 30
0.0
 11
4587.329625921642
 21
16857.17401134076
 31
0.0
  0
LINE
  5
2BAA
330
1F
100
AcDbEntity
  8
1
  6
Continuous
 62
     7
370
    13
100
AcDbLine
 10
5665.904324720905
 20
18334.81193755549
 30
0.0
 11
4371.613855656236
 21
18334.81193755549
 31
0.0
  0
LINE
  5
2BAB
330
1F
100
AcDbEntity
  8
1
  6
Continuous
 62
     7
370
    13
100
AcDbLine
 10
5665.904324720905
 20
16803.24345090633
 30
0.0
 11
4371.613855656236
 21
16803.24345090633
 31
0.0
  0
LINE
  5
2BAC
330
1F
100
AcDbEntity
  8
1
  6
Continuous
 62
     7
370
    13
100
AcDbLine
 10
4263.755970523314
 20
18226.95405242266
 30
0.0
 11
4263.755970523314
 21
16911.10295390711
 31
0.0
  0
ARC
  5
2BAD
330
1F
100
AcDbEntity
  8
1
  6
Continuous
 62
     7
370
    13
100
AcDbCircle
 10
6063.964150231214
 20
19243.05056124954
 30
0.0
 40
194.1441932390399
100
AcDbArc
 50
269.6527180007934
 51
269.9999970001194
  0
LINE
  5
2BAE
330
1F
100
AcDbEntity
  8
1
  6
Continuous
 62
     7
370
    13
100
AcDbLine
 10
6306.58140277621
 20
18248.53237056693
 30
0.0
 11
6306.58140277621
 21
18356.39025569972
 31
0.0
  0
LINE
  5
2BAF
330
1F
100
AcDbEntity
  8
1
  6
Continuous
 62
     7
370
    13
100
AcDbLine
 10
6360.510345342745
 20
18248.53237056693
 30
0.0
 11
6360.510345342745
 21
18356.39025569972
 31
0.0
  0
LINE
  5
2BB0
330
1F
100
AcDbEntity
  8
1
  6
Continuous
 62
     7
370
    13
100
AcDbLine
 10
6360.510345342745
 20
18248.53237056693
 30
0.0
 11
6306.58140277621
 21
18248.53237056693
 31
0.0
  0
LINE
  5
2BB1
330
1F
100
AcDbEntity
  8
1
  6
Continuous
 62
     7
370
    13
100
AcDbLine
 10
7456.346458291752
 20
18248.53231663884
 30
0.0
 11
7402.41751572548
 21
18248.53237056693
 31
0.0
  0
LINE
  5
2BB2
330
1F
100
AcDbEntity
  8
1
  6
Continuous
 62
     7
370
    13
100
AcDbLine
 10
6908.428401816578
 20
18248.53237056693
 30
0.0
 11
6854.499459250336
 21
18248.53237056693
 31
0.0
  0
LINE
  5
2BB3
330
1F
100
AcDbEntity
  8
1
  6
Continuous
 62
     7
370
    13
100
AcDbLine
 10
6908.428401816578
 20
18248.53237056693
 30
0.0
 11
6908.428401816578
 21
18356.39020177163
 31
0.0
  0
LINE
  5
2BB4
330
1F
100
AcDbEntity
  8
1
  6
Continuous
 62
     7
370
    13
100
AcDbLine
 10
6854.499459250336
 20
18248.53237056693
 30
0.0
 11
6854.499459250336
 21
18356.39020177163
 31
0.0
  0
LINE
  5
2BB5
330
1F
100
AcDbEntity
  8
1
  6
Continuous
 62
     7
370
    13
100
AcDbLine
 10
7402.41751572548
 20
18248.53237056693
 30
0.0
 11
7402.41751572548
 21
18356.39020177163
 31
0.0
  0
LINE
  5
2BB6
330
1F
100
AcDbEntity
  8
1
  6
Continuous
 62
     7
370
    13
100
AcDbLine
 10
6580.540431012515
 20
18248.53237056693
 30
0.0
 11
6580.540431012515
 21
18356.39025569972
 31
0.0
  0
LINE
  5
2BB7
330
1F
100
AcDbEntity
  8
1
  6
Continuous
 62
     7
370
    13
100
AcDbLine
 10
6634.46937357902
 20
18248.53237056693
 30
0.0
 11
6634.46937357902
 21
18356.39025569972
 31
0.0
  0
LINE
  5
2BB8
330
1F
100
AcDbEntity
  8
1
  6
Continuous
 62
     7
370
    13
100
AcDbLine
 10
7456.346458291752
 20
18248.53231663884
 30
0.0
 11
7456.346458291752
 21
18356.39020177163
 31
0.0
  0
LINE
  5
2BB9
330
1F
100
AcDbEntity
  8
1
  6
Continuous
 62
     7
370
    13
100
AcDbLine
 10
6634.46937357902
 20
18248.53237056693
 30
0.0
 11
6580.540431012515
 21
18248.53237056693
 31
0.0
  0
LINE
  5
2BBA
330
1F
100
AcDbEntity
  8
1
  6
Continuous
 62
     7
370
    13
100
AcDbLine
 10
6306.581456705579
 20
19262.39649081649
 30
0.0
 11
6306.581456705579
 21
19154.53860568373
 31
0.0
  0
LINE
  5
2BBB
330
1F
100
AcDbEntity
  8
1
  6
Continuous
 62
     7
370
    13
100
AcDbLine
 10
6360.510399271967
 20
19262.39649081649
 30
0.0
 11
6360.510399271967
 21
19154.53860568373
 31
0.0
  0
LINE
  5
2BBC
330
1F
100
AcDbEntity
  8
1
  6
Continuous
 62
     7
370
    13
100
AcDbLine
 10
6360.510399271967
 20
19262.39649081649
 30
0.0
 11
6306.581456705579
 21
19262.39649081649
 31
0.0
  0
LINE
  5
2BBD
330
1F
100
AcDbEntity
  8
1
  6
Continuous
 62
     7
370
    13
100
AcDbLine
 10
7456.346458291752
 20
19262.39643688711
 30
0.0
 11
7402.41751572548
 21
19262.39643688711
 31
0.0
  0
LINE
  5
2BBE
330
1F
100
AcDbEntity
  8
1
  6
Continuous
 62
     7
370
    13
100
AcDbLine
 10
6908.428455746092
 20
19262.39643688711
 30
0.0
 11
6854.499513179501
 21
19262.39643688711
 31
0.0
  0
LINE
  5
2BBF
330
1F
100
AcDbEntity
  8
1
  6
Continuous
 62
     7
370
    13
100
AcDbLine
 10
6908.428455746092
 20
19262.39643688711
 30
0.0
 11
6908.428401816578
 21
19154.53860568373
 31
0.0
  0
LINE
  5
2BC0
330
1F
100
AcDbEntity
  8
1
  6
Continuous
 62
     7
370
    13
100
AcDbLine
 10
6854.499513179501
 20
19262.39643688711
 30
0.0
 11
6854.499459250336
 21
19154.53860568373
 31
0.0
  0
LINE
  5
2BC1
330
1F
100
AcDbEntity
  8
1
  6
Continuous
 62
     7
370
    13
100
AcDbLine
 10
7402.41751572548
 20
19262.39643688711
 30
0.0
 11
7402.41751572548
 21
19154.53855175437
 31
0.0
  0
LINE
  5
2BC2
330
1F
100
AcDbEntity
  8
1
  6
Continuous
 62
     7
370
    13
100
AcDbLine
 10
6580.540484941796
 20
19262.39643688711
 30
0.0
 11
6580.540484941796
 21
19154.53860568373
 31
0.0
  0
LINE
  5
2BC3
330
1F
100
AcDbEntity
  8
1
  6
Continuous
 62
     7
370
    13
100
AcDbLine
 10
6634.469427508418
 20
19262.39643688711
 30
0.0
 11
6634.469427508418
 21
19154.53860568373
 31
0.0
  0
LINE
  5
2BC4
330
1F
100
AcDbEntity
  8
1
  6
Continuous
 62
     7
370
    13
100
AcDbLine
 10
7456.346458291752
 20
19262.39643688711
 30
0.0
 11
7456.346458291752
 21
19154.53855175437
 31
0.0
  0
LINE
  5
2BC5
330
1F
100
AcDbEntity
  8
1
  6
Continuous
 62
     7
370
    13
100
AcDbLine
 10
6634.469427508418
 20
19262.39643688711
 30
0.0
 11
6580.540484941796
 21
19262.39643688711
 31
0.0
  0
LINE
  5
2BC6
330
1F
100
AcDbEntity
  8
1
  6
Continuous
 62
     7
370
    13
100
AcDbLine
 10
7553.418554911099
 20
18356.39020177163
 30
0.0
 11
5935.550277919102
 21
18356.39025569972
 31
0.0
  0
LINE
  5
2BC7
330
1F
100
AcDbEntity
  8
1
  6
Continuous
 62
     7
370
    13
100
AcDbLine
 10
5935.550331848471
 20
19154.53860568373
 30
0.0
 11
5935.550277919102
 21
18356.39025569972
 31
0.0
  0
LINE
  5
2BC8
330
1F
100
AcDbEntity
  8
1
  6
Continuous
 62
     7
370
    13
100
AcDbLine
 10
7553.418608840468
 20
19154.53855175437
 30
0.0
 11
5935.550331848471
 21
19154.53860568373
 31
0.0
  0
LINE
  5
2BC9
330
1F
100
AcDbEntity
  8
1
  6
Continuous
 62
     7
370
    13
100
AcDbLine
 10
7553.418608840468
 20
19154.53855175437
 30
0.0
 11
7553.418554911099
 21
18356.39020177163
 31
0.0
  0
LINE
  5
2BCA
330
1F
100
AcDbEntity
  8
1
  6
Continuous
 62
     7
370
    13
100
AcDbLine
 10
11705.94713252404
 20
18658.39228014348
 30
0.0
 11
11652.01818995764
 21
18658.39228014348
 31
0.0
  0
LINE
  5
2BCB
330
1F
100
AcDbEntity
  8
1
  6
Continuous
 62
     7
370
    13
100
AcDbLine
 10
12191.30761562174
 20
18658.39228014348
 30
0.0
 11
12137.37867305509
 21
18658.39228014348
 31
0.0
  0
LINE
  5
2BCC
330
1F
100
AcDbEntity
  8
1
  6
Continuous
 62
     7
370
    13
100
AcDbLine
 10
12115.80709602873
 20
18550.53439501069
 30
0.0
 11
12115.80709602873
 21
18604.46333757703
 31
0.0
  0
LINE
  5
2BCD
330
1F
100
AcDbEntity
  8
1
  6
Continuous
 62
     7
370
    13
100
AcDbLine
 10
12137.37867305509
 20
18604.46333757703
 30
0.0
 11
12115.80709602873
 21
18604.46333757703
 31
0.0
  0
LINE
  5
2BCE
330
1F
100
AcDbEntity
  8
1
  6
Continuous
 62
     7
370
    13
100
AcDbLine
 10
11727.51870955061
 20
18604.46333757703
 30
0.0
 11
11705.94713252404
 21
18604.46333757703
 31
0.0
  0
LINE
  5
2BCF
330
1F
100
AcDbEntity
  8
1
  6
Continuous
 62
     7
370
    13
100
AcDbLine
 10
11705.94713252404
 20
19607.54172324016
 30
0.0
 11
11652.01818995764
 21
19607.54172324016
 31
0.0
  0
LINE
  5
2BD0
330
1F
100
AcDbEntity
  8
1
  6
Continuous
 62
     7
370
    13
100
AcDbLine
 10
12191.30761562174
 20
19607.54172324016
 30
0.0
 11
12137.37867305509
 21
19607.54172324016
 31
0.0
  0
LINE
  5
2BD1
330
1F
100
AcDbEntity
  8
1
  6
Continuous
 62
     7
370
    13
100
AcDbLine
 10
11727.51870955061
 20
18550.53439501069
 30
0.0
 11
11727.51870955061
 21
18604.46333757703
 31
0.0
  0
LINE
  5
2BD2
330
1F
100
AcDbEntity
  8
1
  6
Continuous
 62
     7
370
    13
100
AcDbLine
 10
12137.37867305509
 20
18604.46333757703
 30
0.0
 11
12137.37867305509
 21
18658.39228014348
 31
0.0
  0
LINE
  5
2BD3
330
1F
100
AcDbEntity
  8
1
  6
Continuous
 62
     7
370
    13
100
AcDbLine
 10
11975.59184535604
 20
18550.53439501069
 30
0.0
 11
11975.59184535604
 21
18431.89077529397
 31
0.0
  0
LINE
  5
2BD4
330
1F
100
AcDbEntity
  8
1
  6
Continuous
 62
     7
370
    13
100
AcDbLine
 10
12115.80709602873
 20
19715.399608373
 30
0.0
 11
12115.80709602873
 21
19661.47066580661
 31
0.0
  0
LINE
  5
2BD5
330
1F
100
AcDbEntity
  8
1
  6
Continuous
 62
     7
370
    13
100
AcDbLine
 10
12137.37867305509
 20
19661.47066580661
 30
0.0
 11
12115.80709602873
 21
19661.47066580661
 31
0.0
  0
LINE
  5
2BD6
330
1F
100
AcDbEntity
  8
1
  6
Continuous
 62
     7
370
    13
100
AcDbLine
 10
11705.94713252404
 20
19661.47066580661
 30
0.0
 11
11705.94713252404
 21
19607.54172324016
 31
0.0
  0
LINE
  5
2BD7
330
1F
100
AcDbEntity
  8
1
  6
Continuous
 62
     7
370
    13
100
AcDbLine
 10
12137.37867305509
 20
19661.47066580661
 30
0.0
 11
12137.37867305509
 21
19607.54172324016
 31
0.0
  0
LINE
  5
2BD8
330
1F
100
AcDbEntity
  8
1
  6
Continuous
 62
     7
370
    13
100
AcDbLine
 10
11727.51870955061
 20
19715.399608373
 30
0.0
 11
11727.51870955061
 21
19661.47066580661
 31
0.0
  0
LINE
  5
2BD9
330
1F
100
AcDbEntity
  8
1
  6
Continuous
 62
     7
370
    13
100
AcDbLine
 10
11727.51870955061
 20
19661.47066580661
 30
0.0
 11
11705.94713252404
 21
19661.47066580661
 31
0.0
  0
LINE
  5
2BDA
330
1F
100
AcDbEntity
  8
1
  6
Continuous
 62
     7
370
    13
100
AcDbLine
 10
11705.94713252404
 20
18604.46333757703
 30
0.0
 11
11705.94713252404
 21
18658.39228014348
 31
0.0
  0
LINE
  5
2BDB
330
1F
100
AcDbEntity
  8
1
  6
Continuous
 62
     7
370
    13
100
AcDbLine
 10
11867.73396022305
 20
19834.04328202032
 30
0.0
 11
11867.73396022305
 21
19715.399608373
 31
0.0
  0
LINE
  5
2BDC
330
1F
100
AcDbEntity
  8
1
  6
Continuous
 62
     7
370
    13
100
AcDbLine
 10
11975.59184535604
 20
19834.04328202032
 30
0.0
 11
11975.59184535604
 21
19715.399608373
 31
0.0
  0
LINE
  5
2BDD
330
1F
100
AcDbEntity
  8
1
  6
Continuous
 62
     7
370
    13
100
AcDbLine
 10
11975.59184535604
 20
19834.04328202032
 30
0.0
 11
11867.73396022305
 21
19834.04328202032
 31
0.0
  0
LINE
  5
2BDE
330
1F
100
AcDbEntity
  8
1
  6
Continuous
 62
     7
370
    13
100
AcDbLine
 10
11490.23136225834
 20
19488.89804959416
 30
0.0
 11
11490.23136225834
 21
19424.18331851574
 31
0.0
  0
LINE
  5
2BDF
330
1F
100
AcDbEntity
  8
1
  6
Continuous
 62
     7
370
    13
100
AcDbLine
 10
11490.23136225834
 20
19488.89804959416
 30
0.0
 11
11652.01818995764
 21
19488.89804959416
 31
0.0
  0
LINE
  5
2BE0
330
1F
100
AcDbEntity
  8
1
  6
Continuous
 62
     7
370
    13
100
AcDbLine
 10
11576.51767036442
 20
19488.89804959416
 30
0.0
 11
11576.51767036442
 21
19424.18331851574
 31
0.0
  0
LINE
  5
2BE1
330
1F
100
AcDbEntity
  8
1
  6
Continuous
 62
     7
370
    13
100
AcDbLine
 10
11490.23136225834
 20
18777.03600771891
 30
0.0
 11
11652.01818995764
 21
18777.03600771891
 31
0.0
  0
LINE
  5
2BE2
330
1F
100
AcDbEntity
  8
1
  6
Continuous
 62
     7
370
    13
100
AcDbLine
 10
11576.51767036442
 20
18841.75073879734
 30
0.0
 11
11576.51767036442
 21
18777.03600771891
 31
0.0
  0
LINE
  5
2BE3
330
1F
100
AcDbEntity
  8
1
  6
Continuous
 62
     7
370
    13
100
AcDbLine
 10
11490.23136225834
 20
18841.75073879734
 30
0.0
 11
11652.01818995764
 21
18841.75073879734
 31
0.0
  0
LINE
  5
2BE4
330
1F
100
AcDbEntity
  8
1
  6
Continuous
 62
     7
370
    13
100
AcDbLine
 10
11490.23136225834
 20
18841.75073879734
 30
0.0
 11
11490.23136225834
 21
18777.03600771891
 31
0.0
  0
LINE
  5
2BE5
330
1F
100
AcDbEntity
  8
1
  6
Continuous
 62
     7
370
    13
100
AcDbLine
 10
11490.23136225834
 20
19424.18331851574
 30
0.0
 11
11652.01818995764
 21
19424.18331851574
 31
0.0
  0
LINE
  5
2BE6
330
1F
100
AcDbEntity
  8
1
  6
Continuous
 62
     7
370
    13
100
AcDbLine
 10
11490.23136225834
 20
19057.46650906292
 30
0.0
 11
11490.23136225834
 21
18992.75177798448
 31
0.0
  0
LINE
  5
2BE7
330
1F
100
AcDbEntity
  8
1
  6
Continuous
 62
     7
370
    13
100
AcDbLine
 10
11490.23136225834
 20
19057.46650906292
 30
0.0
 11
11652.01818995764
 21
19057.46650906292
 31
0.0
  0
LINE
  5
2BE8
330
1F
100
AcDbEntity
  8
1
  6
Continuous
 62
     7
370
    13
100
AcDbLine
 10
11576.51767036442
 20
19057.46650906292
 30
0.0
 11
11576.51767036442
 21
18992.75177798448
 31
0.0
  0
LINE
  5
2BE9
330
1F
100
AcDbEntity
  8
1
  6
Continuous
 62
     7
370
    13
100
AcDbLine
 10
11490.23136225834
 20
18992.75177798448
 30
0.0
 11
11652.01818995764
 21
18992.75177798448
 31
0.0
  0
LINE
  5
2BEA
330
1F
100
AcDbEntity
  8
1
  6
Continuous
 62
     7
370
    13
100
AcDbLine
 10
11975.59184535604
 20
18431.89077529397
 30
0.0
 11
11867.73396022305
 21
18431.89077529397
 31
0.0
  0
LINE
  5
2BEB
330
1F
100
AcDbEntity
  8
1
  6
Continuous
 62
     7
370
    13
100
AcDbLine
 10
12353.09444332076
 20
19488.89804959416
 30
0.0
 11
12353.09444332076
 21
19424.18331851574
 31
0.0
  0
LINE
  5
2BEC
330
1F
100
AcDbEntity
  8
1
  6
Continuous
 62
     7
370
    13
100
AcDbLine
 10
12353.09444332076
 20
19488.89804959416
 30
0.0
 11
12191.30761562174
 21
19488.89804959416
 31
0.0
  0
LINE
  5
2BED
330
1F
100
AcDbEntity
  8
1
  6
Continuous
 62
     7
370
    13
100
AcDbLine
 10
12266.80813521455
 20
19488.89804959416
 30
0.0
 11
12266.80813521455
 21
19424.18331851574
 31
0.0
  0
LINE
  5
2BEE
330
1F
100
AcDbEntity
  8
1
  6
Continuous
 62
     7
370
    13
100
AcDbLine
 10
11867.73396022305
 20
18550.53439501069
 30
0.0
 11
11867.73396022305
 21
18431.89077529397
 31
0.0
  0
LINE
  5
2BEF
330
1F
100
AcDbEntity
  8
1
  6
Continuous
 62
     7
370
    13
100
AcDbLine
 10
12353.09444332076
 20
18777.03600771891
 30
0.0
 11
12191.30761562174
 21
18777.03600771891
 31
0.0
  0
LINE
  5
2BF0
330
1F
100
AcDbEntity
  8
1
  6
Continuous
 62
     7
370
    13
100
AcDbLine
 10
12266.80813521455
 20
18841.75073879734
 30
0.0
 11
12266.80813521455
 21
18777.03600771891
 31
0.0
  0
LINE
  5
2BF1
330
1F
100
AcDbEntity
  8
1
  6
Continuous
 62
     7
370
    13
100
AcDbLine
 10
12353.09444332076
 20
18841.75073879734
 30
0.0
 11
12191.30761562174
 21
18841.75073879734
 31
0.0
  0
LINE
  5
2BF2
330
1F
100
AcDbEntity
  8
1
  6
Continuous
 62
     7
370
    13
100
AcDbLine
 10
12353.09444332076
 20
18841.75073879734
 30
0.0
 11
12353.09444332076
 21
18777.03600771891
 31
0.0
  0
LINE
  5
2BF3
330
1F
100
AcDbEntity
  8
1
  6
Continuous
 62
     7
370
    13
100
AcDbLine
 10
12353.09444332076
 20
19424.18331851574
 30
0.0
 11
12191.30761562174
 21
19424.18331851574
 31
0.0
  0
LINE
  5
2BF4
330
1F
100
AcDbEntity
  8
1
  6
Continuous
 62
     7
370
    13
100
AcDbLine
 10
12353.09444332076
 20
19057.46650906292
 30
0.0
 11
12353.09444332076
 21
18992.75177798448
 31
0.0
  0
LINE
  5
2BF5
330
1F
100
AcDbEntity
  8
1
  6
Continuous
 62
     7
370
    13
100
AcDbLine
 10
12353.09444332076
 20
19057.46650906292
 30
0.0
 11
12191.30761562174
 21
19057.46650906292
 31
0.0
  0
LINE
  5
2BF6
330
1F
100
AcDbEntity
  8
1
  6
Continuous
 62
     7
370
    13
100
AcDbLine
 10
12266.80813521455
 20
19057.46650906292
 30
0.0
 11
12266.80813521455
 21
18992.75177798448
 31
0.0
  0
LINE
  5
2BF7
330
1F
100
AcDbEntity
  8
1
  6
Continuous
 62
     7
370
    13
100
AcDbLine
 10
12353.09444332076
 20
18992.75177798448
 30
0.0
 11
12191.30761562174
 21
18992.75177798448
 31
0.0
  0
LINE
  5
2BF8
330
1F
100
AcDbEntity
  8
1
  6
Continuous
 62
     7
370
    13
100
AcDbLine
 10
12007.94921089569
 20
19316.32543338291
 30
0.0
 11
11835.37659468344
 21
19316.32543338291
 31
0.0
  0
LINE
  5
2BF9
330
1F
100
AcDbEntity
  8
1
  6
Continuous
 62
     7
370
    13
100
AcDbLine
 10
12007.94921089569
 20
19154.53860568373
 30
0.0
 11
11835.37659468344
 21
19154.53860568373
 31
0.0
  0
LINE
  5
2BFA
330
1F
100
AcDbEntity
  8
1
  6
Continuous
 62
     7
370
    13
100
AcDbLine
 10
11835.37659468344
 20
19316.32543338291
 30
0.0
 11
11835.37659468344
 21
19154.53860568373
 31
0.0
  0
LINE
  5
2BFB
330
1F
100
AcDbEntity
  8
1
  6
Continuous
 62
     7
370
    13
100
AcDbLine
 10
12007.94921089569
 20
19316.32543338291
 30
0.0
 11
12007.94921089569
 21
19154.53860568373
 31
0.0
  0
LINE
  5
2BFC
330
1F
100
AcDbEntity
  8
1
  6
Continuous
 62
     7
370
    13
100
AcDbLine
 10
12029.52078792242
 20
19132.96702865716
 30
0.0
 11
11813.80501765667
 21
19132.96702865716
 31
0.0
  0
LINE
  5
2BFD
330
1F
100
AcDbEntity
  8
1
  6
Continuous
 62
     7
370
    13
100
AcDbLine
 10
12029.52078792242
 20
18928.03704690485
 30
0.0
 11
11813.80501765667
 21
18928.03704690485
 31
0.0
  0
LINE
  5
2BFE
330
1F
100
AcDbEntity
  8
1
  6
Continuous
 62
     7
370
    13
100
AcDbLine
 10
12029.52078792242
 20
19337.89701040814
 30
0.0
 11
11813.80501765667
 21
19337.89701040814
 31
0.0
  0
LINE
  5
2BFF
330
1F
100
AcDbEntity
  8
1
  6
Continuous
 62
     7
370
    13
100
AcDbLine
 10
12029.52078792242
 20
19337.89701040814
 30
0.0
 11
12029.52078792242
 21
18928.03704690485
 31
0.0
  0
LINE
  5
2C00
330
1F
100
AcDbEntity
  8
1
  6
Continuous
 62
     7
370
    13
100
AcDbLine
 10
11813.80501765667
 20
19337.89701040814
 30
0.0
 11
11813.80501765667
 21
18928.03704690485
 31
0.0
  0
LINE
  5
2C01
330
1F
100
AcDbEntity
  8
1
  6
Continuous
 62
     7
370
    13
100
AcDbLine
 10
12191.30761562174
 20
18550.53439501069
 30
0.0
 11
11652.01818995764
 21
18550.53439501069
 31
0.0
  0
LINE
  5
2C02
330
1F
100
AcDbEntity
  8
1
  6
Continuous
 62
     7
370
    13
100
AcDbLine
 10
12191.30761562174
 20
19715.399608373
 30
0.0
 11
12191.30761562174
 21
18550.53439501069
 31
0.0
  0
LINE
  5
2C03
330
1F
100
AcDbEntity
  8
1
  6
Continuous
 62
     7
370
    13
100
AcDbLine
 10
11652.01818995764
 20
19715.399608373
 30
0.0
 11
11652.01818995764
 21
18550.53439501069
 31
0.0
  0
LINE
  5
2C04
330
1F
100
AcDbEntity
  8
1
  6
Continuous
 62
     7
370
    13
100
AcDbLine
 10
12191.30761562174
 20
19715.399608373
 30
0.0
 11
11652.01818995764
 21
19715.399608373
 31
0.0
  0
CIRCLE
  5
2C05
330
1F
100
AcDbEntity
  8
1
  6
Continuous
 62
     7
370
    13
100
AcDbCircle
 10
11921.66290278965
 20
17029.7382685676
 30
0.0
 40
161.7868276991998
  0
CIRCLE
  5
2C06
330
1F
100
AcDbEntity
  8
1
  6
Continuous
 62
     7
370
    13
100
AcDbCircle
 10
11921.66290278965
 20
17029.7382685676
 30
0.0
 40
194.1441932390399
  0
LINE
  5
2C07
330
1F
100
AcDbEntity
  8
1
  6
Continuous
 62
     7
370
    13
100
AcDbLine
 10
12256.02234670134
 20
16695.37882465463
 30
0.0
 11
12256.02234670134
 21
17364.09771247922
 31
0.0
  0
LINE
  5
2C08
330
1F
100
AcDbEntity
  8
1
  6
Continuous
 62
     7
370
    13
100
AcDbLine
 10
11587.30351280589
 20
16695.37882465463
 30
0.0
 11
11587.30345887672
 21
17364.09765854987
 31
0.0
  0
LINE
  5
2C09
330
1F
100
AcDbEntity
  8
1
  6
Continuous
 62
     7
370
    13
100
AcDbLine
 10
12180.52188103657
 20
16663.02145911602
 30
0.0
 11
12094.23557293007
 21
16663.02145911602
 31
0.0
  0
LINE
  5
2C0A
330
1F
100
AcDbEntity
  8
1
  6
Continuous
 62
     7
370
    13
100
AcDbLine
 10
12180.52182710715
 20
17396.45507801778
 30
0.0
 11
12094.23551900209
 21
17396.45507801778
 31
0.0
  0
LINE
  5
2C0B
330
1F
100
AcDbEntity
  8
1
  6
Continuous
 62
     7
370
    13
100
AcDbLine
 10
12256.02234670134
 20
16695.37882465463
 30
0.0
 11
11587.30351280589
 21
16695.37882465463
 31
0.0
  0
LINE
  5
2C0C
330
1F
100
AcDbEntity
  8
1
  6
Continuous
 62
     7
370
    13
100
AcDbLine
 10
12256.02234670134
 20
17364.09771247922
 30
0.0
 11
11587.30345887672
 21
17364.09765854987
 31
0.0
  0
LINE
  5
2C0D
330
1F
100
AcDbEntity
  8
1
  6
Continuous
 62
     7
370
    13
100
AcDbLine
 10
11776.0547578592
 20
16673.80724762927
 30
0.0
 11
11776.0547578592
 21
16695.37882465463
 31
0.0
  0
LINE
  5
2C0E
330
1F
100
AcDbEntity
  8
1
  6
Continuous
 62
     7
370
    13
100
AcDbLine
 10
12067.27110164694
 20
16673.80724762927
 30
0.0
 11
12067.27110164694
 21
16695.37882465463
 31
0.0
  0
LINE
  5
2C0F
330
1F
100
AcDbEntity
  8
1
  6
Continuous
 62
     7
370
    13
100
AcDbLine
 10
12094.23557293007
 20
16663.02145911602
 30
0.0
 11
12094.23557293007
 21
16695.37882465463
 31
0.0
  0
LINE
  5
2C10
330
1F
100
AcDbEntity
  8
1
  6
Continuous
 62
     7
370
    13
100
AcDbLine
 10
12180.52188103657
 20
16663.02145911602
 30
0.0
 11
12180.52188103657
 21
16695.37882465463
 31
0.0
  0
LINE
  5
2C11
330
1F
100
AcDbEntity
  8
1
  6
Continuous
 62
     7
370
    13
100
AcDbLine
 10
11662.80397847094
 20
16663.02140518667
 30
0.0
 11
11662.80397847094
 21
16695.37882465463
 31
0.0
  0
LINE
  5
2C12
330
1F
100
AcDbEntity
  8
1
  6
Continuous
 62
     7
370
    13
100
AcDbLine
 10
11749.09028657594
 20
16663.02140518667
 30
0.0
 11
11749.09028657594
 21
16695.37882465463
 31
0.0
  0
LINE
  5
2C13
330
1F
100
AcDbEntity
  8
1
  6
Continuous
 62
     7
370
    13
100
AcDbLine
 10
11749.09028657594
 20
17396.45507801778
 30
0.0
 11
11662.80397847094
 21
17396.45507801778
 31
0.0
  0
LINE
  5
2C14
330
1F
100
AcDbEntity
  8
1
  6
Continuous
 62
     7
370
    13
100
AcDbLine
 10
12067.27104771902
 20
17385.66928950454
 30
0.0
 11
11776.0547578592
 21
17385.66923557645
 31
0.0
  0
LINE
  5
2C15
330
1F
100
AcDbEntity
  8
1
  6
Continuous
 62
     7
370
    13
100
AcDbLine
 10
11749.09028657594
 20
16663.02140518667
 30
0.0
 11
11662.80397847094
 21
16663.02140518667
 31
0.0
  0
LINE
  5
2C16
330
1F
100
AcDbEntity
  8
1
  6
Continuous
 62
     7
370
    13
100
AcDbLine
 10
12067.27110164694
 20
16673.80724762927
 30
0.0
 11
11776.0547578592
 21
16673.80724762927
 31
0.0
  0
LINE
  5
2C17
330
1F
100
AcDbEntity
  8
1
  6
Continuous
 62
     7
370
    13
100
AcDbLine
 10
12180.52182710715
 20
17364.09771247922
 30
0.0
 11
12180.52182710715
 21
17396.45507801778
 31
0.0
  0
LINE
  5
2C18
330
1F
100
AcDbEntity
  8
1
  6
Continuous
 62
     7
370
    13
100
AcDbLine
 10
12094.23551900209
 20
17364.09771247922
 30
0.0
 11
12094.23551900209
 21
17396.45507801778
 31
0.0
  0
LINE
  5
2C19
330
1F
100
AcDbEntity
  8
1
  6
Continuous
 62
     7
370
    13
100
AcDbLine
 10
12067.27104771902
 20
17364.09771247922
 30
0.0
 11
12067.27104771902
 21
17385.66928950454
 31
0.0
  0
LINE
  5
2C1A
330
1F
100
AcDbEntity
  8
1
  6
Continuous
 62
     7
370
    13
100
AcDbLine
 10
11776.0547578592
 20
17364.09765854987
 30
0.0
 11
11776.0547578592
 21
17385.66923557645
 31
0.0
  0
LINE
  5
2C1B
330
1F
100
AcDbEntity
  8
1
  6
Continuous
 62
     7
370
    13
100
AcDbLine
 10
11749.09028657594
 20
17364.09765854987
 30
0.0
 11
11749.09028657594
 21
17396.45507801778
 31
0.0
  0
LINE
  5
2C1C
330
1F
100
AcDbEntity
  8
1
  6
Continuous
 62
     7
370
    13
100
AcDbLine
 10
11662.80397847094
 20
17364.09765854987
 30
0.0
 11
11662.80397847094
 21
17396.45507801778
 31
0.0
  0
LINE
  5
2C1D
330
1F
100
AcDbEntity
  8
1
  6
Continuous
 62
     7
370
    13
100
AcDbLine
 10
12665.88231020464
 20
17097.14944677558
 30
0.0
 11
12665.88231020464
 21
16962.32709035959
 31
0.0
  0
LINE
  5
2C1E
330
1F
100
AcDbEntity
  8
1
  6
Continuous
 62
     7
370
    13
100
AcDbLine
 10
12795.31177236529
 20
17097.14944677558
 30
0.0
 11
12795.31177236529
 21
16962.32709035959
 31
0.0
  0
LINE
  5
2C1F
330
1F
100
AcDbEntity
  8
1
  6
Continuous
 62
     7
370
    13
100
AcDbLine
 10
12838.45492641834
 20
17097.14944677558
 30
0.0
 11
12838.45492641834
 21
16962.32709035959
 31
0.0
  0
LINE
  5
2C20
330
1F
100
AcDbEntity
  8
1
  6
Continuous
 62
     7
370
    13
100
AcDbLine
 10
12622.7391561527
 20
17097.14944677558
 30
0.0
 11
12622.7391561527
 21
16962.32709035959
 31
0.0
  0
LINE
  5
2C21
330
1F
100
AcDbEntity
  8
1
  6
Continuous
 62
     7
370
    13
100
AcDbLine
 10
12622.7391561527
 20
17097.14944677558
 30
0.0
 11
12838.45492641834
 21
17097.14944677558
 31
0.0
  0
LINE
  5
2C22
330
1F
100
AcDbEntity
  8
1
  6
Continuous
 62
     7
370
    13
100
AcDbLine
 10
12622.7391561527
 20
16962.32709035959
 30
0.0
 11
12838.45492641834
 21
16962.32709035959
 31
0.0
  0
CIRCLE
  5
2C23
330
1F
100
AcDbEntity
  8
1
  6
Continuous
 62
     7
370
    13
100
AcDbCircle
 10
7337.702784645604
 20
17730.81452193077
 30
0.0
 40
258.2117770079232
  0
LINE
  5
2C24
330
1F
100
AcDbEntity
  8
1
  6
Continuous
 62
     7
370
    13
100
AcDbLine
 10
7165.561599972773
 20
17460.30694601683
 30
0.0
 11
7067.195208732039
 21
17558.67333725794
 31
0.0
  0
LINE
  5
2C25
330
1F
100
AcDbEntity
  8
1
  6
Continuous
 62
     7
370
    13
100
AcDbLine
 10
7608.210360558267
 20
17706.22292412016
 30
0.0
 11
7649.196356909175
 21
17706.22292412016
 31
0.0
  0
LINE
  5
2C26
330
1F
100
AcDbEntity
  8
1
  6
Continuous
 62
     7
370
    13
100
AcDbLine
 10
7608.210360558267
 20
17755.4061197401
 30
0.0
 11
7649.196356909175
 21
17755.4061197401
 31
0.0
  0
LINE
  5
2C27
330
1F
100
AcDbEntity
  8
1
  6
Continuous
 62
     7
370
    13
100
AcDbLine
 10
7067.195208732039
 20
17902.95570660225
 30
0.0
 11
7165.561599972773
 21
18001.32204391401
 31
0.0
  0
LINE
  5
2C28
330
1F
100
AcDbEntity
  8
1
  6
Continuous
 62
     7
370
    13
100
AcDbLine
 10
7501.646770046908
 20
17531.32591655445
 30
0.0
 11
7501.646770046908
 21
17930.30307337774
 31
0.0
  0
LINE
  5
2C29
330
1F
100
AcDbEntity
  8
1
  6
Continuous
 62
     7
370
    13
100
AcDbLine
 10
7026.209212381015
 20
17706.22292412016
 30
0.0
 11
7067.195208732039
 21
17706.22292412016
 31
0.0
  0
LINE
  5
2C2A
330
1F
100
AcDbEntity
  8
1
  6
Continuous
 62
     7
370
    13
100
AcDbLine
 10
7026.209212381015
 20
17755.4061197401
 30
0.0
 11
7067.195208732039
 21
17755.4061197401
 31
0.0
  0
LINE
  5
2C2B
330
1F
100
AcDbEntity
  8
1
  6
Continuous
 62
     7
370
    13
100
AcDbLine
 10
7649.196356909175
 20
17706.22292412016
 30
0.0
 11
7649.196356909175
 21
17755.4061197401
 31
0.0
  0
LINE
  5
2C2C
330
1F
100
AcDbEntity
  8
1
  6
Continuous
 62
     7
370
    13
100
AcDbLine
 10
7026.209212381015
 20
17706.22292412016
 30
0.0
 11
7026.209212381015
 21
17755.4061197401
 31
0.0
  0
LINE
  5
2C2D
330
1F
100
AcDbEntity
  8
1
  6
Continuous
 62
     7
370
    13
100
AcDbLine
 10
7165.561599972773
 20
17460.30694601683
 30
0.0
 11
7608.210360558267
 21
17460.30694601683
 31
0.0
  0
LINE
  5
2C2E
330
1F
100
AcDbEntity
  8
1
  6
Continuous
 62
     7
370
    13
100
AcDbLine
 10
7165.561599972773
 20
18001.32204391401
 30
0.0
 11
7608.210360558267
 21
18001.32204391401
 31
0.0
  0
LINE
  5
2C2F
330
1F
100
AcDbEntity
  8
1
  6
Continuous
 62
     7
370
    13
100
AcDbLine
 10
7067.195208732039
 20
17558.67333725794
 30
0.0
 11
7067.195208732039
 21
17902.95570660225
 31
0.0
  0
LINE
  5
2C30
330
1F
100
AcDbEntity
  8
1
  6
Continuous
 62
     7
370
    13
100
AcDbLine
 10
7608.210360558267
 20
17460.30694601683
 30
0.0
 11
7608.210360558267
 21
18001.32204391401
 31
0.0
  0
CIRCLE
  5
2C31
330
1F
100
AcDbEntity
  8
1
  6
Continuous
 62
     7
370
    13
100
AcDbCircle
 10
7445.560669778467
 20
17029.7382685676
 30
0.0
 40
339.75233816832
  0
LINE
  5
2C32
330
1F
100
AcDbEntity
  8
1
  6
Continuous
 62
     7
370
    13
100
AcDbLine
 10
7219.059110998293
 20
16673.80724762927
 30
0.0
 11
7089.629648840229
 21
16803.23670978743
 31
0.0
  0
LINE
  5
2C33
330
1F
100
AcDbEntity
  8
1
  6
Continuous
 62
     7
370
    13
100
AcDbLine
 10
7801.49169071662
 20
16997.38090302774
 30
0.0
 11
7855.420633282951
 21
16997.38090302774
 31
0.0
  0
LINE
  5
2C34
330
1F
100
AcDbEntity
  8
1
  6
Continuous
 62
     7
370
    13
100
AcDbLine
 10
7801.49169071662
 20
17062.09563410616
 30
0.0
 11
7855.420633282951
 21
17062.09563410616
 31
0.0
  0
LINE
  5
2C35
330
1F
100
AcDbEntity
  8
1
  6
Continuous
 62
     7
370
    13
100
AcDbLine
 10
7089.629648840229
 20
17256.23977341705
 30
0.0
 11
7219.059110998293
 21
17385.66928950454
 31
0.0
  0
LINE
  5
2C36
330
1F
100
AcDbEntity
  8
1
  6
Continuous
 62
     7
370
    13
100
AcDbLine
 10
7661.276440043933
 20
16767.25327000793
 30
0.0
 11
7661.276440043933
 21
17292.22321319781
 31
0.0
  0
LINE
  5
2C37
330
1F
100
AcDbEntity
  8
1
  6
Continuous
 62
     7
370
    13
100
AcDbLine
 10
7035.700706273783
 20
16997.38090302774
 30
0.0
 11
7089.629648840229
 21
16997.38090302774
 31
0.0
  0
LINE
  5
2C38
330
1F
100
AcDbEntity
  8
1
  6
Continuous
 62
     7
370
    13
100
AcDbLine
 10
7035.700706273783
 20
17062.09563410616
 30
0.0
 11
7089.629648840229
 21
17062.09563410616
 31
0.0
  0
LINE
  5
2C39
330
1F
100
AcDbEntity
  8
1
  6
Continuous
 62
     7
370
    13
100
AcDbLine
 10
7855.420633282951
 20
16997.38090302774
 30
0.0
 11
7855.420633282951
 21
17062.09563410616
 31
0.0
  0
LINE
  5
2C3A
330
1F
100
AcDbEntity
  8
1
  6
Continuous
 62
     7
370
    13
100
AcDbLine
 10
7035.700706273783
 20
16997.38090302774
 30
0.0
 11
7035.700706273783
 21
17062.09563410616
 31
0.0
  0
LINE
  5
2C3B
330
1F
100
AcDbEntity
  8
1
  6
Continuous
 62
     7
370
    13
100
AcDbLine
 10
7219.059110998293
 20
16673.80724762927
 30
0.0
 11
7801.49169071662
 21
16673.80724762927
 31
0.0
  0
LINE
  5
2C3C
330
1F
100
AcDbEntity
  8
1
  6
Continuous
 62
     7
370
    13
100
AcDbLine
 10
7219.059110998293
 20
17385.66928950454
 30
0.0
 11
7801.49169071662
 21
17385.66928950454
 31
0.0
  0
LINE
  5
2C3D
330
1F
100
AcDbEntity
  8
1
  6
Continuous
 62
     7
370
    13
100
AcDbLine
 10
7089.629648840229
 20
16803.23670978743
 30
0.0
 11
7089.629648840229
 21
17256.23977341705
 31
0.0
  0
LINE
  5
2C3E
330
1F
100
AcDbEntity
  8
1
  6
Continuous
 62
     7
370
    13
100
AcDbLine
 10
7801.49169071662
 20
16673.80724762927
 30
0.0
 11
7801.49169071662
 21
17385.66928950454
 31
0.0
  0
CIRCLE
  5
2C3F
330
1F
100
AcDbEntity
  8
1
  6
Continuous
 62
     7
370
    13
100
AcDbCircle
 10
4749.113541458326
 20
19510.46795482453
 30
0.0
 40
323.5736014694573
  0
CIRCLE
  5
2C40
330
1F
100
AcDbEntity
  8
1
  6
Continuous
 62
     7
370
    13
100
AcDbCircle
 10
4749.113541458326
 20
19510.46795482453
 30
0.0
 40
215.7156624077148
  0
CIRCLE
  5
2C41
330
1F
100
AcDbEntity
  8
1
  6
Continuous
 62
     7
370
    13
100
AcDbCircle
 10
4749.113541458326
 20
19510.46795482453
 30
0.0
 40
377.5025440358573
  0
LINE
  5
2C42
330
1F
100
AcDbEntity
  8
1
  6
Continuous
 62
     7
370
    13
100
AcDbLine
 10
4371.610943493608
 20
19132.96864652521
 30
0.0
 11
5126.616139423189
 21
19132.96864652521
 31
0.0
  0
LINE
  5
2C43
330
1F
100
AcDbEntity
  8
1
  6
Continuous
 62
     7
370
    13
100
AcDbLine
 10
4587.885040101332
 20
19540.48561319035
 30
0.0
 11
4606.329817038233
 21
19591.1622090883
 31
0.0
  0
LINE
  5
2C44
330
1F
100
AcDbEntity
  8
1
  6
Continuous
 62
     7
370
    13
100
AcDbLine
 10
4606.329817038233
 20
19591.1622090883
 30
0.0
 11
4910.386480263376
 21
19480.49467997744
 31
0.0
  0
LINE
  5
2C45
330
1F
100
AcDbEntity
  8
1
  6
Continuous
 62
     7
370
    13
100
AcDbLine
 10
4587.885040101332
 20
19540.48561319035
 30
0.0
 11
4891.941703327873
 21
19429.81803015012
 31
0.0
  0
LINE
  5
2C46
330
1F
100
AcDbEntity
  8
1
  6
Continuous
 62
     7
370
    13
100
AcDbLine
 10
4371.610943493608
 20
19887.97055278935
 30
0.0
 11
5126.616139423189
 21
19887.97055278935
 31
0.0
  0
LINE
  5
2C47
330
1F
100
AcDbEntity
  8
1
  6
Continuous
 62
     7
370
    13
100
AcDbLine
 10
4891.941703327873
 20
19429.81803015012
 30
0.0
 11
4910.386480263376
 21
19480.49467997744
 31
0.0
  0
LINE
  5
2C48
330
1F
100
AcDbEntity
  8
1
  6
Continuous
 62
     7
370
    13
100
AcDbLine
 10
5126.616139423189
 20
19132.96864652521
 30
0.0
 11
5126.616139423189
 21
19887.97055278935
 31
0.0
  0
LINE
  5
2C49
330
1F
100
AcDbEntity
  8
1
  6
Continuous
 62
     7
370
    13
100
AcDbLine
 10
4371.610943493608
 20
19132.96864652521
 30
0.0
 11
4371.610943493608
 21
19887.97055278935
 31
0.0
  0
TEXT
  5
2C4A
330
1F
100
AcDbEntity
  8
1
  6
Continuous
 62
     7
370
    13
100
AcDbText
 10
12405.63023951349
 20
18212.00942564637
 30
0.0
 40
161.7868276991998
  1
SW1
 50
90.00000299988045
 41
0.730776
  7
KANJI
100
AcDbText
  0
TEXT
  5
2C4B
330
1F
100
AcDbEntity
  8
1
  6
Continuous
 62
     7
370
    13
100
AcDbText
 10
9515.53560351528
 20
19615.99530070431
 30
0.0
 40
161.7868276991998
  1
SW3
 50
90.00000299988045
 41
0.676644
  7
KANJI
100
AcDbText
  0
TEXT
  5
2C4C
330
1F
100
AcDbEntity
  8
1
  6
Continuous
 62
     7
370
    13
100
AcDbText
 10
9515.53560351528
 20
18429.5585642435
 30
0.0
 40
161.7868276991998
  1
SW4
 50
90.00000299988045
 41
0.676644
  7
KANJI
100
AcDbText
  0
TEXT
  5
2C4D
330
1F
100
AcDbEntity
  8
1
  6
Continuous
 62
     7
370
    13
100
AcDbText
 10
9515.53560351528
 20
17243.12182778269
 30
0.0
 40
161.7868276991998
  1
SW5
 50
90.00000299988045
 41
0.676644
  7
KANJI
100
AcDbText
  0
TEXT
  5
2C4E
330
1F
100
AcDbEntity
  8
1
  6
Continuous
 62
     7
370
    13
100
AcDbText
 10
9515.53560351528
 20
16056.68509132188
 30
0.0
 40
161.7868276991998
  1
SW6
 50
90.00000299988045
 41
0.676644
  7
KANJI
100
AcDbText
  0
TEXT
  5
2C4F
330
1F
100
AcDbEntity
  8
1
  6
Continuous
 62
     7
370
    13
100
AcDbText
 10
10971.68489541739
 20
17715.08921978026
 30
0.0
 40
194.1441932390399
  1
１０
 41
0.6399660000000002
  7
KANJI
100
AcDbText
  0
TEXT
  5
2C50
330
1F
100
AcDbEntity
  8
1
  6
Continuous
 62
     7
370
    13
100
AcDbText
 10
10971.68489541739
 20
16561.00936349896
 30
0.0
 40
194.1441932390399
  1
１
 41
0.6666800000000001
  7
KANJI
100
AcDbText
  0
TEXT
  5
2C51
330
1F
100
AcDbEntity
  8
1
  6
Continuous
 62
     7
370
    13
100
AcDbText
 10
10971.68489541739
 20
18901.52595624101
 30
0.0
 40
194.1441932390399
  1
１００
 41
0.633288
  7
KANJI
100
AcDbText
  0
TEXT
  5
2C52
330
1F
100
AcDbEntity
  8
1
  6
Continuous
 62
     7
370
    13
100
AcDbText
 10
8437.789684704446
 20
19631.09853250048
 30
0.0
 40
237.2873472921599
  1
CN2
 50
90.00000299988045
 41
0.875
  7
KANJI
100
AcDbText
  0
TEXT
  5
2C53
330
1F
100
AcDbEntity
  8
1
  6
Continuous
 62
     7
370
    13
100
AcDbText
 10
8890.792478689691
 20
19631.09853250048
 30
0.0
 40
237.2873472921599
  1
CN3
 50
90.00000299988045
 41
0.875
  7
KANJI
100
AcDbText
  0
TEXT
  5
2C54
330
1F
100
AcDbEntity
  8
1
  6
Continuous
 62
     7
370
    13
100
AcDbText
 10
10971.68489541739
 20
20087.96269270184
 30
0.0
 40
194.1441932390399
  1
１０００
 41
0.6302520000000002
  7
KANJI
100
AcDbText
  0
TEXT
  5
2C55
330
1F
100
AcDbEntity
  8
1
  6
Continuous
 62
     7
370
    13
100
AcDbText
 10
12508.86015851187
 20
19736.97086182718
 30
0.0
 40
237.2873472921599
  1
電源
 41
0.8643909999999998
  7
KANJI
100
AcDbText
  0
TEXT
  5
2C56
330
1F
100
AcDbEntity
  8
1
  6
Continuous
 62
     7
370
    13
100
AcDbText
 10
12504.67947902498
 20
19340.49897403044
 30
0.0
 40
129.4294621593599
  1
LED1
 41
0.8064519999999999
  7
KANJI
100
AcDbText
  0
TEXT
  5
2C57
330
1F
100
AcDbEntity
  8
1
  6
Continuous
 62
     7
370
    13
100
AcDbText
 10
12504.67947902498
 20
18477.63589296808
 30
0.0
 40
129.4294621593599
  1
LED2
 41
0.7575760000000002
  7
KANJI
100
AcDbText
  0
TEXT
  5
2C58
330
1F
100
AcDbEntity
  8
1
  6
Continuous
 62
     7
370
    13
100
AcDbText
 10
12504.67947902498
 20
17614.77281190561
 30
0.0
 40
129.4294621593599
  1
LED3
 41
0.7575760000000002
  7
KANJI
100
AcDbText
  0
TEXT
  5
2C59
330
1F
100
AcDbEntity
  8
1
  6
Continuous
 62
     7
370
    13
100
AcDbText
 10
12508.86015851187
 20
18874.1077807648
 30
0.0
 40
237.2873472921599
  1
照合
 41
0.8643909999999998
  7
KANJI
100
AcDbText
  0
TEXT
  5
2C5A
330
1F
100
AcDbEntity
  8
1
  6
Continuous
 62
     7
370
    13
100
AcDbText
 10
12508.86015851187
 20
18011.24469970243
 30
0.0
 40
237.2873472921599
  1
解錠
 41
0.8643909999999998
  7
KANJI
100
AcDbText
  0
TEXT
  5
2C5B
330
1F
100
AcDbEntity
  8
1
  6
Continuous
 62
     7
370
    13
100
AcDbText
 10
11483.54622267937
 20
16912.22284232762
 30
0.0
 40
161.7868276991998
  1
SW2
 50
90.00000299988045
 41
0.676644
  7
KANJI
100
AcDbText
  0
TEXT
  5
2C5C
330
1F
100
AcDbEntity
  8
1
  6
Continuous
 62
     7
370
    13
100
AcDbText
 10
11800.48268132965
 20
19929.3239130968
 30
0.0
 40
291.2162898585598
  1
有
 41
0.900473
  7
KANJI
100
AcDbText
  0
TEXT
  5
2C5D
330
1F
100
AcDbEntity
  8
1
  6
Continuous
 62
     7
370
    13
100
AcDbText
 10
12392.55160807835
 20
17148.38161864
 30
0.0
 40
237.2873472921599
  1
アドレス
 41
0.611154
  7
KANJI
100
AcDbText
  0
TEXT
  5
2C5E
330
1F
100
AcDbEntity
  8
1
  6
Continuous
 62
     7
370
    13
100
AcDbText
 10
12504.67947902498
 20
16751.90929941096
 30
0.0
 40
129.4294621593599
  1
LED4
 41
0.7575760000000002
  7
KANJI
100
AcDbText
  0
TEXT
  5
2C5F
330
1F
100
AcDbEntity
  8
1
  6
Continuous
 62
     7
370
    13
100
AcDbText
 10
11367.87619092755
 20
16281.82289500093
 30
0.0
 40
237.2873472921599
  1
アドレスＳＷ
 41
0.608383
  7
KANJI
100
AcDbText
  0
TEXT
  5
2C60
330
1F
100
AcDbEntity
  8
1
  6
Continuous
 62
     7
370
    13
100
AcDbText
 10
11829.68461051021
 20
18053.12322005228
 30
0.0
 40
291.2162898585598
  1
無
 41
0.900473
  7
KANJI
100
AcDbText
  0
TEXT
  5
2C61
330
1F
100
AcDbEntity
  8
1
  6
Continuous
 62
     7
370
    13
100
AcDbText
 10
11119.41104563845
 20
20344.38818134514
 30
0.0
 40
291.2162898585598
  1
解錠入力
 41
0.8488240000000001
  7
KANJI
100
AcDbText
  0
TEXT
  5
2C62
330
1F
100
AcDbEntity
  8
1
  6
Continuous
 62
     7
370
    13
100
AcDbText
 10
6924.181800945342
 20
16103.67224647228
 30
0.0
 40
215.7157702656
  1
CN1
 41
1.110425999999999
  7
KANJI
100
AcDbText
  0
ARC
  5
2C63
330
1F
100
AcDbEntity
  8
1
  6
Continuous
 62
     7
370
    13
100
AcDbCircle
 10
8227.530336991273
 20
17353.31192396595
 30
0.0
 40
53.9289425664
100
AcDbArc
 50
90.0
 51
270.0
  0
ARC
  5
2C64
330
1F
100
AcDbEntity
  8
1
  6
Continuous
 62
     7
370
    13
100
AcDbCircle
 10
8928.60659035432
 20
17353.31192396595
 30
0.0
 40
53.9289425664
100
AcDbArc
 50
270.0
 51
90.0
  0
ARC
  5
2C65
330
1F
100
AcDbEntity
  8
1
  6
Continuous
 62
     7
370
    13
100
AcDbCircle
 10
8227.530336991273
 20
17569.02769423159
 30
0.0
 40
53.9289425664
100
AcDbArc
 50
90.0
 51
270.0
  0
ARC
  5
2C66
330
1F
100
AcDbEntity
  8
1
  6
Continuous
 62
     7
370
    13
100
AcDbCircle
 10
8928.60659035432
 20
17569.02769423159
 30
0.0
 40
53.9289425664
100
AcDbArc
 50
270.0
 51
90.0
  0
ARC
  5
2C67
330
1F
100
AcDbEntity
  8
1
  6
Continuous
 62
     7
370
    13
100
AcDbCircle
 10
8227.530336991273
 20
19079.03808609076
 30
0.0
 40
53.9289425664
100
AcDbArc
 50
90.0
 51
270.0
  0
ARC
  5
2C68
330
1F
100
AcDbEntity
  8
1
  6
Continuous
 62
     7
370
    13
100
AcDbCircle
 10
8928.60659035432
 20
19079.03808609076
 30
0.0
 40
53.9289425664
100
AcDbArc
 50
270.0
 51
90.0
  0
ARC
  5
2C69
330
1F
100
AcDbEntity
  8
1
  6
Continuous
 62
     7
370
    13
100
AcDbCircle
 10
8928.60659035432
 20
18863.32231582515
 30
0.0
 40
53.9289425664
100
AcDbArc
 50
270.0
 51
90.0
  0
ARC
  5
2C6A
330
1F
100
AcDbEntity
  8
1
  6
Continuous
 62
     7
370
    13
100
AcDbCircle
 10
8227.530336991273
 20
18863.32231582515
 30
0.0
 40
53.9289425664
100
AcDbArc
 50
90.0
 51
270.0
  0
ARC
  5
2C6B
330
1F
100
AcDbEntity
  8
1
  6
Continuous
 62
     7
370
    13
100
AcDbCircle
 10
8227.530336991273
 20
18647.60654555959
 30
0.0
 40
53.9289425664
100
AcDbArc
 50
90.0
 51
270.0
  0
ARC
  5
2C6C
330
1F
100
AcDbEntity
  8
1
  6
Continuous
 62
     7
370
    13
100
AcDbCircle
 10
8928.60659035432
 20
18647.60654555959
 30
0.0
 40
53.9289425664
100
AcDbArc
 50
270.0
 51
90.0
  0
ARC
  5
2C6D
330
1F
100
AcDbEntity
  8
1
  6
Continuous
 62
     7
370
    13
100
AcDbCircle
 10
8928.60659035432
 20
19294.75385635631
 30
0.0
 40
53.9289425664
100
AcDbArc
 50
270.0
 51
90.0
  0
ARC
  5
2C6E
330
1F
100
AcDbEntity
  8
1
  6
Continuous
 62
     7
370
    13
100
AcDbCircle
 10
8928.60659035432
 20
18431.89077529397
 30
0.0
 40
53.9289425664
100
AcDbArc
 50
270.0
 51
90.0
  0
ARC
  5
2C6F
330
1F
100
AcDbEntity
  8
1
  6
Continuous
 62
     7
370
    13
100
AcDbCircle
 10
8227.530336991273
 20
18431.89077529397
 30
0.0
 40
53.9289425664
100
AcDbArc
 50
90.0
 51
270.0
  0
ARC
  5
2C70
330
1F
100
AcDbEntity
  8
1
  6
Continuous
 62
     7
370
    13
100
AcDbCircle
 10
8227.530336991273
 20
18216.17500502831
 30
0.0
 40
53.9289425664
100
AcDbArc
 50
90.0
 51
270.0
  0
ARC
  5
2C71
330
1F
100
AcDbEntity
  8
1
  6
Continuous
 62
     7
370
    13
100
AcDbCircle
 10
8928.60659035432
 20
18216.17500502831
 30
0.0
 40
53.9289425664
100
AcDbArc
 50
270.0
 51
90.0
  0
ARC
  5
2C72
330
1F
100
AcDbEntity
  8
1
  6
Continuous
 62
     7
370
    13
100
AcDbCircle
 10
8928.60659035432
 20
18000.45923476279
 30
0.0
 40
53.9289425664
100
AcDbArc
 50
270.0
 51
90.0
  0
ARC
  5
2C73
330
1F
100
AcDbEntity
  8
1
  6
Continuous
 62
     7
370
    13
100
AcDbCircle
 10
8227.530336991273
 20
18000.45923476279
 30
0.0
 40
53.9289425664
100
AcDbArc
 50
90.0
 51
270.0
  0
ARC
  5
2C74
330
1F
100
AcDbEntity
  8
1
  6
Continuous
 62
     7
370
    13
100
AcDbCircle
 10
8227.530336991273
 20
19294.75385635631
 30
0.0
 40
53.9289425664
100
AcDbArc
 50
90.0
 51
270.0
  0
ARC
  5
2C75
330
1F
100
AcDbEntity
  8
1
  6
Continuous
 62
     7
370
    13
100
AcDbCircle
 10
8227.530336991273
 20
17784.74346449713
 30
0.0
 40
53.9289425664
100
AcDbArc
 50
90.0
 51
270.0
  0
ARC
  5
2C76
330
1F
100
AcDbEntity
  8
1
  6
Continuous
 62
     7
370
    13
100
AcDbCircle
 10
8928.60659035432
 20
17784.74346449713
 30
0.0
 40
53.9289425664
100
AcDbArc
 50
270.0
 51
90.0
  0
ARC
  5
2C77
330
1F
100
AcDbEntity
  8
1
  6
Continuous
 62
     7
370
    13
100
AcDbCircle
 10
6453.268450130156
 20
15810.944220495
 30
0.0
 40
77.65767729561601
100
AcDbArc
 50
0.0
 51
180.0009109998258
  0
ARC
  5
2C78
330
1F
100
AcDbEntity
  8
1
  6
Continuous
 62
     7
370
    13
100
AcDbCircle
 10
6722.913162962185
 20
15810.944220495
 30
0.0
 40
77.65767729561601
100
AcDbArc
 50
0.0
 51
180.0009109998258
  0
ARC
  5
2C79
330
1F
100
AcDbEntity
  8
1
  6
Continuous
 62
     7
370
    13
100
AcDbCircle
 10
6992.557875794242
 20
15810.944220495
 30
0.0
 40
77.65767729561601
100
AcDbArc
 50
0.0
 51
180.0009109998258
  0
ARC
  5
2C7A
330
1F
100
AcDbEntity
  8
1
  6
Continuous
 62
     7
370
    13
100
AcDbCircle
 10
7262.20258862627
 20
15810.944220495
 30
0.0
 40
77.65767729561601
100
AcDbArc
 50
0.0
 51
180.0009109998258
  0
ARC
  5
2C7B
330
1F
100
AcDbEntity
  8
1
  6
Continuous
 62
     7
370
    13
100
AcDbCircle
 10
6183.623737298155
 20
15810.944220495
 30
0.0
 40
77.65767729561601
100
AcDbArc
 50
0.0
 51
180.0009109998258
  0
ARC
  5
2C7C
330
1F
100
AcDbEntity
  8
1
  6
Continuous
 62
     7
370
    13
100
AcDbCircle
 10
5913.979024466215
 20
15810.944220495
 30
0.0
 40
77.65767729561601
100
AcDbArc
 50
0.0
 51
180.0009109998258
  0
ARC
  5
2C7D
330
1F
100
AcDbEntity
  8
1
  6
Continuous
 62
     7
370
    13
100
AcDbCircle
 10
5644.334311634272
 20
15810.944220495
 30
0.0
 40
77.65767729561601
100
AcDbArc
 50
0.0
 51
180.0009109998258
  0
ARC
  5
2C7E
330
1F
100
AcDbEntity
  8
1
  6
Continuous
 62
     7
370
    13
100
AcDbCircle
 10
5374.689598802099
 20
15810.944220495
 30
0.0
 40
77.65767729561601
100
AcDbArc
 50
0.0
 51
180.0009109998258
  0
CIRCLE
  5
2C7F
330
1F
100
AcDbEntity
  8
1
  6
Continuous
 62
     7
370
    13
100
AcDbCircle
 10
9117.35788933665
 20
16005.08835980595
 30
0.0
 40
188.7512989824
  0
CIRCLE
  5
2C80
330
1F
100
AcDbEntity
  8
1
  6
Continuous
 62
     7
370
    13
100
AcDbCircle
 10
12568.80859571823
 20
16005.08835980595
 30
0.0
 40
188.7512989824
  0
CIRCLE
  5
2C81
330
1F
100
AcDbEntity
  8
1
  6
Continuous
 62
     7
370
    13
100
AcDbCircle
 10
12568.80859571823
 20
20642.97742051631
 30
0.0
 40
188.7512989824
  0
CIRCLE
  5
2C82
330
1F
100
AcDbEntity
  8
1
  6
Continuous
 62
     7
370
    13
100
AcDbCircle
 10
9117.35788933665
 20
20642.97742051631
 30
0.0
 40
188.7512989824
  0
CIRCLE
  5
2C83
330
1F
100
AcDbEntity
  8
1
  6
Continuous
 62
     7
370
    13
100
AcDbCircle
 10
4587.326713759103
 20
16005.08835980595
 30
0.0
 40
350.5381266815998
  0
CIRCLE
  5
2C84
330
1F
100
AcDbEntity
  8
1
  6
Continuous
 62
     7
370
    13
100
AcDbCircle
 10
8038.779038008653
 20
16005.08835980595
 30
0.0
 40
350.5381266815998
  0
CIRCLE
  5
2C85
330
1F
100
AcDbEntity
  8
1
  6
Continuous
 62
     7
370
    13
100
AcDbCircle
 10
8038.779038008653
 20
20642.97742051631
 30
0.0
 40
350.5381266815998
  0
CIRCLE
  5
2C86
330
1F
100
AcDbEntity
  8
1
  6
Continuous
 62
     7
370
    13
100
AcDbCircle
 10
4587.326713759103
 20
20642.97742051631
 30
0.0
 40
350.5381266815998
  0
LINE
  5
2C87
330
1F
100
AcDbEntity
  8
1
  6
Continuous
 62
     7
370
    13
100
AcDbLine
 10
5665.905565087161
 20
20211.54587998513
 30
0.0
 11
6960.200186680886
 21
20211.54587998513
 31
0.0
  0
LINE
  5
2C88
330
1F
100
AcDbEntity
  8
1
  6
Continuous
 62
     7
370
    13
100
AcDbLine
 10
5665.905565087161
 20
20858.69319078195
 30
0.0
 11
5665.905565087161
 21
20211.54587998513
 31
0.0
  0
LINE
  5
2C89
330
1F
100
AcDbEntity
  8
1
  6
Continuous
 62
     7
370
    13
100
AcDbLine
 10
6960.200186680886
 20
20858.69319078195
 30
0.0
 11
6960.200186680886
 21
20211.54587998513
 31
0.0
  0
LINE
  5
2C8A
330
1F
100
AcDbEntity
  8
1
  6
Continuous
 62
     7
370
    13
100
AcDbLine
 10
5665.905565087161
 20
20858.69319078195
 30
0.0
 11
6960.200186680886
 21
20858.69319078195
 31
0.0
  0
LINE
  5
2C8B
330
1F
100
AcDbEntity
  8
1
  6
Continuous
 62
     7
370
    13
100
AcDbLine
 10
8739.85529137205
 20
19424.18380387612
 30
0.0
 11
8739.85529137205
 21
19348.68279892276
 31
0.0
  0
LINE
  5
2C8C
330
1F
100
AcDbEntity
  8
1
  6
Continuous
 62
     7
370
    13
100
AcDbLine
 10
8739.85529137205
 20
19240.82491378995
 30
0.0
 11
8739.85529137205
 21
19132.96702865716
 31
0.0
  0
LINE
  5
2C8D
330
1F
100
AcDbEntity
  8
1
  6
Continuous
 62
     7
370
    13
100
AcDbLine
 10
8739.85529137205
 20
19025.10914352433
 30
0.0
 11
8739.85529137205
 21
18917.25125839161
 31
0.0
  0
LINE
  5
2C8E
330
1F
100
AcDbEntity
  8
1
  6
Continuous
 62
     7
370
    13
100
AcDbLine
 10
8739.85529137205
 20
18809.39337325876
 30
0.0
 11
8739.85529137205
 21
18701.53548812594
 31
0.0
  0
LINE
  5
2C8F
330
1F
100
AcDbEntity
  8
1
  6
Continuous
 62
     7
370
    13
100
AcDbLine
 10
8739.85529137205
 20
18593.67760299313
 30
0.0
 11
8739.85529137205
 21
18485.81971786033
 31
0.0
  0
LINE
  5
2C90
330
1F
100
AcDbEntity
  8
1
  6
Continuous
 62
     7
370
    13
100
AcDbLine
 10
8739.85529137205
 20
18377.96183272758
 30
0.0
 11
8739.85529137205
 21
18270.10394759476
 31
0.0
  0
LINE
  5
2C91
330
1F
100
AcDbEntity
  8
1
  6
Continuous
 62
     7
370
    13
100
AcDbLine
 10
8739.85529137205
 20
18162.24606246194
 30
0.0
 11
8739.85529137205
 21
18054.38817732914
 31
0.0
  0
LINE
  5
2C92
330
1F
100
AcDbEntity
  8
1
  6
Continuous
 62
     7
370
    13
100
AcDbLine
 10
8739.85529137205
 20
17946.5302921963
 30
0.0
 11
8739.85529137205
 21
17838.67240706359
 31
0.0
  0
LINE
  5
2C93
330
1F
100
AcDbEntity
  8
1
  6
Continuous
 62
     7
370
    13
100
AcDbLine
 10
8739.85529137205
 20
17730.81452193077
 30
0.0
 11
8739.85529137205
 21
17622.95663679796
 31
0.0
  0
LINE
  5
2C94
330
1F
100
AcDbEntity
  8
1
  6
Continuous
 62
     7
370
    13
100
AcDbLine
 10
8739.85529137205
 20
17515.09875166511
 30
0.0
 11
8739.85529137205
 21
17407.24086653233
 31
0.0
  0
LINE
  5
2C95
330
1F
100
AcDbEntity
  8
1
  6
Continuous
 62
     7
370
    13
100
AcDbLine
 10
8739.85529137205
 20
17299.38298139957
 30
0.0
 11
8739.85529137205
 21
17223.88278538022
 31
0.0
  0
LINE
  5
2C96
330
1F
100
AcDbEntity
  8
1
  6
Continuous
 62
     7
370
    13
100
AcDbLine
 10
8416.281635973659
 20
19240.82491378995
 30
0.0
 11
8416.281635973659
 21
19132.96702865716
 31
0.0
  0
LINE
  5
2C97
330
1F
100
AcDbEntity
  8
1
  6
Continuous
 62
     7
370
    13
100
AcDbLine
 10
8416.281635973659
 20
19025.10914352433
 30
0.0
 11
8416.281635973659
 21
18917.25125839161
 31
0.0
  0
LINE
  5
2C98
330
1F
100
AcDbEntity
  8
1
  6
Continuous
 62
     7
370
    13
100
AcDbLine
 10
8416.281635973659
 20
18809.39337325876
 30
0.0
 11
8416.281635973659
 21
18701.53548812594
 31
0.0
  0
LINE
  5
2C99
330
1F
100
AcDbEntity
  8
1
  6
Continuous
 62
     7
370
    13
100
AcDbLine
 10
8416.281635973659
 20
18593.67760299313
 30
0.0
 11
8416.281635973659
 21
18485.81971786033
 31
0.0
  0
LINE
  5
2C9A
330
1F
100
AcDbEntity
  8
1
  6
Continuous
 62
     7
370
    13
100
AcDbLine
 10
8416.281635973659
 20
18377.96183272758
 30
0.0
 11
8416.281635973659
 21
18270.10394759476
 31
0.0
  0
LINE
  5
2C9B
330
1F
100
AcDbEntity
  8
1
  6
Continuous
 62
     7
370
    13
100
AcDbLine
 10
8416.281635973659
 20
18162.24606246194
 30
0.0
 11
8416.281635973659
 21
18054.38817732914
 31
0.0
  0
LINE
  5
2C9C
330
1F
100
AcDbEntity
  8
1
  6
Continuous
 62
     7
370
    13
100
AcDbLine
 10
8416.281635973659
 20
17946.5302921963
 30
0.0
 11
8416.281635973659
 21
17838.67240706359
 31
0.0
  0
LINE
  5
2C9D
330
1F
100
AcDbEntity
  8
1
  6
Continuous
 62
     7
370
    13
100
AcDbLine
 10
8416.281635973659
 20
17730.81452193077
 30
0.0
 11
8416.281635973659
 21
17622.95663679796
 31
0.0
  0
LINE
  5
2C9E
330
1F
100
AcDbEntity
  8
1
  6
Continuous
 62
     7
370
    13
100
AcDbLine
 10
8416.281635973659
 20
17515.09875166511
 30
0.0
 11
8416.281635973659
 21
17407.24086653233
 31
0.0
  0
LINE
  5
2C9F
330
1F
100
AcDbEntity
  8
1
  6
Continuous
 62
     7
370
    13
100
AcDbLine
 10
8853.105585399724
 20
17299.38298139957
 30
0.0
 11
8853.105585399724
 21
17277.81172794658
 31
0.0
  0
LINE
  5
2CA0
330
1F
100
AcDbEntity
  8
1
  6
Continuous
 62
     7
370
    13
100
AcDbLine
 10
8303.030533010547
 20
17299.38298139957
 30
0.0
 11
8303.030533010547
 21
17277.81172794658
 31
0.0
  0
LINE
  5
2CA1
330
1F
100
AcDbEntity
  8
1
  6
Continuous
 62
     7
370
    13
100
AcDbLine
 10
8928.60659035432
 20
17299.38298139957
 30
0.0
 11
8227.530336991273
 21
17299.38298139957
 31
0.0
  0
LINE
  5
2CA2
330
1F
100
AcDbEntity
  8
1
  6
Continuous
 62
     7
370
    13
100
AcDbLine
 10
8853.105585399724
 20
17428.81292891936
 30
0.0
 11
8853.105585399724
 21
17407.24086653233
 31
0.0
  0
LINE
  5
2CA3
330
1F
100
AcDbEntity
  8
1
  6
Continuous
 62
     7
370
    13
100
AcDbLine
 10
9004.106786373652
 20
17277.81172794658
 30
0.0
 11
8853.105585399724
 21
17277.81172794658
 31
0.0
  0
LINE
  5
2CA4
330
1F
100
AcDbEntity
  8
1
  6
Continuous
 62
     7
370
    13
100
AcDbLine
 10
9004.106786373652
 20
17428.81292891936
 30
0.0
 11
9004.106786373652
 21
17277.81172794658
 31
0.0
  0
LINE
  5
2CA5
330
1F
100
AcDbEntity
  8
1
  6
Continuous
 62
     7
370
    13
100
AcDbLine
 10
8227.530336991273
 20
17407.24086653233
 30
0.0
 11
8928.60659035432
 21
17407.24086653233
 31
0.0
  0
LINE
  5
2CA6
330
1F
100
AcDbEntity
  8
1
  6
Continuous
 62
     7
370
    13
100
AcDbLine
 10
8152.029332036676
 20
17428.81292891936
 30
0.0
 11
8303.030533010547
 21
17428.81292891936
 31
0.0
  0
LINE
  5
2CA7
330
1F
100
AcDbEntity
  8
1
  6
Continuous
 62
     7
370
    13
100
AcDbLine
 10
8152.029332036676
 20
17277.81172794658
 30
0.0
 11
8303.030533010547
 21
17277.81172794658
 31
0.0
  0
LINE
  5
2CA8
330
1F
100
AcDbEntity
  8
1
  6
Continuous
 62
     7
370
    13
100
AcDbLine
 10
8152.029332036676
 20
17428.81292891936
 30
0.0
 11
8152.029332036676
 21
17277.81172794658
 31
0.0
  0
LINE
  5
2CA9
330
1F
100
AcDbEntity
  8
1
  6
Continuous
 62
     7
370
    13
100
AcDbLine
 10
8303.030533010547
 20
17428.81292891936
 30
0.0
 11
8303.030533010547
 21
17407.24086653233
 31
0.0
  0
LINE
  5
2CAA
330
1F
100
AcDbEntity
  8
1
  6
Continuous
 62
     7
370
    13
100
AcDbLine
 10
9004.106786373652
 20
17428.81292891936
 30
0.0
 11
8853.105585399724
 21
17428.81292891936
 31
0.0
  0
LINE
  5
2CAB
330
1F
100
AcDbEntity
  8
1
  6
Continuous
 62
     7
370
    13
100
AcDbLine
 10
8853.105585399724
 20
17515.09875166511
 30
0.0
 11
8853.105585399724
 21
17493.52749821222
 31
0.0
  0
LINE
  5
2CAC
330
1F
100
AcDbEntity
  8
1
  6
Continuous
 62
     7
370
    13
100
AcDbLine
 10
8303.030533010547
 20
17515.09875166511
 30
0.0
 11
8303.030533010547
 21
17493.52749821222
 31
0.0
  0
LINE
  5
2CAD
330
1F
100
AcDbEntity
  8
1
  6
Continuous
 62
     7
370
    13
100
AcDbLine
 10
8928.60659035432
 20
17515.09875166511
 30
0.0
 11
8227.530336991273
 21
17515.09875166511
 31
0.0
  0
LINE
  5
2CAE
330
1F
100
AcDbEntity
  8
1
  6
Continuous
 62
     7
370
    13
100
AcDbLine
 10
8853.105585399724
 20
17644.52869918492
 30
0.0
 11
8853.105585399724
 21
17622.95663679796
 31
0.0
  0
LINE
  5
2CAF
330
1F
100
AcDbEntity
  8
1
  6
Continuous
 62
     7
370
    13
100
AcDbLine
 10
9004.106786373652
 20
17493.52749821222
 30
0.0
 11
8853.105585399724
 21
17493.52749821222
 31
0.0
  0
LINE
  5
2CB0
330
1F
100
AcDbEntity
  8
1
  6
Continuous
 62
     7
370
    13
100
AcDbLine
 10
9004.106786373652
 20
17644.52869918492
 30
0.0
 11
9004.106786373652
 21
17493.52749821222
 31
0.0
  0
LINE
  5
2CB1
330
1F
100
AcDbEntity
  8
1
  6
Continuous
 62
     7
370
    13
100
AcDbLine
 10
8227.530336991273
 20
17622.95663679796
 30
0.0
 11
8928.60659035432
 21
17622.95663679796
 31
0.0
  0
LINE
  5
2CB2
330
1F
100
AcDbEntity
  8
1
  6
Continuous
 62
     7
370
    13
100
AcDbLine
 10
8152.029332036676
 20
17644.52869918492
 30
0.0
 11
8303.030533010547
 21
17644.52869918492
 31
0.0
  0
LINE
  5
2CB3
330
1F
100
AcDbEntity
  8
1
  6
Continuous
 62
     7
370
    13
100
AcDbLine
 10
8152.029332036676
 20
17493.52749821222
 30
0.0
 11
8303.030533010547
 21
17493.52749821222
 31
0.0
  0
LINE
  5
2CB4
330
1F
100
AcDbEntity
  8
1
  6
Continuous
 62
     7
370
    13
100
AcDbLine
 10
8152.029332036676
 20
17644.52869918492
 30
0.0
 11
8152.029332036676
 21
17493.52749821222
 31
0.0
  0
LINE
  5
2CB5
330
1F
100
AcDbEntity
  8
1
  6
Continuous
 62
     7
370
    13
100
AcDbLine
 10
8303.030533010547
 20
17644.52869918492
 30
0.0
 11
8303.030533010547
 21
17622.95663679796
 31
0.0
  0
LINE
  5
2CB6
330
1F
100
AcDbEntity
  8
1
  6
Continuous
 62
     7
370
    13
100
AcDbLine
 10
9004.106786373652
 20
17644.52869918492
 30
0.0
 11
8853.105585399724
 21
17644.52869918492
 31
0.0
  0
LINE
  5
2CB7
330
1F
100
AcDbEntity
  8
1
  6
Continuous
 62
     7
370
    13
100
AcDbLine
 10
8853.105585399724
 20
17730.81452193077
 30
0.0
 11
8853.105585399724
 21
17709.24326847774
 31
0.0
  0
LINE
  5
2CB8
330
1F
100
AcDbEntity
  8
1
  6
Continuous
 62
     7
370
    13
100
AcDbLine
 10
8303.030533010547
 20
17730.81452193077
 30
0.0
 11
8303.030533010547
 21
17709.24326847774
 31
0.0
  0
LINE
  5
2CB9
330
1F
100
AcDbEntity
  8
1
  6
Continuous
 62
     7
370
    13
100
AcDbLine
 10
8928.60659035432
 20
17730.81452193077
 30
0.0
 11
8227.530336991273
 21
17730.81452193077
 31
0.0
  0
LINE
  5
2CBA
330
1F
100
AcDbEntity
  8
1
  6
Continuous
 62
     7
370
    13
100
AcDbLine
 10
8853.105585399724
 20
17860.24446945055
 30
0.0
 11
8853.105585399724
 21
17838.67240706359
 31
0.0
  0
LINE
  5
2CBB
330
1F
100
AcDbEntity
  8
1
  6
Continuous
 62
     7
370
    13
100
AcDbLine
 10
9004.106786373652
 20
17709.24326847774
 30
0.0
 11
8853.105585399724
 21
17709.24326847774
 31
0.0
  0
LINE
  5
2CBC
330
1F
100
AcDbEntity
  8
1
  6
Continuous
 62
     7
370
    13
100
AcDbLine
 10
8853.105585399724
 20
19240.82491378995
 30
0.0
 11
8853.105585399724
 21
19219.25366033703
 31
0.0
  0
LINE
  5
2CBD
330
1F
100
AcDbEntity
  8
1
  6
Continuous
 62
     7
370
    13
100
AcDbLine
 10
9004.106786373652
 20
17860.24446945055
 30
0.0
 11
9004.106786373652
 21
17709.24326847774
 31
0.0
  0
LINE
  5
2CBE
330
1F
100
AcDbEntity
  8
1
  6
Continuous
 62
     7
370
    13
100
AcDbLine
 10
8303.030533010547
 20
19240.82491378995
 30
0.0
 11
8303.030533010547
 21
19219.25366033703
 31
0.0
  0
LINE
  5
2CBF
330
1F
100
AcDbEntity
  8
1
  6
Continuous
 62
     7
370
    13
100
AcDbLine
 10
8928.60659035432
 20
19240.82491378995
 30
0.0
 11
8227.530336991273
 21
19240.82491378995
 31
0.0
  0
LINE
  5
2CC0
330
1F
100
AcDbEntity
  8
1
  6
Continuous
 62
     7
370
    13
100
AcDbLine
 10
8416.281635973659
 20
17299.38298139957
 30
0.0
 11
8416.281635973659
 21
17223.88278538022
 31
0.0
  0
LINE
  5
2CC1
330
1F
100
AcDbEntity
  8
1
  6
Continuous
 62
     7
370
    13
100
AcDbLine
 10
8227.530336991273
 20
19132.96702865716
 30
0.0
 11
8928.60659035432
 21
19132.96702865716
 31
0.0
  0
LINE
  5
2CC2
330
1F
100
AcDbEntity
  8
1
  6
Continuous
 62
     7
370
    13
100
AcDbLine
 10
8152.029332036676
 20
19154.53909104412
 30
0.0
 11
8303.030533010547
 21
19154.53909104412
 31
0.0
  0
LINE
  5
2CC3
330
1F
100
AcDbEntity
  8
1
  6
Continuous
 62
     7
370
    13
100
AcDbLine
 10
8152.029332036676
 20
19003.53789007137
 30
0.0
 11
8303.030533010547
 21
19003.53789007137
 31
0.0
  0
LINE
  5
2CC4
330
1F
100
AcDbEntity
  8
1
  6
Continuous
 62
     7
370
    13
100
AcDbLine
 10
8152.029332036676
 20
19154.53909104412
 30
0.0
 11
8152.029332036676
 21
19003.53789007137
 31
0.0
  0
LINE
  5
2CC5
330
1F
100
AcDbEntity
  8
1
  6
Continuous
 62
     7
370
    13
100
AcDbLine
 10
8303.030533010547
 20
19154.53909104412
 30
0.0
 11
8303.030533010547
 21
19132.96702865716
 31
0.0
  0
LINE
  5
2CC6
330
1F
100
AcDbEntity
  8
1
  6
Continuous
 62
     7
370
    13
100
AcDbLine
 10
9004.106786373652
 20
19154.53909104412
 30
0.0
 11
8853.105585399724
 21
19154.53909104412
 31
0.0
  0
LINE
  5
2CC7
330
1F
100
AcDbEntity
  8
1
  6
Continuous
 62
     7
370
    13
100
AcDbLine
 10
9004.106786373652
 20
19003.53789007137
 30
0.0
 11
8853.105585399724
 21
19003.53789007137
 31
0.0
  0
LINE
  5
2CC8
330
1F
100
AcDbEntity
  8
1
  6
Continuous
 62
     7
370
    13
100
AcDbLine
 10
9004.106786373652
 20
19154.53909104412
 30
0.0
 11
9004.106786373652
 21
19003.53789007137
 31
0.0
  0
LINE
  5
2CC9
330
1F
100
AcDbEntity
  8
1
  6
Continuous
 62
     7
370
    13
100
AcDbLine
 10
8853.105585399724
 20
19154.53909104412
 30
0.0
 11
8853.105585399724
 21
19132.96702865716
 31
0.0
  0
LINE
  5
2CCA
330
1F
100
AcDbEntity
  8
1
  6
Continuous
 62
     7
370
    13
100
AcDbLine
 10
8928.60659035432
 20
19025.10914352433
 30
0.0
 11
8227.530336991273
 21
19025.10914352433
 31
0.0
  0
LINE
  5
2CCB
330
1F
100
AcDbEntity
  8
1
  6
Continuous
 62
     7
370
    13
100
AcDbLine
 10
8303.030533010547
 20
19025.10914352433
 30
0.0
 11
8303.030533010547
 21
19003.53789007137
 31
0.0
  0
LINE
  5
2CCC
330
1F
100
AcDbEntity
  8
1
  6
Continuous
 62
     7
370
    13
100
AcDbLine
 10
8853.105585399724
 20
19025.10914352433
 30
0.0
 11
8853.105585399724
 21
19003.53789007137
 31
0.0
  0
LINE
  5
2CCD
330
1F
100
AcDbEntity
  8
1
  6
Continuous
 62
     7
370
    13
100
AcDbLine
 10
8853.105585399724
 20
18809.39337325876
 30
0.0
 11
8853.105585399724
 21
18787.82211980576
 31
0.0
  0
LINE
  5
2CCE
330
1F
100
AcDbEntity
  8
1
  6
Continuous
 62
     7
370
    13
100
AcDbLine
 10
8303.030533010547
 20
18809.39337325876
 30
0.0
 11
8303.030533010547
 21
18787.82211980576
 31
0.0
  0
LINE
  5
2CCF
330
1F
100
AcDbEntity
  8
1
  6
Continuous
 62
     7
370
    13
100
AcDbLine
 10
8928.60659035432
 20
18809.39337325876
 30
0.0
 11
8227.530336991273
 21
18809.39337325876
 31
0.0
  0
LINE
  5
2CD0
330
1F
100
AcDbEntity
  8
1
  6
Continuous
 62
     7
370
    13
100
AcDbLine
 10
8853.105585399724
 20
18938.82332077856
 30
0.0
 11
8853.105585399724
 21
18917.25125839161
 31
0.0
  0
LINE
  5
2CD1
330
1F
100
AcDbEntity
  8
1
  6
Continuous
 62
     7
370
    13
100
AcDbLine
 10
9004.106786373652
 20
18938.82332077856
 30
0.0
 11
9004.106786373652
 21
18787.82211980576
 31
0.0
  0
LINE
  5
2CD2
330
1F
100
AcDbEntity
  8
1
  6
Continuous
 62
     7
370
    13
100
AcDbLine
 10
9004.106786373652
 20
18787.82211980576
 30
0.0
 11
8853.105585399724
 21
18787.82211980576
 31
0.0
  0
LINE
  5
2CD3
330
1F
100
AcDbEntity
  8
1
  6
Continuous
 62
     7
370
    13
100
AcDbLine
 10
9004.106786373652
 20
18938.82332077856
 30
0.0
 11
8853.105585399724
 21
18938.82332077856
 31
0.0
  0
LINE
  5
2CD4
330
1F
100
AcDbEntity
  8
1
  6
Continuous
 62
     7
370
    13
100
AcDbLine
 10
8303.030533010547
 20
18938.82332077856
 30
0.0
 11
8303.030533010547
 21
18917.25125839161
 31
0.0
  0
LINE
  5
2CD5
330
1F
100
AcDbEntity
  8
1
  6
Continuous
 62
     7
370
    13
100
AcDbLine
 10
8152.029332036676
 20
18938.82332077856
 30
0.0
 11
8152.029332036676
 21
18787.82211980576
 31
0.0
  0
LINE
  5
2CD6
330
1F
100
AcDbEntity
  8
1
  6
Continuous
 62
     7
370
    13
100
AcDbLine
 10
8152.029332036676
 20
18787.82211980576
 30
0.0
 11
8303.030533010547
 21
18787.82211980576
 31
0.0
  0
LINE
  5
2CD7
330
1F
100
AcDbEntity
  8
1
  6
Continuous
 62
     7
370
    13
100
AcDbLine
 10
8152.029332036676
 20
18938.82332077856
 30
0.0
 11
8303.030533010547
 21
18938.82332077856
 31
0.0
  0
LINE
  5
2CD8
330
1F
100
AcDbEntity
  8
1
  6
Continuous
 62
     7
370
    13
100
AcDbLine
 10
8227.530336991273
 20
18917.25125839161
 30
0.0
 11
8928.60659035432
 21
18917.25125839161
 31
0.0
  0
LINE
  5
2CD9
330
1F
100
AcDbEntity
  8
1
  6
Continuous
 62
     7
370
    13
100
AcDbLine
 10
8227.530336991273
 20
18701.53548812594
 30
0.0
 11
8928.60659035432
 21
18701.53548812594
 31
0.0
  0
LINE
  5
2CDA
330
1F
100
AcDbEntity
  8
1
  6
Continuous
 62
     7
370
    13
100
AcDbLine
 10
8152.029332036676
 20
18723.10755051294
 30
0.0
 11
8303.030533010547
 21
18723.10755051294
 31
0.0
  0
LINE
  5
2CDB
330
1F
100
AcDbEntity
  8
1
  6
Continuous
 62
     7
370
    13
100
AcDbLine
 10
8853.105585399724
 20
19370.25486130974
 30
0.0
 11
8853.105585399724
 21
19348.68279892276
 31
0.0
  0
LINE
  5
2CDC
330
1F
100
AcDbEntity
  8
1
  6
Continuous
 62
     7
370
    13
100
AcDbLine
 10
9004.106786373652
 20
19370.25486130974
 30
0.0
 11
9004.106786373652
 21
19219.25366033703
 31
0.0
  0
LINE
  5
2CDD
330
1F
100
AcDbEntity
  8
1
  6
Continuous
 62
     7
370
    13
100
AcDbLine
 10
9004.106786373652
 20
19219.25366033703
 30
0.0
 11
8853.105585399724
 21
19219.25366033703
 31
0.0
  0
LINE
  5
2CDE
330
1F
100
AcDbEntity
  8
1
  6
Continuous
 62
     7
370
    13
100
AcDbLine
 10
9004.106786373652
 20
19370.25486130974
 30
0.0
 11
8853.105585399724
 21
19370.25486130974
 31
0.0
  0
LINE
  5
2CDF
330
1F
100
AcDbEntity
  8
1
  6
Continuous
 62
     7
370
    13
100
AcDbLine
 10
8152.029332036676
 20
18572.1063495402
 30
0.0
 11
8303.030533010547
 21
18572.1063495402
 31
0.0
  0
LINE
  5
2CE0
330
1F
100
AcDbEntity
  8
1
  6
Continuous
 62
     7
370
    13
100
AcDbLine
 10
8152.029332036676
 20
18723.10755051294
 30
0.0
 11
8152.029332036676
 21
18572.1063495402
 31
0.0
  0
LINE
  5
2CE1
330
1F
100
AcDbEntity
  8
1
  6
Continuous
 62
     7
370
    13
100
AcDbLine
 10
8303.030533010547
 20
18723.10755051294
 30
0.0
 11
8303.030533010547
 21
18701.53548812594
 31
0.0
  0
LINE
  5
2CE2
330
1F
100
AcDbEntity
  8
1
  6
Continuous
 62
     7
370
    13
100
AcDbLine
 10
9004.106786373652
 20
18723.10755051294
 30
0.0
 11
8853.105585399724
 21
18723.10755051294
 31
0.0
  0
LINE
  5
2CE3
330
1F
100
AcDbEntity
  8
1
  6
Continuous
 62
     7
370
    13
100
AcDbLine
 10
9004.106786373652
 20
18572.1063495402
 30
0.0
 11
8853.105585399724
 21
18572.1063495402
 31
0.0
  0
LINE
  5
2CE4
330
1F
100
AcDbEntity
  8
1
  6
Continuous
 62
     7
370
    13
100
AcDbLine
 10
9004.106786373652
 20
18723.10755051294
 30
0.0
 11
9004.106786373652
 21
18572.1063495402
 31
0.0
  0
LINE
  5
2CE5
330
1F
100
AcDbEntity
  8
1
  6
Continuous
 62
     7
370
    13
100
AcDbLine
 10
8853.105585399724
 20
18723.10755051294
 30
0.0
 11
8853.105585399724
 21
18701.53548812594
 31
0.0
  0
LINE
  5
2CE6
330
1F
100
AcDbEntity
  8
1
  6
Continuous
 62
     7
370
    13
100
AcDbLine
 10
8928.60659035432
 20
18593.67760299313
 30
0.0
 11
8227.530336991273
 21
18593.67760299313
 31
0.0
  0
LINE
  5
2CE7
330
1F
100
AcDbEntity
  8
1
  6
Continuous
 62
     7
370
    13
100
AcDbLine
 10
8303.030533010547
 20
18593.67760299313
 30
0.0
 11
8303.030533010547
 21
18572.1063495402
 31
0.0
  0
LINE
  5
2CE8
330
1F
100
AcDbEntity
  8
1
  6
Continuous
 62
     7
370
    13
100
AcDbLine
 10
8853.105585399724
 20
18593.67760299313
 30
0.0
 11
8853.105585399724
 21
18572.1063495402
 31
0.0
  0
LINE
  5
2CE9
330
1F
100
AcDbEntity
  8
1
  6
Continuous
 62
     7
370
    13
100
AcDbLine
 10
8853.105585399724
 20
18377.96183272758
 30
0.0
 11
8853.105585399724
 21
18356.39057927456
 31
0.0
  0
LINE
  5
2CEA
330
1F
100
AcDbEntity
  8
1
  6
Continuous
 62
     7
370
    13
100
AcDbLine
 10
8303.030533010547
 20
18377.96183272758
 30
0.0
 11
8303.030533010547
 21
18356.39057927456
 31
0.0
  0
LINE
  5
2CEB
330
1F
100
AcDbEntity
  8
1
  6
Continuous
 62
     7
370
    13
100
AcDbLine
 10
8928.60659035432
 20
18377.96183272758
 30
0.0
 11
8227.530336991273
 21
18377.96183272758
 31
0.0
  0
LINE
  5
2CEC
330
1F
100
AcDbEntity
  8
1
  6
Continuous
 62
     7
370
    13
100
AcDbLine
 10
8853.105585399724
 20
18507.39178024737
 30
0.0
 11
8853.105585399724
 21
18485.81971786033
 31
0.0
  0
LINE
  5
2CED
330
1F
100
AcDbEntity
  8
1
  6
Continuous
 62
     7
370
    13
100
AcDbLine
 10
9004.106786373652
 20
18507.39178024737
 30
0.0
 11
9004.106786373652
 21
18356.39057927456
 31
0.0
  0
LINE
  5
2CEE
330
1F
100
AcDbEntity
  8
1
  6
Continuous
 62
     7
370
    13
100
AcDbLine
 10
9004.106786373652
 20
18356.39057927456
 30
0.0
 11
8853.105585399724
 21
18356.39057927456
 31
0.0
  0
LINE
  5
2CEF
330
1F
100
AcDbEntity
  8
1
  6
Continuous
 62
     7
370
    13
100
AcDbLine
 10
9004.106786373652
 20
18507.39178024737
 30
0.0
 11
8853.105585399724
 21
18507.39178024737
 31
0.0
  0
LINE
  5
2CF0
330
1F
100
AcDbEntity
  8
1
  6
Continuous
 62
     7
370
    13
100
AcDbLine
 10
8303.030533010547
 20
18507.39178024737
 30
0.0
 11
8303.030533010547
 21
18485.81971786033
 31
0.0
  0
LINE
  5
2CF1
330
1F
100
AcDbEntity
  8
1
  6
Continuous
 62
     7
370
    13
100
AcDbLine
 10
8152.029332036676
 20
18507.39178024737
 30
0.0
 11
8152.029332036676
 21
18356.39057927456
 31
0.0
  0
LINE
  5
2CF2
330
1F
100
AcDbEntity
  8
1
  6
Continuous
 62
     7
370
    13
100
AcDbLine
 10
8152.029332036676
 20
18356.39057927456
 30
0.0
 11
8303.030533010547
 21
18356.39057927456
 31
0.0
  0
LINE
  5
2CF3
330
1F
100
AcDbEntity
  8
1
  6
Continuous
 62
     7
370
    13
100
AcDbLine
 10
8152.029332036676
 20
18507.39178024737
 30
0.0
 11
8303.030533010547
 21
18507.39178024737
 31
0.0
  0
LINE
  5
2CF4
330
1F
100
AcDbEntity
  8
1
  6
Continuous
 62
     7
370
    13
100
AcDbLine
 10
8227.530336991273
 20
18485.81971786033
 30
0.0
 11
8928.60659035432
 21
18485.81971786033
 31
0.0
  0
LINE
  5
2CF5
330
1F
100
AcDbEntity
  8
1
  6
Continuous
 62
     7
370
    13
100
AcDbLine
 10
8227.530336991273
 20
18270.10394759476
 30
0.0
 11
8928.60659035432
 21
18270.10394759476
 31
0.0
  0
LINE
  5
2CF6
330
1F
100
AcDbEntity
  8
1
  6
Continuous
 62
     7
370
    13
100
AcDbLine
 10
8152.029332036676
 20
18291.67600998172
 30
0.0
 11
8303.030533010547
 21
18291.67600998172
 31
0.0
  0
LINE
  5
2CF7
330
1F
100
AcDbEntity
  8
1
  6
Continuous
 62
     7
370
    13
100
AcDbLine
 10
8152.029332036676
 20
18140.674809009
 30
0.0
 11
8303.030533010547
 21
18140.674809009
 31
0.0
  0
LINE
  5
2CF8
330
1F
100
AcDbEntity
  8
1
  6
Continuous
 62
     7
370
    13
100
AcDbLine
 10
8152.029332036676
 20
18291.67600998172
 30
0.0
 11
8152.029332036676
 21
18140.674809009
 31
0.0
  0
LINE
  5
2CF9
330
1F
100
AcDbEntity
  8
1
  6
Continuous
 62
     7
370
    13
100
AcDbLine
 10
8303.030533010547
 20
18291.67600998172
 30
0.0
 11
8303.030533010547
 21
18270.10394759476
 31
0.0
  0
LINE
  5
2CFA
330
1F
100
AcDbEntity
  8
1
  6
Continuous
 62
     7
370
    13
100
AcDbLine
 10
9004.106786373652
 20
18291.67600998172
 30
0.0
 11
8853.105585399724
 21
18291.67600998172
 31
0.0
  0
LINE
  5
2CFB
330
1F
100
AcDbEntity
  8
1
  6
Continuous
 62
     7
370
    13
100
AcDbLine
 10
9004.106786373652
 20
18140.674809009
 30
0.0
 11
8853.105585399724
 21
18140.674809009
 31
0.0
  0
LINE
  5
2CFC
330
1F
100
AcDbEntity
  8
1
  6
Continuous
 62
     7
370
    13
100
AcDbLine
 10
9004.106786373652
 20
18291.67600998172
 30
0.0
 11
9004.106786373652
 21
18140.674809009
 31
0.0
  0
LINE
  5
2CFD
330
1F
100
AcDbEntity
  8
1
  6
Continuous
 62
     7
370
    13
100
AcDbLine
 10
8853.105585399724
 20
18291.67600998172
 30
0.0
 11
8853.105585399724
 21
18270.10394759476
 31
0.0
  0
LINE
  5
2CFE
330
1F
100
AcDbEntity
  8
1
  6
Continuous
 62
     7
370
    13
100
AcDbLine
 10
8928.60659035432
 20
18162.24606246194
 30
0.0
 11
8227.530336991273
 21
18162.24606246194
 31
0.0
  0
LINE
  5
2CFF
330
1F
100
AcDbEntity
  8
1
  6
Continuous
 62
     7
370
    13
100
AcDbLine
 10
8303.030533010547
 20
18162.24606246194
 30
0.0
 11
8303.030533010547
 21
18140.674809009
 31
0.0
  0
LINE
  5
2D00
330
1F
100
AcDbEntity
  8
1
  6
Continuous
 62
     7
370
    13
100
AcDbLine
 10
8853.105585399724
 20
18162.24606246194
 30
0.0
 11
8853.105585399724
 21
18140.674809009
 31
0.0
  0
LINE
  5
2D01
330
1F
100
AcDbEntity
  8
1
  6
Continuous
 62
     7
370
    13
100
AcDbLine
 10
8853.105585399724
 20
17946.5302921963
 30
0.0
 11
8853.105585399724
 21
17924.95903874338
 31
0.0
  0
LINE
  5
2D02
330
1F
100
AcDbEntity
  8
1
  6
Continuous
 62
     7
370
    13
100
AcDbLine
 10
8303.030533010547
 20
17946.5302921963
 30
0.0
 11
8303.030533010547
 21
17924.95903874338
 31
0.0
  0
LINE
  5
2D03
330
1F
100
AcDbEntity
  8
1
  6
Continuous
 62
     7
370
    13
100
AcDbLine
 10
8928.60659035432
 20
17946.5302921963
 30
0.0
 11
8227.530336991273
 21
17946.5302921963
 31
0.0
  0
LINE
  5
2D04
330
1F
100
AcDbEntity
  8
1
  6
Continuous
 62
     7
370
    13
100
AcDbLine
 10
8853.105585399724
 20
18075.96023971609
 30
0.0
 11
8853.105585399724
 21
18054.38817732914
 31
0.0
  0
LINE
  5
2D05
330
1F
100
AcDbEntity
  8
1
  6
Continuous
 62
     7
370
    13
100
AcDbLine
 10
9004.106786373652
 20
18075.96023971609
 30
0.0
 11
9004.106786373652
 21
17924.95903874338
 31
0.0
  0
LINE
  5
2D06
330
1F
100
AcDbEntity
  8
1
  6
Continuous
 62
     7
370
    13
100
AcDbLine
 10
9004.106786373652
 20
17924.95903874338
 30
0.0
 11
8853.105585399724
 21
17924.95903874338
 31
0.0
  0
LINE
  5
2D07
330
1F
100
AcDbEntity
  8
1
  6
Continuous
 62
     7
370
    13
100
AcDbLine
 10
8303.030533010547
 20
19370.25486130974
 30
0.0
 11
8303.030533010547
 21
19348.68279892276
 31
0.0
  0
LINE
  5
2D08
330
1F
100
AcDbEntity
  8
1
  6
Continuous
 62
     7
370
    13
100
AcDbLine
 10
8152.029332036676
 20
19370.25486130974
 30
0.0
 11
8152.029332036676
 21
19219.25366033703
 31
0.0
  0
LINE
  5
2D09
330
1F
100
AcDbEntity
  8
1
  6
Continuous
 62
     7
370
    13
100
AcDbLine
 10
8152.029332036676
 20
19219.25366033703
 30
0.0
 11
8303.030533010547
 21
19219.25366033703
 31
0.0
  0
LINE
  5
2D0A
330
1F
100
AcDbEntity
  8
1
  6
Continuous
 62
     7
370
    13
100
AcDbLine
 10
8152.029332036676
 20
19370.25486130974
 30
0.0
 11
8303.030533010547
 21
19370.25486130974
 31
0.0
  0
LINE
  5
2D0B
330
1F
100
AcDbEntity
  8
1
  6
Continuous
 62
     7
370
    13
100
AcDbLine
 10
9004.106786373652
 20
18075.96023971609
 30
0.0
 11
8853.105585399724
 21
18075.96023971609
 31
0.0
  0
LINE
  5
2D0C
330
1F
100
AcDbEntity
  8
1
  6
Continuous
 62
     7
370
    13
100
AcDbLine
 10
8303.030533010547
 20
18075.96023971609
 30
0.0
 11
8303.030533010547
 21
18054.38817732914
 31
0.0
  0
LINE
  5
2D0D
330
1F
100
AcDbEntity
  8
1
  6
Continuous
 62
     7
370
    13
100
AcDbLine
 10
8152.029332036676
 20
18075.96023971609
 30
0.0
 11
8152.029332036676
 21
17924.95903874338
 31
0.0
  0
LINE
  5
2D0E
330
1F
100
AcDbEntity
  8
1
  6
Continuous
 62
     7
370
    13
100
AcDbLine
 10
8152.029332036676
 20
17924.95903874338
 30
0.0
 11
8303.030533010547
 21
17924.95903874338
 31
0.0
  0
LINE
  5
2D0F
330
1F
100
AcDbEntity
  8
1
  6
Continuous
 62
     7
370
    13
100
AcDbLine
 10
8152.029332036676
 20
18075.96023971609
 30
0.0
 11
8303.030533010547
 21
18075.96023971609
 31
0.0
  0
LINE
  5
2D10
330
1F
100
AcDbEntity
  8
1
  6
Continuous
 62
     7
370
    13
100
AcDbLine
 10
8227.530336991273
 20
18054.38817732914
 30
0.0
 11
8928.60659035432
 21
18054.38817732914
 31
0.0
  0
LINE
  5
2D11
330
1F
100
AcDbEntity
  8
1
  6
Continuous
 62
     7
370
    13
100
AcDbLine
 10
8227.530336991273
 20
17838.67240706359
 30
0.0
 11
8928.60659035432
 21
17838.67240706359
 31
0.0
  0
LINE
  5
2D12
330
1F
100
AcDbEntity
  8
1
  6
Continuous
 62
     7
370
    13
100
AcDbLine
 10
8152.029332036676
 20
17860.24446945055
 30
0.0
 11
8303.030533010547
 21
17860.24446945055
 31
0.0
  0
LINE
  5
2D13
330
1F
100
AcDbEntity
  8
1
  6
Continuous
 62
     7
370
    13
100
AcDbLine
 10
8152.029332036676
 20
17709.24326847774
 30
0.0
 11
8303.030533010547
 21
17709.24326847774
 31
0.0
  0
LINE
  5
2D14
330
1F
100
AcDbEntity
  8
1
  6
Continuous
 62
     7
370
    13
100
AcDbLine
 10
8152.029332036676
 20
17860.24446945055
 30
0.0
 11
8152.029332036676
 21
17709.24326847774
 31
0.0
  0
LINE
  5
2D15
330
1F
100
AcDbEntity
  8
1
  6
Continuous
 62
     7
370
    13
100
AcDbLine
 10
8303.030533010547
 20
17860.24446945055
 30
0.0
 11
8303.030533010547
 21
17838.67240706359
 31
0.0
  0
LINE
  5
2D16
330
1F
100
AcDbEntity
  8
1
  6
Continuous
 62
     7
370
    13
100
AcDbLine
 10
9117.35788933665
 20
17223.88278538022
 30
0.0
 11
8739.85529137205
 21
17223.88278538022
 31
0.0
  0
LINE
  5
2D17
330
1F
100
AcDbEntity
  8
1
  6
Continuous
 62
     7
370
    13
100
AcDbLine
 10
8038.779038008653
 20
19424.18380387612
 30
0.0
 11
8038.779038008653
 21
17223.88278538022
 31
0.0
  0
LINE
  5
2D18
330
1F
100
AcDbEntity
  8
1
  6
Continuous
 62
     7
370
    13
100
AcDbLine
 10
9117.35788933665
 20
19424.18380387612
 30
0.0
 11
9117.35788933665
 21
17223.88278538022
 31
0.0
  0
LINE
  5
2D19
330
1F
100
AcDbEntity
  8
1
  6
Continuous
 62
     7
370
    13
100
AcDbLine
 10
9117.35788933665
 20
19424.18380387612
 30
0.0
 11
8739.85529137205
 21
19424.18380387612
 31
0.0
  0
LINE
  5
2D1A
330
1F
100
AcDbEntity
  8
1
  6
Continuous
 62
     7
370
    13
100
AcDbLine
 10
8416.281635973659
 20
19424.18380387612
 30
0.0
 11
8416.281635973659
 21
19348.68279892276
 31
0.0
  0
LINE
  5
2D1B
330
1F
100
AcDbEntity
  8
1
  6
Continuous
 62
     7
370
    13
100
AcDbLine
 10
8038.779038008653
 20
17223.88278538022
 30
0.0
 11
8416.281635973659
 21
17223.88278538022
 31
0.0
  0
LINE
  5
2D1C
330
1F
100
AcDbEntity
  8
1
  6
Continuous
 62
     7
370
    13
100
AcDbLine
 10
8038.779038008653
 20
19424.18380387612
 30
0.0
 11
8416.281635973659
 21
19424.18380387612
 31
0.0
  0
LINE
  5
2D1D
330
1F
100
AcDbEntity
  8
1
  6
Continuous
 62
     7
370
    13
100
AcDbLine
 10
8227.530336991273
 20
19348.68279892276
 30
0.0
 11
8928.60659035432
 21
19348.68279892276
 31
0.0
  0
LINE
  5
2D1E
330
1F
100
AcDbEntity
  8
1
  6
Continuous
 62
     7
370
    13
100
AcDbLine
 10
9004.106786373652
 20
17860.24446945055
 30
0.0
 11
8853.105585399724
 21
17860.24446945055
 31
0.0
  0
LINE
  5
2D1F
330
1F
100
AcDbEntity
  8
1
  6
Continuous
 62
     7
370
    13
100
AcDbLine
 10
7070.215714876074
 20
15713.87196208874
 30
0.0
 11
7089.629325266433
 21
15713.87196208874
 31
0.0
  0
LINE
  5
2D20
330
1F
100
AcDbEntity
  8
1
  6
Continuous
 62
     7
370
    13
100
AcDbLine
 10
6530.926289212104
 20
15713.87196208874
 30
0.0
 11
6550.339899602406
 21
15713.87196208874
 31
0.0
  0
LINE
  5
2D21
330
1F
100
AcDbEntity
  8
1
  6
Continuous
 62
     7
370
    13
100
AcDbLine
 10
6261.281576380163
 20
15713.87196208874
 30
0.0
 11
6280.695186770522
 21
15713.87196208874
 31
0.0
  0
LINE
  5
2D22
330
1F
100
AcDbEntity
  8
1
  6
Continuous
 62
     7
370
    13
100
AcDbLine
 10
6800.571002044046
 20
15713.87196208874
 30
0.0
 11
6819.984612434403
 21
15713.87196208874
 31
0.0
  0
LINE
  5
2D23
330
1F
100
AcDbEntity
  8
1
  6
Continuous
 62
     7
370
    13
100
AcDbLine
 10
5991.636863548163
 20
15713.87196208874
 30
0.0
 11
6011.050473938521
 21
15713.87196208874
 31
0.0
  0
LINE
  5
2D24
330
1F
100
AcDbEntity
  8
1
  6
Continuous
 62
     7
370
    13
100
AcDbLine
 10
7359.274038098431
 20
15999.69514197444
 30
0.0
 11
7477.918358891824
 21
15999.69514197444
 31
0.0
  0
LINE
  5
2D25
330
1F
100
AcDbEntity
  8
1
  6
Continuous
 62
     7
370
    13
100
AcDbLine
 10
7089.629325266433
 20
15999.69514197444
 30
0.0
 11
7165.130330220039
 21
15999.69514197444
 31
0.0
  0
LINE
  5
2D26
330
1F
100
AcDbEntity
  8
1
  6
Continuous
 62
     7
370
    13
100
AcDbLine
 10
6819.984612434403
 20
15999.69514197444
 30
0.0
 11
6895.48561738804
 21
15999.69514197444
 31
0.0
  0
LINE
  5
2D27
330
1F
100
AcDbEntity
  8
1
  6
Continuous
 62
     7
370
    13
100
AcDbLine
 10
6280.695186770522
 20
15999.69514197444
 30
0.0
 11
6356.195382790087
 21
15999.69514197444
 31
0.0
  0
LINE
  5
2D28
330
1F
100
AcDbEntity
  8
1
  6
Continuous
 62
     7
370
    13
100
AcDbLine
 10
6550.339899602406
 20
15999.69514197444
 30
0.0
 11
6625.307709100249
 21
15999.69514197444
 31
0.0
  0
LINE
  5
2D29
330
1F
100
AcDbEntity
  8
1
  6
Continuous
 62
     7
370
    13
100
AcDbLine
 10
6011.050473938521
 20
15999.69514197444
 30
0.0
 11
6086.550669958088
 21
15999.69514197444
 31
0.0
  0
LINE
  5
2D2A
330
1F
100
AcDbEntity
  8
1
  6
Continuous
 62
     7
370
    13
100
AcDbLine
 10
5741.405761106435
 20
15999.69514197444
 30
0.0
 11
5816.905957126
 21
15999.69514197444
 31
0.0
  0
LINE
  5
2D2B
330
1F
100
AcDbEntity
  8
1
  6
Continuous
 62
     7
370
    13
100
AcDbLine
 10
7165.130330220039
 20
16015.87398653118
 30
0.0
 11
7359.274038098431
 21
16015.87398653118
 31
0.0
  0
LINE
  5
2D2C
330
1F
100
AcDbEntity
  8
1
  6
Continuous
 62
     7
370
    13
100
AcDbLine
 10
7165.130330220039
 20
16015.87398653118
 30
0.0
 11
7165.130330220039
 21
15999.69514197444
 31
0.0
  0
LINE
  5
2D2D
330
1F
100
AcDbEntity
  8
1
  6
Continuous
 62
     7
370
    13
100
AcDbLine
 10
7359.274038098431
 20
16015.87398653118
 30
0.0
 11
7359.274038098431
 21
15999.69514197444
 31
0.0
  0
LINE
  5
2D2E
330
1F
100
AcDbEntity
  8
1
  6
Continuous
 62
     7
370
    13
100
AcDbLine
 10
6895.48561738804
 20
16015.87398653118
 30
0.0
 11
7089.629325266433
 21
16015.87398653118
 31
0.0
  0
LINE
  5
2D2F
330
1F
100
AcDbEntity
  8
1
  6
Continuous
 62
     7
370
    13
100
AcDbLine
 10
6895.48561738804
 20
16015.87398653118
 30
0.0
 11
6895.48561738804
 21
15999.69514197444
 31
0.0
  0
LINE
  5
2D30
330
1F
100
AcDbEntity
  8
1
  6
Continuous
 62
     7
370
    13
100
AcDbLine
 10
7089.629325266433
 20
16015.87398653118
 30
0.0
 11
7089.629325266433
 21
15999.69514197444
 31
0.0
  0
LINE
  5
2D31
330
1F
100
AcDbEntity
  8
1
  6
Continuous
 62
     7
370
    13
100
AcDbLine
 10
6625.840904556098
 20
16015.87398653118
 30
0.0
 11
6819.984612434403
 21
16015.87398653118
 31
0.0
  0
LINE
  5
2D32
330
1F
100
AcDbEntity
  8
1
  6
Continuous
 62
     7
370
    13
100
AcDbLine
 10
6625.840904556098
 20
16015.87398653118
 30
0.0
 11
6625.840904556098
 21
15999.69514197444
 31
0.0
  0
LINE
  5
2D33
330
1F
100
AcDbEntity
  8
1
  6
Continuous
 62
     7
370
    13
100
AcDbLine
 10
6819.984612434403
 20
16015.87398653118
 30
0.0
 11
6819.984612434403
 21
15999.69514197444
 31
0.0
  0
LINE
  5
2D34
330
1F
100
AcDbEntity
  8
1
  6
Continuous
 62
     7
370
    13
100
AcDbLine
 10
5471.761048274347
 20
16015.87398653118
 30
0.0
 11
5471.761048274347
 21
15999.69514197444
 31
0.0
  0
LINE
  5
2D35
330
1F
100
AcDbEntity
  8
1
  6
Continuous
 62
     7
370
    13
100
AcDbLine
 10
5277.616531462175
 20
16015.87398653118
 30
0.0
 11
5277.616531462175
 21
15999.69514197444
 31
0.0
  0
LINE
  5
2D36
330
1F
100
AcDbEntity
  8
1
  6
Continuous
 62
     7
370
    13
100
AcDbLine
 10
5741.405761106435
 20
16015.87398653118
 30
0.0
 11
5741.405761106435
 21
15999.69514197444
 31
0.0
  0
LINE
  5
2D37
330
1F
100
AcDbEntity
  8
1
  6
Continuous
 62
     7
370
    13
100
AcDbLine
 10
5547.261244294117
 20
16015.87398653118
 30
0.0
 11
5547.261244294117
 21
15999.69514197444
 31
0.0
  0
LINE
  5
2D38
330
1F
100
AcDbEntity
  8
1
  6
Continuous
 62
     7
370
    13
100
AcDbLine
 10
5547.261244294117
 20
16015.87398653118
 30
0.0
 11
5741.405761106435
 21
16015.87398653118
 31
0.0
  0
LINE
  5
2D39
330
1F
100
AcDbEntity
  8
1
  6
Continuous
 62
     7
370
    13
100
AcDbLine
 10
5471.761048274347
 20
15999.69514197444
 30
0.0
 11
5547.261244294117
 21
15999.69514197444
 31
0.0
  0
LINE
  5
2D3A
330
1F
100
AcDbEntity
  8
1
  6
Continuous
 62
     7
370
    13
100
AcDbLine
 10
5277.616531462175
 20
16015.87398653118
 30
0.0
 11
5471.761048274347
 21
16015.87398653118
 31
0.0
  0
LINE
  5
2D3B
330
1F
100
AcDbEntity
  8
1
  6
Continuous
 62
     7
370
    13
100
AcDbLine
 10
6356.195382790087
 20
16015.87398653118
 30
0.0
 11
6550.339899602406
 21
16015.87398653118
 31
0.0
  0
LINE
  5
2D3C
330
1F
100
AcDbEntity
  8
1
  6
Continuous
 62
     7
370
    13
100
AcDbLine
 10
6356.195382790087
 20
16015.87398653118
 30
0.0
 11
6356.195382790087
 21
15999.69514197444
 31
0.0
  0
LINE
  5
2D3D
330
1F
100
AcDbEntity
  8
1
  6
Continuous
 62
     7
370
    13
100
AcDbLine
 10
5158.973828536836
 20
15643.76460639786
 30
0.0
 11
5297.031813648704
 21
15643.76460639786
 31
0.0
  0
LINE
  5
2D3E
330
1F
100
AcDbEntity
  8
1
  6
Continuous
 62
     7
370
    13
100
AcDbLine
 10
5158.973828536836
 20
15999.69514197444
 30
0.0
 11
5158.973828536836
 21
15643.76460639786
 31
0.0
  0
LINE
  5
2D3F
330
1F
100
AcDbEntity
  8
1
  6
Continuous
 62
     7
370
    13
100
AcDbLine
 10
7477.918358891824
 20
15999.69514197444
 30
0.0
 11
7477.918358891824
 21
15643.76460639786
 31
0.0
  0
LINE
  5
2D40
330
1F
100
AcDbEntity
  8
1
  6
Continuous
 62
     7
370
    13
100
AcDbLine
 10
5277.616531462175
 20
15713.87196208874
 30
0.0
 11
5297.031813648704
 21
15713.87196208874
 31
0.0
  0
LINE
  5
2D41
330
1F
100
AcDbEntity
  8
1
  6
Continuous
 62
     7
370
    13
100
AcDbLine
 10
7339.860427708015
 20
15643.76460639786
 30
0.0
 11
7477.918358891824
 21
15643.76460639786
 31
0.0
  0
LINE
  5
2D42
330
1F
100
AcDbEntity
  8
1
  6
Continuous
 62
     7
370
    13
100
AcDbLine
 10
5660.512347257114
 20
15940.37379051304
 30
0.0
 11
5660.512347257114
 21
15908.01610139834
 31
0.0
  0
LINE
  5
2D43
330
1F
100
AcDbEntity
  8
1
  6
Continuous
 62
     7
370
    13
100
AcDbLine
 10
5454.409572790551
 20
15713.87196208874
 30
0.0
 11
5471.761048274347
 21
15713.87196208874
 31
0.0
  0
LINE
  5
2D44
330
1F
100
AcDbEntity
  8
1
  6
Continuous
 62
     7
370
    13
100
AcDbLine
 10
5471.761048274347
 20
15908.01610139834
 30
0.0
 11
5471.761048274347
 21
15713.87196208874
 31
0.0
  0
LINE
  5
2D45
330
1F
100
AcDbEntity
  8
1
  6
Continuous
 62
     7
370
    13
100
AcDbLine
 10
7070.215714876074
 20
15465.79893414194
 30
0.0
 11
7184.544803472585
 21
15465.79893414194
 31
0.0
  0
LINE
  5
2D46
330
1F
100
AcDbEntity
  8
1
  6
Continuous
 62
     7
370
    13
100
AcDbLine
 10
5277.616531462175
 20
15908.01610139834
 30
0.0
 11
5277.616531462175
 21
15713.87196208874
 31
0.0
  0
LINE
  5
2D47
330
1F
100
AcDbEntity
  8
1
  6
Continuous
 62
     7
370
    13
100
AcDbLine
 10
6469.446485752995
 20
15940.37379051304
 30
0.0
 11
6469.446485752995
 21
15908.01610139834
 31
0.0
  0
LINE
  5
2D48
330
1F
100
AcDbEntity
  8
1
  6
Continuous
 62
     7
370
    13
100
AcDbLine
 10
5277.616531462175
 20
15908.01610139834
 30
0.0
 11
5358.509945311584
 21
15908.01610139834
 31
0.0
  0
LINE
  5
2D49
330
1F
100
AcDbEntity
  8
1
  6
Continuous
 62
     7
370
    13
100
AcDbLine
 10
5158.973828536836
 20
15999.69514197444
 30
0.0
 11
5277.616531462175
 21
15999.69514197444
 31
0.0
  0
LINE
  5
2D4A
330
1F
100
AcDbEntity
  8
1
  6
Continuous
 62
     7
370
    13
100
AcDbLine
 10
5390.867634425085
 20
15940.37379051304
 30
0.0
 11
5390.867634425085
 21
15908.01610139834
 31
0.0
  0
LINE
  5
2D4B
330
1F
100
AcDbEntity
  8
1
  6
Continuous
 62
     7
370
    13
100
AcDbLine
 10
5547.261244294117
 20
15908.01610139834
 30
0.0
 11
5628.154658143525
 21
15908.01610139834
 31
0.0
  0
LINE
  5
2D4C
330
1F
100
AcDbEntity
  8
1
  6
Continuous
 62
     7
370
    13
100
AcDbLine
 10
5358.509945311584
 20
15940.37379051304
 30
0.0
 11
5358.509945311584
 21
15908.01610139834
 31
0.0
  0
LINE
  5
2D4D
330
1F
100
AcDbEntity
  8
1
  6
Continuous
 62
     7
370
    13
100
AcDbLine
 10
5358.509945311584
 20
15940.37379051304
 30
0.0
 11
5390.867634425085
 21
15940.37379051304
 31
0.0
  0
LINE
  5
2D4E
330
1F
100
AcDbEntity
  8
1
  6
Continuous
 62
     7
370
    13
100
AcDbLine
 10
5660.512347257114
 20
15908.01610139834
 30
0.0
 11
5741.405761106435
 21
15908.01610139834
 31
0.0
  0
LINE
  5
2D4F
330
1F
100
AcDbEntity
  8
1
  6
Continuous
 62
     7
370
    13
100
AcDbLine
 10
5628.154658143525
 20
15940.37379051304
 30
0.0
 11
5660.512347257114
 21
15940.37379051304
 31
0.0
  0
LINE
  5
2D50
330
1F
100
AcDbEntity
  8
1
  6
Continuous
 62
     7
370
    13
100
AcDbLine
 10
5452.347437884135
 20
15643.76460639786
 30
0.0
 11
5566.676526480705
 21
15643.76460639786
 31
0.0
  0
LINE
  5
2D51
330
1F
100
AcDbEntity
  8
1
  6
Continuous
 62
     7
370
    13
100
AcDbLine
 10
5390.867634425085
 20
15908.01610139834
 30
0.0
 11
5471.761048274347
 21
15908.01610139834
 31
0.0
  0
LINE
  5
2D52
330
1F
100
AcDbEntity
  8
1
  6
Continuous
 62
     7
370
    13
100
AcDbLine
 10
5628.154658143525
 20
15940.37379051304
 30
0.0
 11
5628.154658143525
 21
15908.01610139834
 31
0.0
  0
LINE
  5
2D53
330
1F
100
AcDbEntity
  8
1
  6
Continuous
 62
     7
370
    13
100
AcDbLine
 10
5547.261244294117
 20
15908.01610139834
 30
0.0
 11
5547.261244294117
 21
15713.87196208874
 31
0.0
  0
LINE
  5
2D54
330
1F
100
AcDbEntity
  8
1
  6
Continuous
 62
     7
370
    13
100
AcDbLine
 10
5741.405761106435
 20
15908.01610139834
 30
0.0
 11
5741.405761106435
 21
15713.87196208874
 31
0.0
  0
LINE
  5
2D55
330
1F
100
AcDbEntity
  8
1
  6
Continuous
 62
     7
370
    13
100
AcDbLine
 10
5721.992150716076
 20
15713.87196208874
 30
0.0
 11
5741.405761106435
 21
15713.87196208874
 31
0.0
  0
LINE
  5
2D56
330
1F
100
AcDbEntity
  8
1
  6
Continuous
 62
     7
370
    13
100
AcDbLine
 10
5547.261244294117
 20
15713.87196208874
 30
0.0
 11
5566.676526480705
 21
15713.87196208874
 31
0.0
  0
LINE
  5
2D57
330
1F
100
AcDbEntity
  8
1
  6
Continuous
 62
     7
370
    13
100
AcDbLine
 10
7008.735911417026
 20
15940.37379051304
 30
0.0
 11
7008.735911417026
 21
15908.01610139834
 31
0.0
  0
LINE
  5
2D58
330
1F
100
AcDbEntity
  8
1
  6
Continuous
 62
     7
370
    13
100
AcDbLine
 10
7339.860427708015
 20
15713.87196208874
 30
0.0
 11
7359.274038098431
 21
15713.87196208874
 31
0.0
  0
LINE
  5
2D59
330
1F
100
AcDbEntity
  8
1
  6
Continuous
 62
     7
370
    13
100
AcDbLine
 10
7165.130330220039
 20
15908.01610139834
 30
0.0
 11
7165.130330220039
 21
15713.87196208874
 31
0.0
  0
LINE
  5
2D5A
330
1F
100
AcDbEntity
  8
1
  6
Continuous
 62
     7
370
    13
100
AcDbLine
 10
6167.444083807495
 20
15940.37379051304
 30
0.0
 11
6199.80177292085
 21
15940.37379051304
 31
0.0
  0
LINE
  5
2D5B
330
1F
100
AcDbEntity
  8
1
  6
Continuous
 62
     7
370
    13
100
AcDbLine
 10
6530.926289212104
 20
15643.76460639786
 30
0.0
 11
6645.255377808557
 21
15643.76460639786
 31
0.0
  0
LINE
  5
2D5C
330
1F
100
AcDbEntity
  8
1
  6
Continuous
 62
     7
370
    13
100
AcDbLine
 10
5930.157060088824
 20
15940.37379051304
 30
0.0
 11
5930.157060088824
 21
15908.01610139834
 31
0.0
  0
LINE
  5
2D5D
330
1F
100
AcDbEntity
  8
1
  6
Continuous
 62
     7
370
    13
100
AcDbLine
 10
6086.550669958088
 20
15713.87196208874
 30
0.0
 11
6105.96595214447
 21
15713.87196208874
 31
0.0
  0
LINE
  5
2D5E
330
1F
100
AcDbEntity
  8
1
  6
Continuous
 62
     7
370
    13
100
AcDbLine
 10
5930.157060088824
 20
15908.01610139834
 30
0.0
 11
6011.050473938521
 21
15908.01610139834
 31
0.0
  0
LINE
  5
2D5F
330
1F
100
AcDbEntity
  8
1
  6
Continuous
 62
     7
370
    13
100
AcDbLine
 10
6086.550669958088
 20
15908.01610139834
 30
0.0
 11
6086.550669958088
 21
15713.87196208874
 31
0.0
  0
LINE
  5
2D60
330
1F
100
AcDbEntity
  8
1
  6
Continuous
 62
     7
370
    13
100
AcDbLine
 10
5897.799370975466
 20
15940.37379051304
 30
0.0
 11
5897.799370975466
 21
15908.01610139834
 31
0.0
  0
LINE
  5
2D61
330
1F
100
AcDbEntity
  8
1
  6
Continuous
 62
     7
370
    13
100
AcDbLine
 10
5816.905957126
 20
15908.01610139834
 30
0.0
 11
5897.799370975466
 21
15908.01610139834
 31
0.0
  0
LINE
  5
2D62
330
1F
100
AcDbEntity
  8
1
  6
Continuous
 62
     7
370
    13
100
AcDbLine
 10
5816.905957126
 20
15908.01610139834
 30
0.0
 11
5816.905957126
 21
15713.87196208874
 31
0.0
  0
LINE
  5
2D63
330
1F
100
AcDbEntity
  8
1
  6
Continuous
 62
     7
370
    13
100
AcDbLine
 10
5897.799370975466
 20
15940.37379051304
 30
0.0
 11
5930.157060088824
 21
15940.37379051304
 31
0.0
  0
LINE
  5
2D64
330
1F
100
AcDbEntity
  8
1
  6
Continuous
 62
     7
370
    13
100
AcDbLine
 10
6011.050473938521
 20
15908.01610139834
 30
0.0
 11
6011.050473938521
 21
15713.87196208874
 31
0.0
  0
LINE
  5
2D65
330
1F
100
AcDbEntity
  8
1
  6
Continuous
 62
     7
370
    13
100
AcDbLine
 10
6011.050473938521
 20
16015.87398653118
 30
0.0
 11
6011.050473938521
 21
15999.69514197444
 31
0.0
  0
LINE
  5
2D66
330
1F
100
AcDbEntity
  8
1
  6
Continuous
 62
     7
370
    13
100
AcDbLine
 10
5816.905957126
 20
15713.87196208874
 30
0.0
 11
5836.321239312528
 21
15713.87196208874
 31
0.0
  0
LINE
  5
2D67
330
1F
100
AcDbEntity
  8
1
  6
Continuous
 62
     7
370
    13
100
AcDbLine
 10
6280.695186770522
 20
15908.01610139834
 30
0.0
 11
6280.695186770522
 21
15713.87196208874
 31
0.0
  0
LINE
  5
2D68
330
1F
100
AcDbEntity
  8
1
  6
Continuous
 62
     7
370
    13
100
AcDbLine
 10
7070.215714876074
 20
15643.76460639786
 30
0.0
 11
7184.275698049109
 21
15643.76460639786
 31
0.0
  0
LINE
  5
2D69
330
1F
100
AcDbEntity
  8
1
  6
Continuous
 62
     7
370
    13
100
AcDbLine
 10
6086.550669958088
 20
16015.87398653118
 30
0.0
 11
6086.550669958088
 21
15999.69514197444
 31
0.0
  0
LINE
  5
2D6A
330
1F
100
AcDbEntity
  8
1
  6
Continuous
 62
     7
370
    13
100
AcDbLine
 10
6550.339899602406
 20
16015.87398653118
 30
0.0
 11
6550.339899602406
 21
15999.69514197444
 31
0.0
  0
LINE
  5
2D6B
330
1F
100
AcDbEntity
  8
1
  6
Continuous
 62
     7
370
    13
100
AcDbLine
 10
6261.281576380163
 20
15643.76460639786
 30
0.0
 11
6375.61066497647
 21
15643.76460639786
 31
0.0
  0
LINE
  5
2D6C
330
1F
100
AcDbEntity
  8
1
  6
Continuous
 62
     7
370
    13
100
AcDbLine
 10
5816.905957126
 20
16015.87398653118
 30
0.0
 11
5816.905957126
 21
15999.69514197444
 31
0.0
  0
LINE
  5
2D6D
330
1F
100
AcDbEntity
  8
1
  6
Continuous
 62
     7
370
    13
100
AcDbLine
 10
6086.550669958088
 20
16015.87398653118
 30
0.0
 11
6280.695186770522
 21
16015.87398653118
 31
0.0
  0
LINE
  5
2D6E
330
1F
100
AcDbEntity
  8
1
  6
Continuous
 62
     7
370
    13
100
AcDbLine
 10
5816.905957126
 20
16015.87398653118
 30
0.0
 11
6011.050473938521
 21
16015.87398653118
 31
0.0
  0
LINE
  5
2D6F
330
1F
100
AcDbEntity
  8
1
  6
Continuous
 62
     7
370
    13
100
AcDbLine
 10
6280.695186770522
 20
16015.87398653118
 30
0.0
 11
6280.695186770522
 21
15999.69514197444
 31
0.0
  0
LINE
  5
2D70
330
1F
100
AcDbEntity
  8
1
  6
Continuous
 62
     7
370
    13
100
AcDbLine
 10
7246.023744069505
 20
15940.37379051304
 30
0.0
 11
7278.380624248879
 21
15940.37379051304
 31
0.0
  0
LINE
  5
2D71
330
1F
100
AcDbEntity
  8
1
  6
Continuous
 62
     7
370
    13
100
AcDbLine
 10
7246.023744069505
 20
15940.37379051304
 30
0.0
 11
7246.023744069505
 21
15908.01610139834
 31
0.0
  0
LINE
  5
2D72
330
1F
100
AcDbEntity
  8
1
  6
Continuous
 62
     7
370
    13
100
AcDbLine
 10
7165.130330220039
 20
15908.01610139834
 30
0.0
 11
7246.023744069505
 21
15908.01610139834
 31
0.0
  0
LINE
  5
2D73
330
1F
100
AcDbEntity
  8
1
  6
Continuous
 62
     7
370
    13
100
AcDbLine
 10
7278.380624248879
 20
15940.37379051304
 30
0.0
 11
7278.380624248879
 21
15908.01610139834
 31
0.0
  0
LINE
  5
2D74
330
1F
100
AcDbEntity
  8
1
  6
Continuous
 62
     7
370
    13
100
AcDbLine
 10
7278.380624248879
 20
15908.01610139834
 30
0.0
 11
7359.274038098431
 21
15908.01610139834
 31
0.0
  0
LINE
  5
2D75
330
1F
100
AcDbEntity
  8
1
  6
Continuous
 62
     7
370
    13
100
AcDbLine
 10
6895.48561738804
 20
15908.01610139834
 30
0.0
 11
6895.48561738804
 21
15713.87196208874
 31
0.0
  0
LINE
  5
2D76
330
1F
100
AcDbEntity
  8
1
  6
Continuous
 62
     7
370
    13
100
AcDbLine
 10
6976.379031237565
 20
15940.37379051304
 30
0.0
 11
7008.735911417026
 21
15940.37379051304
 31
0.0
  0
LINE
  5
2D77
330
1F
100
AcDbEntity
  8
1
  6
Continuous
 62
     7
370
    13
100
AcDbLine
 10
7165.130330220039
 20
15713.87196208874
 30
0.0
 11
7184.544803472585
 21
15713.87196208874
 31
0.0
  0
LINE
  5
2D78
330
1F
100
AcDbEntity
  8
1
  6
Continuous
 62
     7
370
    13
100
AcDbLine
 10
6976.379031237565
 20
15940.37379051304
 30
0.0
 11
6976.379031237565
 21
15908.01610139834
 31
0.0
  0
LINE
  5
2D79
330
1F
100
AcDbEntity
  8
1
  6
Continuous
 62
     7
370
    13
100
AcDbLine
 10
7359.274038098431
 20
15908.01610139834
 30
0.0
 11
7359.274038098431
 21
15713.87196208874
 31
0.0
  0
LINE
  5
2D7A
330
1F
100
AcDbEntity
  8
1
  6
Continuous
 62
     7
370
    13
100
AcDbLine
 10
5721.992150716076
 20
15643.76460639786
 30
0.0
 11
5836.321239312528
 21
15643.76460639786
 31
0.0
  0
LINE
  5
2D7B
330
1F
100
AcDbEntity
  8
1
  6
Continuous
 62
     7
370
    13
100
AcDbLine
 10
6625.840904556098
 20
15908.01610139834
 30
0.0
 11
6625.840904556098
 21
15713.87196208874
 31
0.0
  0
LINE
  5
2D7C
330
1F
100
AcDbEntity
  8
1
  6
Continuous
 62
     7
370
    13
100
AcDbLine
 10
6895.48561738804
 20
15908.01610139834
 30
0.0
 11
6976.379031237565
 21
15908.01610139834
 31
0.0
  0
LINE
  5
2D7D
330
1F
100
AcDbEntity
  8
1
  6
Continuous
 62
     7
370
    13
100
AcDbLine
 10
7008.735911417026
 20
15908.01610139834
 30
0.0
 11
7089.629325266433
 21
15908.01610139834
 31
0.0
  0
LINE
  5
2D7E
330
1F
100
AcDbEntity
  8
1
  6
Continuous
 62
     7
370
    13
100
AcDbLine
 10
6706.734318405622
 20
15940.37379051304
 30
0.0
 11
6739.091198585082
 21
15940.37379051304
 31
0.0
  0
LINE
  5
2D7F
330
1F
100
AcDbEntity
  8
1
  6
Continuous
 62
     7
370
    13
100
AcDbLine
 10
7089.629325266433
 20
15908.01610139834
 30
0.0
 11
7089.629325266433
 21
15713.87196208874
 31
0.0
  0
LINE
  5
2D80
330
1F
100
AcDbEntity
  8
1
  6
Continuous
 62
     7
370
    13
100
AcDbLine
 10
6739.091198585082
 20
15940.37379051304
 30
0.0
 11
6739.091198585082
 21
15908.01610139834
 31
0.0
  0
LINE
  5
2D81
330
1F
100
AcDbEntity
  8
1
  6
Continuous
 62
     7
370
    13
100
AcDbLine
 10
6895.48561738804
 20
15713.87196208874
 30
0.0
 11
6914.900090640644
 21
15713.87196208874
 31
0.0
  0
LINE
  5
2D82
330
1F
100
AcDbEntity
  8
1
  6
Continuous
 62
     7
370
    13
100
AcDbLine
 10
6706.734318405622
 20
15940.37379051304
 30
0.0
 11
6706.734318405622
 21
15908.01610139834
 31
0.0
  0
LINE
  5
2D83
330
1F
100
AcDbEntity
  8
1
  6
Continuous
 62
     7
370
    13
100
AcDbLine
 10
5991.636863548163
 20
15643.76460639786
 30
0.0
 11
6105.96595214447
 21
15643.76460639786
 31
0.0
  0
LINE
  5
2D84
330
1F
100
AcDbEntity
  8
1
  6
Continuous
 62
     7
370
    13
100
AcDbLine
 10
6819.984612434403
 20
15908.01610139834
 30
0.0
 11
6819.984612434403
 21
15713.72549108034
 31
0.0
  0
LINE
  5
2D85
330
1F
100
AcDbEntity
  8
1
  6
Continuous
 62
     7
370
    13
100
AcDbLine
 10
6625.840904556098
 20
15908.01610139834
 30
0.0
 11
6706.734318405622
 21
15908.01610139834
 31
0.0
  0
LINE
  5
2D86
330
1F
100
AcDbEntity
  8
1
  6
Continuous
 62
     7
370
    13
100
AcDbLine
 10
6625.840904556098
 20
15713.87196208874
 30
0.0
 11
6645.255377808557
 21
15713.87196208874
 31
0.0
  0
LINE
  5
2D87
330
1F
100
AcDbEntity
  8
1
  6
Continuous
 62
     7
370
    13
100
AcDbLine
 10
6437.089605573681
 20
15940.37379051304
 30
0.0
 11
6469.446485752995
 21
15940.37379051304
 31
0.0
  0
LINE
  5
2D88
330
1F
100
AcDbEntity
  8
1
  6
Continuous
 62
     7
370
    13
100
AcDbLine
 10
6739.091198585082
 20
15908.01610139834
 30
0.0
 11
6819.984612434403
 21
15908.01610139834
 31
0.0
  0
LINE
  5
2D89
330
1F
100
AcDbEntity
  8
1
  6
Continuous
 62
     7
370
    13
100
AcDbLine
 10
6356.195382790087
 20
15908.01610139834
 30
0.0
 11
6356.195382790087
 21
15713.87196208874
 31
0.0
  0
LINE
  5
2D8A
330
1F
100
AcDbEntity
  8
1
  6
Continuous
 62
     7
370
    13
100
AcDbLine
 10
6550.339899602406
 20
15908.01610139834
 30
0.0
 11
6550.339899602406
 21
15713.87196208874
 31
0.0
  0
LINE
  5
2D8B
330
1F
100
AcDbEntity
  8
1
  6
Continuous
 62
     7
370
    13
100
AcDbLine
 10
6800.571002044046
 20
15643.76460639786
 30
0.0
 11
6914.900090640644
 21
15643.76460639786
 31
0.0
  0
LINE
  5
2D8C
330
1F
100
AcDbEntity
  8
1
  6
Continuous
 62
     7
370
    13
100
AcDbLine
 10
6356.195382790087
 20
15713.87196208874
 30
0.0
 11
6375.61066497647
 21
15713.87196208874
 31
0.0
  0
LINE
  5
2D8D
330
1F
100
AcDbEntity
  8
1
  6
Continuous
 62
     7
370
    13
100
AcDbLine
 10
6437.089605573681
 20
15940.37379051304
 30
0.0
 11
6437.089605573681
 21
15908.01610139834
 31
0.0
  0
LINE
  5
2D8E
330
1F
100
AcDbEntity
  8
1
  6
Continuous
 62
     7
370
    13
100
AcDbLine
 10
6356.195382790087
 20
15908.01610139834
 30
0.0
 11
6437.089605573681
 21
15908.01610139834
 31
0.0
  0
LINE
  5
2D8F
330
1F
100
AcDbEntity
  8
1
  6
Continuous
 62
     7
370
    13
100
AcDbLine
 10
6199.80177292085
 20
15940.37379051304
 30
0.0
 11
6199.80177292085
 21
15908.01610139834
 31
0.0
  0
LINE
  5
2D90
330
1F
100
AcDbEntity
  8
1
  6
Continuous
 62
     7
370
    13
100
AcDbLine
 10
6086.550669958088
 20
15908.01610139834
 30
0.0
 11
6167.444083807495
 21
15908.01610139834
 31
0.0
  0
LINE
  5
2D91
330
1F
100
AcDbEntity
  8
1
  6
Continuous
 62
     7
370
    13
100
AcDbLine
 10
6469.446485752995
 20
15908.01610139834
 30
0.0
 11
6550.339899602406
 21
15908.01610139834
 31
0.0
  0
LINE
  5
2D92
330
1F
100
AcDbEntity
  8
1
  6
Continuous
 62
     7
370
    13
100
AcDbLine
 10
6199.80177292085
 20
15908.01610139834
 30
0.0
 11
6280.695186770522
 21
15908.01610139834
 31
0.0
  0
LINE
  5
2D93
330
1F
100
AcDbEntity
  8
1
  6
Continuous
 62
     7
370
    13
100
AcDbLine
 10
6800.571002044046
 20
15465.79893414194
 30
0.0
 11
6914.900090640644
 21
15465.79893414194
 31
0.0
  0
LINE
  5
2D94
330
1F
100
AcDbEntity
  8
1
  6
Continuous
 62
     7
370
    13
100
AcDbLine
 10
6530.926289212104
 20
15465.79893414194
 30
0.0
 11
6645.255377808557
 21
15465.79893414194
 31
0.0
  0
LINE
  5
2D95
330
1F
100
AcDbEntity
  8
1
  6
Continuous
 62
     7
370
    13
100
AcDbLine
 10
5991.636863548163
 20
15465.79893414194
 30
0.0
 11
6105.96595214447
 21
15465.79893414194
 31
0.0
  0
LINE
  5
2D96
330
1F
100
AcDbEntity
  8
1
  6
Continuous
 62
     7
370
    13
100
AcDbLine
 10
6167.444083807495
 20
15940.37379051304
 30
0.0
 11
6167.444083807495
 21
15908.01610139834
 31
0.0
  0
LINE
  5
2D97
330
1F
100
AcDbEntity
  8
1
  6
Continuous
 62
     7
370
    13
100
AcDbLine
 10
5721.992150716076
 20
15465.79893414194
 30
0.0
 11
5836.321239312528
 21
15465.79893414194
 31
0.0
  0
LINE
  5
2D98
330
1F
100
AcDbEntity
  8
1
  6
Continuous
 62
     7
370
    13
100
AcDbLine
 10
7339.860427708015
 20
15465.79893414194
 30
0.0
 11
13108.09802138223
 21
15465.79893414194
 31
0.0
  0
LINE
  5
2D99
330
1F
100
AcDbEntity
  8
1
  6
Continuous
 62
     7
370
    13
100
AcDbLine
 10
5452.347437884135
 20
15465.79893414194
 30
0.0
 11
5566.676526480705
 21
15465.79893414194
 31
0.0
  0
LINE
  5
2D9A
330
1F
100
AcDbEntity
  8
1
  6
Continuous
 62
     7
370
    13
100
AcDbLine
 10
6261.281576380163
 20
15465.79893414194
 30
0.0
 11
6375.61066497647
 21
15465.79893414194
 31
0.0
  0
LINE
  5
2D9B
330
1F
100
AcDbEntity
  8
1
  6
Continuous
 62
     7
370
    13
100
AcDbLine
 10
8578.068463672883
 20
17299.38298139957
 30
0.0
 11
8578.068463672883
 21
15465.79893414194
 31
0.0
  0
LINE
  5
2D9C
330
1F
100
AcDbEntity
  8
1
  6
Continuous
 62
     7
370
    13
100
AcDbLine
 10
13108.09802138223
 20
21182.26684618031
 30
0.0
 11
13108.09802138223
 21
15465.79893414194
 31
0.0
  0
LINE
  5
2D9D
330
1F
100
AcDbEntity
  8
1
  6
Continuous
 62
     7
370
    13
100
AcDbLine
 10
8578.068463672883
 20
21182.26684618031
 30
0.0
 11
8578.068463672883
 21
19348.68279892276
 31
0.0
  0
LINE
  5
2D9E
330
1F
100
AcDbEntity
  8
1
  6
Continuous
 62
     7
370
    13
100
AcDbLine
 10
4048.037288095161
 20
15465.79893414194
 30
0.0
 11
5297.031813648704
 21
15465.79893414194
 31
0.0
  0
LINE
  5
2D9F
330
1F
100
AcDbEntity
  8
1
  6
Continuous
 62
     7
370
    13
100
AcDbLine
 10
4048.037288095161
 20
21182.26684618031
 30
0.0
 11
13108.09802138223
 21
21182.26684618031
 31
0.0
  0
LINE
  5
2DA0
330
1F
100
AcDbEntity
  8
1
  6
Continuous
 62
     7
370
    13
100
AcDbLine
 10
4048.037288095161
 20
21182.26684618031
 30
0.0
 11
4048.037288095161
 21
15465.79893414194
 31
0.0
  0
LINE
  5
2DA1
330
1F
100
AcDbEntity
  8
1
  6
Continuous
 62
     7
370
    13
100
AcDbLine
 10
5258.407473551255
 20
15835.50038699043
 30
0.0
 11
4969.639557685994
 21
15835.50038699043
 31
0.0
  0
LINE
  5
2DA2
330
1F
100
AcDbEntity
  8
1
  6
Continuous
 62
     7
370
    13
100
AcDbLine
 10
7359.274038098431
 20
15835.50038699043
 30
0.0
 11
7708.496406439109
 21
15835.50038699043
 31
0.0
  0
LINE
  5
2DA3
330
1F
100
AcDbEntity
  8
1
  6
Continuous
 62
     7
370
    13
100
AcDbLine
 10
13789.1782317754
 20
8881.270269556523
 30
0.0
 11
21046.40115618525
 21
8881.270269556523
 31
0.0
  0
LINE
  5
2DA4
330
1F
100
AcDbEntity
  8
1
  6
Continuous
 62
     7
370
    13
100
AcDbLine
 10
13789.1782317754
 20
8665.554499290898
 30
0.0
 11
13789.1782317754
 21
9496.060700173885
 31
0.0
  0
LINE
  5
2DA5
330
1F
100
AcDbEntity
  8
1
  6
Continuous
 62
     7
370
    13
100
AcDbLine
 10
21046.40115618525
 20
8665.554499290898
 30
0.0
 11
21046.40115618525
 21
9776.491039732327
 31
0.0
  0
LINE
  5
2DA6
330
1F
100
AcDbEntity
  8
1
  6
Continuous
 62
     7
370
    13
100
AcDbLine
 10
13789.1782317754
 20
8881.270269556523
 30
0.0
 11
14039.21675396349
 21
8948.267866703856
 31
0.0
  0
LINE
  5
2DA7
330
1F
100
AcDbEntity
  8
1
  6
Continuous
 62
     7
370
    13
100
AcDbLine
 10
13789.1782317754
 20
8881.270269556523
 30
0.0
 11
14039.21675396349
 21
8814.272618479794
 31
0.0
  0
LINE
  5
2DA8
330
1F
100
AcDbEntity
  8
1
  6
Continuous
 62
     7
370
    13
100
AcDbLine
 10
21046.40115618525
 20
8881.270269556523
 30
0.0
 11
20796.36263399731
 21
8814.272618479794
 31
0.0
  0
LINE
  5
2DA9
330
1F
100
AcDbEntity
  8
1
  6
Continuous
 62
     7
370
    13
100
AcDbLine
 10
21046.40115618525
 20
8881.270269556523
 30
0.0
 11
20796.36263399731
 21
8948.267866703856
 31
0.0
  0
TEXT
  5
2DAA
330
1F
100
AcDbEntity
  8
1
  6
Continuous
 62
     7
370
    13
100
AcDbText
 10
16797.60688143028
 20
8935.199212122883
 30
0.0
 40
323.5736553983998
  1
150±10
 41
0.639785
  7
KANJI
100
AcDbText
  0
LINE
  5
2DAB
330
1F
100
AcDbEntity
  8
1
  6
Continuous
 62
     7
370
    13
100
AcDbLine
 10
10391.41750881675
 20
9656.300576155336
 30
0.0
 11
10386.80410349493
 21
8657.961304177195
 31
0.0
  0
LINE
  5
2DAC
330
1F
100
AcDbEntity
  8
1
  6
Continuous
 62
     7
370
    13
100
AcDbLine
 10
5114.729984765872
 20
15835.50038699043
 30
0.0
 11
5170.317188387446
 21
15627.06966185977
 31
0.0
  0
LINE
  5
2DAD
330
1F
100
AcDbEntity
  8
1
  6
Continuous
 62
     7
370
    13
100
AcDbLine
 10
5114.729984765872
 20
15835.50038699043
 30
0.0
 11
5058.654562426557
 21
15627.20049347503
 31
0.0
  0
LINE
  5
2DAE
330
1F
100
AcDbEntity
  8
1
  6
Continuous
 62
     7
370
    13
100
AcDbLine
 10
10386.80410349493
 20
8881.270269556523
 30
0.0
 11
10178.43868631392
 21
8825.438929611337
 31
0.0
  0
LINE
  5
2DAF
330
1F
100
AcDbEntity
  8
1
  6
Continuous
 62
     7
370
    13
100
AcDbLine
 10
10386.80410349493
 20
8881.270269556523
 30
0.0
 11
10178.43868631392
 21
8937.101609500428
 31
0.0
  0
LINE
  5
2DB0
330
1F
100
AcDbEntity
  8
1
  6
Continuous
 62
     7
370
    13
100
AcDbLine
 10
5414.023515618639
 20
8881.270269556523
 30
0.0
 11
10386.80410349493
 21
8881.270269556523
 31
0.0
  0
ARC
  5
2DB1
330
1F
100
AcDbEntity
  8
0
370
    13
100
AcDbCircle
 10
5414.023515618639
 20
9181.270269556524
 30
0.0
 40
300.0
100
AcDbArc
 50
180.0
 51
270.0
  0
TEXT
  5
2DB2
330
1F
100
AcDbEntity
  8
1
  6
Continuous
 62
     7
370
    13
100
AcDbText
 10
7309.90985694673
 20
8968.602799147992
 30
0.0
 40
323.5736553983998
  1
150±10
 41
0.639785
  7
KANJI
100
AcDbText
  0
LINE
  5
2DB3
330
1F
100
AcDbEntity
  8
1
  6
Continuous
 62
     7
370
    13
100
AcDbLine
 10
7575.658635109779
 20
15835.50038699043
 30
0.0
 11
7632.697929437535
 21
15627.46237242019
 31
0.0
  0
LINE
  5
2DB4
330
1F
100
AcDbEntity
  8
1
  6
Continuous
 62
     7
370
    13
100
AcDbLine
 10
7575.658635109779
 20
15835.50038699043
 30
0.0
 11
7521.03713706322
 21
15626.81452403351
 31
0.0
  0
LINE
  5
2DB5
330
1F
100
AcDbEntity
  8
1
  6
Continuous
 62
     7
370
    13
100
AcDbLine
 10
13645.08588234958
 20
13715.77175083126
 30
0.0
 11
13436.72046516975
 21
13659.94041088609
 31
0.0
  0
LINE
  5
2DB6
330
1F
100
AcDbEntity
  8
1
  6
Continuous
 62
     7
370
    13
100
AcDbLine
 10
13645.08588234958
 20
13715.77175083126
 30
0.0
 11
13436.72046516975
 21
13771.60314470455
 31
0.0
  0
LINE
  5
2DB7
330
1F
100
AcDbEntity
  8
1
  6
Continuous
 62
     7
370
    13
100
AcDbLine
 10
7875.658635109779
 20
13713.1084625208
 30
0.0
 11
13642.98760033695
 21
13713.1084625208
 31
0.0
  0
TEXT
  5
2DB8
330
1F
100
AcDbEntity
  8
1
  6
Continuous
 62
     7
370
    13
100
AcDbText
 10
9533.912930061081
 20
13715.77175083126
 30
0.0
 40
323.5736553983998
  1
200±10
 41
0.639785
  7
KANJI
100
AcDbText
  0
LINE
  5
2DB9
330
1F
100
AcDbEntity
  8
1
  6
DASHDOT
 62
     7
370
    13
100
AcDbLine
 10
7619.707795398397
 20
16005.23634082355
 30
0.0
 11
8525.789531033399
 21
16005.23634082355
 31
0.0
  0
LINE
  5
2DBA
330
1F
100
AcDbEntity
  8
1
  6
DASHDOT
 62
     7
370
    13
100
AcDbLine
 10
8038.735679137898
 20
15563.87108907198
 30
0.0
 11
8038.735679137898
 21
16422.46299788364
 31
0.0
  0
LINE
  5
2DBB
330
1F
100
AcDbEntity
  8
1
  6
DASHDOT
 62
     7
370
    13
100
AcDbLine
 10
4167.985826434626
 20
16005.23634082355
 30
0.0
 11
5074.067562069338
 21
16005.23634082355
 31
0.0
  0
LINE
  5
2DBC
330
1F
100
AcDbEntity
  8
1
  6
DASHDOT
 62
     7
370
    13
100
AcDbLine
 10
4587.013710176282
 20
15563.87108907198
 30
0.0
 11
4587.013710176282
 21
16422.46299788364
 31
0.0
  0
LINE
  5
2DBD
330
1F
100
AcDbEntity
  8
1
  6
DASHDOT
 62
     7
370
    13
100
AcDbLine
 10
4155.150738105469
 20
20643.29797414965
 30
0.0
 11
5074.067562069338
 21
20643.29797414965
 31
0.0
  0
LINE
  5
2DBE
330
1F
100
AcDbEntity
  8
1
  6
DASHDOT
 62
     7
370
    13
100
AcDbLine
 10
4587.013710176282
 20
20201.93272239918
 30
0.0
 11
4587.013710176282
 21
21060.52463120966
 31
0.0
  0
LINE
  5
2DBF
330
1F
100
AcDbEntity
  8
1
  6
DASHDOT
 62
     7
370
    13
100
AcDbLine
 10
8038.735679137898
 20
20201.93272239918
 30
0.0
 11
8038.735679137898
 21
21060.52463120966
 31
0.0
  0
LINE
  5
2DC0
330
1F
100
AcDbEntity
  8
1
  6
DASHDOT
 62
     7
370
    13
100
AcDbLine
 10
9117.220100888898
 20
20337.73502163013
 30
0.0
 11
9117.220100888898
 21
20932.14942594896
 31
0.0
  0
LINE
  5
2DC1
330
1F
100
AcDbEntity
  8
1
  6
DASHDOT
 62
     7
370
    13
100
AcDbLine
 10
9117.35788933665
 20
15699.67338830418
 30
0.0
 11
9117.35788933665
 21
16294.08779262159
 31
0.0
  0
LINE
  5
2DC2
330
1F
100
AcDbEntity
  8
1
  6
DASHDOT
 62
     7
370
    13
100
AcDbLine
 10
8827.259438599694
 20
16005.23634082355
 30
0.0
 11
9454.551676683271
 21
16005.23634082355
 31
0.0
  0
LINE
  5
2DC3
330
1F
100
AcDbEntity
  8
1
  6
DASHDOT
 62
     7
370
    13
100
AcDbLine
 10
12568.83156944702
 20
20337.73502163013
 30
0.0
 11
12568.83156944702
 21
20932.14942594896
 31
0.0
  0
LINE
  5
2DC4
330
1F
100
AcDbEntity
  8
1
  6
DASHDOT
 62
     7
370
    13
100
AcDbLine
 10
12278.73311870987
 20
20643.29797414965
 30
0.0
 11
12906.02535679345
 21
20643.29797414965
 31
0.0
  0
LINE
  5
2DC5
330
1F
100
AcDbEntity
  8
1
  6
DASHDOT
 62
     7
370
    13
100
AcDbLine
 10
12568.83156944702
 20
15699.67338830418
 30
0.0
 11
12568.83156944702
 21
16294.08779262159
 31
0.0
  0
LINE
  5
2DC6
330
1F
100
AcDbEntity
  8
1
  6
DASHDOT
 62
     7
370
    13
100
AcDbLine
 10
12278.73311870987
 20
16005.23634082355
 30
0.0
 11
12906.02535679345
 21
16005.23634082355
 31
0.0
  0
LINE
  5
2DC7
330
1F
100
AcDbEntity
  8
1
  6
DASHDOT
 62
     7
370
    13
100
AcDbLine
 10
7619.707795398397
 20
20643.29797414965
 30
0.0
 11
8525.789531033399
 21
20643.29797414965
 31
0.0
  0
LINE
  5
2DC8
330
1F
100
AcDbEntity
  8
1
  6
DASHDOT
 62
     7
370
    13
100
AcDbLine
 10
8827.121650150715
 20
20643.29797414965
 30
0.0
 11
9427.37623537757
 21
20643.29797414965
 31
0.0
  0
LINE
  5
2DC9
330
1F
100
AcDbEntity
  8
1
  6
DASHDOT
 62
     7
370
    13
100
AcDbLine
 10
6313.052875884022
 20
21767.65181978738
 30
0.0
 11
6313.052875884022
 21
15245.28057582472
 31
0.0
  0
LINE
  5
2DCA
330
1F
100
AcDbEntity
  8
1
  6
DASHDOT
 62
     7
370
    13
100
AcDbLine
 10
10843.08243359357
 20
21634.44733164736
 30
0.0
 11
10843.08243359357
 21
15115.26868108565
 31
0.0
  0
LINE
  5
2DCB
330
1F
100
AcDbEntity
  8
1
  6
DASHDOT
 62
     7
370
    13
100
AcDbLine
 10
3569.085450887243
 20
18324.03289016113
 30
0.0
 11
13574.00477095607
 21
18324.03289016113
 31
0.0
  0
ARC
  5
2DCC
330
1F
100
AcDbEntity
  8
1
  6
Continuous
 62
     7
370
    13
100
AcDbCircle
 10
8998.79926163287
 20
9938.551017524922
 30
0.0
 40
960.7457296886932
100
AcDbArc
 50
134.2688250008708
 51
148.1193450000533
  0
ARC
  5
2DCD
330
1F
100
AcDbEntity
  8
1
  6
Continuous
 62
     7
370
    13
100
AcDbCircle
 10
8399.006577801541
 20
10289.95384087262
 30
0.0
 40
266.4728820749572
100
AcDbArc
 50
144.1625459987815
 51
194.0335070002014
  0
ARC
  5
2DCE
330
1F
100
AcDbEntity
  8
1
  6
Continuous
 62
     7
370
    13
100
AcDbCircle
 10
8651.000994878677
 20
10509.10483085093
 30
0.0
 40
584.079569623098
100
AcDbArc
 50
209.0673629986946
 51
231.8076300004403
  0
ARC
  5
2DCF
330
1F
100
AcDbEntity
  8
1
  6
Continuous
 62
     7
370
    13
100
AcDbCircle
 10
8195.997275338276
 20
9895.467832455588
 30
0.0
 40
180.852111048929
100
AcDbArc
 50
345.4318290003823
 51
58.73372299865575
  0
ARC
  5
2DD0
330
1F
100
AcDbEntity
  8
1
  6
Continuous
 62
     7
370
    13
100
AcDbCircle
 10
7936.651210880985
 20
10072.21994171767
 30
0.0
 40
487.9351586736049
100
AcDbArc
 50
305.6512710008488
 51
332.9045120001843
  0
ARC
  5
2DD1
330
1F
100
AcDbEntity
  8
1
  6
Continuous
 62
     7
370
    13
100
AcDbCircle
 10
8783.083491367259
 20
9938.551017524922
 30
0.0
 40
960.7457296886932
100
AcDbArc
 50
134.2688250008708
 51
148.1193450000533
  0
ARC
  5
2DD2
330
1F
100
AcDbEntity
  8
1
  6
Continuous
 62
     7
370
    13
100
AcDbCircle
 10
8183.290807536105
 20
10289.95384087262
 30
0.0
 40
266.4728820749572
100
AcDbArc
 50
144.1625459987815
 51
194.0335070002014
  0
ARC
  5
2DD3
330
1F
100
AcDbEntity
  8
1
  6
Continuous
 62
     7
370
    13
100
AcDbCircle
 10
8435.285224613268
 20
10509.10483085093
 30
0.0
 40
584.079569623098
100
AcDbArc
 50
209.0673629986946
 51
231.8076300004403
  0
ARC
  5
2DD4
330
1F
100
AcDbEntity
  8
1
  6
Continuous
 62
     7
370
    13
100
AcDbCircle
 10
7980.281505072868
 20
9895.467832455588
 30
0.0
 40
180.852111048929
100
AcDbArc
 50
345.4318290003823
 51
58.73372299865575
  0
ARC
  5
2DD5
330
1F
100
AcDbEntity
  8
1
  6
Continuous
 62
     7
370
    13
100
AcDbCircle
 10
7720.935440615635
 20
10072.21994171767
 30
0.0
 40
487.9351586736049
100
AcDbArc
 50
305.6512710008488
 51
332.9045120001843
  0
ARC
  5
2DD6
330
1F
100
AcDbEntity
  8
1
  6
Continuous
 62
     7
370
    13
100
AcDbCircle
 10
17889.19129047799
 20
10041.68898767685
 30
0.0
 40
877.3875474480382
100
AcDbArc
 50
139.3610059996124
 51
151.5083190003068
  0
ARC
  5
2DD7
330
1F
100
AcDbEntity
  8
1
  6
Continuous
 62
     7
370
    13
100
AcDbCircle
 10
17380.17520029728
 20
10306.36155986027
 30
0.0
 40
303.9344063129366
100
AcDbArc
 50
149.5852329999163
 51
184.6388949990454
  0
ARC
  5
2DD8
330
1F
100
AcDbEntity
  8
1
  6
Continuous
 62
     7
370
    13
100
AcDbCircle
 10
17383.70069706028
 20
10360.84634803873
 30
0.0
 40
316.4991488546545
100
AcDbArc
 50
194.4664520003528
 51
228.080849999556
  0
ARC
  5
2DD9
330
1F
100
AcDbEntity
  8
1
  6
Continuous
 62
     7
370
    13
100
AcDbCircle
 10
17055.06958542825
 20
9973.398821633441
 30
0.0
 40
191.8830605351159
100
AcDbArc
 50
357.1677229997718
 51
52.35949799935761
  0
ARC
  5
2DDA
330
1F
100
AcDbEntity
  8
1
  6
Continuous
 62
     7
370
    13
100
AcDbCircle
 10
16953.94348840828
 20
10088.10724641088
 30
0.0
 40
318.0254457871687
100
AcDbArc
 50
303.5415769995901
 51
337.0142069993053
  0
ARC
  5
2DDB
330
1F
100
AcDbEntity
  8
1
  6
Continuous
 62
     7
370
    13
100
AcDbCircle
 10
17673.47552021249
 20
10041.68898767685
 30
0.0
 40
877.3875474480382
100
AcDbArc
 50
139.3610059996124
 51
151.5083190003068
  0
ARC
  5
2DDC
330
1F
100
AcDbEntity
  8
1
  6
Continuous
 62
     7
370
    13
100
AcDbCircle
 10
17164.45943003153
 20
10306.36155986027
 30
0.0
 40
303.9344063129366
100
AcDbArc
 50
149.5852329999163
 51
184.6388949990454
  0
ARC
  5
2DDD
330
1F
100
AcDbEntity
  8
1
  6
Continuous
 62
     7
370
    13
100
AcDbCircle
 10
17167.98492679465
 20
10360.84634803873
 30
0.0
 40
316.4991488546545
100
AcDbArc
 50
194.4664520003528
 51
228.080849999556
  0
ARC
  5
2DDE
330
1F
100
AcDbEntity
  8
1
  6
Continuous
 62
     7
370
    13
100
AcDbCircle
 10
16839.35381516254
 20
9973.398821633441
 30
0.0
 40
191.8830605351159
100
AcDbArc
 50
357.1677229997718
 51
52.35949799935761
  0
ARC
  5
2DDF
330
1F
100
AcDbEntity
  8
1
  6
Continuous
 62
     7
370
    13
100
AcDbCircle
 10
16738.22771814301
 20
10088.10724641088
 30
0.0
 40
318.0254457871687
100
AcDbArc
 50
303.5415769995901
 51
337.0142069993053
  0
ARC
  5
2DE0
330
1F
100
AcDbEntity
  8
1
  6
Continuous
 62
     7
370
    13
100
AcDbCircle
 10
10386.27712458318
 20
11812.79647030961
 30
0.0
 40
1343.749133724208
100
AcDbArc
 50
134.4028219990359
 51
150.197802000012
  0
ARC
  5
2DE1
330
1F
100
AcDbEntity
  8
1
  6
Continuous
 62
     7
370
    13
100
AcDbCircle
 10
9588.090592909399
 20
12240.48464115067
 30
0.0
 40
439.3068918720563
100
AcDbArc
 50
146.8597389991745
 51
195.1226950004549
  0
ARC
  5
2DE2
330
1F
100
AcDbEntity
  8
1
  6
Continuous
 62
     7
370
    13
100
AcDbCircle
 10
10557.08534758313
 20
12854.46290189394
 30
0.0
 40
1572.111564595284
100
AcDbArc
 50
207.6096519996974
 51
221.0919030000805
  0
ARC
  5
2DE3
330
1F
100
AcDbEntity
  8
1
  6
Continuous
 62
     7
370
    13
100
AcDbCircle
 10
9132.095443689875
 20
11613.19256485388
 30
0.0
 40
317.6911402721994
100
AcDbArc
 50
333.8479259988275
 51
40.89169000151932
  0
ARC
  5
2DE4
330
1F
100
AcDbEntity
  8
1
  6
Continuous
 62
     7
370
    13
100
AcDbCircle
 10
8521.279036849708
 20
11889.7920080487
 30
0.0
 40
988.1111626598739
100
AcDbArc
 50
313.5863200005467
 51
335.0620709988671
  0
ARC
  5
2DE5
330
1F
100
AcDbEntity
  8
1
  6
Continuous
 62
     7
370
    13
100
AcDbCircle
 10
10601.99289484875
 20
11812.79647030961
 30
0.0
 40
1343.749133724208
100
AcDbArc
 50
134.4028219990359
 51
150.197802000012
  0
ARC
  5
2DE6
330
1F
100
AcDbEntity
  8
1
  6
Continuous
 62
     7
370
    13
100
AcDbCircle
 10
9803.8063631751
 20
12240.48464115067
 30
0.0
 40
439.3068918720563
100
AcDbArc
 50
146.8597389991745
 51
195.1226950004549
  0
ARC
  5
2DE7
330
1F
100
AcDbEntity
  8
1
  6
Continuous
 62
     7
370
    13
100
AcDbCircle
 10
10772.80111784862
 20
12854.46290189394
 30
0.0
 40
1572.111564595284
100
AcDbArc
 50
207.6096519996974
 51
221.0919030000805
  0
ARC
  5
2DE8
330
1F
100
AcDbEntity
  8
1
  6
Continuous
 62
     7
370
    13
100
AcDbCircle
 10
9347.811213955486
 20
11613.19256485388
 30
0.0
 40
317.6911402721994
100
AcDbArc
 50
333.8479259988275
 51
40.89169000151932
  0
ARC
  5
2DE9
330
1F
100
AcDbEntity
  8
1
  6
Continuous
 62
     7
370
    13
100
AcDbCircle
 10
8736.994807115115
 20
11889.7920080487
 30
0.0
 40
988.1111626598739
100
AcDbArc
 50
313.5863200005467
 51
335.0620709988671
  0
TEXT
  5
2DEA
330
1F
100
AcDbEntity
  8
1
  6
Continuous
 62
     7
370
    13
100
AcDbText
 10
2915.367707906407
 20
5688.70744020048
 30
0.0
 40
459.8415360000001
  1
供給電源
 41
0.944444
  7
KANJI
100
AcDbText
  0
TEXT
  5
2DEB
330
1F
100
AcDbEntity
  8
1
  6
Continuous
 62
     7
370
    13
100
AcDbText
 10
3333.041609132313
 20
7025.934562741356
 30
0.0
 40
459.8415360000001
  1
項　目
 41
0.944444
  7
KANJI
100
AcDbText
  0
LINE
  5
2DEC
330
1F
100
AcDbEntity
  8
1
  6
Continuous
 62
     7
370
    13
100
AcDbLine
 10
2582.443605709704
 20
7550.503073443877
 30
0.0
 11
22151.98778460023
 21
7550.503073443877
 31
0.0
  0
LINE
  5
2DED
330
1F
100
AcDbEntity
  8
1
  6
Continuous
 62
     7
370
    13
100
AcDbLine
 10
2582.443605709704
 20
6892.524749695164
 30
0.0
 11
22151.98778460023
 21
6892.524749695164
 31
0.0
  0
TEXT
  5
2DEE
330
1F
100
AcDbEntity
  8
1
  6
Continuous
 62
     7
370
    13
100
AcDbText
 10
12657.60047326923
 20
7025.934562741356
 30
0.0
 40
459.8415360000001
  1
内　容
 41
0.944444
  7
KANJI
100
AcDbText
  0
TEXT
  5
2DEF
330
1F
100
AcDbEntity
  8
1
  6
Continuous
 62
     7
370
    13
100
AcDbText
 10
2915.367707906407
 20
5040.729034364225
 30
0.0
 40
459.8415360000001
  1
制御方式
 41
0.944444
  7
KANJI
100
AcDbText
  0
TEXT
  5
2DF0
330
1F
100
AcDbEntity
  8
1
  6
Continuous
 62
     7
370
    13
100
AcDbText
 10
2915.367707906407
 20
4404.451174052985
 30
0.0
 40
459.8415360000001
  1
通信方式
 41
0.944444
  7
KANJI
100
AcDbText
  0
TEXT
  5
2DF1
330
1F
100
AcDbEntity
  8
1
  6
Continuous
 62
     7
370
    13
100
AcDbText
 10
5682.545499410831
 20
5688.70744020048
 30
0.0
 40
459.8415360000001
  1
ＤＣ２４Ｖ±１０％　制御装置より供給
 41
0.944444
  7
KANJI
100
AcDbText
  0
TEXT
  5
2DF2
330
1F
100
AcDbEntity
  8
1
  6
Continuous
 62
     7
370
    13
100
AcDbText
 10
5674.6550486529
 20
5040.729034364225
 30
0.0
 40
459.8415360000001
  1
ＣＰＵ制御
 41
0.944444
  7
KANJI
100
AcDbText
  0
TEXT
  5
2DF3
330
1F
100
AcDbEntity
  8
1
  6
Continuous
 62
     7
370
    13
100
AcDbText
 10
5674.6550486529
 20
4404.451174052985
 30
0.0
 40
459.8415360000001
  1
電源搬送波重畳方式
 41
0.944444
  7
KANJI
100
AcDbText
  0
TEXT
  5
2DF4
330
1F
100
AcDbEntity
  8
1
  6
Continuous
 62
     7
370
    13
100
AcDbText
 10
2915.367707906407
 20
3697.652618446416
 30
0.0
 40
459.8415360000001
  1
外部入力
 41
0.944444
  7
KANJI
100
AcDbText
  0
TEXT
  5
2DF5
330
1F
100
AcDbEntity
  8
1
  6
Continuous
 62
     7
370
    13
100
AcDbText
 10
2915.367707906407
 20
6358.378554755982
 30
0.0
 40
459.8415360000001
  1
重　量
 41
0.944444
  7
KANJI
100
AcDbText
  0
TEXT
  5
2DF6
330
1F
100
AcDbEntity
  8
1
  6
Continuous
 62
     7
370
    13
100
AcDbText
 10
5674.6550486529
 20
6358.378554755982
 30
0.0
 40
459.8415360000001
  1
約４０ｇ
 41
0.944444
  7
KANJI
100
AcDbText
  0
TEXT
  5
2DF7
330
1F
100
AcDbEntity
  8
1
  6
Continuous
 62
     7
370
    13
100
AcDbText
 10
5674.6550486529
 20
3697.652618446416
 30
0.0
 40
459.8415360000001
  1
接点容量　ＤＣ２４Ｖ　１０ｍＡ以上
 41
0.8872049999999999
  7
KANJI
100
AcDbText
  0
LINE
  5
2DF8
330
1F
100
AcDbEntity
  8
1
  6
Continuous
 62
     7
370
    13
100
AcDbLine
 10
22151.98778460023
 20
7550.503073443877
 30
0.0
 11
22151.98778460023
 21
2944.654807206127
 31
0.0
  0
LINE
  5
2DF9
330
1F
100
AcDbEntity
  8
1
  6
Continuous
 62
     7
370
    13
100
AcDbLine
 10
2582.443605709704
 20
7550.503073443877
 30
0.0
 11
2582.443605709704
 21
2944.654807206127
 31
0.0
  0
LINE
  5
2DFA
330
1F
100
AcDbEntity
  8
1
  6
Continuous
 62
     7
370
    13
100
AcDbLine
 10
2582.443605709704
 20
6234.54642594709
 30
0.0
 11
22151.98778460023
 21
6234.54642594709
 31
0.0
  0
LINE
  5
2DFB
330
1F
100
AcDbEntity
  8
1
  6
Continuous
 62
     7
370
    13
100
AcDbLine
 10
2582.443605709704
 20
5576.568102198361
 30
0.0
 11
22151.98778460023
 21
5576.568102198361
 31
0.0
  0
LINE
  5
2DFC
330
1F
100
AcDbEntity
  8
1
  6
Continuous
 62
     7
370
    13
100
AcDbLine
 10
2582.443605709704
 20
4918.589778450376
 30
0.0
 11
22151.98778460023
 21
4918.589778450376
 31
0.0
  0
LINE
  5
2DFD
330
1F
100
AcDbEntity
  8
1
  6
Continuous
 62
     7
370
    13
100
AcDbLine
 10
2582.443605709704
 20
4260.611454702361
 30
0.0
 11
22151.98778460023
 21
4260.611454703001
 31
0.0
  0
LINE
  5
2DFE
330
1F
100
AcDbEntity
  8
1
  6
Continuous
 62
     7
370
    13
100
AcDbLine
 10
2582.443605709704
 20
3602.633130954286
 30
0.0
 11
22151.98778460023
 21
3602.633130954286
 31
0.0
  0
LINE
  5
2DFF
330
1F
100
AcDbEntity
  8
0
  6
Continuous
370
    13
100
AcDbLine
 10
5464.761973002111
 20
7550.503073443877
 30
0.0
 11
5464.761973002111
 21
2944.654807206127
 31
0.0
  0
TEXT
  5
2E00
330
1F
100
AcDbEntity
  8
1
  6
Continuous
 62
     7
370
    13
100
AcDbText
 10
2915.367707906407
 20
3039.674294698241
 30
0.0
 40
459.8415360000001
  1
外部出力
 41
0.944444
  7
KANJI
100
AcDbText
  0
TEXT
  5
2E01
330
1F
100
AcDbEntity
  8
1
  6
Continuous
 62
     7
370
    13
100
AcDbText
 10
5674.6550486529
 20
3039.674294698241
 30
0.0
 40
459.8415360000001
  1
接点容量　ＤＣ２４Ｖ　１Ａ以下
 41
0.8872049999999999
  7
KANJI
100
AcDbText
  0
LINE
  5
2E02
330
1F
100
AcDbEntity
  8
1
  6
Continuous
 62
     7
370
    13
100
AcDbLine
 10
2582.443605709704
 20
2944.654807206127
 30
0.0
 11
22151.98778460023
 21
2944.654807206127
 31
0.0
  0
TEXT
  5
2E03
330
1F
100
AcDbEntity
  8
1
  6
Continuous
 62
     7
370
    13
100
AcDbText
 10
4392.48896182602
 20
24697.96936453848
 30
0.0
 40
741.8776780800003
  1
デジタルテンキーＩ／Ｆユニット　Ｔ－３８３０ＩＦ(盤内蔵)
 41
0.75
  7
KANJI
100
AcDbText
  0
DIMENSION
  5
2E04
330
1F
100
AcDbEntity
  8
1
  6
Continuous
 62
     7
370
    13
100
AcDbDimension
  2
*D2
 10
8578.068463672883
 20
23171.97448332724
 30
0.0
 11
6313.087938177807
 21
23171.97448332724
 31
0.0
 70
   160
  1
42
 71
     5
 42
4530.031175577722
  3
Standard
100
AcDbAlignedDimension
 13
4048.037288095161
 23
21182.26684618031
 33
0.0
 14
8578.068463672883
 24
21182.26684618031
 34
0.0
100
AcDbRotatedDimension
1001
ACAD
1000
DSTYLE
1002
{
1070
    41
1040
500.0
1070
    42
1040
50.0
1070
    73
1070
     0
1070
    77
1070
     1
1070
   140
1040
400.0
1070
   147
1040
50.0
1070
   173
1070
     1
1070
   343
1005
2B
1070
   344
1005
2B
1070
   371
1070
    13
1070
   372
1070
    13
1002
}
  0
DIMENSION
  5
2E05
330
1F
100
AcDbEntity
  8
1
  6
Continuous
 62
     7
370
    13
100
AcDbDimension
  2
*D3
 10
8038.735679137898
 20
22240.61250466648
 30
0.0
 11
6312.874694657089
 21
22490.61250466648
 31
0.0
 70
    32
  1
32
 71
     5
 42
3451.721968961617
  3
Standard
100
AcDbAlignedDimension
 13
4587.013710176282
 23
21060.52463120966
 33
0.0
 14
8038.735679137898
 24
21060.52463120966
 34
0.0
100
AcDbRotatedDimension
1001
ACAD
1000
DSTYLE
1002
{
1070
    41
1040
500.0
1070
    42
1040
50.0
1070
    73
1070
     0
1070
    77
1070
     1
1070
   140
1040
400.0
1070
   147
1040
50.0
1070
   173
1070
     1
1070
   343
1005
2B
1070
   344
1005
2B
1070
   371
1070
    13
1070
   372
1070
    13
1002
}
  0
DIMENSION
  5
2E06
330
1F
100
AcDbEntity
  8
1
  6
Continuous
 62
     7
370
    13
100
AcDbDimension
  2
*D4
 10
13108.09802138223
 20
23171.97448332724
 30
0.0
 11
10843.04898916796
 21
23171.97448332724
 31
0.0
 70
   160
  1
42
 71
     5
 42
4530.029557709348
  3
Standard
100
AcDbAlignedDimension
 13
8578.068463672883
 23
21407.17893622205
 33
0.0
 14
13108.09802138223
 24
21182.26684618031
 34
0.0
100
AcDbRotatedDimension
1001
ACAD
1000
DSTYLE
1002
{
1070
    41
1040
500.0
1070
    42
1040
50.0
1070
    73
1070
     0
1070
    77
1070
     1
1070
   140
1040
400.0
1070
   147
1040
50.0
1070
   173
1070
     1
1070
   343
1005
2B
1070
   344
1005
2B
1070
   371
1070
    13
1070
   372
1070
    13
1002
}
  0
DIMENSION
  5
2E07
330
1F
100
AcDbEntity
  8
1
  6
Continuous
 62
     7
370
    13
100
AcDbDimension
  2
*D5
 10
12568.83156944702
 20
22232.25675430636
 30
0.0
 11
10843.02583516795
 21
22482.25675430636
 31
0.0
 70
    32
  1
32
 71
     5
 42
3451.611468558141
  3
Standard
100
AcDbAlignedDimension
 13
9117.220100888898
 23
20932.14942594896
 33
0.0
 14
12568.83156944702
 24
20932.14942594896
 34
0.0
100
AcDbRotatedDimension
1001
ACAD
1000
DSTYLE
1002
{
1070
    41
1040
500.0
1070
    42
1040
50.0
1070
    73
1070
     0
1070
    77
1070
     1
1070
   140
1040
400.0
1070
   147
1040
50.0
1070
   173
1070
     1
1070
   343
1005
2B
1070
   344
1005
2B
1070
   371
1070
    13
1070
   372
1070
    13
1002
}
  0
DIMENSION
  5
2E08
330
1F
100
AcDbEntity
  8
1
  6
Continuous
 62
     7
370
    13
100
AcDbDimension
  2
*D6
 10
14177.20909030313
 20
16005.23634082355
 30
0.0
 11
14177.20909030313
 21
18324.2671574866
 31
0.0
 70
   160
  1
43
 71
     5
 42
4638.061633326098
  3
Standard
100
AcDbAlignedDimension
 13
12906.02535679345
 23
20643.29797414965
 33
0.0
 14
12906.02535679345
 24
16005.23634082355
 34
0.0
 50
90.0
100
AcDbRotatedDimension
1001
ACAD
1000
DSTYLE
1002
{
1070
    41
1040
500.0
1070
    42
1040
50.0
1070
    73
1070
     0
1070
    77
1070
     1
1070
   140
1040
400.0
1070
   147
1040
50.0
1070
   173
1070
     1
1070
   343
1005
2B
1070
   344
1005
2B
1070
   371
1070
    13
1070
   372
1070
    13
1002
}
  0
DIMENSION
  5
2E09
330
1F
100
AcDbEntity
  8
1
  6
Continuous
 62
     7
370
    13
100
AcDbDimension
  2
*D7
 10
15124.73753844973
 20
15465.79893414194
 30
0.0
 11
15124.73753844972
 21
18324.30650107029
 31
0.0
 70
   160
  1
53
 71
     5
 42
5716.467912038382
  3
Standard
100
AcDbAlignedDimension
 13
13108.09802138223
 23
21182.26684618031
 33
0.0
 14
13108.09802138223
 24
15465.79893414194
 34
0.0
 50
90.0
100
AcDbRotatedDimension
1001
ACAD
1000
DSTYLE
1002
{
1070
    41
1040
500.0
1070
    42
1040
50.0
1070
    73
1070
     0
1070
    77
1070
     1
1070
   140
1040
400.0
1070
   147
1040
50.0
1070
   173
1070
     1
1070
   343
1005
2B
1070
   344
1005
2B
1070
   371
1070
    13
1070
   372
1070
    13
1002
}
  0
LINE
  5
2E0A
330
1F
100
AcDbEntity
  8
0
370
    13
100
AcDbLine
 10
7575.658635109779
 20
15835.50038699043
 30
0.0
 11
7575.658635109779
 21
14013.1084625208
 31
0.0
  0
ARC
  5
2E0B
330
1F
100
AcDbEntity
  8
0
370
    13
100
AcDbCircle
 10
7875.658635109779
 20
14013.1084625208
 30
0.0
 40
300.0
100
AcDbArc
 50
180.0
 51
270.0
  0
LINE
  5
2E0C
330
1F
100
AcDbEntity
  8
0
370
    13
100
AcDbLine
 10
13645.08588234958
 20
12630.04952569937
 30
0.0
 11
13645.08588234958
 21
13902.46538723058
 31
0.0
  0
LINE
  5
2E0D
330
1F
100
AcDbEntity
  8
0
370
    13
100
AcDbLine
 10
5297.031921516317
 20
15810.94298574204
 30
0.0
 11
5297.031921516317
 21
10259.84912088449
 31
0.0
  0
LINE
  5
2E0E
330
1F
100
AcDbEntity
  8
0
370
    13
100
AcDbLine
 10
5114.02351561861
 20
15835.50038699043
 30
0.0
 11
5114.023515618639
 21
9181.270269556524
 31
0.0
  0
LINE
  5
2E0F
330
1F
100
AcDbEntity
  8
0
370
    13
100
AcDbLine
 10
5452.347276097715
 20
15810.944220495
 30
0.0
 11
5452.347276097715
 21
10410.85032185724
 31
0.0
  0
LINE
  5
2E10
330
1F
100
AcDbEntity
  8
0
370
    13
100
AcDbLine
 10
5566.676634348463
 20
15810.94298574204
 30
0.0
 11
5566.676634348463
 21
10583.42272235351
 31
0.0
  0
LINE
  5
2E11
330
1F
100
AcDbEntity
  8
0
370
    13
100
AcDbLine
 10
5721.99198892989
 20
15810.944220495
 30
0.0
 11
5721.991988929861
 21
10734.4241390412
 31
0.0
  0
LINE
  5
2E12
330
1F
100
AcDbEntity
  8
0
370
    13
100
AcDbLine
 10
5836.321347180406
 20
15810.94298574204
 30
0.0
 11
5836.321347180433
 21
11597.09161982992
 31
0.0
  0
LINE
  5
2E13
330
1F
100
AcDbEntity
  8
0
370
    13
100
AcDbLine
 10
5991.636701761832
 20
15810.944220495
 30
0.0
 11
5991.636701761832
 21
11748.09287473199
 31
0.0
  0
LINE
  5
2E14
330
1F
100
AcDbEntity
  8
0
370
    13
100
AcDbLine
 10
6105.966060012346
 20
15810.94298574204
 30
0.0
 11
6105.966060012346
 21
11834.37912890889
 31
0.0
  0
LINE
  5
2E15
330
1F
100
AcDbEntity
  8
0
370
    13
100
AcDbLine
 10
6261.281414593774
 20
15810.944220495
 30
0.0
 11
6261.281414593746
 21
11985.38032988156
 31
0.0
  0
LINE
  5
2E16
330
1F
100
AcDbEntity
  8
0
370
    13
100
AcDbLine
 10
6375.610772844375
 20
15810.94298574204
 30
0.0
 11
6375.610772844375
 21
12071.66653013034
 31
0.0
  0
LINE
  5
2E17
330
1F
100
AcDbEntity
  8
0
370
    13
100
AcDbLine
 10
6530.926127425772
 20
15810.944220495
 30
0.0
 11
6530.926127425772
 21
12222.66778503124
 31
0.0
  0
LINE
  5
2E18
330
1F
100
AcDbEntity
  8
0
370
    13
100
AcDbLine
 10
6645.255485676374
 20
15810.94298574204
 30
0.0
 11
6645.255485676374
 21
12308.95398528002
 31
0.0
  0
LINE
  5
2E19
330
1F
100
AcDbEntity
  8
0
370
    13
100
AcDbLine
 10
6800.570840257801
 20
15810.944220495
 30
0.0
 11
6800.570840257801
 21
12459.95475482163
 31
0.0
  0
LINE
  5
2E1A
330
1F
100
AcDbEntity
  8
0
370
    13
100
AcDbLine
 10
6914.900198508461
 20
15810.94298574204
 30
0.0
 11
6914.900198508461
 21
12546.24144042959
 31
0.0
  0
LINE
  5
2E1B
330
1F
100
AcDbEntity
  8
0
370
    13
100
AcDbLine
 10
7070.215553089858
 20
15810.944220495
 30
0.0
 11
7070.215553089858
 21
12697.2422099713
 31
0.0
  0
LINE
  5
2E1C
330
1F
100
AcDbEntity
  8
0
370
    13
100
AcDbLine
 10
7184.544911340461
 20
15810.94298574204
 30
0.0
 11
7184.544911340491
 21
12783.52841022009
 31
0.0
  0
LINE
  5
2E1D
330
1F
100
AcDbEntity
  8
0
370
    13
100
AcDbLine
 10
7339.860265921889
 20
15810.944220495
 30
0.0
 11
7339.860265921889
 21
12934.52961119279
 31
0.0
  0
ENDSEC
  0
SECTION
  2
OBJECTS
  0
DICTIONARY
  5
C
330
0
100
AcDbDictionary
281
     1
  3
ACAD_GROUP
350
D
  3
ACAD_LAYOUT
350
1A
  3
ACAD_MLINESTYLE
350
17
  3
ACAD_PLOTSETTINGS
350
19
  3
ACAD_PLOTSTYLENAME
350
E
  3
AcDbVariableDictionary
350
932
  0
DICTIONARY
  5
5A
330
2
100
AcDbDictionary
280
     1
281
     1
  3
ACAD_LAYERSTATES
360
5B
  0
DICTIONARY
  5
D
102
{ACAD_REACTORS
330
C
102
}
330
C
100
AcDbDictionary
281
     1
  0
DICTIONARY
  5
1A
102
{ACAD_REACTORS
330
C
102
}
330
C
100
AcDbDictionary
281
     1
  3
Model
350
22
  3
ﾚｲｱｳﾄ1
350
1E
  3
ﾚｲｱｳﾄ2
350
26
  0
DICTIONARY
  5
17
102
{ACAD_REACTORS
330
C
102
}
330
C
100
AcDbDictionary
281
     1
  3
Standard
350
18
  0
DICTIONARY
  5
19
102
{ACAD_REACTORS
330
C
102
}
330
C
100
AcDbDictionary
281
     1
  0
ACDBDICTIONARYWDFLT
  5
E
102
{ACAD_REACTORS
330
C
102
}
330
C
100
AcDbDictionary
281
     1
  3
Normal
350
F
100
AcDbDictionaryWithDefault
340
F
  0
DICTIONARY
  5
932
102
{ACAD_REACTORS
330
C
102
}
330
C
100
AcDbDictionary
281
     1
  3
DIMASSOC
350
934
  3
HIDETEXT
350
933
  0
DICTIONARY
  5
5B
102
{ACAD_REACTORS
330
5A
102
}
330
5A
100
AcDbDictionary
281
     1
  0
LAYOUT
  5
22
102
{ACAD_REACTORS
330
1A
102
}
330
1A
100
AcDbPlotSettings
  1

  2
DocuCentre a235
  4

  6

 40
0.0
 41
0.0
 42
0.0
 43
0.0
 44
0.0
 45
0.0
 46
0.0
 47
0.0
 48
0.0
 49
0.0
140
0.0
141
0.0
142
1.0
143
1.0
 70
  1712
 72
     0
 73
     0
 74
     0
  7

 75
     0
147
1.0
148
0.0
149
0.0
100
AcDbLayout
  1
Model
 70
     1
 71
     0
 10
0.0
 20
0.0
 11
12.0
 21
9.0
 12
0.0
 22
0.0
 32
0.0
 14
0.0
 24
0.0
 34
0.0
 15
0.0
 25
0.0
 35
0.0
146
0.0
 13
0.0
 23
0.0
 33
0.0
 16
1.0
 26
0.0
 36
0.0
 17
0.0
 27
1.0
 37
0.0
 76
     0
330
1F
  0
LAYOUT
  5
1E
102
{ACAD_REACTORS
330
1A
102
}
330
1A
100
AcDbPlotSettings
  1

  2
DocuCentre a235
  4

  6

 40
0.0
 41
0.0
 42
0.0
 43
0.0
 44
0.0
 45
0.0
 46
0.0
 47
0.0
 48
0.0
 49
0.0
140
0.0
141
0.0
142
1.0
143
1.0
 70
   688
 72
     0
 73
     0
 74
     5
  7

 75
    16
147
1.0
148
0.0
149
0.0
100
AcDbLayout
  1
ﾚｲｱｳﾄ1
 70
     1
 71
     1
 10
0.0
 20
0.0
 11
420.0
 21
297.0
 12
0.0
 22
0.0
 32
0.0
 14
1.000000000000000E+20
 24
1.000000000000000E+20
 34
1.000000000000000E+20
 15
-1.000000000000000E+20
 25
-1.000000000000000E+20
 35
-1.000000000000000E+20
146
0.0
 13
0.0
 23
0.0
 33
0.0
 16
1.0
 26
0.0
 36
0.0
 17
0.0
 27
1.0
 37
0.0
 76
     0
330
1B
  0
LAYOUT
  5
26
102
{ACAD_REACTORS
330
1A
102
}
330
1A
100
AcDbPlotSettings
  1

  2
DocuCentre a235
  4

  6

 40
0.0
 41
0.0
 42
0.0
 43
0.0
 44
0.0
 45
0.0
 46
0.0
 47
0.0
 48
0.0
 49
0.0
140
0.0
141
0.0
142
1.0
143
1.0
 70
   688
 72
     0
 73
     0
 74
     5
  7

 75
    16
147
1.0
148
0.0
149
0.0
100
AcDbLayout
  1
ﾚｲｱｳﾄ2
 70
     1
 71
     2
 10
0.0
 20
0.0
 11
12.0
 21
9.0
 12
0.0
 22
0.0
 32
0.0
 14
0.0
 24
0.0
 34
0.0
 15
0.0
 25
0.0
 35
0.0
146
0.0
 13
0.0
 23
0.0
 33
0.0
 16
1.0
 26
0.0
 36
0.0
 17
0.0
 27
1.0
 37
0.0
 76
     0
330
23
  0
MLINESTYLE
  5
18
102
{ACAD_REACTORS
330
17
102
}
330
17
100
AcDbMlineStyle
  2
STANDARD
 70
     0
  3

 62
   256
 51
90.0
 52
90.0
 71
     2
 49
0.5
 62
   256
  6
BYLAYER
 49
-0.5
 62
   256
  6
BYLAYER
  0
ACDBPLACEHOLDER
  5
F
102
{ACAD_REACTORS
330
E
102
}
330
E
  0
DICTIONARYVAR
  5
934
102
{ACAD_REACTORS
330
932
102
}
330
932
100
DictionaryVariables
280
     0
  1
2
  0
DICTIONARYVAR
  5
933
102
{ACAD_REACTORS
330
932
102
}
330
932
100
DictionaryVariables
280
     0
  1
1
  0
ENDSEC
  0
EOF
