  0
SECTION
  2
HEADER
  9
$ACADVER
  1
AC1015
  9
$ACADMAINTVER
 70
    13
  9
$DWGCODEPAGE
  3
ANSI_932
  9
$INSBASE
 10
0.0
 20
0.0
 30
0.0
  9
$EXTMIN
 10
1070.183503036561
 20
1433.404788170446
 30
-0.0000000000112497
  9
$EXTMAX
 10
25447.25961980549
 20
29103.78919789872
 30
0.0000000000002956
  9
$LIMMIN
 10
0.0
 20
0.0
  9
$LIMMAX
 10
420.0
 20
297.0
  9
$ORTHOMODE
 70
     0
  9
$REGENMODE
 70
     1
  9
$FILLMODE
 70
     1
  9
$QTEXTMODE
 70
     0
  9
$MIRRTEXT
 70
     1
  9
$LTSCALE
 40
1.0
  9
$ATTMODE
 70
     1
  9
$TEXTSIZE
 40
2.5
  9
$TRACEWID
 40
1.0
  9
$TEXTSTYLE
  7
STANDARD
  9
$CLAYER
  8
0
  9
$CELTYPE
  6
BYLAYER
  9
$CECOLOR
 62
   256
  9
$CELTSCALE
 40
1.0
  9
$DISPSILH
 70
     0
  9
$DIMSCALE
 40
1.0
  9
$DIMASZ
 40
2.5
  9
$DIMEXO
 40
0.625
  9
$DIMDLI
 40
3.75
  9
$DIMRND
 40
0.0
  9
$DIMDLE
 40
0.0
  9
$DIMEXE
 40
1.25
  9
$DIMTP
 40
0.0
  9
$DIMTM
 40
0.0
  9
$DIMTXT
 40
2.5
  9
$DIMCEN
 40
2.5
  9
$DIMTSZ
 40
0.0
  9
$DIMTOL
 70
     0
  9
$DIMLIM
 70
     0
  9
$DIMTIH
 70
     0
  9
$DIMTOH
 70
     0
  9
$DIMSE1
 70
     0
  9
$DIMSE2
 70
     0
  9
$DIMTAD
 70
     1
  9
$DIMZIN
 70
     8
  9
$DIMBLK
  1

  9
$DIMASO
 70
     1
  9
$DIMSHO
 70
     1
  9
$DIMPOST
  1

  9
$DIMAPOST
  1

  9
$DIMALT
 70
     0
  9
$DIMALTD
 70
     3
  9
$DIMALTF
 40
0.03937007874016
  9
$DIMLFAC
 40
1.0
  9
$DIMTOFL
 70
     1
  9
$DIMTVP
 40
0.0
  9
$DIMTIX
 70
     0
  9
$DIMSOXD
 70
     0
  9
$DIMSAH
 70
     0
  9
$DIMBLK1
  1

  9
$DIMBLK2
  1

  9
$DIMSTYLE
  2
ISO-25
  9
$DIMCLRD
 70
     0
  9
$DIMCLRE
 70
     0
  9
$DIMCLRT
 70
     0
  9
$DIMTFAC
 40
1.0
  9
$DIMGAP
 40
0.625
  9
$DIMJUST
 70
     0
  9
$DIMSD1
 70
     0
  9
$DIMSD2
 70
     0
  9
$DIMTOLJ
 70
     0
  9
$DIMTZIN
 70
     8
  9
$DIMALTZ
 70
     0
  9
$DIMALTTZ
 70
     0
  9
$DIMUPT
 70
     0
  9
$DIMDEC
 70
     2
  9
$DIMTDEC
 70
     2
  9
$DIMALTU
 70
     2
  9
$DIMALTTD
 70
     3
  9
$DIMTXSTY
  7
STANDARD
  9
$DIMAUNIT
 70
     0
  9
$DIMADEC
 70
     0
  9
$DIMALTRND
 40
0.0
  9
$DIMAZIN
 70
     0
  9
$DIMDSEP
 70
    46
  9
$DIMATFIT
 70
     3
  9
$DIMFRAC
 70
     0
  9
$DIMLDRBLK
  1

  9
$DIMLUNIT
 70
     2
  9
$DIMLWD
 70
    -2
  9
$DIMLWE
 70
    -2
  9
$DIMTMOVE
 70
     0
  9
$LUNITS
 70
     2
  9
$LUPREC
 70
     4
  9
$SKETCHINC
 40
1.0
  9
$FILLETRAD
 40
10.0
  9
$AUNITS
 70
     0
  9
$AUPREC
 70
     0
  9
$MENU
  1
.
  9
$ELEVATION
 40
0.0
  9
$PELEVATION
 40
0.0
  9
$THICKNESS
 40
0.0
  9
$LIMCHECK
 70
     0
  9
$CHAMFERA
 40
10.0
  9
$CHAMFERB
 40
10.0
  9
$CHAMFERC
 40
20.0
  9
$CHAMFERD
 40
0.0
  9
$SKPOLY
 70
     0
  9
$TDCREATE
 40
2455236.663561527
  9
$TDUCREATE
 40
2455236.288561527
  9
$TDUPDATE
 40
2455289.674705324
  9
$TDUUPDATE
 40
2455289.299705324
  9
$TDINDWG
 40
0.0115075116
  9
$TDUSRTIMER
 40
0.0115073264
  9
$USRTIMER
 70
     1
  9
$ANGBASE
 50
0.0
  9
$ANGDIR
 70
     0
  9
$PDMODE
 70
     0
  9
$PDSIZE
 40
0.0
  9
$PLINEWID
 40
0.0
  9
$SPLFRAME
 70
     0
  9
$SPLINETYPE
 70
     6
  9
$SPLINESEGS
 70
     8
  9
$HANDSEED
  5
360E
  9
$SURFTAB1
 70
     6
  9
$SURFTAB2
 70
     6
  9
$SURFTYPE
 70
     6
  9
$SURFU
 70
     6
  9
$SURFV
 70
     6
  9
$UCSBASE
  2

  9
$UCSNAME
  2

  9
$UCSORG
 10
0.0
 20
0.0
 30
0.0
  9
$UCSXDIR
 10
1.0
 20
0.0
 30
0.0
  9
$UCSYDIR
 10
0.0
 20
1.0
 30
0.0
  9
$UCSORTHOREF
  2

  9
$UCSORTHOVIEW
 70
     0
  9
$UCSORGTOP
 10
0.0
 20
0.0
 30
0.0
  9
$UCSORGBOTTOM
 10
0.0
 20
0.0
 30
0.0
  9
$UCSORGLEFT
 10
0.0
 20
0.0
 30
0.0
  9
$UCSORGRIGHT
 10
0.0
 20
0.0
 30
0.0
  9
$UCSORGFRONT
 10
0.0
 20
0.0
 30
0.0
  9
$UCSORGBACK
 10
0.0
 20
0.0
 30
0.0
  9
$PUCSBASE
  2

  9
$PUCSNAME
  2

  9
$PUCSORG
 10
0.0
 20
0.0
 30
0.0
  9
$PUCSXDIR
 10
1.0
 20
0.0
 30
0.0
  9
$PUCSYDIR
 10
0.0
 20
1.0
 30
0.0
  9
$PUCSORTHOREF
  2

  9
$PUCSORTHOVIEW
 70
     0
  9
$PUCSORGTOP
 10
0.0
 20
0.0
 30
0.0
  9
$PUCSORGBOTTOM
 10
0.0
 20
0.0
 30
0.0
  9
$PUCSORGLEFT
 10
0.0
 20
0.0
 30
0.0
  9
$PUCSORGRIGHT
 10
0.0
 20
0.0
 30
0.0
  9
$PUCSORGFRONT
 10
0.0
 20
0.0
 30
0.0
  9
$PUCSORGBACK
 10
0.0
 20
0.0
 30
0.0
  9
$USERI1
 70
     0
  9
$USERI2
 70
     0
  9
$USERI3
 70
     0
  9
$USERI4
 70
     0
  9
$USERI5
 70
     0
  9
$USERR1
 40
0.0
  9
$USERR2
 40
0.0
  9
$USERR3
 40
0.0
  9
$USERR4
 40
0.0
  9
$USERR5
 40
0.0
  9
$WORLDVIEW
 70
     1
  9
$SHADEDGE
 70
     3
  9
$SHADEDIF
 70
    70
  9
$TILEMODE
 70
     1
  9
$MAXACTVP
 70
    64
  9
$PINSBASE
 10
0.0
 20
0.0
 30
0.0
  9
$PLIMCHECK
 70
     0
  9
$PEXTMIN
 10
1.000000000000000E+20
 20
1.000000000000000E+20
 30
1.000000000000000E+20
  9
$PEXTMAX
 10
-1.000000000000000E+20
 20
-1.000000000000000E+20
 30
-1.000000000000000E+20
  9
$PLIMMIN
 10
0.0
 20
0.0
  9
$PLIMMAX
 10
420.0
 20
297.0
  9
$UNITMODE
 70
     0
  9
$VISRETAIN
 70
     1
  9
$PLINEGEN
 70
     0
  9
$PSLTSCALE
 70
     1
  9
$TREEDEPTH
 70
  3020
  9
$CMLSTYLE
  2
STANDARD
  9
$CMLJUST
 70
     0
  9
$CMLSCALE
 40
20.0
  9
$PROXYGRAPHICS
 70
     1
  9
$MEASUREMENT
 70
     1
  9
$CELWEIGHT
370
    -1
  9
$ENDCAPS
280
     0
  9
$JOINSTYLE
280
     0
  9
$LWDISPLAY
290
     0
  9
$INSUNITS
 70
     4
  9
$HYPERLINKBASE
  1

  9
$STYLESHEET
  1

  9
$XEDIT
290
     1
  9
$CEPSNTYPE
380
     0
  9
$PSTYLEMODE
290
     1
  9
$FINGERPRINTGUID
  2
{55D281FF-F51E-4FF9-9C6C-9C21EC1AA7A1}
  9
$VERSIONGUID
  2
{C818D967-48EC-43C1-8319-1750048B53D9}
  9
$EXTNAMES
290
     1
  9
$PSVPSCALE
 40
0.0
  9
$OLESTARTUP
290
     0
  0
ENDSEC
  0
SECTION
  2
CLASSES
  0
CLASS
  1
ACDBDICTIONARYWDFLT
  2
AcDbDictionaryWithDefault
  3
AutoCAD 2000
 90
        0
280
     0
281
     0
  0
CLASS
  1
ACDBPLACEHOLDER
  2
AcDbPlaceHolder
  3
AutoCAD 2000
 90
        0
280
     0
281
     0
  0
CLASS
  1
LAYOUT
  2
AcDbLayout
  3
AutoCAD 2000
 90
        0
280
     0
281
     0
  0
CLASS
  1
DICTIONARYVAR
  2
AcDbDictionaryVar
  3
AutoCAD 2000
 90
        0
280
     0
281
     0
  0
CLASS
  1
LONG_TRANSACTION
  2
AcDbLongTransaction
  3
AutoCAD 2000
 90
    32768
280
     0
281
     0
  0
CLASS
  1
LWPOLYLINE
  2
AcDbPolyline
  3
AutoCAD 2000
 90
    32768
280
     0
281
     1
  0
CLASS
  1
HATCH
  2
AcDbHatch
  3
AutoCAD 2000
 90
    32768
280
     0
281
     1
  0
CLASS
  1
XRECORD
  2
AcDbXrecord
  3
AutoCAD 2000
 90
    32768
280
     0
281
     0
  0
ENDSEC
  0
SECTION
  2
TABLES
  0
TABLE
  2
VPORT
  5
8
330
0
100
AcDbSymbolTable
 70
     5
  0
VPORT
  5
360D
330
8
100
AcDbSymbolTableRecord
100
AcDbViewportTableRecord
  2
*Active
 70
     0
 10
0.0
 20
0.0
 11
1.0
 21
1.0
 12
16476.18870426411
 22
10024.01705451191
 13
0.0
 23
0.0
 14
10.0
 24
10.0
 15
10.0
 25
10.0
 16
0.0
 26
0.0
 36
1.0
 17
0.0
 27
0.0
 37
0.0
 40
41737.37769316902
 41
1.732217573221757
 42
50.0
 43
0.0
 44
0.0
 50
0.0
 51
0.0
 71
     0
 72
   100
 73
     1
 74
     3
 75
     0
 76
     0
 77
     0
 78
     0
281
     0
 65
     1
110
0.0
120
0.0
130
0.0
111
1.0
121
0.0
131
0.0
112
0.0
122
1.0
132
0.0
 79
     0
146
0.0
  0
ENDTAB
  0
TABLE
  2
LTYPE
  5
5
330
0
100
AcDbSymbolTable
 70
     4
  0
LTYPE
  5
14
330
5
100
AcDbSymbolTableRecord
100
AcDbLinetypeTableRecord
  2
BYBLOCK
 70
     0
  3

 72
    65
 73
     0
 40
0.0
  0
LTYPE
  5
15
330
5
100
AcDbSymbolTableRecord
100
AcDbLinetypeTableRecord
  2
BYLAYER
 70
     0
  3

 72
    65
 73
     0
 40
0.0
  0
LTYPE
  5
16
330
5
100
AcDbSymbolTableRecord
100
AcDbLinetypeTableRecord
  2
CONTINUOUS
 70
     0
  3
Solid line
 72
    65
 73
     0
 40
0.0
  0
LTYPE
  5
373
330
5
100
AcDbSymbolTableRecord
100
AcDbLinetypeTableRecord
  2
DOT
 70
     0
  3
････････････････････････
 72
    65
 73
     2
 40
8.0
 49
6.0
 74
     0
 49
-2.0
 74
     0
  0
LTYPE
  5
208A
330
5
100
AcDbSymbolTableRecord
100
AcDbLinetypeTableRecord
  2
DASHDOT
 70
     0
  3
--･--･--･--･--･--･--･--
 72
    65
 73
     4
 40
50.5
 49
30.0
 74
     0
 49
-9.0
 74
     0
 49
2.5
 74
     0
 49
-9.0
 74
     0
  0
LTYPE
  5
253D
330
5
100
AcDbSymbolTableRecord
100
AcDbLinetypeTableRecord
  2
HIDDEN
 70
     0
  3
------------------------
 72
    65
 73
     2
 40
12.6
 49
8.4
 74
     0
 49
-4.2
 74
     0
  0
ENDTAB
  0
TABLE
  2
LAYER
  5
2
102
{ACAD_XDICTIONARY
360
73
102
}
330
0
100
AcDbSymbolTable
 70
     3
  0
LAYER
  5
10
330
2
100
AcDbSymbolTableRecord
100
AcDbLayerTableRecord
  2
0
 70
     0
 62
     7
  6
CONTINUOUS
370
    -3
390
F
  0
LAYER
  5
6E
330
2
100
AcDbSymbolTableRecord
100
AcDbLayerTableRecord
  2
1
 70
     0
 62
     7
  6
CONTINUOUS
370
    -3
390
F
  0
LAYER
  5
6F
330
2
100
AcDbSymbolTableRecord
100
AcDbLayerTableRecord
  2
DEFPOINTS
 70
     0
 62
     7
  6
CONTINUOUS
290
     0
370
    -3
390
F
  0
ENDTAB
  0
TABLE
  2
STYLE
  5
3
330
0
100
AcDbSymbolTable
 70
     2
  0
STYLE
  5
11
330
3
100
AcDbSymbolTableRecord
100
AcDbTextStyleTableRecord
  2
STANDARD
 70
     0
 40
0.0
 41
1.0
 50
0.0
 71
     0
 42
2.5
  3
txt
  4

  0
STYLE
  5
70
330
3
100
AcDbSymbolTableRecord
100
AcDbTextStyleTableRecord
  2
KANJI
 70
     0
 40
0.0
 41
1.0
 50
0.0
 71
     0
 42
0.2
  3
TXT
  4
BIGFONT
  0
ENDTAB
  0
TABLE
  2
VIEW
  5
6
330
0
100
AcDbSymbolTable
 70
     0
  0
ENDTAB
  0
TABLE
  2
UCS
  5
7
330
0
100
AcDbSymbolTable
 70
     0
  0
ENDTAB
  0
TABLE
  2
APPID
  5
9
330
0
100
AcDbSymbolTable
 70
     2
  0
APPID
  5
12
330
9
100
AcDbSymbolTableRecord
100
AcDbRegAppTableRecord
  2
ACAD
 70
     0
  0
APPID
  5
72
330
9
100
AcDbSymbolTableRecord
100
AcDbRegAppTableRecord
  2
ACAD_PSEXT
 70
     0
  0
ENDTAB
  0
TABLE
  2
DIMSTYLE
  5
A
330
0
100
AcDbSymbolTable
 70
     2
100
AcDbDimStyleTable
 71
     0
  0
DIMSTYLE
105
27
330
A
100
AcDbSymbolTableRecord
100
AcDbDimStyleTableRecord
  2
ISO-25
 70
     0
 41
2.5
 42
0.625
 43
3.75
 44
1.25
 73
     0
 74
     0
 77
     1
 78
     8
140
2.5
141
2.5
143
0.03937007874016
147
0.625
171
     3
172
     1
271
     2
272
     2
274
     3
283
     0
284
     8
340
11
  0
DIMSTYLE
105
71
102
{ACAD_REACTORS
330
356F
330
3570
330
3571
330
3572
330
3573
330
3574
330
3575
102
}
330
A
100
AcDbSymbolTableRecord
100
AcDbDimStyleTableRecord
  2
STANDARD
 70
     0
340
11
  0
ENDTAB
  0
TABLE
  2
BLOCK_RECORD
  5
1
330
0
100
AcDbSymbolTable
 70
   113
  0
BLOCK_RECORD
  5
1F
102
{ACAD_XDICTIONARY
360
2CF6
102
}
330
1
100
AcDbSymbolTableRecord
100
AcDbBlockTableRecord
  2
*MODEL_SPACE
340
2D47
  0
BLOCK_RECORD
  5
1B
102
{ACAD_XDICTIONARY
360
2CF4
102
}
330
1
100
AcDbSymbolTableRecord
100
AcDbBlockTableRecord
  2
*PAPER_SPACE
340
2D48
  0
BLOCK_RECORD
  5
2B
330
1
100
AcDbSymbolTableRecord
100
AcDbBlockTableRecord
  2
_OPEN30
340
0
102
{BLKREFS
331
36
331
37
331
42
331
43
331
4E
331
4F
331
5A
331
5B
331
66
331
67
331
30F
331
310
331
318
331
319
331
321
331
322
331
32A
331
32B
331
333
331
334
331
346
331
347
331
352
331
353
331
35E
331
35F
331
36B
331
36C
331
CD7
331
CD8
331
CE0
331
CE1
331
CE9
331
CEA
331
CF3
331
CF4
331
D49
331
D4A
331
D55
331
D56
331
D61
331
D62
331
D6E
331
D6F
331
1656
331
1657
331
165F
331
1660
331
1668
331
1669
331
1672
331
1673
331
16C8
331
16C9
331
16D4
331
16D5
331
16E0
331
16E1
331
16ED
331
16EE
331
1FDF
331
1FE0
331
1FE8
331
1FE9
331
1FF1
331
1FF2
331
1FFB
331
1FFC
331
2051
331
2052
331
205D
331
205E
331
206A
331
206B
331
2076
331
2077
331
2082
331
2083
331
2269
331
226A
331
2272
331
2273
331
227C
331
227D
331
2285
331
2286
331
228E
331
228F
331
22ED
331
22EE
331
22F9
331
22FA
331
2306
331
2307
331
2312
331
2313
331
231E
331
231F
331
245C
331
245D
331
2465
331
2466
331
246F
331
2470
331
2478
331
2479
331
2481
331
2482
331
24E0
331
24E1
331
24EC
331
24ED
331
24F8
331
24F9
331
2504
331
2505
331
2510
331
2511
331
251D
331
251E
331
2529
331
252A
331
2535
331
2536
331
294C
331
294D
331
2955
331
2956
331
295E
331
295F
331
2CFD
331
2CFE
331
2D06
331
2D07
331
2D10
331
2D11
331
2D19
331
2D1A
331
2D22
331
2D23
331
2A06
331
2A07
331
2A12
331
2A13
331
2A1E
331
2A1F
331
2D2B
331
2D2C
331
2D34
331
2D35
331
2D3D
331
2D3E
331
2D6B
331
2D6C
331
2D53
331
2D54
331
2D5F
331
2D60
331
2EE9
331
2EEA
331
2EF5
331
2EF6
331
2F01
331
2F02
331
2F0C
331
2F0D
331
2F15
331
2F16
331
2F1E
331
2F1F
331
2F29
331
2F2A
331
2F35
331
2F36
331
2F41
331
2F42
331
30BF
331
30C0
331
30CB
331
30CC
331
30D7
331
30D8
331
30E2
331
30E3
331
30EB
331
30EC
331
30F4
331
30F5
331
311C
331
311D
331
3128
331
3129
331
3134
331
3135
331
3258
331
3259
331
3264
331
3265
331
3270
331
3271
331
327B
331
327C
331
3284
331
3285
331
328D
331
328E
331
32A4
331
32A5
331
3298
331
3299
331
32B0
331
32B1
331
32BC
331
32BD
331
32C9
331
32CA
331
32D6
331
32D7
331
32E2
331
32E3
331
357A
331
357B
331
3586
331
3587
331
3592
331
3593
331
359E
331
359F
331
35AB
331
35AC
331
35B8
331
35B9
331
35C4
331
35C5
331
35CF
331
35D0
331
35D8
331
35D9
331
35E1
331
35E2
331
35EA
331
35EB
331
35F4
331
35F5
331
35FE
331
35FF
331
3607
331
3608
102
}
  0
BLOCK_RECORD
  5
2D4F
330
1
100
AcDbSymbolTableRecord
100
AcDbBlockTableRecord
  2
*D77
340
0
  0
BLOCK_RECORD
  5
2D5B
330
1
100
AcDbSymbolTableRecord
100
AcDbBlockTableRecord
  2
*D78
340
0
  0
BLOCK_RECORD
  5
2D67
330
1
100
AcDbSymbolTableRecord
100
AcDbBlockTableRecord
  2
*D79
340
0
  0
BLOCK_RECORD
  5
2EE5
330
1
100
AcDbSymbolTableRecord
100
AcDbBlockTableRecord
  2
*D81
340
0
  0
BLOCK_RECORD
  5
2EF1
330
1
100
AcDbSymbolTableRecord
100
AcDbBlockTableRecord
  2
*D82
340
0
  0
BLOCK_RECORD
  5
2EFD
330
1
100
AcDbSymbolTableRecord
100
AcDbBlockTableRecord
  2
*D83
340
0
  0
BLOCK_RECORD
  5
2F25
330
1
100
AcDbSymbolTableRecord
100
AcDbBlockTableRecord
  2
*D84
340
0
  0
BLOCK_RECORD
  5
2F31
330
1
100
AcDbSymbolTableRecord
100
AcDbBlockTableRecord
  2
*D85
340
0
  0
BLOCK_RECORD
  5
2F3D
330
1
100
AcDbSymbolTableRecord
100
AcDbBlockTableRecord
  2
*D86
340
0
  0
BLOCK_RECORD
  5
30BB
330
1
100
AcDbSymbolTableRecord
100
AcDbBlockTableRecord
  2
*D88
340
0
  0
BLOCK_RECORD
  5
30C7
330
1
100
AcDbSymbolTableRecord
100
AcDbBlockTableRecord
  2
*D89
340
0
  0
BLOCK_RECORD
  5
30D3
330
1
100
AcDbSymbolTableRecord
100
AcDbBlockTableRecord
  2
*D90
340
0
  0
BLOCK_RECORD
  5
3118
330
1
100
AcDbSymbolTableRecord
100
AcDbBlockTableRecord
  2
*D91
340
0
  0
BLOCK_RECORD
  5
3124
330
1
100
AcDbSymbolTableRecord
100
AcDbBlockTableRecord
  2
*D92
340
0
  0
BLOCK_RECORD
  5
3130
330
1
100
AcDbSymbolTableRecord
100
AcDbBlockTableRecord
  2
*D93
340
0
  0
BLOCK_RECORD
  5
3254
330
1
100
AcDbSymbolTableRecord
100
AcDbBlockTableRecord
  2
*D95
340
0
  0
BLOCK_RECORD
  5
3260
330
1
100
AcDbSymbolTableRecord
100
AcDbBlockTableRecord
  2
*D96
340
0
  0
BLOCK_RECORD
  5
326C
330
1
100
AcDbSymbolTableRecord
100
AcDbBlockTableRecord
  2
*D97
340
0
  0
BLOCK_RECORD
  5
3294
330
1
100
AcDbSymbolTableRecord
100
AcDbBlockTableRecord
  2
*D98
340
0
  0
BLOCK_RECORD
  5
32A0
330
1
100
AcDbSymbolTableRecord
100
AcDbBlockTableRecord
  2
*D99
340
0
  0
BLOCK_RECORD
  5
32AC
330
1
100
AcDbSymbolTableRecord
100
AcDbBlockTableRecord
  2
*D100
340
0
  0
BLOCK_RECORD
  5
32B8
330
1
100
AcDbSymbolTableRecord
100
AcDbBlockTableRecord
  2
*D101
340
0
  0
BLOCK_RECORD
  5
32C4
330
1
100
AcDbSymbolTableRecord
100
AcDbBlockTableRecord
  2
*D102
340
0
  0
BLOCK_RECORD
  5
32D1
330
1
100
AcDbSymbolTableRecord
100
AcDbBlockTableRecord
  2
*D103
340
0
  0
BLOCK_RECORD
  5
32DE
330
1
100
AcDbSymbolTableRecord
100
AcDbBlockTableRecord
  2
*D104
340
0
  0
BLOCK_RECORD
  5
3576
330
1
100
AcDbSymbolTableRecord
100
AcDbBlockTableRecord
  2
*D106
340
0
  0
BLOCK_RECORD
  5
3582
330
1
100
AcDbSymbolTableRecord
100
AcDbBlockTableRecord
  2
*D107
340
0
  0
BLOCK_RECORD
  5
358E
330
1
100
AcDbSymbolTableRecord
100
AcDbBlockTableRecord
  2
*D108
340
0
  0
BLOCK_RECORD
  5
359A
330
1
100
AcDbSymbolTableRecord
100
AcDbBlockTableRecord
  2
*D109
340
0
  0
BLOCK_RECORD
  5
35A6
330
1
100
AcDbSymbolTableRecord
100
AcDbBlockTableRecord
  2
*D110
340
0
  0
BLOCK_RECORD
  5
35B3
330
1
100
AcDbSymbolTableRecord
100
AcDbBlockTableRecord
  2
*D111
340
0
  0
BLOCK_RECORD
  5
35C0
330
1
100
AcDbSymbolTableRecord
100
AcDbBlockTableRecord
  2
*D112
340
0
  0
ENDTAB
  0
ENDSEC
  0
SECTION
  2
BLOCKS
  0
BLOCK
  5
20
330
1F
100
AcDbEntity
  8
0
100
AcDbBlockBegin
  2
*MODEL_SPACE
 70
     0
 10
0.0
 20
0.0
 30
0.0
  3
*MODEL_SPACE
  1

  0
ENDBLK
  5
21
330
1F
100
AcDbEntity
  8
0
100
AcDbBlockEnd
  0
BLOCK
  5
1C
330
1B
100
AcDbEntity
 67
     1
  8
0
100
AcDbBlockBegin
  2
*PAPER_SPACE
 70
     0
 10
0.0
 20
0.0
 30
0.0
  3
*PAPER_SPACE
  1

  0
ENDBLK
  5
1D
330
1B
100
AcDbEntity
 67
     1
  8
0
100
AcDbBlockEnd
  0
BLOCK
  5
2F
330
2B
100
AcDbEntity
  8
0
 62
     0
100
AcDbBlockBegin
  2
_OPEN30
 70
     2
 10
0.0
 20
0.0
 30
0.0
  3
_OPEN30
  1

  0
LINE
  5
2C
330
2B
100
AcDbEntity
  8
0
  6
ByBlock
 62
     0
100
AcDbLine
 10
-1.0
 20
0.267949
 30
0.0
 11
0.0
 21
0.0
 31
0.0
  0
LINE
  5
2D
330
2B
100
AcDbEntity
  8
0
  6
ByBlock
 62
     0
100
AcDbLine
 10
0.0
 20
0.0
 30
0.0
 11
-1.0
 21
-0.267949
 31
0.0
  0
LINE
  5
2E
330
2B
100
AcDbEntity
  8
0
  6
ByBlock
 62
     0
100
AcDbLine
 10
0.0
 20
0.0
 30
0.0
 11
-1.0
 21
0.0
 31
0.0
  0
ENDBLK
  5
30
330
2B
100
AcDbEntity
  8
0
 62
     0
100
AcDbBlockEnd
  0
BLOCK
  5
2D59
330
2D4F
100
AcDbEntity
  8
0
100
AcDbBlockBegin
  2
*D77
 70
     1
 10
0.0
 20
0.0
 30
0.0
  3
*D77
  1

  0
LINE
  5
2D50
330
2D4F
100
AcDbEntity
  8
1
  6
Continuous
 62
     0
370
    -2
100
AcDbLine
 10
49158.27985882709
 20
106888.8315697247
 30
0.0
 11
50657.01383562151
 21
106888.8315697247
 31
0.0
  0
LINE
  5
2D51
330
2D4F
100
AcDbEntity
  8
1
  6
Continuous
 62
     0
370
    -2
100
AcDbLine
 10
49158.27985882709
 20
100417.4209617567
 30
0.0
 11
50657.01383562151
 21
100417.4209617567
 31
0.0
  0
LINE
  5
2D52
330
2D4F
100
AcDbEntity
  8
1
  6
Continuous
 62
     0
370
    -2
100
AcDbLine
 10
50656.8338356215
 20
106388.8315697247
 30
0.0
 11
50656.8338356215
 21
100917.4209617567
 31
0.0
  0
INSERT
  5
2D53
330
2D4F
100
AcDbEntity
  8
1
  6
Continuous
 62
     0
370
    -2
100
AcDbBlockReference
  2
_OPEN30
 10
50656.8338356215
 20
106888.8315697247
 30
0.0
 41
500.0
 42
500.0
 43
500.0
 50
90.0
  0
INSERT
  5
2D54
330
2D4F
100
AcDbEntity
  8
1
  6
Continuous
 62
     0
370
    -2
100
AcDbBlockReference
  2
_OPEN30
 10
50656.8338356215
 20
100417.4209617567
 30
0.0
 41
500.0
 42
500.0
 43
500.0
 50
270.0
  0
MTEXT
  5
2D55
330
2D4F
100
AcDbEntity
  8
1
  6
Continuous
 62
     0
370
    13
100
AcDbMText
 10
50406.83383562149
 20
103653.1262657407
 30
0.0
 40
400.0
 41
0.0
 71
     5
 72
     1
  1
\A1;200
 11
0.0000000000000001
 21
1.0
 31
0.0
 73
     1
 44
1.0
  0
POINT
  5
2D56
330
2D4F
100
AcDbEntity
  8
DEFPOINTS
  6
Continuous
 62
     0
100
AcDbPoint
 10
49158.21735882709
 20
106888.8315697247
 30
0.0
  0
POINT
  5
2D57
330
2D4F
100
AcDbEntity
  8
DEFPOINTS
  6
Continuous
 62
     0
100
AcDbPoint
 10
49158.21735882709
 20
100417.4209617567
 30
0.0
  0
POINT
  5
2D58
330
2D4F
100
AcDbEntity
  8
DEFPOINTS
  6
Continuous
 62
     0
100
AcDbPoint
 10
50656.8338356215
 20
100417.4209617567
 30
0.0
  0
ENDBLK
  5
2D5A
330
2D4F
100
AcDbEntity
  8
0
100
AcDbBlockEnd
  0
BLOCK
  5
2D65
330
2D5B
100
AcDbEntity
  8
0
100
AcDbBlockBegin
  2
*D78
 70
     1
 10
0.0
 20
0.0
 30
0.0
  3
*D78
  1

  0
LINE
  5
2D5C
330
2D5B
100
AcDbEntity
  8
1
  6
Continuous
 62
     0
370
    -2
100
AcDbLine
 10
51731.05036258003
 20
106888.8940697247
 30
0.0
 11
51731.05036258003
 21
108617.4304234104
 31
0.0
  0
LINE
  5
2D5D
330
2D5B
100
AcDbEntity
  8
1
  6
Continuous
 62
     0
370
    -2
100
AcDbLine
 10
54643.21326116583
 20
106886.8521113846
 30
0.0
 11
54643.21326116583
 21
108617.4304234104
 31
0.0
  0
LINE
  5
2D5E
330
2D5B
100
AcDbEntity
  8
1
  6
Continuous
 62
     0
370
    -2
100
AcDbLine
 10
52231.05036258004
 20
108617.2504234104
 30
0.0
 11
54143.21326116583
 21
108617.2504234104
 31
0.0
  0
INSERT
  5
2D5F
330
2D5B
100
AcDbEntity
  8
1
  6
Continuous
 62
     0
370
    -2
100
AcDbBlockReference
  2
_OPEN30
 10
51731.05036258003
 20
108617.2504234104
 30
0.0
 41
500.0
 42
500.0
 43
500.0
 50
180.0
  0
INSERT
  5
2D60
330
2D5B
100
AcDbEntity
  8
1
  6
Continuous
 62
     0
370
    -2
100
AcDbBlockReference
  2
_OPEN30
 10
54643.21326116583
 20
108617.2504234104
 30
0.0
 41
500.0
 42
500.0
 43
500.0
  0
MTEXT
  5
2D61
330
2D5B
100
AcDbEntity
  8
1
  6
Continuous
 62
     0
370
    13
100
AcDbMText
 10
53187.13181187293
 20
108867.2504234104
 30
0.0
 40
400.0
 41
0.0
 71
     5
 72
     1
  1
\A1;90
 73
     1
 44
1.0
  0
POINT
  5
2D62
330
2D5B
100
AcDbEntity
  8
DEFPOINTS
  6
Continuous
 62
     0
100
AcDbPoint
 10
51731.05036258003
 20
106888.8315697247
 30
0.0
  0
POINT
  5
2D63
330
2D5B
100
AcDbEntity
  8
DEFPOINTS
  6
Continuous
 62
     0
100
AcDbPoint
 10
54643.21326116583
 20
106886.7896113846
 30
0.0
  0
POINT
  5
2D64
330
2D5B
100
AcDbEntity
  8
DEFPOINTS
  6
Continuous
 62
     0
100
AcDbPoint
 10
54643.21326116583
 20
108617.2504234104
 30
0.0
  0
ENDBLK
  5
2D66
330
2D5B
100
AcDbEntity
  8
0
100
AcDbBlockEnd
  0
BLOCK
  5
2D71
330
2D67
100
AcDbEntity
  8
0
100
AcDbBlockBegin
  2
*D79
 70
     1
 10
0.0
 20
0.0
 30
0.0
  3
*D79
  1

  0
LINE
  5
2D68
330
2D67
100
AcDbEntity
  8
1
  6
Continuous
 62
     0
370
    -2
100
AcDbLine
 10
38156.77557528162
 20
106888.9565697247
 30
0.0
 11
38156.77557528162
 21
108617.4304234104
 31
0.0
  0
LINE
  5
2D69
330
2D67
100
AcDbEntity
  8
1
  6
Continuous
 62
     0
370
    -2
100
AcDbLine
 10
49158.27985882709
 20
106888.8940697247
 30
0.0
 11
49158.27985882709
 21
108617.4304234104
 31
0.0
  0
LINE
  5
2D6A
330
2D67
100
AcDbEntity
  8
1
  6
Continuous
 62
     0
370
    -2
100
AcDbLine
 10
38656.77557528162
 20
108617.2504234104
 30
0.0
 11
48658.2798588271
 21
108617.2504234104
 31
0.0
  0
INSERT
  5
2D6B
330
2D67
100
AcDbEntity
  8
1
  6
Continuous
 62
     0
370
    -2
100
AcDbBlockReference
  2
_OPEN30
 10
38156.77557528162
 20
108617.2504234104
 30
0.0
 41
500.0
 42
500.0
 43
500.0
 50
180.0
  0
INSERT
  5
2D6C
330
2D67
100
AcDbEntity
  8
1
  6
Continuous
 62
     0
370
    -2
100
AcDbBlockReference
  2
_OPEN30
 10
49158.27985882709
 20
108617.2504234104
 30
0.0
 41
500.0
 42
500.0
 43
500.0
  0
MTEXT
  5
2D6D
330
2D67
100
AcDbEntity
  8
1
  6
Continuous
 62
     0
370
    13
100
AcDbMText
 10
43657.52771705436
 20
108867.2504234104
 30
0.0
 40
400.0
 41
0.0
 71
     5
 72
     1
  1
\A1;340
 73
     1
 44
1.0
  0
POINT
  5
2D6E
330
2D67
100
AcDbEntity
  8
DEFPOINTS
  6
Continuous
 62
     0
100
AcDbPoint
 10
38156.77557528162
 20
106888.8940697247
 30
0.0
  0
POINT
  5
2D6F
330
2D67
100
AcDbEntity
  8
DEFPOINTS
  6
Continuous
 62
     0
100
AcDbPoint
 10
49158.27985882709
 20
106888.8315697247
 30
0.0
  0
POINT
  5
2D70
330
2D67
100
AcDbEntity
  8
DEFPOINTS
  6
Continuous
 62
     0
100
AcDbPoint
 10
49158.27985882709
 20
108617.2504234104
 30
0.0
  0
ENDBLK
  5
2D72
330
2D67
100
AcDbEntity
  8
0
100
AcDbBlockEnd
  0
BLOCK
  5
2EEF
330
2EE5
100
AcDbEntity
  8
0
100
AcDbBlockBegin
  2
*D81
 70
     1
 10
0.0
 20
0.0
 30
0.0
  3
*D81
  1

  0
LINE
  5
2F09
330
2EE5
100
AcDbEntity
  8
1
  6
Continuous
 62
     0
370
    -2
100
AcDbLine
 10
5547.964413223592
 20
19386.14472720505
 30
0.0
 11
5547.964413223592
 21
21114.61858089076
 31
0.0
  0
LINE
  5
2F0A
330
2EE5
100
AcDbEntity
  8
1
  6
Continuous
 62
     0
370
    -2
100
AcDbLine
 10
16549.46869676906
 20
19386.08222720505
 30
0.0
 11
16549.46869676906
 21
21114.61858089076
 31
0.0
  0
LINE
  5
2F0B
330
2EE5
100
AcDbEntity
  8
1
  6
Continuous
 62
     0
370
    -2
100
AcDbLine
 10
6047.964413223592
 20
21114.43858089077
 30
0.0
 11
16049.46869676906
 21
21114.43858089077
 31
0.0
  0
INSERT
  5
2F0C
330
2EE5
100
AcDbEntity
  8
1
  6
Continuous
 62
     0
370
    -2
100
AcDbBlockReference
  2
_OPEN30
 10
5547.964413223592
 20
21114.43858089077
 30
0.0
 41
500.0
 42
500.0
 43
500.0
 50
180.0
  0
INSERT
  5
2F0D
330
2EE5
100
AcDbEntity
  8
1
  6
Continuous
 62
     0
370
    -2
100
AcDbBlockReference
  2
_OPEN30
 10
16549.46869676906
 20
21114.43858089077
 30
0.0
 41
500.0
 42
500.0
 43
500.0
  0
MTEXT
  5
2F0E
330
2EE5
100
AcDbEntity
  8
1
  6
Continuous
 62
     0
370
    13
100
AcDbMText
 10
11048.71655499632
 20
21364.43858089076
 30
0.0
 40
400.0
 41
0.0
 71
     5
 72
     1
  1
\A1;340
 73
     1
 44
1.0
  0
POINT
  5
2F0F
330
2EE5
100
AcDbEntity
  8
DEFPOINTS
  6
Continuous
 62
     0
100
AcDbPoint
 10
5547.964413223592
 20
19386.08222720505
 30
0.0
  0
POINT
  5
2F10
330
2EE5
100
AcDbEntity
  8
DEFPOINTS
  6
Continuous
 62
     0
100
AcDbPoint
 10
16549.46869676906
 20
19386.01972720505
 30
0.0
  0
POINT
  5
2F11
330
2EE5
100
AcDbEntity
  8
DEFPOINTS
  6
Continuous
 62
     0
100
AcDbPoint
 10
16549.46869676906
 20
21114.43858089077
 30
0.0
  0
ENDBLK
  5
2EF0
330
2EE5
100
AcDbEntity
  8
0
100
AcDbBlockEnd
  0
BLOCK
  5
2EFB
330
2EF1
100
AcDbEntity
  8
0
100
AcDbBlockBegin
  2
*D82
 70
     1
 10
0.0
 20
0.0
 30
0.0
  3
*D82
  1

  0
LINE
  5
2F12
330
2EF1
100
AcDbEntity
  8
1
  6
Continuous
 62
     0
370
    -2
100
AcDbLine
 10
16549.46869676906
 20
19386.01972720505
 30
0.0
 11
18048.20267356346
 21
19386.01972720505
 31
0.0
  0
LINE
  5
2F13
330
2EF1
100
AcDbEntity
  8
1
  6
Continuous
 62
     0
370
    -2
100
AcDbLine
 10
16549.46869676906
 20
12914.60911923706
 30
0.0
 11
18048.20267356346
 21
12914.60911923706
 31
0.0
  0
LINE
  5
2F14
330
2EF1
100
AcDbEntity
  8
1
  6
Continuous
 62
     0
370
    -2
100
AcDbLine
 10
18048.02267356346
 20
18886.01972720505
 30
0.0
 11
18048.02267356346
 21
13414.60911923706
 31
0.0
  0
INSERT
  5
2F15
330
2EF1
100
AcDbEntity
  8
1
  6
Continuous
 62
     0
370
    -2
100
AcDbBlockReference
  2
_OPEN30
 10
18048.02267356346
 20
19386.01972720505
 30
0.0
 41
500.0
 42
500.0
 43
500.0
 50
90.0
  0
INSERT
  5
2F16
330
2EF1
100
AcDbEntity
  8
1
  6
Continuous
 62
     0
370
    -2
100
AcDbBlockReference
  2
_OPEN30
 10
18048.02267356346
 20
12914.60911923706
 30
0.0
 41
500.0
 42
500.0
 43
500.0
 50
270.0
  0
MTEXT
  5
2F17
330
2EF1
100
AcDbEntity
  8
1
  6
Continuous
 62
     0
370
    13
100
AcDbMText
 10
17798.02267356346
 20
16150.31442322106
 30
0.0
 40
400.0
 41
0.0
 71
     5
 72
     1
  1
\A1;200
 11
0.0000000000000001
 21
1.0
 31
0.0
 73
     1
 44
1.0
  0
POINT
  5
2F18
330
2EF1
100
AcDbEntity
  8
DEFPOINTS
  6
Continuous
 62
     0
100
AcDbPoint
 10
16549.40619676906
 20
19386.01972720505
 30
0.0
  0
POINT
  5
2F19
330
2EF1
100
AcDbEntity
  8
DEFPOINTS
  6
Continuous
 62
     0
100
AcDbPoint
 10
16549.40619676906
 20
12914.60911923706
 30
0.0
  0
POINT
  5
2F1A
330
2EF1
100
AcDbEntity
  8
DEFPOINTS
  6
Continuous
 62
     0
100
AcDbPoint
 10
18048.02267356346
 20
12914.60911923706
 30
0.0
  0
ENDBLK
  5
2EFC
330
2EF1
100
AcDbEntity
  8
0
100
AcDbBlockEnd
  0
BLOCK
  5
2F07
330
2EFD
100
AcDbEntity
  8
0
100
AcDbBlockBegin
  2
*D83
 70
     1
 10
0.0
 20
0.0
 30
0.0
  3
*D83
  1

  0
LINE
  5
2F1B
330
2EFD
100
AcDbEntity
  8
1
  6
Continuous
 62
     0
370
    -2
100
AcDbLine
 10
19122.239200522
 20
19386.08222720507
 30
0.0
 11
19122.239200522
 21
21114.61858089076
 31
0.0
  0
LINE
  5
2F1C
330
2EFD
100
AcDbEntity
  8
1
  6
Continuous
 62
     0
370
    -2
100
AcDbLine
 10
22034.40209910779
 20
19384.040268865
 30
0.0
 11
22034.40209910779
 21
21114.61858089076
 31
0.0
  0
LINE
  5
2F1D
330
2EFD
100
AcDbEntity
  8
1
  6
Continuous
 62
     0
370
    -2
100
AcDbLine
 10
19622.239200522
 20
21114.43858089077
 30
0.0
 11
21534.4020991078
 21
21114.43858089077
 31
0.0
  0
INSERT
  5
2F1E
330
2EFD
100
AcDbEntity
  8
1
  6
Continuous
 62
     0
370
    -2
100
AcDbBlockReference
  2
_OPEN30
 10
19122.239200522
 20
21114.43858089077
 30
0.0
 41
500.0
 42
500.0
 43
500.0
 50
180.0
  0
INSERT
  5
2F1F
330
2EFD
100
AcDbEntity
  8
1
  6
Continuous
 62
     0
370
    -2
100
AcDbBlockReference
  2
_OPEN30
 10
22034.40209910779
 20
21114.43858089077
 30
0.0
 41
500.0
 42
500.0
 43
500.0
  0
MTEXT
  5
2F20
330
2EFD
100
AcDbEntity
  8
1
  6
Continuous
 62
     0
370
    13
100
AcDbMText
 10
20578.3206498149
 20
21364.43858089076
 30
0.0
 40
400.0
 41
0.0
 71
     5
 72
     1
  1
\A1;90
 73
     1
 44
1.0
  0
POINT
  5
2F21
330
2EFD
100
AcDbEntity
  8
DEFPOINTS
  6
Continuous
 62
     0
100
AcDbPoint
 10
19122.239200522
 20
19386.01972720507
 30
0.0
  0
POINT
  5
2F22
330
2EFD
100
AcDbEntity
  8
DEFPOINTS
  6
Continuous
 62
     0
100
AcDbPoint
 10
22034.40209910779
 20
19383.977768865
 30
0.0
  0
POINT
  5
2F23
330
2EFD
100
AcDbEntity
  8
DEFPOINTS
  6
Continuous
 62
     0
100
AcDbPoint
 10
22034.40209910779
 20
21114.43858089077
 30
0.0
  0
ENDBLK
  5
2F08
330
2EFD
100
AcDbEntity
  8
0
100
AcDbBlockEnd
  0
BLOCK
  5
2F2F
330
2F25
100
AcDbEntity
  8
0
100
AcDbBlockBegin
  2
*D84
 70
     1
 10
0.0
 20
0.0
 30
0.0
  3
*D84
  1

  0
LINE
  5
2F26
330
2F25
100
AcDbEntity
  8
1
  6
Continuous
 62
     0
370
    -2
100
AcDbLine
 10
64408.71134680896
 20
106891.0609633494
 30
0.0
 11
64408.71134680896
 21
108619.5348170351
 31
0.0
  0
LINE
  5
2F27
330
2F25
100
AcDbEntity
  8
1
  6
Continuous
 62
     0
370
    -2
100
AcDbLine
 10
75410.21563035443
 20
106890.9984633494
 30
0.0
 11
75410.21563035443
 21
108619.5348170351
 31
0.0
  0
LINE
  5
2F28
330
2F25
100
AcDbEntity
  8
1
  6
Continuous
 62
     0
370
    -2
100
AcDbLine
 10
64908.71134680896
 20
108619.3548170351
 30
0.0
 11
74910.21563035443
 21
108619.3548170351
 31
0.0
  0
INSERT
  5
2F29
330
2F25
100
AcDbEntity
  8
1
  6
Continuous
 62
     0
370
    -2
100
AcDbBlockReference
  2
_OPEN30
 10
64408.71134680896
 20
108619.3548170351
 30
0.0
 41
500.0
 42
500.0
 43
500.0
 50
180.0
  0
INSERT
  5
2F2A
330
2F25
100
AcDbEntity
  8
1
  6
Continuous
 62
     0
370
    -2
100
AcDbBlockReference
  2
_OPEN30
 10
75410.21563035443
 20
108619.3548170351
 30
0.0
 41
500.0
 42
500.0
 43
500.0
  0
MTEXT
  5
2F2B
330
2F25
100
AcDbEntity
  8
1
  6
Continuous
 62
     0
370
    13
100
AcDbMText
 10
69909.46348858169
 20
108869.3548170351
 30
0.0
 40
400.0
 41
0.0
 71
     5
 72
     1
  1
\A1;340
 73
     1
 44
1.0
  0
POINT
  5
2F2C
330
2F25
100
AcDbEntity
  8
DEFPOINTS
  6
Continuous
 62
     0
100
AcDbPoint
 10
64408.71134680896
 20
106890.9984633494
 30
0.0
  0
POINT
  5
2F2D
330
2F25
100
AcDbEntity
  8
DEFPOINTS
  6
Continuous
 62
     0
100
AcDbPoint
 10
75410.21563035443
 20
106890.9359633494
 30
0.0
  0
POINT
  5
2F2E
330
2F25
100
AcDbEntity
  8
DEFPOINTS
  6
Continuous
 62
     0
100
AcDbPoint
 10
75410.21563035443
 20
108619.3548170351
 30
0.0
  0
ENDBLK
  5
2F30
330
2F25
100
AcDbEntity
  8
0
100
AcDbBlockEnd
  0
BLOCK
  5
2F3B
330
2F31
100
AcDbEntity
  8
0
100
AcDbBlockBegin
  2
*D85
 70
     1
 10
0.0
 20
0.0
 30
0.0
  3
*D85
  1

  0
LINE
  5
2F32
330
2F31
100
AcDbEntity
  8
1
  6
Continuous
 62
     0
370
    -2
100
AcDbLine
 10
75410.21563035443
 20
106890.9359633494
 30
0.0
 11
76908.94960714885
 21
106890.9359633494
 31
0.0
  0
LINE
  5
2F33
330
2F31
100
AcDbEntity
  8
1
  6
Continuous
 62
     0
370
    -2
100
AcDbLine
 10
75410.21563035443
 20
100419.5253553814
 30
0.0
 11
76908.94960714885
 21
100419.5253553814
 31
0.0
  0
LINE
  5
2F34
330
2F31
100
AcDbEntity
  8
1
  6
Continuous
 62
     0
370
    -2
100
AcDbLine
 10
76908.76960714886
 20
106390.9359633494
 30
0.0
 11
76908.76960714886
 21
100919.5253553814
 31
0.0
  0
INSERT
  5
2F35
330
2F31
100
AcDbEntity
  8
1
  6
Continuous
 62
     0
370
    -2
100
AcDbBlockReference
  2
_OPEN30
 10
76908.76960714886
 20
106890.9359633494
 30
0.0
 41
500.0
 42
500.0
 43
500.0
 50
90.0
  0
INSERT
  5
2F36
330
2F31
100
AcDbEntity
  8
1
  6
Continuous
 62
     0
370
    -2
100
AcDbBlockReference
  2
_OPEN30
 10
76908.76960714886
 20
100419.5253553814
 30
0.0
 41
500.0
 42
500.0
 43
500.0
 50
270.0
  0
MTEXT
  5
2F37
330
2F31
100
AcDbEntity
  8
1
  6
Continuous
 62
     0
370
    13
100
AcDbMText
 10
76658.76960714883
 20
103655.2306593654
 30
0.0
 40
400.0
 41
0.0
 71
     5
 72
     1
  1
\A1;200
 11
0.0000000000000001
 21
1.0
 31
0.0
 73
     1
 44
1.0
  0
POINT
  5
2F38
330
2F31
100
AcDbEntity
  8
DEFPOINTS
  6
Continuous
 62
     0
100
AcDbPoint
 10
75410.15313035443
 20
106890.9359633494
 30
0.0
  0
POINT
  5
2F39
330
2F31
100
AcDbEntity
  8
DEFPOINTS
  6
Continuous
 62
     0
100
AcDbPoint
 10
75410.15313035443
 20
100419.5253553814
 30
0.0
  0
POINT
  5
2F3A
330
2F31
100
AcDbEntity
  8
DEFPOINTS
  6
Continuous
 62
     0
100
AcDbPoint
 10
76908.76960714886
 20
100419.5253553814
 30
0.0
  0
ENDBLK
  5
2F3C
330
2F31
100
AcDbEntity
  8
0
100
AcDbBlockEnd
  0
BLOCK
  5
2F47
330
2F3D
100
AcDbEntity
  8
0
100
AcDbBlockBegin
  2
*D86
 70
     1
 10
0.0
 20
0.0
 30
0.0
  3
*D86
  1

  0
LINE
  5
2F3E
330
2F3D
100
AcDbEntity
  8
1
  6
Continuous
 62
     0
370
    -2
100
AcDbLine
 10
77982.98613410737
 20
106890.9984633494
 30
0.0
 11
77982.98613410737
 21
108619.5348170351
 31
0.0
  0
LINE
  5
2F3F
330
2F3D
100
AcDbEntity
  8
1
  6
Continuous
 62
     0
370
    -2
100
AcDbLine
 10
80895.14903269316
 20
106888.9565050094
 30
0.0
 11
80895.14903269316
 21
108619.5348170351
 31
0.0
  0
LINE
  5
2F40
330
2F3D
100
AcDbEntity
  8
1
  6
Continuous
 62
     0
370
    -2
100
AcDbLine
 10
78482.98613410737
 20
108619.3548170351
 30
0.0
 11
80395.14903269317
 21
108619.3548170351
 31
0.0
  0
INSERT
  5
2F41
330
2F3D
100
AcDbEntity
  8
1
  6
Continuous
 62
     0
370
    -2
100
AcDbBlockReference
  2
_OPEN30
 10
77982.98613410737
 20
108619.3548170351
 30
0.0
 41
500.0
 42
500.0
 43
500.0
 50
180.0
  0
INSERT
  5
2F42
330
2F3D
100
AcDbEntity
  8
1
  6
Continuous
 62
     0
370
    -2
100
AcDbBlockReference
  2
_OPEN30
 10
80895.14903269316
 20
108619.3548170351
 30
0.0
 41
500.0
 42
500.0
 43
500.0
  0
MTEXT
  5
2F43
330
2F3D
100
AcDbEntity
  8
1
  6
Continuous
 62
     0
370
    13
100
AcDbMText
 10
79439.06758340026
 20
108869.3548170351
 30
0.0
 40
400.0
 41
0.0
 71
     5
 72
     1
  1
\A1;90
 73
     1
 44
1.0
  0
POINT
  5
2F44
330
2F3D
100
AcDbEntity
  8
DEFPOINTS
  6
Continuous
 62
     0
100
AcDbPoint
 10
77982.98613410737
 20
106890.9359633494
 30
0.0
  0
POINT
  5
2F45
330
2F3D
100
AcDbEntity
  8
DEFPOINTS
  6
Continuous
 62
     0
100
AcDbPoint
 10
80895.14903269316
 20
106888.8940050094
 30
0.0
  0
POINT
  5
2F46
330
2F3D
100
AcDbEntity
  8
DEFPOINTS
  6
Continuous
 62
     0
100
AcDbPoint
 10
80895.14903269316
 20
108619.3548170351
 30
0.0
  0
ENDBLK
  5
2F48
330
2F3D
100
AcDbEntity
  8
0
100
AcDbBlockEnd
  0
BLOCK
  5
30C5
330
30BB
100
AcDbEntity
  8
0
100
AcDbBlockBegin
  2
*D88
 70
     1
 10
0.0
 20
0.0
 30
0.0
  3
*D88
  1

  0
LINE
  5
30DF
330
30BB
100
AcDbEntity
  8
1
  6
Continuous
 62
     0
370
    -2
100
AcDbLine
 10
5910.988749388743
 20
21083.76821260075
 30
0.0
 11
5910.988749388743
 21
22812.24206628646
 31
0.0
  0
LINE
  5
30E0
330
30BB
100
AcDbEntity
  8
1
  6
Continuous
 62
     0
370
    -2
100
AcDbLine
 10
16912.49303293421
 20
21083.70571260075
 30
0.0
 11
16912.49303293421
 21
22812.24206628646
 31
0.0
  0
LINE
  5
30E1
330
30BB
100
AcDbEntity
  8
1
  6
Continuous
 62
     0
370
    -2
100
AcDbLine
 10
6410.988749388744
 20
22812.06206628646
 30
0.0
 11
16412.49303293421
 21
22812.06206628646
 31
0.0
  0
INSERT
  5
30E2
330
30BB
100
AcDbEntity
  8
1
  6
Continuous
 62
     0
370
    -2
100
AcDbBlockReference
  2
_OPEN30
 10
5910.988749388743
 20
22812.06206628646
 30
0.0
 41
500.0
 42
500.0
 43
500.0
 50
180.0
  0
INSERT
  5
30E3
330
30BB
100
AcDbEntity
  8
1
  6
Continuous
 62
     0
370
    -2
100
AcDbBlockReference
  2
_OPEN30
 10
16912.49303293421
 20
22812.06206628646
 30
0.0
 41
500.0
 42
500.0
 43
500.0
  0
MTEXT
  5
30E4
330
30BB
100
AcDbEntity
  8
1
  6
Continuous
 62
     0
370
    13
100
AcDbMText
 10
11411.74089116147
 20
23062.06206628647
 30
0.0
 40
400.0
 41
0.0
 71
     5
 72
     1
  1
\A1;340
 73
     1
 44
1.0
  0
POINT
  5
30E5
330
30BB
100
AcDbEntity
  8
DEFPOINTS
  6
Continuous
 62
     0
100
AcDbPoint
 10
5910.988749388743
 20
21083.70571260075
 30
0.0
  0
POINT
  5
30E6
330
30BB
100
AcDbEntity
  8
DEFPOINTS
  6
Continuous
 62
     0
100
AcDbPoint
 10
16912.49303293421
 20
21083.64321260075
 30
0.0
  0
POINT
  5
30E7
330
30BB
100
AcDbEntity
  8
DEFPOINTS
  6
Continuous
 62
     0
100
AcDbPoint
 10
16912.49303293421
 20
22812.06206628646
 30
0.0
  0
ENDBLK
  5
30C6
330
30BB
100
AcDbEntity
  8
0
100
AcDbBlockEnd
  0
BLOCK
  5
30D1
330
30C7
100
AcDbEntity
  8
0
100
AcDbBlockBegin
  2
*D89
 70
     1
 10
0.0
 20
0.0
 30
0.0
  3
*D89
  1

  0
LINE
  5
30E8
330
30C7
100
AcDbEntity
  8
1
  6
Continuous
 62
     0
370
    -2
100
AcDbLine
 10
16912.49303293421
 20
21083.64321260075
 30
0.0
 11
18411.22700972862
 21
21083.64321260075
 31
0.0
  0
LINE
  5
30E9
330
30C7
100
AcDbEntity
  8
1
  6
Continuous
 62
     0
370
    -2
100
AcDbLine
 10
16912.49303293421
 20
14612.23260463276
 30
0.0
 11
18411.22700972862
 21
14612.23260463276
 31
0.0
  0
LINE
  5
30EA
330
30C7
100
AcDbEntity
  8
1
  6
Continuous
 62
     0
370
    -2
100
AcDbLine
 10
18411.04700972861
 20
20583.64321260075
 30
0.0
 11
18411.04700972861
 21
15112.23260463276
 31
0.0
  0
INSERT
  5
30EB
330
30C7
100
AcDbEntity
  8
1
  6
Continuous
 62
     0
370
    -2
100
AcDbBlockReference
  2
_OPEN30
 10
18411.04700972861
 20
21083.64321260075
 30
0.0
 41
500.0
 42
500.0
 43
500.0
 50
90.0
  0
INSERT
  5
30EC
330
30C7
100
AcDbEntity
  8
1
  6
Continuous
 62
     0
370
    -2
100
AcDbBlockReference
  2
_OPEN30
 10
18411.04700972861
 20
14612.23260463276
 30
0.0
 41
500.0
 42
500.0
 43
500.0
 50
270.0
  0
MTEXT
  5
30ED
330
30C7
100
AcDbEntity
  8
1
  6
Continuous
 62
     0
370
    13
100
AcDbMText
 10
18161.04700972861
 20
17847.93790861676
 30
0.0
 40
400.0
 41
0.0
 71
     5
 72
     1
  1
\A1;200
 11
0.0000000000000001
 21
1.0
 31
0.0
 73
     1
 44
1.0
  0
POINT
  5
30EE
330
30C7
100
AcDbEntity
  8
DEFPOINTS
  6
Continuous
 62
     0
100
AcDbPoint
 10
16912.43053293421
 20
21083.64321260075
 30
0.0
  0
POINT
  5
30EF
330
30C7
100
AcDbEntity
  8
DEFPOINTS
  6
Continuous
 62
     0
100
AcDbPoint
 10
16912.43053293421
 20
14612.23260463276
 30
0.0
  0
POINT
  5
30F0
330
30C7
100
AcDbEntity
  8
DEFPOINTS
  6
Continuous
 62
     0
100
AcDbPoint
 10
18411.04700972861
 20
14612.23260463276
 30
0.0
  0
ENDBLK
  5
30D2
330
30C7
100
AcDbEntity
  8
0
100
AcDbBlockEnd
  0
BLOCK
  5
30DD
330
30D3
100
AcDbEntity
  8
0
100
AcDbBlockBegin
  2
*D90
 70
     1
 10
0.0
 20
0.0
 30
0.0
  3
*D90
  1

  0
LINE
  5
30F1
330
30D3
100
AcDbEntity
  8
1
  6
Continuous
 62
     0
370
    -2
100
AcDbLine
 10
19485.26353668715
 20
21083.70571260077
 30
0.0
 11
19485.26353668715
 21
22812.24206628646
 31
0.0
  0
LINE
  5
30F2
330
30D3
100
AcDbEntity
  8
1
  6
Continuous
 62
     0
370
    -2
100
AcDbLine
 10
22397.42643527295
 20
21081.6637542607
 30
0.0
 11
22397.42643527295
 21
22812.24206628646
 31
0.0
  0
LINE
  5
30F3
330
30D3
100
AcDbEntity
  8
1
  6
Continuous
 62
     0
370
    -2
100
AcDbLine
 10
19985.26353668715
 20
22812.06206628646
 30
0.0
 11
21897.42643527295
 21
22812.06206628646
 31
0.0
  0
INSERT
  5
30F4
330
30D3
100
AcDbEntity
  8
1
  6
Continuous
 62
     0
370
    -2
100
AcDbBlockReference
  2
_OPEN30
 10
19485.26353668715
 20
22812.06206628646
 30
0.0
 41
500.0
 42
500.0
 43
500.0
 50
180.0
  0
INSERT
  5
30F5
330
30D3
100
AcDbEntity
  8
1
  6
Continuous
 62
     0
370
    -2
100
AcDbBlockReference
  2
_OPEN30
 10
22397.42643527295
 20
22812.06206628646
 30
0.0
 41
500.0
 42
500.0
 43
500.0
  0
MTEXT
  5
30F6
330
30D3
100
AcDbEntity
  8
1
  6
Continuous
 62
     0
370
    13
100
AcDbMText
 10
20941.34498598004
 20
23062.06206628647
 30
0.0
 40
400.0
 41
0.0
 71
     5
 72
     1
  1
\A1;90
 73
     1
 44
1.0
  0
POINT
  5
30F7
330
30D3
100
AcDbEntity
  8
DEFPOINTS
  6
Continuous
 62
     0
100
AcDbPoint
 10
19485.26353668715
 20
21083.64321260077
 30
0.0
  0
POINT
  5
30F8
330
30D3
100
AcDbEntity
  8
DEFPOINTS
  6
Continuous
 62
     0
100
AcDbPoint
 10
22397.42643527295
 20
21081.6012542607
 30
0.0
  0
POINT
  5
30F9
330
30D3
100
AcDbEntity
  8
DEFPOINTS
  6
Continuous
 62
     0
100
AcDbPoint
 10
22397.42643527295
 20
22812.06206628646
 30
0.0
  0
ENDBLK
  5
30DE
330
30D3
100
AcDbEntity
  8
0
100
AcDbBlockEnd
  0
BLOCK
  5
3122
330
3118
100
AcDbEntity
  8
0
100
AcDbBlockBegin
  2
*D91
 70
     1
 10
0.0
 20
0.0
 30
0.0
  3
*D91
  1

  0
LINE
  5
3119
330
3118
100
AcDbEntity
  8
1
  6
Continuous
 62
     0
370
    -2
100
AcDbLine
 10
92158.03431740601
 20
109670.9895491958
 30
0.0
 11
92158.03431740601
 21
111399.4634028815
 31
0.0
  0
LINE
  5
311A
330
3118
100
AcDbEntity
  8
1
  6
Continuous
 62
     0
370
    -2
100
AcDbLine
 10
100022.6824259716
 20
109670.9270491958
 30
0.0
 11
100022.6824259716
 21
111399.4634028815
 31
0.0
  0
LINE
  5
311B
330
3118
100
AcDbEntity
  8
1
  6
Continuous
 62
     0
370
    -2
100
AcDbLine
 10
92658.03431740602
 20
111399.2834028816
 30
0.0
 11
99522.68242597165
 21
111399.2834028816
 31
0.0
  0
INSERT
  5
311C
330
3118
100
AcDbEntity
  8
1
  6
Continuous
 62
     0
370
    -2
100
AcDbBlockReference
  2
_OPEN30
 10
92158.03431740601
 20
111399.2834028816
 30
0.0
 41
500.0
 42
500.0
 43
500.0
 50
180.0
  0
INSERT
  5
311D
330
3118
100
AcDbEntity
  8
1
  6
Continuous
 62
     0
370
    -2
100
AcDbBlockReference
  2
_OPEN30
 10
100022.6824259716
 20
111399.2834028816
 30
0.0
 41
500.0
 42
500.0
 43
500.0
  0
MTEXT
  5
311E
330
3118
100
AcDbEntity
  8
1
  6
Continuous
 62
     0
370
    13
100
AcDbMText
 10
96090.35837168883
 20
111649.2834028815
 30
0.0
 40
400.0
 41
0.0
 71
     5
 72
     1
  1
\A1;350
 73
     1
 44
1.0
  0
POINT
  5
311F
330
3118
100
AcDbEntity
  8
DEFPOINTS
  6
Continuous
 62
     0
100
AcDbPoint
 10
92158.03431740601
 20
109670.9270491958
 30
0.0
  0
POINT
  5
3120
330
3118
100
AcDbEntity
  8
DEFPOINTS
  6
Continuous
 62
     0
100
AcDbPoint
 10
100022.6824259716
 20
109670.8645491958
 30
0.0
  0
POINT
  5
3121
330
3118
100
AcDbEntity
  8
DEFPOINTS
  6
Continuous
 62
     0
100
AcDbPoint
 10
100022.6824259716
 20
111399.2834028816
 30
0.0
  0
ENDBLK
  5
3123
330
3118
100
AcDbEntity
  8
0
100
AcDbBlockEnd
  0
BLOCK
  5
312E
330
3124
100
AcDbEntity
  8
0
100
AcDbBlockBegin
  2
*D92
 70
     1
 10
0.0
 20
0.0
 30
0.0
  3
*D92
  1

  0
LINE
  5
3125
330
3124
100
AcDbEntity
  8
1
  6
Continuous
 62
     0
370
    -2
100
AcDbLine
 10
100022.6824259716
 20
109670.8645491958
 30
0.0
 11
101763.3772627165
 21
109670.8645491958
 31
0.0
  0
LINE
  5
3126
330
3124
100
AcDbEntity
  8
1
  6
Continuous
 62
     0
370
    -2
100
AcDbLine
 10
100022.6824259716
 20
99559.25031799594
 30
0.0
 11
101763.3772627165
 21
99559.25031799594
 31
0.0
  0
LINE
  5
3127
330
3124
100
AcDbEntity
  8
1
  6
Continuous
 62
     0
370
    -2
100
AcDbLine
 10
101763.1972627165
 20
109170.8645491958
 30
0.0
 11
101763.1972627165
 21
100059.2503179959
 31
0.0
  0
INSERT
  5
3128
330
3124
100
AcDbEntity
  8
1
  6
Continuous
 62
     0
370
    -2
100
AcDbBlockReference
  2
_OPEN30
 10
101763.1972627165
 20
109670.8645491958
 30
0.0
 41
500.0
 42
500.0
 43
500.0
 50
90.0
  0
INSERT
  5
3129
330
3124
100
AcDbEntity
  8
1
  6
Continuous
 62
     0
370
    -2
100
AcDbBlockReference
  2
_OPEN30
 10
101763.1972627165
 20
99559.25031799594
 30
0.0
 41
500.0
 42
500.0
 43
500.0
 50
270.0
  0
MTEXT
  5
312A
330
3124
100
AcDbEntity
  8
1
  6
Continuous
 62
     0
370
    13
100
AcDbMText
 10
101513.1972627164
 20
104615.0574335959
 30
0.0
 40
400.0
 41
0.0
 71
     5
 72
     1
  1
\A1;450
 11
0.0000000000000001
 21
1.0
 31
0.0
 73
     1
 44
1.0
  0
POINT
  5
312B
330
3124
100
AcDbEntity
  8
DEFPOINTS
  6
Continuous
 62
     0
100
AcDbPoint
 10
100022.6199259716
 20
109670.8645491958
 30
0.0
  0
POINT
  5
312C
330
3124
100
AcDbEntity
  8
DEFPOINTS
  6
Continuous
 62
     0
100
AcDbPoint
 10
100022.6199259716
 20
99559.25031799594
 30
0.0
  0
POINT
  5
312D
330
3124
100
AcDbEntity
  8
DEFPOINTS
  6
Continuous
 62
     0
100
AcDbPoint
 10
101763.1972627165
 20
99559.25031799594
 30
0.0
  0
ENDBLK
  5
312F
330
3124
100
AcDbEntity
  8
0
100
AcDbBlockEnd
  0
BLOCK
  5
313A
330
3130
100
AcDbEntity
  8
0
100
AcDbBlockBegin
  2
*D93
 70
     1
 10
0.0
 20
0.0
 30
0.0
  3
*D93
  1

  0
LINE
  5
3131
330
3130
100
AcDbEntity
  8
1
  6
Continuous
 62
     0
370
    -2
100
AcDbLine
 10
102796.2030013767
 20
109670.9270491958
 30
0.0
 11
102796.2030013767
 21
111399.4634028815
 31
0.0
  0
LINE
  5
3132
330
3130
100
AcDbEntity
  8
1
  6
Continuous
 62
     0
370
    -2
100
AcDbLine
 10
105942.0579844166
 20
109668.8850908558
 30
0.0
 11
105942.0579844166
 21
111399.4634028815
 31
0.0
  0
LINE
  5
3133
330
3130
100
AcDbEntity
  8
1
  6
Continuous
 62
     0
370
    -2
100
AcDbLine
 10
103296.2030013767
 20
111399.2834028816
 30
0.0
 11
105442.0579844165
 21
111399.2834028816
 31
0.0
  0
INSERT
  5
3134
330
3130
100
AcDbEntity
  8
1
  6
Continuous
 62
     0
370
    -2
100
AcDbBlockReference
  2
_OPEN30
 10
102796.2030013767
 20
111399.2834028816
 30
0.0
 41
500.0
 42
500.0
 43
500.0
 50
180.0
  0
INSERT
  5
3135
330
3130
100
AcDbEntity
  8
1
  6
Continuous
 62
     0
370
    -2
100
AcDbBlockReference
  2
_OPEN30
 10
105942.0579844166
 20
111399.2834028816
 30
0.0
 41
500.0
 42
500.0
 43
500.0
  0
MTEXT
  5
3136
330
3130
100
AcDbEntity
  8
1
  6
Continuous
 62
     0
370
    13
100
AcDbMText
 10
104252.2844506696
 20
111649.2834028815
 30
0.0
 40
400.0
 41
0.0
 71
     5
 72
     1
  1
\A1;140
 73
     1
 44
1.0
  0
POINT
  5
3137
330
3130
100
AcDbEntity
  8
DEFPOINTS
  6
Continuous
 62
     0
100
AcDbPoint
 10
102796.2030013767
 20
109670.8645491959
 30
0.0
  0
POINT
  5
3138
330
3130
100
AcDbEntity
  8
DEFPOINTS
  6
Continuous
 62
     0
100
AcDbPoint
 10
105942.0579844166
 20
109668.8225908558
 30
0.0
  0
POINT
  5
3139
330
3130
100
AcDbEntity
  8
DEFPOINTS
  6
Continuous
 62
     0
100
AcDbPoint
 10
105942.0579844166
 20
111399.2834028816
 30
0.0
  0
ENDBLK
  5
313B
330
3130
100
AcDbEntity
  8
0
100
AcDbBlockEnd
  0
BLOCK
  5
325E
330
3254
100
AcDbEntity
  8
0
100
AcDbBlockBegin
  2
*D95
 70
     1
 10
0.0
 20
0.0
 30
0.0
  3
*D95
  1

  0
LINE
  5
3278
330
3254
100
AcDbEntity
  8
1
  6
Continuous
 62
     0
370
    -2
100
AcDbLine
 10
5607.954625658924
 20
21273.26841350902
 30
0.0
 11
5607.954625658924
 21
23001.74226719473
 31
0.0
  0
LINE
  5
3279
330
3254
100
AcDbEntity
  8
1
  6
Continuous
 62
     0
370
    -2
100
AcDbLine
 10
13472.60273422456
 20
21273.20591350902
 30
0.0
 11
13472.60273422456
 21
23001.74226719473
 31
0.0
  0
LINE
  5
327A
330
3254
100
AcDbEntity
  8
1
  6
Continuous
 62
     0
370
    -2
100
AcDbLine
 10
6107.954625658924
 20
23001.56226719473
 30
0.0
 11
12972.60273422456
 21
23001.56226719473
 31
0.0
  0
INSERT
  5
327B
330
3254
100
AcDbEntity
  8
1
  6
Continuous
 62
     0
370
    -2
100
AcDbBlockReference
  2
_OPEN30
 10
5607.954625658924
 20
23001.56226719473
 30
0.0
 41
500.0
 42
500.0
 43
500.0
 50
180.0
  0
INSERT
  5
327C
330
3254
100
AcDbEntity
  8
1
  6
Continuous
 62
     0
370
    -2
100
AcDbBlockReference
  2
_OPEN30
 10
13472.60273422456
 20
23001.56226719473
 30
0.0
 41
500.0
 42
500.0
 43
500.0
  0
MTEXT
  5
327D
330
3254
100
AcDbEntity
  8
1
  6
Continuous
 62
     0
370
    13
100
AcDbMText
 10
9540.278679941751
 20
23251.56226719473
 30
0.0
 40
400.0
 41
0.0
 71
     5
 72
     1
  1
\A1;350
 73
     1
 44
1.0
  0
POINT
  5
327E
330
3254
100
AcDbEntity
  8
DEFPOINTS
  6
Continuous
 62
     0
100
AcDbPoint
 10
5607.954625658924
 20
21273.20591350902
 30
0.0
  0
POINT
  5
327F
330
3254
100
AcDbEntity
  8
DEFPOINTS
  6
Continuous
 62
     0
100
AcDbPoint
 10
13472.60273422456
 20
21273.14341350902
 30
0.0
  0
POINT
  5
3280
330
3254
100
AcDbEntity
  8
DEFPOINTS
  6
Continuous
 62
     0
100
AcDbPoint
 10
13472.60273422456
 20
23001.56226719473
 30
0.0
  0
ENDBLK
  5
325F
330
3254
100
AcDbEntity
  8
0
100
AcDbBlockEnd
  0
BLOCK
  5
326A
330
3260
100
AcDbEntity
  8
0
100
AcDbBlockBegin
  2
*D96
 70
     1
 10
0.0
 20
0.0
 30
0.0
  3
*D96
  1

  0
LINE
  5
3281
330
3260
100
AcDbEntity
  8
1
  6
Continuous
 62
     0
370
    -2
100
AcDbLine
 10
13472.60273422456
 20
21273.14341350902
 30
0.0
 11
15213.29757096939
 21
21273.14341350902
 31
0.0
  0
LINE
  5
3282
330
3260
100
AcDbEntity
  8
1
  6
Continuous
 62
     0
370
    -2
100
AcDbLine
 10
13472.60273422456
 20
11161.52918230909
 30
0.0
 11
15213.29757096939
 21
11161.52918230909
 31
0.0
  0
LINE
  5
3283
330
3260
100
AcDbEntity
  8
1
  6
Continuous
 62
     0
370
    -2
100
AcDbLine
 10
15213.11757096939
 20
20773.14341350902
 30
0.0
 11
15213.11757096939
 21
11661.52918230909
 31
0.0
  0
INSERT
  5
3284
330
3260
100
AcDbEntity
  8
1
  6
Continuous
 62
     0
370
    -2
100
AcDbBlockReference
  2
_OPEN30
 10
15213.11757096939
 20
21273.14341350902
 30
0.0
 41
500.0
 42
500.0
 43
500.0
 50
90.0
  0
INSERT
  5
3285
330
3260
100
AcDbEntity
  8
1
  6
Continuous
 62
     0
370
    -2
100
AcDbBlockReference
  2
_OPEN30
 10
15213.11757096939
 20
11161.52918230909
 30
0.0
 41
500.0
 42
500.0
 43
500.0
 50
270.0
  0
MTEXT
  5
3286
330
3260
100
AcDbEntity
  8
1
  6
Continuous
 62
     0
370
    13
100
AcDbMText
 10
14963.11757096939
 20
16217.33629790905
 30
0.0
 40
400.0
 41
0.0
 71
     5
 72
     1
  1
\A1;450
 11
0.0000000000000001
 21
1.0
 31
0.0
 73
     1
 44
1.0
  0
POINT
  5
3287
330
3260
100
AcDbEntity
  8
DEFPOINTS
  6
Continuous
 62
     0
100
AcDbPoint
 10
13472.54023422456
 20
21273.14341350902
 30
0.0
  0
POINT
  5
3288
330
3260
100
AcDbEntity
  8
DEFPOINTS
  6
Continuous
 62
     0
100
AcDbPoint
 10
13472.54023422456
 20
11161.52918230909
 30
0.0
  0
POINT
  5
3289
330
3260
100
AcDbEntity
  8
DEFPOINTS
  6
Continuous
 62
     0
100
AcDbPoint
 10
15213.11757096939
 20
11161.52918230909
 30
0.0
  0
ENDBLK
  5
326B
330
3260
100
AcDbEntity
  8
0
100
AcDbBlockEnd
  0
BLOCK
  5
3276
330
326C
100
AcDbEntity
  8
0
100
AcDbBlockBegin
  2
*D97
 70
     1
 10
0.0
 20
0.0
 30
0.0
  3
*D97
  1

  0
LINE
  5
328A
330
326C
100
AcDbEntity
  8
1
  6
Continuous
 62
     0
370
    -2
100
AcDbLine
 10
16246.12330962962
 20
21273.20591350903
 30
0.0
 11
16246.12330962962
 21
23001.74226719473
 31
0.0
  0
LINE
  5
328B
330
326C
100
AcDbEntity
  8
1
  6
Continuous
 62
     0
370
    -2
100
AcDbLine
 10
19391.9782926695
 20
21271.16395516897
 30
0.0
 11
19391.9782926695
 21
23001.74226719473
 31
0.0
  0
LINE
  5
328C
330
326C
100
AcDbEntity
  8
1
  6
Continuous
 62
     0
370
    -2
100
AcDbLine
 10
16746.12330962962
 20
23001.56226719473
 30
0.0
 11
18891.9782926695
 21
23001.56226719473
 31
0.0
  0
INSERT
  5
328D
330
326C
100
AcDbEntity
  8
1
  6
Continuous
 62
     0
370
    -2
100
AcDbBlockReference
  2
_OPEN30
 10
16246.12330962962
 20
23001.56226719473
 30
0.0
 41
500.0
 42
500.0
 43
500.0
 50
180.0
  0
INSERT
  5
328E
330
326C
100
AcDbEntity
  8
1
  6
Continuous
 62
     0
370
    -2
100
AcDbBlockReference
  2
_OPEN30
 10
19391.9782926695
 20
23001.56226719473
 30
0.0
 41
500.0
 42
500.0
 43
500.0
  0
MTEXT
  5
328F
330
326C
100
AcDbEntity
  8
1
  6
Continuous
 62
     0
370
    13
100
AcDbMText
 10
17702.20475892251
 20
23251.56226719473
 30
0.0
 40
400.0
 41
0.0
 71
     5
 72
     1
  1
\A1;140
 73
     1
 44
1.0
  0
POINT
  5
3290
330
326C
100
AcDbEntity
  8
DEFPOINTS
  6
Continuous
 62
     0
100
AcDbPoint
 10
16246.12330962962
 20
21273.14341350904
 30
0.0
  0
POINT
  5
3291
330
326C
100
AcDbEntity
  8
DEFPOINTS
  6
Continuous
 62
     0
100
AcDbPoint
 10
19391.9782926695
 20
21271.10145516897
 30
0.0
  0
POINT
  5
3292
330
326C
100
AcDbEntity
  8
DEFPOINTS
  6
Continuous
 62
     0
100
AcDbPoint
 10
19391.9782926695
 20
23001.56226719473
 30
0.0
  0
ENDBLK
  5
3277
330
326C
100
AcDbEntity
  8
0
100
AcDbBlockEnd
  0
BLOCK
  5
329E
330
3294
100
AcDbEntity
  8
0
100
AcDbBlockBegin
  2
*D98
 70
     1
 10
0.0
 20
0.0
 30
0.0
  3
*D98
  1

  0
LINE
  5
3295
330
3294
100
AcDbEntity
  8
1
  6
Continuous
 62
     0
370
    -2
100
AcDbLine
 10
19208.43832629169
 20
78917.10145421761
 30
0.0
 11
21538.34986306117
 21
78917.10145421761
 31
0.0
  0
LINE
  5
3296
330
3294
100
AcDbEntity
  8
1
  6
Continuous
 62
     0
370
    -2
100
AcDbLine
 10
19208.50082629169
 20
73488.00737015907
 30
0.0
 11
21538.34986306116
 21
73488.00737015907
 31
0.0
  0
LINE
  5
3297
330
3294
100
AcDbEntity
  8
1
  6
Continuous
 62
     0
370
    -2
100
AcDbLine
 10
21538.16986306116
 20
78417.10145421761
 30
0.0
 11
21538.16986306116
 21
73988.00737015907
 31
0.0
  0
INSERT
  5
3298
330
3294
100
AcDbEntity
  8
1
  6
Continuous
 62
     0
370
    -2
100
AcDbBlockReference
  2
_OPEN30
 10
21538.16986306116
 20
78917.10145421761
 30
0.0
 41
500.0
 42
500.0
 43
500.0
 50
90.0
  0
INSERT
  5
3299
330
3294
100
AcDbEntity
  8
1
  6
Continuous
 62
     0
370
    -2
100
AcDbBlockReference
  2
_OPEN30
 10
21538.16986306116
 20
73488.00737015907
 30
0.0
 41
500.0
 42
500.0
 43
500.0
 50
270.0
  0
MTEXT
  5
329A
330
3294
100
AcDbEntity
  8
1
  6
Continuous
 62
     0
370
    13
100
AcDbMText
 10
21288.16986306115
 20
76202.55441218835
 30
0.0
 40
400.0
 41
0.0
 71
     5
 72
     1
  1
\A1;42
 11
0.0000000000000001
 21
1.0
 31
0.0
 73
     1
 44
1.0
  0
POINT
  5
329B
330
3294
100
AcDbEntity
  8
DEFPOINTS
  6
Continuous
 62
     0
100
AcDbPoint
 10
19208.37582629169
 20
78917.10145421761
 30
0.0
  0
POINT
  5
329C
330
3294
100
AcDbEntity
  8
DEFPOINTS
  6
Continuous
 62
     0
100
AcDbPoint
 10
19208.43832629169
 20
73488.00737015907
 30
0.0
  0
POINT
  5
329D
330
3294
100
AcDbEntity
  8
DEFPOINTS
  6
Continuous
 62
     0
100
AcDbPoint
 10
21538.16986306116
 20
73488.00737015907
 30
0.0
  0
ENDBLK
  5
329F
330
3294
100
AcDbEntity
  8
0
100
AcDbBlockEnd
  0
BLOCK
  5
32AA
330
32A0
100
AcDbEntity
  8
0
100
AcDbBlockBegin
  2
*D99
 70
     1
 10
0.0
 20
0.0
 30
0.0
  3
*D99
  1

  0
LINE
  5
32A1
330
32A0
100
AcDbEntity
  8
1
  6
Continuous
 62
     0
370
    -2
100
AcDbLine
 10
12357.95512629165
 20
78917.10145421761
 30
0.0
 11
12357.95512629165
 21
80989.2134070758
 31
0.0
  0
LINE
  5
32A2
330
32A0
100
AcDbEntity
  8
1
  6
Continuous
 62
     0
370
    -2
100
AcDbLine
 10
19208.43832629169
 20
78917.16395421761
 30
0.0
 11
19208.43832629169
 21
80989.2134070758
 31
0.0
  0
LINE
  5
32A3
330
32A0
100
AcDbEntity
  8
1
  6
Continuous
 62
     0
370
    -2
100
AcDbLine
 10
12857.95512629165
 20
80989.03340707579
 30
0.0
 11
18708.43832629169
 21
80989.03340707579
 31
0.0
  0
INSERT
  5
32A4
330
32A0
100
AcDbEntity
  8
1
  6
Continuous
 62
     0
370
    -2
100
AcDbBlockReference
  2
_OPEN30
 10
12357.95512629165
 20
80989.03340707579
 30
0.0
 41
500.0
 42
500.0
 43
500.0
 50
180.0
  0
INSERT
  5
32A5
330
32A0
100
AcDbEntity
  8
1
  6
Continuous
 62
     0
370
    -2
100
AcDbBlockReference
  2
_OPEN30
 10
19208.43832629169
 20
80989.03340707579
 30
0.0
 41
500.0
 42
500.0
 43
500.0
  0
MTEXT
  5
32A6
330
32A0
100
AcDbEntity
  8
1
  6
Continuous
 62
     0
370
    13
100
AcDbMText
 10
15783.19672629167
 20
81239.03340707579
 30
0.0
 40
400.0
 41
0.0
 71
     5
 72
     1
  1
\A1;53
 73
     1
 44
1.0
  0
POINT
  5
32A7
330
32A0
100
AcDbEntity
  8
DEFPOINTS
  6
Continuous
 62
     0
100
AcDbPoint
 10
12357.95512629165
 20
78917.03895421761
 30
0.0
  0
POINT
  5
32A8
330
32A0
100
AcDbEntity
  8
DEFPOINTS
  6
Continuous
 62
     0
100
AcDbPoint
 10
19208.43832629169
 20
78917.10145421761
 30
0.0
  0
POINT
  5
32A9
330
32A0
100
AcDbEntity
  8
DEFPOINTS
  6
Continuous
 62
     0
100
AcDbPoint
 10
19208.43832629169
 20
80989.03340707579
 30
0.0
  0
ENDBLK
  5
32AB
330
32A0
100
AcDbEntity
  8
0
100
AcDbBlockEnd
  0
BLOCK
  5
32B6
330
32AC
100
AcDbEntity
  8
0
100
AcDbBlockBegin
  2
*D100
 70
     1
 10
0.0
 20
0.0
 30
0.0
  3
*D100
  1

  0
LINE
  5
32AD
330
32AC
100
AcDbEntity
  8
1
  6
Continuous
 62
     0
370
    -2
100
AcDbLine
 10
13004.22712629172
 20
78917.10145421761
 30
0.0
 11
13004.22712629172
 21
79953.3686806467
 31
0.0
  0
LINE
  5
32AE
330
32AC
100
AcDbEntity
  8
1
  6
Continuous
 62
     0
370
    -2
100
AcDbLine
 10
18562.16632629171
 20
78917.16395421761
 30
0.0
 11
18562.16632629171
 21
79953.3686806467
 31
0.0
  0
LINE
  5
32AF
330
32AC
100
AcDbEntity
  8
1
  6
Continuous
 62
     0
370
    -2
100
AcDbLine
 10
13504.22712629172
 20
79953.1886806467
 30
0.0
 11
18062.16632629171
 21
79953.1886806467
 31
0.0
  0
INSERT
  5
32B0
330
32AC
100
AcDbEntity
  8
1
  6
Continuous
 62
     0
370
    -2
100
AcDbBlockReference
  2
_OPEN30
 10
13004.22712629172
 20
79953.1886806467
 30
0.0
 41
500.0
 42
500.0
 43
500.0
 50
180.0
  0
INSERT
  5
32B1
330
32AC
100
AcDbEntity
  8
1
  6
Continuous
 62
     0
370
    -2
100
AcDbBlockReference
  2
_OPEN30
 10
18562.16632629171
 20
79953.1886806467
 30
0.0
 41
500.0
 42
500.0
 43
500.0
  0
MTEXT
  5
32B2
330
32AC
100
AcDbEntity
  8
1
  6
Continuous
 62
     0
370
    13
100
AcDbMText
 10
15783.19672629171
 20
80203.1886806467
 30
0.0
 40
400.0
 41
0.0
 71
     5
 72
     1
  1
\A1;43
 73
     1
 44
1.0
  0
POINT
  5
32B3
330
32AC
100
AcDbEntity
  8
DEFPOINTS
  6
Continuous
 62
     0
100
AcDbPoint
 10
13004.22712629172
 20
78917.03895421761
 30
0.0
  0
POINT
  5
32B4
330
32AC
100
AcDbEntity
  8
DEFPOINTS
  6
Continuous
 62
     0
100
AcDbPoint
 10
18562.16632629171
 20
78917.10145421761
 30
0.0
  0
POINT
  5
32B5
330
32AC
100
AcDbEntity
  8
DEFPOINTS
  6
Continuous
 62
     0
100
AcDbPoint
 10
18562.16632629171
 20
79953.1886806467
 30
0.0
  0
ENDBLK
  5
32B7
330
32AC
100
AcDbEntity
  8
0
100
AcDbBlockEnd
  0
BLOCK
  5
32C2
330
32B8
100
AcDbEntity
  8
0
100
AcDbBlockBegin
  2
*D101
 70
     1
 10
0.0
 20
0.0
 30
0.0
  3
*D101
  1

  0
LINE
  5
32B9
330
32B8
100
AcDbEntity
  8
1
  6
Continuous
 62
     0
370
    -2
100
AcDbLine
 10
19208.43832629169
 20
78270.62484450182
 30
0.0
 11
20573.65699622239
 21
78270.62484450182
 31
0.0
  0
LINE
  5
32BA
330
32B8
100
AcDbEntity
  8
1
  6
Continuous
 62
     0
370
    -2
100
AcDbLine
 10
19208.50082629169
 20
74134.48404450179
 30
0.0
 11
20573.65699622239
 21
74134.48404450179
 31
0.0
  0
LINE
  5
32BB
330
32B8
100
AcDbEntity
  8
1
  6
Continuous
 62
     0
370
    -2
100
AcDbLine
 10
20573.47699622239
 20
77770.62484450182
 30
0.0
 11
20573.47699622239
 21
74634.48404450179
 31
0.0
  0
INSERT
  5
32BC
330
32B8
100
AcDbEntity
  8
1
  6
Continuous
 62
     0
370
    -2
100
AcDbBlockReference
  2
_OPEN30
 10
20573.47699622239
 20
78270.62484450182
 30
0.0
 41
500.0
 42
500.0
 43
500.0
 50
90.0
  0
INSERT
  5
32BD
330
32B8
100
AcDbEntity
  8
1
  6
Continuous
 62
     0
370
    -2
100
AcDbBlockReference
  2
_OPEN30
 10
20573.47699622239
 20
74134.48404450179
 30
0.0
 41
500.0
 42
500.0
 43
500.0
 50
270.0
  0
MTEXT
  5
32BE
330
32B8
100
AcDbEntity
  8
1
  6
Continuous
 62
     0
370
    13
100
AcDbMText
 10
20323.47699622238
 20
76202.55444450181
 30
0.0
 40
400.0
 41
0.0
 71
     5
 72
     1
  1
\A1;32
 11
0.0000000000000001
 21
1.0
 31
0.0
 73
     1
 44
1.0
  0
POINT
  5
32BF
330
32B8
100
AcDbEntity
  8
DEFPOINTS
  6
Continuous
 62
     0
100
AcDbPoint
 10
19208.37582629169
 20
78270.62484450182
 30
0.0
  0
POINT
  5
32C0
330
32B8
100
AcDbEntity
  8
DEFPOINTS
  6
Continuous
 62
     0
100
AcDbPoint
 10
19208.43832629169
 20
74134.48404450179
 30
0.0
  0
POINT
  5
32C1
330
32B8
100
AcDbEntity
  8
DEFPOINTS
  6
Continuous
 62
     0
100
AcDbPoint
 10
20573.47699622239
 20
74134.48404450179
 30
0.0
  0
ENDBLK
  5
32C3
330
32B8
100
AcDbEntity
  8
0
100
AcDbBlockEnd
  0
BLOCK
  5
32CF
330
32C4
100
AcDbEntity
  8
0
100
AcDbBlockBegin
  2
*D102
 70
     1
 10
0.0
 20
0.0
 30
0.0
  3
*D102
  1

  0
LINE
  5
32C5
330
32C4
100
AcDbEntity
  8
1
  6
Continuous
 62
     0
370
    -2
100
AcDbLine
 10
28176.62060539314
 20
78917.10145421761
 30
0.0
 11
28176.62060539314
 21
79435.44631743216
 31
0.0
  0
LINE
  5
32C6
330
32C4
100
AcDbEntity
  8
1
  6
Continuous
 62
     0
370
    -2
100
AcDbLine
 10
28952.14700539313
 20
78917.16395421761
 30
0.0
 11
28952.14700539313
 21
79435.44631743216
 31
0.0
  0
LINE
  5
32C7
330
32C4
100
AcDbEntity
  8
1
  6
Continuous
 62
     0
370
    -2
100
AcDbLine
 10
27676.62060539314
 20
79435.26631743217
 30
0.0
 11
27176.62060539314
 21
79435.26631743217
 31
0.0
  0
LINE
  5
32C8
330
32C4
100
AcDbEntity
  8
1
  6
Continuous
 62
     0
370
    -2
100
AcDbLine
 10
29452.14700539313
 20
79435.26631743217
 30
0.0
 11
29952.14700539314
 21
79435.26631743217
 31
0.0
  0
INSERT
  5
32C9
330
32C4
100
AcDbEntity
  8
1
  6
Continuous
 62
     0
370
    -2
100
AcDbBlockReference
  2
_OPEN30
 10
28176.62060539314
 20
79435.26631743217
 30
0.0
 41
500.0
 42
500.0
 43
500.0
  0
INSERT
  5
32CA
330
32C4
100
AcDbEntity
  8
1
  6
Continuous
 62
     0
370
    -2
100
AcDbBlockReference
  2
_OPEN30
 10
28952.14700539313
 20
79435.26631743217
 30
0.0
 41
500.0
 42
500.0
 43
500.0
 50
180.0
  0
MTEXT
  5
32CB
330
32C4
100
AcDbEntity
  8
1
  6
Continuous
 62
     0
370
    13
100
AcDbMText
 10
28564.38380539314
 20
79685.26631743216
 30
0.0
 40
400.0
 41
0.0
 71
     5
 72
     1
  1
\A1;6
 73
     1
 44
1.0
  0
POINT
  5
32CC
330
32C4
100
AcDbEntity
  8
DEFPOINTS
  6
Continuous
 62
     0
100
AcDbPoint
 10
28176.62060539314
 20
78917.03895421761
 30
0.0
  0
POINT
  5
32CD
330
32C4
100
AcDbEntity
  8
DEFPOINTS
  6
Continuous
 62
     0
100
AcDbPoint
 10
28952.14700539313
 20
78917.10145421761
 30
0.0
  0
POINT
  5
32CE
330
32C4
100
AcDbEntity
  8
DEFPOINTS
  6
Continuous
 62
     0
100
AcDbPoint
 10
28952.14700539313
 20
79435.26631743217
 30
0.0
  0
ENDBLK
  5
32D0
330
32C4
100
AcDbEntity
  8
0
100
AcDbBlockEnd
  0
BLOCK
  5
32DC
330
32D1
100
AcDbEntity
  8
0
100
AcDbBlockBegin
  2
*D103
 70
     1
 10
0.0
 20
0.0
 30
0.0
  3
*D103
  1

  0
LINE
  5
32D2
330
32D1
100
AcDbEntity
  8
1
  6
Continuous
 62
     0
370
    -2
100
AcDbLine
 10
27969.81356539316
 20
78917.10145421761
 30
0.0
 11
27969.81356539316
 21
80989.2134070758
 31
0.0
  0
LINE
  5
32D3
330
32D1
100
AcDbEntity
  8
1
  6
Continuous
 62
     0
370
    -2
100
AcDbLine
 10
28176.62060539314
 20
78917.16395421761
 30
0.0
 11
28176.62060539314
 21
80989.2134070758
 31
0.0
  0
LINE
  5
32D4
330
32D1
100
AcDbEntity
  8
1
  6
Continuous
 62
     0
370
    -2
100
AcDbLine
 10
28676.62060539314
 20
80989.03340707579
 30
0.0
 11
29176.62060539314
 21
80989.03340707579
 31
0.0
  0
LINE
  5
32D5
330
32D1
100
AcDbEntity
  8
1
  6
Continuous
 62
     0
370
    -2
100
AcDbLine
 10
27469.81356539316
 20
80989.03340707579
 30
0.0
 11
25269.81356539316
 21
80989.03340707579
 31
0.0
  0
INSERT
  5
32D6
330
32D1
100
AcDbEntity
  8
1
  6
Continuous
 62
     0
370
    -2
100
AcDbBlockReference
  2
_OPEN30
 10
28176.62060539314
 20
80989.03340707579
 30
0.0
 41
500.0
 42
500.0
 43
500.0
 50
180.0
  0
INSERT
  5
32D7
330
32D1
100
AcDbEntity
  8
1
  6
Continuous
 62
     0
370
    -2
100
AcDbBlockReference
  2
_OPEN30
 10
27969.81356539316
 20
80989.03340707579
 30
0.0
 41
500.0
 42
500.0
 43
500.0
  0
MTEXT
  5
32D8
330
32D1
100
AcDbEntity
  8
1
  6
Continuous
 62
     0
370
    13
100
AcDbMText
 10
26119.81356539316
 20
81239.03340707579
 30
0.0
 40
400.0
 41
0.0
 71
     5
 72
     1
  1
\A1;(t1.6)
 73
     1
 44
1.0
  0
POINT
  5
32D9
330
32D1
100
AcDbEntity
  8
DEFPOINTS
  6
Continuous
 62
     0
100
AcDbPoint
 10
27969.81356539316
 20
78917.03895421761
 30
0.0
  0
POINT
  5
32DA
330
32D1
100
AcDbEntity
  8
DEFPOINTS
  6
Continuous
 62
     0
100
AcDbPoint
 10
28176.62060539314
 20
78917.10145421761
 30
0.0
  0
POINT
  5
32DB
330
32D1
100
AcDbEntity
  8
DEFPOINTS
  6
Continuous
 62
     0
100
AcDbPoint
 10
28176.62060539314
 20
80989.03340707579
 30
0.0
  0
ENDBLK
  5
32DD
330
32D1
100
AcDbEntity
  8
0
100
AcDbBlockEnd
  0
BLOCK
  5
32E8
330
32DE
100
AcDbEntity
  8
0
100
AcDbBlockBegin
  2
*D104
 70
     1
 10
0.0
 20
0.0
 30
0.0
  3
*D104
  1

  0
LINE
  5
32DF
330
32DE
100
AcDbEntity
  8
1
  6
Continuous
 62
     0
370
    -2
100
AcDbLine
 10
25888.81772539316
 20
77042.12536566722
 30
0.0
 11
25888.81772539316
 21
79953.3374306467
 31
0.0
  0
LINE
  5
32E0
330
32DE
100
AcDbEntity
  8
1
  6
Continuous
 62
     0
370
    -2
100
AcDbLine
 10
27969.81356539316
 20
78917.16395421761
 30
0.0
 11
27969.81356539316
 21
79953.3374306467
 31
0.0
  0
LINE
  5
32E1
330
32DE
100
AcDbEntity
  8
1
  6
Continuous
 62
     0
370
    -2
100
AcDbLine
 10
26388.81772539316
 20
79953.1574306467
 30
0.0
 11
27469.81356539316
 21
79953.1574306467
 31
0.0
  0
INSERT
  5
32E2
330
32DE
100
AcDbEntity
  8
1
  6
Continuous
 62
     0
370
    -2
100
AcDbBlockReference
  2
_OPEN30
 10
25888.81772539316
 20
79953.1574306467
 30
0.0
 41
500.0
 42
500.0
 43
500.0
 50
180.0
  0
INSERT
  5
32E3
330
32DE
100
AcDbEntity
  8
1
  6
Continuous
 62
     0
370
    -2
100
AcDbBlockReference
  2
_OPEN30
 10
27969.81356539316
 20
79953.1574306467
 30
0.0
 41
500.0
 42
500.0
 43
500.0
  0
MTEXT
  5
32E4
330
32DE
100
AcDbEntity
  8
1
  6
Continuous
 62
     0
370
    13
100
AcDbMText
 10
26929.31564539316
 20
80203.15743064671
 30
0.0
 40
400.0
 41
0.0
 71
     5
 72
     1
  1
\A1;16
 73
     1
 44
1.0
  0
POINT
  5
32E5
330
32DE
100
AcDbEntity
  8
DEFPOINTS
  6
Continuous
 62
     0
100
AcDbPoint
 10
25888.81772539316
 20
77042.06286566722
 30
0.0
  0
POINT
  5
32E6
330
32DE
100
AcDbEntity
  8
DEFPOINTS
  6
Continuous
 62
     0
100
AcDbPoint
 10
27969.81356539316
 20
78917.10145421761
 30
0.0
  0
POINT
  5
32E7
330
32DE
100
AcDbEntity
  8
DEFPOINTS
  6
Continuous
 62
     0
100
AcDbPoint
 10
27969.81356539316
 20
79953.1574306467
 30
0.0
  0
ENDBLK
  5
32E9
330
32DE
100
AcDbEntity
  8
0
100
AcDbBlockEnd
  0
BLOCK
  5
3580
330
3576
100
AcDbEntity
  8
0
100
AcDbBlockBegin
  2
*D106
 70
     1
 10
0.0
 20
0.0
 30
0.0
  3
*D106
  1

  0
LINE
  5
35CC
330
3576
100
AcDbEntity
  8
1
  6
Continuous
 62
     0
370
    -2
100
AcDbLine
 10
5265.529583625135
 20
19199.82204011989
 30
0.0
 11
5265.529583625135
 21
21271.93399297807
 31
0.0
  0
LINE
  5
35CD
330
3576
100
AcDbEntity
  8
1
  6
Continuous
 62
     0
370
    -2
100
AcDbLine
 10
12116.01278362517
 20
19199.88454011989
 30
0.0
 11
12116.01278362517
 21
21271.93399297807
 31
0.0
  0
LINE
  5
35CE
330
3576
100
AcDbEntity
  8
1
  6
Continuous
 62
     0
370
    -2
100
AcDbLine
 10
5765.529583625135
 20
21271.75399297807
 30
0.0
 11
11616.01278362517
 21
21271.75399297807
 31
0.0
  0
INSERT
  5
35CF
330
3576
100
AcDbEntity
  8
1
  6
Continuous
 62
     0
370
    -2
100
AcDbBlockReference
  2
_OPEN30
 10
5265.529583625135
 20
21271.75399297807
 30
0.0
 41
500.0
 42
500.0
 43
500.0
 50
180.0
  0
INSERT
  5
35D0
330
3576
100
AcDbEntity
  8
1
  6
Continuous
 62
     0
370
    -2
100
AcDbBlockReference
  2
_OPEN30
 10
12116.01278362517
 20
21271.75399297807
 30
0.0
 41
500.0
 42
500.0
 43
500.0
  0
MTEXT
  5
35D1
330
3576
100
AcDbEntity
  8
1
  6
Continuous
 62
     0
370
    13
100
AcDbMText
 10
8690.771183625155
 20
21521.75399297807
 30
0.0
 40
400.0
 41
0.0
 71
     5
 72
     1
  1
\A1;53
 73
     1
 44
1.0
  0
POINT
  5
35D2
330
3576
100
AcDbEntity
  8
DEFPOINTS
  6
Continuous
 62
     0
100
AcDbPoint
 10
5265.529583625135
 20
19199.75954011989
 30
0.0
  0
POINT
  5
35D3
330
3576
100
AcDbEntity
  8
DEFPOINTS
  6
Continuous
 62
     0
100
AcDbPoint
 10
12116.01278362517
 20
19199.82204011989
 30
0.0
  0
POINT
  5
35D4
330
3576
100
AcDbEntity
  8
DEFPOINTS
  6
Continuous
 62
     0
100
AcDbPoint
 10
12116.01278362517
 20
21271.75399297807
 30
0.0
  0
ENDBLK
  5
3581
330
3576
100
AcDbEntity
  8
0
100
AcDbBlockEnd
  0
BLOCK
  5
358C
330
3582
100
AcDbEntity
  8
0
100
AcDbBlockBegin
  2
*D107
 70
     1
 10
0.0
 20
0.0
 30
0.0
  3
*D107
  1

  0
LINE
  5
35D5
330
3582
100
AcDbEntity
  8
1
  6
Continuous
 62
     0
370
    -2
100
AcDbLine
 10
12116.01278362517
 20
19199.82204011989
 30
0.0
 11
14445.92432039463
 21
19199.82204011989
 31
0.0
  0
LINE
  5
35D6
330
3582
100
AcDbEntity
  8
1
  6
Continuous
 62
     0
370
    -2
100
AcDbLine
 10
12116.07528362517
 20
13770.72795606135
 30
0.0
 11
14445.92432039463
 21
13770.72795606135
 31
0.0
  0
LINE
  5
35D7
330
3582
100
AcDbEntity
  8
1
  6
Continuous
 62
     0
370
    -2
100
AcDbLine
 10
14445.74432039463
 20
18699.82204011989
 30
0.0
 11
14445.74432039463
 21
14270.72795606135
 31
0.0
  0
INSERT
  5
35D8
330
3582
100
AcDbEntity
  8
1
  6
Continuous
 62
     0
370
    -2
100
AcDbBlockReference
  2
_OPEN30
 10
14445.74432039463
 20
19199.82204011989
 30
0.0
 41
500.0
 42
500.0
 43
500.0
 50
90.0
  0
INSERT
  5
35D9
330
3582
100
AcDbEntity
  8
1
  6
Continuous
 62
     0
370
    -2
100
AcDbBlockReference
  2
_OPEN30
 10
14445.74432039463
 20
13770.72795606135
 30
0.0
 41
500.0
 42
500.0
 43
500.0
 50
270.0
  0
MTEXT
  5
35DA
330
3582
100
AcDbEntity
  8
1
  6
Continuous
 62
     0
370
    13
100
AcDbMText
 10
14195.74432039463
 20
16485.27499809062
 30
0.0
 40
400.0
 41
0.0
 71
     5
 72
     1
  1
\A1;42
 11
0.0000000000000001
 21
1.0
 31
0.0
 73
     1
 44
1.0
  0
POINT
  5
35DB
330
3582
100
AcDbEntity
  8
DEFPOINTS
  6
Continuous
 62
     0
100
AcDbPoint
 10
12115.95028362517
 20
19199.82204011989
 30
0.0
  0
POINT
  5
35DC
330
3582
100
AcDbEntity
  8
DEFPOINTS
  6
Continuous
 62
     0
100
AcDbPoint
 10
12116.01278362517
 20
13770.72795606135
 30
0.0
  0
POINT
  5
35DD
330
3582
100
AcDbEntity
  8
DEFPOINTS
  6
Continuous
 62
     0
100
AcDbPoint
 10
14445.74432039463
 20
13770.72795606135
 30
0.0
  0
ENDBLK
  5
358D
330
3582
100
AcDbEntity
  8
0
100
AcDbBlockEnd
  0
BLOCK
  5
3598
330
358E
100
AcDbEntity
  8
0
100
AcDbBlockBegin
  2
*D108
 70
     1
 10
0.0
 20
0.0
 30
0.0
  3
*D108
  1

  0
LINE
  5
35DE
330
358E
100
AcDbEntity
  8
1
  6
Continuous
 62
     0
370
    -2
100
AcDbLine
 10
5911.801583625202
 20
19199.82204011989
 30
0.0
 11
5911.801583625202
 21
20236.08926654898
 31
0.0
  0
LINE
  5
35DF
330
358E
100
AcDbEntity
  8
1
  6
Continuous
 62
     0
370
    -2
100
AcDbLine
 10
11469.74078362519
 20
19199.88454011989
 30
0.0
 11
11469.74078362519
 21
20236.08926654898
 31
0.0
  0
LINE
  5
35E0
330
358E
100
AcDbEntity
  8
1
  6
Continuous
 62
     0
370
    -2
100
AcDbLine
 10
6411.801583625202
 20
20235.90926654899
 30
0.0
 11
10969.74078362519
 21
20235.90926654899
 31
0.0
  0
INSERT
  5
35E1
330
358E
100
AcDbEntity
  8
1
  6
Continuous
 62
     0
370
    -2
100
AcDbBlockReference
  2
_OPEN30
 10
5911.801583625202
 20
20235.90926654899
 30
0.0
 41
500.0
 42
500.0
 43
500.0
 50
180.0
  0
INSERT
  5
35E2
330
358E
100
AcDbEntity
  8
1
  6
Continuous
 62
     0
370
    -2
100
AcDbBlockReference
  2
_OPEN30
 10
11469.74078362519
 20
20235.90926654899
 30
0.0
 41
500.0
 42
500.0
 43
500.0
  0
MTEXT
  5
35E3
330
358E
100
AcDbEntity
  8
1
  6
Continuous
 62
     0
370
    13
100
AcDbMText
 10
8690.771183625196
 20
20485.90926654898
 30
0.0
 40
400.0
 41
0.0
 71
     5
 72
     1
  1
\A1;43
 73
     1
 44
1.0
  0
POINT
  5
35E4
330
358E
100
AcDbEntity
  8
DEFPOINTS
  6
Continuous
 62
     0
100
AcDbPoint
 10
5911.801583625202
 20
19199.75954011989
 30
0.0
  0
POINT
  5
35E5
330
358E
100
AcDbEntity
  8
DEFPOINTS
  6
Continuous
 62
     0
100
AcDbPoint
 10
11469.74078362519
 20
19199.82204011989
 30
0.0
  0
POINT
  5
35E6
330
358E
100
AcDbEntity
  8
DEFPOINTS
  6
Continuous
 62
     0
100
AcDbPoint
 10
11469.74078362519
 20
20235.90926654899
 30
0.0
  0
ENDBLK
  5
3599
330
358E
100
AcDbEntity
  8
0
100
AcDbBlockEnd
  0
BLOCK
  5
35A4
330
359A
100
AcDbEntity
  8
0
100
AcDbBlockBegin
  2
*D109
 70
     1
 10
0.0
 20
0.0
 30
0.0
  3
*D109
  1

  0
LINE
  5
35E7
330
359A
100
AcDbEntity
  8
1
  6
Continuous
 62
     0
370
    -2
100
AcDbLine
 10
12116.01278362517
 20
18553.3454304041
 30
0.0
 11
13481.23145355586
 21
18553.3454304041
 31
0.0
  0
LINE
  5
35E8
330
359A
100
AcDbEntity
  8
1
  6
Continuous
 62
     0
370
    -2
100
AcDbLine
 10
12116.07528362517
 20
14417.20463040407
 30
0.0
 11
13481.23145355586
 21
14417.20463040407
 31
0.0
  0
LINE
  5
35E9
330
359A
100
AcDbEntity
  8
1
  6
Continuous
 62
     0
370
    -2
100
AcDbLine
 10
13481.05145355586
 20
18053.3454304041
 30
0.0
 11
13481.05145355586
 21
14917.20463040406
 31
0.0
  0
INSERT
  5
35EA
330
359A
100
AcDbEntity
  8
1
  6
Continuous
 62
     0
370
    -2
100
AcDbBlockReference
  2
_OPEN30
 10
13481.05145355586
 20
18553.3454304041
 30
0.0
 41
500.0
 42
500.0
 43
500.0
 50
90.0
  0
INSERT
  5
35EB
330
359A
100
AcDbEntity
  8
1
  6
Continuous
 62
     0
370
    -2
100
AcDbBlockReference
  2
_OPEN30
 10
13481.05145355586
 20
14417.20463040407
 30
0.0
 41
500.0
 42
500.0
 43
500.0
 50
270.0
  0
MTEXT
  5
35EC
330
359A
100
AcDbEntity
  8
1
  6
Continuous
 62
     0
370
    13
100
AcDbMText
 10
13231.05145355586
 20
16485.27503040409
 30
0.0
 40
400.0
 41
0.0
 71
     5
 72
     1
  1
\A1;32
 11
0.0000000000000001
 21
1.0
 31
0.0
 73
     1
 44
1.0
  0
POINT
  5
35ED
330
359A
100
AcDbEntity
  8
DEFPOINTS
  6
Continuous
 62
     0
100
AcDbPoint
 10
12115.95028362517
 20
18553.3454304041
 30
0.0
  0
POINT
  5
35EE
330
359A
100
AcDbEntity
  8
DEFPOINTS
  6
Continuous
 62
     0
100
AcDbPoint
 10
12116.01278362517
 20
14417.20463040407
 30
0.0
  0
POINT
  5
35EF
330
359A
100
AcDbEntity
  8
DEFPOINTS
  6
Continuous
 62
     0
100
AcDbPoint
 10
13481.05145355586
 20
14417.20463040407
 30
0.0
  0
ENDBLK
  5
35A5
330
359A
100
AcDbEntity
  8
0
100
AcDbBlockEnd
  0
BLOCK
  5
35B1
330
35A6
100
AcDbEntity
  8
0
100
AcDbBlockBegin
  2
*D110
 70
     1
 10
0.0
 20
0.0
 30
0.0
  3
*D110
  1

  0
LINE
  5
35F0
330
35A6
100
AcDbEntity
  8
1
  6
Continuous
 62
     0
370
    -2
100
AcDbLine
 10
21084.19506272662
 20
19199.82204011989
 30
0.0
 11
21084.19506272662
 21
19718.16690333444
 31
0.0
  0
LINE
  5
35F1
330
35A6
100
AcDbEntity
  8
1
  6
Continuous
 62
     0
370
    -2
100
AcDbLine
 10
21859.72146272662
 20
19199.88454011989
 30
0.0
 11
21859.72146272662
 21
19718.16690333444
 31
0.0
  0
LINE
  5
35F2
330
35A6
100
AcDbEntity
  8
1
  6
Continuous
 62
     0
370
    -2
100
AcDbLine
 10
20584.19506272662
 20
19717.98690333444
 30
0.0
 11
20084.19506272662
 21
19717.98690333444
 31
0.0
  0
LINE
  5
35F3
330
35A6
100
AcDbEntity
  8
1
  6
Continuous
 62
     0
370
    -2
100
AcDbLine
 10
22359.72146272661
 20
19717.98690333444
 30
0.0
 11
22859.72146272662
 21
19717.98690333444
 31
0.0
  0
INSERT
  5
35F4
330
35A6
100
AcDbEntity
  8
1
  6
Continuous
 62
     0
370
    -2
100
AcDbBlockReference
  2
_OPEN30
 10
21084.19506272662
 20
19717.98690333444
 30
0.0
 41
500.0
 42
500.0
 43
500.0
  0
INSERT
  5
35F5
330
35A6
100
AcDbEntity
  8
1
  6
Continuous
 62
     0
370
    -2
100
AcDbBlockReference
  2
_OPEN30
 10
21859.72146272662
 20
19717.98690333444
 30
0.0
 41
500.0
 42
500.0
 43
500.0
 50
180.0
  0
MTEXT
  5
35F6
330
35A6
100
AcDbEntity
  8
1
  6
Continuous
 62
     0
370
    13
100
AcDbMText
 10
21471.95826272662
 20
19967.98690333444
 30
0.0
 40
400.0
 41
0.0
 71
     5
 72
     1
  1
\A1;6
 73
     1
 44
1.0
  0
POINT
  5
35F7
330
35A6
100
AcDbEntity
  8
DEFPOINTS
  6
Continuous
 62
     0
100
AcDbPoint
 10
21084.19506272662
 20
19199.75954011989
 30
0.0
  0
POINT
  5
35F8
330
35A6
100
AcDbEntity
  8
DEFPOINTS
  6
Continuous
 62
     0
100
AcDbPoint
 10
21859.72146272662
 20
19199.82204011989
 30
0.0
  0
POINT
  5
35F9
330
35A6
100
AcDbEntity
  8
DEFPOINTS
  6
Continuous
 62
     0
100
AcDbPoint
 10
21859.72146272662
 20
19717.98690333444
 30
0.0
  0
ENDBLK
  5
35B2
330
35A6
100
AcDbEntity
  8
0
100
AcDbBlockEnd
  0
BLOCK
  5
35BE
330
35B3
100
AcDbEntity
  8
0
100
AcDbBlockBegin
  2
*D111
 70
     1
 10
0.0
 20
0.0
 30
0.0
  3
*D111
  1

  0
LINE
  5
35FA
330
35B3
100
AcDbEntity
  8
1
  6
Continuous
 62
     0
370
    -2
100
AcDbLine
 10
20877.38802272664
 20
19199.82204011989
 30
0.0
 11
20877.38802272664
 21
21271.93399297807
 31
0.0
  0
LINE
  5
35FB
330
35B3
100
AcDbEntity
  8
1
  6
Continuous
 62
     0
370
    -2
100
AcDbLine
 10
21084.19506272662
 20
19199.88454011989
 30
0.0
 11
21084.19506272662
 21
21271.93399297807
 31
0.0
  0
LINE
  5
35FC
330
35B3
100
AcDbEntity
  8
1
  6
Continuous
 62
     0
370
    -2
100
AcDbLine
 10
21584.19506272662
 20
21271.75399297807
 30
0.0
 11
22084.19506272662
 21
21271.75399297807
 31
0.0
  0
LINE
  5
35FD
330
35B3
100
AcDbEntity
  8
1
  6
Continuous
 62
     0
370
    -2
100
AcDbLine
 10
20377.38802272664
 20
21271.75399297807
 30
0.0
 11
18177.38802272664
 21
21271.75399297807
 31
0.0
  0
INSERT
  5
35FE
330
35B3
100
AcDbEntity
  8
1
  6
Continuous
 62
     0
370
    -2
100
AcDbBlockReference
  2
_OPEN30
 10
21084.19506272662
 20
21271.75399297807
 30
0.0
 41
500.0
 42
500.0
 43
500.0
 50
180.0
  0
INSERT
  5
35FF
330
35B3
100
AcDbEntity
  8
1
  6
Continuous
 62
     0
370
    -2
100
AcDbBlockReference
  2
_OPEN30
 10
20877.38802272664
 20
21271.75399297807
 30
0.0
 41
500.0
 42
500.0
 43
500.0
  0
MTEXT
  5
3600
330
35B3
100
AcDbEntity
  8
1
  6
Continuous
 62
     0
370
    13
100
AcDbMText
 10
19027.38802272664
 20
21521.75399297807
 30
0.0
 40
400.0
 41
0.0
 71
     5
 72
     1
  1
\A1;(t1.6)
 73
     1
 44
1.0
  0
POINT
  5
3601
330
35B3
100
AcDbEntity
  8
DEFPOINTS
  6
Continuous
 62
     0
100
AcDbPoint
 10
20877.38802272664
 20
19199.75954011989
 30
0.0
  0
POINT
  5
3602
330
35B3
100
AcDbEntity
  8
DEFPOINTS
  6
Continuous
 62
     0
100
AcDbPoint
 10
21084.19506272662
 20
19199.82204011989
 30
0.0
  0
POINT
  5
3603
330
35B3
100
AcDbEntity
  8
DEFPOINTS
  6
Continuous
 62
     0
100
AcDbPoint
 10
21084.19506272662
 20
21271.75399297807
 30
0.0
  0
ENDBLK
  5
35BF
330
35B3
100
AcDbEntity
  8
0
100
AcDbBlockEnd
  0
BLOCK
  5
35CA
330
35C0
100
AcDbEntity
  8
0
100
AcDbBlockBegin
  2
*D112
 70
     1
 10
0.0
 20
0.0
 30
0.0
  3
*D112
  1

  0
LINE
  5
3604
330
35C0
100
AcDbEntity
  8
1
  6
Continuous
 62
     0
370
    -2
100
AcDbLine
 10
18796.39218272665
 20
17324.8459515695
 30
0.0
 11
18796.39218272665
 21
20236.05801654898
 31
0.0
  0
LINE
  5
3605
330
35C0
100
AcDbEntity
  8
1
  6
Continuous
 62
     0
370
    -2
100
AcDbLine
 10
20877.38802272664
 20
19199.88454011989
 30
0.0
 11
20877.38802272664
 21
20236.05801654898
 31
0.0
  0
LINE
  5
3606
330
35C0
100
AcDbEntity
  8
1
  6
Continuous
 62
     0
370
    -2
100
AcDbLine
 10
19296.39218272664
 20
20235.87801654898
 30
0.0
 11
20377.38802272664
 21
20235.87801654898
 31
0.0
  0
INSERT
  5
3607
330
35C0
100
AcDbEntity
  8
1
  6
Continuous
 62
     0
370
    -2
100
AcDbBlockReference
  2
_OPEN30
 10
18796.39218272665
 20
20235.87801654898
 30
0.0
 41
500.0
 42
500.0
 43
500.0
 50
180.0
  0
INSERT
  5
3608
330
35C0
100
AcDbEntity
  8
1
  6
Continuous
 62
     0
370
    -2
100
AcDbBlockReference
  2
_OPEN30
 10
20877.38802272664
 20
20235.87801654898
 30
0.0
 41
500.0
 42
500.0
 43
500.0
  0
MTEXT
  5
3609
330
35C0
100
AcDbEntity
  8
1
  6
Continuous
 62
     0
370
    13
100
AcDbMText
 10
19836.89010272664
 20
20485.87801654898
 30
0.0
 40
400.0
 41
0.0
 71
     5
 72
     1
  1
\A1;16
 73
     1
 44
1.0
  0
POINT
  5
360A
330
35C0
100
AcDbEntity
  8
DEFPOINTS
  6
Continuous
 62
     0
100
AcDbPoint
 10
18796.39218272665
 20
17324.7834515695
 30
0.0
  0
POINT
  5
360B
330
35C0
100
AcDbEntity
  8
DEFPOINTS
  6
Continuous
 62
     0
100
AcDbPoint
 10
20877.38802272664
 20
19199.82204011989
 30
0.0
  0
POINT
  5
360C
330
35C0
100
AcDbEntity
  8
DEFPOINTS
  6
Continuous
 62
     0
100
AcDbPoint
 10
20877.38802272664
 20
20235.87801654898
 30
0.0
  0
ENDBLK
  5
35CB
330
35C0
100
AcDbEntity
  8
0
100
AcDbBlockEnd
  0
ENDSEC
  0
SECTION
  2
ENTITIES
  0
LINE
  5
3432
330
1F
100
AcDbEntity
  8
0
370
    13
100
AcDbLine
 10
1760.621703309245
 20
27169.22064751728
 30
0.0
 11
24341.07937535394
 21
27169.22064751728
 31
0.0
  0
LINE
  5
3433
330
1F
100
AcDbEntity
  8
1
  6
Continuous
 62
     7
370
    13
100
AcDbLine
 10
4516.320480871835
 20
27169.22064751728
 30
0.0
 11
4516.320480871835
 21
25332.08812914232
 31
0.0
  0
LINE
  5
3434
330
1F
100
AcDbEntity
  8
1
  6
Continuous
 62
     7
370
    13
100
AcDbLine
 10
1760.621703309245
 20
25332.08812914232
 30
0.0
 11
24341.07937535231
 21
25332.08812914232
 31
0.0
  0
LINE
  5
3435
330
1F
100
AcDbEntity
  8
1
  6
Continuous
 62
     7
370
    13
100
AcDbLine
 10
1760.621703309245
 20
27169.22064751728
 30
0.0
 11
1760.621703309245
 21
2089.264622727176
 31
0.0
  0
LINE
  5
3436
330
1F
100
AcDbEntity
  8
0
370
    13
100
AcDbLine
 10
1760.621703309245
 20
2089.264622727176
 30
0.0
 11
24341.07937535394
 21
2089.264622727176
 31
0.0
  0
LINE
  5
3437
330
1F
100
AcDbEntity
  8
1
  6
Continuous
 62
     7
370
    13
100
AcDbLine
 10
24341.07937535394
 20
27169.22064751728
 30
0.0
 11
24341.07937535394
 21
2089.264622727176
 31
0.0
  0
LINE
  5
3438
330
1F
100
AcDbEntity
  8
1
  6
Continuous
 62
     7
370
    13
100
AcDbLine
 10
12116.01278362517
 20
19199.82204011989
 30
0.0
 11
5265.529583625135
 21
19199.82204011989
 31
0.0
  0
LINE
  5
3439
330
1F
100
AcDbEntity
  8
1
  6
Continuous
 62
     7
370
    13
100
AcDbLine
 10
5265.529583625135
 20
19199.82204011989
 30
0.0
 11
5265.529583625135
 21
13770.72795606135
 31
0.0
  0
LINE
  5
343A
330
1F
100
AcDbEntity
  8
1
  6
Continuous
 62
     7
370
    13
100
AcDbLine
 10
5265.529583625135
 20
13770.72795606135
 30
0.0
 11
12116.01278362517
 21
13770.72795606135
 31
0.0
  0
LINE
  5
343B
330
1F
100
AcDbEntity
  8
1
  6
Continuous
 62
     7
370
    13
100
AcDbLine
 10
12116.01278362517
 20
13770.72795606135
 30
0.0
 11
12116.01278362517
 21
19199.82204011989
 31
0.0
  0
CIRCLE
  5
343C
330
1F
100
AcDbEntity
  8
1
  6
Continuous
 62
     7
370
    13
100
AcDbCircle
 10
11469.74078362519
 20
14417.20463040408
 30
0.0
 40
646.272
  0
CIRCLE
  5
343D
330
1F
100
AcDbEntity
  8
1
  6
Continuous
 62
     7
370
    13
100
AcDbCircle
 10
11469.74078362519
 20
18553.34543040409
 30
0.0
 40
646.272
  0
CIRCLE
  5
343E
330
1F
100
AcDbEntity
  8
1
  6
Continuous
 62
     7
370
    13
100
AcDbCircle
 10
5911.801583625202
 20
18553.34543040409
 30
0.0
 40
646.272
  0
CIRCLE
  5
343F
330
1F
100
AcDbEntity
  8
1
  6
Continuous
 62
     7
370
    13
100
AcDbCircle
 10
5911.801583625202
 20
14417.20463040408
 30
0.0
 40
646.272
  0
CIRCLE
  5
3440
330
1F
100
AcDbEntity
  8
1
  6
Continuous
 62
     7
370
    13
100
AcDbCircle
 10
11469.74078362519
 20
18553.34543040409
 30
0.0
 40
420.0768
  0
CIRCLE
  5
3441
330
1F
100
AcDbEntity
  8
1
  6
Continuous
 62
     7
370
    13
100
AcDbCircle
 10
11469.74078362519
 20
14417.20463040408
 30
0.0
 40
420.0768
  0
CIRCLE
  5
3442
330
1F
100
AcDbEntity
  8
1
  6
Continuous
 62
     7
370
    13
100
AcDbCircle
 10
5911.801583625202
 20
18553.34543040409
 30
0.0
 40
420.0768
  0
CIRCLE
  5
3443
330
1F
100
AcDbEntity
  8
1
  6
Continuous
 62
     7
370
    13
100
AcDbCircle
 10
5911.801583625202
 20
14417.20463040408
 30
0.0
 40
420.0768
  0
LINE
  5
3444
330
1F
100
AcDbEntity
  8
1
  6
Continuous
 62
     7
370
    13
100
AcDbLine
 10
6105.68318362514
 20
17293.11503040407
 30
0.0
 11
5588.665583625167
 21
17293.11503040407
 31
0.0
  0
LINE
  5
3445
330
1F
100
AcDbEntity
  8
1
  6
Continuous
 62
     7
370
    13
100
AcDbLine
 10
5588.665583625167
 20
17293.11503040407
 30
0.0
 11
5588.665583625167
 21
15677.43503040408
 31
0.0
  0
LINE
  5
3446
330
1F
100
AcDbEntity
  8
1
  6
Continuous
 62
     7
370
    13
100
AcDbLine
 10
5588.665583625167
 20
15677.43503040408
 30
0.0
 11
6105.68318362514
 21
15677.43503040408
 31
0.0
  0
LINE
  5
3447
330
1F
100
AcDbEntity
  8
1
  6
Continuous
 62
     7
370
    13
100
AcDbLine
 10
6105.68318362514
 20
17293.11503040407
 30
0.0
 11
6364.191983625165
 21
17293.11503040407
 31
0.0
  0
LINE
  5
3448
330
1F
100
AcDbEntity
  8
1
  6
Continuous
 62
     7
370
    13
100
AcDbLine
 10
6364.191983625165
 20
17293.11503040407
 30
0.0
 11
6364.191983625165
 21
15677.43503040408
 31
0.0
  0
LINE
  5
3449
330
1F
100
AcDbEntity
  8
1
  6
Continuous
 62
     7
370
    13
100
AcDbLine
 10
6364.191983625165
 20
15677.43503040408
 30
0.0
 11
6105.68318362514
 21
15677.43503040408
 31
0.0
  0
LINE
  5
344A
330
1F
100
AcDbEntity
  8
1
  6
Continuous
 62
     7
370
    13
100
AcDbLine
 10
6234.937583625153
 20
15677.43503040408
 30
0.0
 11
6234.937583625153
 21
15935.94383040408
 31
0.0
  0
LINE
  5
344B
330
1F
100
AcDbEntity
  8
1
  6
Continuous
 62
     7
370
    13
100
AcDbLine
 10
6234.937583625153
 20
15935.94383040408
 30
0.0
 11
6364.191983625165
 21
15935.94383040408
 31
0.0
  0
LINE
  5
344C
330
1F
100
AcDbEntity
  8
1
  6
Continuous
 62
     7
370
    13
100
AcDbLine
 10
6364.191983625165
 20
17034.60623040409
 30
0.0
 11
6234.937583625153
 21
17034.60623040409
 31
0.0
  0
LINE
  5
344D
330
1F
100
AcDbEntity
  8
1
  6
Continuous
 62
     7
370
    13
100
AcDbLine
 10
6234.937583625153
 20
17034.60623040409
 30
0.0
 11
6234.937583625153
 21
17293.11503040407
 31
0.0
  0
LINE
  5
344E
330
1F
100
AcDbEntity
  8
1
  6
Continuous
 62
     7
370
    13
100
AcDbLine
 10
11081.97758362515
 20
17130.9643515695
 30
0.0
 11
11081.97758362515
 21
15838.42035156949
 31
0.0
  0
LINE
  5
344F
330
1F
100
AcDbEntity
  8
1
  6
Continuous
 62
     7
370
    13
100
AcDbLine
 10
11081.97758362515
 20
15838.42035156949
 30
0.0
 11
10952.72318362513
 21
15838.42035156949
 31
0.0
  0
LINE
  5
3450
330
1F
100
AcDbEntity
  8
1
  6
Continuous
 62
     7
370
    13
100
AcDbLine
 10
11081.97758362515
 20
17130.9643515695
 30
0.0
 11
10952.72318362513
 21
17130.9643515695
 31
0.0
  0
LINE
  5
3451
330
1F
100
AcDbEntity
  8
1
  6
DASHDOT
 62
     7
370
    13
100
AcDbLine
 10
12762.28478362516
 20
16485.27503040408
 30
0.0
 11
4619.257583625151
 21
16485.27503040408
 31
0.0
  0
LINE
  5
3452
330
1F
100
AcDbEntity
  8
1
  6
DASHDOT
 62
     7
370
    13
100
AcDbLine
 10
8690.771183625155
 20
13124.45595606135
 30
0.0
 11
8690.771183625155
 21
19846.0940401199
 31
0.0
  0
LINE
  5
3453
330
1F
100
AcDbEntity
  8
1
  6
Continuous
 62
     7
370
    13
100
AcDbLine
 10
20877.38802272664
 20
13770.72795606135
 30
0.0
 11
21084.19506272662
 21
13770.72795606135
 31
0.0
  0
LINE
  5
3454
330
1F
100
AcDbEntity
  8
1
  6
Continuous
 62
     7
370
    13
100
AcDbLine
 10
21084.19506272662
 20
13770.72795606135
 30
0.0
 11
21859.72146272662
 21
13770.72795606135
 31
0.0
  0
LINE
  5
3455
330
1F
100
AcDbEntity
  8
1
  6
Continuous
 62
     7
370
    13
100
AcDbLine
 10
21859.72146272662
 20
13770.72795606135
 30
0.0
 11
21859.72146272662
 21
15063.27195606134
 31
0.0
  0
LINE
  5
3456
330
1F
100
AcDbEntity
  8
1
  6
Continuous
 62
     7
370
    13
100
AcDbLine
 10
21859.72146272662
 20
15063.27195606134
 30
0.0
 11
21084.19506272662
 21
15063.27195606134
 31
0.0
  0
LINE
  5
3457
330
1F
100
AcDbEntity
  8
1
  6
Continuous
 62
     7
370
    13
100
AcDbLine
 10
20877.38802272664
 20
13770.72795606135
 30
0.0
 11
20231.11602272666
 21
13770.72795606135
 31
0.0
  0
LINE
  5
3458
330
1F
100
AcDbEntity
  8
1
  6
Continuous
 62
     7
370
    13
100
AcDbLine
 10
20231.11602272666
 20
13770.72795606135
 30
0.0
 11
20231.11602272666
 21
15063.27195606134
 31
0.0
  0
LINE
  5
3459
330
1F
100
AcDbEntity
  8
1
  6
Continuous
 62
     7
370
    13
100
AcDbLine
 10
20231.11602272666
 20
15063.27195606134
 30
0.0
 11
20877.38802272664
 21
15063.27195606134
 31
0.0
  0
LINE
  5
345A
330
1F
100
AcDbEntity
  8
1
  6
Continuous
 62
     7
370
    13
100
AcDbLine
 10
20877.38802272664
 20
19199.82204011989
 30
0.0
 11
20231.11602272666
 21
19199.82204011989
 31
0.0
  0
LINE
  5
345B
330
1F
100
AcDbEntity
  8
1
  6
Continuous
 62
     7
370
    13
100
AcDbLine
 10
20231.11602272666
 20
19199.82204011989
 30
0.0
 11
20231.11602272666
 21
17907.27804011991
 31
0.0
  0
LINE
  5
345C
330
1F
100
AcDbEntity
  8
1
  6
Continuous
 62
     7
370
    13
100
AcDbLine
 10
20231.11602272666
 20
17907.27804011991
 30
0.0
 11
20877.38802272664
 21
17907.27804011991
 31
0.0
  0
LINE
  5
345D
330
1F
100
AcDbEntity
  8
1
  6
Continuous
 62
     7
370
    13
100
AcDbLine
 10
21084.19506272662
 20
17907.27804011991
 30
0.0
 11
21859.72146272662
 21
17907.27804011991
 31
0.0
  0
LINE
  5
345E
330
1F
100
AcDbEntity
  8
1
  6
Continuous
 62
     7
370
    13
100
AcDbLine
 10
21859.72146272662
 20
17907.27804011991
 30
0.0
 11
21859.72146272662
 21
19199.82204011989
 31
0.0
  0
LINE
  5
345F
330
1F
100
AcDbEntity
  8
1
  6
Continuous
 62
     7
370
    13
100
AcDbLine
 10
21859.72146272662
 20
19199.82204011989
 30
0.0
 11
21084.19506272662
 21
19199.82204011989
 31
0.0
  0
LINE
  5
3460
330
1F
100
AcDbEntity
  8
1
  6
Continuous
 62
     7
370
    13
100
AcDbLine
 10
21084.19506272662
 20
13770.72795606135
 30
0.0
 11
21084.19506272662
 21
19199.82204011989
 31
0.0
  0
LINE
  5
3461
330
1F
100
AcDbEntity
  8
1
  6
Continuous
 62
     7
370
    13
100
AcDbLine
 10
20877.38802272664
 20
19199.82204011989
 30
0.0
 11
20877.38802272664
 21
13770.72795606135
 31
0.0
  0
LINE
  5
3462
330
1F
100
AcDbEntity
  8
1
  6
Continuous
 62
     7
370
    13
100
AcDbLine
 10
20877.38802272664
 20
19199.82204011989
 30
0.0
 11
21084.19506272662
 21
19199.82204011989
 31
0.0
  0
LINE
  5
3463
330
1F
100
AcDbEntity
  8
1
  6
Continuous
 62
     7
370
    13
100
AcDbLine
 10
20877.38802272664
 20
17260.21875156951
 30
0.0
 11
20424.99762272668
 21
17260.21875156951
 31
0.0
  0
LINE
  5
3464
330
1F
100
AcDbEntity
  8
1
  6
Continuous
 62
     7
370
    13
100
AcDbLine
 10
20424.99762272668
 20
17260.21875156951
 30
0.0
 11
20424.99762272668
 21
15709.1659515695
 31
0.0
  0
LINE
  5
3465
330
1F
100
AcDbEntity
  8
1
  6
Continuous
 62
     7
370
    13
100
AcDbLine
 10
20424.99762272668
 20
15709.1659515695
 30
0.0
 11
20877.38802272664
 21
15709.1659515695
 31
0.0
  0
LINE
  5
3466
330
1F
100
AcDbEntity
  8
1
  6
Continuous
 62
     7
370
    13
100
AcDbLine
 10
20424.99762272668
 20
15644.53875156949
 30
0.0
 11
20424.99762272668
 21
17324.8459515695
 31
0.0
  0
LINE
  5
3467
330
1F
100
AcDbEntity
  8
1
  6
Continuous
 62
     7
370
    13
100
AcDbLine
 10
20424.99762272668
 20
17324.8459515695
 30
0.0
 11
18796.39218272665
 21
17324.8459515695
 31
0.0
  0
LINE
  5
3468
330
1F
100
AcDbEntity
  8
1
  6
Continuous
 62
     7
370
    13
100
AcDbLine
 10
18796.39218272665
 20
17324.8459515695
 30
0.0
 11
18796.39218272665
 21
15644.53875156949
 31
0.0
  0
LINE
  5
3469
330
1F
100
AcDbEntity
  8
1
  6
Continuous
 62
     7
370
    13
100
AcDbLine
 10
18796.39218272665
 20
15644.53875156949
 30
0.0
 11
20424.99762272668
 21
15644.53875156949
 31
0.0
  0
LINE
  5
346A
330
1F
100
AcDbEntity
  8
1
  6
Continuous
 62
     7
370
    13
100
AcDbLine
 10
18796.39218272665
 20
15709.1659515695
 30
0.0
 11
18925.64658272666
 21
15709.1659515695
 31
0.0
  0
LINE
  5
346B
330
1F
100
AcDbEntity
  8
1
  6
Continuous
 62
     7
370
    13
100
AcDbLine
 10
18925.64658272666
 20
15709.1659515695
 30
0.0
 11
18925.64658272666
 21
17260.21875156951
 31
0.0
  0
LINE
  5
346C
330
1F
100
AcDbEntity
  8
1
  6
Continuous
 62
     7
370
    13
100
AcDbLine
 10
18925.64658272666
 20
17260.21875156951
 30
0.0
 11
18796.39218272665
 21
17260.21875156951
 31
0.0
  0
LINE
  5
346D
330
1F
100
AcDbEntity
  8
1
  6
Continuous
 62
     7
370
    13
100
AcDbLine
 10
20877.38802272664
 20
17182.6661115695
 30
0.0
 11
20748.13362272663
 21
17182.6661115695
 31
0.0
  0
LINE
  5
346E
330
1F
100
AcDbEntity
  8
1
  6
Continuous
 62
     7
370
    13
100
AcDbLine
 10
20748.13362272663
 20
17182.6661115695
 30
0.0
 11
20748.13362272663
 21
17027.56083156874
 31
0.0
  0
LINE
  5
346F
330
1F
100
AcDbEntity
  8
1
  6
Continuous
 62
     7
370
    13
100
AcDbLine
 10
20748.13362272663
 20
17027.56083156874
 30
0.0
 11
20877.38802272664
 21
17027.56083156874
 31
0.0
  0
LINE
  5
3470
330
1F
100
AcDbEntity
  8
1
  6
Continuous
 62
     7
370
    13
100
AcDbLine
 10
20877.38802272664
 20
16872.45555156951
 30
0.0
 11
20748.13362272663
 21
16872.45555156951
 31
0.0
  0
LINE
  5
3471
330
1F
100
AcDbEntity
  8
1
  6
Continuous
 62
     7
370
    13
100
AcDbLine
 10
20748.13362272663
 20
16872.45555156951
 30
0.0
 11
20748.13362272663
 21
16717.3502715695
 31
0.0
  0
LINE
  5
3472
330
1F
100
AcDbEntity
  8
1
  6
Continuous
 62
     7
370
    13
100
AcDbLine
 10
20748.13362272663
 20
16717.3502715695
 30
0.0
 11
20877.38802272664
 21
16717.3502715695
 31
0.0
  0
LINE
  5
3473
330
1F
100
AcDbEntity
  8
1
  6
Continuous
 62
     7
370
    13
100
AcDbLine
 10
20877.38802272664
 20
16562.24499156874
 30
0.0
 11
20748.13362272663
 21
16562.24499156874
 31
0.0
  0
LINE
  5
3474
330
1F
100
AcDbEntity
  8
1
  6
Continuous
 62
     7
370
    13
100
AcDbLine
 10
20748.13362272663
 20
16562.24499156874
 30
0.0
 11
20748.13362272663
 21
16407.1397115695
 31
0.0
  0
LINE
  5
3475
330
1F
100
AcDbEntity
  8
1
  6
Continuous
 62
     7
370
    13
100
AcDbLine
 10
20748.13362272663
 20
16407.1397115695
 30
0.0
 11
20877.38802272664
 21
16407.1397115695
 31
0.0
  0
LINE
  5
3476
330
1F
100
AcDbEntity
  8
1
  6
Continuous
 62
     7
370
    13
100
AcDbLine
 10
20877.38802272664
 20
16252.03443156875
 30
0.0
 11
20748.13362272663
 21
16252.03443156875
 31
0.0
  0
LINE
  5
3477
330
1F
100
AcDbEntity
  8
1
  6
Continuous
 62
     7
370
    13
100
AcDbLine
 10
20748.13362272663
 20
16096.9291515695
 30
0.0
 11
20877.38802272664
 21
16096.9291515695
 31
0.0
  0
LINE
  5
3478
330
1F
100
AcDbEntity
  8
1
  6
Continuous
 62
     7
370
    13
100
AcDbLine
 10
20748.13362272663
 20
16252.03443156875
 30
0.0
 11
20748.13362272663
 21
16096.9291515695
 31
0.0
  0
LINE
  5
3479
330
1F
100
AcDbEntity
  8
1
  6
Continuous
 62
     7
370
    13
100
AcDbLine
 10
20877.38802272664
 20
15941.82387156949
 30
0.0
 11
20748.13362272663
 21
15941.82387156949
 31
0.0
  0
LINE
  5
347A
330
1F
100
AcDbEntity
  8
1
  6
Continuous
 62
     7
370
    13
100
AcDbLine
 10
20748.13362272663
 20
15941.82387156949
 30
0.0
 11
20748.13362272663
 21
15786.71859156874
 31
0.0
  0
LINE
  5
347B
330
1F
100
AcDbEntity
  8
1
  6
Continuous
 62
     7
370
    13
100
AcDbLine
 10
20748.13362272663
 20
15786.71859156874
 30
0.0
 11
20877.38802272664
 21
15786.71859156874
 31
0.0
  0
LINE
  5
347C
330
1F
100
AcDbEntity
  8
1
  6
Continuous
 62
     7
370
    13
100
AcDbLine
 10
20360.37042272668
 20
17027.56083156874
 30
0.0
 11
20360.37042272668
 21
17182.6661115695
 31
0.0
  0
LINE
  5
347D
330
1F
100
AcDbEntity
  8
1
  6
Continuous
 62
     7
370
    13
100
AcDbLine
 10
20360.37042272668
 20
17182.6661115695
 30
0.0
 11
19972.60722272663
 21
17182.6661115695
 31
0.0
  0
LINE
  5
347E
330
1F
100
AcDbEntity
  8
1
  6
Continuous
 62
     7
370
    13
100
AcDbLine
 10
19972.60722272663
 20
17182.6661115695
 30
0.0
 11
19972.60722272663
 21
17027.56083156874
 31
0.0
  0
LINE
  5
347F
330
1F
100
AcDbEntity
  8
1
  6
Continuous
 62
     7
370
    13
100
AcDbLine
 10
19972.60722272663
 20
17027.56083156874
 30
0.0
 11
20360.37042272668
 21
17027.56083156874
 31
0.0
  0
LINE
  5
3480
330
1F
100
AcDbEntity
  8
1
  6
Continuous
 62
     7
370
    13
100
AcDbLine
 10
20360.37042272668
 20
16872.45555156951
 30
0.0
 11
19972.60722272663
 21
16872.45555156951
 31
0.0
  0
LINE
  5
3481
330
1F
100
AcDbEntity
  8
1
  6
Continuous
 62
     7
370
    13
100
AcDbLine
 10
19972.60722272663
 20
16872.45555156951
 30
0.0
 11
19972.60722272663
 21
16717.3502715695
 31
0.0
  0
LINE
  5
3482
330
1F
100
AcDbEntity
  8
1
  6
Continuous
 62
     7
370
    13
100
AcDbLine
 10
19972.60722272663
 20
16717.3502715695
 30
0.0
 11
20360.37042272668
 21
16717.3502715695
 31
0.0
  0
LINE
  5
3483
330
1F
100
AcDbEntity
  8
1
  6
Continuous
 62
     7
370
    13
100
AcDbLine
 10
20360.37042272668
 20
16717.3502715695
 30
0.0
 11
20360.37042272668
 21
16872.45555156951
 31
0.0
  0
LINE
  5
3484
330
1F
100
AcDbEntity
  8
1
  6
Continuous
 62
     7
370
    13
100
AcDbLine
 10
20360.37042272668
 20
16562.24499156874
 30
0.0
 11
19972.60722272663
 21
16562.24499156874
 31
0.0
  0
LINE
  5
3485
330
1F
100
AcDbEntity
  8
1
  6
Continuous
 62
     7
370
    13
100
AcDbLine
 10
19972.60722272663
 20
16562.24499156874
 30
0.0
 11
19972.60722272663
 21
16407.1397115695
 31
0.0
  0
LINE
  5
3486
330
1F
100
AcDbEntity
  8
1
  6
Continuous
 62
     7
370
    13
100
AcDbLine
 10
19972.60722272663
 20
16407.1397115695
 30
0.0
 11
20360.37042272668
 21
16407.1397115695
 31
0.0
  0
LINE
  5
3487
330
1F
100
AcDbEntity
  8
1
  6
Continuous
 62
     7
370
    13
100
AcDbLine
 10
20360.37042272668
 20
16407.1397115695
 30
0.0
 11
20360.37042272668
 21
16562.24499156874
 31
0.0
  0
LINE
  5
3488
330
1F
100
AcDbEntity
  8
1
  6
Continuous
 62
     7
370
    13
100
AcDbLine
 10
20360.37042272668
 20
16252.03443156875
 30
0.0
 11
19972.60722272663
 21
16252.03443156875
 31
0.0
  0
LINE
  5
3489
330
1F
100
AcDbEntity
  8
1
  6
Continuous
 62
     7
370
    13
100
AcDbLine
 10
19972.60722272663
 20
16252.03443156875
 30
0.0
 11
19972.60722272663
 21
16096.9291515695
 31
0.0
  0
LINE
  5
348A
330
1F
100
AcDbEntity
  8
1
  6
Continuous
 62
     7
370
    13
100
AcDbLine
 10
19972.60722272663
 20
16096.9291515695
 30
0.0
 11
20360.37042272668
 21
16096.9291515695
 31
0.0
  0
LINE
  5
348B
330
1F
100
AcDbEntity
  8
1
  6
Continuous
 62
     7
370
    13
100
AcDbLine
 10
20360.37042272668
 20
16252.03443156875
 30
0.0
 11
20360.37042272668
 21
16096.9291515695
 31
0.0
  0
LINE
  5
348C
330
1F
100
AcDbEntity
  8
1
  6
Continuous
 62
     7
370
    13
100
AcDbLine
 10
20360.37042272668
 20
15941.82387156949
 30
0.0
 11
20360.37042272668
 21
15786.71859156874
 31
0.0
  0
LINE
  5
348D
330
1F
100
AcDbEntity
  8
1
  6
Continuous
 62
     7
370
    13
100
AcDbLine
 10
20360.37042272668
 20
15786.71859156874
 30
0.0
 11
19972.60722272663
 21
15786.71859156874
 31
0.0
  0
LINE
  5
348E
330
1F
100
AcDbEntity
  8
1
  6
Continuous
 62
     7
370
    13
100
AcDbLine
 10
19972.60722272663
 20
15786.71859156874
 30
0.0
 11
19972.60722272663
 21
15941.82387156949
 31
0.0
  0
LINE
  5
348F
330
1F
100
AcDbEntity
  8
1
  6
Continuous
 62
     7
370
    13
100
AcDbLine
 10
19972.60722272663
 20
15941.82387156949
 30
0.0
 11
20360.37042272668
 21
15941.82387156949
 31
0.0
  0
LINE
  5
3490
330
1F
100
AcDbEntity
  8
1
  6
Continuous
 62
     7
370
    13
100
AcDbLine
 10
18045.57540961724
 20
16095.21258850953
 30
0.0
 11
18796.39218272665
 21
16095.21258850953
 31
0.0
  0
LINE
  5
3491
330
1F
100
AcDbEntity
  8
1
  6
Continuous
 62
     7
370
    13
100
AcDbLine
 10
18121.18199445027
 20
16288.49089359768
 30
0.0
 11
18796.39218272665
 21
16288.49089359768
 31
0.0
  0
LINE
  5
3492
330
1F
100
AcDbEntity
  8
1
  6
Continuous
 62
     7
370
    13
100
AcDbLine
 10
17704.34379361854
 20
16371.81700451059
 30
0.0
 11
18796.39218272665
 21
16371.81700451059
 31
0.0
  0
LINE
  5
3493
330
1F
100
AcDbEntity
  8
1
  6
Continuous
 62
     7
370
    13
100
AcDbLine
 10
17779.95037845147
 20
16565.09530959796
 30
0.0
 11
18796.39218272665
 21
16565.09530959796
 31
0.0
  0
LINE
  5
3494
330
1F
100
AcDbEntity
  8
1
  6
Continuous
 62
     7
370
    13
100
AcDbLine
 10
17427.73937761968
 20
16648.42142051014
 30
0.0
 11
18796.39218272665
 21
16648.42142051014
 31
0.0
  0
LINE
  5
3495
330
1F
100
AcDbEntity
  8
1
  6
Continuous
 62
     7
370
    13
100
AcDbLine
 10
17503.34596244961
 20
16841.69972559755
 30
0.0
 11
18796.39218272665
 21
16841.69972559752
 31
0.0
  0
LINE
  5
3496
330
1F
100
AcDbEntity
  8
1
  6
Continuous
 62
     7
370
    13
100
AcDbLine
 10
17151.13496161787
 20
16925.02583651042
 30
0.0
 11
18796.39218272665
 21
16925.02583651042
 31
0.0
  0
LINE
  5
3497
330
1F
100
AcDbEntity
  8
1
  6
Continuous
 62
     7
370
    13
100
AcDbLine
 10
17226.74154645089
 20
17118.30414159779
 30
0.0
 11
18796.39218272665
 21
17118.30414159779
 31
0.0
  0
ARC
  5
3498
330
1F
100
AcDbEntity
  8
1
  6
Continuous
 62
     7
370
    13
100
AcDbCircle
 10
16612.93825403589
 20
10468.1555675177
 30
0.0
 40
106.196707584
100
AcDbArc
 50
180.0
 51
0.0
  0
LINE
  5
3499
330
1F
100
AcDbEntity
  8
1
  6
Continuous
 62
     7
370
    13
100
AcDbLine
 10
16506.74154645089
 20
10468.1555675177
 30
0.0
 11
16506.74154645089
 21
12406.86512651911
 31
0.0
  0
LINE
  5
349A
330
1F
100
AcDbEntity
  8
1
  6
Continuous
 62
     7
370
    13
100
AcDbLine
 10
16719.13496161787
 20
10468.1555675177
 30
0.0
 11
16719.13496161787
 21
12477.85661929415
 31
0.0
  0
LINE
  5
349B
330
1F
100
AcDbEntity
  8
1
  6
Continuous
 62
     7
370
    13
100
AcDbLine
 10
16612.93825403589
 20
10361.95885993346
 30
0.0
 11
16612.93825403589
 21
9985.243356637992
 31
0.0
  0
ARC
  5
349C
330
1F
100
AcDbEntity
  8
1
  6
Continuous
 62
     7
370
    13
100
AcDbCircle
 10
16889.54267003467
 20
10468.1555675177
 30
0.0
 40
106.196707584
100
AcDbArc
 50
180.0
 51
0.0
  0
LINE
  5
349D
330
1F
100
AcDbEntity
  8
1
  6
Continuous
 62
     7
370
    13
100
AcDbLine
 10
16889.54267003467
 20
10361.95885993346
 30
0.0
 11
16889.54267003467
 21
9985.243356637992
 31
0.0
  0
ARC
  5
349E
330
1F
100
AcDbEntity
  8
1
  6
Continuous
 62
     7
370
    13
100
AcDbCircle
 10
17166.14708603648
 20
10468.1555675177
 30
0.0
 40
106.196707584
100
AcDbArc
 50
180.0
 51
0.0
  0
LINE
  5
349F
330
1F
100
AcDbEntity
  8
1
  6
Continuous
 62
     7
370
    13
100
AcDbLine
 10
17166.14708603648
 20
10361.95885993346
 30
0.0
 11
17166.14708603648
 21
9985.243356637992
 31
0.0
  0
ARC
  5
34A0
330
1F
100
AcDbEntity
  8
1
  6
Continuous
 62
     7
370
    13
100
AcDbCircle
 10
17507.37870203527
 20
10468.1555675177
 30
0.0
 40
106.196707584
100
AcDbArc
 50
180.0
 51
0.0
  0
LINE
  5
34A1
330
1F
100
AcDbEntity
  8
1
  6
Continuous
 62
     7
370
    13
100
AcDbLine
 10
17507.37870203527
 20
10361.95885993346
 30
0.0
 11
17507.37870203527
 21
9985.243356637992
 31
0.0
  0
ARC
  5
34A2
330
1F
100
AcDbEntity
  8
1
  6
Continuous
 62
     7
370
    13
100
AcDbCircle
 10
17783.98311803405
 20
10468.1555675177
 30
0.0
 40
106.196707584
100
AcDbArc
 50
180.0
 51
0.0
  0
LINE
  5
34A3
330
1F
100
AcDbEntity
  8
1
  6
Continuous
 62
     7
370
    13
100
AcDbLine
 10
17783.98311803405
 20
10361.95885993346
 30
0.0
 11
17783.98311803405
 21
9985.243356637992
 31
0.0
  0
LINE
  5
34A4
330
1F
100
AcDbEntity
  8
1
  6
Continuous
 62
     7
370
    13
100
AcDbLine
 10
17890.17982561905
 20
10468.1555675177
 30
0.0
 11
17890.17982561905
 21
12399.62500593037
 31
0.0
  0
LINE
  5
34A5
330
1F
100
AcDbEntity
  8
1
  6
Continuous
 62
     7
370
    13
100
AcDbLine
 10
17677.78641045207
 20
10468.1555675177
 30
0.0
 11
17677.78641045207
 21
12318.14180425397
 31
0.0
  0
LINE
  5
34A6
330
1F
100
AcDbEntity
  8
1
  6
Continuous
 62
     7
370
    13
100
AcDbLine
 10
17613.57540961725
 20
10468.1555675177
 30
0.0
 11
17613.57540961725
 21
12307.45614912395
 31
0.0
  0
LINE
  5
34A7
330
1F
100
AcDbEntity
  8
1
  6
Continuous
 62
     7
370
    13
100
AcDbLine
 10
17401.18199445027
 20
10468.1555675177
 30
0.0
 11
17401.18199445027
 21
12314.74293055202
 31
0.0
  0
LINE
  5
34A8
330
1F
100
AcDbEntity
  8
1
  6
Continuous
 62
     7
370
    13
100
AcDbLine
 10
17272.34379361854
 20
10468.1555675177
 30
0.0
 11
17272.34379361854
 21
12352.21578455438
 31
0.0
  0
LINE
  5
34A9
330
1F
100
AcDbEntity
  8
1
  6
Continuous
 62
     7
370
    13
100
AcDbLine
 10
17059.95037845148
 20
10468.1555675177
 30
0.0
 11
17059.95037845148
 21
12448.8684118699
 31
0.0
  0
LINE
  5
34AA
330
1F
100
AcDbEntity
  8
1
  6
Continuous
 62
     7
370
    13
100
AcDbLine
 10
16995.73937761967
 20
10468.1555675177
 30
0.0
 11
16995.73937761967
 21
12467.62303142911
 31
0.0
  0
LINE
  5
34AB
330
1F
100
AcDbEntity
  8
1
  6
Continuous
 62
     7
370
    13
100
AcDbLine
 10
16783.34596244959
 20
10468.1555675177
 30
0.0
 11
16783.34596244959
 21
12485.34387429585
 31
0.0
  0
LINE
  5
34AC
330
1F
100
AcDbEntity
  8
1
  6
Continuous
 62
     7
370
    13
100
AcDbLine
 10
17890.17982561906
 20
15405.30705537046
 30
0.0
 11
17890.17982561905
 21
12749.1046683314
 31
0.0
  0
ARC
  5
34AD
330
1F
100
AcDbEntity
  8
1
  6
Continuous
 62
     7
370
    13
100
AcDbCircle
 10
18322.17982561906
 20
15405.30705537046
 30
0.0
 40
432.0
100
AcDbArc
 50
90.0
 51
180.0
  0
LINE
  5
34AE
330
1F
100
AcDbEntity
  8
1
  6
Continuous
 62
     7
370
    13
100
AcDbLine
 10
17677.78641045207
 20
15310.5853604586
 30
0.0
 11
17677.78641045207
 21
12667.62140202653
 31
0.0
  0
ARC
  5
34AF
330
1F
100
AcDbEntity
  8
1
  6
Continuous
 62
     7
370
    13
100
AcDbCircle
 10
18397.78641045207
 20
15310.5853604586
 30
0.0
 40
720.0
100
AcDbArc
 50
90.0
 51
180.0
  0
LINE
  5
34B0
330
1F
100
AcDbEntity
  8
1
  6
Continuous
 62
     7
370
    13
100
AcDbLine
 10
17613.57540961725
 20
15663.21258850953
 30
0.0
 11
17613.57540961725
 21
12650.70665422489
 31
0.0
  0
ARC
  5
34B1
330
1F
100
AcDbEntity
  8
1
  6
Continuous
 62
     7
370
    13
100
AcDbCircle
 10
18045.57540961724
 20
15663.21258850953
 30
0.0
 40
432.0
100
AcDbArc
 50
90.0
 51
180.0
  0
LINE
  5
34B2
330
1F
100
AcDbEntity
  8
1
  6
Continuous
 62
     7
370
    13
100
AcDbLine
 10
17401.18199445027
 20
15568.49089359768
 30
0.0
 11
17401.18199445027
 21
12664.22252832459
 31
0.0
  0
ARC
  5
34B3
330
1F
100
AcDbEntity
  8
1
  6
Continuous
 62
     7
370
    13
100
AcDbCircle
 10
18121.18199445027
 20
15568.49089359768
 30
0.0
 40
720.0
100
AcDbArc
 50
90.0
 51
180.0
  0
LINE
  5
34B4
330
1F
100
AcDbEntity
  8
1
  6
Continuous
 62
     7
370
    13
100
AcDbLine
 10
17272.34379361854
 20
15939.81700451059
 30
0.0
 11
17272.34379361854
 21
12701.69538232768
 31
0.0
  0
ARC
  5
34B5
330
1F
100
AcDbEntity
  8
1
  6
Continuous
 62
     7
370
    13
100
AcDbCircle
 10
17704.34379361854
 20
15939.81700451059
 30
0.0
 40
432.0
100
AcDbArc
 50
90.0
 51
180.0
  0
LINE
  5
34B6
330
1F
100
AcDbEntity
  8
1
  6
Continuous
 62
     7
370
    13
100
AcDbLine
 10
17059.95037845147
 20
15845.09530959796
 30
0.0
 11
17059.95037845148
 21
12798.34800964247
 31
0.0
  0
ARC
  5
34B7
330
1F
100
AcDbEntity
  8
1
  6
Continuous
 62
     7
370
    13
100
AcDbCircle
 10
17779.95037845147
 20
15845.09530959796
 30
0.0
 40
720.0
100
AcDbArc
 50
90.0
 51
180.0
  0
LINE
  5
34B8
330
1F
100
AcDbEntity
  8
1
  6
Continuous
 62
     7
370
    13
100
AcDbLine
 10
16995.73937761968
 20
16216.42142051014
 30
0.0
 11
16995.73937761967
 21
12817.10262920169
 31
0.0
  0
ARC
  5
34B9
330
1F
100
AcDbEntity
  8
1
  6
Continuous
 62
     7
370
    13
100
AcDbCircle
 10
17427.73937761968
 20
16216.42142051014
 30
0.0
 40
432.0
100
AcDbArc
 50
90.0
 51
180.0
  0
LINE
  5
34BA
330
1F
100
AcDbEntity
  8
1
  6
Continuous
 62
     7
370
    13
100
AcDbLine
 10
16783.3459624496
 20
16121.69972559756
 30
0.0
 11
16783.34596244959
 21
12834.8235366961
 31
0.0
  0
ARC
  5
34BB
330
1F
100
AcDbEntity
  8
1
  6
Continuous
 62
     7
370
    13
100
AcDbCircle
 10
17503.34596244959
 20
16121.69972559756
 30
0.0
 40
720.0
100
AcDbArc
 50
90.0
 51
180.0
  0
LINE
  5
34BC
330
1F
100
AcDbEntity
  8
1
  6
Continuous
 62
     7
370
    13
100
AcDbLine
 10
16719.13496161787
 20
16493.02583651042
 30
0.0
 11
16719.13496161787
 21
12827.33628169365
 31
0.0
  0
ARC
  5
34BD
330
1F
100
AcDbEntity
  8
1
  6
Continuous
 62
     7
370
    13
100
AcDbCircle
 10
17151.13496161787
 20
16493.02583651042
 30
0.0
 40
432.0
100
AcDbArc
 50
90.0
 51
180.0
  0
LINE
  5
34BE
330
1F
100
AcDbEntity
  8
1
  6
Continuous
 62
     7
370
    13
100
AcDbLine
 10
16506.74154645089
 20
16398.30414159779
 30
0.0
 11
16506.74154645089
 21
12746.98509005233
 31
0.0
  0
ARC
  5
34BF
330
1F
100
AcDbEntity
  8
1
  6
Continuous
 62
     7
370
    13
100
AcDbCircle
 10
17226.74154645089
 20
16398.30414159779
 30
0.0
 40
720.0
100
AcDbArc
 50
90.0
 51
180.0
  0
LINE
  5
34C0
330
1F
100
AcDbEntity
  8
1
  6
DASHDOT
 62
     7
370
    13
100
AcDbLine
 10
19584.84402272668
 20
18553.55004011989
 30
0.0
 11
22505.99346272667
 21
18553.55004011989
 31
0.0
  0
LINE
  5
34C1
330
1F
100
AcDbEntity
  8
1
  6
DASHDOT
 62
     7
370
    13
100
AcDbLine
 10
19584.84402272668
 20
14416.99995606133
 30
0.0
 11
22505.99346272667
 21
14416.99995606133
 31
0.0
  0
TEXT
  5
34C2
330
1F
100
AcDbEntity
  8
1
  6
Continuous
 62
     7
370
    13
100
AcDbText
 10
8690.771183625155
 20
18553.55004011989
 30
0.0
 40
540.9666307583998
  1
ＰＣ－２１３３
 41
0.4591250000000001
  7
KANJI
100
AcDbText
  0
LINE
  5
34C3
330
1F
100
AcDbEntity
  8
1
  6
Continuous
 62
     7
370
    13
100
AcDbLine
 10
7689.16500780754
 20
14708.39094616813
 30
0.0
 11
6911.451429477962
 21
13938.37769871823
 31
0.0
  0
LINE
  5
34C4
330
1F
100
AcDbEntity
  8
1
  6
Continuous
 62
     7
370
    13
100
AcDbLine
 10
7689.16500780754
 20
13938.37769871823
 30
0.0
 11
7689.16500780754
 21
14708.39094616813
 31
0.0
  0
LINE
  5
34C5
330
1F
100
AcDbEntity
  8
1
  6
Continuous
 62
     7
370
    13
100
AcDbLine
 10
8120.37280897138
 20
14230.98277540314
 30
0.0
 11
8120.37280897138
 21
13938.37769871823
 31
0.0
  0
LINE
  5
34C6
330
1F
100
AcDbEntity
  8
1
  6
Continuous
 62
     7
370
    13
100
AcDbLine
 10
8020.270834112364
 20
14230.98277540314
 30
0.0
 11
8120.37280897138
 21
14230.98277540314
 31
0.0
  0
LINE
  5
34C7
330
1F
100
AcDbEntity
  8
1
  6
Continuous
 62
     7
370
    13
100
AcDbLine
 10
8020.270834112364
 20
14323.38422550239
 30
0.0
 11
8020.270834112364
 21
14230.98277540314
 31
0.0
  0
LINE
  5
34C8
330
1F
100
AcDbEntity
  8
1
  6
Continuous
 62
     7
370
    13
100
AcDbLine
 10
8328.276120164444
 20
14323.38422550239
 30
0.0
 11
8020.270834112364
 21
14323.38422550239
 31
0.0
  0
LINE
  5
34C9
330
1F
100
AcDbEntity
  8
1
  6
Continuous
 62
     7
370
    13
100
AcDbLine
 10
7920.169376265818
 20
14064.77253899976
 30
0.0
 11
8055.592313253452
 21
13938.37769871823
 31
0.0
  0
ARC
  5
34CA
330
1F
100
AcDbEntity
  8
1
  6
Continuous
 62
     7
370
    13
100
AcDbCircle
 10
7888.5580800512
 20
14192.48209041087
 30
0.0
 40
131.7127540608
100
AcDbArc
 50
283.9448469992946
 51
83.64029599930063
  0
LINE
  5
34CB
330
1F
100
AcDbEntity
  8
1
  6
Continuous
 62
     7
370
    13
100
AcDbLine
 10
7719.965749683233
 20
14323.38422550239
 30
0.0
 11
7903.148058213232
 21
14323.38422550239
 31
0.0
  0
LINE
  5
34CC
330
1F
100
AcDbEntity
  8
1
  6
Continuous
 62
     7
370
    13
100
AcDbLine
 10
7719.965749683233
 20
14323.38422550239
 30
0.0
 11
7719.965749683233
 21
14230.98277540314
 31
0.0
  0
LINE
  5
34CD
330
1F
100
AcDbEntity
  8
1
  6
Continuous
 62
     7
370
    13
100
AcDbLine
 10
7719.965749683233
 20
14230.98277540314
 30
0.0
 11
7873.96848964925
 21
14230.98277540314
 31
0.0
  0
LINE
  5
34CE
330
1F
100
AcDbEntity
  8
1
  6
Continuous
 62
     7
370
    13
100
AcDbLine
 10
7689.16500780754
 20
14153.98134079166
 30
0.0
 11
7873.96848964925
 21
14153.98134079166
 31
0.0
  0
ARC
  5
34CF
330
1F
100
AcDbEntity
  8
1
  6
Continuous
 62
     7
370
    13
100
AcDbCircle
 10
7873.96848964925
 20
14192.48209041087
 30
0.0
 40
38.5007496192
100
AcDbArc
 50
270.0
 51
90.0
  0
LINE
  5
34D0
330
1F
100
AcDbEntity
  8
1
  6
Continuous
 62
     7
370
    13
100
AcDbLine
 10
7689.16500780754
 20
14153.98134079166
 30
0.0
 11
7920.169376265818
 21
13938.37769871823
 31
0.0
  0
LINE
  5
34D1
330
1F
100
AcDbEntity
  8
1
  6
Continuous
 62
     7
370
    13
100
AcDbLine
 10
7527.462453975807
 20
14100.08044643007
 30
0.0
 11
7358.059569265818
 21
14100.08044643007
 31
0.0
  0
LINE
  5
34D2
330
1F
100
AcDbEntity
  8
1
  6
Continuous
 62
     7
370
    13
100
AcDbLine
 10
7527.462453975807
 20
14309.90053574807
 30
0.0
 11
7527.462453975807
 21
14100.08044643007
 31
0.0
  0
LINE
  5
34D3
330
1F
100
AcDbEntity
  8
1
  6
Continuous
 62
     7
370
    13
100
AcDbLine
 10
7152.224328471806
 20
13938.37769871823
 30
0.0
 11
7527.462453975807
 21
14309.90053574807
 31
0.0
  0
LINE
  5
34D4
330
1F
100
AcDbEntity
  8
1
  6
Continuous
 62
     7
370
    13
100
AcDbLine
 10
7358.059569265818
 20
14100.08044643007
 30
0.0
 11
7358.059569265818
 21
13938.37769871823
 31
0.0
  0
LINE
  5
34D5
330
1F
100
AcDbEntity
  8
1
  6
Continuous
 62
     7
370
    13
100
AcDbLine
 10
7358.059569265818
 20
13938.37769871823
 30
0.0
 11
7689.16500780754
 21
13938.37769871823
 31
0.0
  0
LINE
  5
34D6
330
1F
100
AcDbEntity
  8
1
  6
Continuous
 62
     7
370
    13
100
AcDbLine
 10
8055.592313253452
 20
13938.37769871823
 30
0.0
 11
7920.169376265818
 21
13938.37769871823
 31
0.0
  0
LINE
  5
34D7
330
1F
100
AcDbEntity
  8
1
  6
Continuous
 62
     7
370
    13
100
AcDbLine
 10
8120.37280897138
 20
13938.37769871823
 30
0.0
 11
8228.174791576233
 21
13938.37769871823
 31
0.0
  0
LINE
  5
34D8
330
1F
100
AcDbEntity
  8
1
  6
Continuous
 62
     7
370
    13
100
AcDbLine
 10
8228.174791576233
 20
13938.37769871823
 30
0.0
 11
8228.174791576233
 21
14230.98277540314
 31
0.0
  0
LINE
  5
34D9
330
1F
100
AcDbEntity
  8
1
  6
Continuous
 62
     7
370
    13
100
AcDbLine
 10
8228.174791576233
 20
14230.98277540314
 30
0.0
 11
8328.276120164444
 21
14230.98277540314
 31
0.0
  0
LINE
  5
34DA
330
1F
100
AcDbEntity
  8
1
  6
Continuous
 62
     7
370
    13
100
AcDbLine
 10
8328.276120164444
 20
14230.98277540314
 30
0.0
 11
8328.276120164444
 21
14323.38422550239
 31
0.0
  0
LINE
  5
34DB
330
1F
100
AcDbEntity
  8
1
  6
Continuous
 62
     7
370
    13
100
AcDbLine
 10
6911.451429477962
 20
13938.37769871823
 30
0.0
 11
7152.224328471806
 21
13938.37769871823
 31
0.0
  0
LINE
  5
34DC
330
1F
100
AcDbEntity
  8
1
  6
DASHDOT
 62
     7
370
    13
100
AcDbLine
 10
6881.213590511972
 20
18553.34543040409
 30
0.0
 11
4942.38809031645
 21
18553.34543040409
 31
0.0
  0
TEXT
  5
34DD
330
1F
100
AcDbEntity
  8
1
  6
Continuous
 62
     7
370
    13
100
AcDbText
 10
5719.277154827989
 20
17282.27058624437
 30
0.0
 40
323.136
  1
CN1
 41
0.5
  7
KANJI
100
AcDbText
  0
LINE
  5
34DE
330
1F
100
AcDbEntity
  8
1
  6
DASHDOT
 62
     7
370
    13
100
AcDbLine
 10
12439.14878362512
 20
18553.34543040409
 30
0.0
 11
10500.33246049274
 21
18553.34543040409
 31
0.0
  0
LINE
  5
34DF
330
1F
100
AcDbEntity
  8
1
  6
DASHDOT
 62
     7
370
    13
100
AcDbLine
 10
12439.14878362512
 20
14417.20463040408
 30
0.0
 11
10500.23933269564
 21
14417.20463040408
 31
0.0
  0
LINE
  5
34E0
330
1F
100
AcDbEntity
  8
1
  6
DASHDOT
 62
     7
370
    13
100
AcDbLine
 10
11469.74078362519
 20
15386.48512093887
 30
0.0
 11
11469.74078362519
 21
13447.33112068223
 31
0.0
  0
LINE
  5
34E1
330
1F
100
AcDbEntity
  8
1
  6
DASHDOT
 62
     7
370
    13
100
AcDbLine
 10
5911.801583625202
 20
15386.40795606136
 30
0.0
 11
5911.801583625202
 21
13447.580904811
 31
0.0
  0
LINE
  5
34E2
330
1F
100
AcDbEntity
  8
1
  6
DASHDOT
 62
     7
370
    13
100
AcDbLine
 10
6881.214818429187
 20
14417.20463040408
 30
0.0
 11
4942.38007654286
 21
14417.20463040408
 31
0.0
  0
LINE
  5
34E3
330
1F
100
AcDbEntity
  8
1
  6
Continuous
 62
     7
370
    13
100
AcDbLine
 10
11081.97758362515
 20
15644.53875156949
 30
0.0
 11
11857.50398362515
 21
15644.53875156949
 31
0.0
  0
LINE
  5
34E4
330
1F
100
AcDbEntity
  8
1
  6
Continuous
 62
     7
370
    13
100
AcDbLine
 10
11857.50398362515
 20
15644.53875156949
 30
0.0
 11
11857.50398362515
 21
17324.8459515695
 31
0.0
  0
LINE
  5
34E5
330
1F
100
AcDbEntity
  8
1
  6
Continuous
 62
     7
370
    13
100
AcDbLine
 10
11857.50398362515
 20
17324.8459515695
 30
0.0
 11
11081.97758362515
 21
17324.8459515695
 31
0.0
  0
LINE
  5
34E6
330
1F
100
AcDbEntity
  8
1
  6
Continuous
 62
     7
370
    13
100
AcDbLine
 10
11081.97758362515
 20
17324.8459515695
 30
0.0
 11
11081.97758362515
 21
15644.53875156949
 31
0.0
  0
TEXT
  5
34E7
330
1F
100
AcDbEntity
  8
1
  6
Continuous
 62
     7
370
    13
100
AcDbText
 10
11175.89383066895
 20
17349.36997052635
 30
0.0
 40
323.136
  1
CN2
 41
0.5
  7
KANJI
100
AcDbText
  0
LINE
  5
34E8
330
1F
100
AcDbEntity
  8
1
  6
DASHDOT
 62
     7
370
    13
100
AcDbLine
 10
11469.74078362519
 20
19522.9580401199
 30
0.0
 11
11469.74078362519
 21
17648.56463040408
 31
0.0
  0
LINE
  5
34E9
330
1F
100
AcDbEntity
  8
1
  6
DASHDOT
 62
     7
370
    13
100
AcDbLine
 10
5911.801583625202
 20
19522.9580401199
 30
0.0
 11
5911.801583625202
 21
17648.56463040408
 31
0.0
  0
LINE
  5
34EA
330
1F
100
AcDbEntity
  8
1
  6
Continuous
 62
     7
370
    13
100
AcDbLine
 10
11081.97758362515
 20
15709.1659515695
 30
0.0
 11
10952.72318362513
 21
15709.1659515695
 31
0.0
  0
LINE
  5
34EB
330
1F
100
AcDbEntity
  8
1
  6
Continuous
 62
     7
370
    13
100
AcDbLine
 10
10952.72318362513
 20
15709.1659515695
 30
0.0
 11
10952.72318362513
 21
17260.21875156951
 31
0.0
  0
LINE
  5
34EC
330
1F
100
AcDbEntity
  8
1
  6
Continuous
 62
     7
370
    13
100
AcDbLine
 10
10952.72318362513
 20
17260.21875156951
 30
0.0
 11
11081.97758362515
 21
17260.21875156951
 31
0.0
  0
LINE
  5
34ED
330
1F
100
AcDbEntity
  8
1
  6
Continuous
 62
     7
370
    13
100
AcDbLine
 10
5911.801583625202
 20
17099.23343040407
 30
0.0
 11
6170.310383625142
 21
17099.23343040407
 31
0.0
  0
LINE
  5
34EE
330
1F
100
AcDbEntity
  8
1
  6
Continuous
 62
     7
370
    13
100
AcDbLine
 10
5911.801583625202
 20
17099.23343040407
 30
0.0
 11
5911.801583625202
 21
17021.68079040409
 31
0.0
  0
LINE
  5
34EF
330
1F
100
AcDbEntity
  8
1
  6
Continuous
 62
     7
370
    13
100
AcDbLine
 10
5911.801583625202
 20
17021.68079040409
 30
0.0
 11
5847.174383625191
 21
17021.68079040409
 31
0.0
  0
LINE
  5
34F0
330
1F
100
AcDbEntity
  8
1
  6
Continuous
 62
     7
370
    13
100
AcDbLine
 10
5847.174383625191
 20
17021.68079040409
 30
0.0
 11
5847.174383625191
 21
16918.27727040409
 31
0.0
  0
LINE
  5
34F1
330
1F
100
AcDbEntity
  8
1
  6
Continuous
 62
     7
370
    13
100
AcDbLine
 10
5847.174383625191
 20
16918.27727040409
 30
0.0
 11
5911.801583625202
 21
16918.27727040409
 31
0.0
  0
LINE
  5
34F2
330
1F
100
AcDbEntity
  8
1
  6
Continuous
 62
     7
370
    13
100
AcDbLine
 10
5911.801583625202
 20
16918.27727040409
 30
0.0
 11
5911.801583625202
 21
16840.72463040408
 31
0.0
  0
LINE
  5
34F3
330
1F
100
AcDbEntity
  8
1
  6
Continuous
 62
     7
370
    13
100
AcDbLine
 10
5911.801583625202
 20
16840.72463040408
 30
0.0
 11
6170.310383625142
 21
16840.72463040408
 31
0.0
  0
LINE
  5
34F4
330
1F
100
AcDbEntity
  8
1
  6
Continuous
 62
     7
370
    13
100
AcDbLine
 10
6170.310383625142
 20
16840.72463040408
 30
0.0
 11
6170.310383625142
 21
17099.23343040407
 31
0.0
  0
LINE
  5
34F5
330
1F
100
AcDbEntity
  8
1
  6
Continuous
 62
     7
370
    13
100
AcDbLine
 10
5911.801583625202
 20
16776.09743040407
 30
0.0
 11
6170.310383625142
 21
16776.09743040407
 31
0.0
  0
LINE
  5
34F6
330
1F
100
AcDbEntity
  8
1
  6
Continuous
 62
     7
370
    13
100
AcDbLine
 10
5911.801583625202
 20
16776.09743040407
 30
0.0
 11
5911.801583625202
 21
16698.5447904041
 31
0.0
  0
LINE
  5
34F7
330
1F
100
AcDbEntity
  8
1
  6
Continuous
 62
     7
370
    13
100
AcDbLine
 10
5911.801583625202
 20
16698.5447904041
 30
0.0
 11
5847.174383625191
 21
16698.5447904041
 31
0.0
  0
LINE
  5
34F8
330
1F
100
AcDbEntity
  8
1
  6
Continuous
 62
     7
370
    13
100
AcDbLine
 10
5847.174383625191
 20
16698.5447904041
 30
0.0
 11
5847.174383625191
 21
16595.14127040408
 31
0.0
  0
LINE
  5
34F9
330
1F
100
AcDbEntity
  8
1
  6
Continuous
 62
     7
370
    13
100
AcDbLine
 10
5847.174383625191
 20
16595.14127040408
 30
0.0
 11
5911.801583625202
 21
16595.14127040408
 31
0.0
  0
LINE
  5
34FA
330
1F
100
AcDbEntity
  8
1
  6
Continuous
 62
     7
370
    13
100
AcDbLine
 10
5911.801583625202
 20
16595.14127040408
 30
0.0
 11
5911.801583625202
 21
16517.58863040407
 31
0.0
  0
LINE
  5
34FB
330
1F
100
AcDbEntity
  8
1
  6
Continuous
 62
     7
370
    13
100
AcDbLine
 10
5911.801583625202
 20
16517.58863040407
 30
0.0
 11
6170.310383625142
 21
16517.58863040407
 31
0.0
  0
LINE
  5
34FC
330
1F
100
AcDbEntity
  8
1
  6
Continuous
 62
     7
370
    13
100
AcDbLine
 10
6170.310383625142
 20
16517.58863040407
 30
0.0
 11
6170.310383625142
 21
16776.09743040407
 31
0.0
  0
LINE
  5
34FD
330
1F
100
AcDbEntity
  8
1
  6
Continuous
 62
     7
370
    13
100
AcDbLine
 10
5911.801583625202
 20
16452.96143040407
 30
0.0
 11
6170.310383625142
 21
16452.96143040407
 31
0.0
  0
LINE
  5
34FE
330
1F
100
AcDbEntity
  8
1
  6
Continuous
 62
     7
370
    13
100
AcDbLine
 10
5911.801583625202
 20
16452.96143040407
 30
0.0
 11
5911.801583625202
 21
16375.40879040409
 31
0.0
  0
LINE
  5
34FF
330
1F
100
AcDbEntity
  8
1
  6
Continuous
 62
     7
370
    13
100
AcDbLine
 10
5911.801583625202
 20
16375.40879040409
 30
0.0
 11
5847.174383625191
 21
16375.40879040409
 31
0.0
  0
LINE
  5
3500
330
1F
100
AcDbEntity
  8
1
  6
Continuous
 62
     7
370
    13
100
AcDbLine
 10
5847.174383625191
 20
16375.40879040409
 30
0.0
 11
5847.174383625191
 21
16272.00527040408
 31
0.0
  0
LINE
  5
3501
330
1F
100
AcDbEntity
  8
1
  6
Continuous
 62
     7
370
    13
100
AcDbLine
 10
5847.174383625191
 20
16272.00527040408
 30
0.0
 11
5911.801583625202
 21
16272.00527040408
 31
0.0
  0
LINE
  5
3502
330
1F
100
AcDbEntity
  8
1
  6
Continuous
 62
     7
370
    13
100
AcDbLine
 10
5911.801583625202
 20
16272.00527040408
 30
0.0
 11
5911.801583625202
 21
16194.45263040407
 31
0.0
  0
LINE
  5
3503
330
1F
100
AcDbEntity
  8
1
  6
Continuous
 62
     7
370
    13
100
AcDbLine
 10
5911.801583625202
 20
16194.45263040407
 30
0.0
 11
6170.310383625142
 21
16194.45263040407
 31
0.0
  0
LINE
  5
3504
330
1F
100
AcDbEntity
  8
1
  6
Continuous
 62
     7
370
    13
100
AcDbLine
 10
6170.310383625142
 20
16194.45263040407
 30
0.0
 11
6170.310383625142
 21
16452.96143040407
 31
0.0
  0
LINE
  5
3505
330
1F
100
AcDbEntity
  8
1
  6
Continuous
 62
     7
370
    13
100
AcDbLine
 10
5911.801583625202
 20
16129.82543040407
 30
0.0
 11
6170.310383625142
 21
16129.82543040407
 31
0.0
  0
LINE
  5
3506
330
1F
100
AcDbEntity
  8
1
  6
Continuous
 62
     7
370
    13
100
AcDbLine
 10
5911.801583625202
 20
16129.82543040407
 30
0.0
 11
5911.801583625202
 21
16052.27279040409
 31
0.0
  0
LINE
  5
3507
330
1F
100
AcDbEntity
  8
1
  6
Continuous
 62
     7
370
    13
100
AcDbLine
 10
5911.801583625202
 20
16052.27279040409
 30
0.0
 11
5847.174383625191
 21
16052.27279040409
 31
0.0
  0
LINE
  5
3508
330
1F
100
AcDbEntity
  8
1
  6
Continuous
 62
     7
370
    13
100
AcDbLine
 10
5847.174383625191
 20
16052.27279040409
 30
0.0
 11
5847.174383625191
 21
15948.8692704041
 31
0.0
  0
LINE
  5
3509
330
1F
100
AcDbEntity
  8
1
  6
Continuous
 62
     7
370
    13
100
AcDbLine
 10
5847.174383625191
 20
15948.8692704041
 30
0.0
 11
5911.801583625202
 21
15948.8692704041
 31
0.0
  0
LINE
  5
350A
330
1F
100
AcDbEntity
  8
1
  6
Continuous
 62
     7
370
    13
100
AcDbLine
 10
5911.801583625202
 20
15948.8692704041
 30
0.0
 11
5911.801583625202
 21
15871.31663040407
 31
0.0
  0
LINE
  5
350B
330
1F
100
AcDbEntity
  8
1
  6
Continuous
 62
     7
370
    13
100
AcDbLine
 10
5911.801583625202
 20
15871.31663040407
 30
0.0
 11
6170.310383625142
 21
15871.31663040407
 31
0.0
  0
LINE
  5
350C
330
1F
100
AcDbEntity
  8
1
  6
Continuous
 62
     7
370
    13
100
AcDbLine
 10
6170.310383625142
 20
15871.31663040407
 30
0.0
 11
6170.310383625142
 21
16129.82543040407
 31
0.0
  0
CIRCLE
  5
350D
330
1F
100
AcDbEntity
  8
1
  6
Continuous
 62
     7
370
    13
100
AcDbCircle
 10
6041.055983625131
 20
16000.57103040408
 30
0.0
 40
96.94080000000001
  0
CIRCLE
  5
350E
330
1F
100
AcDbEntity
  8
1
  6
Continuous
 62
     7
370
    13
100
AcDbCircle
 10
6041.055983625131
 20
16323.70703040408
 30
0.0
 40
96.94080000000001
  0
CIRCLE
  5
350F
330
1F
100
AcDbEntity
  8
1
  6
Continuous
 62
     7
370
    13
100
AcDbCircle
 10
6041.055983625131
 20
16646.84303040408
 30
0.0
 40
96.94080000000001
  0
CIRCLE
  5
3510
330
1F
100
AcDbEntity
  8
1
  6
Continuous
 62
     7
370
    13
100
AcDbCircle
 10
6041.055983625131
 20
16969.97903040408
 30
0.0
 40
96.94080000000001
  0
LINE
  5
3511
330
1F
100
AcDbEntity
  8
1
  6
Continuous
 62
     7
370
    13
100
AcDbLine
 10
11534.36798362519
 20
15967.67475156948
 30
0.0
 11
11534.36798362519
 21
15903.04755156951
 31
0.0
  0
LINE
  5
3512
330
1F
100
AcDbEntity
  8
1
  6
Continuous
 62
     7
370
    13
100
AcDbLine
 10
11534.36798362519
 20
15903.04755156951
 30
0.0
 11
11598.99518362512
 21
15903.04755156951
 31
0.0
  0
LINE
  5
3513
330
1F
100
AcDbEntity
  8
1
  6
Continuous
 62
     7
370
    13
100
AcDbLine
 10
11598.99518362512
 20
15903.04755156951
 30
0.0
 11
11598.99518362512
 21
15773.79315156949
 31
0.0
  0
LINE
  5
3514
330
1F
100
AcDbEntity
  8
1
  6
Continuous
 62
     7
370
    13
100
AcDbLine
 10
11598.99518362512
 20
15773.79315156949
 30
0.0
 11
11534.36798362519
 21
15773.79315156949
 31
0.0
  0
LINE
  5
3515
330
1F
100
AcDbEntity
  8
1
  6
Continuous
 62
     7
370
    13
100
AcDbLine
 10
11534.36798362519
 20
15773.79315156949
 30
0.0
 11
11534.36798362519
 21
15709.1659515695
 31
0.0
  0
LINE
  5
3516
330
1F
100
AcDbEntity
  8
1
  6
Continuous
 62
     7
370
    13
100
AcDbLine
 10
11534.36798362519
 20
15709.1659515695
 30
0.0
 11
11237.08286362816
 21
15709.1659515695
 31
0.0
  0
LINE
  5
3517
330
1F
100
AcDbEntity
  8
1
  6
Continuous
 62
     7
370
    13
100
AcDbLine
 10
11237.08286362816
 20
15709.1659515695
 30
0.0
 11
11237.08286362816
 21
15741.47955156951
 31
0.0
  0
LINE
  5
3518
330
1F
100
AcDbEntity
  8
1
  6
Continuous
 62
     7
370
    13
100
AcDbLine
 10
11237.08286362816
 20
15741.47955156951
 30
0.0
 11
11172.45566362824
 21
15741.47955156951
 31
0.0
  0
LINE
  5
3519
330
1F
100
AcDbEntity
  8
1
  6
Continuous
 62
     7
370
    13
100
AcDbLine
 10
11172.45566362824
 20
15741.47955156951
 30
0.0
 11
11172.45566362824
 21
15935.3611515695
 31
0.0
  0
LINE
  5
351A
330
1F
100
AcDbEntity
  8
1
  6
Continuous
 62
     7
370
    13
100
AcDbLine
 10
11172.45566362824
 20
15935.3611515695
 30
0.0
 11
11237.08286362816
 21
15935.3611515695
 31
0.0
  0
LINE
  5
351B
330
1F
100
AcDbEntity
  8
1
  6
Continuous
 62
     7
370
    13
100
AcDbLine
 10
11237.08286362816
 20
15935.3611515695
 30
0.0
 11
11237.08286362816
 21
15967.67475156948
 31
0.0
  0
LINE
  5
351C
330
1F
100
AcDbEntity
  8
1
  6
Continuous
 62
     7
370
    13
100
AcDbLine
 10
11237.08286362816
 20
15967.67475156948
 30
0.0
 11
11534.36798362519
 21
15967.67475156948
 31
0.0
  0
CIRCLE
  5
351D
330
1F
100
AcDbEntity
  8
1
  6
Continuous
 62
     7
370
    13
100
AcDbCircle
 10
11405.11358362518
 20
15838.42035156949
 30
0.0
 40
96.94080000000001
  0
LINE
  5
351E
330
1F
100
AcDbEntity
  8
1
  6
Continuous
 62
     7
370
    13
100
AcDbLine
 10
11534.36798362519
 20
16290.81075156951
 30
0.0
 11
11534.36798362519
 21
16226.1835515695
 31
0.0
  0
LINE
  5
351F
330
1F
100
AcDbEntity
  8
1
  6
Continuous
 62
     7
370
    13
100
AcDbLine
 10
11534.36798362519
 20
16226.1835515695
 30
0.0
 11
11598.99518362512
 21
16226.1835515695
 31
0.0
  0
LINE
  5
3520
330
1F
100
AcDbEntity
  8
1
  6
Continuous
 62
     7
370
    13
100
AcDbLine
 10
11598.99518362512
 20
16226.1835515695
 30
0.0
 11
11598.99518362512
 21
16096.9291515695
 31
0.0
  0
LINE
  5
3521
330
1F
100
AcDbEntity
  8
1
  6
Continuous
 62
     7
370
    13
100
AcDbLine
 10
11598.99518362512
 20
16096.9291515695
 30
0.0
 11
11534.36798362519
 21
16096.9291515695
 31
0.0
  0
LINE
  5
3522
330
1F
100
AcDbEntity
  8
1
  6
Continuous
 62
     7
370
    13
100
AcDbLine
 10
11534.36798362519
 20
16096.9291515695
 30
0.0
 11
11534.36798362519
 21
16032.30195156949
 31
0.0
  0
LINE
  5
3523
330
1F
100
AcDbEntity
  8
1
  6
Continuous
 62
     7
370
    13
100
AcDbLine
 10
11534.36798362519
 20
16032.30195156949
 30
0.0
 11
11237.08286362816
 21
16032.30195156949
 31
0.0
  0
LINE
  5
3524
330
1F
100
AcDbEntity
  8
1
  6
Continuous
 62
     7
370
    13
100
AcDbLine
 10
11237.08286362816
 20
16032.30195156949
 30
0.0
 11
11237.08286362816
 21
16064.61555156951
 31
0.0
  0
LINE
  5
3525
330
1F
100
AcDbEntity
  8
1
  6
Continuous
 62
     7
370
    13
100
AcDbLine
 10
11237.08286362816
 20
16064.61555156951
 30
0.0
 11
11172.45566362824
 21
16064.61555156951
 31
0.0
  0
LINE
  5
3526
330
1F
100
AcDbEntity
  8
1
  6
Continuous
 62
     7
370
    13
100
AcDbLine
 10
11172.45566362824
 20
16064.61555156951
 30
0.0
 11
11172.45566362824
 21
16258.4971515695
 31
0.0
  0
LINE
  5
3527
330
1F
100
AcDbEntity
  8
1
  6
Continuous
 62
     7
370
    13
100
AcDbLine
 10
11172.45566362824
 20
16258.4971515695
 30
0.0
 11
11237.08286362816
 21
16258.4971515695
 31
0.0
  0
LINE
  5
3528
330
1F
100
AcDbEntity
  8
1
  6
Continuous
 62
     7
370
    13
100
AcDbLine
 10
11237.08286362816
 20
16258.4971515695
 30
0.0
 11
11237.08286362816
 21
16290.81075156951
 31
0.0
  0
LINE
  5
3529
330
1F
100
AcDbEntity
  8
1
  6
Continuous
 62
     7
370
    13
100
AcDbLine
 10
11237.08286362816
 20
16290.81075156951
 30
0.0
 11
11534.36798362519
 21
16290.81075156951
 31
0.0
  0
CIRCLE
  5
352A
330
1F
100
AcDbEntity
  8
1
  6
Continuous
 62
     7
370
    13
100
AcDbCircle
 10
11405.11358362518
 20
16161.55635156949
 30
0.0
 40
96.94080000000001
  0
LINE
  5
352B
330
1F
100
AcDbEntity
  8
1
  6
Continuous
 62
     7
370
    13
100
AcDbLine
 10
11534.36798362519
 20
16613.94675156948
 30
0.0
 11
11534.36798362519
 21
16549.31955156951
 31
0.0
  0
LINE
  5
352C
330
1F
100
AcDbEntity
  8
1
  6
Continuous
 62
     7
370
    13
100
AcDbLine
 10
11534.36798362519
 20
16549.31955156951
 30
0.0
 11
11598.99518362512
 21
16549.31955156951
 31
0.0
  0
LINE
  5
352D
330
1F
100
AcDbEntity
  8
1
  6
Continuous
 62
     7
370
    13
100
AcDbLine
 10
11598.99518362512
 20
16549.31955156951
 30
0.0
 11
11598.99518362512
 21
16420.06515156949
 31
0.0
  0
LINE
  5
352E
330
1F
100
AcDbEntity
  8
1
  6
Continuous
 62
     7
370
    13
100
AcDbLine
 10
11598.99518362512
 20
16420.06515156949
 30
0.0
 11
11534.36798362519
 21
16420.06515156949
 31
0.0
  0
LINE
  5
352F
330
1F
100
AcDbEntity
  8
1
  6
Continuous
 62
     7
370
    13
100
AcDbLine
 10
11534.36798362519
 20
16420.06515156949
 30
0.0
 11
11534.36798362519
 21
16355.4379515695
 31
0.0
  0
LINE
  5
3530
330
1F
100
AcDbEntity
  8
1
  6
Continuous
 62
     7
370
    13
100
AcDbLine
 10
11534.36798362519
 20
16355.4379515695
 30
0.0
 11
11237.08286362816
 21
16355.4379515695
 31
0.0
  0
LINE
  5
3531
330
1F
100
AcDbEntity
  8
1
  6
Continuous
 62
     7
370
    13
100
AcDbLine
 10
11237.08286362816
 20
16355.4379515695
 30
0.0
 11
11237.08286362816
 21
16387.75155156949
 31
0.0
  0
LINE
  5
3532
330
1F
100
AcDbEntity
  8
1
  6
Continuous
 62
     7
370
    13
100
AcDbLine
 10
11237.08286362816
 20
16387.75155156949
 30
0.0
 11
11172.45566362824
 21
16387.75155156949
 31
0.0
  0
LINE
  5
3533
330
1F
100
AcDbEntity
  8
1
  6
Continuous
 62
     7
370
    13
100
AcDbLine
 10
11172.45566362824
 20
16387.75155156949
 30
0.0
 11
11172.45566362824
 21
16581.63315156949
 31
0.0
  0
LINE
  5
3534
330
1F
100
AcDbEntity
  8
1
  6
Continuous
 62
     7
370
    13
100
AcDbLine
 10
11172.45566362824
 20
16581.63315156949
 30
0.0
 11
11237.08286362816
 21
16581.63315156949
 31
0.0
  0
LINE
  5
3535
330
1F
100
AcDbEntity
  8
1
  6
Continuous
 62
     7
370
    13
100
AcDbLine
 10
11237.08286362816
 20
16581.63315156949
 30
0.0
 11
11237.08286362816
 21
16613.94675156948
 31
0.0
  0
LINE
  5
3536
330
1F
100
AcDbEntity
  8
1
  6
Continuous
 62
     7
370
    13
100
AcDbLine
 10
11237.08286362816
 20
16613.94675156948
 30
0.0
 11
11534.36798362519
 21
16613.94675156948
 31
0.0
  0
CIRCLE
  5
3537
330
1F
100
AcDbEntity
  8
1
  6
Continuous
 62
     7
370
    13
100
AcDbCircle
 10
11405.11358362518
 20
16484.69235156951
 30
0.0
 40
96.94080000000001
  0
LINE
  5
3538
330
1F
100
AcDbEntity
  8
1
  6
Continuous
 62
     7
370
    13
100
AcDbLine
 10
11534.36798362519
 20
16937.08275156951
 30
0.0
 11
11534.36798362519
 21
16872.45555156951
 31
0.0
  0
LINE
  5
3539
330
1F
100
AcDbEntity
  8
1
  6
Continuous
 62
     7
370
    13
100
AcDbLine
 10
11534.36798362519
 20
16872.45555156951
 30
0.0
 11
11598.99518362512
 21
16872.45555156951
 31
0.0
  0
LINE
  5
353A
330
1F
100
AcDbEntity
  8
1
  6
Continuous
 62
     7
370
    13
100
AcDbLine
 10
11598.99518362512
 20
16872.45555156951
 30
0.0
 11
11598.99518362512
 21
16743.2011515695
 31
0.0
  0
LINE
  5
353B
330
1F
100
AcDbEntity
  8
1
  6
Continuous
 62
     7
370
    13
100
AcDbLine
 10
11598.99518362512
 20
16743.2011515695
 30
0.0
 11
11534.36798362519
 21
16743.2011515695
 31
0.0
  0
LINE
  5
353C
330
1F
100
AcDbEntity
  8
1
  6
Continuous
 62
     7
370
    13
100
AcDbLine
 10
11534.36798362519
 20
16743.2011515695
 30
0.0
 11
11534.36798362519
 21
16678.5739515695
 31
0.0
  0
LINE
  5
353D
330
1F
100
AcDbEntity
  8
1
  6
Continuous
 62
     7
370
    13
100
AcDbLine
 10
11534.36798362519
 20
16678.5739515695
 30
0.0
 11
11237.08286362816
 21
16678.5739515695
 31
0.0
  0
LINE
  5
353E
330
1F
100
AcDbEntity
  8
1
  6
Continuous
 62
     7
370
    13
100
AcDbLine
 10
11237.08286362816
 20
16678.5739515695
 30
0.0
 11
11237.08286362816
 21
16710.88755156951
 31
0.0
  0
LINE
  5
353F
330
1F
100
AcDbEntity
  8
1
  6
Continuous
 62
     7
370
    13
100
AcDbLine
 10
11237.08286362816
 20
16710.88755156951
 30
0.0
 11
11172.45566362824
 21
16710.88755156951
 31
0.0
  0
LINE
  5
3540
330
1F
100
AcDbEntity
  8
1
  6
Continuous
 62
     7
370
    13
100
AcDbLine
 10
11172.45566362824
 20
16710.88755156951
 30
0.0
 11
11172.45566362824
 21
16904.7691515695
 31
0.0
  0
LINE
  5
3541
330
1F
100
AcDbEntity
  8
1
  6
Continuous
 62
     7
370
    13
100
AcDbLine
 10
11172.45566362824
 20
16904.7691515695
 30
0.0
 11
11237.08286362816
 21
16904.7691515695
 31
0.0
  0
LINE
  5
3542
330
1F
100
AcDbEntity
  8
1
  6
Continuous
 62
     7
370
    13
100
AcDbLine
 10
11237.08286362816
 20
16904.7691515695
 30
0.0
 11
11237.08286362816
 21
16937.08275156951
 31
0.0
  0
LINE
  5
3543
330
1F
100
AcDbEntity
  8
1
  6
Continuous
 62
     7
370
    13
100
AcDbLine
 10
11237.08286362816
 20
16937.08275156951
 30
0.0
 11
11534.36798362519
 21
16937.08275156951
 31
0.0
  0
CIRCLE
  5
3544
330
1F
100
AcDbEntity
  8
1
  6
Continuous
 62
     7
370
    13
100
AcDbCircle
 10
11405.11358362518
 20
16807.82835156949
 30
0.0
 40
96.94080000000001
  0
LINE
  5
3545
330
1F
100
AcDbEntity
  8
1
  6
Continuous
 62
     7
370
    13
100
AcDbLine
 10
11534.36798362519
 20
17260.21875156951
 30
0.0
 11
11534.36798362519
 21
17195.59155156949
 31
0.0
  0
LINE
  5
3546
330
1F
100
AcDbEntity
  8
1
  6
Continuous
 62
     7
370
    13
100
AcDbLine
 10
11534.36798362519
 20
17195.59155156949
 30
0.0
 11
11598.99518362512
 21
17195.59155156949
 31
0.0
  0
LINE
  5
3547
330
1F
100
AcDbEntity
  8
1
  6
Continuous
 62
     7
370
    13
100
AcDbLine
 10
11598.99518362512
 20
17195.59155156949
 30
0.0
 11
11598.99518362512
 21
17066.3371515695
 31
0.0
  0
LINE
  5
3548
330
1F
100
AcDbEntity
  8
1
  6
Continuous
 62
     7
370
    13
100
AcDbLine
 10
11598.99518362512
 20
17066.3371515695
 30
0.0
 11
11534.36798362519
 21
17066.3371515695
 31
0.0
  0
LINE
  5
3549
330
1F
100
AcDbEntity
  8
1
  6
Continuous
 62
     7
370
    13
100
AcDbLine
 10
11534.36798362519
 20
17066.3371515695
 30
0.0
 11
11534.36798362519
 21
17001.70995156948
 31
0.0
  0
LINE
  5
354A
330
1F
100
AcDbEntity
  8
1
  6
Continuous
 62
     7
370
    13
100
AcDbLine
 10
11534.36798362519
 20
17001.70995156948
 30
0.0
 11
11237.08286362816
 21
17001.70995156948
 31
0.0
  0
LINE
  5
354B
330
1F
100
AcDbEntity
  8
1
  6
Continuous
 62
     7
370
    13
100
AcDbLine
 10
11237.08286362816
 20
17001.70995156948
 30
0.0
 11
11237.08286362816
 21
17034.02355156951
 31
0.0
  0
LINE
  5
354C
330
1F
100
AcDbEntity
  8
1
  6
Continuous
 62
     7
370
    13
100
AcDbLine
 10
11237.08286362816
 20
17034.02355156951
 30
0.0
 11
11172.45566362824
 21
17034.02355156951
 31
0.0
  0
LINE
  5
354D
330
1F
100
AcDbEntity
  8
1
  6
Continuous
 62
     7
370
    13
100
AcDbLine
 10
11172.45566362824
 20
17034.02355156951
 30
0.0
 11
11172.45566362824
 21
17227.9051515695
 31
0.0
  0
LINE
  5
354E
330
1F
100
AcDbEntity
  8
1
  6
Continuous
 62
     7
370
    13
100
AcDbLine
 10
11172.45566362824
 20
17227.9051515695
 30
0.0
 11
11237.08286362816
 21
17227.9051515695
 31
0.0
  0
LINE
  5
354F
330
1F
100
AcDbEntity
  8
1
  6
Continuous
 62
     7
370
    13
100
AcDbLine
 10
11237.08286362816
 20
17227.9051515695
 30
0.0
 11
11237.08286362816
 21
17260.21875156951
 31
0.0
  0
LINE
  5
3550
330
1F
100
AcDbEntity
  8
1
  6
Continuous
 62
     7
370
    13
100
AcDbLine
 10
11237.08286362816
 20
17260.21875156951
 30
0.0
 11
11534.36798362519
 21
17260.21875156951
 31
0.0
  0
CIRCLE
  5
3551
330
1F
100
AcDbEntity
  8
1
  6
Continuous
 62
     7
370
    13
100
AcDbCircle
 10
11405.11358362518
 20
17130.9643515695
 30
0.0
 40
96.94080000000001
  0
ARC
  5
3552
330
1F
100
AcDbEntity
  8
1
  6
Continuous
 62
     7
370
    13
100
AcDbCircle
 10
17531.0660572604
 20
13351.00789820574
 30
0.0
 40
698.9591955455999
100
AcDbArc
 50
243.4349489998489
 51
296.5650510001511
  0
LINE
  5
3553
330
1F
100
AcDbEntity
  8
1
  6
Continuous
 62
     7
370
    13
100
AcDbLine
 10
17843.65011580884
 20
12725.83978111097
 30
0.0
 11
18230.02525280706
 21
12919.02734961154
 31
0.0
  0
LINE
  5
3554
330
1F
100
AcDbEntity
  8
1
  6
Continuous
 62
     7
370
    13
100
AcDbLine
 10
17144.69085563452
 20
12762.73532033726
 30
0.0
 11
17218.48193408724
 21
12725.83978111097
 31
0.0
  0
ARC
  5
3555
330
1F
100
AcDbEntity
  8
1
  6
Continuous
 62
     7
370
    13
100
AcDbCircle
 10
16832.10679708911
 20
12137.56720324253
 30
0.0
 40
698.9591955455999
100
AcDbArc
 50
63.43494899984897
 51
116.565051000151
  0
LINE
  5
3556
330
1F
100
AcDbEntity
  8
1
  6
Continuous
 62
     7
370
    13
100
AcDbLine
 10
16133.14760154236
 20
12569.54775183822
 30
0.0
 11
16519.52273854058
 21
12762.73532033726
 31
0.0
  0
ARC
  5
3557
330
1F
100
AcDbEntity
  8
1
  6
Continuous
 62
     7
370
    13
100
AcDbCircle
 10
17531.0660572604
 20
13001.52830043312
 30
0.0
 40
698.9591955455999
100
AcDbArc
 50
243.4349489998489
 51
296.5650510001511
  0
LINE
  5
3558
330
1F
100
AcDbEntity
  8
1
  6
Continuous
 62
     7
370
    13
100
AcDbLine
 10
17843.65011580884
 20
12376.36018333838
 30
0.0
 11
18230.02525280706
 21
12569.54775183822
 31
0.0
  0
LINE
  5
3559
330
1F
100
AcDbEntity
  8
1
  6
Continuous
 62
     7
370
    13
100
AcDbLine
 10
17144.69085563452
 20
12413.2557225647
 30
0.0
 11
17218.48193408724
 21
12376.36018333838
 31
0.0
  0
ARC
  5
355A
330
1F
100
AcDbEntity
  8
1
  6
Continuous
 62
     7
370
    13
100
AcDbCircle
 10
16832.10679708911
 20
11788.08760546994
 30
0.0
 40
698.9591955455999
100
AcDbArc
 50
63.43494899984897
 51
116.565051000151
  0
LINE
  5
355B
330
1F
100
AcDbEntity
  8
1
  6
Continuous
 62
     7
370
    13
100
AcDbLine
 10
16133.14760154236
 20
12220.06815406488
 30
0.0
 11
16519.52273854058
 21
12413.2557225647
 31
0.0
  0
TEXT
  5
355C
330
1F
100
AcDbEntity
  8
1
  6
Continuous
 62
     7
370
    13
100
AcDbText
 10
5023.519437457731
 20
25903.31739843056
 30
0.0
 40
735.5708998221611
  1
ＪＥＭ－Ａ基板　ＪＥＭ－Ａ
 41
0.75
  7
KANJI
100
AcDbText
  0
TEXT
  5
355D
330
1F
100
AcDbEntity
  8
1
  6
Continuous
 62
     7
370
    13
100
AcDbText
 10
3842.511064112483
 20
4244.347734814102
 30
0.0
 40
447.9946116360424
  1
入力電源
 41
0.944444
  7
KANJI
100
AcDbText
  0
TEXT
  5
355E
330
1F
100
AcDbEntity
  8
1
  6
Continuous
 62
     7
370
    13
100
AcDbText
 10
4249.424408228782
 20
4906.097007109493
 30
0.0
 40
447.9946116360424
  1
項　目
 41
0.944444
  7
KANJI
100
AcDbText
  0
TEXT
  5
355F
330
1F
100
AcDbEntity
  8
1
  6
Continuous
 62
     7
370
    13
100
AcDbText
 10
13333.75411743467
 20
4906.097007109493
 30
0.0
 40
447.9946116360424
  1
内　容
 41
0.944444
  7
KANJI
100
AcDbText
  0
TEXT
  5
3560
330
1F
100
AcDbEntity
  8
1
  6
Continuous
 62
     7
370
    13
100
AcDbText
 10
3842.511064112483
 20
3613.063234511966
 30
0.0
 40
447.9946116360424
  1
解錠入力
 41
0.944444
  7
KANJI
100
AcDbText
  0
TEXT
  5
3561
330
1F
100
AcDbEntity
  8
1
  6
Continuous
 62
     7
370
    13
100
AcDbText
 10
3842.511064112483
 20
2993.177837900773
 30
0.0
 40
447.9946116360424
  1
施錠閉扉出力
 41
0.7
  7
KANJI
100
AcDbText
  0
TEXT
  5
3562
330
1F
100
AcDbEntity
  8
1
  6
Continuous
 62
     7
370
    13
100
AcDbText
 10
6538.397892469196
 20
4244.347734814102
 30
0.0
 40
447.9946116360424
  1
電気錠制御盤から供給
 41
0.944444
  7
KANJI
100
AcDbText
  0
TEXT
  5
3563
330
1F
100
AcDbEntity
  8
1
  6
Continuous
 62
     7
370
    13
100
AcDbText
 10
6530.710723861999
 20
3613.063234511966
 30
0.0
 40
447.9946116360424
  1
無電圧ａ接点瞬時　メイク時解錠
 41
0.944444
  7
KANJI
100
AcDbText
  0
TEXT
  5
3564
330
1F
100
AcDbEntity
  8
1
  6
Continuous
 62
     7
370
    13
100
AcDbText
 10
6530.710723861999
 20
2993.177837900773
 30
0.0
 40
447.9946116360424
  1
オープンコレクタ　ＤＣ２４Ｖ １０ｍＡ以下
 41
0.75
  7
KANJI
100
AcDbText
  0
LINE
  5
3565
330
1F
100
AcDbEntity
  8
1
  6
Continuous
 62
     7
370
    13
100
AcDbLine
 10
6326.22513577936
 20
5458.21138036286
 30
0.0
 11
6326.225135779421
 21
2873.574045522255
 31
0.0
  0
LINE
  5
3566
330
1F
100
AcDbEntity
  8
1
  6
Continuous
 62
     7
370
    13
100
AcDbLine
 10
22583.53697363561
 20
5447.946292427324
 30
0.0
 11
22583.53697363567
 21
2873.574045522255
 31
0.0
  0
LINE
  5
3567
330
1F
100
AcDbEntity
  8
1
  6
Continuous
 62
     7
370
    13
100
AcDbLine
 10
3518.164105026928
 20
5447.946292429115
 30
0.0
 11
3518.164105026988
 21
2873.574045522255
 31
0.0
  0
LINE
  5
3568
330
1F
100
AcDbEntity
  8
1
  6
Continuous
 62
     7
370
    13
100
AcDbLine
 10
3518.164105026988
 20
5458.21138036286
 30
0.0
 11
22583.53697363567
 21
5458.21138036286
 31
0.0
  0
LINE
  5
3569
330
1F
100
AcDbEntity
  8
1
  6
Continuous
 62
     7
370
    13
100
AcDbLine
 10
3518.164105026988
 20
3524.865923203193
 30
0.0
 11
22583.53697363567
 21
3524.865923199613
 31
0.0
  0
LINE
  5
356A
330
1F
100
AcDbEntity
  8
1
  6
Continuous
 62
     7
370
    13
100
AcDbLine
 10
3518.164105026988
 20
2873.574045522255
 30
0.0
 11
22583.53697363567
 21
2873.574045522255
 31
0.0
  0
LINE
  5
356B
330
1F
100
AcDbEntity
  8
1
  6
Continuous
 62
     7
370
    13
100
AcDbLine
 10
3518.164105027134
 20
4176.157800883607
 30
0.0
 11
22583.53697363582
 21
4176.157800880027
 31
0.0
  0
LINE
  5
356C
330
1F
100
AcDbEntity
  8
1
  6
Continuous
 62
     7
370
    13
100
AcDbLine
 10
3518.164105026988
 20
4827.449678552977
 30
0.0
 11
22583.53697363567
 21
4827.449678552977
 31
0.0
  0
LINE
  5
356D
330
1F
100
AcDbEntity
  8
1
  6
Continuous
 62
     7
370
    13
100
AcDbLine
 10
18322.17982561906
 20
15837.30705537046
 30
0.0
 11
18796.39218272665
 21
15837.30705537046
 31
0.0
  0
LINE
  5
356E
330
1F
100
AcDbEntity
  8
1
  6
Continuous
 62
     7
370
    13
100
AcDbLine
 10
18397.78641045205
 20
16030.5853604586
 30
0.0
 11
18796.39218272665
 21
16030.5853604586
 31
0.0
  0
DIMENSION
  5
356F
330
1F
100
AcDbEntity
  8
1
  6
Continuous
 62
     7
370
    13
100
AcDbDimension
  2
*D106
 10
12116.01278362517
 20
21271.75399297807
 30
0.0
 11
8690.771183625155
 21
21271.75399297807
 31
0.0
 70
   160
  1
53
 71
     5
 42
6850.483200000039
  3
STANDARD
100
AcDbAlignedDimension
 13
5265.529583625135
 23
19199.75954011989
 33
0.0
 14
12116.01278362517
 24
19199.82204011989
 34
0.0
100
AcDbRotatedDimension
1001
ACAD
1000
DSTYLE
1002
{
1070
    41
1040
500.0
1070
    73
1070
     0
1070
    77
1070
     1
1070
   140
1040
400.0
1070
   147
1040
50.0
1070
   173
1070
     1
1070
   343
1005
2B
1070
   344
1005
2B
1002
}
  0
DIMENSION
  5
3570
330
1F
100
AcDbEntity
  8
1
  6
Continuous
 62
     7
370
    13
100
AcDbDimension
  2
*D107
 10
14445.74432039463
 20
13770.72795606135
 30
0.0
 11
14445.74432039463
 21
16485.27499809062
 31
0.0
 70
   160
  1
42
 71
     5
 42
5429.09408405854
  3
STANDARD
100
AcDbAlignedDimension
 13
12115.95028362517
 23
19199.82204011989
 33
0.0
 14
12116.01278362517
 24
13770.72795606135
 34
0.0
 50
270.0
100
AcDbRotatedDimension
1001
ACAD
1000
DSTYLE
1002
{
1070
    41
1040
500.0
1070
    73
1070
     0
1070
    77
1070
     1
1070
   140
1040
400.0
1070
   147
1040
50.0
1070
   173
1070
     1
1070
   343
1005
2B
1070
   344
1005
2B
1002
}
  0
DIMENSION
  5
3571
330
1F
100
AcDbEntity
  8
1
  6
Continuous
 62
     7
370
    13
100
AcDbDimension
  2
*D108
 10
11469.74078362519
 20
20235.90926654899
 30
0.0
 11
8690.771183625196
 21
20235.90926654899
 31
0.0
 70
   160
  1
43
 71
     5
 42
5557.93919999999
  3
STANDARD
100
AcDbAlignedDimension
 13
5911.801583625202
 23
19199.75954011989
 33
0.0
 14
11469.74078362519
 24
19199.82204011989
 34
0.0
100
AcDbRotatedDimension
1001
ACAD
1000
DSTYLE
1002
{
1070
    41
1040
500.0
1070
    73
1070
     0
1070
    77
1070
     1
1070
   140
1040
400.0
1070
   147
1040
50.0
1070
   173
1070
     1
1070
   343
1005
2B
1070
   344
1005
2B
1002
}
  0
DIMENSION
  5
3572
330
1F
100
AcDbEntity
  8
1
  6
Continuous
 62
     7
370
    13
100
AcDbDimension
  2
*D109
 10
13481.05145355586
 20
14417.20463040407
 30
0.0
 11
13481.05145355586
 21
16485.27503040409
 31
0.0
 70
   160
  1
32
 71
     5
 42
4136.140800000039
  3
STANDARD
100
AcDbAlignedDimension
 13
12115.95028362517
 23
18553.3454304041
 33
0.0
 14
12116.01278362517
 24
14417.20463040407
 34
0.0
 50
270.0
100
AcDbRotatedDimension
1001
ACAD
1000
DSTYLE
1002
{
1070
    41
1040
500.0
1070
    73
1070
     0
1070
    77
1070
     1
1070
   140
1040
400.0
1070
   147
1040
50.0
1070
   173
1070
     1
1070
   343
1005
2B
1070
   344
1005
2B
1002
}
  0
DIMENSION
  5
3573
330
1F
100
AcDbEntity
  8
1
  6
Continuous
 62
     7
370
    13
100
AcDbDimension
  2
*D110
 10
21859.72146272662
 20
19717.98690333444
 30
0.0
 11
21471.95826272662
 21
19717.98690333444
 31
0.0
 70
   160
  1
6
 71
     5
 42
775.5263999999916
  3
STANDARD
100
AcDbAlignedDimension
 13
21084.19506272662
 23
19199.75954011989
 33
0.0
 14
21859.72146272662
 24
19199.82204011989
 34
0.0
100
AcDbRotatedDimension
1001
ACAD
1000
DSTYLE
1002
{
1070
    41
1040
500.0
1070
    73
1070
     0
1070
    77
1070
     1
1070
   140
1040
400.0
1070
   147
1040
50.0
1070
   173
1070
     1
1070
   343
1005
2B
1070
   344
1005
2B
1002
}
  0
DIMENSION
  5
3574
330
1F
100
AcDbEntity
  8
1
  6
Continuous
 62
     7
370
    13
100
AcDbDimension
  2
*D111
 10
21084.19506272662
 20
21271.75399297807
 30
0.0
 11
19027.38802272664
 21
21271.75399297807
 31
0.0
 70
   160
  1
(t1.6)
 71
     5
 42
206.8070399999815
  3
STANDARD
100
AcDbAlignedDimension
 13
20877.38802272664
 23
19199.75954011989
 33
0.0
 14
21084.19506272662
 24
19199.82204011989
 34
0.0
100
AcDbRotatedDimension
1001
ACAD
1000
DSTYLE
1002
{
1070
    41
1040
500.0
1070
    73
1070
     0
1070
    77
1070
     1
1070
   140
1040
400.0
1070
   147
1040
50.0
1070
   173
1070
     1
1070
   343
1005
2B
1070
   344
1005
2B
1002
}
  0
DIMENSION
  5
3575
330
1F
100
AcDbEntity
  8
1
  6
Continuous
 62
     7
370
    13
100
AcDbDimension
  2
*D112
 10
20877.38802272664
 20
20235.87801654898
 30
0.0
 11
19836.89010272664
 21
20235.87801654898
 31
0.0
 70
   160
  1
16
 71
     5
 42
2080.995839999995
  3
STANDARD
100
AcDbAlignedDimension
 13
18796.39218272665
 23
17324.7834515695
 33
0.0
 14
20877.38802272664
 24
19199.82204011989
 34
0.0
100
AcDbRotatedDimension
1001
ACAD
1000
DSTYLE
1002
{
1070
    41
1040
500.0
1070
    73
1070
     0
1070
    77
1070
     1
1070
   140
1040
400.0
1070
   147
1040
50.0
1070
   173
1070
     1
1070
   343
1005
2B
1070
   344
1005
2B
1002
}
  0
ENDSEC
  0
SECTION
  2
OBJECTS
  0
DICTIONARY
  5
C
330
0
100
AcDbDictionary
281
     1
  3
ACAD_GROUP
350
D
  3
ACAD_LAYOUT
350
1A
  3
ACAD_MLINESTYLE
350
17
  3
ACAD_PLOTSETTINGS
350
19
  3
ACAD_PLOTSTYLENAME
350
E
  3
AcDbVariableDictionary
350
339
  0
DICTIONARY
  5
73
330
2
100
AcDbDictionary
280
     1
281
     1
  3
ACAD_LAYERSTATES
360
74
  0
DICTIONARY
  5
2CF6
330
1F
100
AcDbDictionary
280
     1
281
     1
  0
DICTIONARY
  5
2CF4
330
1B
100
AcDbDictionary
280
     1
281
     1
  0
DICTIONARY
  5
D
102
{ACAD_REACTORS
330
C
102
}
330
C
100
AcDbDictionary
281
     1
  0
DICTIONARY
  5
1A
102
{ACAD_REACTORS
330
C
102
}
330
C
100
AcDbDictionary
281
     1
  3
Model
350
2D47
  3
ﾚｲｱｳﾄ1
350
2D48
  0
DICTIONARY
  5
17
102
{ACAD_REACTORS
330
C
102
}
330
C
100
AcDbDictionary
281
     1
  3
STANDARD
350
18
  0
DICTIONARY
  5
19
102
{ACAD_REACTORS
330
C
102
}
330
C
100
AcDbDictionary
281
     1
  0
ACDBDICTIONARYWDFLT
  5
E
102
{ACAD_REACTORS
330
C
102
}
330
C
100
AcDbDictionary
281
     1
  3
Normal
350
F
100
AcDbDictionaryWithDefault
340
F
  0
DICTIONARY
  5
339
102
{ACAD_REACTORS
330
C
102
}
330
C
100
AcDbDictionary
281
     1
  3
DIMASSOC
350
33B
  3
HIDETEXT
350
33A
  0
DICTIONARY
  5
74
102
{ACAD_REACTORS
330
73
102
}
330
73
100
AcDbDictionary
281
     1
  0
LAYOUT
  5
2D47
102
{ACAD_REACTORS
330
1A
102
}
330
1A
100
AcDbPlotSettings
  1

  2
NEC MultiWriter2360/2360N
  4

  6

 40
0.0
 41
0.0
 42
0.0
 43
0.0
 44
0.0
 45
0.0
 46
0.0
 47
0.0
 48
0.0
 49
0.0
140
0.0
141
0.0
142
1.0
143
1.0
 70
  1712
 72
     0
 73
     0
 74
     0
  7

 75
     0
147
1.0
148
0.0
149
0.0
100
AcDbLayout
  1
Model
 70
     1
 71
     0
 10
0.0
 20
0.0
 11
12.0
 21
9.0
 12
0.0
 22
0.0
 32
0.0
 14
0.0
 24
0.0
 34
0.0
 15
0.0
 25
0.0
 35
0.0
146
0.0
 13
0.0
 23
0.0
 33
0.0
 16
1.0
 26
0.0
 36
0.0
 17
0.0
 27
1.0
 37
0.0
 76
     0
330
1F
  0
LAYOUT
  5
2D48
102
{ACAD_REACTORS
330
1A
102
}
330
1A
100
AcDbPlotSettings
  1

  2
NEC MultiWriter2360/2360N
  4

  6

 40
0.0
 41
0.0
 42
0.0
 43
0.0
 44
0.0
 45
0.0
 46
0.0
 47
0.0
 48
0.0
 49
0.0
140
0.0
141
0.0
142
1.0
143
1.0
 70
   688
 72
     0
 73
     0
 74
     5
  7

 75
    16
147
1.0
148
0.0
149
0.0
100
AcDbLayout
  1
ﾚｲｱｳﾄ1
 70
     1
 71
     1
 10
0.0
 20
0.0
 11
420.0
 21
297.0
 12
0.0
 22
0.0
 32
0.0
 14
1.000000000000000E+20
 24
1.000000000000000E+20
 34
1.000000000000000E+20
 15
-1.000000000000000E+20
 25
-1.000000000000000E+20
 35
-1.000000000000000E+20
146
0.0
 13
0.0
 23
0.0
 33
0.0
 16
1.0
 26
0.0
 36
0.0
 17
0.0
 27
1.0
 37
0.0
 76
     0
330
1B
  0
MLINESTYLE
  5
18
102
{ACAD_REACTORS
330
17
102
}
330
17
100
AcDbMlineStyle
  2
STANDARD
 70
     0
  3

 62
   256
 51
90.0
 52
90.0
 71
     2
 49
0.5
 62
   256
  6
BYLAYER
 49
-0.5
 62
   256
  6
BYLAYER
  0
ACDBPLACEHOLDER
  5
F
102
{ACAD_REACTORS
330
E
102
}
330
E
  0
DICTIONARYVAR
  5
33B
102
{ACAD_REACTORS
330
339
102
}
330
339
100
DictionaryVariables
280
     0
  1
2
  0
DICTIONARYVAR
  5
33A
102
{ACAD_REACTORS
330
339
102
}
330
339
100
DictionaryVariables
280
     0
  1
1
  0
ENDSEC
  0
EOF
