  0
SECTION
  2
HEADER
  9
$ACADVER
  1
AC1015
  9
$ACADMAINTVER
 70
    13
  9
$DWGCODEPAGE
  3
ANSI_932
  9
$INSBASE
 10
0.0
 20
0.0
 30
0.0
  9
$EXTMIN
 10
1070.183503036561
 20
1433.404788170446
 30
-0.0000000000112497
  9
$EXTMAX
 10
25447.25961980549
 20
29103.78919789872
 30
0.0000000000002956
  9
$LIMMIN
 10
0.0
 20
0.0
  9
$LIMMAX
 10
420.0
 20
297.0
  9
$ORTHOMODE
 70
     0
  9
$REGENMODE
 70
     1
  9
$FILLMODE
 70
     1
  9
$QTEXTMODE
 70
     0
  9
$MIRRTEXT
 70
     1
  9
$LTSCALE
 40
1.0
  9
$ATTMODE
 70
     1
  9
$TEXTSIZE
 40
2.5
  9
$TRACEWID
 40
1.0
  9
$TEXTSTYLE
  7
STANDARD
  9
$CLAYER
  8
0
  9
$CELTYPE
  6
BYLAYER
  9
$CECOLOR
 62
   256
  9
$CELTSCALE
 40
1.0
  9
$DISPSILH
 70
     0
  9
$DIMSCALE
 40
1.0
  9
$DIMASZ
 40
2.5
  9
$DIMEXO
 40
0.625
  9
$DIMDLI
 40
3.75
  9
$DIMRND
 40
0.0
  9
$DIMDLE
 40
0.0
  9
$DIMEXE
 40
1.25
  9
$DIMTP
 40
0.0
  9
$DIMTM
 40
0.0
  9
$DIMTXT
 40
2.5
  9
$DIMCEN
 40
2.5
  9
$DIMTSZ
 40
0.0
  9
$DIMTOL
 70
     0
  9
$DIMLIM
 70
     0
  9
$DIMTIH
 70
     0
  9
$DIMTOH
 70
     0
  9
$DIMSE1
 70
     0
  9
$DIMSE2
 70
     0
  9
$DIMTAD
 70
     1
  9
$DIMZIN
 70
     8
  9
$DIMBLK
  1

  9
$DIMASO
 70
     1
  9
$DIMSHO
 70
     1
  9
$DIMPOST
  1

  9
$DIMAPOST
  1

  9
$DIMALT
 70
     0
  9
$DIMALTD
 70
     3
  9
$DIMALTF
 40
0.03937007874016
  9
$DIMLFAC
 40
1.0
  9
$DIMTOFL
 70
     1
  9
$DIMTVP
 40
0.0
  9
$DIMTIX
 70
     0
  9
$DIMSOXD
 70
     0
  9
$DIMSAH
 70
     0
  9
$DIMBLK1
  1

  9
$DIMBLK2
  1

  9
$DIMSTYLE
  2
ISO-25
  9
$DIMCLRD
 70
     0
  9
$DIMCLRE
 70
     0
  9
$DIMCLRT
 70
     0
  9
$DIMTFAC
 40
1.0
  9
$DIMGAP
 40
0.625
  9
$DIMJUST
 70
     0
  9
$DIMSD1
 70
     0
  9
$DIMSD2
 70
     0
  9
$DIMTOLJ
 70
     0
  9
$DIMTZIN
 70
     8
  9
$DIMALTZ
 70
     0
  9
$DIMALTTZ
 70
     0
  9
$DIMUPT
 70
     0
  9
$DIMDEC
 70
     2
  9
$DIMTDEC
 70
     2
  9
$DIMALTU
 70
     2
  9
$DIMALTTD
 70
     3
  9
$DIMTXSTY
  7
STANDARD
  9
$DIMAUNIT
 70
     0
  9
$DIMADEC
 70
     0
  9
$DIMALTRND
 40
0.0
  9
$DIMAZIN
 70
     0
  9
$DIMDSEP
 70
    46
  9
$DIMATFIT
 70
     3
  9
$DIMFRAC
 70
     0
  9
$DIMLDRBLK
  1

  9
$DIMLUNIT
 70
     2
  9
$DIMLWD
 70
    -2
  9
$DIMLWE
 70
    -2
  9
$DIMTMOVE
 70
     0
  9
$LUNITS
 70
     2
  9
$LUPREC
 70
     4
  9
$SKETCHINC
 40
1.0
  9
$FILLETRAD
 40
10.0
  9
$AUNITS
 70
     0
  9
$AUPREC
 70
     0
  9
$MENU
  1
.
  9
$ELEVATION
 40
0.0
  9
$PELEVATION
 40
0.0
  9
$THICKNESS
 40
0.0
  9
$LIMCHECK
 70
     0
  9
$CHAMFERA
 40
10.0
  9
$CHAMFERB
 40
10.0
  9
$CHAMFERC
 40
20.0
  9
$CHAMFERD
 40
0.0
  9
$SKPOLY
 70
     0
  9
$TDCREATE
 40
2455236.663561527
  9
$TDUCREATE
 40
2455236.288561527
  9
$TDUPDATE
 40
2455289.675079097
  9
$TDUUPDATE
 40
2455289.300079097
  9
$TDINDWG
 40
0.0118812963
  9
$TDUSRTIMER
 40
0.0118811111
  9
$USRTIMER
 70
     1
  9
$ANGBASE
 50
0.0
  9
$ANGDIR
 70
     0
  9
$PDMODE
 70
     0
  9
$PDSIZE
 40
0.0
  9
$PLINEWID
 40
0.0
  9
$SPLFRAME
 70
     0
  9
$SPLINETYPE
 70
     6
  9
$SPLINESEGS
 70
     8
  9
$HANDSEED
  5
37F4
  9
$SURFTAB1
 70
     6
  9
$SURFTAB2
 70
     6
  9
$SURFTYPE
 70
     6
  9
$SURFU
 70
     6
  9
$SURFV
 70
     6
  9
$UCSBASE
  2

  9
$UCSNAME
  2

  9
$UCSORG
 10
0.0
 20
0.0
 30
0.0
  9
$UCSXDIR
 10
1.0
 20
0.0
 30
0.0
  9
$UCSYDIR
 10
0.0
 20
1.0
 30
0.0
  9
$UCSORTHOREF
  2

  9
$UCSORTHOVIEW
 70
     0
  9
$UCSORGTOP
 10
0.0
 20
0.0
 30
0.0
  9
$UCSORGBOTTOM
 10
0.0
 20
0.0
 30
0.0
  9
$UCSORGLEFT
 10
0.0
 20
0.0
 30
0.0
  9
$UCSORGRIGHT
 10
0.0
 20
0.0
 30
0.0
  9
$UCSORGFRONT
 10
0.0
 20
0.0
 30
0.0
  9
$UCSORGBACK
 10
0.0
 20
0.0
 30
0.0
  9
$PUCSBASE
  2

  9
$PUCSNAME
  2

  9
$PUCSORG
 10
0.0
 20
0.0
 30
0.0
  9
$PUCSXDIR
 10
1.0
 20
0.0
 30
0.0
  9
$PUCSYDIR
 10
0.0
 20
1.0
 30
0.0
  9
$PUCSORTHOREF
  2

  9
$PUCSORTHOVIEW
 70
     0
  9
$PUCSORGTOP
 10
0.0
 20
0.0
 30
0.0
  9
$PUCSORGBOTTOM
 10
0.0
 20
0.0
 30
0.0
  9
$PUCSORGLEFT
 10
0.0
 20
0.0
 30
0.0
  9
$PUCSORGRIGHT
 10
0.0
 20
0.0
 30
0.0
  9
$PUCSORGFRONT
 10
0.0
 20
0.0
 30
0.0
  9
$PUCSORGBACK
 10
0.0
 20
0.0
 30
0.0
  9
$USERI1
 70
     0
  9
$USERI2
 70
     0
  9
$USERI3
 70
     0
  9
$USERI4
 70
     0
  9
$USERI5
 70
     0
  9
$USERR1
 40
0.0
  9
$USERR2
 40
0.0
  9
$USERR3
 40
0.0
  9
$USERR4
 40
0.0
  9
$USERR5
 40
0.0
  9
$WORLDVIEW
 70
     1
  9
$SHADEDGE
 70
     3
  9
$SHADEDIF
 70
    70
  9
$TILEMODE
 70
     1
  9
$MAXACTVP
 70
    64
  9
$PINSBASE
 10
0.0
 20
0.0
 30
0.0
  9
$PLIMCHECK
 70
     0
  9
$PEXTMIN
 10
1.000000000000000E+20
 20
1.000000000000000E+20
 30
1.000000000000000E+20
  9
$PEXTMAX
 10
-1.000000000000000E+20
 20
-1.000000000000000E+20
 30
-1.000000000000000E+20
  9
$PLIMMIN
 10
0.0
 20
0.0
  9
$PLIMMAX
 10
420.0
 20
297.0
  9
$UNITMODE
 70
     0
  9
$VISRETAIN
 70
     1
  9
$PLINEGEN
 70
     0
  9
$PSLTSCALE
 70
     1
  9
$TREEDEPTH
 70
  3020
  9
$CMLSTYLE
  2
STANDARD
  9
$CMLJUST
 70
     0
  9
$CMLSCALE
 40
20.0
  9
$PROXYGRAPHICS
 70
     1
  9
$MEASUREMENT
 70
     1
  9
$CELWEIGHT
370
    -1
  9
$ENDCAPS
280
     0
  9
$JOINSTYLE
280
     0
  9
$LWDISPLAY
290
     0
  9
$INSUNITS
 70
     4
  9
$HYPERLINKBASE
  1

  9
$STYLESHEET
  1

  9
$XEDIT
290
     1
  9
$CEPSNTYPE
380
     0
  9
$PSTYLEMODE
290
     1
  9
$FINGERPRINTGUID
  2
{55D281FF-F51E-4FF9-9C6C-9C21EC1AA7A1}
  9
$VERSIONGUID
  2
{C7D12B8D-50D0-40B7-BB89-2386E7EAD2E5}
  9
$EXTNAMES
290
     1
  9
$PSVPSCALE
 40
0.0
  9
$OLESTARTUP
290
     0
  0
ENDSEC
  0
SECTION
  2
CLASSES
  0
CLASS
  1
ACDBDICTIONARYWDFLT
  2
AcDbDictionaryWithDefault
  3
AutoCAD 2000
 90
        0
280
     0
281
     0
  0
CLASS
  1
ACDBPLACEHOLDER
  2
AcDbPlaceHolder
  3
AutoCAD 2000
 90
        0
280
     0
281
     0
  0
CLASS
  1
LAYOUT
  2
AcDbLayout
  3
AutoCAD 2000
 90
        0
280
     0
281
     0
  0
CLASS
  1
DICTIONARYVAR
  2
AcDbDictionaryVar
  3
AutoCAD 2000
 90
        0
280
     0
281
     0
  0
CLASS
  1
LONG_TRANSACTION
  2
AcDbLongTransaction
  3
AutoCAD 2000
 90
    32768
280
     0
281
     0
  0
CLASS
  1
LWPOLYLINE
  2
AcDbPolyline
  3
AutoCAD 2000
 90
    32768
280
     0
281
     1
  0
CLASS
  1
HATCH
  2
AcDbHatch
  3
AutoCAD 2000
 90
    32768
280
     0
281
     1
  0
CLASS
  1
XRECORD
  2
AcDbXrecord
  3
AutoCAD 2000
 90
    32768
280
     0
281
     0
  0
ENDSEC
  0
SECTION
  2
TABLES
  0
TABLE
  2
VPORT
  5
8
330
0
100
AcDbSymbolTable
 70
     6
  0
VPORT
  5
37F3
330
8
100
AcDbSymbolTableRecord
100
AcDbViewportTableRecord
  2
*Active
 70
     0
 10
0.0
 20
0.0
 11
1.0
 21
1.0
 12
16476.18870426411
 22
10024.01705451191
 13
0.0
 23
0.0
 14
10.0
 24
10.0
 15
10.0
 25
10.0
 16
0.0
 26
0.0
 36
1.0
 17
0.0
 27
0.0
 37
0.0
 40
41737.37769316902
 41
1.732217573221757
 42
50.0
 43
0.0
 44
0.0
 50
0.0
 51
0.0
 71
     0
 72
   100
 73
     1
 74
     3
 75
     0
 76
     0
 77
     0
 78
     0
281
     0
 65
     1
110
0.0
120
0.0
130
0.0
111
1.0
121
0.0
131
0.0
112
0.0
122
1.0
132
0.0
 79
     0
146
0.0
  0
ENDTAB
  0
TABLE
  2
LTYPE
  5
5
330
0
100
AcDbSymbolTable
 70
     5
  0
LTYPE
  5
14
330
5
100
AcDbSymbolTableRecord
100
AcDbLinetypeTableRecord
  2
BYBLOCK
 70
     0
  3

 72
    65
 73
     0
 40
0.0
  0
LTYPE
  5
15
330
5
100
AcDbSymbolTableRecord
100
AcDbLinetypeTableRecord
  2
BYLAYER
 70
     0
  3

 72
    65
 73
     0
 40
0.0
  0
LTYPE
  5
16
330
5
100
AcDbSymbolTableRecord
100
AcDbLinetypeTableRecord
  2
CONTINUOUS
 70
     0
  3
Solid line
 72
    65
 73
     0
 40
0.0
  0
LTYPE
  5
373
330
5
100
AcDbSymbolTableRecord
100
AcDbLinetypeTableRecord
  2
DOT
 70
     0
  3
････････････････････････
 72
    65
 73
     2
 40
8.0
 49
6.0
 74
     0
 49
-2.0
 74
     0
  0
LTYPE
  5
208A
330
5
100
AcDbSymbolTableRecord
100
AcDbLinetypeTableRecord
  2
DASHDOT
 70
     0
  3
--･--･--･--･--･--･--･--
 72
    65
 73
     4
 40
50.5
 49
30.0
 74
     0
 49
-9.0
 74
     0
 49
2.5
 74
     0
 49
-9.0
 74
     0
  0
LTYPE
  5
253D
330
5
100
AcDbSymbolTableRecord
100
AcDbLinetypeTableRecord
  2
HIDDEN
 70
     0
  3
------------------------
 72
    65
 73
     2
 40
12.6
 49
8.4
 74
     0
 49
-4.2
 74
     0
  0
LTYPE
  5
363F
330
5
100
AcDbSymbolTableRecord
100
AcDbLinetypeTableRecord
  2
DIVIDE
 70
     0
  3
--･･--･･--･･--･･--･･--
 72
    65
 73
     6
 40
58.0
 49
30.0
 74
     0
 49
-9.0
 74
     0
 49
2.5
 74
     0
 49
-5.0
 74
     0
 49
2.5
 74
     0
 49
-9.0
 74
     0
  0
ENDTAB
  0
TABLE
  2
LAYER
  5
2
102
{ACAD_XDICTIONARY
360
73
102
}
330
0
100
AcDbSymbolTable
 70
     4
  0
LAYER
  5
10
330
2
100
AcDbSymbolTableRecord
100
AcDbLayerTableRecord
  2
0
 70
     0
 62
     7
  6
CONTINUOUS
370
    -3
390
F
  0
LAYER
  5
6E
330
2
100
AcDbSymbolTableRecord
100
AcDbLayerTableRecord
  2
1
 70
     0
 62
     7
  6
CONTINUOUS
370
    -3
390
F
  0
LAYER
  5
6F
330
2
100
AcDbSymbolTableRecord
100
AcDbLayerTableRecord
  2
DEFPOINTS
 70
     0
 62
     7
  6
CONTINUOUS
290
     0
370
    -3
390
F
  0
LAYER
  5
3640
330
2
100
AcDbSymbolTableRecord
100
AcDbLayerTableRecord
  2
129
 70
     0
 62
     7
  6
CONTINUOUS
370
    -3
390
F
  0
ENDTAB
  0
TABLE
  2
STYLE
  5
3
330
0
100
AcDbSymbolTable
 70
     2
  0
STYLE
  5
11
330
3
100
AcDbSymbolTableRecord
100
AcDbTextStyleTableRecord
  2
STANDARD
 70
     0
 40
0.0
 41
1.0
 50
0.0
 71
     0
 42
2.5
  3
txt
  4

  0
STYLE
  5
70
330
3
100
AcDbSymbolTableRecord
100
AcDbTextStyleTableRecord
  2
KANJI
 70
     0
 40
0.0
 41
1.0
 50
0.0
 71
     0
 42
0.2
  3
TXT
  4
BIGFONT
  0
ENDTAB
  0
TABLE
  2
VIEW
  5
6
330
0
100
AcDbSymbolTable
 70
     0
  0
ENDTAB
  0
TABLE
  2
UCS
  5
7
330
0
100
AcDbSymbolTable
 70
     0
  0
ENDTAB
  0
TABLE
  2
APPID
  5
9
330
0
100
AcDbSymbolTable
 70
     2
  0
APPID
  5
12
330
9
100
AcDbSymbolTableRecord
100
AcDbRegAppTableRecord
  2
ACAD
 70
     0
  0
APPID
  5
72
330
9
100
AcDbSymbolTableRecord
100
AcDbRegAppTableRecord
  2
ACAD_PSEXT
 70
     0
  0
ENDTAB
  0
TABLE
  2
DIMSTYLE
  5
A
330
0
100
AcDbSymbolTable
 70
     2
100
AcDbDimStyleTable
 71
     0
  0
DIMSTYLE
105
27
330
A
100
AcDbSymbolTableRecord
100
AcDbDimStyleTableRecord
  2
ISO-25
 70
     0
 41
2.5
 42
0.625
 43
3.75
 44
1.25
 73
     0
 74
     0
 77
     1
 78
     8
140
2.5
141
2.5
143
0.03937007874016
147
0.625
171
     3
172
     1
271
     2
272
     2
274
     3
283
     0
284
     8
340
11
  0
DIMSTYLE
105
71
102
{ACAD_REACTORS
330
3799
330
379A
330
379B
330
379C
102
}
330
A
100
AcDbSymbolTableRecord
100
AcDbDimStyleTableRecord
  2
STANDARD
 70
     0
340
11
  0
ENDTAB
  0
TABLE
  2
BLOCK_RECORD
  5
1
330
0
100
AcDbSymbolTable
 70
   122
  0
BLOCK_RECORD
  5
1F
102
{ACAD_XDICTIONARY
360
2CF6
102
}
330
1
100
AcDbSymbolTableRecord
100
AcDbBlockTableRecord
  2
*MODEL_SPACE
340
2D47
  0
BLOCK_RECORD
  5
1B
102
{ACAD_XDICTIONARY
360
2CF4
102
}
330
1
100
AcDbSymbolTableRecord
100
AcDbBlockTableRecord
  2
*PAPER_SPACE
340
2D48
  0
BLOCK_RECORD
  5
2B
330
1
100
AcDbSymbolTableRecord
100
AcDbBlockTableRecord
  2
_OPEN30
340
0
102
{BLKREFS
331
36
331
37
331
42
331
43
331
4E
331
4F
331
5A
331
5B
331
66
331
67
331
30F
331
310
331
318
331
319
331
321
331
322
331
32A
331
32B
331
333
331
334
331
346
331
347
331
352
331
353
331
35E
331
35F
331
36B
331
36C
331
CD7
331
CD8
331
CE0
331
CE1
331
CE9
331
CEA
331
CF3
331
CF4
331
D49
331
D4A
331
D55
331
D56
331
D61
331
D62
331
D6E
331
D6F
331
1656
331
1657
331
165F
331
1660
331
1668
331
1669
331
1672
331
1673
331
16C8
331
16C9
331
16D4
331
16D5
331
16E0
331
16E1
331
16ED
331
16EE
331
1FDF
331
1FE0
331
1FE8
331
1FE9
331
1FF1
331
1FF2
331
1FFB
331
1FFC
331
2051
331
2052
331
205D
331
205E
331
206A
331
206B
331
2076
331
2077
331
2082
331
2083
331
2269
331
226A
331
2272
331
2273
331
227C
331
227D
331
2285
331
2286
331
228E
331
228F
331
22ED
331
22EE
331
22F9
331
22FA
331
2306
331
2307
331
2312
331
2313
331
231E
331
231F
331
245C
331
245D
331
2465
331
2466
331
246F
331
2470
331
2478
331
2479
331
2481
331
2482
331
24E0
331
24E1
331
24EC
331
24ED
331
24F8
331
24F9
331
2504
331
2505
331
2510
331
2511
331
251D
331
251E
331
2529
331
252A
331
2535
331
2536
331
294C
331
294D
331
2955
331
2956
331
295E
331
295F
331
2CFD
331
2CFE
331
2D06
331
2D07
331
2D10
331
2D11
331
2D19
331
2D1A
331
2D22
331
2D23
331
2A06
331
2A07
331
2A12
331
2A13
331
2A1E
331
2A1F
331
2D2B
331
2D2C
331
2D34
331
2D35
331
2D3D
331
2D3E
331
2D6B
331
2D6C
331
2D53
331
2D54
331
2D5F
331
2D60
331
2EE9
331
2EEA
331
2EF5
331
2EF6
331
2F01
331
2F02
331
2F0C
331
2F0D
331
2F15
331
2F16
331
2F1E
331
2F1F
331
2F29
331
2F2A
331
2F35
331
2F36
331
2F41
331
2F42
331
30BF
331
30C0
331
30CB
331
30CC
331
30D7
331
30D8
331
30E2
331
30E3
331
30EB
331
30EC
331
30F4
331
30F5
331
311C
331
311D
331
3128
331
3129
331
3134
331
3135
331
3258
331
3259
331
3264
331
3265
331
3270
331
3271
331
327B
331
327C
331
3284
331
3285
331
328D
331
328E
331
32A4
331
32A5
331
3298
331
3299
331
32B0
331
32B1
331
32BC
331
32BD
331
32C9
331
32CA
331
32D6
331
32D7
331
32E2
331
32E3
331
357A
331
357B
331
3586
331
3587
331
3592
331
3593
331
359E
331
359F
331
35AB
331
35AC
331
35B8
331
35B9
331
35C4
331
35C5
331
35CF
331
35D0
331
35D8
331
35D9
331
35E1
331
35E2
331
35EA
331
35EB
331
35F4
331
35F5
331
35FE
331
35FF
331
3607
331
3608
331
3612
331
3613
331
361E
331
361F
331
362B
331
362C
331
3637
331
3638
331
37A1
331
37A2
331
37AD
331
37AE
331
37BA
331
37BB
331
37C6
331
37C7
331
37D1
331
37D2
331
37DA
331
37DB
331
37E4
331
37E5
331
37ED
331
37EE
102
}
  0
BLOCK_RECORD
  5
2D4F
330
1
100
AcDbSymbolTableRecord
100
AcDbBlockTableRecord
  2
*D77
340
0
  0
BLOCK_RECORD
  5
2D5B
330
1
100
AcDbSymbolTableRecord
100
AcDbBlockTableRecord
  2
*D78
340
0
  0
BLOCK_RECORD
  5
2D67
330
1
100
AcDbSymbolTableRecord
100
AcDbBlockTableRecord
  2
*D79
340
0
  0
BLOCK_RECORD
  5
2EE5
330
1
100
AcDbSymbolTableRecord
100
AcDbBlockTableRecord
  2
*D81
340
0
  0
BLOCK_RECORD
  5
2EF1
330
1
100
AcDbSymbolTableRecord
100
AcDbBlockTableRecord
  2
*D82
340
0
  0
BLOCK_RECORD
  5
2EFD
330
1
100
AcDbSymbolTableRecord
100
AcDbBlockTableRecord
  2
*D83
340
0
  0
BLOCK_RECORD
  5
2F25
330
1
100
AcDbSymbolTableRecord
100
AcDbBlockTableRecord
  2
*D84
340
0
  0
BLOCK_RECORD
  5
2F31
330
1
100
AcDbSymbolTableRecord
100
AcDbBlockTableRecord
  2
*D85
340
0
  0
BLOCK_RECORD
  5
2F3D
330
1
100
AcDbSymbolTableRecord
100
AcDbBlockTableRecord
  2
*D86
340
0
  0
BLOCK_RECORD
  5
30BB
330
1
100
AcDbSymbolTableRecord
100
AcDbBlockTableRecord
  2
*D88
340
0
  0
BLOCK_RECORD
  5
30C7
330
1
100
AcDbSymbolTableRecord
100
AcDbBlockTableRecord
  2
*D89
340
0
  0
BLOCK_RECORD
  5
30D3
330
1
100
AcDbSymbolTableRecord
100
AcDbBlockTableRecord
  2
*D90
340
0
  0
BLOCK_RECORD
  5
3118
330
1
100
AcDbSymbolTableRecord
100
AcDbBlockTableRecord
  2
*D91
340
0
  0
BLOCK_RECORD
  5
3124
330
1
100
AcDbSymbolTableRecord
100
AcDbBlockTableRecord
  2
*D92
340
0
  0
BLOCK_RECORD
  5
3130
330
1
100
AcDbSymbolTableRecord
100
AcDbBlockTableRecord
  2
*D93
340
0
  0
BLOCK_RECORD
  5
3254
330
1
100
AcDbSymbolTableRecord
100
AcDbBlockTableRecord
  2
*D95
340
0
  0
BLOCK_RECORD
  5
3260
330
1
100
AcDbSymbolTableRecord
100
AcDbBlockTableRecord
  2
*D96
340
0
  0
BLOCK_RECORD
  5
326C
330
1
100
AcDbSymbolTableRecord
100
AcDbBlockTableRecord
  2
*D97
340
0
  0
BLOCK_RECORD
  5
3294
330
1
100
AcDbSymbolTableRecord
100
AcDbBlockTableRecord
  2
*D98
340
0
  0
BLOCK_RECORD
  5
32A0
330
1
100
AcDbSymbolTableRecord
100
AcDbBlockTableRecord
  2
*D99
340
0
  0
BLOCK_RECORD
  5
32AC
330
1
100
AcDbSymbolTableRecord
100
AcDbBlockTableRecord
  2
*D100
340
0
  0
BLOCK_RECORD
  5
32B8
330
1
100
AcDbSymbolTableRecord
100
AcDbBlockTableRecord
  2
*D101
340
0
  0
BLOCK_RECORD
  5
32C4
330
1
100
AcDbSymbolTableRecord
100
AcDbBlockTableRecord
  2
*D102
340
0
  0
BLOCK_RECORD
  5
32D1
330
1
100
AcDbSymbolTableRecord
100
AcDbBlockTableRecord
  2
*D103
340
0
  0
BLOCK_RECORD
  5
32DE
330
1
100
AcDbSymbolTableRecord
100
AcDbBlockTableRecord
  2
*D104
340
0
  0
BLOCK_RECORD
  5
3576
330
1
100
AcDbSymbolTableRecord
100
AcDbBlockTableRecord
  2
*D106
340
0
  0
BLOCK_RECORD
  5
3582
330
1
100
AcDbSymbolTableRecord
100
AcDbBlockTableRecord
  2
*D107
340
0
  0
BLOCK_RECORD
  5
358E
330
1
100
AcDbSymbolTableRecord
100
AcDbBlockTableRecord
  2
*D108
340
0
  0
BLOCK_RECORD
  5
359A
330
1
100
AcDbSymbolTableRecord
100
AcDbBlockTableRecord
  2
*D109
340
0
  0
BLOCK_RECORD
  5
35A6
330
1
100
AcDbSymbolTableRecord
100
AcDbBlockTableRecord
  2
*D110
340
0
  0
BLOCK_RECORD
  5
35B3
330
1
100
AcDbSymbolTableRecord
100
AcDbBlockTableRecord
  2
*D111
340
0
  0
BLOCK_RECORD
  5
35C0
330
1
100
AcDbSymbolTableRecord
100
AcDbBlockTableRecord
  2
*D112
340
0
  0
BLOCK_RECORD
  5
360E
330
1
100
AcDbSymbolTableRecord
100
AcDbBlockTableRecord
  2
*D113
340
0
  0
BLOCK_RECORD
  5
361A
330
1
100
AcDbSymbolTableRecord
100
AcDbBlockTableRecord
  2
*D114
340
0
  0
BLOCK_RECORD
  5
3626
330
1
100
AcDbSymbolTableRecord
100
AcDbBlockTableRecord
  2
*D115
340
0
  0
BLOCK_RECORD
  5
3633
330
1
100
AcDbSymbolTableRecord
100
AcDbBlockTableRecord
  2
*D116
340
0
  0
BLOCK_RECORD
  5
379D
330
1
100
AcDbSymbolTableRecord
100
AcDbBlockTableRecord
  2
*D118
340
0
  0
BLOCK_RECORD
  5
37A9
330
1
100
AcDbSymbolTableRecord
100
AcDbBlockTableRecord
  2
*D119
340
0
  0
BLOCK_RECORD
  5
37B5
330
1
100
AcDbSymbolTableRecord
100
AcDbBlockTableRecord
  2
*D120
340
0
  0
BLOCK_RECORD
  5
37C2
330
1
100
AcDbSymbolTableRecord
100
AcDbBlockTableRecord
  2
*D121
340
0
  0
ENDTAB
  0
ENDSEC
  0
SECTION
  2
BLOCKS
  0
BLOCK
  5
20
330
1F
100
AcDbEntity
  8
0
100
AcDbBlockBegin
  2
*MODEL_SPACE
 70
     0
 10
0.0
 20
0.0
 30
0.0
  3
*MODEL_SPACE
  1

  0
ENDBLK
  5
21
330
1F
100
AcDbEntity
  8
0
100
AcDbBlockEnd
  0
BLOCK
  5
1C
330
1B
100
AcDbEntity
 67
     1
  8
0
100
AcDbBlockBegin
  2
*PAPER_SPACE
 70
     0
 10
0.0
 20
0.0
 30
0.0
  3
*PAPER_SPACE
  1

  0
ENDBLK
  5
1D
330
1B
100
AcDbEntity
 67
     1
  8
0
100
AcDbBlockEnd
  0
BLOCK
  5
2F
330
2B
100
AcDbEntity
  8
0
 62
     0
100
AcDbBlockBegin
  2
_OPEN30
 70
     2
 10
0.0
 20
0.0
 30
0.0
  3
_OPEN30
  1

  0
LINE
  5
2C
330
2B
100
AcDbEntity
  8
0
  6
ByBlock
 62
     0
100
AcDbLine
 10
-1.0
 20
0.267949
 30
0.0
 11
0.0
 21
0.0
 31
0.0
  0
LINE
  5
2D
330
2B
100
AcDbEntity
  8
0
  6
ByBlock
 62
     0
100
AcDbLine
 10
0.0
 20
0.0
 30
0.0
 11
-1.0
 21
-0.267949
 31
0.0
  0
LINE
  5
2E
330
2B
100
AcDbEntity
  8
0
  6
ByBlock
 62
     0
100
AcDbLine
 10
0.0
 20
0.0
 30
0.0
 11
-1.0
 21
0.0
 31
0.0
  0
ENDBLK
  5
30
330
2B
100
AcDbEntity
  8
0
 62
     0
100
AcDbBlockEnd
  0
BLOCK
  5
2D59
330
2D4F
100
AcDbEntity
  8
0
100
AcDbBlockBegin
  2
*D77
 70
     1
 10
0.0
 20
0.0
 30
0.0
  3
*D77
  1

  0
LINE
  5
2D50
330
2D4F
100
AcDbEntity
  8
1
  6
Continuous
 62
     0
370
    -2
100
AcDbLine
 10
49158.27985882709
 20
106888.8315697247
 30
0.0
 11
50657.01383562151
 21
106888.8315697247
 31
0.0
  0
LINE
  5
2D51
330
2D4F
100
AcDbEntity
  8
1
  6
Continuous
 62
     0
370
    -2
100
AcDbLine
 10
49158.27985882709
 20
100417.4209617567
 30
0.0
 11
50657.01383562151
 21
100417.4209617567
 31
0.0
  0
LINE
  5
2D52
330
2D4F
100
AcDbEntity
  8
1
  6
Continuous
 62
     0
370
    -2
100
AcDbLine
 10
50656.8338356215
 20
106388.8315697247
 30
0.0
 11
50656.8338356215
 21
100917.4209617567
 31
0.0
  0
INSERT
  5
2D53
330
2D4F
100
AcDbEntity
  8
1
  6
Continuous
 62
     0
370
    -2
100
AcDbBlockReference
  2
_OPEN30
 10
50656.8338356215
 20
106888.8315697247
 30
0.0
 41
500.0
 42
500.0
 43
500.0
 50
90.0
  0
INSERT
  5
2D54
330
2D4F
100
AcDbEntity
  8
1
  6
Continuous
 62
     0
370
    -2
100
AcDbBlockReference
  2
_OPEN30
 10
50656.8338356215
 20
100417.4209617567
 30
0.0
 41
500.0
 42
500.0
 43
500.0
 50
270.0
  0
MTEXT
  5
2D55
330
2D4F
100
AcDbEntity
  8
1
  6
Continuous
 62
     0
370
    13
100
AcDbMText
 10
50406.83383562149
 20
103653.1262657407
 30
0.0
 40
400.0
 41
0.0
 71
     5
 72
     1
  1
\A1;200
 11
0.0000000000000001
 21
1.0
 31
0.0
 73
     1
 44
1.0
  0
POINT
  5
2D56
330
2D4F
100
AcDbEntity
  8
DEFPOINTS
  6
Continuous
 62
     0
100
AcDbPoint
 10
49158.21735882709
 20
106888.8315697247
 30
0.0
  0
POINT
  5
2D57
330
2D4F
100
AcDbEntity
  8
DEFPOINTS
  6
Continuous
 62
     0
100
AcDbPoint
 10
49158.21735882709
 20
100417.4209617567
 30
0.0
  0
POINT
  5
2D58
330
2D4F
100
AcDbEntity
  8
DEFPOINTS
  6
Continuous
 62
     0
100
AcDbPoint
 10
50656.8338356215
 20
100417.4209617567
 30
0.0
  0
ENDBLK
  5
2D5A
330
2D4F
100
AcDbEntity
  8
0
100
AcDbBlockEnd
  0
BLOCK
  5
2D65
330
2D5B
100
AcDbEntity
  8
0
100
AcDbBlockBegin
  2
*D78
 70
     1
 10
0.0
 20
0.0
 30
0.0
  3
*D78
  1

  0
LINE
  5
2D5C
330
2D5B
100
AcDbEntity
  8
1
  6
Continuous
 62
     0
370
    -2
100
AcDbLine
 10
51731.05036258003
 20
106888.8940697247
 30
0.0
 11
51731.05036258003
 21
108617.4304234104
 31
0.0
  0
LINE
  5
2D5D
330
2D5B
100
AcDbEntity
  8
1
  6
Continuous
 62
     0
370
    -2
100
AcDbLine
 10
54643.21326116583
 20
106886.8521113846
 30
0.0
 11
54643.21326116583
 21
108617.4304234104
 31
0.0
  0
LINE
  5
2D5E
330
2D5B
100
AcDbEntity
  8
1
  6
Continuous
 62
     0
370
    -2
100
AcDbLine
 10
52231.05036258004
 20
108617.2504234104
 30
0.0
 11
54143.21326116583
 21
108617.2504234104
 31
0.0
  0
INSERT
  5
2D5F
330
2D5B
100
AcDbEntity
  8
1
  6
Continuous
 62
     0
370
    -2
100
AcDbBlockReference
  2
_OPEN30
 10
51731.05036258003
 20
108617.2504234104
 30
0.0
 41
500.0
 42
500.0
 43
500.0
 50
180.0
  0
INSERT
  5
2D60
330
2D5B
100
AcDbEntity
  8
1
  6
Continuous
 62
     0
370
    -2
100
AcDbBlockReference
  2
_OPEN30
 10
54643.21326116583
 20
108617.2504234104
 30
0.0
 41
500.0
 42
500.0
 43
500.0
  0
MTEXT
  5
2D61
330
2D5B
100
AcDbEntity
  8
1
  6
Continuous
 62
     0
370
    13
100
AcDbMText
 10
53187.13181187293
 20
108867.2504234104
 30
0.0
 40
400.0
 41
0.0
 71
     5
 72
     1
  1
\A1;90
 73
     1
 44
1.0
  0
POINT
  5
2D62
330
2D5B
100
AcDbEntity
  8
DEFPOINTS
  6
Continuous
 62
     0
100
AcDbPoint
 10
51731.05036258003
 20
106888.8315697247
 30
0.0
  0
POINT
  5
2D63
330
2D5B
100
AcDbEntity
  8
DEFPOINTS
  6
Continuous
 62
     0
100
AcDbPoint
 10
54643.21326116583
 20
106886.7896113846
 30
0.0
  0
POINT
  5
2D64
330
2D5B
100
AcDbEntity
  8
DEFPOINTS
  6
Continuous
 62
     0
100
AcDbPoint
 10
54643.21326116583
 20
108617.2504234104
 30
0.0
  0
ENDBLK
  5
2D66
330
2D5B
100
AcDbEntity
  8
0
100
AcDbBlockEnd
  0
BLOCK
  5
2D71
330
2D67
100
AcDbEntity
  8
0
100
AcDbBlockBegin
  2
*D79
 70
     1
 10
0.0
 20
0.0
 30
0.0
  3
*D79
  1

  0
LINE
  5
2D68
330
2D67
100
AcDbEntity
  8
1
  6
Continuous
 62
     0
370
    -2
100
AcDbLine
 10
38156.77557528162
 20
106888.9565697247
 30
0.0
 11
38156.77557528162
 21
108617.4304234104
 31
0.0
  0
LINE
  5
2D69
330
2D67
100
AcDbEntity
  8
1
  6
Continuous
 62
     0
370
    -2
100
AcDbLine
 10
49158.27985882709
 20
106888.8940697247
 30
0.0
 11
49158.27985882709
 21
108617.4304234104
 31
0.0
  0
LINE
  5
2D6A
330
2D67
100
AcDbEntity
  8
1
  6
Continuous
 62
     0
370
    -2
100
AcDbLine
 10
38656.77557528162
 20
108617.2504234104
 30
0.0
 11
48658.2798588271
 21
108617.2504234104
 31
0.0
  0
INSERT
  5
2D6B
330
2D67
100
AcDbEntity
  8
1
  6
Continuous
 62
     0
370
    -2
100
AcDbBlockReference
  2
_OPEN30
 10
38156.77557528162
 20
108617.2504234104
 30
0.0
 41
500.0
 42
500.0
 43
500.0
 50
180.0
  0
INSERT
  5
2D6C
330
2D67
100
AcDbEntity
  8
1
  6
Continuous
 62
     0
370
    -2
100
AcDbBlockReference
  2
_OPEN30
 10
49158.27985882709
 20
108617.2504234104
 30
0.0
 41
500.0
 42
500.0
 43
500.0
  0
MTEXT
  5
2D6D
330
2D67
100
AcDbEntity
  8
1
  6
Continuous
 62
     0
370
    13
100
AcDbMText
 10
43657.52771705436
 20
108867.2504234104
 30
0.0
 40
400.0
 41
0.0
 71
     5
 72
     1
  1
\A1;340
 73
     1
 44
1.0
  0
POINT
  5
2D6E
330
2D67
100
AcDbEntity
  8
DEFPOINTS
  6
Continuous
 62
     0
100
AcDbPoint
 10
38156.77557528162
 20
106888.8940697247
 30
0.0
  0
POINT
  5
2D6F
330
2D67
100
AcDbEntity
  8
DEFPOINTS
  6
Continuous
 62
     0
100
AcDbPoint
 10
49158.27985882709
 20
106888.8315697247
 30
0.0
  0
POINT
  5
2D70
330
2D67
100
AcDbEntity
  8
DEFPOINTS
  6
Continuous
 62
     0
100
AcDbPoint
 10
49158.27985882709
 20
108617.2504234104
 30
0.0
  0
ENDBLK
  5
2D72
330
2D67
100
AcDbEntity
  8
0
100
AcDbBlockEnd
  0
BLOCK
  5
2EEF
330
2EE5
100
AcDbEntity
  8
0
100
AcDbBlockBegin
  2
*D81
 70
     1
 10
0.0
 20
0.0
 30
0.0
  3
*D81
  1

  0
LINE
  5
2F09
330
2EE5
100
AcDbEntity
  8
1
  6
Continuous
 62
     0
370
    -2
100
AcDbLine
 10
5547.964413223592
 20
19386.14472720505
 30
0.0
 11
5547.964413223592
 21
21114.61858089076
 31
0.0
  0
LINE
  5
2F0A
330
2EE5
100
AcDbEntity
  8
1
  6
Continuous
 62
     0
370
    -2
100
AcDbLine
 10
16549.46869676906
 20
19386.08222720505
 30
0.0
 11
16549.46869676906
 21
21114.61858089076
 31
0.0
  0
LINE
  5
2F0B
330
2EE5
100
AcDbEntity
  8
1
  6
Continuous
 62
     0
370
    -2
100
AcDbLine
 10
6047.964413223592
 20
21114.43858089077
 30
0.0
 11
16049.46869676906
 21
21114.43858089077
 31
0.0
  0
INSERT
  5
2F0C
330
2EE5
100
AcDbEntity
  8
1
  6
Continuous
 62
     0
370
    -2
100
AcDbBlockReference
  2
_OPEN30
 10
5547.964413223592
 20
21114.43858089077
 30
0.0
 41
500.0
 42
500.0
 43
500.0
 50
180.0
  0
INSERT
  5
2F0D
330
2EE5
100
AcDbEntity
  8
1
  6
Continuous
 62
     0
370
    -2
100
AcDbBlockReference
  2
_OPEN30
 10
16549.46869676906
 20
21114.43858089077
 30
0.0
 41
500.0
 42
500.0
 43
500.0
  0
MTEXT
  5
2F0E
330
2EE5
100
AcDbEntity
  8
1
  6
Continuous
 62
     0
370
    13
100
AcDbMText
 10
11048.71655499632
 20
21364.43858089076
 30
0.0
 40
400.0
 41
0.0
 71
     5
 72
     1
  1
\A1;340
 73
     1
 44
1.0
  0
POINT
  5
2F0F
330
2EE5
100
AcDbEntity
  8
DEFPOINTS
  6
Continuous
 62
     0
100
AcDbPoint
 10
5547.964413223592
 20
19386.08222720505
 30
0.0
  0
POINT
  5
2F10
330
2EE5
100
AcDbEntity
  8
DEFPOINTS
  6
Continuous
 62
     0
100
AcDbPoint
 10
16549.46869676906
 20
19386.01972720505
 30
0.0
  0
POINT
  5
2F11
330
2EE5
100
AcDbEntity
  8
DEFPOINTS
  6
Continuous
 62
     0
100
AcDbPoint
 10
16549.46869676906
 20
21114.43858089077
 30
0.0
  0
ENDBLK
  5
2EF0
330
2EE5
100
AcDbEntity
  8
0
100
AcDbBlockEnd
  0
BLOCK
  5
2EFB
330
2EF1
100
AcDbEntity
  8
0
100
AcDbBlockBegin
  2
*D82
 70
     1
 10
0.0
 20
0.0
 30
0.0
  3
*D82
  1

  0
LINE
  5
2F12
330
2EF1
100
AcDbEntity
  8
1
  6
Continuous
 62
     0
370
    -2
100
AcDbLine
 10
16549.46869676906
 20
19386.01972720505
 30
0.0
 11
18048.20267356346
 21
19386.01972720505
 31
0.0
  0
LINE
  5
2F13
330
2EF1
100
AcDbEntity
  8
1
  6
Continuous
 62
     0
370
    -2
100
AcDbLine
 10
16549.46869676906
 20
12914.60911923706
 30
0.0
 11
18048.20267356346
 21
12914.60911923706
 31
0.0
  0
LINE
  5
2F14
330
2EF1
100
AcDbEntity
  8
1
  6
Continuous
 62
     0
370
    -2
100
AcDbLine
 10
18048.02267356346
 20
18886.01972720505
 30
0.0
 11
18048.02267356346
 21
13414.60911923706
 31
0.0
  0
INSERT
  5
2F15
330
2EF1
100
AcDbEntity
  8
1
  6
Continuous
 62
     0
370
    -2
100
AcDbBlockReference
  2
_OPEN30
 10
18048.02267356346
 20
19386.01972720505
 30
0.0
 41
500.0
 42
500.0
 43
500.0
 50
90.0
  0
INSERT
  5
2F16
330
2EF1
100
AcDbEntity
  8
1
  6
Continuous
 62
     0
370
    -2
100
AcDbBlockReference
  2
_OPEN30
 10
18048.02267356346
 20
12914.60911923706
 30
0.0
 41
500.0
 42
500.0
 43
500.0
 50
270.0
  0
MTEXT
  5
2F17
330
2EF1
100
AcDbEntity
  8
1
  6
Continuous
 62
     0
370
    13
100
AcDbMText
 10
17798.02267356346
 20
16150.31442322106
 30
0.0
 40
400.0
 41
0.0
 71
     5
 72
     1
  1
\A1;200
 11
0.0000000000000001
 21
1.0
 31
0.0
 73
     1
 44
1.0
  0
POINT
  5
2F18
330
2EF1
100
AcDbEntity
  8
DEFPOINTS
  6
Continuous
 62
     0
100
AcDbPoint
 10
16549.40619676906
 20
19386.01972720505
 30
0.0
  0
POINT
  5
2F19
330
2EF1
100
AcDbEntity
  8
DEFPOINTS
  6
Continuous
 62
     0
100
AcDbPoint
 10
16549.40619676906
 20
12914.60911923706
 30
0.0
  0
POINT
  5
2F1A
330
2EF1
100
AcDbEntity
  8
DEFPOINTS
  6
Continuous
 62
     0
100
AcDbPoint
 10
18048.02267356346
 20
12914.60911923706
 30
0.0
  0
ENDBLK
  5
2EFC
330
2EF1
100
AcDbEntity
  8
0
100
AcDbBlockEnd
  0
BLOCK
  5
2F07
330
2EFD
100
AcDbEntity
  8
0
100
AcDbBlockBegin
  2
*D83
 70
     1
 10
0.0
 20
0.0
 30
0.0
  3
*D83
  1

  0
LINE
  5
2F1B
330
2EFD
100
AcDbEntity
  8
1
  6
Continuous
 62
     0
370
    -2
100
AcDbLine
 10
19122.239200522
 20
19386.08222720507
 30
0.0
 11
19122.239200522
 21
21114.61858089076
 31
0.0
  0
LINE
  5
2F1C
330
2EFD
100
AcDbEntity
  8
1
  6
Continuous
 62
     0
370
    -2
100
AcDbLine
 10
22034.40209910779
 20
19384.040268865
 30
0.0
 11
22034.40209910779
 21
21114.61858089076
 31
0.0
  0
LINE
  5
2F1D
330
2EFD
100
AcDbEntity
  8
1
  6
Continuous
 62
     0
370
    -2
100
AcDbLine
 10
19622.239200522
 20
21114.43858089077
 30
0.0
 11
21534.4020991078
 21
21114.43858089077
 31
0.0
  0
INSERT
  5
2F1E
330
2EFD
100
AcDbEntity
  8
1
  6
Continuous
 62
     0
370
    -2
100
AcDbBlockReference
  2
_OPEN30
 10
19122.239200522
 20
21114.43858089077
 30
0.0
 41
500.0
 42
500.0
 43
500.0
 50
180.0
  0
INSERT
  5
2F1F
330
2EFD
100
AcDbEntity
  8
1
  6
Continuous
 62
     0
370
    -2
100
AcDbBlockReference
  2
_OPEN30
 10
22034.40209910779
 20
21114.43858089077
 30
0.0
 41
500.0
 42
500.0
 43
500.0
  0
MTEXT
  5
2F20
330
2EFD
100
AcDbEntity
  8
1
  6
Continuous
 62
     0
370
    13
100
AcDbMText
 10
20578.3206498149
 20
21364.43858089076
 30
0.0
 40
400.0
 41
0.0
 71
     5
 72
     1
  1
\A1;90
 73
     1
 44
1.0
  0
POINT
  5
2F21
330
2EFD
100
AcDbEntity
  8
DEFPOINTS
  6
Continuous
 62
     0
100
AcDbPoint
 10
19122.239200522
 20
19386.01972720507
 30
0.0
  0
POINT
  5
2F22
330
2EFD
100
AcDbEntity
  8
DEFPOINTS
  6
Continuous
 62
     0
100
AcDbPoint
 10
22034.40209910779
 20
19383.977768865
 30
0.0
  0
POINT
  5
2F23
330
2EFD
100
AcDbEntity
  8
DEFPOINTS
  6
Continuous
 62
     0
100
AcDbPoint
 10
22034.40209910779
 20
21114.43858089077
 30
0.0
  0
ENDBLK
  5
2F08
330
2EFD
100
AcDbEntity
  8
0
100
AcDbBlockEnd
  0
BLOCK
  5
2F2F
330
2F25
100
AcDbEntity
  8
0
100
AcDbBlockBegin
  2
*D84
 70
     1
 10
0.0
 20
0.0
 30
0.0
  3
*D84
  1

  0
LINE
  5
2F26
330
2F25
100
AcDbEntity
  8
1
  6
Continuous
 62
     0
370
    -2
100
AcDbLine
 10
64408.71134680896
 20
106891.0609633494
 30
0.0
 11
64408.71134680896
 21
108619.5348170351
 31
0.0
  0
LINE
  5
2F27
330
2F25
100
AcDbEntity
  8
1
  6
Continuous
 62
     0
370
    -2
100
AcDbLine
 10
75410.21563035443
 20
106890.9984633494
 30
0.0
 11
75410.21563035443
 21
108619.5348170351
 31
0.0
  0
LINE
  5
2F28
330
2F25
100
AcDbEntity
  8
1
  6
Continuous
 62
     0
370
    -2
100
AcDbLine
 10
64908.71134680896
 20
108619.3548170351
 30
0.0
 11
74910.21563035443
 21
108619.3548170351
 31
0.0
  0
INSERT
  5
2F29
330
2F25
100
AcDbEntity
  8
1
  6
Continuous
 62
     0
370
    -2
100
AcDbBlockReference
  2
_OPEN30
 10
64408.71134680896
 20
108619.3548170351
 30
0.0
 41
500.0
 42
500.0
 43
500.0
 50
180.0
  0
INSERT
  5
2F2A
330
2F25
100
AcDbEntity
  8
1
  6
Continuous
 62
     0
370
    -2
100
AcDbBlockReference
  2
_OPEN30
 10
75410.21563035443
 20
108619.3548170351
 30
0.0
 41
500.0
 42
500.0
 43
500.0
  0
MTEXT
  5
2F2B
330
2F25
100
AcDbEntity
  8
1
  6
Continuous
 62
     0
370
    13
100
AcDbMText
 10
69909.46348858169
 20
108869.3548170351
 30
0.0
 40
400.0
 41
0.0
 71
     5
 72
     1
  1
\A1;340
 73
     1
 44
1.0
  0
POINT
  5
2F2C
330
2F25
100
AcDbEntity
  8
DEFPOINTS
  6
Continuous
 62
     0
100
AcDbPoint
 10
64408.71134680896
 20
106890.9984633494
 30
0.0
  0
POINT
  5
2F2D
330
2F25
100
AcDbEntity
  8
DEFPOINTS
  6
Continuous
 62
     0
100
AcDbPoint
 10
75410.21563035443
 20
106890.9359633494
 30
0.0
  0
POINT
  5
2F2E
330
2F25
100
AcDbEntity
  8
DEFPOINTS
  6
Continuous
 62
     0
100
AcDbPoint
 10
75410.21563035443
 20
108619.3548170351
 30
0.0
  0
ENDBLK
  5
2F30
330
2F25
100
AcDbEntity
  8
0
100
AcDbBlockEnd
  0
BLOCK
  5
2F3B
330
2F31
100
AcDbEntity
  8
0
100
AcDbBlockBegin
  2
*D85
 70
     1
 10
0.0
 20
0.0
 30
0.0
  3
*D85
  1

  0
LINE
  5
2F32
330
2F31
100
AcDbEntity
  8
1
  6
Continuous
 62
     0
370
    -2
100
AcDbLine
 10
75410.21563035443
 20
106890.9359633494
 30
0.0
 11
76908.94960714885
 21
106890.9359633494
 31
0.0
  0
LINE
  5
2F33
330
2F31
100
AcDbEntity
  8
1
  6
Continuous
 62
     0
370
    -2
100
AcDbLine
 10
75410.21563035443
 20
100419.5253553814
 30
0.0
 11
76908.94960714885
 21
100419.5253553814
 31
0.0
  0
LINE
  5
2F34
330
2F31
100
AcDbEntity
  8
1
  6
Continuous
 62
     0
370
    -2
100
AcDbLine
 10
76908.76960714886
 20
106390.9359633494
 30
0.0
 11
76908.76960714886
 21
100919.5253553814
 31
0.0
  0
INSERT
  5
2F35
330
2F31
100
AcDbEntity
  8
1
  6
Continuous
 62
     0
370
    -2
100
AcDbBlockReference
  2
_OPEN30
 10
76908.76960714886
 20
106890.9359633494
 30
0.0
 41
500.0
 42
500.0
 43
500.0
 50
90.0
  0
INSERT
  5
2F36
330
2F31
100
AcDbEntity
  8
1
  6
Continuous
 62
     0
370
    -2
100
AcDbBlockReference
  2
_OPEN30
 10
76908.76960714886
 20
100419.5253553814
 30
0.0
 41
500.0
 42
500.0
 43
500.0
 50
270.0
  0
MTEXT
  5
2F37
330
2F31
100
AcDbEntity
  8
1
  6
Continuous
 62
     0
370
    13
100
AcDbMText
 10
76658.76960714883
 20
103655.2306593654
 30
0.0
 40
400.0
 41
0.0
 71
     5
 72
     1
  1
\A1;200
 11
0.0000000000000001
 21
1.0
 31
0.0
 73
     1
 44
1.0
  0
POINT
  5
2F38
330
2F31
100
AcDbEntity
  8
DEFPOINTS
  6
Continuous
 62
     0
100
AcDbPoint
 10
75410.15313035443
 20
106890.9359633494
 30
0.0
  0
POINT
  5
2F39
330
2F31
100
AcDbEntity
  8
DEFPOINTS
  6
Continuous
 62
     0
100
AcDbPoint
 10
75410.15313035443
 20
100419.5253553814
 30
0.0
  0
POINT
  5
2F3A
330
2F31
100
AcDbEntity
  8
DEFPOINTS
  6
Continuous
 62
     0
100
AcDbPoint
 10
76908.76960714886
 20
100419.5253553814
 30
0.0
  0
ENDBLK
  5
2F3C
330
2F31
100
AcDbEntity
  8
0
100
AcDbBlockEnd
  0
BLOCK
  5
2F47
330
2F3D
100
AcDbEntity
  8
0
100
AcDbBlockBegin
  2
*D86
 70
     1
 10
0.0
 20
0.0
 30
0.0
  3
*D86
  1

  0
LINE
  5
2F3E
330
2F3D
100
AcDbEntity
  8
1
  6
Continuous
 62
     0
370
    -2
100
AcDbLine
 10
77982.98613410737
 20
106890.9984633494
 30
0.0
 11
77982.98613410737
 21
108619.5348170351
 31
0.0
  0
LINE
  5
2F3F
330
2F3D
100
AcDbEntity
  8
1
  6
Continuous
 62
     0
370
    -2
100
AcDbLine
 10
80895.14903269316
 20
106888.9565050094
 30
0.0
 11
80895.14903269316
 21
108619.5348170351
 31
0.0
  0
LINE
  5
2F40
330
2F3D
100
AcDbEntity
  8
1
  6
Continuous
 62
     0
370
    -2
100
AcDbLine
 10
78482.98613410737
 20
108619.3548170351
 30
0.0
 11
80395.14903269317
 21
108619.3548170351
 31
0.0
  0
INSERT
  5
2F41
330
2F3D
100
AcDbEntity
  8
1
  6
Continuous
 62
     0
370
    -2
100
AcDbBlockReference
  2
_OPEN30
 10
77982.98613410737
 20
108619.3548170351
 30
0.0
 41
500.0
 42
500.0
 43
500.0
 50
180.0
  0
INSERT
  5
2F42
330
2F3D
100
AcDbEntity
  8
1
  6
Continuous
 62
     0
370
    -2
100
AcDbBlockReference
  2
_OPEN30
 10
80895.14903269316
 20
108619.3548170351
 30
0.0
 41
500.0
 42
500.0
 43
500.0
  0
MTEXT
  5
2F43
330
2F3D
100
AcDbEntity
  8
1
  6
Continuous
 62
     0
370
    13
100
AcDbMText
 10
79439.06758340026
 20
108869.3548170351
 30
0.0
 40
400.0
 41
0.0
 71
     5
 72
     1
  1
\A1;90
 73
     1
 44
1.0
  0
POINT
  5
2F44
330
2F3D
100
AcDbEntity
  8
DEFPOINTS
  6
Continuous
 62
     0
100
AcDbPoint
 10
77982.98613410737
 20
106890.9359633494
 30
0.0
  0
POINT
  5
2F45
330
2F3D
100
AcDbEntity
  8
DEFPOINTS
  6
Continuous
 62
     0
100
AcDbPoint
 10
80895.14903269316
 20
106888.8940050094
 30
0.0
  0
POINT
  5
2F46
330
2F3D
100
AcDbEntity
  8
DEFPOINTS
  6
Continuous
 62
     0
100
AcDbPoint
 10
80895.14903269316
 20
108619.3548170351
 30
0.0
  0
ENDBLK
  5
2F48
330
2F3D
100
AcDbEntity
  8
0
100
AcDbBlockEnd
  0
BLOCK
  5
30C5
330
30BB
100
AcDbEntity
  8
0
100
AcDbBlockBegin
  2
*D88
 70
     1
 10
0.0
 20
0.0
 30
0.0
  3
*D88
  1

  0
LINE
  5
30DF
330
30BB
100
AcDbEntity
  8
1
  6
Continuous
 62
     0
370
    -2
100
AcDbLine
 10
5910.988749388743
 20
21083.76821260075
 30
0.0
 11
5910.988749388743
 21
22812.24206628646
 31
0.0
  0
LINE
  5
30E0
330
30BB
100
AcDbEntity
  8
1
  6
Continuous
 62
     0
370
    -2
100
AcDbLine
 10
16912.49303293421
 20
21083.70571260075
 30
0.0
 11
16912.49303293421
 21
22812.24206628646
 31
0.0
  0
LINE
  5
30E1
330
30BB
100
AcDbEntity
  8
1
  6
Continuous
 62
     0
370
    -2
100
AcDbLine
 10
6410.988749388744
 20
22812.06206628646
 30
0.0
 11
16412.49303293421
 21
22812.06206628646
 31
0.0
  0
INSERT
  5
30E2
330
30BB
100
AcDbEntity
  8
1
  6
Continuous
 62
     0
370
    -2
100
AcDbBlockReference
  2
_OPEN30
 10
5910.988749388743
 20
22812.06206628646
 30
0.0
 41
500.0
 42
500.0
 43
500.0
 50
180.0
  0
INSERT
  5
30E3
330
30BB
100
AcDbEntity
  8
1
  6
Continuous
 62
     0
370
    -2
100
AcDbBlockReference
  2
_OPEN30
 10
16912.49303293421
 20
22812.06206628646
 30
0.0
 41
500.0
 42
500.0
 43
500.0
  0
MTEXT
  5
30E4
330
30BB
100
AcDbEntity
  8
1
  6
Continuous
 62
     0
370
    13
100
AcDbMText
 10
11411.74089116147
 20
23062.06206628647
 30
0.0
 40
400.0
 41
0.0
 71
     5
 72
     1
  1
\A1;340
 73
     1
 44
1.0
  0
POINT
  5
30E5
330
30BB
100
AcDbEntity
  8
DEFPOINTS
  6
Continuous
 62
     0
100
AcDbPoint
 10
5910.988749388743
 20
21083.70571260075
 30
0.0
  0
POINT
  5
30E6
330
30BB
100
AcDbEntity
  8
DEFPOINTS
  6
Continuous
 62
     0
100
AcDbPoint
 10
16912.49303293421
 20
21083.64321260075
 30
0.0
  0
POINT
  5
30E7
330
30BB
100
AcDbEntity
  8
DEFPOINTS
  6
Continuous
 62
     0
100
AcDbPoint
 10
16912.49303293421
 20
22812.06206628646
 30
0.0
  0
ENDBLK
  5
30C6
330
30BB
100
AcDbEntity
  8
0
100
AcDbBlockEnd
  0
BLOCK
  5
30D1
330
30C7
100
AcDbEntity
  8
0
100
AcDbBlockBegin
  2
*D89
 70
     1
 10
0.0
 20
0.0
 30
0.0
  3
*D89
  1

  0
LINE
  5
30E8
330
30C7
100
AcDbEntity
  8
1
  6
Continuous
 62
     0
370
    -2
100
AcDbLine
 10
16912.49303293421
 20
21083.64321260075
 30
0.0
 11
18411.22700972862
 21
21083.64321260075
 31
0.0
  0
LINE
  5
30E9
330
30C7
100
AcDbEntity
  8
1
  6
Continuous
 62
     0
370
    -2
100
AcDbLine
 10
16912.49303293421
 20
14612.23260463276
 30
0.0
 11
18411.22700972862
 21
14612.23260463276
 31
0.0
  0
LINE
  5
30EA
330
30C7
100
AcDbEntity
  8
1
  6
Continuous
 62
     0
370
    -2
100
AcDbLine
 10
18411.04700972861
 20
20583.64321260075
 30
0.0
 11
18411.04700972861
 21
15112.23260463276
 31
0.0
  0
INSERT
  5
30EB
330
30C7
100
AcDbEntity
  8
1
  6
Continuous
 62
     0
370
    -2
100
AcDbBlockReference
  2
_OPEN30
 10
18411.04700972861
 20
21083.64321260075
 30
0.0
 41
500.0
 42
500.0
 43
500.0
 50
90.0
  0
INSERT
  5
30EC
330
30C7
100
AcDbEntity
  8
1
  6
Continuous
 62
     0
370
    -2
100
AcDbBlockReference
  2
_OPEN30
 10
18411.04700972861
 20
14612.23260463276
 30
0.0
 41
500.0
 42
500.0
 43
500.0
 50
270.0
  0
MTEXT
  5
30ED
330
30C7
100
AcDbEntity
  8
1
  6
Continuous
 62
     0
370
    13
100
AcDbMText
 10
18161.04700972861
 20
17847.93790861676
 30
0.0
 40
400.0
 41
0.0
 71
     5
 72
     1
  1
\A1;200
 11
0.0000000000000001
 21
1.0
 31
0.0
 73
     1
 44
1.0
  0
POINT
  5
30EE
330
30C7
100
AcDbEntity
  8
DEFPOINTS
  6
Continuous
 62
     0
100
AcDbPoint
 10
16912.43053293421
 20
21083.64321260075
 30
0.0
  0
POINT
  5
30EF
330
30C7
100
AcDbEntity
  8
DEFPOINTS
  6
Continuous
 62
     0
100
AcDbPoint
 10
16912.43053293421
 20
14612.23260463276
 30
0.0
  0
POINT
  5
30F0
330
30C7
100
AcDbEntity
  8
DEFPOINTS
  6
Continuous
 62
     0
100
AcDbPoint
 10
18411.04700972861
 20
14612.23260463276
 30
0.0
  0
ENDBLK
  5
30D2
330
30C7
100
AcDbEntity
  8
0
100
AcDbBlockEnd
  0
BLOCK
  5
30DD
330
30D3
100
AcDbEntity
  8
0
100
AcDbBlockBegin
  2
*D90
 70
     1
 10
0.0
 20
0.0
 30
0.0
  3
*D90
  1

  0
LINE
  5
30F1
330
30D3
100
AcDbEntity
  8
1
  6
Continuous
 62
     0
370
    -2
100
AcDbLine
 10
19485.26353668715
 20
21083.70571260077
 30
0.0
 11
19485.26353668715
 21
22812.24206628646
 31
0.0
  0
LINE
  5
30F2
330
30D3
100
AcDbEntity
  8
1
  6
Continuous
 62
     0
370
    -2
100
AcDbLine
 10
22397.42643527295
 20
21081.6637542607
 30
0.0
 11
22397.42643527295
 21
22812.24206628646
 31
0.0
  0
LINE
  5
30F3
330
30D3
100
AcDbEntity
  8
1
  6
Continuous
 62
     0
370
    -2
100
AcDbLine
 10
19985.26353668715
 20
22812.06206628646
 30
0.0
 11
21897.42643527295
 21
22812.06206628646
 31
0.0
  0
INSERT
  5
30F4
330
30D3
100
AcDbEntity
  8
1
  6
Continuous
 62
     0
370
    -2
100
AcDbBlockReference
  2
_OPEN30
 10
19485.26353668715
 20
22812.06206628646
 30
0.0
 41
500.0
 42
500.0
 43
500.0
 50
180.0
  0
INSERT
  5
30F5
330
30D3
100
AcDbEntity
  8
1
  6
Continuous
 62
     0
370
    -2
100
AcDbBlockReference
  2
_OPEN30
 10
22397.42643527295
 20
22812.06206628646
 30
0.0
 41
500.0
 42
500.0
 43
500.0
  0
MTEXT
  5
30F6
330
30D3
100
AcDbEntity
  8
1
  6
Continuous
 62
     0
370
    13
100
AcDbMText
 10
20941.34498598004
 20
23062.06206628647
 30
0.0
 40
400.0
 41
0.0
 71
     5
 72
     1
  1
\A1;90
 73
     1
 44
1.0
  0
POINT
  5
30F7
330
30D3
100
AcDbEntity
  8
DEFPOINTS
  6
Continuous
 62
     0
100
AcDbPoint
 10
19485.26353668715
 20
21083.64321260077
 30
0.0
  0
POINT
  5
30F8
330
30D3
100
AcDbEntity
  8
DEFPOINTS
  6
Continuous
 62
     0
100
AcDbPoint
 10
22397.42643527295
 20
21081.6012542607
 30
0.0
  0
POINT
  5
30F9
330
30D3
100
AcDbEntity
  8
DEFPOINTS
  6
Continuous
 62
     0
100
AcDbPoint
 10
22397.42643527295
 20
22812.06206628646
 30
0.0
  0
ENDBLK
  5
30DE
330
30D3
100
AcDbEntity
  8
0
100
AcDbBlockEnd
  0
BLOCK
  5
3122
330
3118
100
AcDbEntity
  8
0
100
AcDbBlockBegin
  2
*D91
 70
     1
 10
0.0
 20
0.0
 30
0.0
  3
*D91
  1

  0
LINE
  5
3119
330
3118
100
AcDbEntity
  8
1
  6
Continuous
 62
     0
370
    -2
100
AcDbLine
 10
92158.03431740601
 20
109670.9895491958
 30
0.0
 11
92158.03431740601
 21
111399.4634028815
 31
0.0
  0
LINE
  5
311A
330
3118
100
AcDbEntity
  8
1
  6
Continuous
 62
     0
370
    -2
100
AcDbLine
 10
100022.6824259716
 20
109670.9270491958
 30
0.0
 11
100022.6824259716
 21
111399.4634028815
 31
0.0
  0
LINE
  5
311B
330
3118
100
AcDbEntity
  8
1
  6
Continuous
 62
     0
370
    -2
100
AcDbLine
 10
92658.03431740602
 20
111399.2834028816
 30
0.0
 11
99522.68242597165
 21
111399.2834028816
 31
0.0
  0
INSERT
  5
311C
330
3118
100
AcDbEntity
  8
1
  6
Continuous
 62
     0
370
    -2
100
AcDbBlockReference
  2
_OPEN30
 10
92158.03431740601
 20
111399.2834028816
 30
0.0
 41
500.0
 42
500.0
 43
500.0
 50
180.0
  0
INSERT
  5
311D
330
3118
100
AcDbEntity
  8
1
  6
Continuous
 62
     0
370
    -2
100
AcDbBlockReference
  2
_OPEN30
 10
100022.6824259716
 20
111399.2834028816
 30
0.0
 41
500.0
 42
500.0
 43
500.0
  0
MTEXT
  5
311E
330
3118
100
AcDbEntity
  8
1
  6
Continuous
 62
     0
370
    13
100
AcDbMText
 10
96090.35837168883
 20
111649.2834028815
 30
0.0
 40
400.0
 41
0.0
 71
     5
 72
     1
  1
\A1;350
 73
     1
 44
1.0
  0
POINT
  5
311F
330
3118
100
AcDbEntity
  8
DEFPOINTS
  6
Continuous
 62
     0
100
AcDbPoint
 10
92158.03431740601
 20
109670.9270491958
 30
0.0
  0
POINT
  5
3120
330
3118
100
AcDbEntity
  8
DEFPOINTS
  6
Continuous
 62
     0
100
AcDbPoint
 10
100022.6824259716
 20
109670.8645491958
 30
0.0
  0
POINT
  5
3121
330
3118
100
AcDbEntity
  8
DEFPOINTS
  6
Continuous
 62
     0
100
AcDbPoint
 10
100022.6824259716
 20
111399.2834028816
 30
0.0
  0
ENDBLK
  5
3123
330
3118
100
AcDbEntity
  8
0
100
AcDbBlockEnd
  0
BLOCK
  5
312E
330
3124
100
AcDbEntity
  8
0
100
AcDbBlockBegin
  2
*D92
 70
     1
 10
0.0
 20
0.0
 30
0.0
  3
*D92
  1

  0
LINE
  5
3125
330
3124
100
AcDbEntity
  8
1
  6
Continuous
 62
     0
370
    -2
100
AcDbLine
 10
100022.6824259716
 20
109670.8645491958
 30
0.0
 11
101763.3772627165
 21
109670.8645491958
 31
0.0
  0
LINE
  5
3126
330
3124
100
AcDbEntity
  8
1
  6
Continuous
 62
     0
370
    -2
100
AcDbLine
 10
100022.6824259716
 20
99559.25031799594
 30
0.0
 11
101763.3772627165
 21
99559.25031799594
 31
0.0
  0
LINE
  5
3127
330
3124
100
AcDbEntity
  8
1
  6
Continuous
 62
     0
370
    -2
100
AcDbLine
 10
101763.1972627165
 20
109170.8645491958
 30
0.0
 11
101763.1972627165
 21
100059.2503179959
 31
0.0
  0
INSERT
  5
3128
330
3124
100
AcDbEntity
  8
1
  6
Continuous
 62
     0
370
    -2
100
AcDbBlockReference
  2
_OPEN30
 10
101763.1972627165
 20
109670.8645491958
 30
0.0
 41
500.0
 42
500.0
 43
500.0
 50
90.0
  0
INSERT
  5
3129
330
3124
100
AcDbEntity
  8
1
  6
Continuous
 62
     0
370
    -2
100
AcDbBlockReference
  2
_OPEN30
 10
101763.1972627165
 20
99559.25031799594
 30
0.0
 41
500.0
 42
500.0
 43
500.0
 50
270.0
  0
MTEXT
  5
312A
330
3124
100
AcDbEntity
  8
1
  6
Continuous
 62
     0
370
    13
100
AcDbMText
 10
101513.1972627164
 20
104615.0574335959
 30
0.0
 40
400.0
 41
0.0
 71
     5
 72
     1
  1
\A1;450
 11
0.0000000000000001
 21
1.0
 31
0.0
 73
     1
 44
1.0
  0
POINT
  5
312B
330
3124
100
AcDbEntity
  8
DEFPOINTS
  6
Continuous
 62
     0
100
AcDbPoint
 10
100022.6199259716
 20
109670.8645491958
 30
0.0
  0
POINT
  5
312C
330
3124
100
AcDbEntity
  8
DEFPOINTS
  6
Continuous
 62
     0
100
AcDbPoint
 10
100022.6199259716
 20
99559.25031799594
 30
0.0
  0
POINT
  5
312D
330
3124
100
AcDbEntity
  8
DEFPOINTS
  6
Continuous
 62
     0
100
AcDbPoint
 10
101763.1972627165
 20
99559.25031799594
 30
0.0
  0
ENDBLK
  5
312F
330
3124
100
AcDbEntity
  8
0
100
AcDbBlockEnd
  0
BLOCK
  5
313A
330
3130
100
AcDbEntity
  8
0
100
AcDbBlockBegin
  2
*D93
 70
     1
 10
0.0
 20
0.0
 30
0.0
  3
*D93
  1

  0
LINE
  5
3131
330
3130
100
AcDbEntity
  8
1
  6
Continuous
 62
     0
370
    -2
100
AcDbLine
 10
102796.2030013767
 20
109670.9270491958
 30
0.0
 11
102796.2030013767
 21
111399.4634028815
 31
0.0
  0
LINE
  5
3132
330
3130
100
AcDbEntity
  8
1
  6
Continuous
 62
     0
370
    -2
100
AcDbLine
 10
105942.0579844166
 20
109668.8850908558
 30
0.0
 11
105942.0579844166
 21
111399.4634028815
 31
0.0
  0
LINE
  5
3133
330
3130
100
AcDbEntity
  8
1
  6
Continuous
 62
     0
370
    -2
100
AcDbLine
 10
103296.2030013767
 20
111399.2834028816
 30
0.0
 11
105442.0579844165
 21
111399.2834028816
 31
0.0
  0
INSERT
  5
3134
330
3130
100
AcDbEntity
  8
1
  6
Continuous
 62
     0
370
    -2
100
AcDbBlockReference
  2
_OPEN30
 10
102796.2030013767
 20
111399.2834028816
 30
0.0
 41
500.0
 42
500.0
 43
500.0
 50
180.0
  0
INSERT
  5
3135
330
3130
100
AcDbEntity
  8
1
  6
Continuous
 62
     0
370
    -2
100
AcDbBlockReference
  2
_OPEN30
 10
105942.0579844166
 20
111399.2834028816
 30
0.0
 41
500.0
 42
500.0
 43
500.0
  0
MTEXT
  5
3136
330
3130
100
AcDbEntity
  8
1
  6
Continuous
 62
     0
370
    13
100
AcDbMText
 10
104252.2844506696
 20
111649.2834028815
 30
0.0
 40
400.0
 41
0.0
 71
     5
 72
     1
  1
\A1;140
 73
     1
 44
1.0
  0
POINT
  5
3137
330
3130
100
AcDbEntity
  8
DEFPOINTS
  6
Continuous
 62
     0
100
AcDbPoint
 10
102796.2030013767
 20
109670.8645491959
 30
0.0
  0
POINT
  5
3138
330
3130
100
AcDbEntity
  8
DEFPOINTS
  6
Continuous
 62
     0
100
AcDbPoint
 10
105942.0579844166
 20
109668.8225908558
 30
0.0
  0
POINT
  5
3139
330
3130
100
AcDbEntity
  8
DEFPOINTS
  6
Continuous
 62
     0
100
AcDbPoint
 10
105942.0579844166
 20
111399.2834028816
 30
0.0
  0
ENDBLK
  5
313B
330
3130
100
AcDbEntity
  8
0
100
AcDbBlockEnd
  0
BLOCK
  5
325E
330
3254
100
AcDbEntity
  8
0
100
AcDbBlockBegin
  2
*D95
 70
     1
 10
0.0
 20
0.0
 30
0.0
  3
*D95
  1

  0
LINE
  5
3278
330
3254
100
AcDbEntity
  8
1
  6
Continuous
 62
     0
370
    -2
100
AcDbLine
 10
5607.954625658924
 20
21273.26841350902
 30
0.0
 11
5607.954625658924
 21
23001.74226719473
 31
0.0
  0
LINE
  5
3279
330
3254
100
AcDbEntity
  8
1
  6
Continuous
 62
     0
370
    -2
100
AcDbLine
 10
13472.60273422456
 20
21273.20591350902
 30
0.0
 11
13472.60273422456
 21
23001.74226719473
 31
0.0
  0
LINE
  5
327A
330
3254
100
AcDbEntity
  8
1
  6
Continuous
 62
     0
370
    -2
100
AcDbLine
 10
6107.954625658924
 20
23001.56226719473
 30
0.0
 11
12972.60273422456
 21
23001.56226719473
 31
0.0
  0
INSERT
  5
327B
330
3254
100
AcDbEntity
  8
1
  6
Continuous
 62
     0
370
    -2
100
AcDbBlockReference
  2
_OPEN30
 10
5607.954625658924
 20
23001.56226719473
 30
0.0
 41
500.0
 42
500.0
 43
500.0
 50
180.0
  0
INSERT
  5
327C
330
3254
100
AcDbEntity
  8
1
  6
Continuous
 62
     0
370
    -2
100
AcDbBlockReference
  2
_OPEN30
 10
13472.60273422456
 20
23001.56226719473
 30
0.0
 41
500.0
 42
500.0
 43
500.0
  0
MTEXT
  5
327D
330
3254
100
AcDbEntity
  8
1
  6
Continuous
 62
     0
370
    13
100
AcDbMText
 10
9540.278679941751
 20
23251.56226719473
 30
0.0
 40
400.0
 41
0.0
 71
     5
 72
     1
  1
\A1;350
 73
     1
 44
1.0
  0
POINT
  5
327E
330
3254
100
AcDbEntity
  8
DEFPOINTS
  6
Continuous
 62
     0
100
AcDbPoint
 10
5607.954625658924
 20
21273.20591350902
 30
0.0
  0
POINT
  5
327F
330
3254
100
AcDbEntity
  8
DEFPOINTS
  6
Continuous
 62
     0
100
AcDbPoint
 10
13472.60273422456
 20
21273.14341350902
 30
0.0
  0
POINT
  5
3280
330
3254
100
AcDbEntity
  8
DEFPOINTS
  6
Continuous
 62
     0
100
AcDbPoint
 10
13472.60273422456
 20
23001.56226719473
 30
0.0
  0
ENDBLK
  5
325F
330
3254
100
AcDbEntity
  8
0
100
AcDbBlockEnd
  0
BLOCK
  5
326A
330
3260
100
AcDbEntity
  8
0
100
AcDbBlockBegin
  2
*D96
 70
     1
 10
0.0
 20
0.0
 30
0.0
  3
*D96
  1

  0
LINE
  5
3281
330
3260
100
AcDbEntity
  8
1
  6
Continuous
 62
     0
370
    -2
100
AcDbLine
 10
13472.60273422456
 20
21273.14341350902
 30
0.0
 11
15213.29757096939
 21
21273.14341350902
 31
0.0
  0
LINE
  5
3282
330
3260
100
AcDbEntity
  8
1
  6
Continuous
 62
     0
370
    -2
100
AcDbLine
 10
13472.60273422456
 20
11161.52918230909
 30
0.0
 11
15213.29757096939
 21
11161.52918230909
 31
0.0
  0
LINE
  5
3283
330
3260
100
AcDbEntity
  8
1
  6
Continuous
 62
     0
370
    -2
100
AcDbLine
 10
15213.11757096939
 20
20773.14341350902
 30
0.0
 11
15213.11757096939
 21
11661.52918230909
 31
0.0
  0
INSERT
  5
3284
330
3260
100
AcDbEntity
  8
1
  6
Continuous
 62
     0
370
    -2
100
AcDbBlockReference
  2
_OPEN30
 10
15213.11757096939
 20
21273.14341350902
 30
0.0
 41
500.0
 42
500.0
 43
500.0
 50
90.0
  0
INSERT
  5
3285
330
3260
100
AcDbEntity
  8
1
  6
Continuous
 62
     0
370
    -2
100
AcDbBlockReference
  2
_OPEN30
 10
15213.11757096939
 20
11161.52918230909
 30
0.0
 41
500.0
 42
500.0
 43
500.0
 50
270.0
  0
MTEXT
  5
3286
330
3260
100
AcDbEntity
  8
1
  6
Continuous
 62
     0
370
    13
100
AcDbMText
 10
14963.11757096939
 20
16217.33629790905
 30
0.0
 40
400.0
 41
0.0
 71
     5
 72
     1
  1
\A1;450
 11
0.0000000000000001
 21
1.0
 31
0.0
 73
     1
 44
1.0
  0
POINT
  5
3287
330
3260
100
AcDbEntity
  8
DEFPOINTS
  6
Continuous
 62
     0
100
AcDbPoint
 10
13472.54023422456
 20
21273.14341350902
 30
0.0
  0
POINT
  5
3288
330
3260
100
AcDbEntity
  8
DEFPOINTS
  6
Continuous
 62
     0
100
AcDbPoint
 10
13472.54023422456
 20
11161.52918230909
 30
0.0
  0
POINT
  5
3289
330
3260
100
AcDbEntity
  8
DEFPOINTS
  6
Continuous
 62
     0
100
AcDbPoint
 10
15213.11757096939
 20
11161.52918230909
 30
0.0
  0
ENDBLK
  5
326B
330
3260
100
AcDbEntity
  8
0
100
AcDbBlockEnd
  0
BLOCK
  5
3276
330
326C
100
AcDbEntity
  8
0
100
AcDbBlockBegin
  2
*D97
 70
     1
 10
0.0
 20
0.0
 30
0.0
  3
*D97
  1

  0
LINE
  5
328A
330
326C
100
AcDbEntity
  8
1
  6
Continuous
 62
     0
370
    -2
100
AcDbLine
 10
16246.12330962962
 20
21273.20591350903
 30
0.0
 11
16246.12330962962
 21
23001.74226719473
 31
0.0
  0
LINE
  5
328B
330
326C
100
AcDbEntity
  8
1
  6
Continuous
 62
     0
370
    -2
100
AcDbLine
 10
19391.9782926695
 20
21271.16395516897
 30
0.0
 11
19391.9782926695
 21
23001.74226719473
 31
0.0
  0
LINE
  5
328C
330
326C
100
AcDbEntity
  8
1
  6
Continuous
 62
     0
370
    -2
100
AcDbLine
 10
16746.12330962962
 20
23001.56226719473
 30
0.0
 11
18891.9782926695
 21
23001.56226719473
 31
0.0
  0
INSERT
  5
328D
330
326C
100
AcDbEntity
  8
1
  6
Continuous
 62
     0
370
    -2
100
AcDbBlockReference
  2
_OPEN30
 10
16246.12330962962
 20
23001.56226719473
 30
0.0
 41
500.0
 42
500.0
 43
500.0
 50
180.0
  0
INSERT
  5
328E
330
326C
100
AcDbEntity
  8
1
  6
Continuous
 62
     0
370
    -2
100
AcDbBlockReference
  2
_OPEN30
 10
19391.9782926695
 20
23001.56226719473
 30
0.0
 41
500.0
 42
500.0
 43
500.0
  0
MTEXT
  5
328F
330
326C
100
AcDbEntity
  8
1
  6
Continuous
 62
     0
370
    13
100
AcDbMText
 10
17702.20475892251
 20
23251.56226719473
 30
0.0
 40
400.0
 41
0.0
 71
     5
 72
     1
  1
\A1;140
 73
     1
 44
1.0
  0
POINT
  5
3290
330
326C
100
AcDbEntity
  8
DEFPOINTS
  6
Continuous
 62
     0
100
AcDbPoint
 10
16246.12330962962
 20
21273.14341350904
 30
0.0
  0
POINT
  5
3291
330
326C
100
AcDbEntity
  8
DEFPOINTS
  6
Continuous
 62
     0
100
AcDbPoint
 10
19391.9782926695
 20
21271.10145516897
 30
0.0
  0
POINT
  5
3292
330
326C
100
AcDbEntity
  8
DEFPOINTS
  6
Continuous
 62
     0
100
AcDbPoint
 10
19391.9782926695
 20
23001.56226719473
 30
0.0
  0
ENDBLK
  5
3277
330
326C
100
AcDbEntity
  8
0
100
AcDbBlockEnd
  0
BLOCK
  5
329E
330
3294
100
AcDbEntity
  8
0
100
AcDbBlockBegin
  2
*D98
 70
     1
 10
0.0
 20
0.0
 30
0.0
  3
*D98
  1

  0
LINE
  5
3295
330
3294
100
AcDbEntity
  8
1
  6
Continuous
 62
     0
370
    -2
100
AcDbLine
 10
19208.43832629169
 20
78917.10145421761
 30
0.0
 11
21538.34986306117
 21
78917.10145421761
 31
0.0
  0
LINE
  5
3296
330
3294
100
AcDbEntity
  8
1
  6
Continuous
 62
     0
370
    -2
100
AcDbLine
 10
19208.50082629169
 20
73488.00737015907
 30
0.0
 11
21538.34986306116
 21
73488.00737015907
 31
0.0
  0
LINE
  5
3297
330
3294
100
AcDbEntity
  8
1
  6
Continuous
 62
     0
370
    -2
100
AcDbLine
 10
21538.16986306116
 20
78417.10145421761
 30
0.0
 11
21538.16986306116
 21
73988.00737015907
 31
0.0
  0
INSERT
  5
3298
330
3294
100
AcDbEntity
  8
1
  6
Continuous
 62
     0
370
    -2
100
AcDbBlockReference
  2
_OPEN30
 10
21538.16986306116
 20
78917.10145421761
 30
0.0
 41
500.0
 42
500.0
 43
500.0
 50
90.0
  0
INSERT
  5
3299
330
3294
100
AcDbEntity
  8
1
  6
Continuous
 62
     0
370
    -2
100
AcDbBlockReference
  2
_OPEN30
 10
21538.16986306116
 20
73488.00737015907
 30
0.0
 41
500.0
 42
500.0
 43
500.0
 50
270.0
  0
MTEXT
  5
329A
330
3294
100
AcDbEntity
  8
1
  6
Continuous
 62
     0
370
    13
100
AcDbMText
 10
21288.16986306115
 20
76202.55441218835
 30
0.0
 40
400.0
 41
0.0
 71
     5
 72
     1
  1
\A1;42
 11
0.0000000000000001
 21
1.0
 31
0.0
 73
     1
 44
1.0
  0
POINT
  5
329B
330
3294
100
AcDbEntity
  8
DEFPOINTS
  6
Continuous
 62
     0
100
AcDbPoint
 10
19208.37582629169
 20
78917.10145421761
 30
0.0
  0
POINT
  5
329C
330
3294
100
AcDbEntity
  8
DEFPOINTS
  6
Continuous
 62
     0
100
AcDbPoint
 10
19208.43832629169
 20
73488.00737015907
 30
0.0
  0
POINT
  5
329D
330
3294
100
AcDbEntity
  8
DEFPOINTS
  6
Continuous
 62
     0
100
AcDbPoint
 10
21538.16986306116
 20
73488.00737015907
 30
0.0
  0
ENDBLK
  5
329F
330
3294
100
AcDbEntity
  8
0
100
AcDbBlockEnd
  0
BLOCK
  5
32AA
330
32A0
100
AcDbEntity
  8
0
100
AcDbBlockBegin
  2
*D99
 70
     1
 10
0.0
 20
0.0
 30
0.0
  3
*D99
  1

  0
LINE
  5
32A1
330
32A0
100
AcDbEntity
  8
1
  6
Continuous
 62
     0
370
    -2
100
AcDbLine
 10
12357.95512629165
 20
78917.10145421761
 30
0.0
 11
12357.95512629165
 21
80989.2134070758
 31
0.0
  0
LINE
  5
32A2
330
32A0
100
AcDbEntity
  8
1
  6
Continuous
 62
     0
370
    -2
100
AcDbLine
 10
19208.43832629169
 20
78917.16395421761
 30
0.0
 11
19208.43832629169
 21
80989.2134070758
 31
0.0
  0
LINE
  5
32A3
330
32A0
100
AcDbEntity
  8
1
  6
Continuous
 62
     0
370
    -2
100
AcDbLine
 10
12857.95512629165
 20
80989.03340707579
 30
0.0
 11
18708.43832629169
 21
80989.03340707579
 31
0.0
  0
INSERT
  5
32A4
330
32A0
100
AcDbEntity
  8
1
  6
Continuous
 62
     0
370
    -2
100
AcDbBlockReference
  2
_OPEN30
 10
12357.95512629165
 20
80989.03340707579
 30
0.0
 41
500.0
 42
500.0
 43
500.0
 50
180.0
  0
INSERT
  5
32A5
330
32A0
100
AcDbEntity
  8
1
  6
Continuous
 62
     0
370
    -2
100
AcDbBlockReference
  2
_OPEN30
 10
19208.43832629169
 20
80989.03340707579
 30
0.0
 41
500.0
 42
500.0
 43
500.0
  0
MTEXT
  5
32A6
330
32A0
100
AcDbEntity
  8
1
  6
Continuous
 62
     0
370
    13
100
AcDbMText
 10
15783.19672629167
 20
81239.03340707579
 30
0.0
 40
400.0
 41
0.0
 71
     5
 72
     1
  1
\A1;53
 73
     1
 44
1.0
  0
POINT
  5
32A7
330
32A0
100
AcDbEntity
  8
DEFPOINTS
  6
Continuous
 62
     0
100
AcDbPoint
 10
12357.95512629165
 20
78917.03895421761
 30
0.0
  0
POINT
  5
32A8
330
32A0
100
AcDbEntity
  8
DEFPOINTS
  6
Continuous
 62
     0
100
AcDbPoint
 10
19208.43832629169
 20
78917.10145421761
 30
0.0
  0
POINT
  5
32A9
330
32A0
100
AcDbEntity
  8
DEFPOINTS
  6
Continuous
 62
     0
100
AcDbPoint
 10
19208.43832629169
 20
80989.03340707579
 30
0.0
  0
ENDBLK
  5
32AB
330
32A0
100
AcDbEntity
  8
0
100
AcDbBlockEnd
  0
BLOCK
  5
32B6
330
32AC
100
AcDbEntity
  8
0
100
AcDbBlockBegin
  2
*D100
 70
     1
 10
0.0
 20
0.0
 30
0.0
  3
*D100
  1

  0
LINE
  5
32AD
330
32AC
100
AcDbEntity
  8
1
  6
Continuous
 62
     0
370
    -2
100
AcDbLine
 10
13004.22712629172
 20
78917.10145421761
 30
0.0
 11
13004.22712629172
 21
79953.3686806467
 31
0.0
  0
LINE
  5
32AE
330
32AC
100
AcDbEntity
  8
1
  6
Continuous
 62
     0
370
    -2
100
AcDbLine
 10
18562.16632629171
 20
78917.16395421761
 30
0.0
 11
18562.16632629171
 21
79953.3686806467
 31
0.0
  0
LINE
  5
32AF
330
32AC
100
AcDbEntity
  8
1
  6
Continuous
 62
     0
370
    -2
100
AcDbLine
 10
13504.22712629172
 20
79953.1886806467
 30
0.0
 11
18062.16632629171
 21
79953.1886806467
 31
0.0
  0
INSERT
  5
32B0
330
32AC
100
AcDbEntity
  8
1
  6
Continuous
 62
     0
370
    -2
100
AcDbBlockReference
  2
_OPEN30
 10
13004.22712629172
 20
79953.1886806467
 30
0.0
 41
500.0
 42
500.0
 43
500.0
 50
180.0
  0
INSERT
  5
32B1
330
32AC
100
AcDbEntity
  8
1
  6
Continuous
 62
     0
370
    -2
100
AcDbBlockReference
  2
_OPEN30
 10
18562.16632629171
 20
79953.1886806467
 30
0.0
 41
500.0
 42
500.0
 43
500.0
  0
MTEXT
  5
32B2
330
32AC
100
AcDbEntity
  8
1
  6
Continuous
 62
     0
370
    13
100
AcDbMText
 10
15783.19672629171
 20
80203.1886806467
 30
0.0
 40
400.0
 41
0.0
 71
     5
 72
     1
  1
\A1;43
 73
     1
 44
1.0
  0
POINT
  5
32B3
330
32AC
100
AcDbEntity
  8
DEFPOINTS
  6
Continuous
 62
     0
100
AcDbPoint
 10
13004.22712629172
 20
78917.03895421761
 30
0.0
  0
POINT
  5
32B4
330
32AC
100
AcDbEntity
  8
DEFPOINTS
  6
Continuous
 62
     0
100
AcDbPoint
 10
18562.16632629171
 20
78917.10145421761
 30
0.0
  0
POINT
  5
32B5
330
32AC
100
AcDbEntity
  8
DEFPOINTS
  6
Continuous
 62
     0
100
AcDbPoint
 10
18562.16632629171
 20
79953.1886806467
 30
0.0
  0
ENDBLK
  5
32B7
330
32AC
100
AcDbEntity
  8
0
100
AcDbBlockEnd
  0
BLOCK
  5
32C2
330
32B8
100
AcDbEntity
  8
0
100
AcDbBlockBegin
  2
*D101
 70
     1
 10
0.0
 20
0.0
 30
0.0
  3
*D101
  1

  0
LINE
  5
32B9
330
32B8
100
AcDbEntity
  8
1
  6
Continuous
 62
     0
370
    -2
100
AcDbLine
 10
19208.43832629169
 20
78270.62484450182
 30
0.0
 11
20573.65699622239
 21
78270.62484450182
 31
0.0
  0
LINE
  5
32BA
330
32B8
100
AcDbEntity
  8
1
  6
Continuous
 62
     0
370
    -2
100
AcDbLine
 10
19208.50082629169
 20
74134.48404450179
 30
0.0
 11
20573.65699622239
 21
74134.48404450179
 31
0.0
  0
LINE
  5
32BB
330
32B8
100
AcDbEntity
  8
1
  6
Continuous
 62
     0
370
    -2
100
AcDbLine
 10
20573.47699622239
 20
77770.62484450182
 30
0.0
 11
20573.47699622239
 21
74634.48404450179
 31
0.0
  0
INSERT
  5
32BC
330
32B8
100
AcDbEntity
  8
1
  6
Continuous
 62
     0
370
    -2
100
AcDbBlockReference
  2
_OPEN30
 10
20573.47699622239
 20
78270.62484450182
 30
0.0
 41
500.0
 42
500.0
 43
500.0
 50
90.0
  0
INSERT
  5
32BD
330
32B8
100
AcDbEntity
  8
1
  6
Continuous
 62
     0
370
    -2
100
AcDbBlockReference
  2
_OPEN30
 10
20573.47699622239
 20
74134.48404450179
 30
0.0
 41
500.0
 42
500.0
 43
500.0
 50
270.0
  0
MTEXT
  5
32BE
330
32B8
100
AcDbEntity
  8
1
  6
Continuous
 62
     0
370
    13
100
AcDbMText
 10
20323.47699622238
 20
76202.55444450181
 30
0.0
 40
400.0
 41
0.0
 71
     5
 72
     1
  1
\A1;32
 11
0.0000000000000001
 21
1.0
 31
0.0
 73
     1
 44
1.0
  0
POINT
  5
32BF
330
32B8
100
AcDbEntity
  8
DEFPOINTS
  6
Continuous
 62
     0
100
AcDbPoint
 10
19208.37582629169
 20
78270.62484450182
 30
0.0
  0
POINT
  5
32C0
330
32B8
100
AcDbEntity
  8
DEFPOINTS
  6
Continuous
 62
     0
100
AcDbPoint
 10
19208.43832629169
 20
74134.48404450179
 30
0.0
  0
POINT
  5
32C1
330
32B8
100
AcDbEntity
  8
DEFPOINTS
  6
Continuous
 62
     0
100
AcDbPoint
 10
20573.47699622239
 20
74134.48404450179
 30
0.0
  0
ENDBLK
  5
32C3
330
32B8
100
AcDbEntity
  8
0
100
AcDbBlockEnd
  0
BLOCK
  5
32CF
330
32C4
100
AcDbEntity
  8
0
100
AcDbBlockBegin
  2
*D102
 70
     1
 10
0.0
 20
0.0
 30
0.0
  3
*D102
  1

  0
LINE
  5
32C5
330
32C4
100
AcDbEntity
  8
1
  6
Continuous
 62
     0
370
    -2
100
AcDbLine
 10
28176.62060539314
 20
78917.10145421761
 30
0.0
 11
28176.62060539314
 21
79435.44631743216
 31
0.0
  0
LINE
  5
32C6
330
32C4
100
AcDbEntity
  8
1
  6
Continuous
 62
     0
370
    -2
100
AcDbLine
 10
28952.14700539313
 20
78917.16395421761
 30
0.0
 11
28952.14700539313
 21
79435.44631743216
 31
0.0
  0
LINE
  5
32C7
330
32C4
100
AcDbEntity
  8
1
  6
Continuous
 62
     0
370
    -2
100
AcDbLine
 10
27676.62060539314
 20
79435.26631743217
 30
0.0
 11
27176.62060539314
 21
79435.26631743217
 31
0.0
  0
LINE
  5
32C8
330
32C4
100
AcDbEntity
  8
1
  6
Continuous
 62
     0
370
    -2
100
AcDbLine
 10
29452.14700539313
 20
79435.26631743217
 30
0.0
 11
29952.14700539314
 21
79435.26631743217
 31
0.0
  0
INSERT
  5
32C9
330
32C4
100
AcDbEntity
  8
1
  6
Continuous
 62
     0
370
    -2
100
AcDbBlockReference
  2
_OPEN30
 10
28176.62060539314
 20
79435.26631743217
 30
0.0
 41
500.0
 42
500.0
 43
500.0
  0
INSERT
  5
32CA
330
32C4
100
AcDbEntity
  8
1
  6
Continuous
 62
     0
370
    -2
100
AcDbBlockReference
  2
_OPEN30
 10
28952.14700539313
 20
79435.26631743217
 30
0.0
 41
500.0
 42
500.0
 43
500.0
 50
180.0
  0
MTEXT
  5
32CB
330
32C4
100
AcDbEntity
  8
1
  6
Continuous
 62
     0
370
    13
100
AcDbMText
 10
28564.38380539314
 20
79685.26631743216
 30
0.0
 40
400.0
 41
0.0
 71
     5
 72
     1
  1
\A1;6
 73
     1
 44
1.0
  0
POINT
  5
32CC
330
32C4
100
AcDbEntity
  8
DEFPOINTS
  6
Continuous
 62
     0
100
AcDbPoint
 10
28176.62060539314
 20
78917.03895421761
 30
0.0
  0
POINT
  5
32CD
330
32C4
100
AcDbEntity
  8
DEFPOINTS
  6
Continuous
 62
     0
100
AcDbPoint
 10
28952.14700539313
 20
78917.10145421761
 30
0.0
  0
POINT
  5
32CE
330
32C4
100
AcDbEntity
  8
DEFPOINTS
  6
Continuous
 62
     0
100
AcDbPoint
 10
28952.14700539313
 20
79435.26631743217
 30
0.0
  0
ENDBLK
  5
32D0
330
32C4
100
AcDbEntity
  8
0
100
AcDbBlockEnd
  0
BLOCK
  5
32DC
330
32D1
100
AcDbEntity
  8
0
100
AcDbBlockBegin
  2
*D103
 70
     1
 10
0.0
 20
0.0
 30
0.0
  3
*D103
  1

  0
LINE
  5
32D2
330
32D1
100
AcDbEntity
  8
1
  6
Continuous
 62
     0
370
    -2
100
AcDbLine
 10
27969.81356539316
 20
78917.10145421761
 30
0.0
 11
27969.81356539316
 21
80989.2134070758
 31
0.0
  0
LINE
  5
32D3
330
32D1
100
AcDbEntity
  8
1
  6
Continuous
 62
     0
370
    -2
100
AcDbLine
 10
28176.62060539314
 20
78917.16395421761
 30
0.0
 11
28176.62060539314
 21
80989.2134070758
 31
0.0
  0
LINE
  5
32D4
330
32D1
100
AcDbEntity
  8
1
  6
Continuous
 62
     0
370
    -2
100
AcDbLine
 10
28676.62060539314
 20
80989.03340707579
 30
0.0
 11
29176.62060539314
 21
80989.03340707579
 31
0.0
  0
LINE
  5
32D5
330
32D1
100
AcDbEntity
  8
1
  6
Continuous
 62
     0
370
    -2
100
AcDbLine
 10
27469.81356539316
 20
80989.03340707579
 30
0.0
 11
25269.81356539316
 21
80989.03340707579
 31
0.0
  0
INSERT
  5
32D6
330
32D1
100
AcDbEntity
  8
1
  6
Continuous
 62
     0
370
    -2
100
AcDbBlockReference
  2
_OPEN30
 10
28176.62060539314
 20
80989.03340707579
 30
0.0
 41
500.0
 42
500.0
 43
500.0
 50
180.0
  0
INSERT
  5
32D7
330
32D1
100
AcDbEntity
  8
1
  6
Continuous
 62
     0
370
    -2
100
AcDbBlockReference
  2
_OPEN30
 10
27969.81356539316
 20
80989.03340707579
 30
0.0
 41
500.0
 42
500.0
 43
500.0
  0
MTEXT
  5
32D8
330
32D1
100
AcDbEntity
  8
1
  6
Continuous
 62
     0
370
    13
100
AcDbMText
 10
26119.81356539316
 20
81239.03340707579
 30
0.0
 40
400.0
 41
0.0
 71
     5
 72
     1
  1
\A1;(t1.6)
 73
     1
 44
1.0
  0
POINT
  5
32D9
330
32D1
100
AcDbEntity
  8
DEFPOINTS
  6
Continuous
 62
     0
100
AcDbPoint
 10
27969.81356539316
 20
78917.03895421761
 30
0.0
  0
POINT
  5
32DA
330
32D1
100
AcDbEntity
  8
DEFPOINTS
  6
Continuous
 62
     0
100
AcDbPoint
 10
28176.62060539314
 20
78917.10145421761
 30
0.0
  0
POINT
  5
32DB
330
32D1
100
AcDbEntity
  8
DEFPOINTS
  6
Continuous
 62
     0
100
AcDbPoint
 10
28176.62060539314
 20
80989.03340707579
 30
0.0
  0
ENDBLK
  5
32DD
330
32D1
100
AcDbEntity
  8
0
100
AcDbBlockEnd
  0
BLOCK
  5
32E8
330
32DE
100
AcDbEntity
  8
0
100
AcDbBlockBegin
  2
*D104
 70
     1
 10
0.0
 20
0.0
 30
0.0
  3
*D104
  1

  0
LINE
  5
32DF
330
32DE
100
AcDbEntity
  8
1
  6
Continuous
 62
     0
370
    -2
100
AcDbLine
 10
25888.81772539316
 20
77042.12536566722
 30
0.0
 11
25888.81772539316
 21
79953.3374306467
 31
0.0
  0
LINE
  5
32E0
330
32DE
100
AcDbEntity
  8
1
  6
Continuous
 62
     0
370
    -2
100
AcDbLine
 10
27969.81356539316
 20
78917.16395421761
 30
0.0
 11
27969.81356539316
 21
79953.3374306467
 31
0.0
  0
LINE
  5
32E1
330
32DE
100
AcDbEntity
  8
1
  6
Continuous
 62
     0
370
    -2
100
AcDbLine
 10
26388.81772539316
 20
79953.1574306467
 30
0.0
 11
27469.81356539316
 21
79953.1574306467
 31
0.0
  0
INSERT
  5
32E2
330
32DE
100
AcDbEntity
  8
1
  6
Continuous
 62
     0
370
    -2
100
AcDbBlockReference
  2
_OPEN30
 10
25888.81772539316
 20
79953.1574306467
 30
0.0
 41
500.0
 42
500.0
 43
500.0
 50
180.0
  0
INSERT
  5
32E3
330
32DE
100
AcDbEntity
  8
1
  6
Continuous
 62
     0
370
    -2
100
AcDbBlockReference
  2
_OPEN30
 10
27969.81356539316
 20
79953.1574306467
 30
0.0
 41
500.0
 42
500.0
 43
500.0
  0
MTEXT
  5
32E4
330
32DE
100
AcDbEntity
  8
1
  6
Continuous
 62
     0
370
    13
100
AcDbMText
 10
26929.31564539316
 20
80203.15743064671
 30
0.0
 40
400.0
 41
0.0
 71
     5
 72
     1
  1
\A1;16
 73
     1
 44
1.0
  0
POINT
  5
32E5
330
32DE
100
AcDbEntity
  8
DEFPOINTS
  6
Continuous
 62
     0
100
AcDbPoint
 10
25888.81772539316
 20
77042.06286566722
 30
0.0
  0
POINT
  5
32E6
330
32DE
100
AcDbEntity
  8
DEFPOINTS
  6
Continuous
 62
     0
100
AcDbPoint
 10
27969.81356539316
 20
78917.10145421761
 30
0.0
  0
POINT
  5
32E7
330
32DE
100
AcDbEntity
  8
DEFPOINTS
  6
Continuous
 62
     0
100
AcDbPoint
 10
27969.81356539316
 20
79953.1574306467
 30
0.0
  0
ENDBLK
  5
32E9
330
32DE
100
AcDbEntity
  8
0
100
AcDbBlockEnd
  0
BLOCK
  5
3580
330
3576
100
AcDbEntity
  8
0
100
AcDbBlockBegin
  2
*D106
 70
     1
 10
0.0
 20
0.0
 30
0.0
  3
*D106
  1

  0
LINE
  5
35CC
330
3576
100
AcDbEntity
  8
1
  6
Continuous
 62
     0
370
    -2
100
AcDbLine
 10
5265.529583625135
 20
19199.82204011989
 30
0.0
 11
5265.529583625135
 21
21271.93399297807
 31
0.0
  0
LINE
  5
35CD
330
3576
100
AcDbEntity
  8
1
  6
Continuous
 62
     0
370
    -2
100
AcDbLine
 10
12116.01278362517
 20
19199.88454011989
 30
0.0
 11
12116.01278362517
 21
21271.93399297807
 31
0.0
  0
LINE
  5
35CE
330
3576
100
AcDbEntity
  8
1
  6
Continuous
 62
     0
370
    -2
100
AcDbLine
 10
5765.529583625135
 20
21271.75399297807
 30
0.0
 11
11616.01278362517
 21
21271.75399297807
 31
0.0
  0
INSERT
  5
35CF
330
3576
100
AcDbEntity
  8
1
  6
Continuous
 62
     0
370
    -2
100
AcDbBlockReference
  2
_OPEN30
 10
5265.529583625135
 20
21271.75399297807
 30
0.0
 41
500.0
 42
500.0
 43
500.0
 50
180.0
  0
INSERT
  5
35D0
330
3576
100
AcDbEntity
  8
1
  6
Continuous
 62
     0
370
    -2
100
AcDbBlockReference
  2
_OPEN30
 10
12116.01278362517
 20
21271.75399297807
 30
0.0
 41
500.0
 42
500.0
 43
500.0
  0
MTEXT
  5
35D1
330
3576
100
AcDbEntity
  8
1
  6
Continuous
 62
     0
370
    13
100
AcDbMText
 10
8690.771183625155
 20
21521.75399297807
 30
0.0
 40
400.0
 41
0.0
 71
     5
 72
     1
  1
\A1;53
 73
     1
 44
1.0
  0
POINT
  5
35D2
330
3576
100
AcDbEntity
  8
DEFPOINTS
  6
Continuous
 62
     0
100
AcDbPoint
 10
5265.529583625135
 20
19199.75954011989
 30
0.0
  0
POINT
  5
35D3
330
3576
100
AcDbEntity
  8
DEFPOINTS
  6
Continuous
 62
     0
100
AcDbPoint
 10
12116.01278362517
 20
19199.82204011989
 30
0.0
  0
POINT
  5
35D4
330
3576
100
AcDbEntity
  8
DEFPOINTS
  6
Continuous
 62
     0
100
AcDbPoint
 10
12116.01278362517
 20
21271.75399297807
 30
0.0
  0
ENDBLK
  5
3581
330
3576
100
AcDbEntity
  8
0
100
AcDbBlockEnd
  0
BLOCK
  5
358C
330
3582
100
AcDbEntity
  8
0
100
AcDbBlockBegin
  2
*D107
 70
     1
 10
0.0
 20
0.0
 30
0.0
  3
*D107
  1

  0
LINE
  5
35D5
330
3582
100
AcDbEntity
  8
1
  6
Continuous
 62
     0
370
    -2
100
AcDbLine
 10
12116.01278362517
 20
19199.82204011989
 30
0.0
 11
14445.92432039463
 21
19199.82204011989
 31
0.0
  0
LINE
  5
35D6
330
3582
100
AcDbEntity
  8
1
  6
Continuous
 62
     0
370
    -2
100
AcDbLine
 10
12116.07528362517
 20
13770.72795606135
 30
0.0
 11
14445.92432039463
 21
13770.72795606135
 31
0.0
  0
LINE
  5
35D7
330
3582
100
AcDbEntity
  8
1
  6
Continuous
 62
     0
370
    -2
100
AcDbLine
 10
14445.74432039463
 20
18699.82204011989
 30
0.0
 11
14445.74432039463
 21
14270.72795606135
 31
0.0
  0
INSERT
  5
35D8
330
3582
100
AcDbEntity
  8
1
  6
Continuous
 62
     0
370
    -2
100
AcDbBlockReference
  2
_OPEN30
 10
14445.74432039463
 20
19199.82204011989
 30
0.0
 41
500.0
 42
500.0
 43
500.0
 50
90.0
  0
INSERT
  5
35D9
330
3582
100
AcDbEntity
  8
1
  6
Continuous
 62
     0
370
    -2
100
AcDbBlockReference
  2
_OPEN30
 10
14445.74432039463
 20
13770.72795606135
 30
0.0
 41
500.0
 42
500.0
 43
500.0
 50
270.0
  0
MTEXT
  5
35DA
330
3582
100
AcDbEntity
  8
1
  6
Continuous
 62
     0
370
    13
100
AcDbMText
 10
14195.74432039463
 20
16485.27499809062
 30
0.0
 40
400.0
 41
0.0
 71
     5
 72
     1
  1
\A1;42
 11
0.0000000000000001
 21
1.0
 31
0.0
 73
     1
 44
1.0
  0
POINT
  5
35DB
330
3582
100
AcDbEntity
  8
DEFPOINTS
  6
Continuous
 62
     0
100
AcDbPoint
 10
12115.95028362517
 20
19199.82204011989
 30
0.0
  0
POINT
  5
35DC
330
3582
100
AcDbEntity
  8
DEFPOINTS
  6
Continuous
 62
     0
100
AcDbPoint
 10
12116.01278362517
 20
13770.72795606135
 30
0.0
  0
POINT
  5
35DD
330
3582
100
AcDbEntity
  8
DEFPOINTS
  6
Continuous
 62
     0
100
AcDbPoint
 10
14445.74432039463
 20
13770.72795606135
 30
0.0
  0
ENDBLK
  5
358D
330
3582
100
AcDbEntity
  8
0
100
AcDbBlockEnd
  0
BLOCK
  5
3598
330
358E
100
AcDbEntity
  8
0
100
AcDbBlockBegin
  2
*D108
 70
     1
 10
0.0
 20
0.0
 30
0.0
  3
*D108
  1

  0
LINE
  5
35DE
330
358E
100
AcDbEntity
  8
1
  6
Continuous
 62
     0
370
    -2
100
AcDbLine
 10
5911.801583625202
 20
19199.82204011989
 30
0.0
 11
5911.801583625202
 21
20236.08926654898
 31
0.0
  0
LINE
  5
35DF
330
358E
100
AcDbEntity
  8
1
  6
Continuous
 62
     0
370
    -2
100
AcDbLine
 10
11469.74078362519
 20
19199.88454011989
 30
0.0
 11
11469.74078362519
 21
20236.08926654898
 31
0.0
  0
LINE
  5
35E0
330
358E
100
AcDbEntity
  8
1
  6
Continuous
 62
     0
370
    -2
100
AcDbLine
 10
6411.801583625202
 20
20235.90926654899
 30
0.0
 11
10969.74078362519
 21
20235.90926654899
 31
0.0
  0
INSERT
  5
35E1
330
358E
100
AcDbEntity
  8
1
  6
Continuous
 62
     0
370
    -2
100
AcDbBlockReference
  2
_OPEN30
 10
5911.801583625202
 20
20235.90926654899
 30
0.0
 41
500.0
 42
500.0
 43
500.0
 50
180.0
  0
INSERT
  5
35E2
330
358E
100
AcDbEntity
  8
1
  6
Continuous
 62
     0
370
    -2
100
AcDbBlockReference
  2
_OPEN30
 10
11469.74078362519
 20
20235.90926654899
 30
0.0
 41
500.0
 42
500.0
 43
500.0
  0
MTEXT
  5
35E3
330
358E
100
AcDbEntity
  8
1
  6
Continuous
 62
     0
370
    13
100
AcDbMText
 10
8690.771183625196
 20
20485.90926654898
 30
0.0
 40
400.0
 41
0.0
 71
     5
 72
     1
  1
\A1;43
 73
     1
 44
1.0
  0
POINT
  5
35E4
330
358E
100
AcDbEntity
  8
DEFPOINTS
  6
Continuous
 62
     0
100
AcDbPoint
 10
5911.801583625202
 20
19199.75954011989
 30
0.0
  0
POINT
  5
35E5
330
358E
100
AcDbEntity
  8
DEFPOINTS
  6
Continuous
 62
     0
100
AcDbPoint
 10
11469.74078362519
 20
19199.82204011989
 30
0.0
  0
POINT
  5
35E6
330
358E
100
AcDbEntity
  8
DEFPOINTS
  6
Continuous
 62
     0
100
AcDbPoint
 10
11469.74078362519
 20
20235.90926654899
 30
0.0
  0
ENDBLK
  5
3599
330
358E
100
AcDbEntity
  8
0
100
AcDbBlockEnd
  0
BLOCK
  5
35A4
330
359A
100
AcDbEntity
  8
0
100
AcDbBlockBegin
  2
*D109
 70
     1
 10
0.0
 20
0.0
 30
0.0
  3
*D109
  1

  0
LINE
  5
35E7
330
359A
100
AcDbEntity
  8
1
  6
Continuous
 62
     0
370
    -2
100
AcDbLine
 10
12116.01278362517
 20
18553.3454304041
 30
0.0
 11
13481.23145355586
 21
18553.3454304041
 31
0.0
  0
LINE
  5
35E8
330
359A
100
AcDbEntity
  8
1
  6
Continuous
 62
     0
370
    -2
100
AcDbLine
 10
12116.07528362517
 20
14417.20463040407
 30
0.0
 11
13481.23145355586
 21
14417.20463040407
 31
0.0
  0
LINE
  5
35E9
330
359A
100
AcDbEntity
  8
1
  6
Continuous
 62
     0
370
    -2
100
AcDbLine
 10
13481.05145355586
 20
18053.3454304041
 30
0.0
 11
13481.05145355586
 21
14917.20463040406
 31
0.0
  0
INSERT
  5
35EA
330
359A
100
AcDbEntity
  8
1
  6
Continuous
 62
     0
370
    -2
100
AcDbBlockReference
  2
_OPEN30
 10
13481.05145355586
 20
18553.3454304041
 30
0.0
 41
500.0
 42
500.0
 43
500.0
 50
90.0
  0
INSERT
  5
35EB
330
359A
100
AcDbEntity
  8
1
  6
Continuous
 62
     0
370
    -2
100
AcDbBlockReference
  2
_OPEN30
 10
13481.05145355586
 20
14417.20463040407
 30
0.0
 41
500.0
 42
500.0
 43
500.0
 50
270.0
  0
MTEXT
  5
35EC
330
359A
100
AcDbEntity
  8
1
  6
Continuous
 62
     0
370
    13
100
AcDbMText
 10
13231.05145355586
 20
16485.27503040409
 30
0.0
 40
400.0
 41
0.0
 71
     5
 72
     1
  1
\A1;32
 11
0.0000000000000001
 21
1.0
 31
0.0
 73
     1
 44
1.0
  0
POINT
  5
35ED
330
359A
100
AcDbEntity
  8
DEFPOINTS
  6
Continuous
 62
     0
100
AcDbPoint
 10
12115.95028362517
 20
18553.3454304041
 30
0.0
  0
POINT
  5
35EE
330
359A
100
AcDbEntity
  8
DEFPOINTS
  6
Continuous
 62
     0
100
AcDbPoint
 10
12116.01278362517
 20
14417.20463040407
 30
0.0
  0
POINT
  5
35EF
330
359A
100
AcDbEntity
  8
DEFPOINTS
  6
Continuous
 62
     0
100
AcDbPoint
 10
13481.05145355586
 20
14417.20463040407
 30
0.0
  0
ENDBLK
  5
35A5
330
359A
100
AcDbEntity
  8
0
100
AcDbBlockEnd
  0
BLOCK
  5
35B1
330
35A6
100
AcDbEntity
  8
0
100
AcDbBlockBegin
  2
*D110
 70
     1
 10
0.0
 20
0.0
 30
0.0
  3
*D110
  1

  0
LINE
  5
35F0
330
35A6
100
AcDbEntity
  8
1
  6
Continuous
 62
     0
370
    -2
100
AcDbLine
 10
21084.19506272662
 20
19199.82204011989
 30
0.0
 11
21084.19506272662
 21
19718.16690333444
 31
0.0
  0
LINE
  5
35F1
330
35A6
100
AcDbEntity
  8
1
  6
Continuous
 62
     0
370
    -2
100
AcDbLine
 10
21859.72146272662
 20
19199.88454011989
 30
0.0
 11
21859.72146272662
 21
19718.16690333444
 31
0.0
  0
LINE
  5
35F2
330
35A6
100
AcDbEntity
  8
1
  6
Continuous
 62
     0
370
    -2
100
AcDbLine
 10
20584.19506272662
 20
19717.98690333444
 30
0.0
 11
20084.19506272662
 21
19717.98690333444
 31
0.0
  0
LINE
  5
35F3
330
35A6
100
AcDbEntity
  8
1
  6
Continuous
 62
     0
370
    -2
100
AcDbLine
 10
22359.72146272661
 20
19717.98690333444
 30
0.0
 11
22859.72146272662
 21
19717.98690333444
 31
0.0
  0
INSERT
  5
35F4
330
35A6
100
AcDbEntity
  8
1
  6
Continuous
 62
     0
370
    -2
100
AcDbBlockReference
  2
_OPEN30
 10
21084.19506272662
 20
19717.98690333444
 30
0.0
 41
500.0
 42
500.0
 43
500.0
  0
INSERT
  5
35F5
330
35A6
100
AcDbEntity
  8
1
  6
Continuous
 62
     0
370
    -2
100
AcDbBlockReference
  2
_OPEN30
 10
21859.72146272662
 20
19717.98690333444
 30
0.0
 41
500.0
 42
500.0
 43
500.0
 50
180.0
  0
MTEXT
  5
35F6
330
35A6
100
AcDbEntity
  8
1
  6
Continuous
 62
     0
370
    13
100
AcDbMText
 10
21471.95826272662
 20
19967.98690333444
 30
0.0
 40
400.0
 41
0.0
 71
     5
 72
     1
  1
\A1;6
 73
     1
 44
1.0
  0
POINT
  5
35F7
330
35A6
100
AcDbEntity
  8
DEFPOINTS
  6
Continuous
 62
     0
100
AcDbPoint
 10
21084.19506272662
 20
19199.75954011989
 30
0.0
  0
POINT
  5
35F8
330
35A6
100
AcDbEntity
  8
DEFPOINTS
  6
Continuous
 62
     0
100
AcDbPoint
 10
21859.72146272662
 20
19199.82204011989
 30
0.0
  0
POINT
  5
35F9
330
35A6
100
AcDbEntity
  8
DEFPOINTS
  6
Continuous
 62
     0
100
AcDbPoint
 10
21859.72146272662
 20
19717.98690333444
 30
0.0
  0
ENDBLK
  5
35B2
330
35A6
100
AcDbEntity
  8
0
100
AcDbBlockEnd
  0
BLOCK
  5
35BE
330
35B3
100
AcDbEntity
  8
0
100
AcDbBlockBegin
  2
*D111
 70
     1
 10
0.0
 20
0.0
 30
0.0
  3
*D111
  1

  0
LINE
  5
35FA
330
35B3
100
AcDbEntity
  8
1
  6
Continuous
 62
     0
370
    -2
100
AcDbLine
 10
20877.38802272664
 20
19199.82204011989
 30
0.0
 11
20877.38802272664
 21
21271.93399297807
 31
0.0
  0
LINE
  5
35FB
330
35B3
100
AcDbEntity
  8
1
  6
Continuous
 62
     0
370
    -2
100
AcDbLine
 10
21084.19506272662
 20
19199.88454011989
 30
0.0
 11
21084.19506272662
 21
21271.93399297807
 31
0.0
  0
LINE
  5
35FC
330
35B3
100
AcDbEntity
  8
1
  6
Continuous
 62
     0
370
    -2
100
AcDbLine
 10
21584.19506272662
 20
21271.75399297807
 30
0.0
 11
22084.19506272662
 21
21271.75399297807
 31
0.0
  0
LINE
  5
35FD
330
35B3
100
AcDbEntity
  8
1
  6
Continuous
 62
     0
370
    -2
100
AcDbLine
 10
20377.38802272664
 20
21271.75399297807
 30
0.0
 11
18177.38802272664
 21
21271.75399297807
 31
0.0
  0
INSERT
  5
35FE
330
35B3
100
AcDbEntity
  8
1
  6
Continuous
 62
     0
370
    -2
100
AcDbBlockReference
  2
_OPEN30
 10
21084.19506272662
 20
21271.75399297807
 30
0.0
 41
500.0
 42
500.0
 43
500.0
 50
180.0
  0
INSERT
  5
35FF
330
35B3
100
AcDbEntity
  8
1
  6
Continuous
 62
     0
370
    -2
100
AcDbBlockReference
  2
_OPEN30
 10
20877.38802272664
 20
21271.75399297807
 30
0.0
 41
500.0
 42
500.0
 43
500.0
  0
MTEXT
  5
3600
330
35B3
100
AcDbEntity
  8
1
  6
Continuous
 62
     0
370
    13
100
AcDbMText
 10
19027.38802272664
 20
21521.75399297807
 30
0.0
 40
400.0
 41
0.0
 71
     5
 72
     1
  1
\A1;(t1.6)
 73
     1
 44
1.0
  0
POINT
  5
3601
330
35B3
100
AcDbEntity
  8
DEFPOINTS
  6
Continuous
 62
     0
100
AcDbPoint
 10
20877.38802272664
 20
19199.75954011989
 30
0.0
  0
POINT
  5
3602
330
35B3
100
AcDbEntity
  8
DEFPOINTS
  6
Continuous
 62
     0
100
AcDbPoint
 10
21084.19506272662
 20
19199.82204011989
 30
0.0
  0
POINT
  5
3603
330
35B3
100
AcDbEntity
  8
DEFPOINTS
  6
Continuous
 62
     0
100
AcDbPoint
 10
21084.19506272662
 20
21271.75399297807
 30
0.0
  0
ENDBLK
  5
35BF
330
35B3
100
AcDbEntity
  8
0
100
AcDbBlockEnd
  0
BLOCK
  5
35CA
330
35C0
100
AcDbEntity
  8
0
100
AcDbBlockBegin
  2
*D112
 70
     1
 10
0.0
 20
0.0
 30
0.0
  3
*D112
  1

  0
LINE
  5
3604
330
35C0
100
AcDbEntity
  8
1
  6
Continuous
 62
     0
370
    -2
100
AcDbLine
 10
18796.39218272665
 20
17324.8459515695
 30
0.0
 11
18796.39218272665
 21
20236.05801654898
 31
0.0
  0
LINE
  5
3605
330
35C0
100
AcDbEntity
  8
1
  6
Continuous
 62
     0
370
    -2
100
AcDbLine
 10
20877.38802272664
 20
19199.88454011989
 30
0.0
 11
20877.38802272664
 21
20236.05801654898
 31
0.0
  0
LINE
  5
3606
330
35C0
100
AcDbEntity
  8
1
  6
Continuous
 62
     0
370
    -2
100
AcDbLine
 10
19296.39218272664
 20
20235.87801654898
 30
0.0
 11
20377.38802272664
 21
20235.87801654898
 31
0.0
  0
INSERT
  5
3607
330
35C0
100
AcDbEntity
  8
1
  6
Continuous
 62
     0
370
    -2
100
AcDbBlockReference
  2
_OPEN30
 10
18796.39218272665
 20
20235.87801654898
 30
0.0
 41
500.0
 42
500.0
 43
500.0
 50
180.0
  0
INSERT
  5
3608
330
35C0
100
AcDbEntity
  8
1
  6
Continuous
 62
     0
370
    -2
100
AcDbBlockReference
  2
_OPEN30
 10
20877.38802272664
 20
20235.87801654898
 30
0.0
 41
500.0
 42
500.0
 43
500.0
  0
MTEXT
  5
3609
330
35C0
100
AcDbEntity
  8
1
  6
Continuous
 62
     0
370
    13
100
AcDbMText
 10
19836.89010272664
 20
20485.87801654898
 30
0.0
 40
400.0
 41
0.0
 71
     5
 72
     1
  1
\A1;16
 73
     1
 44
1.0
  0
POINT
  5
360A
330
35C0
100
AcDbEntity
  8
DEFPOINTS
  6
Continuous
 62
     0
100
AcDbPoint
 10
18796.39218272665
 20
17324.7834515695
 30
0.0
  0
POINT
  5
360B
330
35C0
100
AcDbEntity
  8
DEFPOINTS
  6
Continuous
 62
     0
100
AcDbPoint
 10
20877.38802272664
 20
19199.82204011989
 30
0.0
  0
POINT
  5
360C
330
35C0
100
AcDbEntity
  8
DEFPOINTS
  6
Continuous
 62
     0
100
AcDbPoint
 10
20877.38802272664
 20
20235.87801654898
 30
0.0
  0
ENDBLK
  5
35CB
330
35C0
100
AcDbEntity
  8
0
100
AcDbBlockEnd
  0
BLOCK
  5
3618
330
360E
100
AcDbEntity
  8
0
100
AcDbBlockBegin
  2
*D113
 70
     1
 10
0.0
 20
0.0
 30
0.0
  3
*D113
  1

  0
LINE
  5
360F
330
360E
100
AcDbEntity
  8
1
  6
Continuous
 62
     0
370
    -2
100
AcDbLine
 10
38301.59008579072
 20
81254.04404707861
 30
0.0
 11
38301.59008579072
 21
82558.08763571694
 31
0.0
  0
LINE
  5
3610
330
360E
100
AcDbEntity
  8
1
  6
Continuous
 62
     0
370
    -2
100
AcDbLine
 10
44584.79008579071
 20
81254.10654707861
 30
0.0
 11
44584.79008579071
 21
82558.08763571694
 31
0.0
  0
LINE
  5
3611
330
360E
100
AcDbEntity
  8
1
  6
Continuous
 62
     0
370
    -2
100
AcDbLine
 10
38801.59008579072
 20
82557.90763571695
 30
0.0
 11
44084.7900857907
 21
82557.90763571695
 31
0.0
  0
INSERT
  5
3612
330
360E
100
AcDbEntity
  8
1
  6
Continuous
 62
     0
370
    -2
100
AcDbBlockReference
  2
_OPEN30
 10
38301.59008579072
 20
82557.90763571695
 30
0.0
 41
500.0
 42
500.0
 43
500.0
 50
180.0
  0
INSERT
  5
3613
330
360E
100
AcDbEntity
  8
1
  6
Continuous
 62
     0
370
    -2
100
AcDbBlockReference
  2
_OPEN30
 10
44584.79008579071
 20
82557.90763571695
 30
0.0
 41
500.0
 42
500.0
 43
500.0
  0
MTEXT
  5
3614
330
360E
100
AcDbEntity
  8
1
  6
Continuous
 62
     0
370
    13
100
AcDbMText
 10
41443.19008579071
 20
82807.90763571696
 30
0.0
 40
400.0
 41
0.0
 71
     5
 72
     1
  1
\A1;70
 73
     1
 44
1.0
  0
POINT
  5
3615
330
360E
100
AcDbEntity
  8
DEFPOINTS
  6
Continuous
 62
     0
100
AcDbPoint
 10
38301.59008579072
 20
81253.98154707861
 30
0.0
  0
POINT
  5
3616
330
360E
100
AcDbEntity
  8
DEFPOINTS
  6
Continuous
 62
     0
100
AcDbPoint
 10
44584.79008579071
 20
81254.04404707861
 30
0.0
  0
POINT
  5
3617
330
360E
100
AcDbEntity
  8
DEFPOINTS
  6
Continuous
 62
     0
100
AcDbPoint
 10
44584.79008579071
 20
82557.90763571695
 30
0.0
  0
ENDBLK
  5
3619
330
360E
100
AcDbEntity
  8
0
100
AcDbBlockEnd
  0
BLOCK
  5
3624
330
361A
100
AcDbEntity
  8
0
100
AcDbBlockBegin
  2
*D114
 70
     1
 10
0.0
 20
0.0
 30
0.0
  3
*D114
  1

  0
LINE
  5
361B
330
361A
100
AcDbEntity
  8
1
  6
Continuous
 62
     0
370
    -2
100
AcDbLine
 10
44315.5725857907
 20
81523.32404707861
 30
0.0
 11
46033.59870417548
 21
81523.32404707861
 31
0.0
  0
LINE
  5
361C
330
361A
100
AcDbEntity
  8
1
  6
Continuous
 62
     0
370
    -2
100
AcDbLine
 10
44315.5725857907
 20
70752.12404707861
 30
0.0
 11
46033.59870417548
 21
70752.12404707861
 31
0.0
  0
LINE
  5
361D
330
361A
100
AcDbEntity
  8
1
  6
Continuous
 62
     0
370
    -2
100
AcDbLine
 10
46033.41870417549
 20
81023.3240470786
 30
0.0
 11
46033.41870417549
 21
71252.12404707861
 31
0.0
  0
INSERT
  5
361E
330
361A
100
AcDbEntity
  8
1
  6
Continuous
 62
     0
370
    -2
100
AcDbBlockReference
  2
_OPEN30
 10
46033.41870417549
 20
81523.32404707861
 30
0.0
 41
500.0
 42
500.0
 43
500.0
 50
90.0
  0
INSERT
  5
361F
330
361A
100
AcDbEntity
  8
1
  6
Continuous
 62
     0
370
    -2
100
AcDbBlockReference
  2
_OPEN30
 10
46033.41870417549
 20
70752.12404707861
 30
0.0
 41
500.0
 42
500.0
 43
500.0
 50
270.0
  0
MTEXT
  5
3620
330
361A
100
AcDbEntity
  8
1
  6
Continuous
 62
     0
370
    13
100
AcDbMText
 10
45783.41870417547
 20
76003.08404707862
 30
0.0
 40
400.0
 41
0.0
 71
     5
 72
     1
  1
\A1;120
 11
0.0000000000000001
 21
1.0
 31
0.0
 73
     1
 44
1.0
  0
POINT
  5
3621
330
361A
100
AcDbEntity
  8
DEFPOINTS
  6
Continuous
 62
     0
100
AcDbPoint
 10
44315.51008579071
 20
81523.32404707861
 30
0.0
  0
POINT
  5
3622
330
361A
100
AcDbEntity
  8
DEFPOINTS
  6
Continuous
 62
     0
100
AcDbPoint
 10
44315.51008579071
 20
70752.12404707861
 30
0.0
  0
POINT
  5
3623
330
361A
100
AcDbEntity
  8
DEFPOINTS
  6
Continuous
 62
     0
100
AcDbPoint
 10
46033.41870417549
 20
70752.12404707861
 30
0.0
  0
ENDBLK
  5
3625
330
361A
100
AcDbEntity
  8
0
100
AcDbBlockEnd
  0
BLOCK
  5
3631
330
3626
100
AcDbEntity
  8
0
100
AcDbBlockBegin
  2
*D115
 70
     1
 10
0.0
 20
0.0
 30
0.0
  3
*D115
  1

  0
LINE
  5
3627
330
3626
100
AcDbEntity
  8
1
  6
Continuous
 62
     0
370
    -2
100
AcDbLine
 10
48806.3834380308
 20
81135.66923227935
 30
0.0
 11
48806.3834380308
 21
82558.08763571694
 31
0.0
  0
LINE
  5
3628
330
3626
100
AcDbEntity
  8
1
  6
Continuous
 62
     0
370
    -2
100
AcDbLine
 10
49434.70343803081
 20
81523.38654707861
 30
0.0
 11
49434.70343803081
 21
82558.08763571694
 31
0.0
  0
LINE
  5
3629
330
3626
100
AcDbEntity
  8
1
  6
Continuous
 62
     0
370
    -2
100
AcDbLine
 10
48306.3834380308
 20
82557.90763571695
 30
0.0
 11
47806.3834380308
 21
82557.90763571695
 31
0.0
  0
LINE
  5
362A
330
3626
100
AcDbEntity
  8
1
  6
Continuous
 62
     0
370
    -2
100
AcDbLine
 10
49934.70343803082
 20
82557.90763571695
 30
0.0
 11
50801.37010469748
 21
82557.90763571695
 31
0.0
  0
INSERT
  5
362B
330
3626
100
AcDbEntity
  8
1
  6
Continuous
 62
     0
370
    -2
100
AcDbBlockReference
  2
_OPEN30
 10
48806.3834380308
 20
82557.90763571695
 30
0.0
 41
500.0
 42
500.0
 43
500.0
  0
INSERT
  5
362C
330
3626
100
AcDbEntity
  8
1
  6
Continuous
 62
     0
370
    -2
100
AcDbBlockReference
  2
_OPEN30
 10
49434.70343803081
 20
82557.90763571695
 30
0.0
 41
500.0
 42
500.0
 43
500.0
 50
180.0
  0
MTEXT
  5
362D
330
3626
100
AcDbEntity
  8
1
  6
Continuous
 62
     0
370
    13
100
AcDbMText
 10
50618.03677136415
 20
82807.90763571696
 30
0.0
 40
400.0
 41
0.0
 71
     5
 72
     1
  1
\A1;7
 73
     1
 44
1.0
  0
POINT
  5
362E
330
3626
100
AcDbEntity
  8
DEFPOINTS
  6
Continuous
 62
     0
100
AcDbPoint
 10
48806.3834380308
 20
81135.60673227935
 30
0.0
  0
POINT
  5
362F
330
3626
100
AcDbEntity
  8
DEFPOINTS
  6
Continuous
 62
     0
100
AcDbPoint
 10
49434.70343803081
 20
81523.32404707861
 30
0.0
  0
POINT
  5
3630
330
3626
100
AcDbEntity
  8
DEFPOINTS
  6
Continuous
 62
     0
100
AcDbPoint
 10
49434.70343803081
 20
82557.90763571695
 30
0.0
  0
ENDBLK
  5
3632
330
3626
100
AcDbEntity
  8
0
100
AcDbBlockEnd
  0
BLOCK
  5
363D
330
3633
100
AcDbEntity
  8
0
100
AcDbBlockBegin
  2
*D116
 70
     1
 10
0.0
 20
0.0
 30
0.0
  3
*D116
  1

  0
LINE
  5
3634
330
3633
100
AcDbEntity
  8
1
  6
Continuous
 62
     0
370
    -2
100
AcDbLine
 10
49434.70343803081
 20
70752.01228667859
 30
0.0
 11
49434.70343803081
 21
69580.27271706873
 31
0.0
  0
LINE
  5
3635
330
3633
100
AcDbEntity
  8
1
  6
Continuous
 62
     0
370
    -2
100
AcDbLine
 10
52028.7674380308
 20
74028.30154707862
 30
0.0
 11
52028.7674380308
 21
69580.27271706873
 31
0.0
  0
LINE
  5
3636
330
3633
100
AcDbEntity
  8
1
  6
Continuous
 62
     0
370
    -2
100
AcDbLine
 10
49934.70343803082
 20
69580.45271706872
 30
0.0
 11
51528.7674380308
 21
69580.45271706872
 31
0.0
  0
INSERT
  5
3637
330
3633
100
AcDbEntity
  8
1
  6
Continuous
 62
     0
370
    -2
100
AcDbBlockReference
  2
_OPEN30
 10
49434.70343803081
 20
69580.45271706872
 30
0.0
 41
500.0
 42
500.0
 43
500.0
 50
180.0
  0
INSERT
  5
3638
330
3633
100
AcDbEntity
  8
1
  6
Continuous
 62
     0
370
    -2
100
AcDbBlockReference
  2
_OPEN30
 10
52028.7674380308
 20
69580.45271706872
 30
0.0
 41
500.0
 42
500.0
 43
500.0
  0
MTEXT
  5
3639
330
3633
100
AcDbEntity
  8
1
  6
Continuous
 62
     0
370
    13
100
AcDbMText
 10
50731.73543803081
 20
69830.45271706872
 30
0.0
 40
400.0
 41
0.0
 71
     5
 72
     1
  1
\A1;30max
 73
     1
 44
1.0
  0
POINT
  5
363A
330
3633
100
AcDbEntity
  8
DEFPOINTS
  6
Continuous
 62
     0
100
AcDbPoint
 10
49434.70343803081
 20
70752.07478667859
 30
0.0
  0
POINT
  5
363B
330
3633
100
AcDbEntity
  8
DEFPOINTS
  6
Continuous
 62
     0
100
AcDbPoint
 10
52028.7674380308
 20
74028.36404707862
 30
0.0
  0
POINT
  5
363C
330
3633
100
AcDbEntity
  8
DEFPOINTS
  6
Continuous
 62
     0
100
AcDbPoint
 10
52028.7674380308
 20
69580.45271706872
 30
0.0
  0
ENDBLK
  5
363E
330
3633
100
AcDbEntity
  8
0
100
AcDbBlockEnd
  0
BLOCK
  5
37A7
330
379D
100
AcDbEntity
  8
0
100
AcDbBlockBegin
  2
*D118
 70
     1
 10
0.0
 20
0.0
 30
0.0
  3
*D118
  1

  0
LINE
  5
37CE
330
379D
100
AcDbEntity
  8
1
  6
Continuous
 62
     0
370
    -2
100
AcDbLine
 10
5127.918746700395
 20
21187.98434654853
 30
0.0
 11
5127.918746700395
 21
22492.02793518687
 31
0.0
  0
LINE
  5
37CF
330
379D
100
AcDbEntity
  8
1
  6
Continuous
 62
     0
370
    -2
100
AcDbLine
 10
11411.11874670037
 20
21188.04684654853
 30
0.0
 11
11411.11874670037
 21
22492.02793518687
 31
0.0
  0
LINE
  5
37D0
330
379D
100
AcDbEntity
  8
1
  6
Continuous
 62
     0
370
    -2
100
AcDbLine
 10
5627.918746700395
 20
22491.84793518687
 30
0.0
 11
10911.11874670037
 21
22491.84793518687
 31
0.0
  0
INSERT
  5
37D1
330
379D
100
AcDbEntity
  8
1
  6
Continuous
 62
     0
370
    -2
100
AcDbBlockReference
  2
_OPEN30
 10
5127.918746700395
 20
22491.84793518687
 30
0.0
 41
500.0
 42
500.0
 43
500.0
 50
180.0
  0
INSERT
  5
37D2
330
379D
100
AcDbEntity
  8
1
  6
Continuous
 62
     0
370
    -2
100
AcDbBlockReference
  2
_OPEN30
 10
11411.11874670037
 20
22491.84793518687
 30
0.0
 41
500.0
 42
500.0
 43
500.0
  0
MTEXT
  5
37D3
330
379D
100
AcDbEntity
  8
1
  6
Continuous
 62
     0
370
    13
100
AcDbMText
 10
8269.518746700384
 20
22741.84793518687
 30
0.0
 40
400.0
 41
0.0
 71
     5
 72
     1
  1
\A1;70
 73
     1
 44
1.0
  0
POINT
  5
37D4
330
379D
100
AcDbEntity
  8
DEFPOINTS
  6
Continuous
 62
     0
100
AcDbPoint
 10
5127.918746700395
 20
21187.92184654853
 30
0.0
  0
POINT
  5
37D5
330
379D
100
AcDbEntity
  8
DEFPOINTS
  6
Continuous
 62
     0
100
AcDbPoint
 10
11411.11874670037
 20
21187.98434654853
 30
0.0
  0
POINT
  5
37D6
330
379D
100
AcDbEntity
  8
DEFPOINTS
  6
Continuous
 62
     0
100
AcDbPoint
 10
11411.11874670037
 20
22491.84793518687
 30
0.0
  0
ENDBLK
  5
37A8
330
379D
100
AcDbEntity
  8
0
100
AcDbBlockEnd
  0
BLOCK
  5
37B3
330
37A9
100
AcDbEntity
  8
0
100
AcDbBlockBegin
  2
*D119
 70
     1
 10
0.0
 20
0.0
 30
0.0
  3
*D119
  1

  0
LINE
  5
37D7
330
37A9
100
AcDbEntity
  8
1
  6
Continuous
 62
     0
370
    -2
100
AcDbLine
 10
11141.90124670037
 20
21457.26434654853
 30
0.0
 11
12859.92736508515
 21
21457.26434654853
 31
0.0
  0
LINE
  5
37D8
330
37A9
100
AcDbEntity
  8
1
  6
Continuous
 62
     0
370
    -2
100
AcDbLine
 10
11141.90124670037
 20
10686.06434654853
 30
0.0
 11
12859.92736508514
 21
10686.06434654853
 31
0.0
  0
LINE
  5
37D9
330
37A9
100
AcDbEntity
  8
1
  6
Continuous
 62
     0
370
    -2
100
AcDbLine
 10
12859.74736508515
 20
20957.26434654852
 30
0.0
 11
12859.74736508514
 21
11186.06434654853
 31
0.0
  0
INSERT
  5
37DA
330
37A9
100
AcDbEntity
  8
1
  6
Continuous
 62
     0
370
    -2
100
AcDbBlockReference
  2
_OPEN30
 10
12859.74736508515
 20
21457.26434654853
 30
0.0
 41
500.0
 42
500.0
 43
500.0
 50
90.0
  0
INSERT
  5
37DB
330
37A9
100
AcDbEntity
  8
1
  6
Continuous
 62
     0
370
    -2
100
AcDbBlockReference
  2
_OPEN30
 10
12859.74736508514
 20
10686.06434654853
 30
0.0
 41
500.0
 42
500.0
 43
500.0
 50
270.0
  0
MTEXT
  5
37DC
330
37A9
100
AcDbEntity
  8
1
  6
Continuous
 62
     0
370
    13
100
AcDbMText
 10
12609.74736508514
 20
15937.02434654854
 30
0.0
 40
400.0
 41
0.0
 71
     5
 72
     1
  1
\A1;120
 11
0.0000000000000001
 21
1.0
 31
0.0
 73
     1
 44
1.0
  0
POINT
  5
37DD
330
37A9
100
AcDbEntity
  8
DEFPOINTS
  6
Continuous
 62
     0
100
AcDbPoint
 10
11141.83874670037
 20
21457.26434654853
 30
0.0
  0
POINT
  5
37DE
330
37A9
100
AcDbEntity
  8
DEFPOINTS
  6
Continuous
 62
     0
100
AcDbPoint
 10
11141.83874670037
 20
10686.06434654853
 30
0.0
  0
POINT
  5
37DF
330
37A9
100
AcDbEntity
  8
DEFPOINTS
  6
Continuous
 62
     0
100
AcDbPoint
 10
12859.74736508514
 20
10686.06434654853
 30
0.0
  0
ENDBLK
  5
37B4
330
37A9
100
AcDbEntity
  8
0
100
AcDbBlockEnd
  0
BLOCK
  5
37C0
330
37B5
100
AcDbEntity
  8
0
100
AcDbBlockBegin
  2
*D120
 70
     1
 10
0.0
 20
0.0
 30
0.0
  3
*D120
  1

  0
LINE
  5
37E0
330
37B5
100
AcDbEntity
  8
1
  6
Continuous
 62
     0
370
    -2
100
AcDbLine
 10
15632.71209894047
 20
21069.60953174927
 30
0.0
 11
15632.71209894047
 21
22492.02793518687
 31
0.0
  0
LINE
  5
37E1
330
37B5
100
AcDbEntity
  8
1
  6
Continuous
 62
     0
370
    -2
100
AcDbLine
 10
16261.03209894048
 20
21457.32684654853
 30
0.0
 11
16261.03209894048
 21
22492.02793518687
 31
0.0
  0
LINE
  5
37E2
330
37B5
100
AcDbEntity
  8
1
  6
Continuous
 62
     0
370
    -2
100
AcDbLine
 10
15132.71209894047
 20
22491.84793518687
 30
0.0
 11
14632.71209894047
 21
22491.84793518687
 31
0.0
  0
LINE
  5
37E3
330
37B5
100
AcDbEntity
  8
1
  6
Continuous
 62
     0
370
    -2
100
AcDbLine
 10
16761.03209894048
 20
22491.84793518687
 30
0.0
 11
17627.69876560715
 21
22491.84793518687
 31
0.0
  0
INSERT
  5
37E4
330
37B5
100
AcDbEntity
  8
1
  6
Continuous
 62
     0
370
    -2
100
AcDbBlockReference
  2
_OPEN30
 10
15632.71209894047
 20
22491.84793518687
 30
0.0
 41
500.0
 42
500.0
 43
500.0
  0
INSERT
  5
37E5
330
37B5
100
AcDbEntity
  8
1
  6
Continuous
 62
     0
370
    -2
100
AcDbBlockReference
  2
_OPEN30
 10
16261.03209894048
 20
22491.84793518687
 30
0.0
 41
500.0
 42
500.0
 43
500.0
 50
180.0
  0
MTEXT
  5
37E6
330
37B5
100
AcDbEntity
  8
1
  6
Continuous
 62
     0
370
    13
100
AcDbMText
 10
17444.36543227382
 20
22741.84793518687
 30
0.0
 40
400.0
 41
0.0
 71
     5
 72
     1
  1
\A1;7
 73
     1
 44
1.0
  0
POINT
  5
37E7
330
37B5
100
AcDbEntity
  8
DEFPOINTS
  6
Continuous
 62
     0
100
AcDbPoint
 10
15632.71209894047
 20
21069.54703174927
 30
0.0
  0
POINT
  5
37E8
330
37B5
100
AcDbEntity
  8
DEFPOINTS
  6
Continuous
 62
     0
100
AcDbPoint
 10
16261.03209894048
 20
21457.26434654853
 30
0.0
  0
POINT
  5
37E9
330
37B5
100
AcDbEntity
  8
DEFPOINTS
  6
Continuous
 62
     0
100
AcDbPoint
 10
16261.03209894048
 20
22491.84793518687
 30
0.0
  0
ENDBLK
  5
37C1
330
37B5
100
AcDbEntity
  8
0
100
AcDbBlockEnd
  0
BLOCK
  5
37CC
330
37C2
100
AcDbEntity
  8
0
100
AcDbBlockBegin
  2
*D121
 70
     1
 10
0.0
 20
0.0
 30
0.0
  3
*D121
  1

  0
LINE
  5
37EA
330
37C2
100
AcDbEntity
  8
1
  6
Continuous
 62
     0
370
    -2
100
AcDbLine
 10
16261.03209894048
 20
10685.95258614851
 30
0.0
 11
16261.03209894048
 21
9514.21301653864
 31
0.0
  0
LINE
  5
37EB
330
37C2
100
AcDbEntity
  8
1
  6
Continuous
 62
     0
370
    -2
100
AcDbLine
 10
18855.09609894047
 20
13962.24184654853
 30
0.0
 11
18855.09609894047
 21
9514.21301653864
 31
0.0
  0
LINE
  5
37EC
330
37C2
100
AcDbEntity
  8
1
  6
Continuous
 62
     0
370
    -2
100
AcDbLine
 10
16761.03209894048
 20
9514.39301653864
 30
0.0
 11
18355.09609894047
 21
9514.39301653864
 31
0.0
  0
INSERT
  5
37ED
330
37C2
100
AcDbEntity
  8
1
  6
Continuous
 62
     0
370
    -2
100
AcDbBlockReference
  2
_OPEN30
 10
16261.03209894048
 20
9514.39301653864
 30
0.0
 41
500.0
 42
500.0
 43
500.0
 50
180.0
  0
INSERT
  5
37EE
330
37C2
100
AcDbEntity
  8
1
  6
Continuous
 62
     0
370
    -2
100
AcDbBlockReference
  2
_OPEN30
 10
18855.09609894047
 20
9514.39301653864
 30
0.0
 41
500.0
 42
500.0
 43
500.0
  0
MTEXT
  5
37EF
330
37C2
100
AcDbEntity
  8
1
  6
Continuous
 62
     0
370
    13
100
AcDbMText
 10
17558.06409894048
 20
9764.39301653864
 30
0.0
 40
400.0
 41
0.0
 71
     5
 72
     1
  1
\A1;30max
 73
     1
 44
1.0
  0
POINT
  5
37F0
330
37C2
100
AcDbEntity
  8
DEFPOINTS
  6
Continuous
 62
     0
100
AcDbPoint
 10
16261.03209894048
 20
10686.01508614851
 30
0.0
  0
POINT
  5
37F1
330
37C2
100
AcDbEntity
  8
DEFPOINTS
  6
Continuous
 62
     0
100
AcDbPoint
 10
18855.09609894047
 20
13962.30434654853
 30
0.0
  0
POINT
  5
37F2
330
37C2
100
AcDbEntity
  8
DEFPOINTS
  6
Continuous
 62
     0
100
AcDbPoint
 10
18855.09609894047
 20
9514.39301653864
 30
0.0
  0
ENDBLK
  5
37CD
330
37C2
100
AcDbEntity
  8
0
100
AcDbBlockEnd
  0
ENDSEC
  0
SECTION
  2
ENTITIES
  0
LINE
  5
36F1
330
1F
100
AcDbEntity
  8
1
  6
Continuous
 62
     7
370
    13
100
AcDbLine
 10
1935.114556488064
 20
26820.44036108492
 30
0.0
 11
24515.57222853276
 21
26820.44036108492
 31
0.0
  0
LINE
  5
36F2
330
1F
100
AcDbEntity
  8
1
  6
Continuous
 62
     7
370
    13
100
AcDbLine
 10
4690.813334050654
 20
26820.44036108492
 30
0.0
 11
4690.813334050654
 21
24983.30784270996
 31
0.0
  0
LINE
  5
36F3
330
1F
100
AcDbEntity
  8
1
  6
Continuous
 62
     7
370
    13
100
AcDbLine
 10
1935.114556488064
 20
24983.30784270996
 30
0.0
 11
24515.57222853113
 21
24983.30784270996
 31
0.0
  0
LINE
  5
36F4
330
1F
100
AcDbEntity
  8
1
  6
Continuous
 62
     7
370
    13
100
AcDbLine
 10
1935.114556488064
 20
26820.44036108492
 30
0.0
 11
1935.114556488064
 21
1740.484336294816
 31
0.0
  0
LINE
  5
36F5
330
1F
100
AcDbEntity
  8
0
370
    13
100
AcDbLine
 10
1935.114556488064
 20
1740.484336294816
 30
0.0
 11
24515.57222853276
 21
1740.484336294816
 31
0.0
  0
LINE
  5
36F6
330
1F
100
AcDbEntity
  8
1
  6
Continuous
 62
     7
370
    13
100
AcDbLine
 10
24515.57222853276
 20
26820.44036108492
 30
0.0
 11
24515.57222853276
 21
1740.484336294816
 31
0.0
  0
LINE
  5
36F7
330
1F
100
AcDbEntity
  8
1
  6
DASHDOT
 62
     7
370
    13
100
AcDbLine
 10
8269.51874670037
 20
11970.37721990842
 30
0.0
 11
8269.51874670037
 21
11099.27719934844
 31
0.0
  0
LINE
  5
36F8
330
1F
100
AcDbEntity
  8
1
  6
DASHDOT
 62
     7
370
    13
100
AcDbLine
 10
7845.22152125978
 20
11538.78434654853
 30
0.0
 11
8687.284855018749
 21
11538.78434654853
 31
0.0
  0
LINE
  5
36F9
330
1F
100
AcDbEntity
  8
1
  6
DASHDOT
 62
     7
370
    13
100
AcDbLine
 10
8269.51874670037
 20
21036.13721990842
 30
0.0
 11
8269.51874670037
 21
20165.03719934844
 31
0.0
  0
LINE
  5
36FA
330
1F
100
AcDbEntity
  8
1
  6
DASHDOT
 62
     7
370
    13
100
AcDbLine
 10
7845.22152125978
 20
20604.54434654853
 30
0.0
 11
8687.284855018749
 21
20604.54434654853
 31
0.0
  0
LINE
  5
36FB
330
1F
100
AcDbEntity
  8
1
  6
Continuous
 62
     7
370
    13
100
AcDbLine
 10
16261.03209894048
 20
19033.74434654852
 30
0.0
 11
16727.78409894049
 21
19033.74434654852
 31
0.0
  0
LINE
  5
36FC
330
1F
100
AcDbEntity
  8
1
  6
Continuous
 62
     7
370
    13
100
AcDbLine
 10
16727.78409894049
 20
19033.74434654852
 30
0.0
 11
16727.78409894049
 21
17238.54434654852
 31
0.0
  0
LINE
  5
36FD
330
1F
100
AcDbEntity
  8
1
  6
Continuous
 62
     7
370
    13
100
AcDbLine
 10
16727.78409894049
 20
17238.54434654852
 30
0.0
 11
16575.19209894048
 21
17238.54434654852
 31
0.0
  0
LINE
  5
36FE
330
1F
100
AcDbEntity
  8
1
  6
Continuous
 62
     7
370
    13
100
AcDbLine
 10
16575.19209894048
 20
17238.54434654852
 30
0.0
 11
16575.19209894048
 21
18881.15234654906
 31
0.0
  0
LINE
  5
36FF
330
1F
100
AcDbEntity
  8
1
  6
Continuous
 62
     7
370
    13
100
AcDbLine
 10
16575.19209894048
 20
18881.15234654906
 30
0.0
 11
16261.03209894048
 21
18881.15234654906
 31
0.0
  0
LINE
  5
3700
330
1F
100
AcDbEntity
  8
1
  6
Continuous
 62
     7
370
    13
100
AcDbLine
 10
16261.03209894048
 20
13109.58434654853
 30
0.0
 11
16727.78409894049
 21
13109.58434654853
 31
0.0
  0
LINE
  5
3701
330
1F
100
AcDbEntity
  8
1
  6
Continuous
 62
     7
370
    13
100
AcDbLine
 10
16727.78409894049
 20
13109.58434654853
 30
0.0
 11
16727.78409894049
 21
14904.78434654853
 31
0.0
  0
LINE
  5
3702
330
1F
100
AcDbEntity
  8
1
  6
Continuous
 62
     7
370
    13
100
AcDbLine
 10
16727.78409894049
 20
14904.78434654853
 30
0.0
 11
16575.19209894048
 21
14904.78434654853
 31
0.0
  0
LINE
  5
3703
330
1F
100
AcDbEntity
  8
1
  6
Continuous
 62
     7
370
    13
100
AcDbLine
 10
16575.19209894048
 20
14904.78434654853
 30
0.0
 11
16575.19209894048
 21
13262.17634654906
 31
0.0
  0
LINE
  5
3704
330
1F
100
AcDbEntity
  8
1
  6
Continuous
 62
     7
370
    13
100
AcDbLine
 10
16575.19209894048
 20
13262.17634654906
 30
0.0
 11
16261.03209894048
 21
13262.17634654906
 31
0.0
  0
LINE
  5
3705
330
1F
100
AcDbEntity
  8
1
  6
Continuous
 62
     7
370
    13
100
AcDbLine
 10
17266.34409894049
 20
13693.02434654854
 30
0.0
 11
17409.9600989384
 21
13693.02434654854
 31
0.0
  0
LINE
  5
3706
330
1F
100
AcDbEntity
  8
1
  6
Continuous
 62
     7
370
    13
100
AcDbLine
 10
17409.9600989384
 20
13693.02434654854
 30
0.0
 11
17409.9600989384
 21
18450.30434654854
 31
0.0
  0
LINE
  5
3707
330
1F
100
AcDbEntity
  8
1
  6
Continuous
 62
     7
370
    13
100
AcDbLine
 10
17409.9600989384
 20
18450.30434654854
 30
0.0
 11
17266.34409894049
 21
18450.30434654854
 31
0.0
  0
LINE
  5
3708
330
1F
100
AcDbEntity
  8
1
  6
Continuous
 62
     7
370
    13
100
AcDbLine
 10
17266.34409894049
 20
18450.30434654854
 30
0.0
 11
17266.34409894049
 21
13693.02434654854
 31
0.0
  0
LINE
  5
3709
330
1F
100
AcDbEntity
  8
1
  6
Continuous
 62
     7
370
    13
100
AcDbLine
 10
16727.78409894049
 20
17552.70434654853
 30
0.0
 11
17266.34409894049
 21
17552.70434654853
 31
0.0
  0
LINE
  5
370A
330
1F
100
AcDbEntity
  8
1
  6
Continuous
 62
     7
370
    13
100
AcDbLine
 10
16727.78409894049
 20
18450.30434654854
 30
0.0
 11
17266.34409894049
 21
18450.30434654854
 31
0.0
  0
LINE
  5
370B
330
1F
100
AcDbEntity
  8
1
  6
Continuous
 62
     7
370
    13
100
AcDbLine
 10
16727.78409894049
 20
13693.02434654854
 30
0.0
 11
17266.34409894049
 21
13693.02434654854
 31
0.0
  0
LINE
  5
370C
330
1F
100
AcDbEntity
  8
1
  6
Continuous
 62
     7
370
    13
100
AcDbLine
 10
16727.78409894049
 20
14590.62434654853
 30
0.0
 11
17266.34409894049
 21
14590.62434654853
 31
0.0
  0
LINE
  5
370D
330
1F
100
AcDbEntity
  8
1
  6
Continuous
 62
     7
370
    13
100
AcDbLine
 10
17409.9600989384
 20
13693.02434654854
 30
0.0
 11
17858.76009893839
 21
13693.02434654854
 31
0.0
  0
LINE
  5
370E
330
1F
100
AcDbEntity
  8
1
  6
Continuous
 62
     7
370
    13
100
AcDbLine
 10
17858.76009893839
 20
13693.02434654854
 30
0.0
 11
17858.76009893839
 21
14590.62434654853
 31
0.0
  0
LINE
  5
370F
330
1F
100
AcDbEntity
  8
1
  6
Continuous
 62
     7
370
    13
100
AcDbLine
 10
17858.76009893839
 20
14590.62434654853
 30
0.0
 11
17409.9600989384
 21
14590.62434654853
 31
0.0
  0
LINE
  5
3710
330
1F
100
AcDbEntity
  8
1
  6
Continuous
 62
     7
370
    13
100
AcDbLine
 10
17409.9600989384
 20
18450.30434654854
 30
0.0
 11
17858.76009893839
 21
18450.30434654854
 31
0.0
  0
LINE
  5
3711
330
1F
100
AcDbEntity
  8
1
  6
Continuous
 62
     7
370
    13
100
AcDbLine
 10
17858.76009893839
 20
18450.30434654854
 30
0.0
 11
17858.76009893839
 21
17552.70434654853
 31
0.0
  0
LINE
  5
3712
330
1F
100
AcDbEntity
  8
1
  6
Continuous
 62
     7
370
    13
100
AcDbLine
 10
17858.76009893839
 20
17552.70434654853
 30
0.0
 11
17409.9600989384
 21
17552.70434654853
 31
0.0
  0
LINE
  5
3713
330
1F
100
AcDbEntity
  8
1
  6
Continuous
 62
     7
370
    13
100
AcDbLine
 10
16575.19209894048
 20
17866.86434654853
 30
0.0
 11
16521.33609894046
 21
17866.86434654853
 31
0.0
  0
LINE
  5
3714
330
1F
100
AcDbEntity
  8
1
  6
Continuous
 62
     7
370
    13
100
AcDbLine
 10
16521.33609894046
 20
17866.86434654853
 30
0.0
 11
16521.33609894046
 21
18136.14434654853
 31
0.0
  0
LINE
  5
3715
330
1F
100
AcDbEntity
  8
1
  6
Continuous
 62
     7
370
    13
100
AcDbLine
 10
16521.33609894046
 20
18136.14434654853
 30
0.0
 11
16575.19209894048
 21
18136.14434654853
 31
0.0
  0
LINE
  5
3716
330
1F
100
AcDbEntity
  8
1
  6
Continuous
 62
     7
370
    13
100
AcDbLine
 10
16575.19209894048
 20
14007.18434654852
 30
0.0
 11
16521.33609894046
 21
14007.18434654852
 31
0.0
  0
LINE
  5
3717
330
1F
100
AcDbEntity
  8
1
  6
Continuous
 62
     7
370
    13
100
AcDbLine
 10
16521.33609894046
 20
14007.18434654852
 30
0.0
 11
16521.33609894046
 21
14276.46434654852
 31
0.0
  0
LINE
  5
3718
330
1F
100
AcDbEntity
  8
1
  6
Continuous
 62
     7
370
    13
100
AcDbLine
 10
16521.33609894046
 20
14276.46434654852
 30
0.0
 11
16575.19209894048
 21
14276.46434654852
 31
0.0
  0
LINE
  5
3719
330
1F
100
AcDbEntity
  8
1
  6
Continuous
 62
     7
370
    13
100
AcDbLine
 10
17858.76009893839
 20
18225.90434654853
 30
0.0
 11
18038.28009893841
 21
18225.90434654853
 31
0.0
  0
LINE
  5
371A
330
1F
100
AcDbEntity
  8
1
  6
Continuous
 62
     7
370
    13
100
AcDbLine
 10
18038.28009893841
 20
18225.90434654853
 30
0.0
 11
18038.28009893841
 21
17687.34434654853
 31
0.0
  0
LINE
  5
371B
330
1F
100
AcDbEntity
  8
1
  6
Continuous
 62
     7
370
    13
100
AcDbLine
 10
18038.28009893841
 20
17687.34434654853
 30
0.0
 11
17858.76009893839
 21
17687.34434654853
 31
0.0
  0
LINE
  5
371C
330
1F
100
AcDbEntity
  8
1
  6
Continuous
 62
     7
370
    13
100
AcDbLine
 10
18038.28009893841
 20
17777.10434654852
 30
0.0
 11
17858.76009893839
 21
17777.10434654852
 31
0.0
  0
LINE
  5
371D
330
1F
100
AcDbEntity
  8
1
  6
Continuous
 62
     7
370
    13
100
AcDbLine
 10
17858.76009893839
 20
17866.86434654853
 30
0.0
 11
18038.28009893841
 21
17866.86434654853
 31
0.0
  0
LINE
  5
371E
330
1F
100
AcDbEntity
  8
1
  6
Continuous
 62
     7
370
    13
100
AcDbLine
 10
18038.28009893841
 20
18136.14434654853
 30
0.0
 11
18217.8000989384
 21
18136.14434654853
 31
0.0
  0
LINE
  5
371F
330
1F
100
AcDbEntity
  8
1
  6
Continuous
 62
     7
370
    13
100
AcDbLine
 10
18217.8000989384
 20
18136.14434654853
 30
0.0
 11
18217.8000989384
 21
18225.90434654853
 31
0.0
  0
LINE
  5
3720
330
1F
100
AcDbEntity
  8
1
  6
Continuous
 62
     7
370
    13
100
AcDbLine
 10
18217.8000989384
 20
18225.90434654853
 30
0.0
 11
18307.56009893841
 21
18225.90434654853
 31
0.0
  0
LINE
  5
3721
330
1F
100
AcDbEntity
  8
1
  6
Continuous
 62
     7
370
    13
100
AcDbLine
 10
18307.56009893841
 20
18225.90434654853
 30
0.0
 11
18307.56009893841
 21
17777.10434654852
 31
0.0
  0
LINE
  5
3722
330
1F
100
AcDbEntity
  8
1
  6
Continuous
 62
     7
370
    13
100
AcDbLine
 10
18038.28009893841
 20
17777.10434654852
 30
0.0
 11
18307.56009893841
 21
17777.10434654852
 31
0.0
  0
LINE
  5
3723
330
1F
100
AcDbEntity
  8
1
  6
Continuous
 62
     7
370
    13
100
AcDbLine
 10
18217.8000989384
 20
17777.10434654852
 30
0.0
 11
18217.8000989384
 21
18136.14434654853
 31
0.0
  0
LINE
  5
3724
330
1F
100
AcDbEntity
  8
1
  6
Continuous
 62
     7
370
    13
100
AcDbLine
 10
18307.56009893841
 20
17777.10434654852
 30
0.0
 11
18307.56009893841
 21
17687.34434654853
 31
0.0
  0
LINE
  5
3725
330
1F
100
AcDbEntity
  8
1
  6
Continuous
 62
     7
370
    13
100
AcDbLine
 10
18307.56009893841
 20
17687.34434654853
 30
0.0
 11
18038.28009893841
 21
17687.34434654853
 31
0.0
  0
LINE
  5
3726
330
1F
100
AcDbEntity
  8
1
  6
Continuous
 62
     7
370
    13
100
AcDbLine
 10
17858.76009893839
 20
14545.74434654852
 30
0.0
 11
18469.12809893841
 21
14545.74434654852
 31
0.0
  0
LINE
  5
3727
330
1F
100
AcDbEntity
  8
1
  6
Continuous
 62
     7
370
    13
100
AcDbLine
 10
18469.12809893841
 20
14545.74434654852
 30
0.0
 11
18469.12809893841
 21
14500.86434654853
 31
0.0
  0
LINE
  5
3728
330
1F
100
AcDbEntity
  8
1
  6
Continuous
 62
     7
370
    13
100
AcDbLine
 10
17858.76009893839
 20
14500.86434654853
 30
0.0
 11
18855.09609894047
 21
14500.86434654853
 31
0.0
  0
LINE
  5
3729
330
1F
100
AcDbEntity
  8
1
  6
Continuous
 62
     7
370
    13
100
AcDbLine
 10
18855.09609894047
 20
14500.86434654853
 30
0.0
 11
18855.09609894047
 21
13962.30434654853
 31
0.0
  0
LINE
  5
372A
330
1F
100
AcDbEntity
  8
1
  6
Continuous
 62
     7
370
    13
100
AcDbLine
 10
18855.09609894047
 20
13962.30434654853
 30
0.0
 11
18765.33609894046
 21
13962.30434654853
 31
0.0
  0
LINE
  5
372B
330
1F
100
AcDbEntity
  8
1
  6
Continuous
 62
     7
370
    13
100
AcDbLine
 10
18765.33609894046
 20
13962.30434654853
 30
0.0
 11
18765.33609894046
 21
14052.06434654853
 31
0.0
  0
LINE
  5
372C
330
1F
100
AcDbEntity
  8
1
  6
Continuous
 62
     7
370
    13
100
AcDbLine
 10
18765.33609894046
 20
14052.06434654853
 30
0.0
 11
17858.76009893839
 21
14052.06434654853
 31
0.0
  0
ARC
  5
372D
330
1F
100
AcDbEntity
  8
1
  6
Continuous
 62
     7
370
    13
100
AcDbCircle
 10
18854.20262789973
 20
13565.7567841489
 30
0.0
 40
777.8186011199999
100
AcDbArc
 50
0.0
 51
90.0
  0
LINE
  5
372E
330
1F
100
AcDbEntity
  8
1
  6
Continuous
 62
     7
370
    13
100
AcDbLine
 10
19484.41023582077
 20
13579.16544710866
 30
0.0
 11
19484.41023582077
 21
12550.81358102844
 31
0.0
  0
LINE
  5
372F
330
1F
100
AcDbEntity
  8
1
  6
Continuous
 62
     7
370
    13
100
AcDbLine
 10
19631.90566302006
 20
13579.16544710866
 30
0.0
 11
19631.90566302006
 21
12420.03317126925
 31
0.0
  0
LINE
  5
3730
330
1F
100
AcDbEntity
  8
1
  6
Continuous
 62
     7
370
    13
100
AcDbLine
 10
19631.90566302006
 20
12351.0600164687
 30
0.0
 11
19631.90566302006
 21
11755.58589326871
 31
0.0
  0
ARC
  5
3731
330
1F
100
AcDbEntity
  8
1
  6
Continuous
 62
     7
370
    13
100
AcDbCircle
 10
18307.56009893841
 20
17245.91947694851
 30
0.0
 40
777.8186011199999
100
AcDbArc
 50
0.0
 51
90.0
  0
LINE
  5
3732
330
1F
100
AcDbEntity
  8
1
  6
Continuous
 62
     7
370
    13
100
AcDbLine
 10
18937.76775173977
 20
17259.32813990827
 30
0.0
 11
18937.76775173977
 21
16171.60954838848
 31
0.0
  0
LINE
  5
3733
330
1F
100
AcDbEntity
  8
1
  6
Continuous
 62
     7
370
    13
100
AcDbLine
 10
19085.26313406083
 20
15971.85593894893
 30
0.0
 11
19085.26313406083
 21
15435.74863094865
 31
0.0
  0
LINE
  5
3734
330
1F
100
AcDbEntity
  8
1
  6
Continuous
 62
     7
370
    13
100
AcDbLine
 10
19085.26313406083
 20
17259.32813990827
 30
0.0
 11
19085.26313406083
 21
16040.81531558906
 31
0.0
  0
LINE
  5
3735
330
1F
100
AcDbEntity
  8
1
  6
DASHDOT
 62
     7
370
    13
100
AcDbLine
 10
15183.91209894049
 20
16071.66434654853
 30
0.0
 11
17858.76009893839
 21
16071.66434654853
 31
0.0
  0
LINE
  5
3736
330
1F
100
AcDbEntity
  8
1
  6
Continuous
 62
     7
370
    13
100
AcDbLine
 10
16261.03209894048
 20
21457.26434654853
 30
0.0
 11
16261.03209894048
 21
10686.07758614851
 31
0.0
  0
LINE
  5
3737
330
1F
100
AcDbEntity
  8
1
  6
Continuous
 62
     7
370
    13
100
AcDbLine
 10
15741.515715179
 20
21234.6144870288
 30
0.0
 11
16261.03209894048
 21
21457.26434654853
 31
0.0
  0
ARC
  5
3738
330
1F
100
AcDbEntity
  8
1
  6
Continuous
 62
     7
370
    13
100
AcDbCircle
 10
15812.2320989405
 20
21069.60953174927
 30
0.0
 40
179.52
100
AcDbArc
 50
113.1985909992947
 51
180.0
  0
LINE
  5
3739
330
1F
100
AcDbEntity
  8
1
  6
Continuous
 62
     7
370
    13
100
AcDbLine
 10
15632.71209894048
 20
11073.7214502285
 30
0.0
 11
15632.71209894048
 21
21069.60953174927
 31
0.0
  0
LINE
  5
373A
330
1F
100
AcDbEntity
  8
1
  6
Continuous
 62
     7
370
    13
100
AcDbLine
 10
16261.03209894048
 20
10686.07758614851
 30
0.0
 11
15741.51863238032
 21
10908.71528318865
 31
0.0
  0
ARC
  5
373B
330
1F
100
AcDbEntity
  8
1
  6
Continuous
 62
     7
370
    13
100
AcDbCircle
 10
15812.2320989405
 20
11073.7214502285
 30
0.0
 40
179.52
100
AcDbArc
 50
180.0
 51
246.8024300006994
  0
ARC
  5
373C
330
1F
100
AcDbEntity
  8
1
  6
Continuous
 62
     7
370
    13
100
AcDbCircle
 10
11141.83874670037
 20
21187.98434654853
 30
0.0
 40
269.28
100
AcDbArc
 50
0.0
 51
90.0
  0
LINE
  5
373D
330
1F
100
AcDbEntity
  8
1
  6
Continuous
 62
     7
370
    13
100
AcDbLine
 10
5397.198746700393
 20
21457.26434654853
 30
0.0
 11
11141.83874670037
 21
21457.26434654853
 31
0.0
  0
ARC
  5
373E
330
1F
100
AcDbEntity
  8
1
  6
Continuous
 62
     7
370
    13
100
AcDbCircle
 10
5397.198746700393
 20
21187.98434654853
 30
0.0
 40
269.28
100
AcDbArc
 50
90.0
 51
180.0
  0
LINE
  5
373F
330
1F
100
AcDbEntity
  8
1
  6
Continuous
 62
     7
370
    13
100
AcDbLine
 10
5127.918746700395
 20
10955.34434654853
 30
0.0
 11
5127.918746700395
 21
21187.98434654853
 31
0.0
  0
ARC
  5
3740
330
1F
100
AcDbEntity
  8
1
  6
Continuous
 62
     7
370
    13
100
AcDbCircle
 10
5397.198746700393
 20
10955.34434654853
 30
0.0
 40
269.28
100
AcDbArc
 50
180.0
 51
270.0
  0
LINE
  5
3741
330
1F
100
AcDbEntity
  8
1
  6
Continuous
 62
     7
370
    13
100
AcDbLine
 10
11141.83874670037
 20
10686.06434654853
 30
0.0
 11
5397.198746700393
 21
10686.06434654853
 31
0.0
  0
LINE
  5
3742
330
1F
100
AcDbEntity
  8
1
  6
Continuous
 62
     7
370
    13
100
AcDbLine
 10
11411.11874670037
 20
21187.98434654853
 30
0.0
 11
11411.11874670037
 21
10955.34434654853
 31
0.0
  0
ARC
  5
3743
330
1F
100
AcDbEntity
  8
1
  6
Continuous
 62
     7
370
    13
100
AcDbCircle
 10
11141.83874670037
 20
10955.34434654853
 30
0.0
 40
269.28
100
AcDbArc
 50
270.0
 51
0.0
  0
LINE
  5
3744
330
1F
100
AcDbEntity
  8
129
  6
Continuous
 62
     7
370
    13
100
AcDbLine
 10
8458.01461205937
 20
20658.40039142887
 30
0.0
 11
8458.01461205937
 21
20550.68830166872
 31
0.0
  0
LINE
  5
3745
330
1F
100
AcDbEntity
  8
129
  6
Continuous
 62
     7
370
    13
100
AcDbLine
 10
8215.662881339317
 20
20793.04039142887
 30
0.0
 11
8323.374612059387
 21
20793.04039142887
 31
0.0
  0
LINE
  5
3746
330
1F
100
AcDbEntity
  8
129
  6
Continuous
 62
     7
370
    13
100
AcDbLine
 10
8215.662881339317
 20
20416.04830166872
 30
0.0
 11
8323.374612059387
 21
20416.04830166872
 31
0.0
  0
LINE
  5
3747
330
1F
100
AcDbEntity
  8
129
  6
Continuous
 62
     7
370
    13
100
AcDbLine
 10
8215.662881339317
 20
20793.04039142887
 30
0.0
 11
8215.662881339317
 21
20703.28039142888
 31
0.0
  0
LINE
  5
3748
330
1F
100
AcDbEntity
  8
129
  6
Continuous
 62
     7
370
    13
100
AcDbLine
 10
8323.374612059387
 20
20505.80830166871
 30
0.0
 11
8323.374612059387
 21
20416.04830166872
 31
0.0
  0
LINE
  5
3749
330
1F
100
AcDbEntity
  8
129
  6
Continuous
 62
     7
370
    13
100
AcDbLine
 10
8215.662881339317
 20
20505.80830166871
 30
0.0
 11
8215.662881339317
 21
20416.04830166872
 31
0.0
  0
LINE
  5
374A
330
1F
100
AcDbEntity
  8
129
  6
Continuous
 62
     7
370
    13
100
AcDbLine
 10
8081.022881339304
 20
20658.40039142887
 30
0.0
 11
8081.022881339304
 21
20550.68830166872
 31
0.0
  0
LINE
  5
374B
330
1F
100
AcDbEntity
  8
129
  6
Continuous
 62
     7
370
    13
100
AcDbLine
 10
8323.374612059387
 20
20793.04039142887
 30
0.0
 11
8323.374612059387
 21
20703.28039142888
 31
0.0
  0
ARC
  5
374C
330
1F
100
AcDbEntity
  8
129
  6
Continuous
 62
     7
370
    13
100
AcDbCircle
 10
8368.254612059391
 20
20505.80830166871
 30
0.0
 40
44.88
100
AcDbArc
 50
90.0
 51
180.0
  0
ARC
  5
374D
330
1F
100
AcDbEntity
  8
129
  6
Continuous
 62
     7
370
    13
100
AcDbCircle
 10
8170.782881339313
 20
20703.28039142888
 30
0.0
 40
44.88
100
AcDbArc
 50
270.0
 51
0.0
  0
ARC
  5
374E
330
1F
100
AcDbEntity
  8
129
  6
Continuous
 62
     7
370
    13
100
AcDbCircle
 10
8368.254612059391
 20
20703.28039142888
 30
0.0
 40
44.88
100
AcDbArc
 50
180.0
 51
270.0
  0
ARC
  5
374F
330
1F
100
AcDbEntity
  8
129
  6
Continuous
 62
     7
370
    13
100
AcDbCircle
 10
8170.782881339313
 20
20505.80830166871
 30
0.0
 40
44.88
100
AcDbArc
 50
0.0
 51
90.0
  0
LINE
  5
3750
330
1F
100
AcDbEntity
  8
129
  6
Continuous
 62
     7
370
    13
100
AcDbLine
 10
8458.01461205937
 20
11592.64039142888
 30
0.0
 11
8458.01461205937
 21
11484.92830166872
 31
0.0
  0
LINE
  5
3751
330
1F
100
AcDbEntity
  8
129
  6
Continuous
 62
     7
370
    13
100
AcDbLine
 10
8215.662881339317
 20
11727.28039142888
 30
0.0
 11
8323.374612059387
 21
11727.28039142888
 31
0.0
  0
LINE
  5
3752
330
1F
100
AcDbEntity
  8
129
  6
Continuous
 62
     7
370
    13
100
AcDbLine
 10
8215.662881339317
 20
11350.28830166872
 30
0.0
 11
8323.374612059387
 21
11350.28830166872
 31
0.0
  0
LINE
  5
3753
330
1F
100
AcDbEntity
  8
129
  6
Continuous
 62
     7
370
    13
100
AcDbLine
 10
8215.662881339317
 20
11727.28039142888
 30
0.0
 11
8215.662881339317
 21
11637.52039142887
 31
0.0
  0
LINE
  5
3754
330
1F
100
AcDbEntity
  8
129
  6
Continuous
 62
     7
370
    13
100
AcDbLine
 10
8323.374612059387
 20
11440.04830166872
 30
0.0
 11
8323.374612059387
 21
11350.28830166872
 31
0.0
  0
LINE
  5
3755
330
1F
100
AcDbEntity
  8
129
  6
Continuous
 62
     7
370
    13
100
AcDbLine
 10
8215.662881339317
 20
11440.04830166872
 30
0.0
 11
8215.662881339317
 21
11350.28830166872
 31
0.0
  0
LINE
  5
3756
330
1F
100
AcDbEntity
  8
129
  6
Continuous
 62
     7
370
    13
100
AcDbLine
 10
8081.022881339304
 20
11592.64039142888
 30
0.0
 11
8081.022881339304
 21
11484.92830166872
 31
0.0
  0
LINE
  5
3757
330
1F
100
AcDbEntity
  8
129
  6
Continuous
 62
     7
370
    13
100
AcDbLine
 10
8323.374612059387
 20
11727.28039142888
 30
0.0
 11
8323.374612059387
 21
11637.52039142887
 31
0.0
  0
ARC
  5
3758
330
1F
100
AcDbEntity
  8
129
  6
Continuous
 62
     7
370
    13
100
AcDbCircle
 10
8368.254612059391
 20
11440.04830166872
 30
0.0
 40
44.88
100
AcDbArc
 50
90.0
 51
180.0
  0
ARC
  5
3759
330
1F
100
AcDbEntity
  8
129
  6
Continuous
 62
     7
370
    13
100
AcDbCircle
 10
8170.782881339313
 20
11637.52039142887
 30
0.0
 40
44.88
100
AcDbArc
 50
270.0
 51
0.0
  0
ARC
  5
375A
330
1F
100
AcDbEntity
  8
129
  6
Continuous
 62
     7
370
    13
100
AcDbCircle
 10
8368.254612059391
 20
11637.52039142887
 30
0.0
 40
44.88
100
AcDbArc
 50
180.0
 51
270.0
  0
ARC
  5
375B
330
1F
100
AcDbEntity
  8
129
  6
Continuous
 62
     7
370
    13
100
AcDbCircle
 10
8170.782881339313
 20
11440.04830166872
 30
0.0
 40
44.88
100
AcDbArc
 50
0.0
 51
90.0
  0
CIRCLE
  5
375C
330
1F
100
AcDbEntity
  8
1
  6
Continuous
 62
     7
370
    13
100
AcDbCircle
 10
8269.51874670037
 20
11538.78434654853
 30
0.0
 40
314.16
  0
CIRCLE
  5
375D
330
1F
100
AcDbEntity
  8
1
  6
Continuous
 62
     7
370
    13
100
AcDbCircle
 10
8269.51874670037
 20
20604.54434654853
 30
0.0
 40
314.16
  0
LINE
  5
375E
330
1F
100
AcDbEntity
  8
129
  6
Continuous
 62
     7
370
    13
100
AcDbLine
 10
7958.994026700645
 20
20658.40039142887
 30
0.0
 11
8170.782881339313
 21
20658.40039142887
 31
0.0
  0
LINE
  5
375F
330
1F
100
AcDbEntity
  8
129
  6
Continuous
 62
     7
370
    13
100
AcDbLine
 10
7960.009436699881
 20
20550.68830166872
 30
0.0
 11
8170.782881339313
 21
20550.68830166872
 31
0.0
  0
LINE
  5
3760
330
1F
100
AcDbEntity
  8
129
  6
Continuous
 62
     7
370
    13
100
AcDbLine
 10
8368.254612059391
 20
20658.40039142887
 30
0.0
 11
8579.028101581236
 21
20658.40039142887
 31
0.0
  0
LINE
  5
3761
330
1F
100
AcDbEntity
  8
129
  6
Continuous
 62
     7
370
    13
100
AcDbLine
 10
8368.254612059391
 20
20550.68830166872
 30
0.0
 11
8579.028101581236
 21
20550.68830166872
 31
0.0
  0
LINE
  5
3762
330
1F
100
AcDbEntity
  8
129
  6
Continuous
 62
     7
370
    13
100
AcDbLine
 10
7958.994026700645
 20
11592.64039142888
 30
0.0
 11
8170.782881339313
 21
11592.64039142888
 31
0.0
  0
LINE
  5
3763
330
1F
100
AcDbEntity
  8
129
  6
Continuous
 62
     7
370
    13
100
AcDbLine
 10
7960.009436699881
 20
11484.92830166872
 30
0.0
 11
8170.782881339313
 21
11484.92830166872
 31
0.0
  0
LINE
  5
3764
330
1F
100
AcDbEntity
  8
129
  6
Continuous
 62
     7
370
    13
100
AcDbLine
 10
8368.254612059391
 20
11592.64039142888
 30
0.0
 11
8579.028101581236
 21
11592.64039142888
 31
0.0
  0
LINE
  5
3765
330
1F
100
AcDbEntity
  8
129
  6
Continuous
 62
     7
370
    13
100
AcDbLine
 10
8368.254612059391
 20
11484.92830166872
 30
0.0
 11
8579.028101581236
 21
11484.92830166872
 31
0.0
  0
ARC
  5
3766
330
1F
100
AcDbEntity
  8
1
  6
DIVIDE
 62
     7
370
    13
100
AcDbCircle
 10
5531.838746700378
 20
11089.98434654853
 30
0.0
 40
134.64
100
AcDbArc
 50
180.0
 51
270.0
  0
LINE
  5
3767
330
1F
100
AcDbEntity
  8
1
  6
DIVIDE
 62
     7
370
    13
100
AcDbLine
 10
5531.838746700378
 20
10955.34434654853
 30
0.0
 11
11007.19874670039
 21
10955.34434654853
 31
0.0
  0
ARC
  5
3768
330
1F
100
AcDbEntity
  8
1
  6
DIVIDE
 62
     7
370
    13
100
AcDbCircle
 10
11007.19874670039
 20
11089.98434654853
 30
0.0
 40
134.64
100
AcDbArc
 50
270.0
 51
0.0
  0
LINE
  5
3769
330
1F
100
AcDbEntity
  8
1
  6
DIVIDE
 62
     7
370
    13
100
AcDbLine
 10
11141.83874670037
 20
11089.98434654853
 30
0.0
 11
11141.83874670037
 21
21053.34434654853
 31
0.0
  0
ARC
  5
376A
330
1F
100
AcDbEntity
  8
1
  6
DIVIDE
 62
     7
370
    13
100
AcDbCircle
 10
11007.19874670039
 20
21053.34434654853
 30
0.0
 40
134.64
100
AcDbArc
 50
0.0
 51
90.0
  0
LINE
  5
376B
330
1F
100
AcDbEntity
  8
1
  6
DIVIDE
 62
     7
370
    13
100
AcDbLine
 10
5397.198746700393
 20
21053.34434654853
 30
0.0
 11
5397.198746700393
 21
11089.98434654853
 31
0.0
  0
LINE
  5
376C
330
1F
100
AcDbEntity
  8
1
  6
DIVIDE
 62
     7
370
    13
100
AcDbLine
 10
11007.19874670039
 20
21187.98434654853
 30
0.0
 11
5531.838746700378
 21
21187.98434654853
 31
0.0
  0
ARC
  5
376D
330
1F
100
AcDbEntity
  8
1
  6
DIVIDE
 62
     7
370
    13
100
AcDbCircle
 10
5531.838746700378
 20
21053.34434654853
 30
0.0
 40
134.64
100
AcDbArc
 50
90.0
 51
180.0
  0
ARC
  5
376E
330
1F
100
AcDbEntity
  8
1
  6
Continuous
 62
     7
370
    13
100
AcDbCircle
 10
19114.79547558058
 20
16148.66971982874
 30
0.0
 40
111.81124944
100
AcDbArc
 50
202.2852589995984
 51
337.7147410004015
  0
ARC
  5
376F
330
1F
100
AcDbEntity
  8
1
  6
Continuous
 62
     7
370
    13
100
AcDbCircle
 10
18907.87596630072
 20
16063.86801734879
 30
0.0
 40
111.81124944
100
AcDbArc
 50
22.28525899959844
 51
157.7147410004015
  0
ARC
  5
3770
330
1F
100
AcDbEntity
  8
1
  6
Continuous
 62
     7
370
    13
100
AcDbCircle
 10
19114.79547558058
 20
16079.69652014889
 30
0.0
 40
111.81124944
100
AcDbArc
 50
202.2852589995984
 51
337.7147410004015
  0
ARC
  5
3771
330
1F
100
AcDbEntity
  8
1
  6
Continuous
 62
     7
370
    13
100
AcDbCircle
 10
18907.87596630072
 20
15994.89486254878
 30
0.0
 40
111.81124944
100
AcDbArc
 50
22.28525899959844
 51
157.7147410004015
  0
ARC
  5
3772
330
1F
100
AcDbEntity
  8
1
  6
Continuous
 62
     7
370
    13
100
AcDbCircle
 10
19661.43800453987
 20
12527.87375246871
 30
0.0
 40
111.81124944
100
AcDbArc
 50
202.2852589995984
 51
337.7147410004015
  0
ARC
  5
3773
330
1F
100
AcDbEntity
  8
1
  6
Continuous
 62
     7
370
    13
100
AcDbCircle
 10
19454.51849525998
 20
12443.07204998875
 30
0.0
 40
111.81124944
100
AcDbArc
 50
22.28525899959844
 51
157.7147410004015
  0
ARC
  5
3774
330
1F
100
AcDbEntity
  8
1
  6
Continuous
 62
     7
370
    13
100
AcDbCircle
 10
19661.43800453987
 20
12458.90059766868
 30
0.0
 40
111.81124944
100
AcDbArc
 50
202.2852589995984
 51
337.7147410004015
  0
ARC
  5
3775
330
1F
100
AcDbEntity
  8
1
  6
Continuous
 62
     7
370
    13
100
AcDbCircle
 10
19454.51849525998
 20
12374.09889518874
 30
0.0
 40
111.81124944
100
AcDbArc
 50
22.28525899959844
 51
157.7147410004015
  0
LINE
  5
3776
330
1F
100
AcDbEntity
  8
1
  6
Continuous
 62
     7
370
    13
100
AcDbLine
 10
18937.76775173977
 20
16102.63634870863
 30
0.0
 11
18937.76775173977
 21
15435.74863094865
 31
0.0
  0
LINE
  5
3777
330
1F
100
AcDbEntity
  8
1
  6
Continuous
 62
     7
370
    13
100
AcDbLine
 10
19011.51542046011
 20
15390.62255390849
 30
0.0
 11
19011.51542046011
 21
15129.01456550885
 31
0.0
  0
ARC
  5
3778
330
1F
100
AcDbEntity
  8
1
  6
Continuous
 62
     7
370
    13
100
AcDbCircle
 10
19011.51542046011
 20
15473.9004906288
 30
0.0
 40
83.03185968000001
100
AcDbArc
 50
207.3538450002074
 51
332.6461549997925
  0
LINE
  5
3779
330
1F
100
AcDbEntity
  8
1
  6
Continuous
 62
     7
370
    13
100
AcDbLine
 10
19484.41023582077
 20
12481.9275383087
 30
0.0
 11
19484.41023582077
 21
11755.58589326871
 31
0.0
  0
LINE
  5
377A
330
1F
100
AcDbEntity
  8
1
  6
Continuous
 62
     7
370
    13
100
AcDbLine
 10
19558.15794941937
 20
11710.45986110888
 30
0.0
 11
19558.15794941937
 21
11448.85182782891
 31
0.0
  0
ARC
  5
377B
330
1F
100
AcDbEntity
  8
1
  6
Continuous
 62
     7
370
    13
100
AcDbCircle
 10
19558.15794941937
 20
11793.73775294884
 30
0.0
 40
83.03185968000001
100
AcDbArc
 50
207.3538450002074
 51
332.6461549997925
  0
ARC
  5
377C
330
1F
100
AcDbEntity
  8
1
  6
Continuous
 62
     7
370
    13
100
AcDbCircle
 10
18294.1514359797
 20
17245.91947694851
 30
0.0
 40
643.75598232
100
AcDbArc
 50
1.193489000131953
 51
88.72696999913825
  0
ARC
  5
377D
330
1F
100
AcDbEntity
  8
1
  6
Continuous
 62
     7
370
    13
100
AcDbCircle
 10
18840.79396494102
 20
13565.7567841489
 30
0.0
 40
643.75598232
100
AcDbArc
 50
1.076349999598875
 51
88.72696999913825
  0
TEXT
  5
377E
330
1F
100
AcDbEntity
  8
1
  6
Continuous
 62
     7
370
    13
100
AcDbText
 10
5198.012290636551
 20
25554.5371119982
 30
0.0
 40
735.5708998221611
  1
ＪＥＭ－Ａユニット(新金プレート)　ＪＥＭ－Ａ－Ｋ
 41
0.75
  7
KANJI
100
AcDbText
  0
LINE
  5
377F
330
1F
100
AcDbEntity
  8
1
  6
Continuous
 62
     7
370
    13
100
AcDbLine
 10
2823.026930598928
 20
25450.02932229654
 30
0.0
 11
3692.738774411417
 21
25450.02932229654
 31
0.0
  0
LINE
  5
3780
330
1F
100
AcDbEntity
  8
1
  6
Continuous
 62
     7
370
    13
100
AcDbLine
 10
2823.026930598928
 20
26353.71888150026
 30
0.0
 11
2823.026930598928
 21
25450.02932229654
 31
0.0
  0
LINE
  5
3781
330
1F
100
AcDbEntity
  8
1
  6
Continuous
 62
     7
370
    13
100
AcDbLine
 10
3692.738774411417
 20
25450.02932229654
 30
0.0
 11
3692.738774411417
 21
26353.71888150026
 31
0.0
  0
LINE
  5
3782
330
1F
100
AcDbEntity
  8
1
  6
Continuous
 62
     7
370
    13
100
AcDbLine
 10
3692.738774411417
 20
26353.71888150026
 30
0.0
 11
2823.026930598928
 21
26353.71888150026
 31
0.0
  0
TEXT
  5
3783
330
1F
100
AcDbEntity
  8
1
  6
Continuous
 62
     7
370
    13
100
AcDbText
 10
2846.692981914035
 20
25656.56995002954
 30
0.0
 40
500.0
  1
ＪＫ
 41
0.7
  7
KANJI
 72
     1
 11
3231.692981914035
 21
26156.56995002954
 31
0.0
100
AcDbText
 73
     3
  0
TEXT
  5
3784
330
1F
100
AcDbEntity
  8
1
  6
Continuous
 62
     7
370
    13
100
AcDbText
 10
4017.003917291331
 20
5167.355939927511
 30
0.0
 40
447.9946116360424
  1
材　質
 41
0.944444
  7
KANJI
100
AcDbText
  0
TEXT
  5
3785
330
1F
100
AcDbEntity
  8
1
  6
Continuous
 62
     7
370
    13
100
AcDbText
 10
4423.91726140763
 20
5829.105212222901
 30
0.0
 40
447.9946116360424
  1
項　目
 41
0.944444
  7
KANJI
100
AcDbText
  0
TEXT
  5
3786
330
1F
100
AcDbEntity
  8
1
  6
Continuous
 62
     7
370
    13
100
AcDbText
 10
13508.24697061352
 20
5829.105212222901
 30
0.0
 40
447.9946116360424
  1
内　容
 41
0.944444
  7
KANJI
100
AcDbText
  0
TEXT
  5
3787
330
1F
100
AcDbEntity
  8
1
  6
Continuous
 62
     7
370
    13
100
AcDbText
 10
4017.003917291331
 20
4536.071439625375
 30
0.0
 40
447.9946116360424
  1
入力電源
 41
0.944444
  7
KANJI
100
AcDbText
  0
TEXT
  5
3788
330
1F
100
AcDbEntity
  8
1
  6
Continuous
 62
     7
370
    13
100
AcDbText
 10
4017.003917291331
 20
3916.186043014182
 30
0.0
 40
447.9946116360424
  1
解錠入力
 41
0.944444
  7
KANJI
100
AcDbText
  0
TEXT
  5
3789
330
1F
100
AcDbEntity
  8
1
  6
Continuous
 62
     7
370
    13
100
AcDbText
 10
6712.890745648045
 20
5167.355939927511
 30
0.0
 40
447.9946116360424
  1
耐食アルミ合金
 41
0.944444
  7
KANJI
100
AcDbText
  0
TEXT
  5
378A
330
1F
100
AcDbEntity
  8
1
  6
Continuous
 62
     7
370
    13
100
AcDbText
 10
6705.203577040848
 20
4536.071439625375
 30
0.0
 40
447.9946116360424
  1
電気錠制御盤から供給
 41
0.944444
  7
KANJI
100
AcDbText
  0
TEXT
  5
378B
330
1F
100
AcDbEntity
  8
1
  6
Continuous
 62
     7
370
    13
100
AcDbText
 10
6705.203577040848
 20
3916.186043014182
 30
0.0
 40
447.9946116360424
  1
無電圧ａ接点瞬時　メイク時解錠
 41
0.75
  7
KANJI
100
AcDbText
  0
TEXT
  5
378C
330
1F
100
AcDbEntity
  8
1
  6
Continuous
 62
     7
370
    13
100
AcDbText
 10
4017.003917291331
 20
3255.667119451143
 30
0.0
 40
447.9946116360424
  1
施錠閉扉出力
 41
0.7
  7
KANJI
100
AcDbText
  0
TEXT
  5
378D
330
1F
100
AcDbEntity
  8
1
  6
Continuous
 62
     7
370
    13
100
AcDbText
 10
6705.203577040848
 20
3255.667119451143
 30
0.0
 40
447.9946116360424
  1
オープンコレクタ　DC24Ｖ 10mA以下
 41
0.944444
  7
KANJI
100
AcDbText
  0
LINE
  5
378E
330
1F
100
AcDbEntity
  8
1
  6
Continuous
 62
     7
370
    13
100
AcDbLine
 10
6500.717988958109
 20
6391.484673415224
 30
0.0
 11
6500.71798895824
 21
2524.793759089894
 31
0.0
  0
LINE
  5
378F
330
1F
100
AcDbEntity
  8
1
  6
Continuous
 62
     7
370
    13
100
AcDbLine
 10
22758.02982681436
 20
6391.484673415151
 30
0.0
 11
22758.02982681449
 21
2524.793759089894
 31
0.0
  0
LINE
  5
3790
330
1F
100
AcDbEntity
  8
1
  6
Continuous
 62
     7
370
    13
100
AcDbLine
 10
3692.656958205807
 20
6391.484673415238
 30
0.0
 11
3692.656958205807
 21
2524.793759089894
 31
0.0
  0
LINE
  5
3791
330
1F
100
AcDbEntity
  8
1
  6
Continuous
 62
     7
370
    13
100
AcDbLine
 10
3692.656958205807
 20
5750.457883672861
 30
0.0
 11
22758.02982681449
 21
5750.457883672861
 31
0.0
  0
LINE
  5
3792
330
1F
100
AcDbEntity
  8
1
  6
Continuous
 62
     7
370
    13
100
AcDbLine
 10
3692.656958205807
 20
5109.431093930499
 30
0.0
 11
22758.02982681449
 21
5109.431093930499
 31
0.0
  0
LINE
  5
3793
330
1F
100
AcDbEntity
  8
1
  6
Continuous
 62
     7
370
    13
100
AcDbLine
 10
3692.656958205807
 20
3176.085636770833
 30
0.0
 11
22758.02982681449
 21
3176.085636767253
 31
0.0
  0
LINE
  5
3794
330
1F
100
AcDbEntity
  8
1
  6
Continuous
 62
     7
370
    13
100
AcDbLine
 10
3692.656958205807
 20
2524.793759089894
 30
0.0
 11
22758.02982681449
 21
2524.793759089894
 31
0.0
  0
LINE
  5
3795
330
1F
100
AcDbEntity
  8
1
  6
Continuous
 62
     7
370
    13
100
AcDbLine
 10
3692.656958205953
 20
3827.377514451248
 30
0.0
 11
22758.02982681463
 21
3827.377514447668
 31
0.0
  0
LINE
  5
3796
330
1F
100
AcDbEntity
  8
1
  6
Continuous
 62
     7
370
    13
100
AcDbLine
 10
3692.656958205807
 20
4478.669392120617
 30
0.0
 11
22758.02982681449
 21
4478.669392120617
 31
0.0
  0
LINE
  5
3797
330
1F
100
AcDbEntity
  8
0
370
    13
100
AcDbLine
 10
3692.656958205807
 20
6391.484673415238
 30
0.0
 11
22758.0298268145
 21
6391.484673415151
 31
0.0
  0
TEXT
  5
3798
330
1F
100
AcDbEntity
  8
1
  6
Continuous
 62
     7
370
    13
100
AcDbText
 10
6705.203577040862
 20
2604.37524178125
 30
0.0
 40
447.9946116360424
  1
※１コ用スイッチボックスに取付可能
 41
0.8
  7
KANJI
100
AcDbText
  0
DIMENSION
  5
3799
330
1F
100
AcDbEntity
  8
1
  6
Continuous
 62
     7
370
    13
100
AcDbDimension
  2
*D118
 10
11411.11874670037
 20
22491.84793518687
 30
0.0
 11
8269.518746700384
 21
22491.84793518687
 31
0.0
 70
   160
  1
70
 71
     5
 42
6283.199999999983
  3
STANDARD
100
AcDbAlignedDimension
 13
5127.918746700395
 23
21187.92184654853
 33
0.0
 14
11411.11874670037
 24
21187.98434654853
 34
0.0
100
AcDbRotatedDimension
1001
ACAD
1000
DSTYLE
1002
{
1070
    41
1040
500.0
1070
    73
1070
     0
1070
    77
1070
     1
1070
   140
1040
400.0
1070
   147
1040
50.0
1070
   173
1070
     1
1070
   343
1005
2B
1070
   344
1005
2B
1002
}
  0
DIMENSION
  5
379A
330
1F
100
AcDbEntity
  8
1
  6
Continuous
 62
     7
370
    13
100
AcDbDimension
  2
*D119
 10
12859.74736508514
 20
10686.06434654853
 30
0.0
 11
12859.74736508514
 21
15937.02434654854
 31
0.0
 70
   160
  1
120
 71
     5
 42
10771.19999999999
  3
STANDARD
100
AcDbAlignedDimension
 13
11141.83874670037
 23
21457.26434654853
 33
0.0
 14
11141.83874670037
 24
10686.06434654853
 34
0.0
 50
270.0
100
AcDbRotatedDimension
1001
ACAD
1000
DSTYLE
1002
{
1070
    41
1040
500.0
1070
    73
1070
     0
1070
    77
1070
     1
1070
   140
1040
400.0
1070
   147
1040
50.0
1070
   173
1070
     1
1070
   343
1005
2B
1070
   344
1005
2B
1002
}
  0
DIMENSION
  5
379B
330
1F
100
AcDbEntity
  8
1
  6
Continuous
 62
     7
370
    13
100
AcDbDimension
  2
*D120
 10
16261.03209894048
 20
22491.84793518687
 30
0.0
 11
17444.36543227382
 21
22491.84793518687
 31
0.0
 70
   160
  1
7
 71
     5
 42
628.3200000000142
  3
STANDARD
100
AcDbAlignedDimension
 13
15632.71209894047
 23
21069.54703174927
 33
0.0
 14
16261.03209894048
 24
21457.26434654853
 34
0.0
100
AcDbRotatedDimension
1001
ACAD
1000
DSTYLE
1002
{
1070
    41
1040
500.0
1070
    73
1070
     0
1070
    77
1070
     1
1070
   140
1040
400.0
1070
   147
1040
50.0
1070
   173
1070
     1
1070
   343
1005
2B
1070
   344
1005
2B
1002
}
  0
DIMENSION
  5
379C
330
1F
100
AcDbEntity
  8
1
  6
Continuous
 62
     7
370
    13
100
AcDbDimension
  2
*D121
 10
18855.09609894047
 20
9514.39301653864
 30
0.0
 11
17558.06409894048
 21
9514.39301653864
 31
0.0
 70
   160
  1
30max
 71
     5
 42
2594.063999999983
  3
STANDARD
100
AcDbAlignedDimension
 13
16261.03209894048
 23
10686.01508614851
 33
0.0
 14
18855.09609894047
 24
13962.30434654853
 34
0.0
100
AcDbRotatedDimension
1001
ACAD
1000
DSTYLE
1002
{
1070
    41
1040
500.0
1070
    73
1070
     0
1070
    77
1070
     1
1070
   140
1040
400.0
1070
   147
1040
50.0
1070
   173
1070
     1
1070
   343
1005
2B
1070
   344
1005
2B
1002
}
  0
ENDSEC
  0
SECTION
  2
OBJECTS
  0
DICTIONARY
  5
C
330
0
100
AcDbDictionary
281
     1
  3
ACAD_GROUP
350
D
  3
ACAD_LAYOUT
350
1A
  3
ACAD_MLINESTYLE
350
17
  3
ACAD_PLOTSETTINGS
350
19
  3
ACAD_PLOTSTYLENAME
350
E
  3
AcDbVariableDictionary
350
339
  0
DICTIONARY
  5
73
330
2
100
AcDbDictionary
280
     1
281
     1
  3
ACAD_LAYERSTATES
360
74
  0
DICTIONARY
  5
2CF6
330
1F
100
AcDbDictionary
280
     1
281
     1
  0
DICTIONARY
  5
2CF4
330
1B
100
AcDbDictionary
280
     1
281
     1
  0
DICTIONARY
  5
D
102
{ACAD_REACTORS
330
C
102
}
330
C
100
AcDbDictionary
281
     1
  0
DICTIONARY
  5
1A
102
{ACAD_REACTORS
330
C
102
}
330
C
100
AcDbDictionary
281
     1
  3
Model
350
2D47
  3
ﾚｲｱｳﾄ1
350
2D48
  0
DICTIONARY
  5
17
102
{ACAD_REACTORS
330
C
102
}
330
C
100
AcDbDictionary
281
     1
  3
STANDARD
350
18
  0
DICTIONARY
  5
19
102
{ACAD_REACTORS
330
C
102
}
330
C
100
AcDbDictionary
281
     1
  0
ACDBDICTIONARYWDFLT
  5
E
102
{ACAD_REACTORS
330
C
102
}
330
C
100
AcDbDictionary
281
     1
  3
Normal
350
F
100
AcDbDictionaryWithDefault
340
F
  0
DICTIONARY
  5
339
102
{ACAD_REACTORS
330
C
102
}
330
C
100
AcDbDictionary
281
     1
  3
DIMASSOC
350
33B
  3
HIDETEXT
350
33A
  0
DICTIONARY
  5
74
102
{ACAD_REACTORS
330
73
102
}
330
73
100
AcDbDictionary
281
     1
  0
LAYOUT
  5
2D47
102
{ACAD_REACTORS
330
1A
102
}
330
1A
100
AcDbPlotSettings
  1

  2
NEC MultiWriter2360/2360N
  4

  6

 40
0.0
 41
0.0
 42
0.0
 43
0.0
 44
0.0
 45
0.0
 46
0.0
 47
0.0
 48
0.0
 49
0.0
140
0.0
141
0.0
142
1.0
143
1.0
 70
  1712
 72
     0
 73
     0
 74
     0
  7

 75
     0
147
1.0
148
0.0
149
0.0
100
AcDbLayout
  1
Model
 70
     1
 71
     0
 10
0.0
 20
0.0
 11
12.0
 21
9.0
 12
0.0
 22
0.0
 32
0.0
 14
0.0
 24
0.0
 34
0.0
 15
0.0
 25
0.0
 35
0.0
146
0.0
 13
0.0
 23
0.0
 33
0.0
 16
1.0
 26
0.0
 36
0.0
 17
0.0
 27
1.0
 37
0.0
 76
     0
330
1F
  0
LAYOUT
  5
2D48
102
{ACAD_REACTORS
330
1A
102
}
330
1A
100
AcDbPlotSettings
  1

  2
NEC MultiWriter2360/2360N
  4

  6

 40
0.0
 41
0.0
 42
0.0
 43
0.0
 44
0.0
 45
0.0
 46
0.0
 47
0.0
 48
0.0
 49
0.0
140
0.0
141
0.0
142
1.0
143
1.0
 70
   688
 72
     0
 73
     0
 74
     5
  7

 75
    16
147
1.0
148
0.0
149
0.0
100
AcDbLayout
  1
ﾚｲｱｳﾄ1
 70
     1
 71
     1
 10
0.0
 20
0.0
 11
420.0
 21
297.0
 12
0.0
 22
0.0
 32
0.0
 14
1.000000000000000E+20
 24
1.000000000000000E+20
 34
1.000000000000000E+20
 15
-1.000000000000000E+20
 25
-1.000000000000000E+20
 35
-1.000000000000000E+20
146
0.0
 13
0.0
 23
0.0
 33
0.0
 16
1.0
 26
0.0
 36
0.0
 17
0.0
 27
1.0
 37
0.0
 76
     0
330
1B
  0
MLINESTYLE
  5
18
102
{ACAD_REACTORS
330
17
102
}
330
17
100
AcDbMlineStyle
  2
STANDARD
 70
     0
  3

 62
   256
 51
90.0
 52
90.0
 71
     2
 49
0.5
 62
   256
  6
BYLAYER
 49
-0.5
 62
   256
  6
BYLAYER
  0
ACDBPLACEHOLDER
  5
F
102
{ACAD_REACTORS
330
E
102
}
330
E
  0
DICTIONARYVAR
  5
33B
102
{ACAD_REACTORS
330
339
102
}
330
339
100
DictionaryVariables
280
     0
  1
2
  0
DICTIONARYVAR
  5
33A
102
{ACAD_REACTORS
330
339
102
}
330
339
100
DictionaryVariables
280
     0
  1
1
  0
ENDSEC
  0
EOF
