  0
SECTION
  2
HEADER
  9
$ACADVER
  1
AC1015
  9
$ACADMAINTVER
 70
    13
  9
$DWGCODEPAGE
  3
ANSI_932
  9
$INSBASE
 10
0.0
 20
0.0
 30
0.0
  9
$EXTMIN
 10
806.4808231764837
 20
513.4049793199519
 30
0.0
  9
$EXTMAX
 10
23386.93849522117
 20
25593.36100411006
 30
0.0
  9
$LIMMIN
 10
0.0
 20
0.0
  9
$LIMMAX
 10
420.0
 20
297.0
  9
$ORTHOMODE
 70
     0
  9
$REGENMODE
 70
     1
  9
$FILLMODE
 70
     1
  9
$QTEXTMODE
 70
     0
  9
$MIRRTEXT
 70
     1
  9
$LTSCALE
 40
1.0
  9
$ATTMODE
 70
     1
  9
$TEXTSIZE
 40
2.5
  9
$TRACEWID
 40
1.0
  9
$TEXTSTYLE
  7
Standard
  9
$CLAYER
  8
0
  9
$CELTYPE
  6
ByLayer
  9
$CECOLOR
 62
   256
  9
$CELTSCALE
 40
1.0
  9
$DISPSILH
 70
     0
  9
$DIMSCALE
 40
1.0
  9
$DIMASZ
 40
2.5
  9
$DIMEXO
 40
0.625
  9
$DIMDLI
 40
3.75
  9
$DIMRND
 40
0.0
  9
$DIMDLE
 40
0.0
  9
$DIMEXE
 40
1.25
  9
$DIMTP
 40
0.0
  9
$DIMTM
 40
0.0
  9
$DIMTXT
 40
2.5
  9
$DIMCEN
 40
2.5
  9
$DIMTSZ
 40
0.0
  9
$DIMTOL
 70
     0
  9
$DIMLIM
 70
     0
  9
$DIMTIH
 70
     0
  9
$DIMTOH
 70
     0
  9
$DIMSE1
 70
     0
  9
$DIMSE2
 70
     0
  9
$DIMTAD
 70
     1
  9
$DIMZIN
 70
     8
  9
$DIMBLK
  1

  9
$DIMASO
 70
     1
  9
$DIMSHO
 70
     1
  9
$DIMPOST
  1

  9
$DIMAPOST
  1

  9
$DIMALT
 70
     0
  9
$DIMALTD
 70
     3
  9
$DIMALTF
 40
0.03937007874016
  9
$DIMLFAC
 40
1.0
  9
$DIMTOFL
 70
     1
  9
$DIMTVP
 40
0.0
  9
$DIMTIX
 70
     0
  9
$DIMSOXD
 70
     0
  9
$DIMSAH
 70
     0
  9
$DIMBLK1
  1

  9
$DIMBLK2
  1

  9
$DIMSTYLE
  2
ISO-25
  9
$DIMCLRD
 70
     0
  9
$DIMCLRE
 70
     0
  9
$DIMCLRT
 70
     0
  9
$DIMTFAC
 40
1.0
  9
$DIMGAP
 40
0.625
  9
$DIMJUST
 70
     0
  9
$DIMSD1
 70
     0
  9
$DIMSD2
 70
     0
  9
$DIMTOLJ
 70
     0
  9
$DIMTZIN
 70
     8
  9
$DIMALTZ
 70
     0
  9
$DIMALTTZ
 70
     0
  9
$DIMUPT
 70
     0
  9
$DIMDEC
 70
     2
  9
$DIMTDEC
 70
     2
  9
$DIMALTU
 70
     2
  9
$DIMALTTD
 70
     3
  9
$DIMTXSTY
  7
Standard
  9
$DIMAUNIT
 70
     0
  9
$DIMADEC
 70
     0
  9
$DIMALTRND
 40
0.0
  9
$DIMAZIN
 70
     0
  9
$DIMDSEP
 70
    46
  9
$DIMATFIT
 70
     3
  9
$DIMFRAC
 70
     0
  9
$DIMLDRBLK
  1

  9
$DIMLUNIT
 70
     2
  9
$DIMLWD
 70
    -2
  9
$DIMLWE
 70
    -2
  9
$DIMTMOVE
 70
     0
  9
$LUNITS
 70
     2
  9
$LUPREC
 70
     4
  9
$SKETCHINC
 40
1.0
  9
$FILLETRAD
 40
10.0
  9
$AUNITS
 70
     0
  9
$AUPREC
 70
     0
  9
$MENU
  1
.
  9
$ELEVATION
 40
0.0
  9
$PELEVATION
 40
0.0
  9
$THICKNESS
 40
0.0
  9
$LIMCHECK
 70
     0
  9
$CHAMFERA
 40
10.0
  9
$CHAMFERB
 40
10.0
  9
$CHAMFERC
 40
20.0
  9
$CHAMFERD
 40
0.0
  9
$SKPOLY
 70
     0
  9
$TDCREATE
 40
2455236.659162499
  9
$TDUCREATE
 40
2455236.284162499
  9
$TDUPDATE
 40
2455450.584667894
  9
$TDUUPDATE
 40
2455450.209667893
  9
$TDINDWG
 40
0.0056302315
  9
$TDUSRTIMER
 40
0.0056300463
  9
$USRTIMER
 70
     1
  9
$ANGBASE
 50
0.0
  9
$ANGDIR
 70
     0
  9
$PDMODE
 70
     0
  9
$PDSIZE
 40
0.0
  9
$PLINEWID
 40
0.0
  9
$SPLFRAME
 70
     0
  9
$SPLINETYPE
 70
     6
  9
$SPLINESEGS
 70
     8
  9
$HANDSEED
  5
1AF0
  9
$SURFTAB1
 70
     6
  9
$SURFTAB2
 70
     6
  9
$SURFTYPE
 70
     6
  9
$SURFU
 70
     6
  9
$SURFV
 70
     6
  9
$UCSBASE
  2

  9
$UCSNAME
  2

  9
$UCSORG
 10
0.0
 20
0.0
 30
0.0
  9
$UCSXDIR
 10
1.0
 20
0.0
 30
0.0
  9
$UCSYDIR
 10
0.0
 20
1.0
 30
0.0
  9
$UCSORTHOREF
  2

  9
$UCSORTHOVIEW
 70
     0
  9
$UCSORGTOP
 10
0.0
 20
0.0
 30
0.0
  9
$UCSORGBOTTOM
 10
0.0
 20
0.0
 30
0.0
  9
$UCSORGLEFT
 10
0.0
 20
0.0
 30
0.0
  9
$UCSORGRIGHT
 10
0.0
 20
0.0
 30
0.0
  9
$UCSORGFRONT
 10
0.0
 20
0.0
 30
0.0
  9
$UCSORGBACK
 10
0.0
 20
0.0
 30
0.0
  9
$PUCSBASE
  2

  9
$PUCSNAME
  2

  9
$PUCSORG
 10
0.0
 20
0.0
 30
0.0
  9
$PUCSXDIR
 10
1.0
 20
0.0
 30
0.0
  9
$PUCSYDIR
 10
0.0
 20
1.0
 30
0.0
  9
$PUCSORTHOREF
  2

  9
$PUCSORTHOVIEW
 70
     0
  9
$PUCSORGTOP
 10
0.0
 20
0.0
 30
0.0
  9
$PUCSORGBOTTOM
 10
0.0
 20
0.0
 30
0.0
  9
$PUCSORGLEFT
 10
0.0
 20
0.0
 30
0.0
  9
$PUCSORGRIGHT
 10
0.0
 20
0.0
 30
0.0
  9
$PUCSORGFRONT
 10
0.0
 20
0.0
 30
0.0
  9
$PUCSORGBACK
 10
0.0
 20
0.0
 30
0.0
  9
$USERI1
 70
     0
  9
$USERI2
 70
     0
  9
$USERI3
 70
     0
  9
$USERI4
 70
     0
  9
$USERI5
 70
     0
  9
$USERR1
 40
0.0
  9
$USERR2
 40
0.0
  9
$USERR3
 40
0.0
  9
$USERR4
 40
0.0
  9
$USERR5
 40
0.0
  9
$WORLDVIEW
 70
     1
  9
$SHADEDGE
 70
     3
  9
$SHADEDIF
 70
    70
  9
$TILEMODE
 70
     1
  9
$MAXACTVP
 70
    64
  9
$PINSBASE
 10
0.0
 20
0.0
 30
0.0
  9
$PLIMCHECK
 70
     0
  9
$PEXTMIN
 10
1.000000000000000E+20
 20
1.000000000000000E+20
 30
1.000000000000000E+20
  9
$PEXTMAX
 10
-1.000000000000000E+20
 20
-1.000000000000000E+20
 30
-1.000000000000000E+20
  9
$PLIMMIN
 10
0.0
 20
0.0
  9
$PLIMMAX
 10
420.0
 20
297.0
  9
$UNITMODE
 70
     0
  9
$VISRETAIN
 70
     1
  9
$PLINEGEN
 70
     0
  9
$PSLTSCALE
 70
     1
  9
$TREEDEPTH
 70
  3020
  9
$CMLSTYLE
  2
Standard
  9
$CMLJUST
 70
     0
  9
$CMLSCALE
 40
20.0
  9
$PROXYGRAPHICS
 70
     1
  9
$MEASUREMENT
 70
     1
  9
$CELWEIGHT
370
    -1
  9
$ENDCAPS
280
     0
  9
$JOINSTYLE
280
     0
  9
$LWDISPLAY
290
     0
  9
$INSUNITS
 70
     4
  9
$HYPERLINKBASE
  1

  9
$STYLESHEET
  1

  9
$XEDIT
290
     1
  9
$CEPSNTYPE
380
     0
  9
$PSTYLEMODE
290
     1
  9
$FINGERPRINTGUID
  2
{9F70917D-061E-40C1-9485-7AD4368FB371}
  9
$VERSIONGUID
  2
{F1273B54-8895-4CEF-9224-4899DC3610A1}
  9
$EXTNAMES
290
     1
  9
$PSVPSCALE
 40
0.0
  9
$OLESTARTUP
290
     0
  0
ENDSEC
  0
SECTION
  2
CLASSES
  0
CLASS
  1
ACDBDICTIONARYWDFLT
  2
AcDbDictionaryWithDefault
  3
AutoCAD 2000
 90
        0
280
     0
281
     0
  0
CLASS
  1
ACDBPLACEHOLDER
  2
AcDbPlaceHolder
  3
AutoCAD 2000
 90
        0
280
     0
281
     0
  0
CLASS
  1
LAYOUT
  2
AcDbLayout
  3
AutoCAD 2000
 90
        0
280
     0
281
     0
  0
CLASS
  1
DICTIONARYVAR
  2
AcDbDictionaryVar
  3
AutoCAD 2000
 90
        0
280
     0
281
     0
  0
ENDSEC
  0
SECTION
  2
TABLES
  0
TABLE
  2
VPORT
  5
8
330
0
100
AcDbSymbolTable
 70
     2
  0
VPORT
  5
1AEF
330
8
100
AcDbSymbolTableRecord
100
AcDbViewportTableRecord
  2
*Active
 70
     0
 10
0.0
 20
0.0
 11
1.0
 21
1.0
 12
23873.71749916157
 22
7885.685738214684
 13
0.0
 23
0.0
 14
10.0
 24
10.0
 15
10.0
 25
10.0
 16
0.0
 26
0.0
 36
1.0
 17
0.0
 27
0.0
 37
0.0
 40
47051.53080622976
 41
1.397101449275362
 42
50.0
 43
0.0
 44
0.0
 50
0.0
 51
0.0
 71
     0
 72
   100
 73
     1
 74
     3
 75
     0
 76
     0
 77
     0
 78
     0
281
     0
 65
     1
110
0.0
120
0.0
130
0.0
111
1.0
121
0.0
131
0.0
112
0.0
122
1.0
132
0.0
 79
     0
146
0.0
  0
ENDTAB
  0
TABLE
  2
LTYPE
  5
5
330
0
100
AcDbSymbolTable
 70
     3
  0
LTYPE
  5
14
330
5
100
AcDbSymbolTableRecord
100
AcDbLinetypeTableRecord
  2
ByBlock
 70
     0
  3

 72
    65
 73
     0
 40
0.0
  0
LTYPE
  5
15
330
5
100
AcDbSymbolTableRecord
100
AcDbLinetypeTableRecord
  2
ByLayer
 70
     0
  3

 72
    65
 73
     0
 40
0.0
  0
LTYPE
  5
16
330
5
100
AcDbSymbolTableRecord
100
AcDbLinetypeTableRecord
  2
Continuous
 70
     0
  3
Solid line
 72
    65
 73
     0
 40
0.0
  0
LTYPE
  5
1294
330
5
100
AcDbSymbolTableRecord
100
AcDbLinetypeTableRecord
  2
HIDDEN
 70
     0
  3
------------------------
 72
    65
 73
     2
 40
12.6
 49
8.4
 74
     0
 49
-4.2
 74
     0
  0
LTYPE
  5
1878
330
5
100
AcDbSymbolTableRecord
100
AcDbLinetypeTableRecord
  2
DASHDOT
 70
     0
  3
--･--･--･--･--･--･--･--
 72
    65
 73
     4
 40
50.5
 49
30.0
 74
     0
 49
-9.0
 74
     0
 49
2.5
 74
     0
 49
-9.0
 74
     0
  0
ENDTAB
  0
TABLE
  2
LAYER
  5
2
102
{ACAD_XDICTIONARY
360
5A
102
}
330
0
100
AcDbSymbolTable
 70
     3
  0
LAYER
  5
10
330
2
100
AcDbSymbolTableRecord
100
AcDbLayerTableRecord
  2
0
 70
     0
 62
     7
  6
Continuous
370
    -3
390
F
  0
LAYER
  5
55
330
2
100
AcDbSymbolTableRecord
100
AcDbLayerTableRecord
  2
1
 70
     0
 62
     7
  6
Continuous
370
    -3
390
F
  0
LAYER
  5
56
330
2
100
AcDbSymbolTableRecord
100
AcDbLayerTableRecord
  2
DEFPOINTS
 70
     0
 62
     7
  6
Continuous
290
     0
370
    -3
390
F
  0
ENDTAB
  0
TABLE
  2
STYLE
  5
3
330
0
100
AcDbSymbolTable
 70
     2
  0
STYLE
  5
11
330
3
100
AcDbSymbolTableRecord
100
AcDbTextStyleTableRecord
  2
Standard
 70
     0
 40
0.0
 41
1.0
 50
0.0
 71
     0
 42
2.5
  3
txt
  4

  0
STYLE
  5
57
330
3
100
AcDbSymbolTableRecord
100
AcDbTextStyleTableRecord
  2
KANJI
 70
     0
 40
0.0
 41
1.0
 50
0.0
 71
     0
 42
0.2
  3
TXT
  4
BIGFONT
  0
ENDTAB
  0
TABLE
  2
VIEW
  5
6
330
0
100
AcDbSymbolTable
 70
     0
  0
ENDTAB
  0
TABLE
  2
UCS
  5
7
330
0
100
AcDbSymbolTable
 70
     0
  0
ENDTAB
  0
TABLE
  2
APPID
  5
9
330
0
100
AcDbSymbolTable
 70
     2
  0
APPID
  5
12
330
9
100
AcDbSymbolTableRecord
100
AcDbRegAppTableRecord
  2
ACAD
 70
     0
  0
APPID
  5
59
330
9
100
AcDbSymbolTableRecord
100
AcDbRegAppTableRecord
  2
ACAD_PSEXT
 70
     0
  0
ENDTAB
  0
TABLE
  2
DIMSTYLE
  5
A
330
0
100
AcDbSymbolTable
 70
     2
100
AcDbDimStyleTable
 71
     0
  0
DIMSTYLE
105
27
330
A
100
AcDbSymbolTableRecord
100
AcDbDimStyleTableRecord
  2
ISO-25
 70
     0
 41
2.5
 42
0.625
 43
3.75
 44
1.25
 73
     0
 74
     0
 77
     1
 78
     8
140
2.5
141
2.5
143
0.03937007874016
147
0.625
171
     3
172
     1
271
     2
272
     2
274
     3
283
     0
284
     8
340
11
  0
DIMSTYLE
105
58
102
{ACAD_REACTORS
330
1A50
330
1A51
330
1A52
330
1A53
330
1A54
102
}
330
A
100
AcDbSymbolTableRecord
100
AcDbDimStyleTableRecord
  2
Standard
 70
     0
340
11
  0
ENDTAB
  0
TABLE
  2
BLOCK_RECORD
  5
1
330
0
100
AcDbSymbolTable
 70
    27
  0
BLOCK_RECORD
  5
1F
330
1
100
AcDbSymbolTableRecord
100
AcDbBlockTableRecord
  2
*Model_Space
340
22
  0
BLOCK_RECORD
  5
1B
330
1
100
AcDbSymbolTableRecord
100
AcDbBlockTableRecord
  2
*Paper_Space
340
1E
  0
BLOCK_RECORD
  5
23
330
1
100
AcDbSymbolTableRecord
100
AcDbBlockTableRecord
  2
*Paper_Space0
340
26
  0
BLOCK_RECORD
  5
2B
330
1
100
AcDbSymbolTableRecord
100
AcDbBlockTableRecord
  2
_OPEN30
340
0
102
{BLKREFS
331
1253
331
1254
331
125C
331
125D
331
1265
331
1266
331
1274
331
1275
331
1280
331
1281
331
128C
331
128D
331
1560
331
1561
331
1569
331
156A
331
1572
331
1573
331
157D
331
157E
331
1589
331
158A
331
1595
331
1596
331
1822
331
1823
331
182B
331
182C
331
1834
331
1835
331
183F
331
1840
331
184B
331
184C
331
1858
331
1859
331
1864
331
1865
331
1870
331
1871
331
1ABF
331
1AC0
331
1AC8
331
1AC9
331
1AD2
331
1AD3
331
1ADB
331
1ADC
331
1AE4
331
1AE5
102
}
  0
BLOCK_RECORD
  5
1A7F
330
1
100
AcDbSymbolTableRecord
100
AcDbBlockTableRecord
  2
*D22
340
0
  0
BLOCK_RECORD
  5
1A8B
330
1
100
AcDbSymbolTableRecord
100
AcDbBlockTableRecord
  2
*D23
340
0
  0
BLOCK_RECORD
  5
1A97
330
1
100
AcDbSymbolTableRecord
100
AcDbBlockTableRecord
  2
*D24
340
0
  0
BLOCK_RECORD
  5
1AA4
330
1
100
AcDbSymbolTableRecord
100
AcDbBlockTableRecord
  2
*D25
340
0
  0
BLOCK_RECORD
  5
1AB0
330
1
100
AcDbSymbolTableRecord
100
AcDbBlockTableRecord
  2
*D26
340
0
  0
ENDTAB
  0
ENDSEC
  0
SECTION
  2
BLOCKS
  0
BLOCK
  5
20
330
1F
100
AcDbEntity
  8
0
100
AcDbBlockBegin
  2
*Model_Space
 70
     0
 10
0.0
 20
0.0
 30
0.0
  3
*Model_Space
  1

  0
ENDBLK
  5
21
330
1F
100
AcDbEntity
  8
0
100
AcDbBlockEnd
  0
BLOCK
  5
1C
330
1B
100
AcDbEntity
 67
     1
  8
0
100
AcDbBlockBegin
  2
*Paper_Space
 70
     0
 10
0.0
 20
0.0
 30
0.0
  3
*Paper_Space
  1

  0
ENDBLK
  5
1D
330
1B
100
AcDbEntity
 67
     1
  8
0
100
AcDbBlockEnd
  0
BLOCK
  5
24
330
23
100
AcDbEntity
  8
0
100
AcDbBlockBegin
  2
*Paper_Space0
 70
     0
 10
0.0
 20
0.0
 30
0.0
  3
*Paper_Space0
  1

  0
ENDBLK
  5
25
330
23
100
AcDbEntity
  8
0
100
AcDbBlockEnd
  0
BLOCK
  5
2F
330
2B
100
AcDbEntity
  8
0
 62
     0
100
AcDbBlockBegin
  2
_OPEN30
 70
     2
 10
0.0
 20
0.0
 30
0.0
  3
_OPEN30
  1

  0
LINE
  5
2C
330
2B
100
AcDbEntity
  8
0
  6
ByBlock
 62
     0
100
AcDbLine
 10
-1.0
 20
0.267949
 30
0.0
 11
0.0
 21
0.0
 31
0.0
  0
LINE
  5
2D
330
2B
100
AcDbEntity
  8
0
  6
ByBlock
 62
     0
100
AcDbLine
 10
0.0
 20
0.0
 30
0.0
 11
-1.0
 21
-0.267949
 31
0.0
  0
LINE
  5
2E
330
2B
100
AcDbEntity
  8
0
  6
ByBlock
 62
     0
100
AcDbLine
 10
0.0
 20
0.0
 30
0.0
 11
-1.0
 21
0.0
 31
0.0
  0
ENDBLK
  5
30
330
2B
100
AcDbEntity
  8
0
 62
     0
100
AcDbBlockEnd
  0
BLOCK
  5
1A89
330
1A7F
100
AcDbEntity
  8
0
100
AcDbBlockBegin
  2
*D22
 70
     1
 10
0.0
 20
0.0
 30
0.0
  3
*D22
  1

  0
LINE
  5
1ABC
330
1A7F
100
AcDbEntity
  8
1
  6
Continuous
 62
     0
370
    13
100
AcDbLine
 10
4728.217274529394
 20
18577.29265564179
 30
0.0
 11
4728.217274529394
 21
20300.50922299853
 31
0.0
  0
LINE
  5
1ABD
330
1A7F
100
AcDbEntity
  8
1
  6
Continuous
 62
     0
370
    13
100
AcDbLine
 10
12297.68365314937
 20
18577.29265564179
 30
0.0
 11
12297.68365314937
 21
20300.50922299853
 31
0.0
  0
LINE
  5
1ABE
330
1A7F
100
AcDbEntity
  8
1
  6
Continuous
 62
     0
370
    13
100
AcDbLine
 10
5228.217274529394
 20
20300.32922299854
 30
0.0
 11
11797.68365314937
 21
20300.32922299854
 31
0.0
  0
INSERT
  5
1ABF
330
1A7F
100
AcDbEntity
  8
1
  6
Continuous
 62
     0
370
    13
100
AcDbBlockReference
  2
_OPEN30
 10
4728.217274529394
 20
20300.32922299854
 30
0.0
 41
500.0
 42
500.0
 43
500.0
 50
180.0
  0
INSERT
  5
1AC0
330
1A7F
100
AcDbEntity
  8
1
  6
Continuous
 62
     0
370
    13
100
AcDbBlockReference
  2
_OPEN30
 10
12297.68365314937
 20
20300.32922299854
 30
0.0
 41
500.0
 42
500.0
 43
500.0
  0
MTEXT
  5
1AC1
330
1A7F
100
AcDbEntity
  8
1
  6
Continuous
 62
     0
370
    13
100
AcDbMText
 10
8512.950463839386
 20
20550.32922299854
 30
0.0
 40
400.0
 41
0.0
 71
     5
 72
     1
  1
\A1;116
 73
     1
 44
1.0
  0
POINT
  5
1AC2
330
1A7F
100
AcDbEntity
  8
DEFPOINTS
  6
Continuous
 62
     0
100
AcDbPoint
 10
4728.217274529394
 20
18527.29265564179
 30
0.0
  0
POINT
  5
1AC3
330
1A7F
100
AcDbEntity
  8
DEFPOINTS
  6
Continuous
 62
     0
100
AcDbPoint
 10
12297.68365314937
 20
18527.29265564179
 30
0.0
  0
POINT
  5
1AC4
330
1A7F
100
AcDbEntity
  8
DEFPOINTS
  6
Continuous
 62
     0
100
AcDbPoint
 10
12297.68365314937
 20
20300.32922299854
 30
0.0
  0
ENDBLK
  5
1A8A
330
1A7F
100
AcDbEntity
  8
0
100
AcDbBlockEnd
  0
BLOCK
  5
1A95
330
1A8B
100
AcDbEntity
  8
0
100
AcDbBlockBegin
  2
*D23
 70
     1
 10
0.0
 20
0.0
 30
0.0
  3
*D23
  1

  0
LINE
  5
1AC5
330
1A8B
100
AcDbEntity
  8
1
  6
Continuous
 62
     0
370
    13
100
AcDbLine
 10
11890.90550961197
 20
18984.07079917912
 30
0.0
 11
13575.46050540776
 21
18984.07079917912
 31
0.0
  0
LINE
  5
1AC6
330
1A8B
100
AcDbEntity
  8
1
  6
Continuous
 62
     0
370
    13
100
AcDbLine
 10
11890.90550961197
 20
11153.58833853782
 30
0.0
 11
13575.46050540776
 21
11153.58833853782
 31
0.0
  0
LINE
  5
1AC7
330
1A8B
100
AcDbEntity
  8
1
  6
Continuous
 62
     0
370
    13
100
AcDbLine
 10
13575.28050540776
 20
18484.07079917912
 30
0.0
 11
13575.28050540776
 21
11653.58833853782
 31
0.0
  0
INSERT
  5
1AC8
330
1A8B
100
AcDbEntity
  8
1
  6
Continuous
 62
     0
370
    13
100
AcDbBlockReference
  2
_OPEN30
 10
13575.28050540776
 20
18984.07079917912
 30
0.0
 41
500.0
 42
500.0
 43
500.0
 50
90.0
  0
INSERT
  5
1AC9
330
1A8B
100
AcDbEntity
  8
1
  6
Continuous
 62
     0
370
    13
100
AcDbBlockReference
  2
_OPEN30
 10
13575.28050540776
 20
11153.58833853782
 30
0.0
 41
500.0
 42
500.0
 43
500.0
 50
270.0
  0
MTEXT
  5
1ACA
330
1A8B
100
AcDbEntity
  8
1
  6
Continuous
 62
     0
370
    13
100
AcDbMText
 10
13325.28050540776
 20
15068.82956885848
 30
0.0
 40
400.0
 41
0.0
 71
     5
 72
     1
  1
\A1;120
 11
0.0000000000000001
 21
1.0
 31
0.0
 73
     1
 44
1.0
  0
POINT
  5
1ACB
330
1A8B
100
AcDbEntity
  8
DEFPOINTS
  6
Continuous
 62
     0
100
AcDbPoint
 10
11840.90550961196
 20
18984.07079917912
 30
0.0
  0
POINT
  5
1ACC
330
1A8B
100
AcDbEntity
  8
DEFPOINTS
  6
Continuous
 62
     0
100
AcDbPoint
 10
11840.90550961196
 20
11153.58833853782
 30
0.0
  0
POINT
  5
1ACD
330
1A8B
100
AcDbEntity
  8
DEFPOINTS
  6
Continuous
 62
     0
100
AcDbPoint
 10
13575.28050540776
 20
11153.58833853782
 30
0.0
  0
ENDBLK
  5
1A96
330
1A8B
100
AcDbEntity
  8
0
100
AcDbBlockEnd
  0
BLOCK
  5
1AA2
330
1A97
100
AcDbEntity
  8
0
100
AcDbBlockBegin
  2
*D24
 70
     1
 10
0.0
 20
0.0
 30
0.0
  3
*D24
  1

  0
LINE
  5
1ACE
330
1A97
100
AcDbEntity
  8
1
  6
Continuous
 62
     0
370
    13
100
AcDbLine
 10
17537.58149972857
 20
18125.28347168347
 30
0.0
 11
17537.58149972857
 21
20300.50922299853
 31
0.0
  0
LINE
  5
1ACF
330
1A97
100
AcDbEntity
  8
1
  6
Continuous
 62
     0
370
    13
100
AcDbLine
 10
18105.29147812498
 20
19295.08746848658
 30
0.0
 11
18105.29147812498
 21
20300.50922299853
 31
0.0
  0
LINE
  5
1AD0
330
1A97
100
AcDbEntity
  8
1
  6
Continuous
 62
     0
370
    13
100
AcDbLine
 10
18605.29147812498
 20
20300.32922299854
 30
0.0
 11
19105.29147812498
 21
20300.32922299854
 31
0.0
  0
LINE
  5
1AD1
330
1A97
100
AcDbEntity
  8
1
  6
Continuous
 62
     0
370
    13
100
AcDbLine
 10
17037.58149972857
 20
20300.32922299854
 30
0.0
 11
15492.58149972857
 21
20300.32922299854
 31
0.0
  0
INSERT
  5
1AD2
330
1A97
100
AcDbEntity
  8
1
  6
Continuous
 62
     0
370
    13
100
AcDbBlockReference
  2
_OPEN30
 10
18105.29147812498
 20
20300.32922299854
 30
0.0
 41
500.0
 42
500.0
 43
500.0
 50
180.0
  0
INSERT
  5
1AD3
330
1A97
100
AcDbEntity
  8
1
  6
Continuous
 62
     0
370
    13
100
AcDbBlockReference
  2
_OPEN30
 10
17537.58149972857
 20
20300.32922299854
 30
0.0
 41
500.0
 42
500.0
 43
500.0
  0
MTEXT
  5
1AD4
330
1A97
100
AcDbEntity
  8
1
  6
Continuous
 62
     0
370
    13
100
AcDbMText
 10
15942.58149972857
 20
20550.32922299854
 30
0.0
 40
400.0
 41
0.0
 71
     5
 72
     1
  1
\A1;8.8
 73
     1
 44
1.0
  0
POINT
  5
1AD5
330
1A97
100
AcDbEntity
  8
DEFPOINTS
  6
Continuous
 62
     0
100
AcDbPoint
 10
17537.58149972857
 20
18075.28347168347
 30
0.0
  0
POINT
  5
1AD6
330
1A97
100
AcDbEntity
  8
DEFPOINTS
  6
Continuous
 62
     0
100
AcDbPoint
 10
18105.29147812498
 20
19245.08746848658
 30
0.0
  0
POINT
  5
1AD7
330
1A97
100
AcDbEntity
  8
DEFPOINTS
  6
Continuous
 62
     0
100
AcDbPoint
 10
18105.29147812498
 20
20300.32922299854
 30
0.0
  0
ENDBLK
  5
1AA3
330
1A97
100
AcDbEntity
  8
0
100
AcDbBlockEnd
  0
BLOCK
  5
1AAE
330
1AA4
100
AcDbEntity
  8
0
100
AcDbBlockBegin
  2
*D25
 70
     1
 10
0.0
 20
0.0
 30
0.0
  3
*D25
  1

  0
LINE
  5
1AD8
330
1AA4
100
AcDbEntity
  8
1
  6
Continuous
 62
     0
370
    13
100
AcDbLine
 10
18155.291478125
 20
17320.09327629288
 30
0.0
 11
22150.64423018591
 21
17320.09327629288
 31
0.0
  0
LINE
  5
1AD9
330
1AA4
100
AcDbEntity
  8
1
  6
Continuous
 62
     0
370
    13
100
AcDbLine
 10
18155.291478125
 20
12817.56586142408
 30
0.0
 11
22150.64423018591
 21
12817.56586142408
 31
0.0
  0
LINE
  5
1ADA
330
1AA4
100
AcDbEntity
  8
1
  6
Continuous
 62
     0
370
    13
100
AcDbLine
 10
22150.46423018591
 20
16820.09327629288
 30
0.0
 11
22150.46423018591
 21
13317.56586142408
 31
0.0
  0
INSERT
  5
1ADB
330
1AA4
100
AcDbEntity
  8
1
  6
Continuous
 62
     0
370
    13
100
AcDbBlockReference
  2
_OPEN30
 10
22150.46423018591
 20
17320.09327629288
 30
0.0
 41
500.0
 42
500.0
 43
500.0
 50
90.0
  0
INSERT
  5
1ADC
330
1AA4
100
AcDbEntity
  8
1
  6
Continuous
 62
     0
370
    13
100
AcDbBlockReference
  2
_OPEN30
 10
22150.46423018591
 20
12817.56586142408
 30
0.0
 41
500.0
 42
500.0
 43
500.0
 50
270.0
  0
MTEXT
  5
1ADD
330
1AA4
100
AcDbEntity
  8
1
  6
Continuous
 62
     0
370
    13
100
AcDbMText
 10
21900.4642301859
 20
15068.82956885848
 30
0.0
 40
400.0
 41
0.0
 71
     5
 72
     1
  1
\A1;69
 11
0.0000000000000001
 21
1.0
 31
0.0
 73
     1
 44
1.0
  0
POINT
  5
1ADE
330
1AA4
100
AcDbEntity
  8
DEFPOINTS
  6
Continuous
 62
     0
100
AcDbPoint
 10
18105.291478125
 20
17320.09327629288
 30
0.0
  0
POINT
  5
1ADF
330
1AA4
100
AcDbEntity
  8
DEFPOINTS
  6
Continuous
 62
     0
100
AcDbPoint
 10
18105.291478125
 20
12817.56586142408
 30
0.0
  0
POINT
  5
1AE0
330
1AA4
100
AcDbEntity
  8
DEFPOINTS
  6
Continuous
 62
     0
100
AcDbPoint
 10
22150.46423018591
 20
12817.56586142408
 30
0.0
  0
ENDBLK
  5
1AAF
330
1AA4
100
AcDbEntity
  8
0
100
AcDbBlockEnd
  0
BLOCK
  5
1ABA
330
1AB0
100
AcDbEntity
  8
0
100
AcDbBlockBegin
  2
*D26
 70
     1
 10
0.0
 20
0.0
 30
0.0
  3
*D26
  1

  0
LINE
  5
1AE1
330
1AB0
100
AcDbEntity
  8
1
  6
Continuous
 62
     0
370
    13
100
AcDbLine
 10
18105.29147812498
 20
19034.07138646514
 30
0.0
 11
18105.29147812498
 21
20300.50922299853
 31
0.0
  0
LINE
  5
1AE2
330
1AB0
100
AcDbEntity
  8
1
  6
Continuous
 62
     0
370
    13
100
AcDbLine
 10
20062.91209328538
 20
17209.11519667618
 30
0.0
 11
20062.91209328538
 21
20300.50922299853
 31
0.0
  0
LINE
  5
1AE3
330
1AB0
100
AcDbEntity
  8
1
  6
Continuous
 62
     0
370
    13
100
AcDbLine
 10
18605.29147812498
 20
20300.32922299854
 30
0.0
 11
19562.91209328538
 21
20300.32922299854
 31
0.0
  0
INSERT
  5
1AE4
330
1AB0
100
AcDbEntity
  8
1
  6
Continuous
 62
     0
370
    13
100
AcDbBlockReference
  2
_OPEN30
 10
18105.29147812498
 20
20300.32922299854
 30
0.0
 41
500.0
 42
500.0
 43
500.0
 50
180.0
  0
INSERT
  5
1AE5
330
1AB0
100
AcDbEntity
  8
1
  6
Continuous
 62
     0
370
    13
100
AcDbBlockReference
  2
_OPEN30
 10
20062.91209328538
 20
20300.32922299854
 30
0.0
 41
500.0
 42
500.0
 43
500.0
  0
MTEXT
  5
1AE6
330
1AB0
100
AcDbEntity
  8
1
  6
Continuous
 62
     0
370
    13
100
AcDbMText
 10
19084.10178570518
 20
20550.32922299854
 30
0.0
 40
400.0
 41
0.0
 71
     5
 72
     1
  1
\A1;30
 73
     1
 44
1.0
  0
POINT
  5
1AE7
330
1AB0
100
AcDbEntity
  8
DEFPOINTS
  6
Continuous
 62
     0
100
AcDbPoint
 10
18105.29147812498
 20
18984.07138646514
 30
0.0
  0
POINT
  5
1AE8
330
1AB0
100
AcDbEntity
  8
DEFPOINTS
  6
Continuous
 62
     0
100
AcDbPoint
 10
20062.91209328538
 20
17159.11519667618
 30
0.0
  0
POINT
  5
1AE9
330
1AB0
100
AcDbEntity
  8
DEFPOINTS
  6
Continuous
 62
     0
100
AcDbPoint
 10
20062.91209328538
 20
20300.32922299854
 30
0.0
  0
ENDBLK
  5
1ABB
330
1AB0
100
AcDbEntity
  8
0
100
AcDbBlockEnd
  0
ENDSEC
  0
SECTION
  2
ENTITIES
  0
LINE
  5
197E
330
1F
100
AcDbEntity
  8
0
370
    13
100
AcDbLine
 10
806.4808231764837
 20
25593.36100411006
 30
0.0
 11
23386.93849522117
 21
25593.36100411006
 31
0.0
  0
LINE
  5
197F
330
1F
100
AcDbEntity
  8
1
  6
Continuous
 62
     7
370
    13
100
AcDbLine
 10
3562.179600739073
 20
25593.36100411006
 30
0.0
 11
3562.179600739073
 21
23756.2284857351
 31
0.0
  0
LINE
  5
1980
330
1F
100
AcDbEntity
  8
1
  6
Continuous
 62
     7
370
    13
100
AcDbLine
 10
806.4808231764837
 20
23756.2284857351
 30
0.0
 11
23386.93849521954
 21
23756.2284857351
 31
0.0
  0
LINE
  5
1981
330
1F
100
AcDbEntity
  8
1
  6
Continuous
 62
     7
370
    13
100
AcDbLine
 10
806.4808231764837
 20
25593.36100411006
 30
0.0
 11
806.4808231764837
 21
513.4049793199519
 31
0.0
  0
LINE
  5
1982
330
1F
100
AcDbEntity
  8
0
370
    13
100
AcDbLine
 10
806.4808231764837
 20
513.4049793199519
 30
0.0
 11
23386.93849522117
 21
513.4049793199519
 31
0.0
  0
LINE
  5
1983
330
1F
100
AcDbEntity
  8
1
  6
Continuous
 62
     7
370
    13
100
AcDbLine
 10
23386.93849522117
 20
25593.36100411006
 30
0.0
 11
23386.93849522117
 21
513.4049793199519
 31
0.0
  0
LINE
  5
1984
330
1F
100
AcDbEntity
  8
1
  6
DASHDOT
 62
     7
370
    13
100
AcDbLine
 10
16773.91369775578
 20
15068.82956885846
 30
0.0
 11
20629.57800735422
 21
15068.82956885846
 31
0.0
  0
LINE
  5
1985
330
1F
100
AcDbEntity
  8
1
  6
Continuous
 62
     7
370
    13
100
AcDbLine
 10
6551.019037576551
 20
17128.82173545123
 30
0.0
 11
6543.577338569813
 21
17128.82173545123
 31
0.0
  0
LINE
  5
1986
330
1F
100
AcDbEntity
  8
1
  6
Continuous
 62
     7
370
    13
100
AcDbLine
 10
6613.320835686521
 20
17198.56523256791
 30
0.0
 11
6613.320835686521
 21
17198.56725544268
 31
0.0
  0
ARC
  5
1987
330
1F
100
AcDbEntity
  8
1
  6
Continuous
 62
     7
370
    13
100
AcDbCircle
 10
6543.577338569813
 20
17198.56725544268
 30
0.0
 40
69.74349711611165
100
AcDbArc
 50
0.0
 51
90.0
  0
LINE
  5
1988
330
1F
100
AcDbEntity
  8
1
  6
Continuous
 62
     7
370
    13
100
AcDbLine
 10
6543.577338569813
 20
17268.3107525594
 30
0.0
 11
6473.8727328495
 21
17268.3107525594
 31
0.0
  0
ARC
  5
1989
330
1F
100
AcDbEntity
  8
1
  6
Continuous
 62
     7
370
    13
100
AcDbCircle
 10
6543.485069385585
 20
17198.56575459946
 30
0.0
 40
34.87174855805582
100
AcDbArc
 50
270.0
 51
0.0
  0
LINE
  5
198A
330
1F
100
AcDbEntity
  8
1
  6
Continuous
 62
     7
370
    13
100
AcDbLine
 10
6543.485069385585
 20
17163.69400604268
 30
0.0
 11
6456.436597553853
 21
17163.69400604268
 31
0.0
  0
LINE
  5
198B
330
1F
100
AcDbEntity
  8
1
  6
Continuous
 62
     7
370
    13
100
AcDbLine
 10
6578.356817943931
 20
17198.56673340962
 30
0.0
 11
6578.356817943931
 21
17198.56575459946
 31
0.0
  0
ARC
  5
198C
330
1F
100
AcDbEntity
  8
1
  6
Continuous
 62
     7
370
    13
100
AcDbCircle
 10
6543.485069385585
 20
17198.56673340962
 30
0.0
 40
34.87174855805582
100
AcDbArc
 50
0.0
 51
90.0
  0
LINE
  5
198D
330
1F
100
AcDbEntity
  8
1
  6
Continuous
 62
     7
370
    13
100
AcDbLine
 10
6473.8727328495
 20
17233.43848196791
 30
0.0
 11
6543.485069385585
 21
17233.43848196791
 31
0.0
  0
LINE
  5
198E
330
1F
100
AcDbEntity
  8
1
  6
Continuous
 62
     7
370
    13
100
AcDbLine
 10
6627.540078280232
 20
17268.3107525594
 30
0.0
 11
6627.540078280232
 21
17233.43848196791
 31
0.0
  0
LINE
  5
198F
330
1F
100
AcDbEntity
  8
1
  6
Continuous
 62
     7
370
    13
100
AcDbLine
 10
6770.287032867301
 20
17268.3107525594
 30
0.0
 11
6627.540078280232
 21
17268.3107525594
 31
0.0
  0
LINE
  5
1990
330
1F
100
AcDbEntity
  8
1
  6
Continuous
 62
     7
370
    13
100
AcDbLine
 10
6717.97862698311
 20
17233.43848196791
 30
0.0
 11
6770.287032867301
 21
17233.43848196791
 31
0.0
  0
LINE
  5
1991
330
1F
100
AcDbEntity
  8
1
  6
Continuous
 62
     7
370
    13
100
AcDbLine
 10
6717.97862698311
 20
17059.07719427143
 30
0.0
 11
6717.97862698311
 21
17233.43848196791
 31
0.0
  0
LINE
  5
1992
330
1F
100
AcDbEntity
  8
1
  6
Continuous
 62
     7
370
    13
100
AcDbLine
 10
6683.106356391625
 20
17059.07719427143
 30
0.0
 11
6717.97862698311
 21
17059.07719427143
 31
0.0
  0
LINE
  5
1993
330
1F
100
AcDbEntity
  8
1
  6
Continuous
 62
     7
370
    13
100
AcDbLine
 10
6683.106356391625
 20
17233.43848196791
 30
0.0
 11
6683.106356391625
 21
17059.07719427143
 31
0.0
  0
LINE
  5
1994
330
1F
100
AcDbEntity
  8
1
  6
Continuous
 62
     7
370
    13
100
AcDbLine
 10
6627.540078280232
 20
17233.43848196791
 30
0.0
 11
6683.106356391625
 21
17233.43848196791
 31
0.0
  0
LINE
  5
1995
330
1F
100
AcDbEntity
  8
1
  6
Continuous
 62
     7
370
    13
100
AcDbLine
 10
6632.7442821765
 20
17059.07719427143
 30
0.0
 11
6551.019037576551
 21
17128.82173545123
 31
0.0
  0
LINE
  5
1996
330
1F
100
AcDbEntity
  8
1
  6
Continuous
 62
     7
370
    13
100
AcDbLine
 10
6578.356817943931
 20
17059.07719427143
 30
0.0
 11
6632.7442821765
 21
17059.07719427143
 31
0.0
  0
LINE
  5
1997
330
1F
100
AcDbEntity
  8
1
  6
Continuous
 62
     7
370
    13
100
AcDbLine
 10
6456.436597553853
 20
17163.69400604268
 30
0.0
 11
6578.356817943931
 21
17059.07719427143
 31
0.0
  0
LINE
  5
1998
330
1F
100
AcDbEntity
  8
1
  6
Continuous
 62
     7
370
    13
100
AcDbLine
 10
6473.8727328495
 20
17268.3107525594
 30
0.0
 11
6473.8727328495
 21
17233.43848196791
 31
0.0
  0
LINE
  5
1999
330
1F
100
AcDbEntity
  8
1
  6
Continuous
 62
     7
370
    13
100
AcDbLine
 10
6171.475291692289
 20
17059.07719427143
 30
0.0
 11
6072.841621062937
 21
17059.07719427143
 31
0.0
  0
LINE
  5
199A
330
1F
100
AcDbEntity
  8
1
  6
Continuous
 62
     7
370
    13
100
AcDbLine
 10
6386.692056375104
 20
17268.3107525594
 30
0.0
 11
6171.475291692289
 21
17059.07719427143
 31
0.0
  0
LINE
  5
199B
330
1F
100
AcDbEntity
  8
1
  6
Continuous
 62
     7
370
    13
100
AcDbLine
 10
6386.692056375104
 20
17128.82173545123
 30
0.0
 11
6386.692056375104
 21
17268.3107525594
 31
0.0
  0
LINE
  5
199C
330
1F
100
AcDbEntity
  8
1
  6
Continuous
 62
     7
370
    13
100
AcDbLine
 10
6282.075244605585
 20
17128.82173545123
 30
0.0
 11
6386.692056375104
 21
17128.82173545123
 31
0.0
  0
LINE
  5
199D
330
1F
100
AcDbEntity
  8
1
  6
Continuous
 62
     7
370
    13
100
AcDbLine
 10
6282.075244605585
 20
17128.82173545123
 30
0.0
 11
6386.692056375104
 21
17128.82173545123
 31
0.0
  0
LINE
  5
199E
330
1F
100
AcDbEntity
  8
1
  6
Continuous
 62
     7
370
    13
100
AcDbLine
 10
6282.075244605585
 20
17059.07719427143
 30
0.0
 11
6282.075244605585
 21
17128.82173545123
 31
0.0
  0
LINE
  5
199F
330
1F
100
AcDbEntity
  8
1
  6
Continuous
 62
     7
370
    13
100
AcDbLine
 10
6456.436597553853
 20
17059.07719427143
 30
0.0
 11
6282.075244605585
 21
17059.07719427143
 31
0.0
  0
LINE
  5
19A0
330
1F
100
AcDbEntity
  8
1
  6
Continuous
 62
     7
370
    13
100
AcDbLine
 10
6456.436597553853
 20
17442.67210550891
 30
0.0
 11
6456.436597553853
 21
17059.07719427143
 31
0.0
  0
LINE
  5
19A1
330
1F
100
AcDbEntity
  8
1
  6
Continuous
 62
     7
370
    13
100
AcDbLine
 10
6072.841621062937
 20
17059.07719427143
 30
0.0
 11
6456.436597553853
 21
17442.67210550891
 31
0.0
  0
LINE
  5
19A2
330
1F
100
AcDbEntity
  8
1
  6
Continuous
 62
     7
370
    13
100
AcDbLine
 10
6072.841621062937
 20
17059.07719427143
 30
0.0
 11
6456.436597553853
 21
17442.67210550891
 31
0.0
  0
ARC
  5
19A3
330
1F
100
AcDbEntity
  8
1
  6
Continuous
 62
     7
370
    13
100
AcDbCircle
 10
6543.577338569813
 20
17198.56523256791
 30
0.0
 40
69.74349711611165
100
AcDbArc
 50
276.090492999251
 51
0.0
  0
LINE
  5
19A4
330
1F
100
AcDbEntity
  8
1
  6
Continuous
 62
     7
370
    13
100
AcDbLine
 10
7503.031672318845
 20
14343.10697980773
 30
0.0
 11
7242.015590297349
 21
14343.10697980773
 31
0.0
  0
LINE
  5
19A5
330
1F
100
AcDbEntity
  8
1
  6
Continuous
 62
     7
370
    13
100
AcDbLine
 10
7503.031672318845
 20
14212.59893879703
 30
0.0
 11
7503.031672318845
 21
14343.10697980773
 31
0.0
  0
LINE
  5
19A6
330
1F
100
AcDbEntity
  8
1
  6
Continuous
 62
     7
370
    13
100
AcDbLine
 10
7242.015590297349
 20
14212.59893879703
 30
0.0
 11
7503.031672318845
 21
14212.59893879703
 31
0.0
  0
LINE
  5
19A7
330
1F
100
AcDbEntity
  8
1
  6
Continuous
 62
     7
370
    13
100
AcDbLine
 10
7242.015590297349
 20
14343.10697980773
 30
0.0
 11
7242.015590297349
 21
14212.59893879703
 31
0.0
  0
CIRCLE
  5
19A8
330
1F
100
AcDbEntity
  8
1
  6
Continuous
 62
     7
370
    13
100
AcDbCircle
 10
10764.21462805231
 20
15231.9645548673
 30
0.0
 40
97.881030758016
  0
ARC
  5
19A9
330
1F
100
AcDbEntity
  8
1
  6
Continuous
 62
     7
370
    13
100
AcDbCircle
 10
21452.82990799157
 20
18075.28347168347
 30
0.0
 40
3915.241230320639
100
AcDbArc
 50
171.4999399999117
 51
179.9999799996853
  0
ARC
  5
19AA
330
1F
100
AcDbEntity
  8
1
  6
Continuous
 62
     7
370
    13
100
AcDbCircle
 10
21452.830560532
 20
12062.38891259716
 30
0.0
 40
3915.241230320639
100
AcDbArc
 50
179.9999700003617
 51
188.4999499998699
  0
ARC
  5
19AB
330
1F
100
AcDbEntity
  8
1
  6
Continuous
 62
     7
370
    13
100
AcDbCircle
 10
17798.60541223286
 20
11349.35823053511
 30
0.0
 40
195.7620615160319
100
AcDbArc
 50
188.4998700003713
 51
270.0
  0
ARC
  5
19AC
330
1F
100
AcDbEntity
  8
1
  6
Continuous
 62
     7
370
    13
100
AcDbCircle
 10
17798.60475969225
 20
18788.31428425446
 30
0.0
 40
195.7620615160319
100
AcDbArc
 50
90.0
 51
171.4999899996293
  0
LINE
  5
19AD
330
1F
100
AcDbEntity
  8
1
  6
Continuous
 62
     7
370
    13
100
AcDbLine
 10
17580.58194162195
 20
18653.985750852
 30
0.0
 11
17604.98107242815
 21
18817.2422398469
 31
0.0
  0
LINE
  5
19AE
330
1F
100
AcDbEntity
  8
1
  6
Continuous
 62
     7
370
    13
100
AcDbLine
 10
17604.97911480792
 20
11320.42394530469
 30
0.0
 11
17580.58063654022
 21
11483.6784114248
 31
0.0
  0
LINE
  5
19AF
330
1F
100
AcDbEntity
  8
1
  6
Continuous
 62
     7
370
    13
100
AcDbLine
 10
17537.58149972857
 20
12062.38891259716
 30
0.0
 11
17537.58149972857
 21
18075.28347168347
 31
0.0
  0
LINE
  5
19B0
330
1F
100
AcDbEntity
  8
1
  6
Continuous
 62
     7
370
    13
100
AcDbLine
 10
17796.44093637134
 20
18984.06440428493
 30
0.0
 11
17942.15642686169
 21
18984.06440428493
 31
0.0
  0
LINE
  5
19B1
330
1F
100
AcDbEntity
  8
1
  6
Continuous
 62
     7
370
    13
100
AcDbLine
 10
17798.60541223286
 20
11153.59486393942
 30
0.0
 11
17942.15642686169
 21
11153.59486393942
 31
0.0
  0
LINE
  5
19B2
330
1F
100
AcDbEntity
  8
1
  6
Continuous
 62
     7
370
    13
100
AcDbLine
 10
17942.15642686169
 20
11153.59486393942
 30
0.0
 11
17942.15642686169
 21
18984.06440428493
 31
0.0
  0
LINE
  5
19B3
330
1F
100
AcDbEntity
  8
1
  6
Continuous
 62
     7
370
    13
100
AcDbLine
 10
18105.29147812498
 20
17320.09334154581
 30
0.0
 11
18105.29147812498
 21
12817.56651396473
 31
0.0
  0
LINE
  5
19B4
330
1F
100
AcDbEntity
  8
1
  6
Continuous
 62
     7
370
    13
100
AcDbLine
 10
17974.78343711432
 20
11153.58768599724
 30
0.0
 11
18105.29147812498
 21
11153.58768599724
 31
0.0
  0
LINE
  5
19B5
330
1F
100
AcDbEntity
  8
1
  6
Continuous
 62
     7
370
    13
100
AcDbLine
 10
17974.78343711432
 20
11153.58768599724
 30
0.0
 11
17974.78343711432
 21
18984.07138646514
 31
0.0
  0
LINE
  5
19B6
330
1F
100
AcDbEntity
  8
1
  6
Continuous
 62
     7
370
    13
100
AcDbLine
 10
18105.29147812498
 20
18984.07138646514
 30
0.0
 11
18105.29147812498
 21
11153.58768599724
 31
0.0
  0
LINE
  5
19B7
330
1F
100
AcDbEntity
  8
1
  6
Continuous
 62
     7
370
    13
100
AcDbLine
 10
17974.78343711432
 20
18984.07138646514
 30
0.0
 11
18105.29147812498
 21
18984.07138646514
 31
0.0
  0
LINE
  5
19B8
330
1F
100
AcDbEntity
  8
1
  6
Continuous
 62
     7
370
    13
100
AcDbLine
 10
8383.495165941582
 20
14413.45335881911
 30
0.0
 11
8284.65281295414
 21
14285.78191008047
 31
0.0
  0
LINE
  5
19B9
330
1F
100
AcDbEntity
  8
1
  6
Continuous
 62
     7
370
    13
100
AcDbLine
 10
8482.337518929883
 20
14285.78191008047
 30
0.0
 11
8383.495165941582
 21
14413.45335881911
 31
0.0
  0
LINE
  5
19BA
330
1F
100
AcDbEntity
  8
1
  6
Continuous
 62
     7
370
    13
100
AcDbLine
 10
8383.495165941582
 20
14158.10980880113
 30
0.0
 11
8482.337518929883
 21
14285.78191008047
 31
0.0
  0
LINE
  5
19BB
330
1F
100
AcDbEntity
  8
1
  6
Continuous
 62
     7
370
    13
100
AcDbLine
 10
8284.65281295414
 20
14285.78191008047
 30
0.0
 11
8383.495165941582
 21
14158.10980880113
 31
0.0
  0
LINE
  5
19BC
330
1F
100
AcDbEntity
  8
1
  6
Continuous
 62
     7
370
    13
100
AcDbLine
 10
8970.78161150511
 20
14413.45335881911
 30
0.0
 11
8871.938736486875
 21
14285.78191008047
 31
0.0
  0
LINE
  5
19BD
330
1F
100
AcDbEntity
  8
1
  6
Continuous
 62
     7
370
    13
100
AcDbLine
 10
9069.623833985403
 20
14285.78191008047
 30
0.0
 11
8970.78161150511
 21
14413.45335881911
 31
0.0
  0
LINE
  5
19BE
330
1F
100
AcDbEntity
  8
1
  6
Continuous
 62
     7
370
    13
100
AcDbLine
 10
8970.78161150511
 20
14158.10980880113
 30
0.0
 11
9069.623833985403
 21
14285.78191008047
 31
0.0
  0
LINE
  5
19BF
330
1F
100
AcDbEntity
  8
1
  6
Continuous
 62
     7
370
    13
100
AcDbLine
 10
8871.938736486875
 20
14285.78191008047
 30
0.0
 11
8970.78161150511
 21
14158.10980880113
 31
0.0
  0
LINE
  5
19C0
330
1F
100
AcDbEntity
  8
1
  6
Continuous
 62
     7
370
    13
100
AcDbLine
 10
9558.067796053162
 20
14413.45335881911
 30
0.0
 11
9459.224921035202
 21
14285.78191008047
 31
0.0
  0
LINE
  5
19C1
330
1F
100
AcDbEntity
  8
1
  6
Continuous
 62
     7
370
    13
100
AcDbLine
 10
9656.910018533643
 20
14285.78191008047
 30
0.0
 11
9558.067796053162
 21
14413.45335881911
 31
0.0
  0
LINE
  5
19C2
330
1F
100
AcDbEntity
  8
1
  6
Continuous
 62
     7
370
    13
100
AcDbLine
 10
9558.067796053162
 20
14158.10980880113
 30
0.0
 11
9656.910018533643
 21
14285.78191008047
 31
0.0
  0
LINE
  5
19C3
330
1F
100
AcDbEntity
  8
1
  6
Continuous
 62
     7
370
    13
100
AcDbLine
 10
9459.224921035202
 20
14285.78191008047
 30
0.0
 11
9558.067796053162
 21
14158.10980880113
 31
0.0
  0
LINE
  5
19C4
330
1F
100
AcDbEntity
  8
1
  6
Continuous
 62
     7
370
    13
100
AcDbLine
 10
10145.35398060129
 20
14413.45335881911
 30
0.0
 11
10046.511105583
 21
14285.78191008047
 31
0.0
  0
LINE
  5
19C5
330
1F
100
AcDbEntity
  8
1
  6
Continuous
 62
     7
370
    13
100
AcDbLine
 10
10244.1962030815
 20
14285.78191008047
 30
0.0
 11
10145.35398060129
 21
14413.45335881911
 31
0.0
  0
LINE
  5
19C6
330
1F
100
AcDbEntity
  8
1
  6
Continuous
 62
     7
370
    13
100
AcDbLine
 10
10145.35398060129
 20
14158.10980880113
 30
0.0
 11
10244.1962030815
 21
14285.78191008047
 31
0.0
  0
LINE
  5
19C7
330
1F
100
AcDbEntity
  8
1
  6
Continuous
 62
     7
370
    13
100
AcDbLine
 10
10046.511105583
 20
14285.78191008047
 30
0.0
 11
10145.35398060129
 21
14158.10980880113
 31
0.0
  0
ARC
  5
19C8
330
1F
100
AcDbEntity
  8
1
  6
Continuous
 62
     7
370
    13
100
AcDbCircle
 10
6718.46516095892
 20
13404.85263325829
 30
0.0
 40
293.643092274048
100
AcDbArc
 50
90.0
 51
270.0
  0
ARC
  5
19C9
330
1F
100
AcDbEntity
  8
1
  6
Continuous
 62
     7
370
    13
100
AcDbCircle
 10
8023.545571066017
 20
13404.85263325829
 30
0.0
 40
326.27010252672
100
AcDbArc
 50
270.0
 51
90.0
  0
ARC
  5
19CA
330
1F
100
AcDbEntity
  8
1
  6
Continuous
 62
     7
370
    13
100
AcDbCircle
 10
6718.46516095892
 20
13404.85263325829
 30
0.0
 40
326.27010252672
100
AcDbArc
 50
90.0
 51
270.0
  0
ARC
  5
19CB
330
1F
100
AcDbEntity
  8
1
  6
Continuous
 62
     7
370
    13
100
AcDbCircle
 10
9002.356074408337
 20
13404.85263325829
 30
0.0
 40
326.27010252672
100
AcDbArc
 50
90.0
 51
270.0
  0
ARC
  5
19CC
330
1F
100
AcDbEntity
  8
1
  6
Continuous
 62
     7
370
    13
100
AcDbCircle
 10
10307.4364845151
 20
13404.85263325829
 30
0.0
 40
326.27010252672
100
AcDbArc
 50
270.0
 51
90.0
  0
ARC
  5
19CD
330
1F
100
AcDbEntity
  8
1
  6
Continuous
 62
     7
370
    13
100
AcDbCircle
 10
8023.545571066017
 20
13404.85263325829
 30
0.0
 40
293.643092274048
100
AcDbArc
 50
270.0
 51
90.0
  0
ARC
  5
19CE
330
1F
100
AcDbEntity
  8
1
  6
Continuous
 62
     7
370
    13
100
AcDbCircle
 10
9002.356074408337
 20
13404.85263325829
 30
0.0
 40
293.643092274048
100
AcDbArc
 50
90.0
 51
270.0
  0
ARC
  5
19CF
330
1F
100
AcDbEntity
  8
1
  6
Continuous
 62
     7
370
    13
100
AcDbCircle
 10
10307.4364845151
 20
13404.85263325829
 30
0.0
 40
293.643092274048
100
AcDbArc
 50
270.0
 51
90.0
  0
LINE
  5
19D0
330
1F
100
AcDbEntity
  8
1
  6
Continuous
 62
     7
370
    13
100
AcDbLine
 10
8383.495165941582
 20
14083.49379397322
 30
0.0
 11
8444.1181738663
 21
14161.79861857966
 31
0.0
  0
LINE
  5
19D1
330
1F
100
AcDbEntity
  8
1
  6
Continuous
 62
     7
370
    13
100
AcDbLine
 10
8482.337518929883
 20
14285.78191008047
 30
0.0
 11
8383.495687973468
 21
14413.45335881911
 31
0.0
  0
LINE
  5
19D2
330
1F
100
AcDbEntity
  8
1
  6
Continuous
 62
     7
370
    13
100
AcDbLine
 10
8272.352430088416
 20
14344.50987599462
 30
0.0
 11
8226.884929441469
 21
14285.78191008047
 31
0.0
  0
LINE
  5
19D3
330
1F
100
AcDbEntity
  8
1
  6
Continuous
 62
     7
370
    13
100
AcDbLine
 10
8284.65281295414
 20
14285.78191008047
 30
0.0
 11
8383.495165941582
 21
14158.11039608567
 31
0.0
  0
LINE
  5
19D4
330
1F
100
AcDbEntity
  8
1
  6
Continuous
 62
     7
370
    13
100
AcDbLine
 10
8322.872158017199
 20
14161.79927112034
 30
0.0
 11
8383.495687973468
 21
14083.49379397322
 31
0.0
  0
LINE
  5
19D5
330
1F
100
AcDbEntity
  8
1
  6
Continuous
 62
     7
370
    13
100
AcDbLine
 10
8226.885386219962
 20
14285.78191008047
 30
0.0
 11
8272.352952119952
 21
14227.05329162563
 31
0.0
  0
LINE
  5
19D6
330
1F
100
AcDbEntity
  8
1
  6
Continuous
 62
     7
370
    13
100
AcDbLine
 10
8444.118695898083
 20
14409.76389649994
 30
0.0
 11
8383.495165941582
 21
14488.06937364702
 31
0.0
  0
LINE
  5
19D7
330
1F
100
AcDbEntity
  8
1
  6
Continuous
 62
     7
370
    13
100
AcDbLine
 10
8383.494643908781
 20
14158.10980880113
 30
0.0
 11
8482.337062152554
 21
14285.78191008047
 31
0.0
  0
LINE
  5
19D8
330
1F
100
AcDbEntity
  8
1
  6
Continuous
 62
     7
370
    13
100
AcDbLine
 10
8494.637379762222
 20
14227.052639085
 30
0.0
 11
8540.104945663625
 21
14285.78053974616
 31
0.0
  0
LINE
  5
19D9
330
1F
100
AcDbEntity
  8
1
  6
Continuous
 62
     7
370
    13
100
AcDbLine
 10
8540.105402440634
 20
14285.78053974616
 30
0.0
 11
8494.637901794995
 21
14344.50987599462
 31
0.0
  0
LINE
  5
19DA
330
1F
100
AcDbEntity
  8
1
  6
Continuous
 62
     7
370
    13
100
AcDbLine
 10
8383.494643908781
 20
14488.0687211064
 30
0.0
 11
8322.871635984236
 21
14409.76389649994
 31
0.0
  0
LINE
  5
19DB
330
1F
100
AcDbEntity
  8
1
  6
Continuous
 62
     7
370
    13
100
AcDbLine
 10
8383.495165941582
 20
14413.45335881911
 30
0.0
 11
8284.65281295414
 21
14285.78053974616
 31
0.0
  0
LINE
  5
19DC
330
1F
100
AcDbEntity
  8
1
  6
Continuous
 62
     7
370
    13
100
AcDbLine
 10
8023.545571066017
 20
13078.58253073155
 30
0.0
 11
6718.46516095892
 21
13078.58253073155
 31
0.0
  0
LINE
  5
19DD
330
1F
100
AcDbEntity
  8
1
  6
Continuous
 62
     7
370
    13
100
AcDbLine
 10
6718.46516095892
 20
13731.12273578497
 30
0.0
 11
8023.545571066017
 21
13731.12273578497
 31
0.0
  0
LINE
  5
19DE
330
1F
100
AcDbEntity
  8
1
  6
Continuous
 62
     7
370
    13
100
AcDbLine
 10
8970.78161150511
 20
14413.45205373942
 30
0.0
 11
8871.938736486875
 21
14285.78053974616
 31
0.0
  0
LINE
  5
19DF
330
1F
100
AcDbEntity
  8
1
  6
Continuous
 62
     7
370
    13
100
AcDbLine
 10
8970.78095896609
 20
14488.0687211064
 30
0.0
 11
8910.158016295842
 21
14409.76389649994
 31
0.0
  0
LINE
  5
19E0
330
1F
100
AcDbEntity
  8
1
  6
Continuous
 62
     7
370
    13
100
AcDbLine
 10
9127.391260717995
 20
14285.78191008047
 30
0.0
 11
9081.924216852319
 21
14344.50987599462
 31
0.0
  0
LINE
  5
19E1
330
1F
100
AcDbEntity
  8
1
  6
Continuous
 62
     7
370
    13
100
AcDbLine
 10
9002.356074408337
 20
13731.12273578497
 30
0.0
 11
10307.4364845151
 21
13731.12273578497
 31
0.0
  0
LINE
  5
19E2
330
1F
100
AcDbEntity
  8
1
  6
Continuous
 62
     7
370
    13
100
AcDbLine
 10
10307.4364845151
 20
13078.58253073155
 30
0.0
 11
9002.356074408337
 21
13078.58253073155
 31
0.0
  0
LINE
  5
19E3
330
1F
100
AcDbEntity
  8
1
  6
Continuous
 62
     7
370
    13
100
AcDbLine
 10
6718.46516095892
 20
13698.49572553234
 30
0.0
 11
8023.545571066017
 21
13698.49572553234
 31
0.0
  0
LINE
  5
19E4
330
1F
100
AcDbEntity
  8
1
  6
Continuous
 62
     7
370
    13
100
AcDbLine
 10
8023.545571066017
 20
13111.20954098418
 30
0.0
 11
6718.46516095892
 21
13111.20954098418
 31
0.0
  0
LINE
  5
19E5
330
1F
100
AcDbEntity
  8
1
  6
Continuous
 62
     7
370
    13
100
AcDbLine
 10
9002.356074408337
 20
13698.49572553234
 30
0.0
 11
10307.4364845151
 21
13698.49572553234
 31
0.0
  0
LINE
  5
19E6
330
1F
100
AcDbEntity
  8
1
  6
Continuous
 62
     7
370
    13
100
AcDbLine
 10
10307.4364845151
 20
13111.20954098418
 30
0.0
 11
9002.356074408337
 21
13111.20954098418
 31
0.0
  0
LINE
  5
19E7
330
1F
100
AcDbEntity
  8
1
  6
Continuous
 62
     7
370
    13
100
AcDbLine
 10
9081.922911770933
 20
14227.052639085
 30
0.0
 11
9127.390608178481
 21
14285.78191008047
 31
0.0
  0
LINE
  5
19E8
330
1F
100
AcDbEntity
  8
1
  6
Continuous
 62
     7
370
    13
100
AcDbLine
 10
8970.78095896609
 20
14158.10980880113
 30
0.0
 11
9069.623833985403
 21
14285.78191008047
 31
0.0
  0
LINE
  5
19E9
330
1F
100
AcDbEntity
  8
1
  6
Continuous
 62
     7
370
    13
100
AcDbLine
 10
9031.405206717186
 20
14409.76389649994
 30
0.0
 11
8970.78161150511
 21
14488.0687211064
 31
0.0
  0
LINE
  5
19EA
330
1F
100
AcDbEntity
  8
1
  6
Continuous
 62
     7
370
    13
100
AcDbLine
 10
8814.171962293839
 20
14285.78191008047
 30
0.0
 11
8859.639006162048
 21
14227.052639085
 31
0.0
  0
LINE
  5
19EB
330
1F
100
AcDbEntity
  8
1
  6
Continuous
 62
     7
370
    13
100
AcDbLine
 10
8910.158016295842
 20
14161.79861857966
 30
0.0
 11
8970.78161150511
 21
14083.49379397322
 31
0.0
  0
LINE
  5
19EC
330
1F
100
AcDbEntity
  8
1
  6
Continuous
 62
     7
370
    13
100
AcDbLine
 10
8871.938736486875
 20
14285.78191008047
 30
0.0
 11
8970.78161150511
 21
14158.10980880113
 31
0.0
  0
LINE
  5
19ED
330
1F
100
AcDbEntity
  8
1
  6
Continuous
 62
     7
370
    13
100
AcDbLine
 10
8859.638353619899
 20
14344.50987599462
 30
0.0
 11
8814.171309753218
 21
14285.78191008047
 31
0.0
  0
LINE
  5
19EE
330
1F
100
AcDbEntity
  8
1
  6
Continuous
 62
     7
370
    13
100
AcDbLine
 10
9069.624486526111
 20
14285.78053974616
 30
0.0
 11
8970.78161150511
 21
14413.45335881911
 31
0.0
  0
LINE
  5
19EF
330
1F
100
AcDbEntity
  8
1
  6
Continuous
 62
     7
370
    13
100
AcDbLine
 10
8970.78095896609
 20
14083.49379397322
 30
0.0
 11
9031.403901635874
 21
14161.79861857966
 31
0.0
  0
LINE
  5
19F0
330
1F
100
AcDbEntity
  8
1
  6
Continuous
 62
     7
370
    13
100
AcDbLine
 10
9558.067143513996
 20
14083.49379397322
 30
0.0
 11
9618.690086184244
 21
14161.79861857966
 31
0.0
  0
LINE
  5
19F1
330
1F
100
AcDbEntity
  8
1
  6
Continuous
 62
     7
370
    13
100
AcDbLine
 10
9656.91067107425
 20
14285.78191008047
 30
0.0
 11
9558.067796053162
 21
14413.45335881911
 31
0.0
  0
LINE
  5
19F2
330
1F
100
AcDbEntity
  8
1
  6
Continuous
 62
     7
370
    13
100
AcDbLine
 10
9446.924538168138
 20
14344.50987599462
 30
0.0
 11
9401.457494301373
 21
14285.78191008047
 31
0.0
  0
LINE
  5
19F3
330
1F
100
AcDbEntity
  8
1
  6
Continuous
 62
     7
370
    13
100
AcDbLine
 10
9459.224921035202
 20
14285.78053974616
 30
0.0
 11
9558.067796053162
 21
14158.11039608567
 31
0.0
  0
LINE
  5
19F4
330
1F
100
AcDbEntity
  8
1
  6
Continuous
 62
     7
370
    13
100
AcDbLine
 10
9497.444200844054
 20
14161.79927112034
 30
0.0
 11
9558.067796053162
 21
14083.49379397322
 31
0.0
  0
LINE
  5
19F5
330
1F
100
AcDbEntity
  8
1
  6
Continuous
 62
     7
370
    13
100
AcDbLine
 10
9401.457494301373
 20
14285.78191008047
 30
0.0
 11
9446.925190710187
 21
14227.05329162563
 31
0.0
  0
LINE
  5
19F6
330
1F
100
AcDbEntity
  8
1
  6
Continuous
 62
     7
370
    13
100
AcDbLine
 10
9618.690738723104
 20
14409.76389649994
 30
0.0
 11
9558.067796053162
 21
14488.0687211064
 31
0.0
  0
LINE
  5
19F7
330
1F
100
AcDbEntity
  8
1
  6
Continuous
 62
     7
370
    13
100
AcDbLine
 10
9558.067796053162
 20
14158.10980880113
 30
0.0
 11
9656.910018533643
 21
14285.78191008047
 31
0.0
  0
LINE
  5
19F8
330
1F
100
AcDbEntity
  8
1
  6
Continuous
 62
     7
370
    13
100
AcDbLine
 10
9669.209096319129
 20
14227.052639085
 30
0.0
 11
9714.676792726706
 21
14285.78191008047
 31
0.0
  0
LINE
  5
19F9
330
1F
100
AcDbEntity
  8
1
  6
Continuous
 62
     7
370
    13
100
AcDbLine
 10
9714.67744526596
 20
14285.78191008047
 30
0.0
 11
9669.20974885815
 21
14344.51118107434
 31
0.0
  0
LINE
  5
19FA
330
1F
100
AcDbEntity
  8
1
  6
Continuous
 62
     7
370
    13
100
AcDbLine
 10
9558.067796053162
 20
14488.0687211064
 30
0.0
 11
9497.444200844054
 21
14409.76389649994
 31
0.0
  0
LINE
  5
19FB
330
1F
100
AcDbEntity
  8
1
  6
Continuous
 62
     7
370
    13
100
AcDbLine
 10
9558.067143513996
 20
14413.45335881911
 30
0.0
 11
9459.224921035202
 21
14285.78191008047
 31
0.0
  0
LINE
  5
19FC
330
1F
100
AcDbEntity
  8
1
  6
Continuous
 62
     7
370
    13
100
AcDbLine
 10
10145.35332806228
 20
14413.45335881911
 30
0.0
 11
10046.511105583
 21
14285.78191008047
 31
0.0
  0
LINE
  5
19FD
330
1F
100
AcDbEntity
  8
1
  6
Continuous
 62
     7
370
    13
100
AcDbLine
 10
10145.35398060129
 20
14488.0687211064
 30
0.0
 11
10084.7303853921
 21
14409.76389649994
 31
0.0
  0
LINE
  5
19FE
330
1F
100
AcDbEntity
  8
1
  6
Continuous
 62
     7
370
    13
100
AcDbLine
 10
10301.96362981401
 20
14285.78191008047
 30
0.0
 11
10256.49658594842
 21
14344.50987599462
 31
0.0
  0
LINE
  5
19FF
330
1F
100
AcDbEntity
  8
1
  6
Continuous
 62
     7
370
    13
100
AcDbLine
 10
10256.49593340637
 20
14227.052639085
 30
0.0
 11
10301.96297727498
 21
14285.78191008047
 31
0.0
  0
LINE
  5
1A00
330
1F
100
AcDbEntity
  8
1
  6
Continuous
 62
     7
370
    13
100
AcDbLine
 10
10145.35398060129
 20
14158.10980880113
 30
0.0
 11
10244.1962030815
 21
14285.78053974616
 31
0.0
  0
LINE
  5
1A01
330
1F
100
AcDbEntity
  8
1
  6
Continuous
 62
     7
370
    13
100
AcDbLine
 10
10205.97757581328
 20
14409.76389649994
 30
0.0
 11
10145.35398060129
 21
14488.0687211064
 31
0.0
  0
LINE
  5
1A02
330
1F
100
AcDbEntity
  8
1
  6
Continuous
 62
     7
370
    13
100
AcDbLine
 10
9988.744331389696
 20
14285.78191008047
 30
0.0
 11
10034.2120277974
 21
14227.052639085
 31
0.0
  0
LINE
  5
1A03
330
1F
100
AcDbEntity
  8
1
  6
Continuous
 62
     7
370
    13
100
AcDbLine
 10
10084.7310379311
 20
14161.79861857966
 30
0.0
 11
10145.35398060129
 21
14083.49379397322
 31
0.0
  0
LINE
  5
1A04
330
1F
100
AcDbEntity
  8
1
  6
Continuous
 62
     7
370
    13
100
AcDbLine
 10
10046.511105583
 20
14285.78191008047
 30
0.0
 11
10145.35398060129
 21
14158.10980880113
 31
0.0
  0
LINE
  5
1A05
330
1F
100
AcDbEntity
  8
1
  6
Continuous
 62
     7
370
    13
100
AcDbLine
 10
10034.2107227161
 20
14344.50987599462
 30
0.0
 11
9988.743678849234
 21
14285.78053974616
 31
0.0
  0
LINE
  5
1A06
330
1F
100
AcDbEntity
  8
1
  6
Continuous
 62
     7
370
    13
100
AcDbLine
 10
10244.19685562246
 20
14285.78053974616
 30
0.0
 11
10145.35398060129
 21
14413.45335881911
 31
0.0
  0
LINE
  5
1A07
330
1F
100
AcDbEntity
  8
1
  6
Continuous
 62
     7
370
    13
100
AcDbLine
 10
10145.35332806228
 20
14083.49379397322
 30
0.0
 11
10205.97692327124
 21
14161.79861857966
 31
0.0
  0
ARC
  5
1A08
330
1F
100
AcDbEntity
  8
1
  6
Continuous
 62
     7
370
    13
100
AcDbCircle
 10
6979.481242980401
 20
16569.67197522685
 30
0.0
 40
65.254020505344
100
AcDbArc
 50
90.0
 51
180.0
  0
LINE
  5
1A09
330
1F
100
AcDbEntity
  8
1
  6
Continuous
 62
     7
370
    13
100
AcDbLine
 10
6914.227222474903
 20
16569.67197522685
 30
0.0
 11
6914.227222474903
 21
15134.08352410924
 31
0.0
  0
ARC
  5
1A0A
330
1F
100
AcDbEntity
  8
1
  6
Continuous
 62
     7
370
    13
100
AcDbCircle
 10
6979.481242980401
 20
15134.08352410924
 30
0.0
 40
65.254020505344
100
AcDbArc
 50
180.0
 51
270.0
  0
LINE
  5
1A0B
330
1F
100
AcDbEntity
  8
1
  6
Continuous
 62
     7
370
    13
100
AcDbLine
 10
6979.481242980401
 20
16634.92599573213
 30
0.0
 11
10046.42040249369
 21
16634.92599573213
 31
0.0
  0
ARC
  5
1A0C
330
1F
100
AcDbEntity
  8
1
  6
Continuous
 62
     7
370
    13
100
AcDbCircle
 10
10046.42040249369
 20
16569.67197522685
 30
0.0
 40
65.254020505344
100
AcDbArc
 50
0.0
 51
90.0
  0
LINE
  5
1A0D
330
1F
100
AcDbEntity
  8
1
  6
Continuous
 62
     7
370
    13
100
AcDbLine
 10
10111.67442299885
 20
15134.08352410924
 30
0.0
 11
10111.67442299885
 21
16569.67197522685
 31
0.0
  0
LINE
  5
1A0E
330
1F
100
AcDbEntity
  8
1
  6
Continuous
 62
     7
370
    13
100
AcDbLine
 10
6979.481242980401
 20
15068.82950360394
 30
0.0
 11
10046.42040249369
 21
15068.82950360394
 31
0.0
  0
ARC
  5
1A0F
330
1F
100
AcDbEntity
  8
1
  6
Continuous
 62
     7
370
    13
100
AcDbCircle
 10
10046.42040249369
 20
15134.08352410924
 30
0.0
 40
65.254020505344
100
AcDbArc
 50
270.0
 51
0.0
  0
ARC
  5
1A10
330
1F
100
AcDbEntity
  8
1
  6
Continuous
 62
     7
370
    13
100
AcDbCircle
 10
9350.029038882421
 20
13405.04774277933
 30
0.0
 40
88.09292768221443
100
AcDbArc
 50
270.0
 51
90.0
  0
ARC
  5
1A11
330
1F
100
AcDbEntity
  8
1
  6
Continuous
 62
     7
370
    13
100
AcDbCircle
 10
8938.928709697183
 20
13405.04774277933
 30
0.0
 40
88.09292768221443
100
AcDbArc
 50
90.0
 51
270.0
  0
LINE
  5
1A12
330
1F
100
AcDbEntity
  8
1
  6
Continuous
 62
     7
370
    13
100
AcDbLine
 10
9350.029038882421
 20
13316.95488035168
 30
0.0
 11
8938.928709697183
 21
13316.95488035168
 31
0.0
  0
LINE
  5
1A13
330
1F
100
AcDbEntity
  8
1
  6
Continuous
 62
     7
370
    13
100
AcDbLine
 10
8938.928709697183
 20
13493.14067046155
 30
0.0
 11
9350.029038882421
 21
13493.14067046155
 31
0.0
  0
ARC
  5
1A14
330
1F
100
AcDbEntity
  8
1
  6
Continuous
 62
     7
370
    13
100
AcDbCircle
 10
20033.4755478569
 20
13652.54984766166
 30
0.0
 40
32.627010252672
100
AcDbArc
 50
270.0
 51
0.0
  0
ARC
  5
1A15
330
1F
100
AcDbEntity
  8
1
  6
Continuous
 62
     7
370
    13
100
AcDbCircle
 10
20033.4755478569
 20
13913.56592968298
 30
0.0
 40
32.627010252672
100
AcDbArc
 50
0.0
 51
90.0
  0
ARC
  5
1A16
330
1F
100
AcDbEntity
  8
1
  6
Continuous
 62
     7
370
    13
100
AcDbCircle
 10
19739.8324555832
 20
13130.51768361893
 30
0.0
 40
97.881030758016
100
AcDbArc
 50
270.0
 51
340.5287990007812
  0
LINE
  5
1A17
330
1F
100
AcDbEntity
  8
1
  6
Continuous
 62
     7
370
    13
100
AcDbLine
 10
20066.10255811002
 20
13137.04302041645
 30
0.0
 11
19870.34049659378
 21
13137.04302041645
 31
0.0
  0
LINE
  5
1A18
330
1F
100
AcDbEntity
  8
1
  6
Continuous
 62
     7
370
    13
100
AcDbLine
 10
19870.34049659378
 20
13234.92405117435
 30
0.0
 11
19152.54627103498
 21
13234.92405117435
 31
0.0
  0
LINE
  5
1A19
330
1F
100
AcDbEntity
  8
1
  6
Continuous
 62
     7
370
    13
100
AcDbLine
 10
19870.34049659378
 20
13946.19293993571
 30
0.0
 11
19870.34049659378
 21
13097.89067336618
 31
0.0
  0
LINE
  5
1A1A
330
1F
100
AcDbEntity
  8
1
  6
Continuous
 62
     7
370
    13
100
AcDbLine
 10
19870.34049659378
 20
13150.09356350093
 30
0.0
 11
19152.54627103498
 21
13150.09356350093
 31
0.0
  0
LINE
  5
1A1B
330
1F
100
AcDbEntity
  8
1
  6
Continuous
 62
     7
370
    13
100
AcDbLine
 10
20066.10255811002
 20
13913.56592968298
 30
0.0
 11
20066.10255811002
 21
13137.04302041645
 31
0.0
  0
LINE
  5
1A1C
330
1F
100
AcDbEntity
  8
1
  6
Continuous
 62
     7
370
    13
100
AcDbLine
 10
20033.4755478569
 20
13619.92283740903
 30
0.0
 11
19870.34049659378
 21
13619.92283740903
 31
0.0
  0
LINE
  5
1A1D
330
1F
100
AcDbEntity
  8
1
  6
Continuous
 62
     7
370
    13
100
AcDbLine
 10
20033.4755478569
 20
13946.19293993571
 30
0.0
 11
19152.54627103498
 21
13946.19293993571
 31
0.0
  0
LINE
  5
1A1E
330
1F
100
AcDbEntity
  8
1
  6
Continuous
 62
     7
370
    13
100
AcDbLine
 10
19870.34049659378
 20
13097.89067336618
 30
0.0
 11
19152.54627103498
 21
13097.89067336618
 31
0.0
  0
LINE
  5
1A1F
330
1F
100
AcDbEntity
  8
1
  6
Continuous
 62
     7
370
    13
100
AcDbLine
 10
19152.54627103498
 20
13946.19293993571
 30
0.0
 11
19152.54627103498
 21
13961.12938946801
 31
0.0
  0
LINE
  5
1A20
330
1F
100
AcDbEntity
  8
1
  6
Continuous
 62
     7
370
    13
100
AcDbLine
 10
19152.54627103498
 20
13032.63665286087
 30
0.0
 11
19521.2314216371
 21
13032.63665286087
 31
0.0
  0
LINE
  5
1A21
330
1F
100
AcDbEntity
  8
1
  6
Continuous
 62
     7
370
    13
100
AcDbLine
 10
19707.20544533024
 20
13032.63665286087
 30
0.0
 11
19772.45946583592
 21
12934.75562210285
 31
0.0
  0
LINE
  5
1A22
330
1F
100
AcDbEntity
  8
1
  6
Continuous
 62
     7
370
    13
100
AcDbLine
 10
19739.8324555832
 20
13032.63665286087
 30
0.0
 11
19152.54627103498
 21
13032.63665286087
 31
0.0
  0
LINE
  5
1A23
330
1F
100
AcDbEntity
  8
1
  6
Continuous
 62
     7
370
    13
100
AcDbLine
 10
19837.71348634125
 20
12934.75562210285
 30
0.0
 11
19837.71348634125
 21
13097.89067336618
 31
0.0
  0
LINE
  5
1A24
330
1F
100
AcDbEntity
  8
1
  6
Continuous
 62
     7
370
    13
100
AcDbLine
 10
19837.71348634125
 20
12934.75562210285
 30
0.0
 11
19772.45946583592
 21
12934.75562210285
 31
0.0
  0
LINE
  5
1A25
330
1F
100
AcDbEntity
  8
1
  6
Continuous
 62
     7
370
    13
100
AcDbLine
 10
19152.54627103498
 20
13946.19293993571
 30
0.0
 11
19576.69740431975
 21
13946.19293993571
 31
0.0
  0
ARC
  5
1A26
330
1F
100
AcDbEntity
  8
1
  6
Continuous
 62
     7
370
    13
100
AcDbCircle
 10
19018.84776519976
 20
12963.31795941929
 30
0.0
 40
130.508041010688
100
AcDbArc
 50
270.954841000766
 51
0.0
  0
LINE
  5
1A27
330
1F
100
AcDbEntity
  8
1
  6
Continuous
 62
     7
370
    13
100
AcDbLine
 10
19149.35580621058
 20
14024.7652407729
 30
0.0
 11
19149.35580621058
 21
12963.31795941929
 31
0.0
  0
CIRCLE
  5
1A28
330
1F
100
AcDbEntity
  8
1
  6
Continuous
 62
     7
370
    13
100
AcDbCircle
 10
6856.542407332701
 20
13402.43764721282
 30
0.0
 40
88.09292768221443
  0
TEXT
  5
1A29
330
1F
100
AcDbEntity
  8
1
  6
DASHDOT
 62
     7
370
    13
100
AcDbText
 10
7196.646362206012
 20
13282.95747041412
 30
0.0
 40
234.9144738192384
  1
一回解錠
 41
1.018518999999999
  7
KANJI
100
AcDbText
  0
TEXT
  5
1A2A
330
1F
100
AcDbEntity
  8
1
  6
DASHDOT
 62
     7
370
    13
100
AcDbText
 10
9498.552801398298
 20
13292.25486325516
 30
0.0
 40
234.9144738192384
  1
連続解錠
 41
1.018518999999999
  7
KANJI
100
AcDbText
  0
LINE
  5
1A2B
330
1F
100
AcDbEntity
  8
1
  6
Continuous
 62
     7
370
    13
100
AcDbLine
 10
19021.02261644904
 20
12832.82799377161
 30
0.0
 11
18105.29147812498
 21
12817.56586142408
 31
0.0
  0
LINE
  5
1A2C
330
1F
100
AcDbEntity
  8
1
  6
Continuous
 62
     7
370
    13
100
AcDbLine
 10
18105.29147812498
 20
17320.09327629287
 30
0.0
 11
19934.57890352392
 21
17289.60509706934
 31
0.0
  0
ARC
  5
1A2D
330
1F
100
AcDbEntity
  8
1
  6
Continuous
 62
     7
370
    13
100
AcDbCircle
 10
11840.90550961196
 20
18527.29265564179
 30
0.0
 40
456.7781435374081
100
AcDbArc
 50
0.0
 51
90.0
  0
LINE
  5
1A2E
330
1F
100
AcDbEntity
  8
1
  6
Continuous
 62
     7
370
    13
100
AcDbLine
 10
12297.68365314936
 20
11610.36648207527
 30
0.0
 11
12297.68365314936
 21
18527.29265564179
 31
0.0
  0
LINE
  5
1A2F
330
1F
100
AcDbEntity
  8
1
  6
Continuous
 62
     7
370
    13
100
AcDbLine
 10
5184.995418066799
 20
18984.07079917912
 30
0.0
 11
11840.90550961196
 21
18984.07079917912
 31
0.0
  0
ARC
  5
1A30
330
1F
100
AcDbEntity
  8
1
  6
Continuous
 62
     7
370
    13
100
AcDbCircle
 10
11840.90550961196
 20
11610.36648207527
 30
0.0
 40
456.7781435374081
100
AcDbArc
 50
270.0
 51
0.0
  0
LINE
  5
1A31
330
1F
100
AcDbEntity
  8
1
  6
Continuous
 62
     7
370
    13
100
AcDbLine
 10
5184.995418066799
 20
11153.58833853782
 30
0.0
 11
11840.90550961196
 21
11153.58833853782
 31
0.0
  0
ARC
  5
1A32
330
1F
100
AcDbEntity
  8
1
  6
Continuous
 62
     7
370
    13
100
AcDbCircle
 10
5184.995418066799
 20
11610.36648207527
 30
0.0
 40
456.7781435374081
100
AcDbArc
 50
180.0
 51
270.0
  0
LINE
  5
1A33
330
1F
100
AcDbEntity
  8
1
  6
Continuous
 62
     7
370
    13
100
AcDbLine
 10
4728.217274529423
 20
18527.29265564179
 30
0.0
 11
4728.217274529423
 21
11610.36648207527
 31
0.0
  0
ARC
  5
1A34
330
1F
100
AcDbEntity
  8
1
  6
Continuous
 62
     7
370
    13
100
AcDbCircle
 10
5184.995418066799
 20
18527.29265564179
 30
0.0
 40
456.7781435374081
100
AcDbArc
 50
90.0
 51
180.0
  0
ARC
  5
1A35
330
1F
100
AcDbEntity
  8
1
  6
Continuous
 62
     7
370
    13
100
AcDbCircle
 10
19181.98281646322
 20
14024.7652407729
 30
0.0
 40
32.627010252672
100
AcDbArc
 50
90.0
 51
180.0
  0
LINE
  5
1A36
330
1F
100
AcDbEntity
  8
1
  6
Continuous
 62
     7
370
    13
100
AcDbLine
 10
19997.65807277997
 20
14057.39225102563
 30
0.0
 11
19181.98281646322
 21
14057.39225102563
 31
0.0
  0
ARC
  5
1A37
330
1F
100
AcDbEntity
  8
1
  6
Continuous
 62
     7
370
    13
100
AcDbCircle
 10
19932.40405227456
 20
17159.11519667618
 30
0.0
 40
130.508041010688
100
AcDbArc
 50
0.0
 51
89.04515899923396
  0
LINE
  5
1A38
330
1F
100
AcDbEntity
  8
1
  6
Continuous
 62
     7
370
    13
100
AcDbLine
 10
20062.91209328538
 20
17159.11519667618
 30
0.0
 11
20062.91209328538
 21
14122.64627153096
 31
0.0
  0
ARC
  5
1A39
330
1F
100
AcDbEntity
  8
1
  6
Continuous
 62
     7
370
    13
100
AcDbCircle
 10
19997.65807277997
 20
14122.64627153096
 30
0.0
 40
65.254020505344
100
AcDbArc
 50
270.0
 51
0.0
  0
TEXT
  5
1A3A
330
1F
100
AcDbEntity
  8
1
  6
Continuous
 62
     7
370
    13
100
AcDbText
 10
6953.905060150617
 20
17016.94019357813
 30
0.0
 40
195.7620615160319
  1
C-3830
 41
0.6333330000000001
  7
KANJI
100
AcDbText
  0
TEXT
  5
1A3B
330
1F
100
AcDbEntity
  8
1
  6
Continuous
 62
     7
370
    13
100
AcDbText
 10
6957.29826921667
 20
17222.72762178868
 30
0.0
 40
195.7620615160319
  1
LOCK CONTROL UNIT
 41
0.664609
  7
KANJI
100
AcDbText
  0
LINE
  5
1A3C
330
1F
100
AcDbEntity
  8
1
  6
Continuous
 62
     7
370
    13
100
AcDbLine
 10
11351.50035582201
 20
17972.6334813463
 30
0.0
 11
5674.40057185691
 21
17972.6334813463
 31
0.0
  0
LINE
  5
1A3D
330
1F
100
AcDbEntity
  8
1
  6
Continuous
 62
     7
370
    13
100
AcDbLine
 10
11351.50035582201
 20
12165.02565637068
 30
0.0
 11
11351.50035582201
 21
17972.6334813463
 31
0.0
  0
LINE
  5
1A3E
330
1F
100
AcDbEntity
  8
1
  6
Continuous
 62
     7
370
    13
100
AcDbLine
 10
5674.40057185691
 20
12165.02565637068
 30
0.0
 11
11351.50035582201
 21
12165.02565637068
 31
0.0
  0
LINE
  5
1A3F
330
1F
100
AcDbEntity
  8
1
  6
Continuous
 62
     7
370
    13
100
AcDbLine
 10
5674.40057185691
 20
17972.6334813463
 30
0.0
 11
5674.40057185691
 21
12165.02565637068
 31
0.0
  0
ARC
  5
1A40
330
1F
100
AcDbEntity
  8
1
  6
Continuous
 62
     7
370
    13
100
AcDbCircle
 10
11351.50035582201
 20
17972.6334813463
 30
0.0
 40
65.254020505344
100
AcDbArc
 50
0.0
 51
90.0
  0
LINE
  5
1A41
330
1F
100
AcDbEntity
  8
1
  6
Continuous
 62
     7
370
    13
100
AcDbLine
 10
11416.75437632726
 20
12165.02565637068
 30
0.0
 11
11416.75437632726
 21
17972.6334813463
 31
0.0
  0
LINE
  5
1A42
330
1F
100
AcDbEntity
  8
1
  6
Continuous
 62
     7
370
    13
100
AcDbLine
 10
11351.50035582201
 20
18037.88750185158
 30
0.0
 11
5674.40057185691
 21
18037.88750185158
 31
0.0
  0
ARC
  5
1A43
330
1F
100
AcDbEntity
  8
1
  6
Continuous
 62
     7
370
    13
100
AcDbCircle
 10
11351.50035582201
 20
12165.02565637068
 30
0.0
 40
65.254020505344
100
AcDbArc
 50
270.0
 51
0.0
  0
LINE
  5
1A44
330
1F
100
AcDbEntity
  8
1
  6
Continuous
 62
     7
370
    13
100
AcDbLine
 10
5674.40057185691
 20
12099.77163586534
 30
0.0
 11
11351.50035582201
 21
12099.77163586534
 31
0.0
  0
ARC
  5
1A45
330
1F
100
AcDbEntity
  8
1
  6
Continuous
 62
     7
370
    13
100
AcDbCircle
 10
5674.40057185691
 20
12165.02565637068
 30
0.0
 40
65.254020505344
100
AcDbArc
 50
180.0
 51
270.0
  0
LINE
  5
1A46
330
1F
100
AcDbEntity
  8
1
  6
Continuous
 62
     7
370
    13
100
AcDbLine
 10
5609.14655135166
 20
17972.6334813463
 30
0.0
 11
5609.14655135166
 21
12165.02565637068
 31
0.0
  0
ARC
  5
1A47
330
1F
100
AcDbEntity
  8
1
  6
Continuous
 62
     7
370
    13
100
AcDbCircle
 10
5674.40057185691
 20
17972.6334813463
 30
0.0
 40
65.254020505344
100
AcDbArc
 50
90.0
 51
180.0
  0
ARC
  5
1A48
330
1F
100
AcDbEntity
  8
1
  6
Continuous
 62
     7
370
    13
100
AcDbCircle
 10
11351.50035582201
 20
12165.02565637068
 30
0.0
 40
97.881030758016
100
AcDbArc
 50
270.0
 51
0.0
  0
LINE
  5
1A49
330
1F
100
AcDbEntity
  8
1
  6
Continuous
 62
     7
370
    13
100
AcDbLine
 10
11449.38138657979
 20
12165.02565637068
 30
0.0
 11
11449.38138657979
 21
17972.6334813463
 31
0.0
  0
LINE
  5
1A4A
330
1F
100
AcDbEntity
  8
1
  6
Continuous
 62
     7
370
    13
100
AcDbLine
 10
5674.40057185691
 20
12067.14462561262
 30
0.0
 11
11351.50035582201
 21
12067.14462561262
 31
0.0
  0
ARC
  5
1A4B
330
1F
100
AcDbEntity
  8
1
  6
Continuous
 62
     7
370
    13
100
AcDbCircle
 10
5674.40057185691
 20
12165.02565637068
 30
0.0
 40
97.881030758016
100
AcDbArc
 50
180.0
 51
270.0
  0
LINE
  5
1A4C
330
1F
100
AcDbEntity
  8
1
  6
Continuous
 62
     7
370
    13
100
AcDbLine
 10
5576.519541098853
 20
17972.6334813463
 30
0.0
 11
5576.519541098853
 21
12165.02565637068
 31
0.0
  0
ARC
  5
1A4D
330
1F
100
AcDbEntity
  8
1
  6
Continuous
 62
     7
370
    13
100
AcDbCircle
 10
5674.40057185691
 20
17972.6334813463
 30
0.0
 40
97.881030758016
100
AcDbArc
 50
90.0
 51
180.0
  0
LINE
  5
1A4E
330
1F
100
AcDbEntity
  8
1
  6
Continuous
 62
     7
370
    13
100
AcDbLine
 10
11351.50035582201
 20
18070.51451210424
 30
0.0
 11
5674.40057185691
 21
18070.51451210424
 31
0.0
  0
ARC
  5
1A4F
330
1F
100
AcDbEntity
  8
1
  6
Continuous
 62
     7
370
    13
100
AcDbCircle
 10
11351.50035582201
 20
17972.6334813463
 30
0.0
 40
97.881030758016
100
AcDbArc
 50
0.0
 51
90.0
  0
DIMENSION
  5
1A50
330
1F
100
AcDbEntity
  8
1
  6
Continuous
 62
     7
370
    13
100
AcDbDimension
  2
*D22
 10
12297.68365314937
 20
20300.32922299854
 30
0.0
 11
8512.950463839386
 21
20550.32922299854
 31
0.0
 70
    32
  1
116
 71
     5
 42
7569.466378619982
  3
Standard
100
AcDbAlignedDimension
 13
4728.217274529394
 23
18527.29265564179
 33
0.0
 14
12297.68365314937
 24
18527.29265564179
 34
0.0
100
AcDbRotatedDimension
1001
ACAD
1000
DSTYLE
1002
{
1070
    41
1040
500.0
1070
    42
1040
50.0
1070
    73
1070
     0
1070
    77
1070
     1
1070
   140
1040
400.0
1070
   147
1040
50.0
1070
   173
1070
     1
1070
   343
1005
2B
1070
   344
1005
2B
1070
   371
1070
    13
1070
   372
1070
    13
1002
}
  0
DIMENSION
  5
1A51
330
1F
100
AcDbEntity
  8
1
  6
Continuous
 62
     7
370
    13
100
AcDbDimension
  2
*D23
 10
13575.28050540776
 20
11153.58833853782
 30
0.0
 11
13325.28050540776
 21
15068.82956885848
 31
0.0
 70
    32
  1
120
 71
     5
 42
7830.482460641303
  3
Standard
100
AcDbAlignedDimension
 13
11840.90550961196
 23
18984.07079917912
 33
0.0
 14
11840.90550961196
 24
11153.58833853782
 34
0.0
 50
270.0
100
AcDbRotatedDimension
1001
ACAD
1000
DSTYLE
1002
{
1070
    41
1040
500.0
1070
    42
1040
50.0
1070
    73
1070
     0
1070
    77
1070
     1
1070
   140
1040
400.0
1070
   147
1040
50.0
1070
   173
1070
     1
1070
   343
1005
2B
1070
   344
1005
2B
1070
   371
1070
    13
1070
   372
1070
    13
1002
}
  0
DIMENSION
  5
1A52
330
1F
100
AcDbEntity
  8
1
  6
Continuous
 62
     7
370
    13
100
AcDbDimension
  2
*D24
 10
18105.29147812498
 20
20300.32922299854
 30
0.0
 11
15942.58149972857
 21
20300.32922299854
 31
0.0
 70
   160
  1
8.8
 71
     5
 42
567.7099783964076
  3
Standard
100
AcDbAlignedDimension
 13
17537.58149972857
 23
18075.28347168347
 33
0.0
 14
18105.29147812498
 24
19245.08746848658
 34
0.0
100
AcDbRotatedDimension
1001
ACAD
1000
DSTYLE
1002
{
1070
    41
1040
500.0
1070
    42
1040
50.0
1070
    73
1070
     0
1070
    77
1070
     1
1070
   140
1040
400.0
1070
   147
1040
50.0
1070
   173
1070
     1
1070
   343
1005
2B
1070
   344
1005
2B
1070
   371
1070
    13
1070
   372
1070
    13
1002
}
  0
DIMENSION
  5
1A53
330
1F
100
AcDbEntity
  8
1
  6
Continuous
 62
     7
370
    13
100
AcDbDimension
  2
*D25
 10
22150.46423018591
 20
12817.56586142408
 30
0.0
 11
21900.4642301859
 21
15068.82956885848
 31
0.0
 70
    32
  1
69
 71
     5
 42
4502.527414868803
  3
Standard
100
AcDbAlignedDimension
 13
18105.291478125
 23
17320.09327629288
 33
0.0
 14
18105.291478125
 24
12817.56586142408
 34
0.0
 50
270.0
100
AcDbRotatedDimension
1001
ACAD
1000
DSTYLE
1002
{
1070
    41
1040
500.0
1070
    42
1040
50.0
1070
    73
1070
     0
1070
    77
1070
     1
1070
   140
1040
400.0
1070
   147
1040
50.0
1070
   173
1070
     1
1070
   343
1005
2B
1070
   344
1005
2B
1070
   371
1070
    13
1070
   372
1070
    13
1002
}
  0
DIMENSION
  5
1A54
330
1F
100
AcDbEntity
  8
1
  6
Continuous
 62
     7
370
    13
100
AcDbDimension
  2
*D26
 10
20062.91209328538
 20
20300.32922299854
 30
0.0
 11
19084.10178570518
 21
20550.32922299854
 31
0.0
 70
    32
  1
30
 71
     5
 42
1957.620615160398
  3
Standard
100
AcDbAlignedDimension
 13
18105.29147812498
 23
18984.07138646514
 33
0.0
 14
20062.91209328538
 24
17159.11519667618
 34
0.0
100
AcDbRotatedDimension
1001
ACAD
1000
DSTYLE
1002
{
1070
    41
1040
500.0
1070
    42
1040
50.0
1070
    73
1070
     0
1070
    77
1070
     1
1070
   140
1040
400.0
1070
   147
1040
50.0
1070
   173
1070
     1
1070
   343
1005
2B
1070
   344
1005
2B
1070
   371
1070
    13
1070
   372
1070
    13
1002
}
  0
TEXT
  5
1A55
330
1F
100
AcDbEntity
  8
1
  6
Continuous
 62
     7
370
    13
100
AcDbText
 10
4069.378557324962
 20
24327.45775502332
 30
0.0
 40
741.8776780800004
  1
コントローラ　Ｃ－３８３０
 41
0.8
  7
KANJI
100
AcDbText
  0
LINE
  5
1A56
330
1F
100
AcDbEntity
  8
1
  6
Continuous
 62
     7
370
    13
100
AcDbLine
 10
1314.618368147174
 20
24222.94996532167
 30
0.0
 11
3054.042055772152
 21
24222.94996532167
 31
0.0
  0
LINE
  5
1A57
330
1F
100
AcDbEntity
  8
1
  6
Continuous
 62
     7
370
    13
100
AcDbLine
 10
1314.618368147174
 20
25126.63952452539
 30
0.0
 11
1314.618368147174
 21
24222.94996532167
 31
0.0
  0
LINE
  5
1A58
330
1F
100
AcDbEntity
  8
1
  6
Continuous
 62
     7
370
    13
100
AcDbLine
 10
3054.042055772152
 20
24222.94996532167
 30
0.0
 11
3054.042055772152
 21
25126.63952452539
 31
0.0
  0
LINE
  5
1A59
330
1F
100
AcDbEntity
  8
1
  6
Continuous
 62
     7
370
    13
100
AcDbLine
 10
3054.042055772152
 20
25126.63952452539
 30
0.0
 11
1314.618368147174
 21
25126.63952452539
 31
0.0
  0
LINE
  5
1A5A
330
1F
100
AcDbEntity
  8
1
  6
Continuous
 62
     7
370
    13
100
AcDbLine
 10
3054.042055772152
 20
25126.63952452539
 30
0.0
 11
2184.330211959662
 21
24222.94996532167
 31
0.0
  0
TEXT
  5
1A5B
330
1F
100
AcDbEntity
  8
1
  6
Continuous
 62
     7
370
    13
100
AcDbText
 10
2034.996878626329
 20
24647.53971578118
 30
0.0
 40
400.0
  1
Ｃ
 41
0.8
  7
KANJI
 72
     1
 11
2184.330211959662
 21
25047.53971578118
 31
0.0
100
AcDbText
 73
     3
  0
LINE
  5
1A5C
330
1F
100
AcDbEntity
  8
0
370
    13
100
AcDbLine
 10
2184.330211959662
 20
24222.94996532167
 30
0.0
 11
1314.618368147174
 21
25126.63952452539
 31
0.0
  0
TEXT
  5
1A5D
330
1F
100
AcDbEntity
  8
1
  6
Continuous
 62
     7
370
    13
100
AcDbText
 10
2888.370183979714
 20
6584.540789781211
 30
0.0
 40
447.9946116360424
  1
材　質
 41
0.944444
  7
KANJI
100
AcDbText
  0
TEXT
  5
1A5E
330
1F
100
AcDbEntity
  8
1
  6
Continuous
 62
     7
370
    13
100
AcDbText
 10
3295.283528096013
 20
7246.290062076602
 30
0.0
 40
447.9946116360424
  1
項　目
 41
0.944444
  7
KANJI
100
AcDbText
  0
TEXT
  5
1A5F
330
1F
100
AcDbEntity
  8
1
  6
Continuous
 62
     7
370
    13
100
AcDbText
 10
12379.6132373019
 20
7246.290062076602
 30
0.0
 40
447.9946116360424
  1
内　容
 41
0.944444
  7
KANJI
100
AcDbText
  0
TEXT
  5
1A60
330
1F
100
AcDbEntity
  8
1
  6
Continuous
 62
     7
370
    13
100
AcDbText
 10
2888.370183979714
 20
5974.397682610288
 30
0.0
 40
447.9946116360424
  1
彩　色
 41
0.944444
  7
KANJI
100
AcDbText
  0
TEXT
  5
1A61
330
1F
100
AcDbEntity
  8
1
  6
Continuous
 62
     7
370
    13
100
AcDbText
 10
5584.257012336427
 20
6584.540789781211
 30
0.0
 40
447.9946116360424
  1
樹　脂
 41
0.944444
  7
KANJI
100
AcDbText
  0
TEXT
  5
1A62
330
1F
100
AcDbEntity
  8
1
  6
Continuous
 62
     7
370
    13
100
AcDbText
 10
5576.569843729231
 20
5974.397682610288
 30
0.0
 40
447.9946116360424
  1
本体：白色　　パネル：ライトグレー
 41
0.75
  7
KANJI
100
AcDbText
  0
TEXT
  5
1A63
330
1F
100
AcDbEntity
  8
1
  6
Continuous
 62
     7
370
    13
100
AcDbText
 10
2888.370183979714
 20
4644.781629751683
 30
0.0
 40
447.9946116360424
  1
入力電源
 41
0.944444
  7
KANJI
100
AcDbText
  0
TEXT
  5
1A64
330
1F
100
AcDbEntity
  8
1
  6
Continuous
 62
     7
370
    13
100
AcDbText
 10
2888.370183979714
 20
5313.878759047249
 30
0.0
 40
447.9946116360424
  1
重　量
 41
0.944444
  7
KANJI
100
AcDbText
  0
TEXT
  5
1A65
330
1F
100
AcDbEntity
  8
1
  6
Continuous
 62
     7
370
    13
100
AcDbText
 10
5576.569843729231
 20
5313.878759047249
 30
0.0
 40
447.9946116360424
  1
約２００ｇ
 41
0.944444
  7
KANJI
100
AcDbText
  0
TEXT
  5
1A66
330
1F
100
AcDbEntity
  8
1
  6
Continuous
 62
     7
370
    13
100
AcDbText
 10
5576.569843729231
 20
4644.781629751683
 30
0.0
 40
447.9946116360424
  1
ＡＣ１００Ｖ±１０％　５０／６０Ｈｚ
 41
0.8872049999999999
  7
KANJI
100
AcDbText
  0
TEXT
  5
1A67
330
1F
100
AcDbEntity
  8
1
  6
Continuous
 62
     7
370
    13
100
AcDbText
 10
2888.370183979597
 20
2067.709983496635
 30
0.0
 40
447.9946116360424
  1
外部出力
 41
0.944444
  7
KANJI
100
AcDbText
  0
LINE
  5
1A68
330
1F
100
AcDbEntity
  8
1
  6
Continuous
 62
     7
370
    13
100
AcDbLine
 10
5372.084255646652
 20
7777.874259458447
 30
0.0
 11
5372.084255646652
 21
1336.811098221951
 31
0.0
  0
LINE
  5
1A69
330
1F
100
AcDbEntity
  8
1
  6
Continuous
 62
     7
370
    13
100
AcDbLine
 10
21629.3960935029
 20
7777.874259458447
 30
0.0
 11
21629.3960935029
 21
1336.811098221951
 31
0.0
  0
LINE
  5
1A6A
330
1F
100
AcDbEntity
  8
1
  6
Continuous
 62
     7
370
    13
100
AcDbLine
 10
2564.023224894219
 20
7777.874259458447
 30
0.0
 11
2564.023224894226
 21
1336.811098221951
 31
0.0
  0
TEXT
  5
1A6B
330
1F
100
AcDbEntity
  8
1
  6
Continuous
 62
     7
370
    13
100
AcDbText
 10
5576.569843729114
 20
2067.709983496635
 30
0.0
 40
447.9946116360424
  1
接点容量　ＤＣ２４Ｖ　０．３Ａ以下
 41
0.8872049999999999
  7
KANJI
100
AcDbText
  0
TEXT
  5
1A6C
330
1F
100
AcDbEntity
  8
1
  6
Continuous
 62
     7
370
    13
100
AcDbText
 10
2888.370183979714
 20
4021.274598718926
 30
0.0
 40
447.9946116360424
  1
消費電力
 41
0.944444
  7
KANJI
100
AcDbText
  0
TEXT
  5
1A6D
330
1F
100
AcDbEntity
  8
1
  6
Continuous
 62
     7
370
    13
100
AcDbText
 10
5576.569843729231
 20
4021.274598718926
 30
0.0
 40
447.9946116360424
  1
３０ＶＡ ｍａｘ
 41
0.8872049999999999
  7
KANJI
100
AcDbText
  0
LINE
  5
1A6E
330
1F
100
AcDbEntity
  8
1
  6
Continuous
 62
     7
370
    13
100
AcDbLine
 10
2564.023224894219
 20
7777.874259458447
 30
0.0
 11
21629.3960935029
 21
7777.874259458447
 31
0.0
  0
LINE
  5
1A6F
330
1F
100
AcDbEntity
  8
1
  6
Continuous
 62
     7
370
    13
100
AcDbLine
 10
2564.023224894219
 20
7136.847469716086
 30
0.0
 11
21629.3960935029
 21
7136.847469712491
 31
0.0
  0
LINE
  5
1A70
330
1F
100
AcDbEntity
  8
1
  6
Continuous
 62
     7
370
    13
100
AcDbLine
 10
2564.023224894219
 20
6495.8206799701
 30
0.0
 11
21629.3960935029
 21
6495.8206799701
 31
0.0
  0
LINE
  5
1A71
330
1F
100
AcDbEntity
  8
1
  6
Continuous
 62
     7
370
    13
100
AcDbLine
 10
2564.023224894219
 20
5213.767100485333
 30
0.0
 11
21629.3960935029
 21
5213.767100485333
 31
0.0
  0
LINE
  5
1A72
330
1F
100
AcDbEntity
  8
1
  6
Continuous
 62
     7
370
    13
100
AcDbLine
 10
2564.023224894219
 20
4572.740310742971
 30
0.0
 11
21629.3960935029
 21
4572.740310742971
 31
0.0
  0
LINE
  5
1A73
330
1F
100
AcDbEntity
  8
1
  6
Continuous
 62
     7
370
    13
100
AcDbLine
 10
2564.023224894219
 20
2639.394853583304
 30
0.0
 11
21629.3960935029
 21
2639.394853579724
 31
0.0
  0
LINE
  5
1A74
330
1F
100
AcDbEntity
  8
1
  6
Continuous
 62
     7
370
    13
100
AcDbLine
 10
2564.023224894219
 20
1988.102975902365
 30
0.0
 11
21629.3960935029
 21
1988.102975902365
 31
0.0
  0
LINE
  5
1A75
330
1F
100
AcDbEntity
  8
1
  6
Continuous
 62
     7
370
    13
100
AcDbLine
 10
2564.023224894365
 20
3290.686731263718
 30
0.0
 11
21629.39609350305
 21
3290.686731260139
 31
0.0
  0
TEXT
  5
1A76
330
1F
100
AcDbEntity
  8
1
  6
Continuous
 62
     7
370
    13
100
AcDbText
 10
2888.370183979597
 20
2739.22101923915
 30
0.0
 40
447.9946116360424
  1
外部入力
 41
0.944444
  7
KANJI
100
AcDbText
  0
TEXT
  5
1A77
330
1F
100
AcDbEntity
  8
1
  6
Continuous
 62
     7
370
    13
100
AcDbText
 10
5576.569843729114
 20
2739.22101923915
 30
0.0
 40
447.9946116360424
  1
接点容量　ＤＣ２４Ｖ　０．１Ａ以上
 41
0.8872049999999999
  7
KANJI
100
AcDbText
  0
LINE
  5
1A78
330
1F
100
AcDbEntity
  8
1
  6
Continuous
 62
     7
370
    13
100
AcDbLine
 10
2564.023224894219
 20
3941.978608933088
 30
0.0
 11
21629.3960935029
 21
3941.978608933088
 31
0.0
  0
LINE
  5
1A79
330
1F
100
AcDbEntity
  8
0
370
    13
100
AcDbLine
 10
2564.023224894219
 20
5854.79389022771
 30
0.0
 11
21629.39609350293
 21
5854.793890227622
 31
0.0
  0
TEXT
  5
1A7A
330
1F
100
AcDbEntity
  8
1
  6
Continuous
 62
     7
370
    13
100
AcDbText
 10
2888.370183979597
 20
3390.512896909044
 30
0.0
 40
447.9946116360424
  1
通信方式
 41
0.944444
  7
KANJI
100
AcDbText
  0
TEXT
  5
1A7B
330
1F
100
AcDbEntity
  8
1
  6
Continuous
 62
     7
370
    13
100
AcDbText
 10
5576.569843729114
 20
3390.512896909044
 30
0.0
 40
447.9946116360424
  1
電源搬送波重畳方式
 41
0.8872049999999999
  7
KANJI
100
AcDbText
  0
TEXT
  5
1A7C
330
1F
100
AcDbEntity
  8
1
  6
Continuous
 62
     7
370
    13
100
AcDbText
 10
2888.370183979597
 20
1416.418105816221
 30
0.0
 40
447.9946116360424
  1
ＪＥＭ－Ａ
 41
0.8
  7
KANJI
100
AcDbText
  0
TEXT
  5
1A7D
330
1F
100
AcDbEntity
  8
1
  6
Continuous
 62
     7
370
    13
100
AcDbText
 10
5576.569843729114
 20
1416.418105816221
 30
0.0
 40
447.9946116360424
  1
入出力はＪＥＭ－Ａに準拠。ＪＥＭ－Ａ標準コネクタにて出力
 41
0.8872049999999999
  7
KANJI
100
AcDbText
  0
LINE
  5
1A7E
330
1F
100
AcDbEntity
  8
1
  6
Continuous
 62
     7
370
    13
100
AcDbLine
 10
2564.023224894219
 20
1336.811098221951
 30
0.0
 11
21629.3960935029
 21
1336.811098221951
 31
0.0
  0
ENDSEC
  0
SECTION
  2
OBJECTS
  0
DICTIONARY
  5
C
330
0
100
AcDbDictionary
281
     1
  3
ACAD_GROUP
350
D
  3
ACAD_LAYOUT
350
1A
  3
ACAD_MLINESTYLE
350
17
  3
ACAD_PLOTSETTINGS
350
19
  3
ACAD_PLOTSTYLENAME
350
E
  3
AcDbVariableDictionary
350
932
  0
DICTIONARY
  5
5A
330
2
100
AcDbDictionary
280
     1
281
     1
  3
ACAD_LAYERSTATES
360
5B
  0
DICTIONARY
  5
D
102
{ACAD_REACTORS
330
C
102
}
330
C
100
AcDbDictionary
281
     1
  0
DICTIONARY
  5
1A
102
{ACAD_REACTORS
330
C
102
}
330
C
100
AcDbDictionary
281
     1
  3
Model
350
22
  3
ﾚｲｱｳﾄ1
350
1E
  3
ﾚｲｱｳﾄ2
350
26
  0
DICTIONARY
  5
17
102
{ACAD_REACTORS
330
C
102
}
330
C
100
AcDbDictionary
281
     1
  3
Standard
350
18
  0
DICTIONARY
  5
19
102
{ACAD_REACTORS
330
C
102
}
330
C
100
AcDbDictionary
281
     1
  0
ACDBDICTIONARYWDFLT
  5
E
102
{ACAD_REACTORS
330
C
102
}
330
C
100
AcDbDictionary
281
     1
  3
Normal
350
F
100
AcDbDictionaryWithDefault
340
F
  0
DICTIONARY
  5
932
102
{ACAD_REACTORS
330
C
102
}
330
C
100
AcDbDictionary
281
     1
  3
DIMASSOC
350
934
  3
HIDETEXT
350
933
  0
DICTIONARY
  5
5B
102
{ACAD_REACTORS
330
5A
102
}
330
5A
100
AcDbDictionary
281
     1
  0
LAYOUT
  5
22
102
{ACAD_REACTORS
330
1A
102
}
330
1A
100
AcDbPlotSettings
  1

  2
DocuCentre a235
  4

  6

 40
0.0
 41
0.0
 42
0.0
 43
0.0
 44
0.0
 45
0.0
 46
0.0
 47
0.0
 48
0.0
 49
0.0
140
0.0
141
0.0
142
1.0
143
1.0
 70
  1712
 72
     0
 73
     0
 74
     0
  7

 75
     0
147
1.0
148
0.0
149
0.0
100
AcDbLayout
  1
Model
 70
     1
 71
     0
 10
0.0
 20
0.0
 11
12.0
 21
9.0
 12
0.0
 22
0.0
 32
0.0
 14
0.0
 24
0.0
 34
0.0
 15
0.0
 25
0.0
 35
0.0
146
0.0
 13
0.0
 23
0.0
 33
0.0
 16
1.0
 26
0.0
 36
0.0
 17
0.0
 27
1.0
 37
0.0
 76
     0
330
1F
  0
LAYOUT
  5
1E
102
{ACAD_REACTORS
330
1A
102
}
330
1A
100
AcDbPlotSettings
  1

  2
DocuCentre a235
  4

  6

 40
0.0
 41
0.0
 42
0.0
 43
0.0
 44
0.0
 45
0.0
 46
0.0
 47
0.0
 48
0.0
 49
0.0
140
0.0
141
0.0
142
1.0
143
1.0
 70
   688
 72
     0
 73
     0
 74
     5
  7

 75
    16
147
1.0
148
0.0
149
0.0
100
AcDbLayout
  1
ﾚｲｱｳﾄ1
 70
     1
 71
     1
 10
0.0
 20
0.0
 11
420.0
 21
297.0
 12
0.0
 22
0.0
 32
0.0
 14
1.000000000000000E+20
 24
1.000000000000000E+20
 34
1.000000000000000E+20
 15
-1.000000000000000E+20
 25
-1.000000000000000E+20
 35
-1.000000000000000E+20
146
0.0
 13
0.0
 23
0.0
 33
0.0
 16
1.0
 26
0.0
 36
0.0
 17
0.0
 27
1.0
 37
0.0
 76
     0
330
1B
  0
LAYOUT
  5
26
102
{ACAD_REACTORS
330
1A
102
}
330
1A
100
AcDbPlotSettings
  1

  2
DocuCentre a235
  4

  6

 40
0.0
 41
0.0
 42
0.0
 43
0.0
 44
0.0
 45
0.0
 46
0.0
 47
0.0
 48
0.0
 49
0.0
140
0.0
141
0.0
142
1.0
143
1.0
 70
   688
 72
     0
 73
     0
 74
     5
  7

 75
    16
147
1.0
148
0.0
149
0.0
100
AcDbLayout
  1
ﾚｲｱｳﾄ2
 70
     1
 71
     2
 10
0.0
 20
0.0
 11
12.0
 21
9.0
 12
0.0
 22
0.0
 32
0.0
 14
0.0
 24
0.0
 34
0.0
 15
0.0
 25
0.0
 35
0.0
146
0.0
 13
0.0
 23
0.0
 33
0.0
 16
1.0
 26
0.0
 36
0.0
 17
0.0
 27
1.0
 37
0.0
 76
     0
330
23
  0
MLINESTYLE
  5
18
102
{ACAD_REACTORS
330
17
102
}
330
17
100
AcDbMlineStyle
  2
STANDARD
 70
     0
  3

 62
   256
 51
90.0
 52
90.0
 71
     2
 49
0.5
 62
   256
  6
BYLAYER
 49
-0.5
 62
   256
  6
BYLAYER
  0
ACDBPLACEHOLDER
  5
F
102
{ACAD_REACTORS
330
E
102
}
330
E
  0
DICTIONARYVAR
  5
934
102
{ACAD_REACTORS
330
932
102
}
330
932
100
DictionaryVariables
280
     0
  1
2
  0
DICTIONARYVAR
  5
933
102
{ACAD_REACTORS
330
932
102
}
330
932
100
DictionaryVariables
280
     0
  1
1
  0
ENDSEC
  0
EOF
