  0
SECTION
  2
HEADER
  9
$ACADVER
  1
AC1015
  9
$ACADMAINTVER
 70
    13
  9
$DWGCODEPAGE
  3
ANSI_932
  9
$INSBASE
 10
0.0
 20
0.0
 30
0.0
  9
$EXTMIN
 10
808.5261243863788
 20
538.2916830669273
 30
0.0
  9
$EXTMAX
 10
23388.98379643107
 20
25618.24770785703
 30
0.0
  9
$LIMMIN
 10
0.0
 20
0.0
  9
$LIMMAX
 10
420.0
 20
297.0
  9
$ORTHOMODE
 70
     0
  9
$REGENMODE
 70
     1
  9
$FILLMODE
 70
     1
  9
$QTEXTMODE
 70
     0
  9
$MIRRTEXT
 70
     1
  9
$LTSCALE
 40
1.0
  9
$ATTMODE
 70
     1
  9
$TEXTSIZE
 40
2.5
  9
$TRACEWID
 40
1.0
  9
$TEXTSTYLE
  7
Standard
  9
$CLAYER
  8
0
  9
$CELTYPE
  6
ByLayer
  9
$CECOLOR
 62
   256
  9
$CELTSCALE
 40
1.0
  9
$DISPSILH
 70
     0
  9
$DIMSCALE
 40
1.0
  9
$DIMASZ
 40
2.5
  9
$DIMEXO
 40
0.625
  9
$DIMDLI
 40
3.75
  9
$DIMRND
 40
0.0
  9
$DIMDLE
 40
0.0
  9
$DIMEXE
 40
1.25
  9
$DIMTP
 40
0.0
  9
$DIMTM
 40
0.0
  9
$DIMTXT
 40
2.5
  9
$DIMCEN
 40
2.5
  9
$DIMTSZ
 40
0.0
  9
$DIMTOL
 70
     0
  9
$DIMLIM
 70
     0
  9
$DIMTIH
 70
     0
  9
$DIMTOH
 70
     0
  9
$DIMSE1
 70
     0
  9
$DIMSE2
 70
     0
  9
$DIMTAD
 70
     1
  9
$DIMZIN
 70
     8
  9
$DIMBLK
  1

  9
$DIMASO
 70
     1
  9
$DIMSHO
 70
     1
  9
$DIMPOST
  1

  9
$DIMAPOST
  1

  9
$DIMALT
 70
     0
  9
$DIMALTD
 70
     3
  9
$DIMALTF
 40
0.03937007874016
  9
$DIMLFAC
 40
1.0
  9
$DIMTOFL
 70
     1
  9
$DIMTVP
 40
0.0
  9
$DIMTIX
 70
     0
  9
$DIMSOXD
 70
     0
  9
$DIMSAH
 70
     0
  9
$DIMBLK1
  1

  9
$DIMBLK2
  1

  9
$DIMSTYLE
  2
ISO-25
  9
$DIMCLRD
 70
     0
  9
$DIMCLRE
 70
     0
  9
$DIMCLRT
 70
     0
  9
$DIMTFAC
 40
1.0
  9
$DIMGAP
 40
0.625
  9
$DIMJUST
 70
     0
  9
$DIMSD1
 70
     0
  9
$DIMSD2
 70
     0
  9
$DIMTOLJ
 70
     0
  9
$DIMTZIN
 70
     8
  9
$DIMALTZ
 70
     0
  9
$DIMALTTZ
 70
     0
  9
$DIMUPT
 70
     0
  9
$DIMDEC
 70
     2
  9
$DIMTDEC
 70
     2
  9
$DIMALTU
 70
     2
  9
$DIMALTTD
 70
     3
  9
$DIMTXSTY
  7
Standard
  9
$DIMAUNIT
 70
     0
  9
$DIMADEC
 70
     0
  9
$DIMALTRND
 40
0.0
  9
$DIMAZIN
 70
     0
  9
$DIMDSEP
 70
    46
  9
$DIMATFIT
 70
     3
  9
$DIMFRAC
 70
     0
  9
$DIMLDRBLK
  1

  9
$DIMLUNIT
 70
     2
  9
$DIMLWD
 70
    -2
  9
$DIMLWE
 70
    -2
  9
$DIMTMOVE
 70
     0
  9
$LUNITS
 70
     2
  9
$LUPREC
 70
     4
  9
$SKETCHINC
 40
1.0
  9
$FILLETRAD
 40
10.0
  9
$AUNITS
 70
     0
  9
$AUPREC
 70
     0
  9
$MENU
  1
.
  9
$ELEVATION
 40
0.0
  9
$PELEVATION
 40
0.0
  9
$THICKNESS
 40
0.0
  9
$LIMCHECK
 70
     0
  9
$CHAMFERA
 40
10.0
  9
$CHAMFERB
 40
10.0
  9
$CHAMFERC
 40
20.0
  9
$CHAMFERD
 40
0.0
  9
$SKPOLY
 70
     0
  9
$TDCREATE
 40
2455236.659162499
  9
$TDUCREATE
 40
2455236.284162499
  9
$TDUPDATE
 40
2455450.584501226
  9
$TDUUPDATE
 40
2455450.209501226
  9
$TDINDWG
 40
0.0110131134
  9
$TDUSRTIMER
 40
0.0110129282
  9
$USRTIMER
 70
     1
  9
$ANGBASE
 50
0.0
  9
$ANGDIR
 70
     0
  9
$PDMODE
 70
     0
  9
$PDSIZE
 40
0.0
  9
$PLINEWID
 40
0.0
  9
$SPLFRAME
 70
     0
  9
$SPLINETYPE
 70
     6
  9
$SPLINESEGS
 70
     8
  9
$HANDSEED
  5
6F62
  9
$SURFTAB1
 70
     6
  9
$SURFTAB2
 70
     6
  9
$SURFTYPE
 70
     6
  9
$SURFU
 70
     6
  9
$SURFV
 70
     6
  9
$UCSBASE
  2

  9
$UCSNAME
  2

  9
$UCSORG
 10
0.0
 20
0.0
 30
0.0
  9
$UCSXDIR
 10
1.0
 20
0.0
 30
0.0
  9
$UCSYDIR
 10
0.0
 20
1.0
 30
0.0
  9
$UCSORTHOREF
  2

  9
$UCSORTHOVIEW
 70
     0
  9
$UCSORGTOP
 10
0.0
 20
0.0
 30
0.0
  9
$UCSORGBOTTOM
 10
0.0
 20
0.0
 30
0.0
  9
$UCSORGLEFT
 10
0.0
 20
0.0
 30
0.0
  9
$UCSORGRIGHT
 10
0.0
 20
0.0
 30
0.0
  9
$UCSORGFRONT
 10
0.0
 20
0.0
 30
0.0
  9
$UCSORGBACK
 10
0.0
 20
0.0
 30
0.0
  9
$PUCSBASE
  2

  9
$PUCSNAME
  2

  9
$PUCSORG
 10
0.0
 20
0.0
 30
0.0
  9
$PUCSXDIR
 10
1.0
 20
0.0
 30
0.0
  9
$PUCSYDIR
 10
0.0
 20
1.0
 30
0.0
  9
$PUCSORTHOREF
  2

  9
$PUCSORTHOVIEW
 70
     0
  9
$PUCSORGTOP
 10
0.0
 20
0.0
 30
0.0
  9
$PUCSORGBOTTOM
 10
0.0
 20
0.0
 30
0.0
  9
$PUCSORGLEFT
 10
0.0
 20
0.0
 30
0.0
  9
$PUCSORGRIGHT
 10
0.0
 20
0.0
 30
0.0
  9
$PUCSORGFRONT
 10
0.0
 20
0.0
 30
0.0
  9
$PUCSORGBACK
 10
0.0
 20
0.0
 30
0.0
  9
$USERI1
 70
     0
  9
$USERI2
 70
     0
  9
$USERI3
 70
     0
  9
$USERI4
 70
     0
  9
$USERI5
 70
     0
  9
$USERR1
 40
0.0
  9
$USERR2
 40
0.0
  9
$USERR3
 40
0.0
  9
$USERR4
 40
0.0
  9
$USERR5
 40
0.0
  9
$WORLDVIEW
 70
     1
  9
$SHADEDGE
 70
     3
  9
$SHADEDIF
 70
    70
  9
$TILEMODE
 70
     1
  9
$MAXACTVP
 70
    64
  9
$PINSBASE
 10
0.0
 20
0.0
 30
0.0
  9
$PLIMCHECK
 70
     0
  9
$PEXTMIN
 10
1.000000000000000E+20
 20
1.000000000000000E+20
 30
1.000000000000000E+20
  9
$PEXTMAX
 10
-1.000000000000000E+20
 20
-1.000000000000000E+20
 30
-1.000000000000000E+20
  9
$PLIMMIN
 10
0.0
 20
0.0
  9
$PLIMMAX
 10
420.0
 20
297.0
  9
$UNITMODE
 70
     0
  9
$VISRETAIN
 70
     1
  9
$PLINEGEN
 70
     0
  9
$PSLTSCALE
 70
     1
  9
$TREEDEPTH
 70
  3020
  9
$CMLSTYLE
  2
Standard
  9
$CMLJUST
 70
     0
  9
$CMLSCALE
 40
20.0
  9
$PROXYGRAPHICS
 70
     1
  9
$MEASUREMENT
 70
     1
  9
$CELWEIGHT
370
    -1
  9
$ENDCAPS
280
     0
  9
$JOINSTYLE
280
     0
  9
$LWDISPLAY
290
     0
  9
$INSUNITS
 70
     4
  9
$HYPERLINKBASE
  1

  9
$STYLESHEET
  1

  9
$XEDIT
290
     1
  9
$CEPSNTYPE
380
     0
  9
$PSTYLEMODE
290
     1
  9
$FINGERPRINTGUID
  2
{9F70917D-061E-40C1-9485-7AD4368FB371}
  9
$VERSIONGUID
  2
{E3CF6C4B-D403-480F-8523-3161FC52D423}
  9
$EXTNAMES
290
     1
  9
$PSVPSCALE
 40
0.0
  9
$OLESTARTUP
290
     0
  0
ENDSEC
  0
SECTION
  2
CLASSES
  0
CLASS
  1
ACDBDICTIONARYWDFLT
  2
AcDbDictionaryWithDefault
  3
AutoCAD 2000
 90
        0
280
     0
281
     0
  0
CLASS
  1
ACDBPLACEHOLDER
  2
AcDbPlaceHolder
  3
AutoCAD 2000
 90
        0
280
     0
281
     0
  0
CLASS
  1
LAYOUT
  2
AcDbLayout
  3
AutoCAD 2000
 90
        0
280
     0
281
     0
  0
CLASS
  1
DICTIONARYVAR
  2
AcDbDictionaryVar
  3
AutoCAD 2000
 90
        0
280
     0
281
     0
  0
ENDSEC
  0
SECTION
  2
TABLES
  0
TABLE
  2
VPORT
  5
8
330
0
100
AcDbSymbolTable
 70
     2
  0
VPORT
  5
6F61
330
8
100
AcDbSymbolTableRecord
100
AcDbViewportTableRecord
  2
*Active
 70
     0
 10
0.0
 20
0.0
 11
1.0
 21
1.0
 12
14297.42106565411
 22
7940.620685434994
 13
0.0
 23
0.0
 14
10.0
 24
10.0
 15
10.0
 25
10.0
 16
0.0
 26
0.0
 36
1.0
 17
0.0
 27
0.0
 37
0.0
 40
39515.77914026195
 41
1.372384937238493
 42
50.0
 43
0.0
 44
0.0
 50
0.0
 51
0.0
 71
     0
 72
   100
 73
     1
 74
     3
 75
     0
 76
     0
 77
     0
 78
     0
281
     0
 65
     1
110
0.0
120
0.0
130
0.0
111
1.0
121
0.0
131
0.0
112
0.0
122
1.0
132
0.0
 79
     0
146
0.0
  0
ENDTAB
  0
TABLE
  2
LTYPE
  5
5
330
0
100
AcDbSymbolTable
 70
     4
  0
LTYPE
  5
14
330
5
100
AcDbSymbolTableRecord
100
AcDbLinetypeTableRecord
  2
ByBlock
 70
     0
  3

 72
    65
 73
     0
 40
0.0
  0
LTYPE
  5
15
330
5
100
AcDbSymbolTableRecord
100
AcDbLinetypeTableRecord
  2
ByLayer
 70
     0
  3

 72
    65
 73
     0
 40
0.0
  0
LTYPE
  5
16
330
5
100
AcDbSymbolTableRecord
100
AcDbLinetypeTableRecord
  2
Continuous
 70
     0
  3
Solid line
 72
    65
 73
     0
 40
0.0
  0
LTYPE
  5
1294
330
5
100
AcDbSymbolTableRecord
100
AcDbLinetypeTableRecord
  2
HIDDEN
 70
     0
  3
------------------------
 72
    65
 73
     2
 40
12.6
 49
8.4
 74
     0
 49
-4.2
 74
     0
  0
LTYPE
  5
1878
330
5
100
AcDbSymbolTableRecord
100
AcDbLinetypeTableRecord
  2
DASHDOT
 70
     0
  3
--･--･--･--･--･--･--･--
 72
    65
 73
     4
 40
50.5
 49
30.0
 74
     0
 49
-9.0
 74
     0
 49
2.5
 74
     0
 49
-9.0
 74
     0
  0
LTYPE
  5
1B41
330
5
100
AcDbSymbolTableRecord
100
AcDbLinetypeTableRecord
  2
DIVIDE
 70
     0
  3
--･･--･･--･･--･･--･･--
 72
    65
 73
     6
 40
58.0
 49
30.0
 74
     0
 49
-9.0
 74
     0
 49
2.5
 74
     0
 49
-5.0
 74
     0
 49
2.5
 74
     0
 49
-9.0
 74
     0
  0
ENDTAB
  0
TABLE
  2
LAYER
  5
2
102
{ACAD_XDICTIONARY
360
5A
102
}
330
0
100
AcDbSymbolTable
 70
     3
  0
LAYER
  5
10
330
2
100
AcDbSymbolTableRecord
100
AcDbLayerTableRecord
  2
0
 70
     0
 62
     7
  6
Continuous
370
    -3
390
F
  0
LAYER
  5
55
330
2
100
AcDbSymbolTableRecord
100
AcDbLayerTableRecord
  2
1
 70
     0
 62
     7
  6
Continuous
370
    -3
390
F
  0
LAYER
  5
56
330
2
100
AcDbSymbolTableRecord
100
AcDbLayerTableRecord
  2
DEFPOINTS
 70
     0
 62
     7
  6
Continuous
290
     0
370
    -3
390
F
  0
ENDTAB
  0
TABLE
  2
STYLE
  5
3
330
0
100
AcDbSymbolTable
 70
     2
  0
STYLE
  5
11
330
3
100
AcDbSymbolTableRecord
100
AcDbTextStyleTableRecord
  2
Standard
 70
     0
 40
0.0
 41
1.0
 50
0.0
 71
     0
 42
2.5
  3
txt
  4

  0
STYLE
  5
57
330
3
100
AcDbSymbolTableRecord
100
AcDbTextStyleTableRecord
  2
KANJI
 70
     0
 40
0.0
 41
1.0
 50
0.0
 71
     0
 42
0.2
  3
TXT
  4
BIGFONT
  0
ENDTAB
  0
TABLE
  2
VIEW
  5
6
330
0
100
AcDbSymbolTable
 70
     0
  0
ENDTAB
  0
TABLE
  2
UCS
  5
7
330
0
100
AcDbSymbolTable
 70
     0
  0
ENDTAB
  0
TABLE
  2
APPID
  5
9
330
0
100
AcDbSymbolTable
 70
     2
  0
APPID
  5
12
330
9
100
AcDbSymbolTableRecord
100
AcDbRegAppTableRecord
  2
ACAD
 70
     0
  0
APPID
  5
59
330
9
100
AcDbSymbolTableRecord
100
AcDbRegAppTableRecord
  2
ACAD_PSEXT
 70
     0
  0
ENDTAB
  0
TABLE
  2
DIMSTYLE
  5
A
330
0
100
AcDbSymbolTable
 70
     2
100
AcDbDimStyleTable
 71
     0
  0
DIMSTYLE
105
27
330
A
100
AcDbSymbolTableRecord
100
AcDbDimStyleTableRecord
  2
ISO-25
 70
     0
 41
2.5
 42
0.625
 43
3.75
 44
1.25
 73
     0
 74
     0
 77
     1
 78
     8
140
2.5
141
2.5
143
0.03937007874016
147
0.625
171
     3
172
     1
271
     2
272
     2
274
     3
283
     0
284
     8
340
11
  0
DIMSTYLE
105
58
102
{ACAD_REACTORS
330
6D2C
330
6D2D
330
6D59
330
6D5A
330
6EBA
102
}
330
A
100
AcDbSymbolTableRecord
100
AcDbDimStyleTableRecord
  2
Standard
 70
     0
340
11
  0
ENDTAB
  0
TABLE
  2
BLOCK_RECORD
  5
1
330
0
100
AcDbSymbolTable
 70
   131
  0
BLOCK_RECORD
  5
1F
330
1
100
AcDbSymbolTableRecord
100
AcDbBlockTableRecord
  2
*Model_Space
340
22
  0
BLOCK_RECORD
  5
1B
330
1
100
AcDbSymbolTableRecord
100
AcDbBlockTableRecord
  2
*Paper_Space
340
1E
  0
BLOCK_RECORD
  5
23
330
1
100
AcDbSymbolTableRecord
100
AcDbBlockTableRecord
  2
*Paper_Space0
340
26
  0
BLOCK_RECORD
  5
2B
330
1
100
AcDbSymbolTableRecord
100
AcDbBlockTableRecord
  2
_OPEN30
340
0
102
{BLKREFS
331
1253
331
1254
331
125C
331
125D
331
1265
331
1266
331
1274
331
1275
331
1280
331
1281
331
128C
331
128D
331
1560
331
1561
331
1569
331
156A
331
1572
331
1573
331
157D
331
157E
331
1589
331
158A
331
1595
331
1596
331
1822
331
1823
331
182B
331
182C
331
1834
331
1835
331
183F
331
1840
331
184B
331
184C
331
1858
331
1859
331
1864
331
1865
331
1870
331
1871
331
1ABF
331
1AC0
331
1AC8
331
1AC9
331
1AD2
331
1AD3
331
1ADB
331
1ADC
331
1AE4
331
1AE5
331
1AEF
331
1AF0
331
1AFB
331
1AFC
331
1B07
331
1B08
331
1B13
331
1B14
331
1B1F
331
1B20
331
1B2C
331
1B2D
331
1B39
331
1B3A
331
2547
331
2548
331
2550
331
2551
331
2559
331
255A
331
2562
331
2563
331
256B
331
256C
331
2575
331
2576
331
257F
331
2580
331
258B
331
258C
331
2597
331
2598
331
25A3
331
25A4
331
25AF
331
25B0
331
25BB
331
25BC
331
25C7
331
25C8
331
2E6C
331
2E6D
331
2E75
331
2E76
331
2E7E
331
2E7F
331
2E87
331
2E88
331
2E90
331
2E91
331
2E99
331
2E9A
331
2EA4
331
2EA5
331
2EB0
331
2EB1
331
2EBC
331
2EBD
331
2EC8
331
2EC9
331
2EEF
331
2EF0
331
2ED5
331
2ED6
331
2EE2
331
2EE3
331
368F
331
3690
331
3698
331
3699
331
36A1
331
36A2
331
36AA
331
36AB
331
36B4
331
36B5
331
36BE
331
36BF
331
36C8
331
36C9
331
36D3
331
36D4
331
36DF
331
36E0
331
36EB
331
36EC
331
36F7
331
36F8
331
3704
331
3705
331
3711
331
3712
331
371E
331
371F
331
372B
331
372C
331
3738
331
3739
331
532A
331
532B
331
5333
331
5334
331
533C
331
533D
331
5345
331
5346
331
534F
331
5350
331
5359
331
535A
331
5363
331
5364
331
536D
331
536E
331
5377
331
5378
331
5382
331
5383
331
538E
331
538F
331
539A
331
539B
331
5C7B
331
5C7C
331
5C84
331
5C85
331
5C8D
331
5C8E
331
5C97
331
5C98
331
5CA3
331
5CA4
331
5CAF
331
5CB0
331
5CBB
331
5CBC
331
5CC7
331
5CC8
331
5CD3
331
5CD4
331
5CDF
331
5CE0
331
5FC2
331
5FC3
331
5FCB
331
5FCC
331
5FD4
331
5FD5
331
5FDD
331
5FDE
331
5FE6
331
5FE7
331
5FEF
331
5FF0
331
5FF8
331
5FF9
331
6003
331
6004
331
600F
331
6010
331
601B
331
601C
331
617E
331
617F
331
6187
331
6188
331
6190
331
6191
331
619B
331
619C
331
61A7
331
61A8
331
61B4
331
61B5
331
61C1
331
61C2
331
61CD
331
61CE
331
68E4
331
68E5
331
68ED
331
68EE
331
68F7
331
68F8
331
6901
331
6902
331
690A
331
690B
331
6915
331
6916
331
6921
331
6922
331
692E
331
692F
331
693B
331
693C
331
6947
331
6948
331
6F30
331
6F31
331
6F39
331
6F3A
331
6F43
331
6F44
331
6F4D
331
6F4E
331
6F56
331
6F57
102
}
  0
BLOCK_RECORD
  5
6EEF
330
1
100
AcDbSymbolTableRecord
100
AcDbBlockTableRecord
  2
*D126
340
0
  0
BLOCK_RECORD
  5
6EFB
330
1
100
AcDbSymbolTableRecord
100
AcDbBlockTableRecord
  2
*D127
340
0
  0
BLOCK_RECORD
  5
6F07
330
1
100
AcDbSymbolTableRecord
100
AcDbBlockTableRecord
  2
*D128
340
0
  0
BLOCK_RECORD
  5
6F14
330
1
100
AcDbSymbolTableRecord
100
AcDbBlockTableRecord
  2
*D129
340
0
  0
BLOCK_RECORD
  5
6F21
330
1
100
AcDbSymbolTableRecord
100
AcDbBlockTableRecord
  2
*D130
340
0
  0
ENDTAB
  0
ENDSEC
  0
SECTION
  2
BLOCKS
  0
BLOCK
  5
20
330
1F
100
AcDbEntity
  8
0
100
AcDbBlockBegin
  2
*Model_Space
 70
     0
 10
0.0
 20
0.0
 30
0.0
  3
*Model_Space
  1

  0
ENDBLK
  5
21
330
1F
100
AcDbEntity
  8
0
100
AcDbBlockEnd
  0
BLOCK
  5
1C
330
1B
100
AcDbEntity
 67
     1
  8
0
100
AcDbBlockBegin
  2
*Paper_Space
 70
     0
 10
0.0
 20
0.0
 30
0.0
  3
*Paper_Space
  1

  0
ENDBLK
  5
1D
330
1B
100
AcDbEntity
 67
     1
  8
0
100
AcDbBlockEnd
  0
BLOCK
  5
24
330
23
100
AcDbEntity
  8
0
100
AcDbBlockBegin
  2
*Paper_Space0
 70
     0
 10
0.0
 20
0.0
 30
0.0
  3
*Paper_Space0
  1

  0
ENDBLK
  5
25
330
23
100
AcDbEntity
  8
0
100
AcDbBlockEnd
  0
BLOCK
  5
2F
330
2B
100
AcDbEntity
  8
0
 62
     0
100
AcDbBlockBegin
  2
_OPEN30
 70
     2
 10
0.0
 20
0.0
 30
0.0
  3
_OPEN30
  1

  0
LINE
  5
2C
330
2B
100
AcDbEntity
  8
0
  6
ByBlock
 62
     0
100
AcDbLine
 10
-1.0
 20
0.267949
 30
0.0
 11
0.0
 21
0.0
 31
0.0
  0
LINE
  5
2D
330
2B
100
AcDbEntity
  8
0
  6
ByBlock
 62
     0
100
AcDbLine
 10
0.0
 20
0.0
 30
0.0
 11
-1.0
 21
-0.267949
 31
0.0
  0
LINE
  5
2E
330
2B
100
AcDbEntity
  8
0
  6
ByBlock
 62
     0
100
AcDbLine
 10
0.0
 20
0.0
 30
0.0
 11
-1.0
 21
0.0
 31
0.0
  0
ENDBLK
  5
30
330
2B
100
AcDbEntity
  8
0
 62
     0
100
AcDbBlockEnd
  0
BLOCK
  5
6EF9
330
6EEF
100
AcDbEntity
  8
0
100
AcDbBlockBegin
  2
*D126
 70
     1
 10
0.0
 20
0.0
 30
0.0
  3
*D126
  1

  0
LINE
  5
6F2D
330
6EEF
100
AcDbEntity
  8
1
  6
Continuous
 62
     0
370
    13
100
AcDbLine
 10
1678.507076687179
 20
16545.7695430937
 30
0.0
 11
1678.50707668718
 21
22537.71173268281
 31
0.0
  0
LINE
  5
6F2E
330
6EEF
100
AcDbEntity
  8
1
  6
Continuous
 62
     0
370
    13
100
AcDbLine
 10
7348.49633218121
 20
16513.60267418368
 30
0.0
 11
7348.49633218121
 21
22537.71173268281
 31
0.0
  0
LINE
  5
6F2F
330
6EEF
100
AcDbEntity
  8
1
  6
Continuous
 62
     0
370
    13
100
AcDbLine
 10
2178.50707668718
 20
22537.5317326828
 30
0.0
 11
6848.49633218121
 21
22537.5317326828
 31
0.0
  0
INSERT
  5
6F30
330
6EEF
100
AcDbEntity
  8
1
  6
Continuous
 62
     0
370
    13
100
AcDbBlockReference
  2
_OPEN30
 10
1678.50707668718
 20
22537.5317326828
 30
0.0
 41
500.0
 42
500.0
 43
500.0
 50
180.0
  0
INSERT
  5
6F31
330
6EEF
100
AcDbEntity
  8
1
  6
Continuous
 62
     0
370
    13
100
AcDbBlockReference
  2
_OPEN30
 10
7348.49633218121
 20
22537.5317326828
 30
0.0
 41
500.0
 42
500.0
 43
500.0
  0
MTEXT
  5
6F32
330
6EEF
100
AcDbEntity
  8
1
  6
Continuous
 62
     0
370
    13
100
AcDbMText
 10
4513.501704434195
 20
22787.53173268281
 30
0.0
 40
400.0
 41
0.0
 71
     5
 72
     1
  1
\A1;70
 73
     1
 44
1.0
  0
POINT
  5
6F33
330
6EEF
100
AcDbEntity
  8
DEFPOINTS
  6
Continuous
 62
     0
100
AcDbPoint
 10
1678.507076687179
 20
16495.7695430937
 30
0.0
  0
POINT
  5
6F34
330
6EEF
100
AcDbEntity
  8
DEFPOINTS
  6
Continuous
 62
     0
100
AcDbPoint
 10
7348.49633218121
 20
16463.60267418368
 30
0.0
  0
POINT
  5
6F35
330
6EEF
100
AcDbEntity
  8
DEFPOINTS
  6
Continuous
 62
     0
100
AcDbPoint
 10
7348.49633218121
 20
22537.5317326828
 30
0.0
  0
ENDBLK
  5
6EFA
330
6EEF
100
AcDbEntity
  8
0
100
AcDbBlockEnd
  0
BLOCK
  5
6F05
330
6EFB
100
AcDbEntity
  8
0
100
AcDbBlockBegin
  2
*D127
 70
     1
 10
0.0
 20
0.0
 30
0.0
  3
*D127
  1

  0
LINE
  5
6F36
330
6EFB
100
AcDbEntity
  8
1
  6
Continuous
 62
     0
370
    13
100
AcDbLine
 10
4563.496413179761
 20
11603.60259318312
 30
0.0
 11
8561.777894681032
 21
11603.60259318312
 31
0.0
  0
LINE
  5
6F37
330
6EFB
100
AcDbEntity
  8
1
  6
Continuous
 62
     0
370
    13
100
AcDbLine
 10
4563.496413179761
 20
21323.60275518328
 30
0.0
 11
8561.777894681036
 21
21323.60275518327
 31
0.0
  0
LINE
  5
6F38
330
6EFB
100
AcDbEntity
  8
1
  6
Continuous
 62
     0
370
    13
100
AcDbLine
 10
8561.597894681032
 20
12103.60259318312
 30
0.0
 11
8561.597894681035
 21
20823.60275518327
 31
0.0
  0
INSERT
  5
6F39
330
6EFB
100
AcDbEntity
  8
1
  6
Continuous
 62
     0
370
    13
100
AcDbBlockReference
  2
_OPEN30
 10
8561.597894681032
 20
11603.60259318312
 30
0.0
 41
500.0
 42
500.0
 43
500.0
 50
270.0
  0
INSERT
  5
6F3A
330
6EFB
100
AcDbEntity
  8
1
  6
Continuous
 62
     0
370
    13
100
AcDbBlockReference
  2
_OPEN30
 10
8561.597894681035
 20
21323.60275518327
 30
0.0
 41
500.0
 42
500.0
 43
500.0
 50
90.0
  0
MTEXT
  5
6F3B
330
6EFB
100
AcDbEntity
  8
1
  6
Continuous
 62
     0
370
    13
100
AcDbMText
 10
8311.597894681032
 20
16463.6026741832
 30
0.0
 40
400.0
 41
0.0
 71
     5
 72
     1
  1
\A1;120
 11
0.0000000000000001
 21
1.0
 31
0.0
 73
     1
 44
1.0
  0
POINT
  5
6F3C
330
6EFB
100
AcDbEntity
  8
DEFPOINTS
  6
Continuous
 62
     0
100
AcDbPoint
 10
4513.496413179761
 20
11603.60259318312
 30
0.0
  0
POINT
  5
6F3D
330
6EFB
100
AcDbEntity
  8
DEFPOINTS
  6
Continuous
 62
     0
100
AcDbPoint
 10
4513.496413179761
 20
21323.60275518328
 30
0.0
  0
POINT
  5
6F3E
330
6EFB
100
AcDbEntity
  8
DEFPOINTS
  6
Continuous
 62
     0
100
AcDbPoint
 10
8561.597894681035
 20
21323.60275518327
 30
0.0
  0
ENDBLK
  5
6F06
330
6EFB
100
AcDbEntity
  8
0
100
AcDbBlockEnd
  0
BLOCK
  5
6F12
330
6F07
100
AcDbEntity
  8
0
100
AcDbBlockBegin
  2
*D128
 70
     1
 10
0.0
 20
0.0
 30
0.0
  3
*D128
  1

  0
LINE
  5
6F3F
330
6F07
100
AcDbEntity
  8
1
  6
Continuous
 62
     0
370
    13
100
AcDbLine
 10
10916.39259418062
 20
20634.50185268296
 30
0.0
 11
10916.39259418062
 21
22538.78263368337
 31
0.0
  0
LINE
  5
6F40
330
6F07
100
AcDbEntity
  8
1
  6
Continuous
 62
     0
370
    13
100
AcDbLine
 10
11483.39255368031
 20
21567.03055268278
 30
0.0
 11
11483.39255368031
 21
22538.78263368337
 31
0.0
  0
LINE
  5
6F41
330
6F07
100
AcDbEntity
  8
1
  6
Continuous
 62
     0
370
    13
100
AcDbLine
 10
10416.39259418062
 20
22538.60263368337
 30
0.0
 11
9916.392594180623
 21
22538.60263368337
 31
0.0
  0
LINE
  5
6F42
330
6F07
100
AcDbEntity
  8
1
  6
Continuous
 62
     0
370
    13
100
AcDbLine
 10
11983.39255368031
 20
22538.60263368337
 30
0.0
 11
12483.39255368031
 21
22538.60263368337
 31
0.0
  0
INSERT
  5
6F43
330
6F07
100
AcDbEntity
  8
1
  6
Continuous
 62
     0
370
    13
100
AcDbBlockReference
  2
_OPEN30
 10
10916.39259418062
 20
22538.60263368337
 30
0.0
 41
500.0
 42
500.0
 43
500.0
  0
INSERT
  5
6F44
330
6F07
100
AcDbEntity
  8
1
  6
Continuous
 62
     0
370
    13
100
AcDbBlockReference
  2
_OPEN30
 10
11483.39255368031
 20
22538.60263368337
 30
0.0
 41
500.0
 42
500.0
 43
500.0
 50
180.0
  0
MTEXT
  5
6F45
330
6F07
100
AcDbEntity
  8
1
  6
Continuous
 62
     0
370
    13
100
AcDbMText
 10
11199.89257393046
 20
22788.60263368337
 30
0.0
 40
400.0
 41
0.0
 71
     5
 72
     1
  1
\A1;7
 73
     1
 44
1.0
  0
POINT
  5
6F46
330
6F07
100
AcDbEntity
  8
DEFPOINTS
  6
Continuous
 62
     0
100
AcDbPoint
 10
10916.39259418062
 20
20584.50185268296
 30
0.0
  0
POINT
  5
6F47
330
6F07
100
AcDbEntity
  8
DEFPOINTS
  6
Continuous
 62
     0
100
AcDbPoint
 10
11483.39255368031
 20
21517.03055268278
 30
0.0
  0
POINT
  5
6F48
330
6F07
100
AcDbEntity
  8
DEFPOINTS
  6
Continuous
 62
     0
100
AcDbPoint
 10
11483.39255368031
 20
22538.60263368337
 30
0.0
  0
ENDBLK
  5
6F13
330
6F07
100
AcDbEntity
  8
0
100
AcDbBlockEnd
  0
BLOCK
  5
6F1F
330
6F14
100
AcDbEntity
  8
0
100
AcDbBlockBegin
  2
*D129
 70
     1
 10
0.0
 20
0.0
 30
0.0
  3
*D129
  1

  0
LINE
  5
6F49
330
6F14
100
AcDbEntity
  8
1
  6
Continuous
 62
     0
370
    13
100
AcDbLine
 10
11483.39255368031
 20
22588.60263368337
 30
0.0
 11
11483.39255368031
 21
22538.78263368337
 31
0.0
  0
LINE
  5
6F4A
330
6F14
100
AcDbEntity
  8
1
  6
Continuous
 62
     0
370
    13
100
AcDbLine
 10
12131.39263468093
 20
19458.09025268363
 30
0.0
 11
12131.39263468093
 21
22538.78263368337
 31
0.0
  0
LINE
  5
6F4B
330
6F14
100
AcDbEntity
  8
1
  6
Continuous
 62
     0
370
    13
100
AcDbLine
 10
10983.39255368031
 20
22538.60263368337
 30
0.0
 11
10483.39255368031
 21
22538.60263368337
 31
0.0
  0
LINE
  5
6F4C
330
6F14
100
AcDbEntity
  8
1
  6
Continuous
 62
     0
370
    13
100
AcDbLine
 10
12631.39263468093
 20
22538.60263368337
 30
0.0
 11
13131.39263468093
 21
22538.60263368337
 31
0.0
  0
INSERT
  5
6F4D
330
6F14
100
AcDbEntity
  8
1
  6
Continuous
 62
     0
370
    13
100
AcDbBlockReference
  2
_OPEN30
 10
11483.39255368031
 20
22538.60263368337
 30
0.0
 41
500.0
 42
500.0
 43
500.0
  0
INSERT
  5
6F4E
330
6F14
100
AcDbEntity
  8
1
  6
Continuous
 62
     0
370
    13
100
AcDbBlockReference
  2
_OPEN30
 10
12131.39263468093
 20
22538.60263368337
 30
0.0
 41
500.0
 42
500.0
 43
500.0
 50
180.0
  0
MTEXT
  5
6F4F
330
6F14
100
AcDbEntity
  8
1
  6
Continuous
 62
     0
370
    13
100
AcDbMText
 10
11807.39259418062
 20
22788.60263368337
 30
0.0
 40
400.0
 41
0.0
 71
     5
 72
     1
  1
\A1;8
 73
     1
 44
1.0
  0
POINT
  5
6F50
330
6F14
100
AcDbEntity
  8
DEFPOINTS
  6
Continuous
 62
     0
100
AcDbPoint
 10
11483.39255368031
 20
22538.60263368337
 30
0.0
  0
POINT
  5
6F51
330
6F14
100
AcDbEntity
  8
DEFPOINTS
  6
Continuous
 62
     0
100
AcDbPoint
 10
12131.39263468093
 20
19408.09025268363
 30
0.0
  0
POINT
  5
6F52
330
6F14
100
AcDbEntity
  8
DEFPOINTS
  6
Continuous
 62
     0
100
AcDbPoint
 10
12131.39263468093
 20
22538.60263368337
 30
0.0
  0
ENDBLK
  5
6F20
330
6F14
100
AcDbEntity
  8
0
100
AcDbBlockEnd
  0
BLOCK
  5
6F2B
330
6F21
100
AcDbEntity
  8
0
100
AcDbBlockBegin
  2
*D130
 70
     1
 10
0.0
 20
0.0
 30
0.0
  3
*D130
  1

  0
LINE
  5
6F53
330
6F21
100
AcDbEntity
  8
1
  6
Continuous
 62
     0
370
    13
100
AcDbLine
 10
18642.64372667943
 20
19846.40243418261
 30
0.0
 11
22242.10862668022
 21
19846.40243418261
 31
0.0
  0
LINE
  5
6F54
330
6F21
100
AcDbEntity
  8
1
  6
Continuous
 62
     0
370
    13
100
AcDbLine
 10
18642.64372667943
 20
13080.80275218255
 30
0.0
 11
22242.10862668022
 21
13080.80275218255
 31
0.0
  0
LINE
  5
6F55
330
6F21
100
AcDbEntity
  8
1
  6
Continuous
 62
     0
370
    13
100
AcDbLine
 10
22241.92862668022
 20
19346.40243418261
 30
0.0
 11
22241.92862668022
 21
13580.80275218255
 31
0.0
  0
INSERT
  5
6F56
330
6F21
100
AcDbEntity
  8
1
  6
Continuous
 62
     0
370
    13
100
AcDbBlockReference
  2
_OPEN30
 10
22241.92862668022
 20
19846.40243418261
 30
0.0
 41
500.0
 42
500.0
 43
500.0
 50
90.0
  0
INSERT
  5
6F57
330
6F21
100
AcDbEntity
  8
1
  6
Continuous
 62
     0
370
    13
100
AcDbBlockReference
  2
_OPEN30
 10
22241.92862668022
 20
13080.80275218255
 30
0.0
 41
500.0
 42
500.0
 43
500.0
 50
270.0
  0
MTEXT
  5
6F58
330
6F21
100
AcDbEntity
  8
1
  6
Continuous
 62
     0
370
    13
100
AcDbMText
 10
21991.92862668021
 20
16463.60259318259
 30
0.0
 40
400.0
 41
0.0
 71
     5
 72
     1
  1
\A1;83.5
 11
0.0000000000000001
 21
1.0
 31
0.0
 73
     1
 44
1.0
  0
POINT
  5
6F59
330
6F21
100
AcDbEntity
  8
DEFPOINTS
  6
Continuous
 62
     0
100
AcDbPoint
 10
18592.64372667943
 20
19846.40243418261
 30
0.0
  0
POINT
  5
6F5A
330
6F21
100
AcDbEntity
  8
DEFPOINTS
  6
Continuous
 62
     0
100
AcDbPoint
 10
18592.64372667943
 20
13080.80275218255
 30
0.0
  0
POINT
  5
6F5B
330
6F21
100
AcDbEntity
  8
DEFPOINTS
  6
Continuous
 62
     0
100
AcDbPoint
 10
22241.92862668022
 20
13080.80275218255
 30
0.0
  0
ENDBLK
  5
6F2C
330
6F21
100
AcDbEntity
  8
0
100
AcDbBlockEnd
  0
ENDSEC
  0
SECTION
  2
ENTITIES
  0
TEXT
  5
6C21
330
1F
100
AcDbEntity
  8
1
  6
Continuous
 62
     7
370
    13
100
AcDbText
 10
4856.936413180898
 20
16814.33271468247
 30
0.0
 40
283.4999999999999
  1
開　扉
 41
0.833333
  7
KANJI
100
AcDbText
  0
TEXT
  5
6C22
330
1F
100
AcDbEntity
  8
1
  6
Continuous
 62
     7
370
    13
100
AcDbText
 10
3340.616413180338
 20
16814.33271468247
 30
0.0
 40
283.4999999999999
  1
解　錠
 41
0.833333
  7
KANJI
100
AcDbText
  0
TEXT
  5
6C23
330
1F
100
AcDbEntity
  8
1
  6
Continuous
 62
     7
370
    13
100
AcDbText
 10
3338.186372680589
 20
19404.71263368224
 30
0.0
 40
283.4999999999999
  1
電　源
 41
0.833333
  7
KANJI
100
AcDbText
  0
TEXT
  5
6C24
330
1F
100
AcDbEntity
  8
1
  6
Continuous
 62
     7
370
    13
100
AcDbText
 10
4450.31641318032
 20
14390.00271468304
 30
0.0
 40
283.4999999999999
  1
一回解錠
 41
0.833333
  7
KANJI
100
AcDbText
  0
TEXT
  5
6C25
330
1F
100
AcDbEntity
  8
1
  6
Continuous
 62
     7
370
    13
100
AcDbText
 10
4451.126372680766
 20
15785.63271468247
 30
0.0
 40
283.4999999999999
  1
連続解錠
 41
0.833333
  7
KANJI
100
AcDbText
  0
ARC
  5
6C26
330
1F
100
AcDbEntity
  8
1
  6
Continuous
 62
     7
370
    13
100
AcDbCircle
 10
4513.496413179761
 20
33068.60421318313
 30
0.0
 40
21465.00162
100
AcDbArc
 50
264.8320849995712
 51
275.1679150004287
  0
ARC
  5
6C27
330
1F
100
AcDbEntity
  8
1
  6
Continuous
 62
     7
370
    13
100
AcDbCircle
 10
6373.993310680991
 20
12497.56533018332
 30
0.0
 40
809.9999594999999
100
AcDbArc
 50
275.1679150004287
 51
355.2497019992231
  0
ARC
  5
6C28
330
1F
100
AcDbEntity
  8
1
  6
Continuous
 62
     7
370
    13
100
AcDbCircle
 10
-41352.7587303188
 20
16463.60267418368
 30
0.0
 40
48701.2550625
100
AcDbArc
 50
355.2497019992231
 51
4.750298000776908
  0
ARC
  5
6C29
330
1F
100
AcDbEntity
  8
1
  6
Continuous
 62
     7
370
    13
100
AcDbCircle
 10
6373.993310680991
 20
20429.64001818308
 30
0.0
 40
809.9999594999999
100
AcDbArc
 50
4.750298000776908
 51
84.83208499957127
  0
ARC
  5
6C2A
330
1F
100
AcDbEntity
  8
1
  6
Continuous
 62
     7
370
    13
100
AcDbCircle
 10
4513.496413179761
 20
-141.3988648167287
 30
0.0
 40
21465.00162
100
AcDbArc
 50
84.83208499957127
 51
95.16791500042875
  0
ARC
  5
6C2B
330
1F
100
AcDbEntity
  8
1
  6
Continuous
 62
     7
370
    13
100
AcDbCircle
 10
2652.999515680421
 20
12497.56533018332
 30
0.0
 40
809.9999594999999
100
AcDbArc
 50
184.7502980007769
 51
264.8320849995712
  0
ARC
  5
6C2C
330
1F
100
AcDbEntity
  8
1
  6
Continuous
 62
     7
370
    13
100
AcDbCircle
 10
50379.75151617996
 20
16463.60267418368
 30
0.0
 40
48701.2550625
100
AcDbArc
 50
175.249701999223
 51
184.6746110000176
  0
ARC
  5
6C2D
330
1F
100
AcDbEntity
  8
1
  6
Continuous
 62
     7
370
    13
100
AcDbCircle
 10
2652.999515680421
 20
20429.64001818308
 30
0.0
 40
809.9999594999999
100
AcDbArc
 50
95.16791500042875
 51
175.249701999223
  0
LINE
  5
6C2E
330
1F
100
AcDbEntity
  8
1
  6
Continuous
 62
     7
370
    13
100
AcDbLine
 10
5546.246332181035
 20
15532.1027551824
 30
0.0
 11
3480.746332181035
 21
15532.1027551824
 31
0.0
  0
ARC
  5
6C2F
330
1F
100
AcDbEntity
  8
1
  6
Continuous
 62
     7
370
    13
100
AcDbCircle
 10
5546.246453680069
 20
15896.60271468399
 30
0.0
 40
364.4999595
100
AcDbArc
 50
269.9999799980178
 51
90.00001999864712
  0
LINE
  5
6C30
330
1F
100
AcDbEntity
  8
1
  6
Continuous
 62
     7
370
    13
100
AcDbLine
 10
3480.746332181035
 20
16261.10271468399
 30
0.0
 11
5546.246332181035
 21
16261.10271468399
 31
0.0
  0
ARC
  5
6C31
330
1F
100
AcDbEntity
  8
1
  6
Continuous
 62
     7
370
    13
100
AcDbCircle
 10
3480.746332181035
 20
15896.60271468399
 30
0.0
 40
364.4999595
100
AcDbArc
 50
90.0
 51
270.0
  0
LINE
  5
6C32
330
1F
100
AcDbEntity
  8
1
  6
Continuous
 62
     7
370
    13
100
AcDbLine
 10
5546.246332181035
 20
14155.10271468399
 30
0.0
 11
3480.746332181035
 21
14155.10271468399
 31
0.0
  0
LINE
  5
6C33
330
1F
100
AcDbEntity
  8
1
  6
Continuous
 62
     7
370
    13
100
AcDbLine
 10
3480.746332181035
 20
14884.10263368337
 30
0.0
 11
5546.246332181035
 21
14884.10263368337
 31
0.0
  0
ARC
  5
6C34
330
1F
100
AcDbEntity
  8
1
  6
Continuous
 62
     7
370
    13
100
AcDbCircle
 10
5546.246453680069
 20
14519.60267418368
 30
0.0
 40
364.4999595
100
AcDbArc
 50
269.9999799980178
 51
90.00001999864712
  0
ARC
  5
6C35
330
1F
100
AcDbEntity
  8
1
  6
Continuous
 62
     7
370
    13
100
AcDbCircle
 10
3480.746332181035
 20
14519.60267418368
 30
0.0
 40
364.4999595
100
AcDbArc
 50
90.0
 51
270.0
  0
LINE
  5
6C36
330
1F
100
AcDbEntity
  8
1
  6
Continuous
 62
     7
370
    13
100
AcDbLine
 10
5282.996372681344
 20
17412.92263368299
 30
0.0
 11
5201.186413180898
 21
17412.92263368299
 31
0.0
  0
LINE
  5
6C37
330
1F
100
AcDbEntity
  8
1
  6
Continuous
 62
     7
370
    13
100
AcDbLine
 10
5201.186413180898
 20
17442.89263368261
 30
0.0
 11
5282.996372681344
 21
17442.89263368261
 31
0.0
  0
LINE
  5
6C38
330
1F
100
AcDbEntity
  8
1
  6
Continuous
 62
     7
370
    13
100
AcDbLine
 10
5201.186413180898
 20
17429.1227146836
 30
0.0
 11
5282.996372681344
 21
17429.1227146836
 31
0.0
  0
LINE
  5
6C39
330
1F
100
AcDbEntity
  8
1
  6
Continuous
 62
     7
370
    13
100
AcDbLine
 10
5201.186413180898
 20
17457.4726741833
 30
0.0
 11
5282.996372681344
 21
17457.4726741833
 31
0.0
  0
CIRCLE
  5
6C3A
330
1F
100
AcDbEntity
  8
1
  6
Continuous
 62
     7
370
    13
100
AcDbCircle
 10
5444.996372681345
 20
17758.79263368355
 30
0.0
 40
30.7799595
  0
LINE
  5
6C3B
330
1F
100
AcDbEntity
  8
1
  6
Continuous
 62
     7
370
    13
100
AcDbLine
 10
2589.74641317976
 20
12759.47271468266
 30
0.0
 11
6437.246413179761
 21
12759.47271468266
 31
0.0
  0
LINE
  5
6C3C
330
1F
100
AcDbEntity
  8
1
  6
Continuous
 62
     7
370
    13
100
AcDbLine
 10
2589.74641317976
 20
20170.97263368299
 30
0.0
 11
2589.74641317976
 21
12759.47271468266
 31
0.0
  0
LINE
  5
6C3D
330
1F
100
AcDbEntity
  8
1
  6
Continuous
 62
     7
370
    13
100
AcDbLine
 10
6437.246413179761
 20
20170.97263368299
 30
0.0
 11
2589.74641317976
 21
20170.97263368299
 31
0.0
  0
LINE
  5
6C3E
330
1F
100
AcDbEntity
  8
1
  6
Continuous
 62
     7
370
    13
100
AcDbLine
 10
6437.246413179761
 20
12759.47271468266
 30
0.0
 11
6437.246413179761
 21
20170.97263368299
 31
0.0
  0
LINE
  5
6C3F
330
1F
100
AcDbEntity
  8
1
  6
Continuous
 62
     7
370
    13
100
AcDbLine
 10
6497.99641317976
 20
20230.10271468399
 30
0.0
 11
2528.99641317976
 21
20230.10271468399
 31
0.0
  0
LINE
  5
6C40
330
1F
100
AcDbEntity
  8
1
  6
Continuous
 62
     7
370
    13
100
AcDbLine
 10
6497.99641317976
 20
12697.10267418368
 30
0.0
 11
6497.99641317976
 21
20230.10271468399
 31
0.0
  0
LINE
  5
6C41
330
1F
100
AcDbEntity
  8
1
  6
Continuous
 62
     7
370
    13
100
AcDbLine
 10
2528.99641317976
 20
12697.10267418368
 30
0.0
 11
6497.99641317976
 21
12697.10267418368
 31
0.0
  0
LINE
  5
6C42
330
1F
100
AcDbEntity
  8
1
  6
Continuous
 62
     7
370
    13
100
AcDbLine
 10
2528.99641317976
 20
20230.10271468399
 30
0.0
 11
2528.99641317976
 21
12697.10267418368
 31
0.0
  0
LINE
  5
6C43
330
1F
100
AcDbEntity
  8
1
  6
Continuous
 62
     7
370
    13
100
AcDbLine
 10
4558.856413180532
 20
13345.1027551824
 30
0.0
 11
4700.606413180532
 21
13345.1027551824
 31
0.0
  0
LINE
  5
6C44
330
1F
100
AcDbEntity
  8
1
  6
Continuous
 62
     7
370
    13
100
AcDbLine
 10
4801.856413180533
 20
13284.35263368337
 30
0.0
 11
5004.356372680224
 21
13284.35263368337
 31
0.0
  0
LINE
  5
6C45
330
1F
100
AcDbEntity
  8
1
  6
Continuous
 62
     7
370
    13
100
AcDbLine
 10
4923.356413180532
 20
13304.60263368337
 30
0.0
 11
4923.356413180532
 21
13081.85263368337
 31
0.0
  0
LINE
  5
6C46
330
1F
100
AcDbEntity
  8
1
  6
Continuous
 62
     7
370
    13
100
AcDbLine
 10
4903.106413180532
 20
13081.85263368337
 30
0.0
 11
4903.106413180532
 21
13304.60263368337
 31
0.0
  0
LINE
  5
6C47
330
1F
100
AcDbEntity
  8
1
  6
Continuous
 62
     7
370
    13
100
AcDbLine
 10
4882.856413180532
 20
13304.60263368337
 30
0.0
 11
4882.856413180532
 21
13081.85263368337
 31
0.0
  0
LINE
  5
6C48
330
1F
100
AcDbEntity
  8
1
  6
Continuous
 62
     7
370
    13
100
AcDbLine
 10
4801.856413180533
 20
13304.60263368337
 30
0.0
 11
5004.356372680224
 21
13304.60263368337
 31
0.0
  0
LINE
  5
6C49
330
1F
100
AcDbEntity
  8
1
  6
Continuous
 62
     7
370
    13
100
AcDbLine
 10
5004.356372680224
 20
13324.85263368337
 30
0.0
 11
4801.856413180533
 21
13324.85263368337
 31
0.0
  0
LINE
  5
6C4A
330
1F
100
AcDbEntity
  8
1
  6
Continuous
 62
     7
370
    13
100
AcDbLine
 10
4801.856413180533
 20
13345.1027551824
 30
0.0
 11
5004.356372680224
 21
13345.1027551824
 31
0.0
  0
LINE
  5
6C4B
330
1F
100
AcDbEntity
  8
1
  6
Continuous
 62
     7
370
    13
100
AcDbLine
 10
4741.106413180532
 20
13081.85263368337
 30
0.0
 11
4660.106413180532
 21
13162.85263368337
 31
0.0
  0
LINE
  5
6C4C
330
1F
100
AcDbEntity
  8
1
  6
Continuous
 62
     7
370
    13
100
AcDbLine
 10
4720.856413180532
 20
13081.85263368337
 30
0.0
 11
4639.856413180532
 21
13162.85263368337
 31
0.0
  0
LINE
  5
6C4D
330
1F
100
AcDbEntity
  8
1
  6
Continuous
 62
     7
370
    13
100
AcDbLine
 10
4700.606413180532
 20
13081.85263368337
 30
0.0
 11
4619.606413180532
 21
13162.85263368337
 31
0.0
  0
LINE
  5
6C4E
330
1F
100
AcDbEntity
  8
1
  6
Continuous
 62
     7
370
    13
100
AcDbLine
 10
4599.356413180532
 20
13162.85263368337
 30
0.0
 11
4680.356413180532
 21
13081.85263368337
 31
0.0
  0
LINE
  5
6C4F
330
1F
100
AcDbEntity
  8
1
  6
Continuous
 62
     7
370
    13
100
AcDbLine
 10
4579.106413180532
 20
13183.10263368337
 30
0.0
 11
4741.106413180532
 21
13183.10263368337
 31
0.0
  0
LINE
  5
6C50
330
1F
100
AcDbEntity
  8
1
  6
Continuous
 62
     7
370
    13
100
AcDbLine
 10
4538.606413180533
 20
13203.35263368337
 30
0.0
 11
4741.106413180532
 21
13203.35263368337
 31
0.0
  0
LINE
  5
6C51
330
1F
100
AcDbEntity
  8
1
  6
Continuous
 62
     7
370
    13
100
AcDbLine
 10
4700.606413180532
 20
13223.60263368337
 30
0.0
 11
4761.356413180532
 21
13223.60263368337
 31
0.0
  0
LINE
  5
6C52
330
1F
100
AcDbEntity
  8
1
  6
Continuous
 62
     7
370
    13
100
AcDbLine
 10
4700.606413180532
 20
13243.85263368337
 30
0.0
 11
4761.356413180532
 21
13243.85263368337
 31
0.0
  0
LINE
  5
6C53
330
1F
100
AcDbEntity
  8
1
  6
Continuous
 62
     7
370
    13
100
AcDbLine
 10
4700.606413180532
 20
13264.10263368337
 30
0.0
 11
4761.356413180532
 21
13264.10263368337
 31
0.0
  0
LINE
  5
6C54
330
1F
100
AcDbEntity
  8
1
  6
Continuous
 62
     7
370
    13
100
AcDbLine
 10
4558.856413180532
 20
13284.35263368337
 30
0.0
 11
4761.356413180532
 21
13284.35263368337
 31
0.0
  0
LINE
  5
6C55
330
1F
100
AcDbEntity
  8
1
  6
Continuous
 62
     7
370
    13
100
AcDbLine
 10
4558.856413180532
 20
13304.60263368337
 30
0.0
 11
4761.356413180532
 21
13304.60263368337
 31
0.0
  0
LINE
  5
6C56
330
1F
100
AcDbEntity
  8
1
  6
Continuous
 62
     7
370
    13
100
AcDbLine
 10
4558.856413180532
 20
13324.85263368337
 30
0.0
 11
4741.106413180532
 21
13324.85263368337
 31
0.0
  0
LINE
  5
6C57
330
1F
100
AcDbEntity
  8
1
  6
Continuous
 62
     7
370
    13
100
AcDbLine
 10
4275.356413180532
 20
13081.85263368337
 30
0.0
 11
4457.606413180532
 21
13081.85263368337
 31
0.0
  0
LINE
  5
6C58
330
1F
100
AcDbEntity
  8
1
  6
Continuous
 62
     7
370
    13
100
AcDbLine
 10
4275.356413180532
 20
13102.10263368337
 30
0.0
 11
4457.606413180532
 21
13102.10263368337
 31
0.0
  0
LINE
  5
6C59
330
1F
100
AcDbEntity
  8
1
  6
Continuous
 62
     7
370
    13
100
AcDbLine
 10
4275.356413180532
 20
13122.35263368337
 30
0.0
 11
4457.606413180532
 21
13122.35263368337
 31
0.0
  0
LINE
  5
6C5A
330
1F
100
AcDbEntity
  8
1
  6
Continuous
 62
     7
370
    13
100
AcDbLine
 10
4275.356413180532
 20
13142.60263368337
 30
0.0
 11
4457.606413180532
 21
13142.60263368337
 31
0.0
  0
LINE
  5
6C5B
330
1F
100
AcDbEntity
  8
1
  6
Continuous
 62
     7
370
    13
100
AcDbLine
 10
4275.356413180532
 20
13162.85263368337
 30
0.0
 11
4437.356413180532
 21
13162.85263368337
 31
0.0
  0
LINE
  5
6C5C
330
1F
100
AcDbEntity
  8
1
  6
Continuous
 62
     7
370
    13
100
AcDbLine
 10
4417.106413180532
 20
13061.60263368337
 30
0.0
 11
4417.106413180532
 21
13345.1027551824
 31
0.0
  0
LINE
  5
6C5D
330
1F
100
AcDbEntity
  8
1
  6
Continuous
 62
     7
370
    13
100
AcDbLine
 10
4437.356413180532
 20
13061.60263368337
 30
0.0
 11
4437.356413180532
 21
13385.6027551824
 31
0.0
  0
LINE
  5
6C5E
330
1F
100
AcDbEntity
  8
1
  6
Continuous
 62
     7
370
    13
100
AcDbLine
 10
4457.606413180532
 20
13426.1027551824
 30
0.0
 11
4457.606413180532
 21
13061.60263368337
 31
0.0
  0
LINE
  5
6C5F
330
1F
100
AcDbEntity
  8
1
  6
Continuous
 62
     7
370
    13
100
AcDbLine
 10
4477.856413180532
 20
13061.60263368337
 30
0.0
 11
4477.856413180532
 21
13426.1027551824
 31
0.0
  0
LINE
  5
6C60
330
1F
100
AcDbEntity
  8
1
  6
Continuous
 62
     7
370
    13
100
AcDbLine
 10
4498.106413180532
 20
13446.3527551824
 30
0.0
 11
4498.106413180532
 21
13061.60263368337
 31
0.0
  0
LINE
  5
6C61
330
1F
100
AcDbEntity
  8
1
  6
Continuous
 62
     7
370
    13
100
AcDbLine
 10
4113.356332179916
 20
13061.60263368337
 30
0.0
 11
4518.356413180533
 21
13466.6027551824
 31
0.0
  0
LINE
  5
6C62
330
1F
100
AcDbEntity
  8
1
  6
Continuous
 62
     7
370
    13
100
AcDbLine
 10
4093.106332179916
 20
13061.60263368337
 30
0.0
 11
4518.356413180533
 21
13486.8527551824
 31
0.0
  0
LINE
  5
6C63
330
1F
100
AcDbEntity
  8
1
  6
Continuous
 62
     7
370
    13
100
AcDbLine
 10
4072.856332179916
 20
13061.60263368337
 30
0.0
 11
4518.356413180533
 21
13507.10271468399
 31
0.0
  0
LINE
  5
6C64
330
1F
100
AcDbEntity
  8
1
  6
Continuous
 62
     7
370
    13
100
AcDbLine
 10
4052.606332179915
 20
13061.60263368337
 30
0.0
 11
4518.356413180533
 21
13527.35271468399
 31
0.0
  0
LINE
  5
6C65
330
1F
100
AcDbEntity
  8
1
  6
Continuous
 62
     7
370
    13
100
AcDbLine
 10
4032.356332179915
 20
13061.60263368337
 30
0.0
 11
4518.356413180533
 21
13547.60271468399
 31
0.0
  0
LINE
  5
6C66
330
1F
100
AcDbEntity
  8
1
  6
Continuous
 62
     7
370
    13
100
AcDbLine
 10
4012.106332179915
 20
13061.60263368337
 30
0.0
 11
4518.356413180533
 21
13567.85271468399
 31
0.0
  0
LINE
  5
6C67
330
1F
100
AcDbEntity
  8
1
  6
Continuous
 62
     7
370
    13
100
AcDbLine
 10
3991.856332179915
 20
13061.60263368337
 30
0.0
 11
4518.356413180533
 21
13588.10271468399
 31
0.0
  0
LINE
  5
6C68
330
1F
100
AcDbEntity
  8
1
  6
Continuous
 62
     7
370
    13
100
AcDbLine
 10
3971.606332179915
 20
13061.60263368337
 30
0.0
 11
4518.356413180533
 21
13608.35271468399
 31
0.0
  0
LINE
  5
6C69
330
1F
100
AcDbEntity
  8
1
  6
Continuous
 62
     7
370
    13
100
AcDbLine
 10
4690.076413180155
 20
13160.42263368298
 30
0.0
 11
4795.376332180458
 21
13061.60263368337
 31
0.0
  0
LINE
  5
6C6A
330
1F
100
AcDbEntity
  8
1
  6
Continuous
 62
     7
370
    13
100
AcDbLine
 10
4862.606413180532
 20
13280.30271468304
 30
0.0
 11
4786.466413181275
 21
13280.30271468304
 31
0.0
  0
LINE
  5
6C6B
330
1F
100
AcDbEntity
  8
1
  6
Continuous
 62
     7
370
    13
100
AcDbLine
 10
4862.606413180532
 20
13061.60263368337
 30
0.0
 11
4862.606413180532
 21
13280.30271468304
 31
0.0
  0
LINE
  5
6C6C
330
1F
100
AcDbEntity
  8
1
  6
Continuous
 62
     7
370
    13
100
AcDbLine
 10
4941.176372680784
 20
13061.60263368337
 30
0.0
 11
4862.606413180532
 21
13061.60263368337
 31
0.0
  0
LINE
  5
6C6D
330
1F
100
AcDbEntity
  8
1
  6
Continuous
 62
     7
370
    13
100
AcDbLine
 10
4941.176372680784
 20
13280.30271468304
 30
0.0
 11
4941.176372680784
 21
13061.60263368337
 31
0.0
  0
LINE
  5
6C6E
330
1F
100
AcDbEntity
  8
1
  6
Continuous
 62
     7
370
    13
100
AcDbLine
 10
5014.076413180156
 20
13280.30271468304
 30
0.0
 11
4941.176372680784
 21
13280.30271468304
 31
0.0
  0
LINE
  5
6C6F
330
1F
100
AcDbEntity
  8
1
  6
Continuous
 62
     7
370
    13
100
AcDbLine
 10
5014.076413180156
 20
13349.96263368224
 30
0.0
 11
5014.076413180156
 21
13280.30271468304
 31
0.0
  0
LINE
  5
6C70
330
1F
100
AcDbEntity
  8
1
  6
Continuous
 62
     7
370
    13
100
AcDbLine
 10
4786.466413181275
 20
13349.96263368224
 30
0.0
 11
5014.076413180156
 21
13349.96263368224
 31
0.0
  0
LINE
  5
6C71
330
1F
100
AcDbEntity
  8
1
  6
Continuous
 62
     7
370
    13
100
AcDbLine
 10
4786.466413181275
 20
13349.96263368224
 30
0.0
 11
4786.466413181275
 21
13280.30271468304
 31
0.0
  0
LINE
  5
6C72
330
1F
100
AcDbEntity
  8
1
  6
Continuous
 62
     7
370
    13
100
AcDbLine
 10
4541.846372680389
 20
13349.96263368224
 30
0.0
 11
4688.4563726802
 21
13349.96263368224
 31
0.0
  0
LINE
  5
6C73
330
1F
100
AcDbEntity
  8
1
  6
Continuous
 62
     7
370
    13
100
AcDbLine
 10
4669.826413180155
 20
13280.30271468304
 30
0.0
 11
4541.846372680389
 21
13280.30271468304
 31
0.0
  0
LINE
  5
6C74
330
1F
100
AcDbEntity
  8
1
  6
Continuous
 62
     7
370
    13
100
AcDbLine
 10
4518.356413180533
 20
13221.98271468341
 30
0.0
 11
4669.826413180155
 21
13221.98271468341
 31
0.0
  0
LINE
  5
6C75
330
1F
100
AcDbEntity
  8
1
  6
Continuous
 62
     7
370
    13
100
AcDbLine
 10
4541.846372680389
 20
13280.30271468304
 30
0.0
 11
4541.846372680389
 21
13349.96263368224
 31
0.0
  0
LINE
  5
6C76
330
1F
100
AcDbEntity
  8
1
  6
Continuous
 62
     7
370
    13
100
AcDbLine
 10
4688.4563726802
 20
13061.60263368337
 30
0.0
 11
4518.356413180533
 21
13221.98271468341
 31
0.0
  0
LINE
  5
6C77
330
1F
100
AcDbEntity
  8
1
  6
Continuous
 62
     7
370
    13
100
AcDbLine
 10
4688.4563726802
 20
13061.60263368337
 30
0.0
 11
4795.376332180458
 21
13061.60263368337
 31
0.0
  0
LINE
  5
6C78
330
1F
100
AcDbEntity
  8
1
  6
Continuous
 62
     7
370
    13
100
AcDbLine
 10
4518.356413180533
 20
13061.60263368337
 30
0.0
 11
4518.356413180533
 21
13633.46275518221
 31
0.0
  0
LINE
  5
6C79
330
1F
100
AcDbEntity
  8
1
  6
Continuous
 62
     7
370
    13
100
AcDbLine
 10
4276.166372680018
 20
13061.60263368337
 30
0.0
 11
4518.356413180533
 21
13061.60263368337
 31
0.0
  0
LINE
  5
6C7A
330
1F
100
AcDbEntity
  8
1
  6
Continuous
 62
     7
370
    13
100
AcDbLine
 10
4276.166372680018
 20
13179.05271468304
 30
0.0
 11
4276.166372680018
 21
13061.60263368337
 31
0.0
  0
LINE
  5
6C7B
330
1F
100
AcDbEntity
  8
1
  6
Continuous
 62
     7
370
    13
100
AcDbLine
 10
4396.046332181024
 20
13179.05271468304
 30
0.0
 11
4276.166372680018
 21
13179.05271468304
 31
0.0
  0
LINE
  5
6C7C
330
1F
100
AcDbEntity
  8
1
  6
Continuous
 62
     7
370
    13
100
AcDbLine
 10
4396.046332181024
 20
13341.05267418273
 30
0.0
 11
4396.046332181024
 21
13179.05271468304
 31
0.0
  0
LINE
  5
6C7D
330
1F
100
AcDbEntity
  8
1
  6
Continuous
 62
     7
370
    13
100
AcDbLine
 10
4124.696372680396
 20
13061.60263368337
 30
0.0
 11
4396.046332181024
 21
13341.05267418273
 31
0.0
  0
LINE
  5
6C7E
330
1F
100
AcDbEntity
  8
1
  6
Continuous
 62
     7
370
    13
100
AcDbLine
 10
3949.736413180886
 20
13061.60263368337
 30
0.0
 11
4124.696372680396
 21
13061.60263368337
 31
0.0
  0
LINE
  5
6C7F
330
1F
100
AcDbEntity
  8
1
  6
Continuous
 62
     7
370
    13
100
AcDbLine
 10
4518.356413180533
 20
13633.46275518221
 30
0.0
 11
3949.736413180886
 21
13061.60263368337
 31
0.0
  0
ARC
  5
6C80
330
1F
100
AcDbEntity
  8
1
  6
Continuous
 62
     7
370
    13
100
AcDbCircle
 10
4688.4563726802
 20
13255.19267418292
 30
0.0
 40
94.76991899999999
100
AcDbArc
 50
270.9793199996107
 51
90.0
  0
ARC
  5
6C81
330
1F
100
AcDbEntity
  8
1
  6
Continuous
 62
     7
370
    13
100
AcDbCircle
 10
4669.826413180155
 20
13251.14263368261
 30
0.0
 40
29.1600405
100
AcDbArc
 50
270.0
 51
90.0
  0
LINE
  5
6C82
330
1F
100
AcDbEntity
  8
1
  6
Continuous
 62
     7
370
    13
100
AcDbLine
 10
5571.356372680224
 20
13972.85271468399
 30
0.0
 11
3465.356372680224
 21
13972.85271468399
 31
0.0
  0
LINE
  5
6C83
330
1F
100
AcDbEntity
  8
1
  6
Continuous
 62
     7
370
    13
100
AcDbLine
 10
3465.356372680224
 20
13993.10271468399
 30
0.0
 11
5571.356372680224
 21
13993.10271468399
 31
0.0
  0
LINE
  5
6C84
330
1F
100
AcDbEntity
  8
1
  6
Continuous
 62
     7
370
    13
100
AcDbLine
 10
5571.356372680224
 20
14013.35271468399
 30
0.0
 11
3465.356372680224
 21
14013.35271468399
 31
0.0
  0
LINE
  5
6C85
330
1F
100
AcDbEntity
  8
1
  6
Continuous
 62
     7
370
    13
100
AcDbLine
 10
5560.016413181263
 20
14033.60271468399
 30
0.0
 11
3465.356372680224
 21
14033.60271468399
 31
0.0
  0
LINE
  5
6C86
330
1F
100
AcDbEntity
  8
1
  6
Continuous
 62
     7
370
    13
100
AcDbLine
 10
5560.016413181263
 20
13952.60271468399
 30
0.0
 11
3465.356372680224
 21
13952.60271468399
 31
0.0
  0
LINE
  5
6C87
330
1F
100
AcDbEntity
  8
1
  6
Continuous
 62
     7
370
    13
100
AcDbLine
 10
3465.356372680224
 20
15025.85263368337
 30
0.0
 11
5571.356372680224
 21
15025.85263368337
 31
0.0
  0
LINE
  5
6C88
330
1F
100
AcDbEntity
  8
1
  6
Continuous
 62
     7
370
    13
100
AcDbLine
 10
5571.356372680224
 20
15046.10263368337
 30
0.0
 11
3465.356372680224
 21
15046.10263368337
 31
0.0
  0
LINE
  5
6C89
330
1F
100
AcDbEntity
  8
1
  6
Continuous
 62
     7
370
    13
100
AcDbLine
 10
3465.356372680224
 20
15066.35263368337
 30
0.0
 11
5571.356372680224
 21
15066.35263368337
 31
0.0
  0
ARC
  5
6C8A
330
1F
100
AcDbEntity
  8
1
  6
Continuous
 62
     7
370
    13
100
AcDbCircle
 10
5571.356372680224
 20
14519.60267418368
 30
0.0
 40
546.7499595
100
AcDbArc
 50
270.0
 51
90.0
  0
ARC
  5
6C8B
330
1F
100
AcDbEntity
  8
1
  6
Continuous
 62
     7
370
    13
100
AcDbCircle
 10
5571.356372680224
 20
14519.60267418368
 30
0.0
 40
506.2499595
100
AcDbArc
 50
270.0
 51
90.0
  0
ARC
  5
6C8C
330
1F
100
AcDbEntity
  8
1
  6
Continuous
 62
     7
370
    13
100
AcDbCircle
 10
5571.356372680224
 20
14519.60267418368
 30
0.0
 40
526.4999595
100
AcDbArc
 50
270.0
 51
90.0
  0
ARC
  5
6C8D
330
1F
100
AcDbEntity
  8
1
  6
Continuous
 62
     7
370
    13
100
AcDbCircle
 10
3465.356372680224
 20
14519.60267418368
 30
0.0
 40
546.7499595
100
AcDbArc
 50
90.0
 51
270.0
  0
ARC
  5
6C8E
330
1F
100
AcDbEntity
  8
1
  6
Continuous
 62
     7
370
    13
100
AcDbCircle
 10
3465.356372680224
 20
14519.60267418368
 30
0.0
 40
506.2499595
100
AcDbArc
 50
90.0
 51
270.0
  0
ARC
  5
6C8F
330
1F
100
AcDbEntity
  8
1
  6
Continuous
 62
     7
370
    13
100
AcDbCircle
 10
3465.356372680224
 20
14519.60267418368
 30
0.0
 40
526.4999595
100
AcDbArc
 50
90.0
 51
270.0
  0
LINE
  5
6C90
330
1F
100
AcDbEntity
  8
1
  6
Continuous
 62
     7
370
    13
100
AcDbLine
 10
3465.356372680224
 20
15005.60263368337
 30
0.0
 11
5560.016413181263
 21
15005.60263368337
 31
0.0
  0
ARC
  5
6C91
330
1F
100
AcDbEntity
  8
1
  6
Continuous
 62
     7
370
    13
100
AcDbCircle
 10
5560.016413181263
 20
14519.60267418368
 30
0.0
 40
485.9999594999999
100
AcDbArc
 50
270.0
 51
90.0
  0
ARC
  5
6C92
330
1F
100
AcDbEntity
  8
1
  6
Continuous
 62
     7
370
    13
100
AcDbCircle
 10
3465.356372680224
 20
14519.60267418368
 30
0.0
 40
485.9999594999999
100
AcDbArc
 50
90.0
 51
270.0
  0
LINE
  5
6C93
330
1F
100
AcDbEntity
  8
1
  6
Continuous
 62
     7
370
    13
100
AcDbLine
 10
3465.356372680224
 20
15086.60263368337
 30
0.0
 11
5560.016413181263
 21
15086.60263368337
 31
0.0
  0
ARC
  5
6C94
330
1F
100
AcDbEntity
  8
1
  6
Continuous
 62
     7
370
    13
100
AcDbCircle
 10
5560.016413181263
 20
14519.60267418368
 30
0.0
 40
566.9999595
100
AcDbArc
 50
270.0
 51
90.0
  0
ARC
  5
6C95
330
1F
100
AcDbEntity
  8
1
  6
Continuous
 62
     7
370
    13
100
AcDbCircle
 10
3465.356372680224
 20
14519.60267418368
 30
0.0
 40
566.9999595
100
AcDbArc
 50
90.0
 51
270.0
  0
CIRCLE
  5
6C96
330
1F
100
AcDbEntity
  8
1
  6
Continuous
 62
     7
370
    13
100
AcDbCircle
 10
3789.356332179915
 20
14519.60267418368
 30
0.0
 40
81.0
  0
CIRCLE
  5
6C97
330
1F
100
AcDbEntity
  8
1
  6
Continuous
 62
     7
370
    13
100
AcDbCircle
 10
3789.356332179915
 20
14519.60267418368
 30
0.0
 40
8.0999595
  0
CIRCLE
  5
6C98
330
1F
100
AcDbEntity
  8
1
  6
Continuous
 62
     7
370
    13
100
AcDbCircle
 10
3789.356332179915
 20
14519.60267418368
 30
0.0
 40
60.75
  0
CIRCLE
  5
6C99
330
1F
100
AcDbEntity
  8
1
  6
Continuous
 62
     7
370
    13
100
AcDbCircle
 10
3789.356332179915
 20
14519.60267418368
 30
0.0
 40
40.49999999999999
  0
CIRCLE
  5
6C9A
330
1F
100
AcDbEntity
  8
1
  6
Continuous
 62
     7
370
    13
100
AcDbCircle
 10
3789.356332179915
 20
14519.60267418368
 30
0.0
 40
20.24999999999999
  0
LINE
  5
6C9B
330
1F
100
AcDbEntity
  8
1
  6
Continuous
 62
     7
370
    13
100
AcDbLine
 10
5571.356372680224
 20
15349.85263368337
 30
0.0
 11
3465.356372680224
 21
15349.85263368337
 31
0.0
  0
LINE
  5
6C9C
330
1F
100
AcDbEntity
  8
1
  6
Continuous
 62
     7
370
    13
100
AcDbLine
 10
3465.356372680224
 20
15370.10263368337
 30
0.0
 11
5571.356372680224
 21
15370.10263368337
 31
0.0
  0
LINE
  5
6C9D
330
1F
100
AcDbEntity
  8
1
  6
Continuous
 62
     7
370
    13
100
AcDbLine
 10
5571.356372680224
 20
15390.35263368337
 30
0.0
 11
3465.356372680224
 21
15390.35263368337
 31
0.0
  0
LINE
  5
6C9E
330
1F
100
AcDbEntity
  8
1
  6
Continuous
 62
     7
370
    13
100
AcDbLine
 10
3465.356372680224
 20
16402.85267418368
 30
0.0
 11
5571.356372680224
 21
16402.85267418368
 31
0.0
  0
LINE
  5
6C9F
330
1F
100
AcDbEntity
  8
1
  6
Continuous
 62
     7
370
    13
100
AcDbLine
 10
5571.356372680224
 20
16423.10267418368
 30
0.0
 11
3465.356372680224
 21
16423.10267418368
 31
0.0
  0
LINE
  5
6CA0
330
1F
100
AcDbEntity
  8
1
  6
Continuous
 62
     7
370
    13
100
AcDbLine
 10
3465.356372680224
 20
16443.35267418368
 30
0.0
 11
5571.356372680224
 21
16443.35267418368
 31
0.0
  0
ARC
  5
6CA1
330
1F
100
AcDbEntity
  8
1
  6
Continuous
 62
     7
370
    13
100
AcDbCircle
 10
5571.356372680224
 20
15896.60271468399
 30
0.0
 40
546.7499595
100
AcDbArc
 50
270.0
 51
90.0
  0
ARC
  5
6CA2
330
1F
100
AcDbEntity
  8
1
  6
Continuous
 62
     7
370
    13
100
AcDbCircle
 10
5571.356372680224
 20
15896.60271468399
 30
0.0
 40
506.2499595
100
AcDbArc
 50
270.0
 51
90.0
  0
ARC
  5
6CA3
330
1F
100
AcDbEntity
  8
1
  6
Continuous
 62
     7
370
    13
100
AcDbCircle
 10
5571.356372680224
 20
15896.60271468399
 30
0.0
 40
526.4999595
100
AcDbArc
 50
270.0
 51
90.0
  0
LINE
  5
6CA4
330
1F
100
AcDbEntity
  8
1
  6
Continuous
 62
     7
370
    13
100
AcDbLine
 10
3323.606372680224
 20
15896.60271468399
 30
0.0
 11
4255.10645367988
 21
15896.60271468399
 31
0.0
  0
LINE
  5
6CA5
330
1F
100
AcDbEntity
  8
1
  6
Continuous
 62
     7
370
    13
100
AcDbLine
 10
4255.10645367988
 20
15815.60271468399
 30
0.0
 11
3323.606372680224
 21
15815.60271468399
 31
0.0
  0
LINE
  5
6CA6
330
1F
100
AcDbEntity
  8
1
  6
Continuous
 62
     7
370
    13
100
AcDbLine
 10
3323.606372680224
 20
15835.85271468399
 30
0.0
 11
4255.10645367988
 21
15835.85271468399
 31
0.0
  0
LINE
  5
6CA7
330
1F
100
AcDbEntity
  8
1
  6
Continuous
 62
     7
370
    13
100
AcDbLine
 10
4255.10645367988
 20
15856.10271468399
 30
0.0
 11
3323.606372680224
 21
15856.10271468399
 31
0.0
  0
LINE
  5
6CA8
330
1F
100
AcDbEntity
  8
1
  6
Continuous
 62
     7
370
    13
100
AcDbLine
 10
3323.606372680224
 20
15876.35271468399
 30
0.0
 11
4255.10645367988
 21
15876.35271468399
 31
0.0
  0
LINE
  5
6CA9
330
1F
100
AcDbEntity
  8
1
  6
Continuous
 62
     7
370
    13
100
AcDbLine
 10
4255.10645367988
 20
15916.85271468399
 30
0.0
 11
3323.606372680224
 21
15916.85271468399
 31
0.0
  0
LINE
  5
6CAA
330
1F
100
AcDbEntity
  8
1
  6
Continuous
 62
     7
370
    13
100
AcDbLine
 10
3323.606372680224
 20
15937.10271468399
 30
0.0
 11
4255.10645367988
 21
15937.10271468399
 31
0.0
  0
LINE
  5
6CAB
330
1F
100
AcDbEntity
  8
1
  6
Continuous
 62
     7
370
    13
100
AcDbLine
 10
4255.10645367988
 20
15957.35271468399
 30
0.0
 11
3323.606372680224
 21
15957.35271468399
 31
0.0
  0
LINE
  5
6CAC
330
1F
100
AcDbEntity
  8
1
  6
Continuous
 62
     7
370
    13
100
AcDbLine
 10
3323.606372680224
 20
15977.60271468399
 30
0.0
 11
4255.10645367988
 21
15977.60271468399
 31
0.0
  0
ARC
  5
6CAD
330
1F
100
AcDbEntity
  8
1
  6
Continuous
 62
     7
370
    13
100
AcDbCircle
 10
4255.10645367988
 20
15896.60271468399
 30
0.0
 40
20.24999999999999
100
AcDbArc
 50
270.0
 51
90.0
  0
ARC
  5
6CAE
330
1F
100
AcDbEntity
  8
1
  6
Continuous
 62
     7
370
    13
100
AcDbCircle
 10
4255.10645367988
 20
15896.60271468399
 30
0.0
 40
40.49999999999999
100
AcDbArc
 50
270.0
 51
90.0
  0
ARC
  5
6CAF
330
1F
100
AcDbEntity
  8
1
  6
Continuous
 62
     7
370
    13
100
AcDbCircle
 10
4255.10645367988
 20
15896.60271468399
 30
0.0
 40
60.75
100
AcDbArc
 50
270.0
 51
90.0
  0
ARC
  5
6CB0
330
1F
100
AcDbEntity
  8
1
  6
Continuous
 62
     7
370
    13
100
AcDbCircle
 10
4255.10645367988
 20
15896.60271468399
 30
0.0
 40
81.0
100
AcDbArc
 50
270.0
 51
90.0
  0
ARC
  5
6CB1
330
1F
100
AcDbEntity
  8
1
  6
Continuous
 62
     7
370
    13
100
AcDbCircle
 10
3323.606372680224
 20
15896.60271468399
 30
0.0
 40
20.24999999999999
100
AcDbArc
 50
90.0
 51
270.0
  0
ARC
  5
6CB2
330
1F
100
AcDbEntity
  8
1
  6
Continuous
 62
     7
370
    13
100
AcDbCircle
 10
3323.606372680224
 20
15896.60271468399
 30
0.0
 40
40.49999999999999
100
AcDbArc
 50
90.0
 51
270.0
  0
ARC
  5
6CB3
330
1F
100
AcDbEntity
  8
1
  6
Continuous
 62
     7
370
    13
100
AcDbCircle
 10
3323.606372680224
 20
15896.60271468399
 30
0.0
 40
60.75
100
AcDbArc
 50
90.0
 51
270.0
  0
ARC
  5
6CB4
330
1F
100
AcDbEntity
  8
1
  6
Continuous
 62
     7
370
    13
100
AcDbCircle
 10
3323.606372680224
 20
15896.60271468399
 30
0.0
 40
81.0
100
AcDbArc
 50
90.0
 51
270.0
  0
ARC
  5
6CB5
330
1F
100
AcDbEntity
  8
1
  6
Continuous
 62
     7
370
    13
100
AcDbCircle
 10
3465.356372680224
 20
15896.60271468399
 30
0.0
 40
546.7499595
100
AcDbArc
 50
90.0
 51
270.0
  0
ARC
  5
6CB6
330
1F
100
AcDbEntity
  8
1
  6
Continuous
 62
     7
370
    13
100
AcDbCircle
 10
3465.356372680224
 20
15896.60271468399
 30
0.0
 40
506.2499595
100
AcDbArc
 50
90.0
 51
270.0
  0
ARC
  5
6CB7
330
1F
100
AcDbEntity
  8
1
  6
Continuous
 62
     7
370
    13
100
AcDbCircle
 10
3465.356372680224
 20
15896.60271468399
 30
0.0
 40
526.4999595
100
AcDbArc
 50
90.0
 51
270.0
  0
CIRCLE
  5
6CB8
330
1F
100
AcDbEntity
  8
1
  6
Continuous
 62
     7
370
    13
100
AcDbCircle
 10
3789.356332179915
 20
14519.60267418368
 30
0.0
 40
101.2499999999999
  0
LINE
  5
6CB9
330
1F
100
AcDbEntity
  8
1
  6
Continuous
 62
     7
370
    13
100
AcDbLine
 10
4255.10645367988
 20
15795.35271468399
 30
0.0
 11
3323.606372680224
 21
15795.35271468399
 31
0.0
  0
LINE
  5
6CBA
330
1F
100
AcDbEntity
  8
1
  6
Continuous
 62
     7
370
    13
100
AcDbLine
 10
3323.606372680224
 20
15997.85271468399
 30
0.0
 11
4255.10645367988
 21
15997.85271468399
 31
0.0
  0
ARC
  5
6CBB
330
1F
100
AcDbEntity
  8
1
  6
Continuous
 62
     7
370
    13
100
AcDbCircle
 10
4255.10645367988
 20
15896.60271468399
 30
0.0
 40
101.2499999999999
100
AcDbArc
 50
270.0
 51
90.0
  0
ARC
  5
6CBC
330
1F
100
AcDbEntity
  8
1
  6
Continuous
 62
     7
370
    13
100
AcDbCircle
 10
3323.606372680224
 20
15896.60271468399
 30
0.0
 40
101.2499999999999
100
AcDbArc
 50
90.0
 51
270.0
  0
LINE
  5
6CBD
330
1F
100
AcDbEntity
  8
1
  6
Continuous
 62
     7
370
    13
100
AcDbLine
 10
5560.016413181263
 20
15410.60263368337
 30
0.0
 11
3465.356372680224
 21
15410.60263368337
 31
0.0
  0
LINE
  5
6CBE
330
1F
100
AcDbEntity
  8
1
  6
Continuous
 62
     7
370
    13
100
AcDbLine
 10
3465.356372680224
 20
16382.60267418368
 30
0.0
 11
5560.016413181263
 21
16382.60267418368
 31
0.0
  0
ARC
  5
6CBF
330
1F
100
AcDbEntity
  8
1
  6
Continuous
 62
     7
370
    13
100
AcDbCircle
 10
5560.016413181263
 20
15896.60271468399
 30
0.0
 40
485.9999594999999
100
AcDbArc
 50
270.0
 51
90.0
  0
ARC
  5
6CC0
330
1F
100
AcDbEntity
  8
1
  6
Continuous
 62
     7
370
    13
100
AcDbCircle
 10
3465.356372680224
 20
15896.60271468399
 30
0.0
 40
485.9999594999999
100
AcDbArc
 50
90.0
 51
270.0
  0
LINE
  5
6CC1
330
1F
100
AcDbEntity
  8
1
  6
Continuous
 62
     7
370
    13
100
AcDbLine
 10
5560.016413181263
 20
15329.60263368337
 30
0.0
 11
3465.356372680224
 21
15329.60263368337
 31
0.0
  0
LINE
  5
6CC2
330
1F
100
AcDbEntity
  8
1
  6
Continuous
 62
     7
370
    13
100
AcDbLine
 10
3465.356372680224
 20
16463.60267418368
 30
0.0
 11
5560.016413181263
 21
16463.60267418368
 31
0.0
  0
ARC
  5
6CC3
330
1F
100
AcDbEntity
  8
1
  6
Continuous
 62
     7
370
    13
100
AcDbCircle
 10
5560.016413181263
 20
15896.60271468399
 30
0.0
 40
566.9999595
100
AcDbArc
 50
270.0
 51
90.0
  0
ARC
  5
6CC4
330
1F
100
AcDbEntity
  8
1
  6
Continuous
 62
     7
370
    13
100
AcDbCircle
 10
3465.356372680224
 20
15896.60271468399
 30
0.0
 40
566.9999595
100
AcDbArc
 50
90.0
 51
270.0
  0
LINE
  5
6CC5
330
1F
100
AcDbEntity
  8
1
  6
Continuous
 62
     7
370
    13
100
AcDbLine
 10
3176.996372681344
 20
18083.60271468399
 30
0.0
 11
3176.996372681344
 21
16949.60267418368
 31
0.0
  0
LINE
  5
6CC6
330
1F
100
AcDbEntity
  8
1
  6
Continuous
 62
     7
370
    13
100
AcDbLine
 10
3338.996332181035
 20
16949.60267418368
 30
0.0
 11
3176.996372681344
 21
16949.60267418368
 31
0.0
  0
LINE
  5
6CC7
330
1F
100
AcDbEntity
  8
1
  6
Continuous
 62
     7
370
    13
100
AcDbLine
 10
4675.49641317976
 20
18083.60271468399
 30
0.0
 11
4675.49641317976
 21
16949.60267418368
 31
0.0
  0
LINE
  5
6CC8
330
1F
100
AcDbEntity
  8
1
  6
Continuous
 62
     7
370
    13
100
AcDbLine
 10
4837.496372681344
 20
16949.60267418368
 30
0.0
 11
4675.49641317976
 21
16949.60267418368
 31
0.0
  0
LINE
  5
6CC9
330
1F
100
AcDbEntity
  8
1
  6
Continuous
 62
     7
370
    13
100
AcDbLine
 10
5282.186413180898
 20
17253.35263368337
 30
0.0
 11
5730.116372680029
 21
17415.35263368337
 31
0.0
  0
LINE
  5
6CCA
330
1F
100
AcDbEntity
  8
1
  6
Continuous
 62
     7
370
    13
100
AcDbLine
 10
5728.496332181036
 20
17435.60263368337
 30
0.0
 11
5282.996372681344
 21
17273.60263368337
 31
0.0
  0
LINE
  5
6CCB
330
1F
100
AcDbEntity
  8
1
  6
Continuous
 62
     7
370
    13
100
AcDbLine
 10
5286.236332180269
 20
17293.85263368337
 30
0.0
 11
5727.68637268059
 21
17455.85263368337
 31
0.0
  0
LINE
  5
6CCC
330
1F
100
AcDbEntity
  8
1
  6
Continuous
 62
     7
370
    13
100
AcDbLine
 10
5727.68637268059
 20
18265.85271468399
 30
0.0
 11
5286.236332180269
 21
18103.85271468399
 31
0.0
  0
LINE
  5
6CCD
330
1F
100
AcDbEntity
  8
1
  6
Continuous
 62
     7
370
    13
100
AcDbLine
 10
5727.68637268059
 20
18286.10271468399
 30
0.0
 11
5282.186413180898
 21
18124.10271468399
 31
0.0
  0
LINE
  5
6CCE
330
1F
100
AcDbEntity
  8
1
  6
Continuous
 62
     7
370
    13
100
AcDbLine
 10
5284.616413180338
 20
18144.35271468399
 30
0.0
 11
5727.68637268059
 21
18306.35271468399
 31
0.0
  0
LINE
  5
6CCF
330
1F
100
AcDbEntity
  8
1
  6
Continuous
 62
     7
370
    13
100
AcDbLine
 10
5120.996372681344
 20
18265.85271468399
 30
0.0
 11
5727.68637268059
 21
18265.85271468399
 31
0.0
  0
LINE
  5
6CD0
330
1F
100
AcDbEntity
  8
1
  6
Continuous
 62
     7
370
    13
100
AcDbLine
 10
5727.68637268059
 20
18286.10271468399
 30
0.0
 11
5120.996372681344
 21
18286.10271468399
 31
0.0
  0
LINE
  5
6CD1
330
1F
100
AcDbEntity
  8
1
  6
Continuous
 62
     7
370
    13
100
AcDbLine
 10
5120.996372681344
 20
18306.35271468399
 30
0.0
 11
5727.68637268059
 21
18306.35271468399
 31
0.0
  0
LINE
  5
6CD2
330
1F
100
AcDbEntity
  8
1
  6
Continuous
 62
     7
370
    13
100
AcDbLine
 10
5708.246332181036
 20
18326.60271468399
 30
0.0
 11
5708.246332181036
 21
17395.10263368337
 31
0.0
  0
LINE
  5
6CD3
330
1F
100
AcDbEntity
  8
1
  6
Continuous
 62
     7
370
    13
100
AcDbLine
 10
5687.996332181036
 20
17395.10263368337
 30
0.0
 11
5687.996332181036
 21
18307.16267418254
 31
0.0
  0
LINE
  5
6CD4
330
1F
100
AcDbEntity
  8
1
  6
Continuous
 62
     7
370
    13
100
AcDbLine
 10
5667.746332181035
 20
18245.60271468399
 30
0.0
 11
5667.746332181035
 21
17395.10263368337
 31
0.0
  0
LINE
  5
6CD5
330
1F
100
AcDbEntity
  8
1
  6
Continuous
 62
     7
370
    13
100
AcDbLine
 10
5343.746372681344
 20
18164.60271468399
 30
0.0
 11
5343.746372681344
 21
17314.10263368337
 31
0.0
  0
LINE
  5
6CD6
330
1F
100
AcDbEntity
  8
1
  6
Continuous
 62
     7
370
    13
100
AcDbLine
 10
5323.496372681344
 20
17314.10263368337
 30
0.0
 11
5323.496372681344
 21
18164.60271468399
 31
0.0
  0
LINE
  5
6CD7
330
1F
100
AcDbEntity
  8
1
  6
Continuous
 62
     7
370
    13
100
AcDbLine
 10
5303.246372681344
 20
18164.60271468399
 30
0.0
 11
5303.246372681344
 21
17314.10263368337
 31
0.0
  0
LINE
  5
6CD8
330
1F
100
AcDbEntity
  8
1
  6
Continuous
 62
     7
370
    13
100
AcDbLine
 10
5201.996372681344
 20
18245.60271468399
 30
0.0
 11
5201.996372681344
 21
18326.60271468399
 31
0.0
  0
LINE
  5
6CD9
330
1F
100
AcDbEntity
  8
1
  6
Continuous
 62
     7
370
    13
100
AcDbLine
 10
5201.996372681344
 20
17395.10263368337
 30
0.0
 11
5201.996372681344
 21
17476.10263368337
 31
0.0
  0
LINE
  5
6CDA
330
1F
100
AcDbEntity
  8
1
  6
Continuous
 62
     7
370
    13
100
AcDbLine
 10
5181.746372681344
 20
18326.60271468399
 30
0.0
 11
5181.746372681344
 21
17395.10263368337
 31
0.0
  0
LINE
  5
6CDB
330
1F
100
AcDbEntity
  8
1
  6
Continuous
 62
     7
370
    13
100
AcDbLine
 10
5161.496372681344
 20
17395.10263368337
 30
0.0
 11
5161.496372681344
 21
18326.60271468399
 31
0.0
  0
LINE
  5
6CDC
330
1F
100
AcDbEntity
  8
1
  6
Continuous
 62
     7
370
    13
100
AcDbLine
 10
5141.246372681344
 20
18326.60271468399
 30
0.0
 11
5141.246372681344
 21
17395.10263368337
 31
0.0
  0
CIRCLE
  5
6CDD
330
1F
100
AcDbEntity
  8
1
  6
Continuous
 62
     7
370
    13
100
AcDbCircle
 10
5444.996372681345
 20
17758.79263368355
 30
0.0
 40
8.0999595
  0
CIRCLE
  5
6CDE
330
1F
100
AcDbEntity
  8
1
  6
Continuous
 62
     7
370
    13
100
AcDbCircle
 10
5444.996372681345
 20
17758.79263368355
 30
0.0
 40
20.24999999999999
  0
LINE
  5
6CDF
330
1F
100
AcDbEntity
  8
1
  6
Continuous
 62
     7
370
    13
100
AcDbLine
 10
5647.496332181035
 20
17395.10263368337
 30
0.0
 11
5647.496332181035
 21
18245.60271468399
 31
0.0
  0
LINE
  5
6CE0
330
1F
100
AcDbEntity
  8
1
  6
Continuous
 62
     7
370
    13
100
AcDbLine
 10
5363.996372681344
 20
18119.24271468228
 30
0.0
 11
5363.996372681344
 21
17334.35263368337
 31
0.0
  0
LINE
  5
6CE1
330
1F
100
AcDbEntity
  8
1
  6
Continuous
 62
     7
370
    13
100
AcDbLine
 10
5282.996372681344
 20
17314.10263368337
 30
0.0
 11
5728.496332181036
 21
17476.10263368337
 31
0.0
  0
LINE
  5
6CE2
330
1F
100
AcDbEntity
  8
1
  6
Continuous
 62
     7
370
    13
100
AcDbLine
 10
5282.996372681344
 20
18083.60271468399
 30
0.0
 11
5728.496332181036
 21
18245.60271468399
 31
0.0
  0
LINE
  5
6CE3
330
1F
100
AcDbEntity
  8
1
  6
Continuous
 62
     7
370
    13
100
AcDbLine
 10
5120.996372681344
 20
17395.10263368337
 30
0.0
 11
5282.996372681344
 21
17395.10263368337
 31
0.0
  0
LINE
  5
6CE4
330
1F
100
AcDbEntity
  8
1
  6
Continuous
 62
     7
370
    13
100
AcDbLine
 10
5201.996372681344
 20
18245.60271468399
 30
0.0
 11
5201.996372681344
 21
17476.10263368337
 31
0.0
  0
LINE
  5
6CE5
330
1F
100
AcDbEntity
  8
1
  6
Continuous
 62
     7
370
    13
100
AcDbLine
 10
5201.996372681344
 20
17476.10263368337
 30
0.0
 11
5282.996372681344
 21
17476.10263368337
 31
0.0
  0
LINE
  5
6CE6
330
1F
100
AcDbEntity
  8
1
  6
Continuous
 62
     7
370
    13
100
AcDbLine
 10
5201.996372681344
 20
18245.60271468399
 30
0.0
 11
5499.266413181263
 21
18245.60271468399
 31
0.0
  0
LINE
  5
6CE7
330
1F
100
AcDbEntity
  8
1
  6
Continuous
 62
     7
370
    13
100
AcDbLine
 10
5282.996372681344
 20
18164.60271468399
 30
0.0
 11
5282.996372681344
 21
17233.10263368337
 31
0.0
  0
LINE
  5
6CE8
330
1F
100
AcDbEntity
  8
1
  6
Continuous
 62
     7
370
    13
100
AcDbLine
 10
5282.996372681344
 20
17233.10263368337
 30
0.0
 11
5728.496332181036
 21
17395.10263368337
 31
0.0
  0
LINE
  5
6CE9
330
1F
100
AcDbEntity
  8
1
  6
Continuous
 62
     7
370
    13
100
AcDbLine
 10
5728.496332181036
 20
18326.60271468399
 30
0.0
 11
5282.996372681344
 21
18164.60271468399
 31
0.0
  0
LINE
  5
6CEA
330
1F
100
AcDbEntity
  8
1
  6
Continuous
 62
     7
370
    13
100
AcDbLine
 10
5120.996372681344
 20
18326.60271468399
 30
0.0
 11
5120.996372681344
 21
17395.10263368337
 31
0.0
  0
LINE
  5
6CEB
330
1F
100
AcDbEntity
  8
1
  6
Continuous
 62
     7
370
    13
100
AcDbLine
 10
5728.496332181036
 20
18326.60271468399
 30
0.0
 11
5120.996372681344
 21
18326.60271468399
 31
0.0
  0
LINE
  5
6CEC
330
1F
100
AcDbEntity
  8
1
  6
Continuous
 62
     7
370
    13
100
AcDbLine
 10
5728.496332181036
 20
17395.10263368337
 30
0.0
 11
5728.496332181036
 21
18326.60271468399
 31
0.0
  0
LINE
  5
6CED
330
1F
100
AcDbEntity
  8
1
  6
Continuous
 62
     7
370
    13
100
AcDbLine
 10
4047.746453680068
 20
18002.60271468399
 30
0.0
 11
4047.746453680068
 21
17921.60271468399
 31
0.0
  0
LINE
  5
6CEE
330
1F
100
AcDbEntity
  8
1
  6
Continuous
 62
     7
370
    13
100
AcDbLine
 10
4027.496453680068
 20
17921.60271468399
 30
0.0
 11
4027.496453680068
 21
18002.60271468399
 31
0.0
  0
LINE
  5
6CEF
330
1F
100
AcDbEntity
  8
1
  6
Continuous
 62
     7
370
    13
100
AcDbLine
 10
4007.246453680068
 20
18002.60271468399
 30
0.0
 11
4007.246453680068
 21
17921.60271468399
 31
0.0
  0
ARC
  5
6CF0
330
1F
100
AcDbEntity
  8
1
  6
Continuous
 62
     7
370
    13
100
AcDbCircle
 10
3824.996332181035
 20
18002.60271468399
 30
0.0
 40
222.75
100
AcDbArc
 50
0.0
 51
180.0
  0
ARC
  5
6CF1
330
1F
100
AcDbEntity
  8
1
  6
Continuous
 62
     7
370
    13
100
AcDbCircle
 10
3824.996332181035
 20
18002.60271468399
 30
0.0
 40
202.4999999999999
100
AcDbArc
 50
0.0
 51
180.0
  0
ARC
  5
6CF2
330
1F
100
AcDbEntity
  8
1
  6
Continuous
 62
     7
370
    13
100
AcDbCircle
 10
3824.996332181035
 20
18002.60271468399
 30
0.0
 40
182.2499999999999
100
AcDbArc
 50
0.0
 51
180.0
  0
LINE
  5
6CF3
330
1F
100
AcDbEntity
  8
1
  6
Continuous
 62
     7
370
    13
100
AcDbLine
 10
3521.246332181035
 20
17334.35263368337
 30
0.0
 11
4128.746413179761
 21
17334.35263368337
 31
0.0
  0
LINE
  5
6CF4
330
1F
100
AcDbEntity
  8
1
  6
Continuous
 62
     7
370
    13
100
AcDbLine
 10
3521.246332181035
 20
17901.35271468399
 30
0.0
 11
3521.246332181035
 21
17334.35263368337
 31
0.0
  0
LINE
  5
6CF5
330
1F
100
AcDbEntity
  8
1
  6
Continuous
 62
     7
370
    13
100
AcDbLine
 10
4128.746413179761
 20
17901.35271468399
 30
0.0
 11
3521.246332181035
 21
17901.35271468399
 31
0.0
  0
LINE
  5
6CF6
330
1F
100
AcDbEntity
  8
1
  6
Continuous
 62
     7
370
    13
100
AcDbLine
 10
4128.746413179761
 20
17334.35263368337
 30
0.0
 11
4128.746413179761
 21
17901.35271468399
 31
0.0
  0
LINE
  5
6CF7
330
1F
100
AcDbEntity
  8
1
  6
Continuous
 62
     7
370
    13
100
AcDbLine
 10
4108.49641317976
 20
17881.10271468399
 30
0.0
 11
3541.496332181035
 21
17881.10271468399
 31
0.0
  0
LINE
  5
6CF8
330
1F
100
AcDbEntity
  8
1
  6
Continuous
 62
     7
370
    13
100
AcDbLine
 10
4108.49641317976
 20
17354.60263368337
 30
0.0
 11
4108.49641317976
 21
17881.10271468399
 31
0.0
  0
LINE
  5
6CF9
330
1F
100
AcDbEntity
  8
1
  6
Continuous
 62
     7
370
    13
100
AcDbLine
 10
3541.496332181035
 20
17354.60263368337
 30
0.0
 11
4108.49641317976
 21
17354.60263368337
 31
0.0
  0
LINE
  5
6CFA
330
1F
100
AcDbEntity
  8
1
  6
Continuous
 62
     7
370
    13
100
AcDbLine
 10
3541.496332181035
 20
17881.10271468399
 30
0.0
 11
3541.496332181035
 21
17354.60263368337
 31
0.0
  0
LINE
  5
6CFB
330
1F
100
AcDbEntity
  8
1
  6
Continuous
 62
     7
370
    13
100
AcDbLine
 10
3561.746332181035
 20
17374.85263368337
 30
0.0
 11
4088.246453680069
 21
17374.85263368337
 31
0.0
  0
LINE
  5
6CFC
330
1F
100
AcDbEntity
  8
1
  6
Continuous
 62
     7
370
    13
100
AcDbLine
 10
3561.746332181035
 20
17860.85271468399
 30
0.0
 11
3561.746332181035
 21
17374.85263368337
 31
0.0
  0
LINE
  5
6CFD
330
1F
100
AcDbEntity
  8
1
  6
Continuous
 62
     7
370
    13
100
AcDbLine
 10
4088.246453680069
 20
17860.85271468399
 30
0.0
 11
3561.746332181035
 21
17860.85271468399
 31
0.0
  0
LINE
  5
6CFE
330
1F
100
AcDbEntity
  8
1
  6
Continuous
 62
     7
370
    13
100
AcDbLine
 10
4088.246453680069
 20
17374.85263368337
 30
0.0
 11
4088.246453680069
 21
17860.85271468399
 31
0.0
  0
LINE
  5
6CFF
330
1F
100
AcDbEntity
  8
1
  6
Continuous
 62
     7
370
    13
100
AcDbLine
 10
3824.996332181035
 20
17617.85263368337
 30
0.0
 11
3824.996332181035
 21
17516.60263368337
 31
0.0
  0
LINE
  5
6D00
330
1F
100
AcDbEntity
  8
1
  6
Continuous
 62
     7
370
    13
100
AcDbLine
 10
3804.746332181035
 20
17516.60263368337
 30
0.0
 11
3804.746332181035
 21
17617.85263368337
 31
0.0
  0
LINE
  5
6D01
330
1F
100
AcDbEntity
  8
1
  6
Continuous
 62
     7
370
    13
100
AcDbLine
 10
3845.246332181035
 20
17617.85263368337
 30
0.0
 11
3845.246332181035
 21
17516.60263368337
 31
0.0
  0
ARC
  5
6D02
330
1F
100
AcDbEntity
  8
1
  6
Continuous
 62
     7
370
    13
100
AcDbCircle
 10
3824.996332181035
 20
17516.60263368337
 30
0.0
 40
20.24999999999999
100
AcDbArc
 50
180.0
 51
0.0
  0
CIRCLE
  5
6D03
330
1F
100
AcDbEntity
  8
1
  6
Continuous
 62
     7
370
    13
100
AcDbCircle
 10
3824.996332181035
 20
17678.60259318306
 30
0.0
 40
16.1999595
  0
CIRCLE
  5
6D04
330
1F
100
AcDbEntity
  8
1
  6
Continuous
 62
     7
370
    13
100
AcDbCircle
 10
3824.996332181035
 20
17678.60259318306
 30
0.0
 40
60.75
  0
CIRCLE
  5
6D05
330
1F
100
AcDbEntity
  8
1
  6
Continuous
 62
     7
370
    13
100
AcDbCircle
 10
3824.996332181035
 20
17678.60259318306
 30
0.0
 40
40.49999999999999
  0
LINE
  5
6D06
330
1F
100
AcDbEntity
  8
1
  6
Continuous
 62
     7
370
    13
100
AcDbLine
 10
3865.496332181035
 20
17516.60263368337
 30
0.0
 11
3865.496332181035
 21
17617.85263368337
 31
0.0
  0
LINE
  5
6D07
330
1F
100
AcDbEntity
  8
1
  6
Continuous
 62
     7
370
    13
100
AcDbLine
 10
3784.496332181035
 20
17617.85263368337
 30
0.0
 11
3784.496332181035
 21
17516.60263368337
 31
0.0
  0
ARC
  5
6D08
330
1F
100
AcDbEntity
  8
1
  6
Continuous
 62
     7
370
    13
100
AcDbCircle
 10
3824.996332181035
 20
17516.60263368337
 30
0.0
 40
40.49999999999999
100
AcDbArc
 50
180.0
 51
0.0
  0
CIRCLE
  5
6D09
330
1F
100
AcDbEntity
  8
1
  6
Continuous
 62
     7
370
    13
100
AcDbCircle
 10
3824.996332181035
 20
17678.60259318306
 30
0.0
 40
81.0
  0
LINE
  5
6D0A
330
1F
100
AcDbEntity
  8
1
  6
Continuous
 62
     7
370
    13
100
AcDbLine
 10
3986.996453680069
 20
18002.60271468399
 30
0.0
 11
3986.996453680069
 21
17921.60271468399
 31
0.0
  0
LINE
  5
6D0B
330
1F
100
AcDbEntity
  8
1
  6
Continuous
 62
     7
370
    13
100
AcDbLine
 10
4067.996453680069
 20
18002.60271468399
 30
0.0
 11
4067.996453680069
 21
17921.60271468399
 31
0.0
  0
LINE
  5
6D0C
330
1F
100
AcDbEntity
  8
1
  6
Continuous
 62
     7
370
    13
100
AcDbLine
 10
3581.996332181035
 20
18002.60271468399
 30
0.0
 11
3662.996332181036
 21
18002.60271468399
 31
0.0
  0
ARC
  5
6D0D
330
1F
100
AcDbEntity
  8
1
  6
Continuous
 62
     7
370
    13
100
AcDbCircle
 10
3824.996332181035
 20
18002.60271468399
 30
0.0
 40
162.0
100
AcDbArc
 50
0.0
 51
180.0
  0
ARC
  5
6D0E
330
1F
100
AcDbEntity
  8
1
  6
Continuous
 62
     7
370
    13
100
AcDbCircle
 10
3824.996332181035
 20
18002.60271468399
 30
0.0
 40
243.0
100
AcDbArc
 50
0.0
 51
180.0
  0
LINE
  5
6D0F
330
1F
100
AcDbEntity
  8
1
  6
Continuous
 62
     7
370
    13
100
AcDbLine
 10
3581.996332181035
 20
17395.10263368337
 30
0.0
 11
4067.996453680069
 21
17395.10263368337
 31
0.0
  0
LINE
  5
6D10
330
1F
100
AcDbEntity
  8
1
  6
Continuous
 62
     7
370
    13
100
AcDbLine
 10
3581.996332181035
 20
17840.60271468399
 30
0.0
 11
3581.996332181035
 21
17395.10263368337
 31
0.0
  0
LINE
  5
6D11
330
1F
100
AcDbEntity
  8
1
  6
Continuous
 62
     7
370
    13
100
AcDbLine
 10
4067.996453680069
 20
17840.60271468399
 30
0.0
 11
3581.996332181035
 21
17840.60271468399
 31
0.0
  0
LINE
  5
6D12
330
1F
100
AcDbEntity
  8
1
  6
Continuous
 62
     7
370
    13
100
AcDbLine
 10
4067.996453680069
 20
17395.10263368337
 30
0.0
 11
4067.996453680069
 21
17840.60271468399
 31
0.0
  0
LINE
  5
6D13
330
1F
100
AcDbEntity
  8
1
  6
Continuous
 62
     7
370
    13
100
AcDbLine
 10
3500.996332181035
 20
17314.10263368337
 30
0.0
 11
4148.99641317976
 21
17314.10263368337
 31
0.0
  0
LINE
  5
6D14
330
1F
100
AcDbEntity
  8
1
  6
Continuous
 62
     7
370
    13
100
AcDbLine
 10
3500.996332181035
 20
17921.60271468399
 30
0.0
 11
3500.996332181035
 21
17314.10263368337
 31
0.0
  0
LINE
  5
6D15
330
1F
100
AcDbEntity
  8
1
  6
Continuous
 62
     7
370
    13
100
AcDbLine
 10
4148.99641317976
 20
17921.60271468399
 30
0.0
 11
3500.996332181035
 21
17921.60271468399
 31
0.0
  0
LINE
  5
6D16
330
1F
100
AcDbEntity
  8
1
  6
Continuous
 62
     7
370
    13
100
AcDbLine
 10
4148.99641317976
 20
17314.10263368337
 30
0.0
 11
4148.99641317976
 21
17921.60271468399
 31
0.0
  0
CIRCLE
  5
6D17
330
1F
100
AcDbEntity
  8
1
  6
Continuous
 62
     7
370
    13
100
AcDbCircle
 10
4675.49641317976
 20
18245.60271468399
 30
0.0
 40
162.0
  0
CIRCLE
  5
6D18
330
1F
100
AcDbEntity
  8
1
  6
Continuous
 62
     7
370
    13
100
AcDbCircle
 10
3176.996372681344
 20
18245.60271468399
 30
0.0
 40
162.0
  0
LINE
  5
6D19
330
1F
100
AcDbEntity
  8
1
  6
Continuous
 62
     7
370
    13
100
AcDbLine
 10
5890.496332181036
 20
16625.60267418368
 30
0.0
 11
3136.496372681344
 21
16625.60267418368
 31
0.0
  0
LINE
  5
6D1A
330
1F
100
AcDbEntity
  8
1
  6
Continuous
 62
     7
370
    13
100
AcDbLine
 10
6133.496453680069
 20
18286.10271468399
 30
0.0
 11
6133.496453680069
 21
16868.60267418368
 31
0.0
  0
LINE
  5
6D1B
330
1F
100
AcDbEntity
  8
1
  6
Continuous
 62
     7
370
    13
100
AcDbLine
 10
5890.496332181036
 20
18529.10267418368
 30
0.0
 11
3136.496372681344
 21
18529.10267418368
 31
0.0
  0
LINE
  5
6D1C
330
1F
100
AcDbEntity
  8
1
  6
Continuous
 62
     7
370
    13
100
AcDbLine
 10
2893.496372681344
 20
16868.60267418368
 30
0.0
 11
2893.496372681344
 21
18286.10271468399
 31
0.0
  0
LINE
  5
6D1D
330
1F
100
AcDbEntity
  8
1
  6
Continuous
 62
     7
370
    13
100
AcDbLine
 10
3176.996372681344
 20
19541.60263368337
 30
0.0
 11
3338.996332181035
 21
19541.60263368337
 31
0.0
  0
LINE
  5
6D1E
330
1F
100
AcDbEntity
  8
1
  6
Continuous
 62
     7
370
    13
100
AcDbLine
 10
3176.996372681344
 20
19136.60263368337
 30
0.0
 11
3176.996372681344
 21
19541.60263368337
 31
0.0
  0
LINE
  5
6D1F
330
1F
100
AcDbEntity
  8
1
  6
Continuous
 62
     7
370
    13
100
AcDbLine
 10
4270.496413179761
 20
19906.10271468399
 30
0.0
 11
3136.496372681344
 21
19906.10271468399
 31
0.0
  0
LINE
  5
6D20
330
1F
100
AcDbEntity
  8
1
  6
Continuous
 62
     7
370
    13
100
AcDbLine
 10
4513.496413179761
 20
18934.10267418368
 30
0.0
 11
4513.496413179761
 21
19663.10263368337
 31
0.0
  0
LINE
  5
6D21
330
1F
100
AcDbEntity
  8
1
  6
Continuous
 62
     7
370
    13
100
AcDbLine
 10
3136.496372681344
 20
18691.10267418368
 30
0.0
 11
4270.496413179761
 21
18691.10267418368
 31
0.0
  0
LINE
  5
6D22
330
1F
100
AcDbEntity
  8
1
  6
Continuous
 62
     7
370
    13
100
AcDbLine
 10
2893.496372681344
 20
18934.10267418368
 30
0.0
 11
2893.496372681344
 21
19663.10263368337
 31
0.0
  0
ARC
  5
6D23
330
1F
100
AcDbEntity
  8
1
  6
Continuous
 62
     7
370
    13
100
AcDbCircle
 10
5890.496332181036
 20
16868.60267418368
 30
0.0
 40
243.0
100
AcDbArc
 50
270.0
 51
0.0
  0
ARC
  5
6D24
330
1F
100
AcDbEntity
  8
1
  6
Continuous
 62
     7
370
    13
100
AcDbCircle
 10
5890.496332181036
 20
18286.10271468399
 30
0.0
 40
243.0
100
AcDbArc
 50
0.0
 51
90.0
  0
ARC
  5
6D25
330
1F
100
AcDbEntity
  8
1
  6
Continuous
 62
     7
370
    13
100
AcDbCircle
 10
3136.496372681344
 20
16868.60267418368
 30
0.0
 40
243.0
100
AcDbArc
 50
180.0
 51
270.0
  0
ARC
  5
6D26
330
1F
100
AcDbEntity
  8
1
  6
Continuous
 62
     7
370
    13
100
AcDbCircle
 10
3136.496372681344
 20
18286.10271468399
 30
0.0
 40
243.0
100
AcDbArc
 50
90.0
 51
180.0
  0
CIRCLE
  5
6D27
330
1F
100
AcDbEntity
  8
1
  6
Continuous
 62
     7
370
    13
100
AcDbCircle
 10
3176.996372681344
 20
18974.60267418368
 30
0.0
 40
162.0
  0
ARC
  5
6D28
330
1F
100
AcDbEntity
  8
1
  6
Continuous
 62
     7
370
    13
100
AcDbCircle
 10
4270.496413179761
 20
19663.10263368337
 30
0.0
 40
243.0
100
AcDbArc
 50
0.0
 51
90.0
  0
ARC
  5
6D29
330
1F
100
AcDbEntity
  8
1
  6
Continuous
 62
     7
370
    13
100
AcDbCircle
 10
4270.496413179761
 20
18934.10267418368
 30
0.0
 40
243.0
100
AcDbArc
 50
270.0
 51
0.0
  0
ARC
  5
6D2A
330
1F
100
AcDbEntity
  8
1
  6
Continuous
 62
     7
370
    13
100
AcDbCircle
 10
3136.496372681344
 20
18934.10267418368
 30
0.0
 40
243.0
100
AcDbArc
 50
180.0
 51
270.0
  0
ARC
  5
6D2B
330
1F
100
AcDbEntity
  8
1
  6
Continuous
 62
     7
370
    13
100
AcDbCircle
 10
3136.496372681344
 20
19663.10263368337
 30
0.0
 40
243.0
100
AcDbArc
 50
90.0
 51
180.0
  0
DIMENSION
  5
6D2C
330
1F
100
AcDbEntity
  8
1
  6
Continuous
 62
     7
370
    13
100
AcDbDimension
  2
*D126
 10
7348.49633218121
 20
22537.5317326828
 30
0.0
 11
4513.501704434195
 21
22787.53173268281
 31
0.0
 70
    32
  1
70
 71
     5
 42
5669.98925549403
  3
Standard
100
AcDbAlignedDimension
 13
1678.507076687179
 23
16495.7695430937
 33
0.0
 14
7348.49633218121
 24
16463.60267418368
 34
0.0
100
AcDbRotatedDimension
1001
ACAD
1000
DSTYLE
1002
{
1070
    41
1040
500.0
1070
    42
1040
50.0
1070
    73
1070
     0
1070
    77
1070
     1
1070
   140
1040
400.0
1070
   147
1040
50.0
1070
   173
1070
     1
1070
   343
1005
2B
1070
   344
1005
2B
1070
   371
1070
    13
1070
   372
1070
    13
1002
}
  0
DIMENSION
  5
6D2D
330
1F
100
AcDbEntity
  8
1
  6
Continuous
 62
     7
370
    13
100
AcDbDimension
  2
*D127
 10
8561.597894681035
 20
21323.60275518327
 30
0.0
 11
8311.597894681032
 21
16463.6026741832
 31
0.0
 70
    32
  1
120
 71
     5
 42
9720.000162000156
  3
Standard
100
AcDbAlignedDimension
 13
4513.496413179761
 23
11603.60259318312
 33
0.0
 14
4513.496413179761
 24
21323.60275518328
 34
0.0
 50
90.0
100
AcDbRotatedDimension
1001
ACAD
1000
DSTYLE
1002
{
1070
    41
1040
500.0
1070
    42
1040
50.0
1070
    73
1070
     0
1070
    77
1070
     1
1070
   140
1040
400.0
1070
   147
1040
50.0
1070
   173
1070
     1
1070
   343
1005
2B
1070
   344
1005
2B
1070
   371
1070
    13
1070
   372
1070
    13
1002
}
  0
LINE
  5
6D2E
330
1F
100
AcDbEntity
  8
1
  6
Continuous
 62
     7
370
    13
100
AcDbLine
 10
11359.25738068012
 20
11603.60259318306
 30
0.0
 11
11483.39255368031
 21
11603.60259318306
 31
0.0
  0
LINE
  5
6D2F
330
1F
100
AcDbEntity
  8
1
  6
Continuous
 62
     7
370
    13
100
AcDbLine
 10
11483.39255368031
 20
21323.60251218338
 30
0.0
 11
11361.89255368031
 21
21323.60251218338
 31
0.0
  0
LINE
  5
6D30
330
1F
100
AcDbEntity
  8
1
  6
Continuous
 62
     7
370
    13
100
AcDbLine
 10
11483.39255368031
 20
11603.60259318306
 30
0.0
 11
11483.39255368031
 21
21323.60251218338
 31
0.0
  0
LINE
  5
6D31
330
1F
100
AcDbEntity
  8
1
  6
Continuous
 62
     7
370
    13
100
AcDbLine
 10
11361.89255368031
 20
21323.60251218338
 30
0.0
 11
11361.89255368031
 21
11603.60259318306
 31
0.0
  0
LINE
  5
6D32
330
1F
100
AcDbEntity
  8
1
  6
Continuous
 62
     7
370
    13
100
AcDbLine
 10
10922.87263468036
 20
12655.79255268293
 30
0.0
 11
10928.54259417968
 21
12614.48263368279
 31
0.0
  0
LINE
  5
6D33
330
1F
100
AcDbEntity
  8
1
  6
Continuous
 62
     7
370
    13
100
AcDbLine
 10
10928.54259417968
 20
12614.48263368279
 30
0.0
 11
10935.02255367973
 21
12573.98263368279
 31
0.0
  0
LINE
  5
6D34
330
1F
100
AcDbEntity
  8
1
  6
Continuous
 62
     7
370
    13
100
AcDbLine
 10
10935.02255367973
 20
12573.98263368279
 30
0.0
 11
10942.31255368088
 21
12532.67255268331
 31
0.0
  0
LINE
  5
6D35
330
1F
100
AcDbEntity
  8
1
  6
Continuous
 62
     7
370
    13
100
AcDbLine
 10
10942.31255368088
 20
12532.67255268331
 30
0.0
 11
10949.60255368013
 21
12492.17255268331
 31
0.0
  0
LINE
  5
6D36
330
1F
100
AcDbEntity
  8
1
  6
Continuous
 62
     7
370
    13
100
AcDbLine
 10
10949.60255368013
 20
12492.17255268331
 30
0.0
 11
10957.7025536801
 21
12451.67255268331
 31
0.0
  0
LINE
  5
6D37
330
1F
100
AcDbEntity
  8
1
  6
Continuous
 62
     7
370
    13
100
AcDbLine
 10
10957.7025536801
 20
12451.67255268331
 30
0.0
 11
10965.80263468073
 21
12411.17255268331
 31
0.0
  0
LINE
  5
6D38
330
1F
100
AcDbEntity
  8
1
  6
Continuous
 62
     7
370
    13
100
AcDbLine
 10
10965.80263468073
 20
12411.17255268331
 30
0.0
 11
10975.52255367973
 21
12371.48263368279
 31
0.0
  0
LINE
  5
6D39
330
1F
100
AcDbEntity
  8
1
  6
Continuous
 62
     7
370
    13
100
AcDbLine
 10
10975.52255367973
 20
12371.48263368279
 30
0.0
 11
10986.05263468073
 21
12331.79259318324
 31
0.0
  0
LINE
  5
6D3A
330
1F
100
AcDbEntity
  8
1
  6
Continuous
 62
     7
370
    13
100
AcDbLine
 10
10986.05263468073
 20
12331.79259318324
 30
0.0
 11
10997.39259418062
 21
12292.10255268369
 31
0.0
  0
LINE
  5
6D3B
330
1F
100
AcDbEntity
  8
1
  6
Continuous
 62
     7
370
    13
100
AcDbLine
 10
10997.39259418062
 20
12292.10255268369
 30
0.0
 11
11021.69263467998
 21
12219.20255268275
 31
0.0
  0
LINE
  5
6D3C
330
1F
100
AcDbEntity
  8
1
  6
Continuous
 62
     7
370
    13
100
AcDbLine
 10
11021.69263467998
 20
12219.20255268275
 30
0.0
 11
11050.04259417968
 21
12147.11259318287
 31
0.0
  0
LINE
  5
6D3D
330
1F
100
AcDbEntity
  8
1
  6
Continuous
 62
     7
370
    13
100
AcDbLine
 10
11050.04259417968
 20
12147.11259318287
 30
0.0
 11
11082.44263467998
 21
12076.64259318324
 31
0.0
  0
LINE
  5
6D3E
330
1F
100
AcDbEntity
  8
1
  6
Continuous
 62
     7
370
    13
100
AcDbLine
 10
10916.39259418062
 20
12697.10251218338
 30
0.0
 11
10922.87263468036
 21
12655.79255268293
 31
0.0
  0
LINE
  5
6D3F
330
1F
100
AcDbEntity
  8
1
  6
Continuous
 62
     7
370
    13
100
AcDbLine
 10
10916.39259418062
 20
12697.10251218338
 30
0.0
 11
10916.39259418062
 21
20230.10259318306
 31
0.0
  0
LINE
  5
6D40
330
1F
100
AcDbEntity
  8
1
  6
Continuous
 62
     7
370
    13
100
AcDbLine
 10
11082.44263467998
 20
12076.64259318324
 30
0.0
 11
11116.46255368087
 21
12006.98251218281
 31
0.0
  0
LINE
  5
6D41
330
1F
100
AcDbEntity
  8
1
  6
Continuous
 62
     7
370
    13
100
AcDbLine
 10
11116.46255368087
 20
12006.98251218281
 30
0.0
 11
11153.72259418005
 21
11938.94251218358
 31
0.0
  0
LINE
  5
6D42
330
1F
100
AcDbEntity
  8
1
  6
Continuous
 62
     7
370
    13
100
AcDbLine
 10
11153.72259418005
 20
11938.94251218358
 30
0.0
 11
11192.60255368013
 21
11870.90263368336
 31
0.0
  0
LINE
  5
6D43
330
1F
100
AcDbEntity
  8
1
  6
Continuous
 62
     7
370
    13
100
AcDbLine
 10
11192.60255368013
 20
11870.90263368336
 30
0.0
 11
11233.91263468054
 21
11803.67259318268
 31
0.0
  0
LINE
  5
6D44
330
1F
100
AcDbEntity
  8
1
  6
Continuous
 62
     7
370
    13
100
AcDbLine
 10
11233.91263468054
 20
11803.67259318268
 30
0.0
 11
11359.25738068012
 21
11603.60259318306
 31
0.0
  0
LINE
  5
6D45
330
1F
100
AcDbEntity
  8
1
  6
Continuous
 62
     7
370
    13
100
AcDbLine
 10
10916.39259418062
 20
20230.10259318306
 30
0.0
 11
10922.87263468036
 21
20271.41255268351
 31
0.0
  0
LINE
  5
6D46
330
1F
100
AcDbEntity
  8
1
  6
Continuous
 62
     7
370
    13
100
AcDbLine
 10
10922.87263468036
 20
20271.41255268351
 30
0.0
 11
10928.54259417968
 21
20312.72251218395
 31
0.0
  0
LINE
  5
6D47
330
1F
100
AcDbEntity
  8
1
  6
Continuous
 62
     7
370
    13
100
AcDbLine
 10
10928.54259417968
 20
20312.72251218395
 30
0.0
 11
10935.02255367973
 21
20353.22251218395
 31
0.0
  0
LINE
  5
6D48
330
1F
100
AcDbEntity
  8
1
  6
Continuous
 62
     7
370
    13
100
AcDbLine
 10
10935.02255367973
 20
20353.22251218395
 30
0.0
 11
10942.31255368088
 21
20394.53259318249
 31
0.0
  0
LINE
  5
6D49
330
1F
100
AcDbEntity
  8
1
  6
Continuous
 62
     7
370
    13
100
AcDbLine
 10
10942.31255368088
 20
20394.53259318249
 30
0.0
 11
10949.60255368013
 21
20435.03259318249
 31
0.0
  0
LINE
  5
6D4A
330
1F
100
AcDbEntity
  8
1
  6
Continuous
 62
     7
370
    13
100
AcDbLine
 10
10949.60255368013
 20
20435.03259318249
 30
0.0
 11
10957.7025536801
 21
20475.53259318249
 31
0.0
  0
LINE
  5
6D4B
330
1F
100
AcDbEntity
  8
1
  6
Continuous
 62
     7
370
    13
100
AcDbLine
 10
10957.7025536801
 20
20475.53259318249
 30
0.0
 11
10965.80263468073
 21
20516.03259318249
 31
0.0
  0
LINE
  5
6D4C
330
1F
100
AcDbEntity
  8
1
  6
Continuous
 62
     7
370
    13
100
AcDbLine
 10
10965.80263468073
 20
20516.03259318249
 30
0.0
 11
10975.52255367973
 21
20555.72247168365
 31
0.0
  0
LINE
  5
6D4D
330
1F
100
AcDbEntity
  8
1
  6
Continuous
 62
     7
370
    13
100
AcDbLine
 10
10975.52255367973
 20
20555.72247168365
 30
0.0
 11
10986.05263468073
 21
20595.4125121832
 31
0.0
  0
LINE
  5
6D4E
330
1F
100
AcDbEntity
  8
1
  6
Continuous
 62
     7
370
    13
100
AcDbLine
 10
10986.05263468073
 20
20595.4125121832
 30
0.0
 11
10997.39259418062
 21
20635.10255268369
 31
0.0
  0
LINE
  5
6D4F
330
1F
100
AcDbEntity
  8
1
  6
Continuous
 62
     7
370
    13
100
AcDbLine
 10
10997.39259418062
 20
20635.10255268369
 30
0.0
 11
11021.69263467998
 21
20708.00259318306
 31
0.0
  0
LINE
  5
6D50
330
1F
100
AcDbEntity
  8
1
  6
Continuous
 62
     7
370
    13
100
AcDbLine
 10
11021.69263467998
 20
20708.00259318306
 30
0.0
 11
11050.04259417968
 21
20780.09251218262
 31
0.0
  0
LINE
  5
6D51
330
1F
100
AcDbEntity
  8
1
  6
Continuous
 62
     7
370
    13
100
AcDbLine
 10
11050.04259417968
 20
20780.09251218262
 30
0.0
 11
11082.44263467998
 21
20850.56255268256
 31
0.0
  0
LINE
  5
6D52
330
1F
100
AcDbEntity
  8
1
  6
Continuous
 62
     7
370
    13
100
AcDbLine
 10
11082.44263467998
 20
20850.56255268256
 30
0.0
 11
11116.46255368087
 21
20920.22259318268
 31
0.0
  0
LINE
  5
6D53
330
1F
100
AcDbEntity
  8
1
  6
Continuous
 62
     7
370
    13
100
AcDbLine
 10
11116.46255368087
 20
20920.22259318268
 30
0.0
 11
11153.72259418005
 21
20988.26259318286
 31
0.0
  0
LINE
  5
6D54
330
1F
100
AcDbEntity
  8
1
  6
Continuous
 62
     7
370
    13
100
AcDbLine
 10
11153.72259418005
 20
20988.26259318286
 30
0.0
 11
11192.60255368013
 21
21056.30247168214
 31
0.0
  0
LINE
  5
6D55
330
1F
100
AcDbEntity
  8
1
  6
Continuous
 62
     7
370
    13
100
AcDbLine
 10
11192.60255368013
 20
21056.30247168214
 30
0.0
 11
11233.91263468054
 21
21123.53255268312
 31
0.0
  0
LINE
  5
6D56
330
1F
100
AcDbEntity
  8
1
  6
Continuous
 62
     7
370
    13
100
AcDbLine
 10
11233.91263468054
 20
21123.53255268312
 30
0.0
 11
11276.0325536805
 21
21190.76259318286
 31
0.0
  0
LINE
  5
6D57
330
1F
100
AcDbEntity
  8
1
  6
Continuous
 62
     7
370
    13
100
AcDbLine
 10
11276.0325536805
 20
21190.76259318286
 30
0.0
 11
11318.96255368087
 21
21257.18255268312
 31
0.0
  0
LINE
  5
6D58
330
1F
100
AcDbEntity
  8
1
  6
Continuous
 62
     7
370
    13
100
AcDbLine
 10
11318.96255368087
 20
21257.18255268312
 30
0.0
 11
11361.89255368031
 21
21323.60251218338
 31
0.0
  0
DIMENSION
  5
6D59
330
1F
100
AcDbEntity
  8
1
  6
Continuous
 62
     7
370
    13
100
AcDbDimension
  2
*D128
 10
11483.39255368031
 20
22538.60263368337
 30
0.0
 11
11199.89257393046
 21
22788.60263368337
 31
0.0
 70
    32
  1
7
 71
     5
 42
566.9999594996916
  3
Standard
100
AcDbAlignedDimension
 13
10916.39259418062
 23
20584.50185268296
 33
0.0
 14
11483.39255368031
 24
21517.03055268278
 34
0.0
100
AcDbRotatedDimension
1001
ACAD
1000
DSTYLE
1002
{
1070
    41
1040
500.0
1070
    42
1040
50.0
1070
    73
1070
     0
1070
    77
1070
     1
1070
   140
1040
400.0
1070
   147
1040
50.0
1070
   173
1070
     1
1070
   343
1005
2B
1070
   344
1005
2B
1070
   371
1070
    13
1070
   372
1070
    13
1002
}
  0
DIMENSION
  5
6D5A
330
1F
100
AcDbEntity
  8
1
  6
Continuous
 62
     7
370
    13
100
AcDbDimension
  2
*D129
 10
12131.39263468093
 20
22538.60263368337
 30
0.0
 11
11807.39259418062
 21
22788.60263368337
 31
0.0
 70
    32
  1
8
 71
     5
 42
648.0000810006167
  3
Standard
100
AcDbAlignedDimension
 13
11483.39255368031
 23
22538.60263368337
 33
0.0
 14
12131.39263468093
 24
19408.09025268363
 34
0.0
100
AcDbRotatedDimension
1001
ACAD
1000
DSTYLE
1002
{
1070
    41
1040
500.0
1070
    42
1040
50.0
1070
    73
1070
     0
1070
    77
1070
     1
1070
   140
1040
400.0
1070
   147
1040
50.0
1070
   173
1070
     1
1070
   343
1005
2B
1070
   344
1005
2B
1070
   371
1070
    13
1070
   372
1070
    13
1002
}
  0
LINE
  5
6D5B
330
1F
100
AcDbEntity
  8
1
  6
DASHDOT
 62
     7
 48
10.0
370
    13
100
AcDbLine
 10
10511.77252468152
 20
16463.60247168307
 30
0.0
 11
12925.57252467965
 21
16463.60247168307
 31
0.0
  0
LINE
  5
6D5C
330
1F
100
AcDbEntity
  8
1
  6
Continuous
 62
     7
370
    13
100
AcDbLine
 10
12131.39263468093
 20
17466.38247168345
 30
0.0
 11
12131.39263468093
 21
17304.38247168345
 31
0.0
  0
LINE
  5
6D5D
330
1F
100
AcDbEntity
  8
1
  6
Continuous
 62
     7
370
    13
100
AcDbLine
 10
11847.89251318
 20
17142.38251218375
 30
0.0
 11
11483.39255368031
 21
17142.38251218375
 31
0.0
  0
LINE
  5
6D5E
330
1F
100
AcDbEntity
  8
1
  6
Continuous
 62
     7
370
    13
100
AcDbLine
 10
11483.39255368031
 20
17628.38259318344
 30
0.0
 11
11847.89251318
 21
17628.38259318344
 31
0.0
  0
LINE
  5
6D5F
330
1F
100
AcDbEntity
  8
1
  6
Continuous
 62
     7
370
    13
100
AcDbLine
 10
12131.39263468093
 20
19005.38251218375
 30
0.0
 11
12131.39263468093
 21
18843.38251218375
 31
0.0
  0
LINE
  5
6D60
330
1F
100
AcDbEntity
  8
1
  6
Continuous
 62
     7
370
    13
100
AcDbLine
 10
11847.89251318
 20
18681.38251218375
 30
0.0
 11
11483.39255368031
 21
18681.38251218375
 31
0.0
  0
LINE
  5
6D61
330
1F
100
AcDbEntity
  8
1
  6
Continuous
 62
     7
370
    13
100
AcDbLine
 10
11483.39255368031
 20
19167.38251218376
 30
0.0
 11
11847.89251318
 21
19167.38251218376
 31
0.0
  0
ARC
  5
6D62
330
1F
100
AcDbEntity
  8
1
  6
Continuous
 62
     7
370
    13
100
AcDbCircle
 10
11969.39251318
 20
17304.38247168345
 30
0.0
 40
162.0
100
AcDbArc
 50
270.0
 51
0.0
  0
ARC
  5
6D63
330
1F
100
AcDbEntity
  8
1
  6
Continuous
 62
     7
370
    13
100
AcDbCircle
 10
11969.39251318
 20
17466.38247168345
 30
0.0
 40
162.0
100
AcDbArc
 50
0.0
 51
90.0
  0
ARC
  5
6D64
330
1F
100
AcDbEntity
  8
1
  6
Continuous
 62
     7
370
    13
100
AcDbCircle
 10
11969.39251318
 20
18843.38251218375
 30
0.0
 40
162.0
100
AcDbArc
 50
270.0
 51
0.0
  0
ARC
  5
6D65
330
1F
100
AcDbEntity
  8
1
  6
Continuous
 62
     7
370
    13
100
AcDbCircle
 10
11969.39251318
 20
19005.38251218375
 30
0.0
 40
162.0
100
AcDbArc
 50
0.0
 51
90.0
  0
LINE
  5
6D66
330
1F
100
AcDbEntity
  8
1
  6
Continuous
 62
     7
370
    13
100
AcDbLine
 10
11969.39251318
 20
19248.38251218375
 30
0.0
 11
11847.89251318
 21
19248.38251218375
 31
0.0
  0
LINE
  5
6D67
330
1F
100
AcDbEntity
  8
1
  6
Continuous
 62
     7
370
    13
100
AcDbLine
 10
11847.89251318
 20
13902.38251218375
 30
0.0
 11
11969.39251318
 21
13902.38251218375
 31
0.0
  0
LINE
  5
6D68
330
1F
100
AcDbEntity
  8
1
  6
Continuous
 62
     7
370
    13
100
AcDbLine
 10
11847.89251318
 20
19248.38251218375
 30
0.0
 11
11847.89251318
 21
13902.31759068259
 31
0.0
  0
LINE
  5
6D69
330
1F
100
AcDbEntity
  8
1
  6
Continuous
 62
     7
370
    13
100
AcDbLine
 10
11969.39251318
 20
13902.10938018323
 30
0.0
 11
11969.39251318
 21
19248.38251218375
 31
0.0
  0
LINE
  5
6D6A
330
1F
100
AcDbEntity
  8
1
  6
Continuous
 62
     7
370
    13
100
AcDbLine
 10
12131.39263468093
 20
15198.38251218375
 30
0.0
 11
12131.39263468093
 21
15036.38251218375
 31
0.0
  0
LINE
  5
6D6B
330
1F
100
AcDbEntity
  8
1
  6
Continuous
 62
     7
370
    13
100
AcDbLine
 10
11847.89251318
 20
14874.38251218375
 30
0.0
 11
11483.39255368031
 21
14874.38251218375
 31
0.0
  0
LINE
  5
6D6C
330
1F
100
AcDbEntity
  8
1
  6
Continuous
 62
     7
370
    13
100
AcDbLine
 10
11483.39255368031
 20
15360.38251218375
 30
0.0
 11
11847.89251318
 21
15360.38251218375
 31
0.0
  0
ARC
  5
6D6D
330
1F
100
AcDbEntity
  8
1
  6
Continuous
 62
     7
370
    13
100
AcDbCircle
 10
11969.39251318
 20
15036.38251218375
 30
0.0
 40
162.0
100
AcDbArc
 50
270.0
 51
0.0
  0
ARC
  5
6D6E
330
1F
100
AcDbEntity
  8
1
  6
Continuous
 62
     7
370
    13
100
AcDbCircle
 10
11969.39251318
 20
15198.38251218375
 30
0.0
 40
162.0
100
AcDbArc
 50
0.0
 51
90.0
  0
ARC
  5
6D6F
330
1F
100
AcDbEntity
  8
1
  6
Continuous
 62
     7
370
    13
100
AcDbCircle
 10
19784.06673268065
 20
12497.56533018332
 30
0.0
 40
809.9999594999999
100
AcDbArc
 50
275.1679150004287
 51
355.2497019992231
  0
ARC
  5
6D70
330
1F
100
AcDbEntity
  8
1
  6
Continuous
 62
     7
370
    13
100
AcDbCircle
 10
-27942.68530831911
 20
16463.60267418368
 30
0.0
 40
48701.2550625
100
AcDbArc
 50
355.2497019992231
 51
4.750298000776908
  0
ARC
  5
6D71
330
1F
100
AcDbEntity
  8
1
  6
Continuous
 62
     7
370
    13
100
AcDbCircle
 10
19784.06673268065
 20
20429.64001818308
 30
0.0
 40
809.9999594999999
100
AcDbArc
 50
4.750298000776908
 51
84.83208499957127
  0
ARC
  5
6D72
330
1F
100
AcDbEntity
  8
1
  6
Continuous
 62
     7
370
    13
100
AcDbCircle
 10
17923.56983518038
 20
-141.3988648167287
 30
0.0
 40
21465.00162
100
AcDbArc
 50
84.83208499957127
 51
95.16791500042875
  0
ARC
  5
6D73
330
1F
100
AcDbEntity
  8
1
  6
Continuous
 62
     7
370
    13
100
AcDbCircle
 10
63789.82493818059
 20
16463.60267418368
 30
0.0
 40
48701.2550625
100
AcDbArc
 50
175.249701999223
 51
184.6746110000176
  0
ARC
  5
6D74
330
1F
100
AcDbEntity
  8
1
  6
Continuous
 62
     7
370
    13
100
AcDbCircle
 10
16063.07293768104
 20
20429.64001818308
 30
0.0
 40
809.9999594999999
100
AcDbArc
 50
95.16791500042875
 51
175.249701999223
  0
ARC
  5
6D75
330
1F
100
AcDbEntity
  8
1
  6
Continuous
 62
     7
370
    13
100
AcDbCircle
 10
17923.56983518038
 20
33068.60421318313
 30
0.0
 40
21465.00162
100
AcDbArc
 50
267.4938079994034
 51
267.7318460002652
  0
ARC
  5
6D76
330
1F
100
AcDbEntity
  8
1
  6
Continuous
 62
     7
370
    13
100
AcDbCircle
 10
17923.56983518038
 20
33068.60421318313
 30
0.0
 40
21465.00162
100
AcDbArc
 50
264.8320849995712
 51
266.6494769989044
  0
ARC
  5
6D77
330
1F
100
AcDbEntity
  8
1
  6
Continuous
 62
     7
370
    13
100
AcDbCircle
 10
17923.56983518038
 20
33068.60421318313
 30
0.0
 40
21465.00162
100
AcDbArc
 50
266.9526450001075
 51
267.1907870015579
  0
ARC
  5
6D78
330
1F
100
AcDbEntity
  8
1
  6
Continuous
 62
     7
370
    13
100
AcDbCircle
 10
17923.56983518038
 20
33068.60421318313
 30
0.0
 40
21465.00162
100
AcDbArc
 50
273.3125130005774
 51
275.1679150004287
  0
ARC
  5
6D79
330
1F
100
AcDbEntity
  8
1
  6
Continuous
 62
     7
370
    13
100
AcDbCircle
 10
17923.56983518038
 20
33068.60421318313
 30
0.0
 40
21465.00162
100
AcDbArc
 50
272.7712219999803
 51
273.0093579997918
  0
ARC
  5
6D7A
330
1F
100
AcDbEntity
  8
1
  6
Continuous
 62
     7
370
    13
100
AcDbCircle
 10
17923.56983518038
 20
33068.60421318313
 30
0.0
 40
21465.00162
100
AcDbArc
 50
268.0347479997764
 51
271.9016660005131
  0
ARC
  5
6D7B
330
1F
100
AcDbEntity
  8
1
  6
Continuous
 62
     7
370
    13
100
AcDbCircle
 10
17923.56983518038
 20
33068.60421318313
 30
0.0
 40
21465.00162
100
AcDbArc
 50
272.2301780008532
 51
272.4682110002197
  0
LINE
  5
6D7C
330
1F
100
AcDbEntity
  8
1
  6
Continuous
 62
     7
370
    13
100
AcDbLine
 10
12839.04735268047
 20
8784.648774182961
 30
0.0
 11
13608.54735268047
 21
8784.648774182961
 31
0.0
  0
LINE
  5
6D7D
330
1F
100
AcDbEntity
  8
1
  6
Continuous
 62
     7
370
    13
100
AcDbLine
 10
12839.04735268047
 20
9805.248774182969
 30
0.0
 11
12839.04735268047
 21
8784.648774182961
 31
0.0
  0
LINE
  5
6D7E
330
1F
100
AcDbEntity
  8
1
  6
Continuous
 62
     7
370
    13
100
AcDbLine
 10
13608.54735268047
 20
9805.248774182969
 30
0.0
 11
12839.04735268047
 21
9805.248774182969
 31
0.0
  0
LINE
  5
6D7F
330
1F
100
AcDbEntity
  8
1
  6
Continuous
 62
     7
370
    13
100
AcDbLine
 10
14548.14735268047
 20
8784.648774182961
 30
0.0
 11
14386.14735268047
 21
8784.648774182961
 31
0.0
  0
LINE
  5
6D80
330
1F
100
AcDbEntity
  8
1
  6
Continuous
 62
     7
370
    13
100
AcDbLine
 10
14548.14735268047
 20
8703.648774182964
 30
0.0
 11
14548.14735268047
 21
8784.648774182961
 31
0.0
  0
LINE
  5
6D81
330
1F
100
AcDbEntity
  8
1
  6
Continuous
 62
     7
370
    13
100
AcDbLine
 10
15487.74735267955
 20
8703.648774182964
 30
0.0
 11
14548.14735268047
 21
8703.648774182964
 31
0.0
  0
LINE
  5
6D82
330
1F
100
AcDbEntity
  8
1
  6
Continuous
 62
     7
370
    13
100
AcDbLine
 10
15487.74735267955
 20
9805.248774182969
 30
0.0
 11
15487.74735267955
 21
8703.648774182964
 31
0.0
  0
LINE
  5
6D83
330
1F
100
AcDbEntity
  8
1
  6
Continuous
 62
     7
370
    13
100
AcDbLine
 10
14386.14735268047
 20
9805.248774182969
 30
0.0
 11
15487.74735267955
 21
9805.248774182969
 31
0.0
  0
LINE
  5
6D84
330
1F
100
AcDbEntity
  8
1
  6
Continuous
 62
     7
370
    13
100
AcDbLine
 10
14386.14735268047
 20
8703.648774182964
 30
0.0
 11
14386.14735268047
 21
9951.048774182972
 31
0.0
  0
LINE
  5
6D85
330
1F
100
AcDbEntity
  8
1
  6
Continuous
 62
     7
370
    13
100
AcDbLine
 10
13608.54735268047
 20
8703.648774182964
 30
0.0
 11
14386.14735268047
 21
8703.648774182964
 31
0.0
  0
LINE
  5
6D86
330
1F
100
AcDbEntity
  8
1
  6
Continuous
 62
     7
370
    13
100
AcDbLine
 10
13608.54735268047
 20
9951.048774182972
 30
0.0
 11
13608.54735268047
 21
8703.648774182964
 31
0.0
  0
LINE
  5
6D87
330
1F
100
AcDbEntity
  8
1
  6
Continuous
 62
     7
370
    13
100
AcDbLine
 10
13608.54735268047
 20
9951.048774182972
 30
0.0
 11
14386.14735268047
 21
9951.048774182972
 31
0.0
  0
LINE
  5
6D88
330
1F
100
AcDbEntity
  8
1
  6
Continuous
 62
     7
370
    13
100
AcDbLine
 10
15859.09124518127
 20
9581.433543183157
 30
0.0
 11
15487.74735267955
 21
9581.433543183157
 31
0.0
  0
LINE
  5
6D89
330
1F
100
AcDbEntity
  8
1
  6
Continuous
 62
     7
370
    13
100
AcDbLine
 10
15859.09124518127
 20
9468.031558683128
 30
0.0
 11
15477.20807818113
 21
9468.031558683128
 31
0.0
  0
LINE
  5
6D8A
330
1F
100
AcDbEntity
  8
1
  6
Continuous
 62
     7
370
    13
100
AcDbLine
 10
11506.39424518038
 20
9467.842990683406
 30
0.0
 11
12839.04735268047
 21
9467.842990683406
 31
0.0
  0
LINE
  5
6D8B
330
1F
100
AcDbEntity
  8
1
  6
Continuous
 62
     7
370
    13
100
AcDbLine
 10
11574.61426768026
 20
9581.243719683305
 30
0.0
 11
12839.04735268047
 21
9581.243719683305
 31
0.0
  0
LINE
  5
6D8C
330
1F
100
AcDbEntity
  8
1
  6
Continuous
 62
     7
370
    13
100
AcDbLine
 10
11446.00963618091
 20
9378.743719683305
 30
0.0
 11
12839.04735268047
 21
9378.743719683305
 31
0.0
  0
LINE
  5
6D8D
330
1F
100
AcDbEntity
  8
1
  6
Continuous
 62
     7
370
    13
100
AcDbLine
 10
11394.65543367964
 20
9265.342990683405
 30
0.0
 11
12839.04735268047
 21
9265.342990683405
 31
0.0
  0
LINE
  5
6D8E
330
1F
100
AcDbEntity
  8
1
  6
Continuous
 62
     7
370
    13
100
AcDbLine
 10
11384.97431368089
 20
9176.432287683025
 30
0.0
 11
12839.04735268047
 21
9176.432287683025
 31
0.0
  0
LINE
  5
6D8F
330
1F
100
AcDbEntity
  8
1
  6
Continuous
 62
     7
370
    13
100
AcDbLine
 10
11407.26798418068
 20
9063.031558683126
 30
0.0
 11
12839.04735268047
 21
9063.031558683126
 31
0.0
  0
LINE
  5
6D90
330
1F
100
AcDbEntity
  8
1
  6
Continuous
 62
     7
370
    13
100
AcDbLine
 10
15483.28364518075
 20
8594.501598182789
 30
0.0
 11
15483.28364518075
 21
8077.294161182814
 31
0.0
  0
ARC
  5
6D91
330
1F
100
AcDbEntity
  8
1
  6
Continuous
 62
     7
370
    13
100
AcDbCircle
 10
16063.07293768104
 20
12497.56533018332
 30
0.0
 40
809.9999594999999
100
AcDbArc
 50
180.2089250015574
 51
264.8320849995712
  0
ARC
  5
6D92
330
1F
100
AcDbEntity
  8
1
  6
Continuous
 62
     7
370
    13
100
AcDbCircle
 10
17850.89780968124
 20
10375.51412718383
 30
0.0
 40
1110.46383
100
AcDbArc
 50
270.0
 51
0.0
  0
ARC
  5
6D93
330
1F
100
AcDbEntity
  8
1
  6
Continuous
 62
     7
370
    13
100
AcDbCircle
 10
17850.89780968124
 20
10375.51412718383
 30
0.0
 40
1312.96383
100
AcDbArc
 50
270.0
 51
0.0
  0
ARC
  5
6D94
330
1F
100
AcDbEntity
  8
1
  6
Continuous
 62
     7
370
    13
100
AcDbCircle
 10
17850.89780968124
 20
10375.51412718383
 30
0.0
 40
1199.564316
100
AcDbArc
 50
270.0
 51
0.0
  0
ARC
  5
6D95
330
1F
100
AcDbEntity
  8
1
  6
Continuous
 62
     7
370
    13
100
AcDbCircle
 10
17850.89780968124
 20
10375.51412718383
 30
0.0
 40
997.0643160000001
100
AcDbArc
 50
270.0
 51
0.0
  0
ARC
  5
6D96
330
1F
100
AcDbEntity
  8
1
  6
Continuous
 62
     7
370
    13
100
AcDbCircle
 10
17850.89780968124
 20
10375.51412718383
 30
0.0
 40
907.96383
100
AcDbArc
 50
270.0
 51
0.0
  0
ARC
  5
6D97
330
1F
100
AcDbEntity
  8
1
  6
Continuous
 62
     7
370
    13
100
AcDbCircle
 10
17850.89780968124
 20
10375.51412718383
 30
0.0
 40
794.5643160000001
100
AcDbArc
 50
270.0
 51
0.0
  0
ARC
  5
6D98
330
1F
100
AcDbEntity
  8
1
  6
Continuous
 62
     7
370
    13
100
AcDbCircle
 10
15874.49829568024
 20
10375.51412718383
 30
0.0
 40
1110.46383
100
AcDbArc
 50
270.0
 51
0.0
  0
ARC
  5
6D99
330
1F
100
AcDbEntity
  8
1
  6
Continuous
 62
     7
370
    13
100
AcDbCircle
 10
15874.49829568024
 20
10375.51412718383
 30
0.0
 40
1312.96383
100
AcDbArc
 50
270.0
 51
0.0
  0
ARC
  5
6D9A
330
1F
100
AcDbEntity
  8
1
  6
Continuous
 62
     7
370
    13
100
AcDbCircle
 10
15874.49829568024
 20
10375.51412718383
 30
0.0
 40
1199.564316
100
AcDbArc
 50
270.0
 51
0.0
  0
ARC
  5
6D9B
330
1F
100
AcDbEntity
  8
1
  6
Continuous
 62
     7
370
    13
100
AcDbCircle
 10
15874.49829568024
 20
10375.51412718383
 30
0.0
 40
997.0643160000001
100
AcDbArc
 50
270.0
 51
0.0
  0
ARC
  5
6D9C
330
1F
100
AcDbEntity
  8
1
  6
Continuous
 62
     7
370
    13
100
AcDbCircle
 10
15874.49829568024
 20
10375.51412718383
 30
0.0
 40
907.96383
100
AcDbArc
 50
270.0
 51
0.0
  0
ARC
  5
6D9D
330
1F
100
AcDbEntity
  8
1
  6
Continuous
 62
     7
370
    13
100
AcDbCircle
 10
15874.49829568024
 20
10375.51412718383
 30
0.0
 40
794.5643160000001
100
AcDbArc
 50
270.0
 51
0.0
  0
LINE
  5
6D9E
330
1F
100
AcDbEntity
  8
1
  6
Continuous
 62
     7
370
    13
100
AcDbLine
 10
15941.77179268084
 20
9062.842990683405
 30
0.0
 11
15487.7473121811
 21
9062.842990683405
 31
0.0
  0
LINE
  5
6D9F
330
1F
100
AcDbEntity
  8
1
  6
Continuous
 62
     7
370
    13
100
AcDbLine
 10
17850.89785017966
 20
9062.842990683405
 30
0.0
 11
15941.77179268084
 21
9062.842990683405
 31
0.0
  0
LINE
  5
6DA0
330
1F
100
AcDbEntity
  8
1
  6
Continuous
 62
     7
370
    13
100
AcDbLine
 10
15874.4984171802
 20
9176.244975182489
 30
0.0
 11
15487.7473121811
 21
9176.244975182489
 31
0.0
  0
LINE
  5
6DA1
330
1F
100
AcDbEntity
  8
1
  6
Continuous
 62
     7
370
    13
100
AcDbLine
 10
17850.89785017966
 20
9176.244975182489
 30
0.0
 11
16408.93953568022
 21
9176.244975182489
 31
0.0
  0
LINE
  5
6DA2
330
1F
100
AcDbEntity
  8
1
  6
Continuous
 62
     7
370
    13
100
AcDbLine
 10
17850.89793118028
 20
9265.531558683127
 30
0.0
 11
16575.79184067991
 21
9265.531558683127
 31
0.0
  0
LINE
  5
6DA3
330
1F
100
AcDbEntity
  8
1
  6
Continuous
 62
     7
370
    13
100
AcDbLine
 10
16329.35343118052
 20
9265.531558683127
 30
0.0
 11
15487.7473121811
 21
9265.531558683127
 31
0.0
  0
LINE
  5
6DA4
330
1F
100
AcDbEntity
  8
1
  6
Continuous
 62
     7
370
    13
100
AcDbLine
 10
16542.16416418034
 20
9378.931558683122
 30
0.0
 11
16380.6119726804
 21
9378.931558683122
 31
0.0
  0
LINE
  5
6DA5
330
1F
100
AcDbEntity
  8
1
  6
Continuous
 62
     7
370
    13
100
AcDbLine
 10
17850.89780968124
 20
9378.933543183157
 30
0.0
 11
16729.30887268134
 21
9378.933543183157
 31
0.0
  0
LINE
  5
6DA6
330
1F
100
AcDbEntity
  8
1
  6
Continuous
 62
     7
370
    13
100
AcDbLine
 10
15925.53777268109
 20
9378.933543183157
 30
0.0
 11
15487.74735267955
 21
9378.933543183157
 31
0.0
  0
LINE
  5
6DA7
330
1F
100
AcDbEntity
  8
1
  6
Continuous
 62
     7
370
    13
100
AcDbLine
 10
15955.5379451804
 20
9467.899893182927
 30
0.0
 11
16287.42600868095
 21
9468.031558683128
 31
0.0
  0
LINE
  5
6DA8
330
1F
100
AcDbEntity
  8
1
  6
Continuous
 62
     7
370
    13
100
AcDbLine
 10
16521.56837518102
 20
9468.031558683128
 30
0.0
 11
16658.8708271808
 21
9467.927068683348
 31
0.0
  0
LINE
  5
6DA9
330
1F
100
AcDbEntity
  8
1
  6
Continuous
 62
     7
370
    13
100
AcDbLine
 10
17850.89793118028
 20
9468.031558683128
 30
0.0
 11
16823.36570818018
 21
9468.031558683128
 31
0.0
  0
LINE
  5
6DAA
330
1F
100
AcDbEntity
  8
1
  6
Continuous
 62
     7
370
    13
100
AcDbLine
 10
16477.46865418012
 20
9581.431558683121
 30
0.0
 11
16302.45061768061
 21
9581.431558683121
 31
0.0
  0
LINE
  5
6DAB
330
1F
100
AcDbEntity
  8
1
  6
Continuous
 62
     7
370
    13
100
AcDbLine
 10
16773.603722681
 20
9581.431558683121
 30
0.0
 11
16643.29760518105
 21
9581.431558683121
 31
0.0
  0
LINE
  5
6DAC
330
1F
100
AcDbEntity
  8
1
  6
Continuous
 62
     7
370
    13
100
AcDbLine
 10
17850.89995618062
 20
9581.433543183157
 30
0.0
 11
16920.11295868019
 21
9581.433543183157
 31
0.0
  0
LINE
  5
6DAD
330
1F
100
AcDbEntity
  8
1
  6
DASHDOT
 62
     7
 48
10.0
370
    13
100
AcDbLine
 10
17923.56983518038
 20
10793.60259318306
 30
0.0
 11
17923.56983518038
 21
22133.590078683
 31
0.0
  0
LINE
  5
6DAE
330
1F
100
AcDbEntity
  8
1
  6
Continuous
 62
     7
370
    13
100
AcDbLine
 10
10278.59288367963
 20
9176.433543183156
 30
0.0
 11
10278.59288367963
 21
9063.031558683126
 31
0.0
  0
LINE
  5
6DAF
330
1F
100
AcDbEntity
  8
1
  6
Continuous
 62
     7
370
    13
100
AcDbLine
 10
10278.59288367963
 20
9378.74497518249
 30
0.0
 11
10278.59288367963
 21
9265.342990683405
 31
0.0
  0
LINE
  5
6DB0
330
1F
100
AcDbEntity
  8
1
  6
Continuous
 62
     7
370
    13
100
AcDbLine
 10
10278.59288367963
 20
9581.244975182491
 30
0.0
 11
10278.59288367963
 21
9467.842990683406
 31
0.0
  0
LINE
  5
6DB1
330
1F
100
AcDbEntity
  8
1
  6
Continuous
 62
     7
370
    13
100
AcDbLine
 10
10278.59268118091
 20
9467.842990683406
 30
0.0
 11
11222.81559418028
 21
9467.842990683406
 31
0.0
  0
LINE
  5
6DB2
330
1F
100
AcDbEntity
  8
1
  6
Continuous
 62
     7
370
    13
100
AcDbLine
 10
10278.59284318122
 20
9378.74497518249
 30
0.0
 11
11162.25699718084
 21
9378.74497518249
 31
0.0
  0
LINE
  5
6DB3
330
1F
100
AcDbEntity
  8
1
  6
Continuous
 62
     7
370
    13
100
AcDbLine
 10
10278.59280268091
 20
9265.342990683405
 30
0.0
 11
11111.1557171799
 21
9265.342990683405
 31
0.0
  0
LINE
  5
6DB4
330
1F
100
AcDbEntity
  8
1
  6
Continuous
 62
     7
370
    13
100
AcDbLine
 10
10278.59284318122
 20
9176.433543183156
 30
0.0
 11
11101.54927918122
 21
9176.433543183156
 31
0.0
  0
LINE
  5
6DB5
330
1F
100
AcDbEntity
  8
1
  6
Continuous
 62
     7
370
    13
100
AcDbLine
 10
10278.59284318122
 20
9063.031558683126
 30
0.0
 11
11123.84331418096
 21
9063.031558683126
 31
0.0
  0
LINE
  5
6DB6
330
1F
100
AcDbEntity
  8
1
  6
Continuous
 62
     7
370
    13
100
AcDbLine
 10
10278.59288367963
 20
9581.244975182491
 30
0.0
 11
11291.32191118097
 21
9581.244975182491
 31
0.0
  0
LINE
  5
6DB7
330
1F
100
AcDbEntity
  8
1
  6
DASHDOT
 62
     7
 48
10.0
370
    13
100
AcDbLine
 10
14683.56987568069
 20
16463.60259318306
 30
0.0
 11
21163.56987568069
 21
16463.60259318306
 31
0.0
  0
LINE
  5
6DB8
330
1F
100
AcDbEntity
  8
1
  6
Continuous
 62
     7
370
    13
100
AcDbLine
 10
16870.56983518038
 20
13042.97271468266
 30
0.0
 11
16870.56983518038
 21
13626.17263368298
 31
0.0
  0
LINE
  5
6DB9
330
1F
100
AcDbEntity
  8
1
  6
Continuous
 62
     7
370
    13
100
AcDbLine
 10
19867.56983518038
 20
20262.50259318306
 30
0.0
 11
15979.56983518038
 21
20262.50259318306
 31
0.0
  0
LINE
  5
6DBA
330
1F
100
AcDbEntity
  8
1
  6
Continuous
 62
     7
370
    13
100
AcDbLine
 10
20029.56983518038
 20
20424.50259318306
 30
0.0
 11
15817.56983518038
 21
20424.50259318306
 31
0.0
  0
LINE
  5
6DBB
330
1F
100
AcDbEntity
  8
1
  6
Continuous
 62
     7
370
    13
100
AcDbLine
 10
17074.06261168013
 20
13620.50259318306
 30
0.0
 11
16984.9621256802
 21
13620.50259318306
 31
0.0
  0
LINE
  5
6DBC
330
1F
100
AcDbEntity
  8
1
  6
Continuous
 62
     7
370
    13
100
AcDbLine
 10
16871.56212568114
 20
13620.50259318306
 30
0.0
 11
16782.4621256802
 21
13620.50259318306
 31
0.0
  0
LINE
  5
6DBD
330
1F
100
AcDbEntity
  8
1
  6
Continuous
 62
     7
370
    13
100
AcDbLine
 10
19050.4621256802
 20
13620.50259318306
 30
0.0
 11
18961.36163968121
 21
13620.50259318306
 31
0.0
  0
LINE
  5
6DBE
330
1F
100
AcDbEntity
  8
1
  6
Continuous
 62
     7
370
    13
100
AcDbLine
 10
18847.9621256802
 20
13620.50259318306
 30
0.0
 11
18758.86163968121
 21
13620.50259318306
 31
0.0
  0
LINE
  5
6DBF
330
1F
100
AcDbEntity
  8
1
  6
Continuous
 62
     7
370
    13
100
AcDbLine
 10
18645.4621256802
 20
13620.50259318306
 30
0.0
 11
17187.4621256802
 21
13620.50259318306
 31
0.0
  0
LINE
  5
6DC0
330
1F
100
AcDbEntity
  8
1
  6
Continuous
 62
     7
370
    13
100
AcDbLine
 10
16141.56983518038
 20
14414.30267418273
 30
0.0
 11
16141.56983518038
 21
13620.50259318306
 31
0.0
  0
LINE
  5
6DC1
330
1F
100
AcDbEntity
  8
1
  6
Continuous
 62
     7
370
    13
100
AcDbLine
 10
16669.06212568114
 20
13620.50259318306
 30
0.0
 11
16141.56983518038
 21
13620.50259318306
 31
0.0
  0
LINE
  5
6DC2
330
1F
100
AcDbEntity
  8
1
  6
Continuous
 62
     7
370
    13
100
AcDbLine
 10
19705.56983518038
 20
13620.50259318306
 30
0.0
 11
19163.86163968121
 21
13620.50259318306
 31
0.0
  0
LINE
  5
6DC3
330
1F
100
AcDbEntity
  8
1
  6
Continuous
 62
     7
370
    13
100
AcDbLine
 10
16782.4621256802
 20
13499.00259318306
 30
0.0
 11
16870.56983518038
 21
13499.00259318306
 31
0.0
  0
LINE
  5
6DC4
330
1F
100
AcDbEntity
  8
1
  6
Continuous
 62
     7
370
    13
100
AcDbLine
 10
16984.9621256802
 20
13499.00259318306
 30
0.0
 11
17074.06212568114
 21
13499.00259318306
 31
0.0
  0
LINE
  5
6DC5
330
1F
100
AcDbEntity
  8
1
  6
Continuous
 62
     7
370
    13
100
AcDbLine
 10
17187.4621256802
 20
13499.00259318306
 30
0.0
 11
18645.4621256802
 21
13499.00259318306
 31
0.0
  0
LINE
  5
6DC6
330
1F
100
AcDbEntity
  8
1
  6
Continuous
 62
     7
370
    13
100
AcDbLine
 10
18758.86163968121
 20
13499.00259318306
 30
0.0
 11
18847.9621256802
 21
13499.00259318306
 31
0.0
  0
LINE
  5
6DC7
330
1F
100
AcDbEntity
  8
1
  6
Continuous
 62
     7
370
    13
100
AcDbLine
 10
18961.36163968121
 20
13499.00259318306
 30
0.0
 11
19050.4621256802
 21
13499.00259318306
 31
0.0
  0
LINE
  5
6DC8
330
1F
100
AcDbEntity
  8
1
  6
Continuous
 62
     7
370
    13
100
AcDbLine
 10
16141.56983518038
 20
13620.50259318306
 30
0.0
 11
16141.56983518038
 21
13499.00259318306
 31
0.0
  0
LINE
  5
6DC9
330
1F
100
AcDbEntity
  8
1
  6
Continuous
 62
     7
370
    13
100
AcDbLine
 10
16141.56983518038
 20
13499.00259318306
 30
0.0
 11
16669.06212568114
 21
13499.00259318306
 31
0.0
  0
LINE
  5
6DCA
330
1F
100
AcDbEntity
  8
1
  6
Continuous
 62
     7
370
    13
100
AcDbLine
 10
19705.56983518038
 20
13499.00259318306
 30
0.0
 11
19705.56983518038
 21
13620.50259318306
 31
0.0
  0
LINE
  5
6DCB
330
1F
100
AcDbEntity
  8
1
  6
Continuous
 62
     7
370
    13
100
AcDbLine
 10
19163.86163968121
 20
13499.00259318306
 30
0.0
 11
19705.56983518038
 21
13499.00259318306
 31
0.0
  0
LINE
  5
6DCC
330
1F
100
AcDbEntity
  8
1
  6
Continuous
 62
     7
370
    13
100
AcDbLine
 10
16141.56983518038
 20
19306.70259318305
 30
0.0
 11
16141.56983518038
 21
14414.30267418273
 31
0.0
  0
LINE
  5
6DCD
330
1F
100
AcDbEntity
  8
1
  6
Continuous
 62
     7
370
    13
100
AcDbLine
 10
19705.56983518038
 20
19306.70259318305
 30
0.0
 11
16141.56983518038
 21
19306.70259318305
 31
0.0
  0
LINE
  5
6DCE
330
1F
100
AcDbEntity
  8
1
  6
Continuous
 62
     7
370
    13
100
AcDbLine
 10
16141.56983518038
 20
19306.70259318305
 30
0.0
 11
19705.56983518038
 21
19306.70259318305
 31
0.0
  0
LINE
  5
6DCF
330
1F
100
AcDbEntity
  8
1
  6
Continuous
 62
     7
370
    13
100
AcDbLine
 10
16141.56983518038
 20
19428.20259318305
 30
0.0
 11
16141.56983518038
 21
19306.70259318305
 31
0.0
  0
LINE
  5
6DD0
330
1F
100
AcDbEntity
  8
1
  6
Continuous
 62
     7
370
    13
100
AcDbLine
 10
19705.56983518038
 20
19428.20259318305
 30
0.0
 11
19705.56983518038
 21
19306.70259318305
 31
0.0
  0
LINE
  5
6DD1
330
1F
100
AcDbEntity
  8
1
  6
Continuous
 62
     7
370
    13
100
AcDbLine
 10
16141.56983518038
 20
19428.20259318305
 30
0.0
 11
19705.56983518038
 21
19428.20259318305
 31
0.0
  0
LINE
  5
6DD2
330
1F
100
AcDbEntity
  8
1
  6
Continuous
 62
     7
370
    13
100
AcDbLine
 10
19705.56983518038
 20
19306.70259318305
 30
0.0
 11
19705.56983518038
 21
13620.50259318306
 31
0.0
  0
LINE
  5
6DD3
330
1F
100
AcDbEntity
  8
1
  6
Continuous
 62
     7
370
    13
100
AcDbLine
 10
16984.9621256802
 20
12664.70259318305
 30
0.0
 11
17074.06212568114
 21
12664.70259318305
 31
0.0
  0
LINE
  5
6DD4
330
1F
100
AcDbEntity
  8
1
  6
Continuous
 62
     7
370
    13
100
AcDbLine
 10
16782.4621256802
 20
12664.70259318305
 30
0.0
 11
16871.56212568114
 21
12664.70259318305
 31
0.0
  0
LINE
  5
6DD5
330
1F
100
AcDbEntity
  8
1
  6
Continuous
 62
     7
370
    13
100
AcDbLine
 10
17187.4621256802
 20
12664.70259318305
 30
0.0
 11
18645.4621256802
 21
12664.70259318305
 31
0.0
  0
LINE
  5
6DD6
330
1F
100
AcDbEntity
  8
1
  6
Continuous
 62
     7
370
    13
100
AcDbLine
 10
18758.86163968121
 20
12664.70259318305
 30
0.0
 11
18847.9621256802
 21
12664.70259318305
 31
0.0
  0
LINE
  5
6DD7
330
1F
100
AcDbEntity
  8
1
  6
Continuous
 62
     7
370
    13
100
AcDbLine
 10
18961.36163968121
 20
12664.70259318305
 30
0.0
 11
19050.4621256802
 21
12664.70259318305
 31
0.0
  0
LINE
  5
6DD8
330
1F
100
AcDbEntity
  8
1
  6
Continuous
 62
     7
370
    13
100
AcDbLine
 10
15979.56983518038
 20
12664.70259318305
 30
0.0
 11
16669.06212568114
 21
12664.70259318305
 31
0.0
  0
LINE
  5
6DD9
330
1F
100
AcDbEntity
  8
1
  6
Continuous
 62
     7
370
    13
100
AcDbLine
 10
15979.56983518038
 20
20262.50259318306
 30
0.0
 11
15979.56983518038
 21
12664.70259318305
 31
0.0
  0
LINE
  5
6DDA
330
1F
100
AcDbEntity
  8
1
  6
Continuous
 62
     7
370
    13
100
AcDbLine
 10
19163.86163968121
 20
12664.70259318305
 30
0.0
 11
19867.56983518038
 21
12664.70259318305
 31
0.0
  0
LINE
  5
6DDB
330
1F
100
AcDbEntity
  8
1
  6
Continuous
 62
     7
370
    13
100
AcDbLine
 10
19867.56983518038
 20
12664.70259318305
 30
0.0
 11
19867.56983518038
 21
20262.50259318306
 31
0.0
  0
LINE
  5
6DDC
330
1F
100
AcDbEntity
  8
1
  6
Continuous
 62
     7
370
    13
100
AcDbLine
 10
16782.4621256802
 20
12502.70259318305
 30
0.0
 11
16871.56212568114
 21
12502.70259318305
 31
0.0
  0
LINE
  5
6DDD
330
1F
100
AcDbEntity
  8
1
  6
Continuous
 62
     7
370
    13
100
AcDbLine
 10
16984.9621256802
 20
12502.70259318305
 30
0.0
 11
17074.06261168013
 21
12502.70259318305
 31
0.0
  0
LINE
  5
6DDE
330
1F
100
AcDbEntity
  8
1
  6
Continuous
 62
     7
370
    13
100
AcDbLine
 10
18961.36163968121
 20
12502.70259318305
 30
0.0
 11
19050.4621256802
 21
12502.70259318305
 31
0.0
  0
LINE
  5
6DDF
330
1F
100
AcDbEntity
  8
1
  6
Continuous
 62
     7
370
    13
100
AcDbLine
 10
17187.4621256802
 20
12502.70259318305
 30
0.0
 11
18645.4621256802
 21
12502.70259318305
 31
0.0
  0
LINE
  5
6DE0
330
1F
100
AcDbEntity
  8
1
  6
Continuous
 62
     7
370
    13
100
AcDbLine
 10
18758.86163968121
 20
12502.70259318305
 30
0.0
 11
18847.9621256802
 21
12502.70259318305
 31
0.0
  0
LINE
  5
6DE1
330
1F
100
AcDbEntity
  8
1
  6
Continuous
 62
     7
370
    13
100
AcDbLine
 10
15817.56983518038
 20
12502.70259318305
 30
0.0
 11
16669.06212568114
 21
12502.70259318305
 31
0.0
  0
LINE
  5
6DE2
330
1F
100
AcDbEntity
  8
1
  6
Continuous
 62
     7
370
    13
100
AcDbLine
 10
15817.56983518038
 20
20424.50259318306
 30
0.0
 11
15817.56983518038
 21
12502.70259318305
 31
0.0
  0
LINE
  5
6DE3
330
1F
100
AcDbEntity
  8
1
  6
Continuous
 62
     7
370
    13
100
AcDbLine
 10
19163.86163968121
 20
12502.70259318305
 30
0.0
 11
20029.56983518038
 21
12502.70259318305
 31
0.0
  0
LINE
  5
6DE4
330
1F
100
AcDbEntity
  8
1
  6
Continuous
 62
     7
370
    13
100
AcDbLine
 10
20029.56983518038
 20
12502.70259318305
 30
0.0
 11
20029.56983518038
 21
20424.50259318306
 31
0.0
  0
LINE
  5
6DE5
330
1F
100
AcDbEntity
  8
1
  6
Continuous
 62
     7
370
    13
100
AcDbLine
 10
18354.48983518002
 20
19768.40259318305
 30
0.0
 11
18354.48983518002
 21
19428.20259318305
 31
0.0
  0
LINE
  5
6DE6
330
1F
100
AcDbEntity
  8
1
  6
Continuous
 62
     7
370
    13
100
AcDbLine
 10
18506.7698351804
 20
19768.40259318305
 30
0.0
 11
18354.48983518002
 21
19768.40259318305
 31
0.0
  0
LINE
  5
6DE7
330
1F
100
AcDbEntity
  8
1
  6
Continuous
 62
     7
370
    13
100
AcDbLine
 10
18668.7698351804
 20
19768.40259318305
 30
0.0
 11
18668.7698351804
 21
19428.20259318305
 31
0.0
  0
LINE
  5
6DE8
330
1F
100
AcDbEntity
  8
1
  6
Continuous
 62
     7
370
    13
100
AcDbLine
 10
18506.7698351804
 20
19768.40259318305
 30
0.0
 11
18668.7698351804
 21
19768.40259318305
 31
0.0
  0
LINE
  5
6DE9
330
1F
100
AcDbEntity
  8
1
  6
Continuous
 62
     7
370
    13
100
AcDbLine
 10
18506.7698351804
 20
19922.30259318306
 30
0.0
 11
18506.7698351804
 21
19768.40259318305
 31
0.0
  0
LINE
  5
6DEA
330
1F
100
AcDbEntity
  8
1
  6
Continuous
 62
     7
370
    13
100
AcDbLine
 10
18927.96983518038
 20
19922.30259318306
 30
0.0
 11
18927.96983518038
 21
19428.20259318305
 31
0.0
  0
LINE
  5
6DEB
330
1F
100
AcDbEntity
  8
1
  6
Continuous
 62
     7
370
    13
100
AcDbLine
 10
18506.7698351804
 20
19922.30259318306
 30
0.0
 11
18927.96983518038
 21
19922.30259318306
 31
0.0
  0
LINE
  5
6DEC
330
1F
100
AcDbEntity
  8
1
  6
Continuous
 62
     7
370
    13
100
AcDbLine
 10
19069.71983518038
 20
20064.05259318306
 30
0.0
 11
19069.71983518038
 21
19428.20259318305
 31
0.0
  0
LINE
  5
6DED
330
1F
100
AcDbEntity
  8
1
  6
Continuous
 62
     7
370
    13
100
AcDbLine
 10
18506.7698351804
 20
20064.05259318306
 30
0.0
 11
19069.71983518038
 21
20064.05259318306
 31
0.0
  0
LINE
  5
6DEE
330
1F
100
AcDbEntity
  8
1
  6
Continuous
 62
     7
370
    13
100
AcDbLine
 10
18506.7698351804
 20
20262.50259318306
 30
0.0
 11
18506.7698351804
 21
20064.05259318306
 31
0.0
  0
LINE
  5
6DEF
330
1F
100
AcDbEntity
  8
1
  6
Continuous
 62
     7
370
    13
100
AcDbLine
 10
19403.43983518096
 20
19561.85259318306
 30
0.0
 11
19403.43983518096
 21
19983.05259318306
 31
0.0
  0
LINE
  5
6DF0
330
1F
100
AcDbEntity
  8
1
  6
Continuous
 62
     7
370
    13
100
AcDbLine
 10
19739.58983518002
 20
19561.85259318306
 30
0.0
 11
19403.43983518096
 21
19561.85259318306
 31
0.0
  0
LINE
  5
6DF1
330
1F
100
AcDbEntity
  8
1
  6
Continuous
 62
     7
370
    13
100
AcDbLine
 10
19739.58983518002
 20
19983.05259318306
 30
0.0
 11
19739.58983518002
 21
19561.85259318306
 31
0.0
  0
LINE
  5
6DF2
330
1F
100
AcDbEntity
  8
1
  6
Continuous
 62
     7
370
    13
100
AcDbLine
 10
19403.43983518096
 20
19983.05259318306
 30
0.0
 11
19739.58983518002
 21
19983.05259318306
 31
0.0
  0
LINE
  5
6DF3
330
1F
100
AcDbEntity
  8
1
  6
Continuous
 62
     7
370
    13
100
AcDbLine
 10
17492.64983517982
 20
19768.40259318305
 30
0.0
 11
17492.64983517982
 21
19428.20259318305
 31
0.0
  0
LINE
  5
6DF4
330
1F
100
AcDbEntity
  8
1
  6
Continuous
 62
     7
370
    13
100
AcDbLine
 10
17340.3698351804
 20
19768.40259318305
 30
0.0
 11
17492.64983517982
 21
19768.40259318305
 31
0.0
  0
LINE
  5
6DF5
330
1F
100
AcDbEntity
  8
1
  6
Continuous
 62
     7
370
    13
100
AcDbLine
 10
17178.3698351804
 20
19768.40259318305
 30
0.0
 11
17178.3698351804
 21
19428.20259318305
 31
0.0
  0
LINE
  5
6DF6
330
1F
100
AcDbEntity
  8
1
  6
Continuous
 62
     7
370
    13
100
AcDbLine
 10
17340.3698351804
 20
19768.40259318305
 30
0.0
 11
17178.3698351804
 21
19768.40259318305
 31
0.0
  0
LINE
  5
6DF7
330
1F
100
AcDbEntity
  8
1
  6
Continuous
 62
     7
370
    13
100
AcDbLine
 10
17340.3698351804
 20
19922.30259318306
 30
0.0
 11
17340.3698351804
 21
19768.40259318305
 31
0.0
  0
LINE
  5
6DF8
330
1F
100
AcDbEntity
  8
1
  6
Continuous
 62
     7
370
    13
100
AcDbLine
 10
16919.16983518039
 20
19922.30259318306
 30
0.0
 11
16919.16983518039
 21
19428.20259318305
 31
0.0
  0
LINE
  5
6DF9
330
1F
100
AcDbEntity
  8
1
  6
Continuous
 62
     7
370
    13
100
AcDbLine
 10
17340.3698351804
 20
19922.30259318306
 30
0.0
 11
16919.16983518039
 21
19922.30259318306
 31
0.0
  0
LINE
  5
6DFA
330
1F
100
AcDbEntity
  8
1
  6
Continuous
 62
     7
370
    13
100
AcDbLine
 10
16777.41983518039
 20
20064.05259318306
 30
0.0
 11
16777.41983518039
 21
19428.20259318305
 31
0.0
  0
LINE
  5
6DFB
330
1F
100
AcDbEntity
  8
1
  6
Continuous
 62
     7
370
    13
100
AcDbLine
 10
17340.3698351804
 20
20064.05259318306
 30
0.0
 11
16777.41983518039
 21
20064.05259318306
 31
0.0
  0
LINE
  5
6DFC
330
1F
100
AcDbEntity
  8
1
  6
Continuous
 62
     7
370
    13
100
AcDbLine
 10
17340.3698351804
 20
20262.50259318306
 30
0.0
 11
17340.3698351804
 21
20064.05259318306
 31
0.0
  0
LINE
  5
6DFD
330
1F
100
AcDbEntity
  8
1
  6
Continuous
 62
     7
370
    13
100
AcDbLine
 10
16443.69983518077
 20
19561.85259318306
 30
0.0
 11
16443.69983518077
 21
19983.05259318306
 31
0.0
  0
LINE
  5
6DFE
330
1F
100
AcDbEntity
  8
1
  6
Continuous
 62
     7
370
    13
100
AcDbLine
 10
16107.54983518077
 20
19561.85259318306
 30
0.0
 11
16443.69983518077
 21
19561.85259318306
 31
0.0
  0
LINE
  5
6DFF
330
1F
100
AcDbEntity
  8
1
  6
Continuous
 62
     7
370
    13
100
AcDbLine
 10
16107.54983518077
 20
19983.05259318306
 30
0.0
 11
16107.54983518077
 21
19561.85259318306
 31
0.0
  0
LINE
  5
6E00
330
1F
100
AcDbEntity
  8
1
  6
Continuous
 62
     7
370
    13
100
AcDbLine
 10
16443.69983518077
 20
19983.05259318306
 30
0.0
 11
16107.54983518077
 21
19983.05259318306
 31
0.0
  0
ARC
  5
6E01
330
1F
100
AcDbEntity
  8
1
  6
Continuous
 62
     7
370
    13
100
AcDbCircle
 10
17923.56983518038
 20
769.8512161829421
 30
0.0
 40
20391.75153899999
100
AcDbArc
 50
84.83208499957127
 51
95.16791500042875
  0
ARC
  5
6E02
330
1F
100
AcDbEntity
  8
1
  6
Continuous
 62
     7
370
    13
100
AcDbCircle
 10
17923.56983518038
 20
32157.35413218252
 30
0.0
 40
20391.75153899999
100
AcDbArc
 50
264.8320849995712
 51
266.4729179995095
  0
ARC
  5
6E03
330
1F
100
AcDbEntity
  8
1
  6
Continuous
 62
     7
370
    13
100
AcDbCircle
 10
17923.56983518038
 20
32157.35413218252
 30
0.0
 40
20391.75153899999
100
AcDbArc
 50
266.7920939977054
 51
267.0428070006612
  0
ARC
  5
6E04
330
1F
100
AcDbEntity
  8
1
  6
Continuous
 62
     7
370
    13
100
AcDbCircle
 10
17923.56983518038
 20
32157.35413218252
 30
0.0
 40
20391.75153899999
100
AcDbArc
 50
267.3618120002306
 51
267.6124039992975
  0
ARC
  5
6E05
330
1F
100
AcDbEntity
  8
1
  6
Continuous
 62
     7
370
    13
100
AcDbCircle
 10
17923.56983518038
 20
32157.35413218252
 30
0.0
 40
20391.75153899999
100
AcDbArc
 50
272.3476200001146
 51
272.598203999269
  0
ARC
  5
6E06
330
1F
100
AcDbEntity
  8
1
  6
Continuous
 62
     7
370
    13
100
AcDbCircle
 10
17923.56983518038
 20
32157.35413218252
 30
0.0
 40
20391.75153899999
100
AcDbArc
 50
272.9171990013343
 51
273.1679020005372
  0
ARC
  5
6E07
330
1F
100
AcDbEntity
  8
1
  6
Continuous
 62
     7
370
    13
100
AcDbCircle
 10
17923.56983518038
 20
32157.35413218252
 30
0.0
 40
20391.75153899999
100
AcDbArc
 50
267.9312699993752
 51
272.0287629996716
  0
ARC
  5
6E08
330
1F
100
AcDbEntity
  8
1
  6
Continuous
 62
     7
370
    13
100
AcDbCircle
 10
17923.56983518038
 20
32157.35413218252
 30
0.0
 40
20391.75153899999
100
AcDbArc
 50
273.4870659995456
 51
275.3057240000229
  0
ARC
  5
6E09
330
1F
100
AcDbEntity
  8
1
  6
Continuous
 62
     7
370
    13
100
AcDbCircle
 10
16156.09779268055
 20
20312.33816718243
 30
0.0
 40
769.4999595
100
AcDbArc
 50
95.16791500042875
 51
167.6453350002358
  0
ARC
  5
6E0A
330
1F
100
AcDbEntity
  8
1
  6
Continuous
 62
     7
370
    13
100
AcDbCircle
 10
19691.04187768025
 20
20312.33816718243
 30
0.0
 40
769.4999595
100
AcDbArc
 50
12.52695499984378
 51
84.83208499957127
  0
ARC
  5
6E0B
330
1F
100
AcDbEntity
  8
1
  6
Continuous
 62
     7
370
    13
100
AcDbCircle
 10
-25649.37252481977
 20
16463.60267418368
 30
0.0
 40
46266.1923195
100
AcDbArc
 50
355.0207909997012
 51
4.979209000298793
  0
ARC
  5
6E0C
330
1F
100
AcDbEntity
  8
1
  6
Continuous
 62
     7
370
    13
100
AcDbCircle
 10
19691.04187768025
 20
12614.86718118302
 30
0.0
 40
769.4999595
100
AcDbArc
 50
275.1679150004287
 51
347.4730450001562
  0
ARC
  5
6E0D
330
1F
100
AcDbEntity
  8
1
  6
Continuous
 62
     7
370
    13
100
AcDbCircle
 10
16156.09779268055
 20
12614.86718118302
 30
0.0
 40
769.4999595
100
AcDbArc
 50
192.5269549998438
 51
264.8320849995712
  0
ARC
  5
6E0E
330
1F
100
AcDbEntity
  8
1
  6
Continuous
 62
     7
370
    13
100
AcDbCircle
 10
61496.51219517967
 20
16463.60267418368
 30
0.0
 40
46266.1923195
100
AcDbArc
 50
175.0212259991254
 51
184.9792090002988
  0
LINE
  5
6E0F
330
1F
100
AcDbEntity
  8
1
  6
Continuous
 62
     7
370
    13
100
AcDbLine
 10
18354.48983518002
 20
13158.80259318306
 30
0.0
 11
18354.48983518002
 21
13499.00259318306
 31
0.0
  0
LINE
  5
6E10
330
1F
100
AcDbEntity
  8
1
  6
Continuous
 62
     7
370
    13
100
AcDbLine
 10
18506.7698351804
 20
13158.80259318306
 30
0.0
 11
18354.48983518002
 21
13158.80259318306
 31
0.0
  0
LINE
  5
6E11
330
1F
100
AcDbEntity
  8
1
  6
Continuous
 62
     7
370
    13
100
AcDbLine
 10
18506.7698351804
 20
13004.90259318305
 30
0.0
 11
18506.7698351804
 21
13158.80259318306
 31
0.0
  0
LINE
  5
6E12
330
1F
100
AcDbEntity
  8
1
  6
Continuous
 62
     7
370
    13
100
AcDbLine
 10
18506.7698351804
 20
12664.70259318305
 30
0.0
 11
18506.7698351804
 21
12863.15259318305
 31
0.0
  0
LINE
  5
6E13
330
1F
100
AcDbEntity
  8
1
  6
Continuous
 62
     7
370
    13
100
AcDbLine
 10
19403.43983518096
 20
13365.35259318306
 30
0.0
 11
19403.43983518096
 21
12944.15259318305
 31
0.0
  0
LINE
  5
6E14
330
1F
100
AcDbEntity
  8
1
  6
Continuous
 62
     7
370
    13
100
AcDbLine
 10
19739.58983518002
 20
13365.35259318306
 30
0.0
 11
19403.43983518096
 21
13365.35259318306
 31
0.0
  0
LINE
  5
6E15
330
1F
100
AcDbEntity
  8
1
  6
Continuous
 62
     7
370
    13
100
AcDbLine
 10
19739.58983518002
 20
12944.15259318305
 30
0.0
 11
19739.58983518002
 21
13365.35259318306
 31
0.0
  0
LINE
  5
6E16
330
1F
100
AcDbEntity
  8
1
  6
Continuous
 62
     7
370
    13
100
AcDbLine
 10
19403.43983518096
 20
12944.15259318305
 30
0.0
 11
19739.58983518002
 21
12944.15259318305
 31
0.0
  0
LINE
  5
6E17
330
1F
100
AcDbEntity
  8
1
  6
Continuous
 62
     7
370
    13
100
AcDbLine
 10
17492.64983517982
 20
13158.80259318306
 30
0.0
 11
17492.64983517982
 21
13499.00259318306
 31
0.0
  0
LINE
  5
6E18
330
1F
100
AcDbEntity
  8
1
  6
Continuous
 62
     7
370
    13
100
AcDbLine
 10
17340.3698351804
 20
13158.80259318306
 30
0.0
 11
17492.64983517982
 21
13158.80259318306
 31
0.0
  0
LINE
  5
6E19
330
1F
100
AcDbEntity
  8
1
  6
Continuous
 62
     7
370
    13
100
AcDbLine
 10
17340.3698351804
 20
13004.90259318305
 30
0.0
 11
17340.3698351804
 21
13158.80259318306
 31
0.0
  0
LINE
  5
6E1A
330
1F
100
AcDbEntity
  8
1
  6
Continuous
 62
     7
370
    13
100
AcDbLine
 10
17340.3698351804
 20
12664.70259318305
 30
0.0
 11
17340.3698351804
 21
12863.15259318305
 31
0.0
  0
LINE
  5
6E1B
330
1F
100
AcDbEntity
  8
1
  6
Continuous
 62
     7
370
    13
100
AcDbLine
 10
16443.69983518077
 20
13365.35259318306
 30
0.0
 11
16443.69983518077
 21
12944.15259318305
 31
0.0
  0
LINE
  5
6E1C
330
1F
100
AcDbEntity
  8
1
  6
Continuous
 62
     7
370
    13
100
AcDbLine
 10
16107.54983518077
 20
13365.35259318306
 30
0.0
 11
16443.69983518077
 21
13365.35259318306
 31
0.0
  0
LINE
  5
6E1D
330
1F
100
AcDbEntity
  8
1
  6
Continuous
 62
     7
370
    13
100
AcDbLine
 10
16107.54983518077
 20
12944.15259318305
 30
0.0
 11
16107.54983518077
 21
13365.35259318306
 31
0.0
  0
LINE
  5
6E1E
330
1F
100
AcDbEntity
  8
1
  6
Continuous
 62
     7
370
    13
100
AcDbLine
 10
16443.69983518077
 20
12944.15259318305
 30
0.0
 11
16107.54983518077
 21
12944.15259318305
 31
0.0
  0
LINE
  5
6E1F
330
1F
100
AcDbEntity
  8
1
  6
Continuous
 62
     7
370
    13
100
AcDbLine
 10
17340.3698351804
 20
13158.80259318306
 30
0.0
 11
17187.4621256802
 21
13158.80259318306
 31
0.0
  0
LINE
  5
6E20
330
1F
100
AcDbEntity
  8
1
  6
Continuous
 62
     7
370
    13
100
AcDbLine
 10
16871.56261168012
 20
12863.15259318305
 30
0.0
 11
16777.41983518039
 21
12863.15259318305
 31
0.0
  0
LINE
  5
6E21
330
1F
100
AcDbEntity
  8
1
  6
Continuous
 62
     7
370
    13
100
AcDbLine
 10
17340.3698351804
 20
12863.15259318305
 30
0.0
 11
17187.4621256802
 21
12863.15259318305
 31
0.0
  0
LINE
  5
6E22
330
1F
100
AcDbEntity
  8
1
  6
Continuous
 62
     7
370
    13
100
AcDbLine
 10
17074.06261168013
 20
12863.15259318305
 30
0.0
 11
16984.9621256802
 21
12863.15259318305
 31
0.0
  0
LINE
  5
6E23
330
1F
100
AcDbEntity
  8
1
  6
Continuous
 62
     7
370
    13
100
AcDbLine
 10
17340.3698351804
 20
13004.90259318305
 30
0.0
 11
17187.4621256802
 21
13004.90259318305
 31
0.0
  0
LINE
  5
6E24
330
1F
100
AcDbEntity
  8
1
  6
Continuous
 62
     7
370
    13
100
AcDbLine
 10
17074.06261168013
 20
13004.90259318305
 30
0.0
 11
16984.9621256802
 21
13004.90259318305
 31
0.0
  0
LINE
  5
6E25
330
1F
100
AcDbEntity
  8
1
  6
Continuous
 62
     7
370
    13
100
AcDbLine
 10
18506.7698351804
 20
13158.80259318306
 30
0.0
 11
18645.4621256802
 21
13158.80259318306
 31
0.0
  0
LINE
  5
6E26
330
1F
100
AcDbEntity
  8
1
  6
Continuous
 62
     7
370
    13
100
AcDbLine
 10
18506.7698351804
 20
13004.90259318305
 30
0.0
 11
18645.4621256802
 21
13004.90259318305
 31
0.0
  0
LINE
  5
6E27
330
1F
100
AcDbEntity
  8
1
  6
Continuous
 62
     7
370
    13
100
AcDbLine
 10
18506.7698351804
 20
12863.15259318305
 30
0.0
 11
18645.4621256802
 21
12863.15259318305
 31
0.0
  0
LINE
  5
6E28
330
1F
100
AcDbEntity
  8
1
  6
Continuous
 62
     7
370
    13
100
AcDbLine
 10
18758.86163968121
 20
12863.15259318305
 30
0.0
 11
18847.9621256802
 21
12863.15259318305
 31
0.0
  0
LINE
  5
6E29
330
1F
100
AcDbEntity
  8
1
  6
Continuous
 62
     7
370
    13
100
AcDbLine
 10
18758.86163968121
 20
13004.90259318305
 30
0.0
 11
18847.9621256802
 21
13004.90259318305
 31
0.0
  0
LINE
  5
6E2A
330
1F
100
AcDbEntity
  8
1
  6
Continuous
 62
     7
370
    13
100
AcDbLine
 10
18961.36163968121
 20
12863.15259318305
 30
0.0
 11
19050.4621256802
 21
12863.15259318305
 31
0.0
  0
LINE
  5
6E2B
330
1F
100
AcDbEntity
  8
1
  6
Continuous
 62
     7
370
    13
100
AcDbLine
 10
10076.09288367963
 20
9164.281558683127
 30
0.0
 11
10076.09288367963
 21
9075.181558683121
 31
0.0
  0
LINE
  5
6E2C
330
1F
100
AcDbEntity
  8
1
  6
Continuous
 62
     7
370
    13
100
AcDbLine
 10
10076.09288367963
 20
9366.592990683406
 30
0.0
 11
10076.09288367963
 21
9277.492990682469
 31
0.0
  0
LINE
  5
6E2D
330
1F
100
AcDbEntity
  8
1
  6
Continuous
 62
     7
370
    13
100
AcDbLine
 10
10076.09288367963
 20
9569.092990683406
 30
0.0
 11
10076.09288367963
 21
9479.992990682468
 31
0.0
  0
LINE
  5
6E2E
330
1F
100
AcDbEntity
  8
1
  6
Continuous
 62
     7
370
    13
100
AcDbLine
 10
10278.59288367963
 20
9164.281558683127
 30
0.0
 11
10076.09288367963
 21
9164.281558683127
 31
0.0
  0
LINE
  5
6E2F
330
1F
100
AcDbEntity
  8
1
  6
Continuous
 62
     7
370
    13
100
AcDbLine
 10
10278.59288367963
 20
9164.281558683127
 30
0.0
 11
10076.09288367963
 21
9164.281558683127
 31
0.0
  0
LINE
  5
6E30
330
1F
100
AcDbEntity
  8
1
  6
Continuous
 62
     7
370
    13
100
AcDbLine
 10
10076.09288367963
 20
9075.181558683121
 30
0.0
 11
10278.59288367963
 21
9075.181558683121
 31
0.0
  0
LINE
  5
6E31
330
1F
100
AcDbEntity
  8
1
  6
Continuous
 62
     7
370
    13
100
AcDbLine
 10
10278.59288367963
 20
9366.592990683406
 30
0.0
 11
10076.09288367963
 21
9366.592990683406
 31
0.0
  0
LINE
  5
6E32
330
1F
100
AcDbEntity
  8
1
  6
Continuous
 62
     7
370
    13
100
AcDbLine
 10
10278.59288367963
 20
9366.592990683406
 30
0.0
 11
10076.09288367963
 21
9366.592990683406
 31
0.0
  0
LINE
  5
6E33
330
1F
100
AcDbEntity
  8
1
  6
Continuous
 62
     7
370
    13
100
AcDbLine
 10
10076.09288367963
 20
9277.492990682469
 30
0.0
 11
10278.59288367963
 21
9277.492990682469
 31
0.0
  0
LINE
  5
6E34
330
1F
100
AcDbEntity
  8
1
  6
Continuous
 62
     7
370
    13
100
AcDbLine
 10
10278.59288367963
 20
9569.092990683406
 30
0.0
 11
10076.09288367963
 21
9569.092990683406
 31
0.0
  0
LINE
  5
6E35
330
1F
100
AcDbEntity
  8
1
  6
Continuous
 62
     7
370
    13
100
AcDbLine
 10
10278.59288367963
 20
9569.092990683406
 30
0.0
 11
10076.09288367963
 21
9569.092990683406
 31
0.0
  0
LINE
  5
6E36
330
1F
100
AcDbEntity
  8
1
  6
Continuous
 62
     7
370
    13
100
AcDbLine
 10
10076.09288367963
 20
9479.992990682468
 30
0.0
 11
10278.59288367963
 21
9479.992990682468
 31
0.0
  0
LINE
  5
6E37
330
1F
100
AcDbEntity
  8
1
  6
Continuous
 62
     7
370
    13
100
AcDbLine
 10
16669.06261168012
 20
14472.09273168206
 30
0.0
 11
16669.06261168012
 21
10375.51412718383
 31
0.0
  0
LINE
  5
6E38
330
1F
100
AcDbEntity
  8
1
  6
Continuous
 62
     7
370
    13
100
AcDbLine
 10
17187.4621256802
 20
14143.64384718298
 30
0.0
 11
17187.4621256802
 21
10313.03263068295
 31
0.0
  0
LINE
  5
6E39
330
1F
100
AcDbEntity
  8
1
  6
Continuous
 62
     7
370
    13
100
AcDbLine
 10
16782.4621256802
 20
14396.87491668252
 30
0.0
 11
16782.4621256802
 21
10375.51412718383
 31
0.0
  0
LINE
  5
6E3A
330
1F
100
AcDbEntity
  8
1
  6
Continuous
 62
     7
370
    13
100
AcDbLine
 10
16871.56261168012
 20
14341.18709268288
 30
0.0
 11
16871.56261168012
 21
10375.51412718383
 31
0.0
  0
LINE
  5
6E3B
330
1F
100
AcDbEntity
  8
1
  6
Continuous
 62
     7
370
    13
100
AcDbLine
 10
16984.9621256802
 20
14270.31241668252
 30
0.0
 11
16984.9621256802
 21
10375.51412718383
 31
0.0
  0
LINE
  5
6E3C
330
1F
100
AcDbEntity
  8
1
  6
Continuous
 62
     7
370
    13
100
AcDbLine
 10
17074.06261168013
 20
14214.62459268288
 30
0.0
 11
17074.06261168013
 21
10375.51412718383
 31
0.0
  0
LINE
  5
6E3D
330
1F
100
AcDbEntity
  8
1
  6
Continuous
 62
     7
370
    13
100
AcDbLine
 10
18645.4621256802
 20
14134.61465568271
 30
0.0
 11
18645.4621256802
 21
10375.51412718383
 31
0.0
  0
LINE
  5
6E3E
330
1F
100
AcDbEntity
  8
1
  6
Continuous
 62
     7
370
    13
100
AcDbLine
 10
18758.86163968121
 20
14205.73998618313
 30
0.0
 11
18758.86163968121
 21
10375.51412718383
 31
0.0
  0
LINE
  5
6E3F
330
1F
100
AcDbEntity
  8
1
  6
Continuous
 62
     7
370
    13
100
AcDbLine
 10
18847.9621256802
 20
14261.42776968245
 30
0.0
 11
18847.9621256802
 21
10375.51412718383
 31
0.0
  0
LINE
  5
6E40
330
1F
100
AcDbEntity
  8
1
  6
Continuous
 62
     7
370
    13
100
AcDbLine
 10
18961.36163968121
 20
14332.30248618313
 30
0.0
 11
18961.36163968121
 21
10375.51412718383
 31
0.0
  0
LINE
  5
6E41
330
1F
100
AcDbEntity
  8
1
  6
Continuous
 62
     7
370
    13
100
AcDbLine
 10
19050.4621256802
 20
14387.99026968245
 30
0.0
 11
19050.4621256802
 21
10375.51412718383
 31
0.0
  0
LINE
  5
6E42
330
1F
100
AcDbEntity
  8
1
  6
Continuous
 62
     7
370
    13
100
AcDbLine
 10
19163.86163968121
 20
14458.86498618313
 30
0.0
 11
19163.86163968121
 21
10375.51412718383
 31
0.0
  0
LINE
  5
6E43
330
1F
100
AcDbEntity
  8
1
  6
Continuous
 62
     7
370
    13
100
AcDbLine
 10
19705.56983518038
 20
14797.43259318343
 30
0.0
 11
18279.96983518038
 21
13906.43259318343
 31
0.0
  0
LINE
  5
6E44
330
1F
100
AcDbEntity
  8
1
  6
Continuous
 62
     7
370
    13
100
AcDbLine
 10
17567.16983518039
 20
13906.43259318343
 30
0.0
 11
16141.56983518038
 21
14797.43259318343
 31
0.0
  0
LINE
  5
6E45
330
1F
100
AcDbEntity
  8
1
  6
Continuous
 62
     7
370
    13
100
AcDbLine
 10
18279.96983518038
 20
13906.43259318343
 30
0.0
 11
17567.16983518039
 21
13906.43259318343
 31
0.0
  0
LINE
  5
6E46
330
1F
100
AcDbEntity
  8
1
  6
Continuous
 62
     7
370
    13
100
AcDbLine
 10
20165.78299918011
 20
13617.84506418333
 30
0.0
 11
20494.61468968031
 21
13617.84506418333
 31
0.0
  0
ARC
  5
6E47
330
1F
100
AcDbEntity
  8
1
  6
Continuous
 62
     7
370
    13
100
AcDbCircle
 10
19150.90585168049
 20
9441.558774182777
 30
0.0
 40
1215.0
100
AcDbArc
 50
270.0
 51
0.0
  0
LINE
  5
6E48
330
1F
100
AcDbEntity
  8
1
  6
Continuous
 62
     7
370
    13
100
AcDbLine
 10
16394.51679718069
 20
14117.0326336828
 30
0.0
 11
16475.51679718069
 21
14117.0326336828
 31
0.0
  0
LINE
  5
6E49
330
1F
100
AcDbEntity
  8
1
  6
Continuous
 62
     7
370
    13
100
AcDbLine
 10
16516.01679718069
 20
14238.5326336828
 30
0.0
 11
16613.21655418074
 21
14238.5326336828
 31
0.0
  0
LINE
  5
6E4A
330
1F
100
AcDbEntity
  8
1
  6
Continuous
 62
     7
370
    13
100
AcDbLine
 10
16516.01679718069
 20
13898.33259318249
 30
0.0
 11
16613.21655418074
 21
13898.33259318249
 31
0.0
  0
LINE
  5
6E4B
330
1F
100
AcDbEntity
  8
1
  6
Continuous
 62
     7
370
    13
100
AcDbLine
 10
16516.01679718069
 20
14238.5326336828
 30
0.0
 11
16516.01679718069
 21
14157.5326336828
 31
0.0
  0
LINE
  5
6E4C
330
1F
100
AcDbEntity
  8
1
  6
Continuous
 62
     7
370
    13
100
AcDbLine
 10
16394.51679718069
 20
14019.83259318249
 30
0.0
 11
16475.51679718069
 21
14019.83259318249
 31
0.0
  0
LINE
  5
6E4D
330
1F
100
AcDbEntity
  8
1
  6
Continuous
 62
     7
370
    13
100
AcDbLine
 10
16613.21655418074
 20
13979.33259318249
 30
0.0
 11
16613.21655418074
 21
13898.33259318249
 31
0.0
  0
LINE
  5
6E4E
330
1F
100
AcDbEntity
  8
1
  6
Continuous
 62
     7
370
    13
100
AcDbLine
 10
16516.01679718069
 20
13979.33259318249
 30
0.0
 11
16516.01679718069
 21
13898.33259318249
 31
0.0
  0
LINE
  5
6E4F
330
1F
100
AcDbEntity
  8
1
  6
Continuous
 62
     7
370
    13
100
AcDbLine
 10
16394.51679718069
 20
14117.0326336828
 30
0.0
 11
16394.51679718069
 21
14019.83259318249
 31
0.0
  0
LINE
  5
6E50
330
1F
100
AcDbEntity
  8
1
  6
Continuous
 62
     7
370
    13
100
AcDbLine
 10
16613.21655418074
 20
14238.5326336828
 30
0.0
 11
16613.21655418074
 21
14157.5326336828
 31
0.0
  0
ARC
  5
6E51
330
1F
100
AcDbEntity
  8
1
  6
Continuous
 62
     7
370
    13
100
AcDbCircle
 10
16653.71655418074
 20
13979.33259318249
 30
0.0
 40
40.49999999999999
100
AcDbArc
 50
90.0
 51
180.0
  0
ARC
  5
6E52
330
1F
100
AcDbEntity
  8
1
  6
Continuous
 62
     7
370
    13
100
AcDbCircle
 10
16475.51679718069
 20
14157.5326336828
 30
0.0
 40
40.49999999999999
100
AcDbArc
 50
270.0
 51
0.0
  0
ARC
  5
6E53
330
1F
100
AcDbEntity
  8
1
  6
Continuous
 62
     7
370
    13
100
AcDbCircle
 10
16653.71655418074
 20
14157.5326336828
 30
0.0
 40
40.49999999999999
100
AcDbArc
 50
180.0
 51
270.0
  0
ARC
  5
6E54
330
1F
100
AcDbEntity
  8
1
  6
Continuous
 62
     7
370
    13
100
AcDbCircle
 10
16475.51679718069
 20
13979.33259318249
 30
0.0
 40
40.49999999999999
100
AcDbArc
 50
0.0
 51
90.0
  0
CIRCLE
  5
6E55
330
1F
100
AcDbEntity
  8
1
  6
Continuous
 62
     7
370
    13
100
AcDbCircle
 10
16564.61667567977
 20
15121.43263368374
 30
0.0
 40
210.5999999999999
  0
LINE
  5
6E56
330
1F
100
AcDbEntity
  8
1
  6
Continuous
 62
     7
370
    13
100
AcDbLine
 10
16734.71655418074
 20
15170.0326336828
 30
0.0
 11
16734.71655418074
 21
15072.83259318249
 31
0.0
  0
LINE
  5
6E57
330
1F
100
AcDbEntity
  8
1
  6
Continuous
 62
     7
370
    13
100
AcDbLine
 10
16394.51679718069
 20
15170.0326336828
 30
0.0
 11
16475.51679718069
 21
15170.0326336828
 31
0.0
  0
LINE
  5
6E58
330
1F
100
AcDbEntity
  8
1
  6
Continuous
 62
     7
370
    13
100
AcDbLine
 10
16516.01679718069
 20
15291.5326336828
 30
0.0
 11
16613.21655418074
 21
15291.5326336828
 31
0.0
  0
LINE
  5
6E59
330
1F
100
AcDbEntity
  8
1
  6
Continuous
 62
     7
370
    13
100
AcDbLine
 10
16516.01679718069
 20
14951.33259318249
 30
0.0
 11
16613.21655418074
 21
14951.33259318249
 31
0.0
  0
LINE
  5
6E5A
330
1F
100
AcDbEntity
  8
1
  6
Continuous
 62
     7
370
    13
100
AcDbLine
 10
16516.01679718069
 20
15291.5326336828
 30
0.0
 11
16516.01679718069
 21
15210.5326336828
 31
0.0
  0
LINE
  5
6E5B
330
1F
100
AcDbEntity
  8
1
  6
Continuous
 62
     7
370
    13
100
AcDbLine
 10
16394.51679718069
 20
15072.83259318249
 30
0.0
 11
16475.51679718069
 21
15072.83259318249
 31
0.0
  0
LINE
  5
6E5C
330
1F
100
AcDbEntity
  8
1
  6
Continuous
 62
     7
370
    13
100
AcDbLine
 10
16613.21655418074
 20
15032.33259318249
 30
0.0
 11
16613.21655418074
 21
14951.33259318249
 31
0.0
  0
LINE
  5
6E5D
330
1F
100
AcDbEntity
  8
1
  6
Continuous
 62
     7
370
    13
100
AcDbLine
 10
16516.01679718069
 20
15032.33259318249
 30
0.0
 11
16516.01679718069
 21
14951.33259318249
 31
0.0
  0
LINE
  5
6E5E
330
1F
100
AcDbEntity
  8
1
  6
Continuous
 62
     7
370
    13
100
AcDbLine
 10
16653.71655418074
 20
15072.83259318249
 30
0.0
 11
16734.71655418074
 21
15072.83259318249
 31
0.0
  0
LINE
  5
6E5F
330
1F
100
AcDbEntity
  8
1
  6
Continuous
 62
     7
370
    13
100
AcDbLine
 10
16394.51679718069
 20
15170.0326336828
 30
0.0
 11
16394.51679718069
 21
15072.83259318249
 31
0.0
  0
LINE
  5
6E60
330
1F
100
AcDbEntity
  8
1
  6
Continuous
 62
     7
370
    13
100
AcDbLine
 10
16653.71655418074
 20
15170.0326336828
 30
0.0
 11
16734.71655418074
 21
15170.0326336828
 31
0.0
  0
LINE
  5
6E61
330
1F
100
AcDbEntity
  8
1
  6
Continuous
 62
     7
370
    13
100
AcDbLine
 10
16613.21655418074
 20
15291.5326336828
 30
0.0
 11
16613.21655418074
 21
15210.5326336828
 31
0.0
  0
ARC
  5
6E62
330
1F
100
AcDbEntity
  8
1
  6
Continuous
 62
     7
370
    13
100
AcDbCircle
 10
16653.71655418074
 20
15032.33259318249
 30
0.0
 40
40.49999999999999
100
AcDbArc
 50
90.0
 51
180.0
  0
ARC
  5
6E63
330
1F
100
AcDbEntity
  8
1
  6
Continuous
 62
     7
370
    13
100
AcDbCircle
 10
16475.51679718069
 20
15210.5326336828
 30
0.0
 40
40.49999999999999
100
AcDbArc
 50
270.0
 51
0.0
  0
ARC
  5
6E64
330
1F
100
AcDbEntity
  8
1
  6
Continuous
 62
     7
370
    13
100
AcDbCircle
 10
16653.71655418074
 20
15210.5326336828
 30
0.0
 40
40.49999999999999
100
AcDbArc
 50
180.0
 51
270.0
  0
ARC
  5
6E65
330
1F
100
AcDbEntity
  8
1
  6
Continuous
 62
     7
370
    13
100
AcDbCircle
 10
16475.51679718069
 20
15032.33259318249
 30
0.0
 40
40.49999999999999
100
AcDbArc
 50
0.0
 51
90.0
  0
CIRCLE
  5
6E66
330
1F
100
AcDbEntity
  8
1
  6
Continuous
 62
     7
370
    13
100
AcDbCircle
 10
19280.88687568123
 20
15121.43263368374
 30
0.0
 40
210.5999999999999
  0
LINE
  5
6E67
330
1F
100
AcDbEntity
  8
1
  6
Continuous
 62
     7
370
    13
100
AcDbLine
 10
19450.9867541803
 20
15170.0326336828
 30
0.0
 11
19450.9867541803
 21
15072.83259318249
 31
0.0
  0
LINE
  5
6E68
330
1F
100
AcDbEntity
  8
1
  6
Continuous
 62
     7
370
    13
100
AcDbLine
 10
19110.78699718025
 20
15170.0326336828
 30
0.0
 11
19191.78699718025
 21
15170.0326336828
 31
0.0
  0
LINE
  5
6E69
330
1F
100
AcDbEntity
  8
1
  6
Continuous
 62
     7
370
    13
100
AcDbLine
 10
19232.28699718025
 20
15291.5326336828
 30
0.0
 11
19329.48675418031
 21
15291.5326336828
 31
0.0
  0
LINE
  5
6E6A
330
1F
100
AcDbEntity
  8
1
  6
Continuous
 62
     7
370
    13
100
AcDbLine
 10
19232.28699718025
 20
14951.33259318249
 30
0.0
 11
19329.48675418031
 21
14951.33259318249
 31
0.0
  0
LINE
  5
6E6B
330
1F
100
AcDbEntity
  8
1
  6
Continuous
 62
     7
370
    13
100
AcDbLine
 10
19232.28699718025
 20
15291.5326336828
 30
0.0
 11
19232.28699718025
 21
15210.5326336828
 31
0.0
  0
LINE
  5
6E6C
330
1F
100
AcDbEntity
  8
1
  6
Continuous
 62
     7
370
    13
100
AcDbLine
 10
19110.78699718025
 20
15072.83259318249
 30
0.0
 11
19191.78699718025
 21
15072.83259318249
 31
0.0
  0
LINE
  5
6E6D
330
1F
100
AcDbEntity
  8
1
  6
Continuous
 62
     7
370
    13
100
AcDbLine
 10
19329.48675418031
 20
15032.33259318249
 30
0.0
 11
19329.48675418031
 21
14951.33259318249
 31
0.0
  0
LINE
  5
6E6E
330
1F
100
AcDbEntity
  8
1
  6
Continuous
 62
     7
370
    13
100
AcDbLine
 10
19232.28699718025
 20
15032.33259318249
 30
0.0
 11
19232.28699718025
 21
14951.33259318249
 31
0.0
  0
LINE
  5
6E6F
330
1F
100
AcDbEntity
  8
1
  6
Continuous
 62
     7
370
    13
100
AcDbLine
 10
19369.98675418031
 20
15072.83259318249
 30
0.0
 11
19450.9867541803
 21
15072.83259318249
 31
0.0
  0
LINE
  5
6E70
330
1F
100
AcDbEntity
  8
1
  6
Continuous
 62
     7
370
    13
100
AcDbLine
 10
19110.78699718025
 20
15170.0326336828
 30
0.0
 11
19110.78699718025
 21
15072.83259318249
 31
0.0
  0
LINE
  5
6E71
330
1F
100
AcDbEntity
  8
1
  6
Continuous
 62
     7
370
    13
100
AcDbLine
 10
19369.98675418031
 20
15170.0326336828
 30
0.0
 11
19450.9867541803
 21
15170.0326336828
 31
0.0
  0
LINE
  5
6E72
330
1F
100
AcDbEntity
  8
1
  6
Continuous
 62
     7
370
    13
100
AcDbLine
 10
19329.48675418031
 20
15291.5326336828
 30
0.0
 11
19329.48675418031
 21
15210.5326336828
 31
0.0
  0
ARC
  5
6E73
330
1F
100
AcDbEntity
  8
1
  6
Continuous
 62
     7
370
    13
100
AcDbCircle
 10
19369.98675418031
 20
15032.33259318249
 30
0.0
 40
40.49999999999999
100
AcDbArc
 50
90.0
 51
180.0
  0
ARC
  5
6E74
330
1F
100
AcDbEntity
  8
1
  6
Continuous
 62
     7
370
    13
100
AcDbCircle
 10
19191.78699718025
 20
15210.5326336828
 30
0.0
 40
40.49999999999999
100
AcDbArc
 50
270.0
 51
0.0
  0
ARC
  5
6E75
330
1F
100
AcDbEntity
  8
1
  6
Continuous
 62
     7
370
    13
100
AcDbCircle
 10
19369.98675418031
 20
15210.5326336828
 30
0.0
 40
40.49999999999999
100
AcDbArc
 50
180.0
 51
270.0
  0
ARC
  5
6E76
330
1F
100
AcDbEntity
  8
1
  6
Continuous
 62
     7
370
    13
100
AcDbCircle
 10
19191.78699718025
 20
15032.33259318249
 30
0.0
 40
40.49999999999999
100
AcDbArc
 50
0.0
 51
90.0
  0
LINE
  5
6E77
330
1F
100
AcDbEntity
  8
1
  6
Continuous
 62
     7
370
    13
100
AcDbLine
 10
19450.9867541803
 20
14117.0326336828
 30
0.0
 11
19450.9867541803
 21
14019.83259318249
 31
0.0
  0
LINE
  5
6E78
330
1F
100
AcDbEntity
  8
1
  6
Continuous
 62
     7
370
    13
100
AcDbLine
 10
19232.28699718025
 20
14238.5326336828
 30
0.0
 11
19329.48675418031
 21
14238.5326336828
 31
0.0
  0
LINE
  5
6E79
330
1F
100
AcDbEntity
  8
1
  6
Continuous
 62
     7
370
    13
100
AcDbLine
 10
19232.28699718025
 20
13898.33259318249
 30
0.0
 11
19329.48675418031
 21
13898.33259318249
 31
0.0
  0
LINE
  5
6E7A
330
1F
100
AcDbEntity
  8
1
  6
Continuous
 62
     7
370
    13
100
AcDbLine
 10
19232.28699718025
 20
14238.5326336828
 30
0.0
 11
19232.28699718025
 21
14157.5326336828
 31
0.0
  0
LINE
  5
6E7B
330
1F
100
AcDbEntity
  8
1
  6
Continuous
 62
     7
370
    13
100
AcDbLine
 10
19329.48675418031
 20
13979.33259318249
 30
0.0
 11
19329.48675418031
 21
13898.33259318249
 31
0.0
  0
LINE
  5
6E7C
330
1F
100
AcDbEntity
  8
1
  6
Continuous
 62
     7
370
    13
100
AcDbLine
 10
19232.28699718025
 20
13979.33259318249
 30
0.0
 11
19232.28699718025
 21
13898.33259318249
 31
0.0
  0
LINE
  5
6E7D
330
1F
100
AcDbEntity
  8
1
  6
Continuous
 62
     7
370
    13
100
AcDbLine
 10
19369.98675418031
 20
14019.83259318249
 30
0.0
 11
19450.9867541803
 21
14019.83259318249
 31
0.0
  0
LINE
  5
6E7E
330
1F
100
AcDbEntity
  8
1
  6
Continuous
 62
     7
370
    13
100
AcDbLine
 10
19369.98675418031
 20
14117.0326336828
 30
0.0
 11
19450.9867541803
 21
14117.0326336828
 31
0.0
  0
LINE
  5
6E7F
330
1F
100
AcDbEntity
  8
1
  6
Continuous
 62
     7
370
    13
100
AcDbLine
 10
19329.48675418031
 20
14238.5326336828
 30
0.0
 11
19329.48675418031
 21
14157.5326336828
 31
0.0
  0
ARC
  5
6E80
330
1F
100
AcDbEntity
  8
1
  6
Continuous
 62
     7
370
    13
100
AcDbCircle
 10
19369.98675418031
 20
13979.33259318249
 30
0.0
 40
40.49999999999999
100
AcDbArc
 50
90.0
 51
180.0
  0
ARC
  5
6E81
330
1F
100
AcDbEntity
  8
1
  6
Continuous
 62
     7
370
    13
100
AcDbCircle
 10
19191.78699718025
 20
14157.5326336828
 30
0.0
 40
40.49999999999999
100
AcDbArc
 50
270.0
 51
0.0
  0
ARC
  5
6E82
330
1F
100
AcDbEntity
  8
1
  6
Continuous
 62
     7
370
    13
100
AcDbCircle
 10
19369.98675418031
 20
14157.5326336828
 30
0.0
 40
40.49999999999999
100
AcDbArc
 50
180.0
 51
270.0
  0
ARC
  5
6E83
330
1F
100
AcDbEntity
  8
1
  6
Continuous
 62
     7
370
    13
100
AcDbCircle
 10
19191.78699718025
 20
13979.33259318249
 30
0.0
 40
40.49999999999999
100
AcDbArc
 50
0.0
 51
90.0
  0
CIRCLE
  5
6E84
330
1F
100
AcDbEntity
  8
1
  6
Continuous
 62
     7
370
    13
100
AcDbCircle
 10
19280.88687568123
 20
17389.82143368334
 30
0.0
 40
210.5999999999999
  0
LINE
  5
6E85
330
1F
100
AcDbEntity
  8
1
  6
Continuous
 62
     7
370
    13
100
AcDbLine
 10
19450.9867541803
 20
17438.42147418271
 30
0.0
 11
19450.9867541803
 21
17341.22139318304
 31
0.0
  0
LINE
  5
6E86
330
1F
100
AcDbEntity
  8
1
  6
Continuous
 62
     7
370
    13
100
AcDbLine
 10
19110.78699718025
 20
17438.42147418271
 30
0.0
 11
19191.78699718025
 21
17438.42147418271
 31
0.0
  0
LINE
  5
6E87
330
1F
100
AcDbEntity
  8
1
  6
Continuous
 62
     7
370
    13
100
AcDbLine
 10
19232.28699718025
 20
17559.92147418271
 30
0.0
 11
19329.48675418031
 21
17559.92147418271
 31
0.0
  0
LINE
  5
6E88
330
1F
100
AcDbEntity
  8
1
  6
Continuous
 62
     7
370
    13
100
AcDbLine
 10
19232.28699718025
 20
17219.72139318304
 30
0.0
 11
19329.48675418031
 21
17219.72139318304
 31
0.0
  0
LINE
  5
6E89
330
1F
100
AcDbEntity
  8
1
  6
Continuous
 62
     7
370
    13
100
AcDbLine
 10
19232.28699718025
 20
17559.92147418271
 30
0.0
 11
19232.28699718025
 21
17478.92147418271
 31
0.0
  0
LINE
  5
6E8A
330
1F
100
AcDbEntity
  8
1
  6
Continuous
 62
     7
370
    13
100
AcDbLine
 10
19110.78699718025
 20
17341.22139318304
 30
0.0
 11
19191.78699718025
 21
17341.22139318304
 31
0.0
  0
LINE
  5
6E8B
330
1F
100
AcDbEntity
  8
1
  6
Continuous
 62
     7
370
    13
100
AcDbLine
 10
19329.48675418031
 20
17300.72139318304
 30
0.0
 11
19329.48675418031
 21
17219.72139318304
 31
0.0
  0
LINE
  5
6E8C
330
1F
100
AcDbEntity
  8
1
  6
Continuous
 62
     7
370
    13
100
AcDbLine
 10
19232.28699718025
 20
17300.72139318304
 30
0.0
 11
19232.28699718025
 21
17219.72139318304
 31
0.0
  0
LINE
  5
6E8D
330
1F
100
AcDbEntity
  8
1
  6
Continuous
 62
     7
370
    13
100
AcDbLine
 10
19369.98675418031
 20
17341.22139318304
 30
0.0
 11
19450.9867541803
 21
17341.22139318304
 31
0.0
  0
LINE
  5
6E8E
330
1F
100
AcDbEntity
  8
1
  6
Continuous
 62
     7
370
    13
100
AcDbLine
 10
19110.78699718025
 20
17438.42147418271
 30
0.0
 11
19110.78699718025
 21
17341.22139318304
 31
0.0
  0
LINE
  5
6E8F
330
1F
100
AcDbEntity
  8
1
  6
Continuous
 62
     7
370
    13
100
AcDbLine
 10
19369.98675418031
 20
17438.42147418271
 30
0.0
 11
19450.9867541803
 21
17438.42147418271
 31
0.0
  0
LINE
  5
6E90
330
1F
100
AcDbEntity
  8
1
  6
Continuous
 62
     7
370
    13
100
AcDbLine
 10
19329.48675418031
 20
17559.92147418271
 30
0.0
 11
19329.48675418031
 21
17478.92147418271
 31
0.0
  0
ARC
  5
6E91
330
1F
100
AcDbEntity
  8
1
  6
Continuous
 62
     7
370
    13
100
AcDbCircle
 10
19369.98675418031
 20
17300.72139318304
 30
0.0
 40
40.49999999999999
100
AcDbArc
 50
90.0
 51
180.0
  0
ARC
  5
6E92
330
1F
100
AcDbEntity
  8
1
  6
Continuous
 62
     7
370
    13
100
AcDbCircle
 10
19191.78699718025
 20
17478.92147418271
 30
0.0
 40
40.49999999999999
100
AcDbArc
 50
270.0
 51
0.0
  0
ARC
  5
6E93
330
1F
100
AcDbEntity
  8
1
  6
Continuous
 62
     7
370
    13
100
AcDbCircle
 10
19369.98675418031
 20
17478.92147418271
 30
0.0
 40
40.49999999999999
100
AcDbArc
 50
180.0
 51
270.0
  0
ARC
  5
6E94
330
1F
100
AcDbEntity
  8
1
  6
Continuous
 62
     7
370
    13
100
AcDbCircle
 10
19191.78699718025
 20
17300.72139318304
 30
0.0
 40
40.49999999999999
100
AcDbArc
 50
0.0
 51
90.0
  0
CIRCLE
  5
6E95
330
1F
100
AcDbEntity
  8
1
  6
Continuous
 62
     7
370
    13
100
AcDbCircle
 10
16564.61667567977
 20
18928.43263368374
 30
0.0
 40
210.5999999999999
  0
LINE
  5
6E96
330
1F
100
AcDbEntity
  8
1
  6
Continuous
 62
     7
370
    13
100
AcDbLine
 10
16734.71655418074
 20
18977.0326336828
 30
0.0
 11
16734.71655418074
 21
18879.83259318249
 31
0.0
  0
LINE
  5
6E97
330
1F
100
AcDbEntity
  8
1
  6
Continuous
 62
     7
370
    13
100
AcDbLine
 10
16394.51679718069
 20
18977.0326336828
 30
0.0
 11
16475.51679718069
 21
18977.0326336828
 31
0.0
  0
LINE
  5
6E98
330
1F
100
AcDbEntity
  8
1
  6
Continuous
 62
     7
370
    13
100
AcDbLine
 10
16516.01679718069
 20
19098.5326336828
 30
0.0
 11
16613.21655418074
 21
19098.5326336828
 31
0.0
  0
LINE
  5
6E99
330
1F
100
AcDbEntity
  8
1
  6
Continuous
 62
     7
370
    13
100
AcDbLine
 10
16516.01679718069
 20
18758.33259318249
 30
0.0
 11
16613.21655418074
 21
18758.33259318249
 31
0.0
  0
LINE
  5
6E9A
330
1F
100
AcDbEntity
  8
1
  6
Continuous
 62
     7
370
    13
100
AcDbLine
 10
16516.01679718069
 20
19098.5326336828
 30
0.0
 11
16516.01679718069
 21
19017.5326336828
 31
0.0
  0
LINE
  5
6E9B
330
1F
100
AcDbEntity
  8
1
  6
Continuous
 62
     7
370
    13
100
AcDbLine
 10
16394.51679718069
 20
18879.83259318249
 30
0.0
 11
16475.51679718069
 21
18879.83259318249
 31
0.0
  0
LINE
  5
6E9C
330
1F
100
AcDbEntity
  8
1
  6
Continuous
 62
     7
370
    13
100
AcDbLine
 10
16613.21655418074
 20
18839.33259318249
 30
0.0
 11
16613.21655418074
 21
18758.33259318249
 31
0.0
  0
LINE
  5
6E9D
330
1F
100
AcDbEntity
  8
1
  6
Continuous
 62
     7
370
    13
100
AcDbLine
 10
16516.01679718069
 20
18839.33259318249
 30
0.0
 11
16516.01679718069
 21
18758.33259318249
 31
0.0
  0
LINE
  5
6E9E
330
1F
100
AcDbEntity
  8
1
  6
Continuous
 62
     7
370
    13
100
AcDbLine
 10
16653.71655418074
 20
18879.83259318249
 30
0.0
 11
16734.71655418074
 21
18879.83259318249
 31
0.0
  0
LINE
  5
6E9F
330
1F
100
AcDbEntity
  8
1
  6
Continuous
 62
     7
370
    13
100
AcDbLine
 10
16394.51679718069
 20
18977.0326336828
 30
0.0
 11
16394.51679718069
 21
18879.83259318249
 31
0.0
  0
LINE
  5
6EA0
330
1F
100
AcDbEntity
  8
1
  6
Continuous
 62
     7
370
    13
100
AcDbLine
 10
16653.71655418074
 20
18977.0326336828
 30
0.0
 11
16734.71655418074
 21
18977.0326336828
 31
0.0
  0
LINE
  5
6EA1
330
1F
100
AcDbEntity
  8
1
  6
Continuous
 62
     7
370
    13
100
AcDbLine
 10
16613.21655418074
 20
19098.5326336828
 30
0.0
 11
16613.21655418074
 21
19017.5326336828
 31
0.0
  0
ARC
  5
6EA2
330
1F
100
AcDbEntity
  8
1
  6
Continuous
 62
     7
370
    13
100
AcDbCircle
 10
16653.71655418074
 20
18839.33259318249
 30
0.0
 40
40.49999999999999
100
AcDbArc
 50
90.0
 51
180.0
  0
ARC
  5
6EA3
330
1F
100
AcDbEntity
  8
1
  6
Continuous
 62
     7
370
    13
100
AcDbCircle
 10
16475.51679718069
 20
19017.5326336828
 30
0.0
 40
40.49999999999999
100
AcDbArc
 50
270.0
 51
0.0
  0
ARC
  5
6EA4
330
1F
100
AcDbEntity
  8
1
  6
Continuous
 62
     7
370
    13
100
AcDbCircle
 10
16653.71655418074
 20
19017.5326336828
 30
0.0
 40
40.49999999999999
100
AcDbArc
 50
180.0
 51
270.0
  0
ARC
  5
6EA5
330
1F
100
AcDbEntity
  8
1
  6
Continuous
 62
     7
370
    13
100
AcDbCircle
 10
16475.51679718069
 20
18839.33259318249
 30
0.0
 40
40.49999999999999
100
AcDbArc
 50
0.0
 51
90.0
  0
ARC
  5
6EA6
330
1F
100
AcDbEntity
  8
1
  6
Continuous
 62
     7
370
    13
100
AcDbCircle
 10
16564.61667567977
 20
14068.43263368374
 30
0.0
 40
210.5999999999999
100
AcDbArc
 50
60.26794000021827
 51
299.7320599997816
  0
LINE
  5
6EA7
330
1F
100
AcDbEntity
  8
1
  6
Continuous
 62
     7
370
    13
100
AcDbLine
 10
16653.71655418074
 20
14117.0326336828
 30
0.0
 11
16669.06261168012
 21
14117.0326336828
 31
0.0
  0
LINE
  5
6EA8
330
1F
100
AcDbEntity
  8
1
  6
Continuous
 62
     7
370
    13
100
AcDbLine
 10
16653.71655418074
 20
14019.83259318249
 30
0.0
 11
16669.06261168012
 21
14019.83259318249
 31
0.0
  0
LINE
  5
6EA9
330
1F
100
AcDbEntity
  8
1
  6
Continuous
 62
     7
370
    13
100
AcDbLine
 10
19163.86163968121
 20
14117.0326336828
 30
0.0
 11
19191.78699718025
 21
14117.0326336828
 31
0.0
  0
LINE
  5
6EAA
330
1F
100
AcDbEntity
  8
1
  6
Continuous
 62
     7
370
    13
100
AcDbLine
 10
19163.86163968121
 20
14019.83259318249
 30
0.0
 11
19191.78699718025
 21
14019.83259318249
 31
0.0
  0
ARC
  5
6EAB
330
1F
100
AcDbEntity
  8
1
  6
Continuous
 62
     7
370
    13
100
AcDbCircle
 10
19280.88687568123
 20
14068.43263368374
 30
0.0
 40
210.5999999999999
100
AcDbArc
 50
236.2427500007713
 51
123.7572499992286
  0
ARC
  5
6EAC
330
1F
100
AcDbEntity
  8
1
  6
Continuous
 62
     7
370
    13
100
AcDbCircle
 10
18126.06983518038
 20
19846.40243418261
 30
0.0
 40
202.4999999999999
100
AcDbArc
 50
270.0
 51
90.0
  0
LINE
  5
6EAD
330
1F
100
AcDbEntity
  8
1
  6
Continuous
 62
     7
370
    13
100
AcDbLine
 10
17923.56983518038
 20
20048.90243418261
 30
0.0
 11
18126.06983518038
 21
20048.90243418261
 31
0.0
  0
LINE
  5
6EAE
330
1F
100
AcDbEntity
  8
1
  6
Continuous
 62
     7
370
    13
100
AcDbLine
 10
18126.06983518038
 20
19643.90243418261
 30
0.0
 11
17923.56983518038
 21
19643.90243418261
 31
0.0
  0
ARC
  5
6EAF
330
1F
100
AcDbEntity
  8
1
  6
Continuous
 62
     7
370
    13
100
AcDbCircle
 10
17721.06983518038
 20
19846.40243418261
 30
0.0
 40
202.4999999999999
100
AcDbArc
 50
90.0
 51
270.0
  0
LINE
  5
6EB0
330
1F
100
AcDbEntity
  8
1
  6
Continuous
 62
     7
370
    13
100
AcDbLine
 10
17923.56983518038
 20
20048.90243418261
 30
0.0
 11
17721.06983518038
 21
20048.90243418261
 31
0.0
  0
LINE
  5
6EB1
330
1F
100
AcDbEntity
  8
1
  6
Continuous
 62
     7
370
    13
100
AcDbLine
 10
17721.06983518038
 20
19643.90243418261
 30
0.0
 11
17923.56983518038
 21
19643.90243418261
 31
0.0
  0
LINE
  5
6EB2
330
1F
100
AcDbEntity
  8
1
  6
DASHDOT
 62
     7
370
    13
100
AcDbLine
 10
17417.30942668035
 20
19846.40243418261
 30
0.0
 11
18430.64372667943
 21
19846.40243418261
 31
0.0
  0
ARC
  5
6EB3
330
1F
100
AcDbEntity
  8
1
  6
Continuous
 62
     7
370
    13
100
AcDbCircle
 10
18126.06983518038
 20
13080.80275218255
 30
0.0
 40
202.4999999999999
100
AcDbArc
 50
270.0
 51
90.0
  0
LINE
  5
6EB4
330
1F
100
AcDbEntity
  8
1
  6
Continuous
 62
     7
370
    13
100
AcDbLine
 10
17923.56983518038
 20
12878.30275218255
 30
0.0
 11
18126.06983518038
 21
12878.30275218255
 31
0.0
  0
LINE
  5
6EB5
330
1F
100
AcDbEntity
  8
1
  6
Continuous
 62
     7
370
    13
100
AcDbLine
 10
18126.06983518038
 20
13283.30275218255
 30
0.0
 11
17923.56983518038
 21
13283.30275218255
 31
0.0
  0
ARC
  5
6EB6
330
1F
100
AcDbEntity
  8
1
  6
Continuous
 62
     7
370
    13
100
AcDbCircle
 10
17721.06983518038
 20
13080.80275218255
 30
0.0
 40
202.4999999999999
100
AcDbArc
 50
90.0
 51
270.0
  0
LINE
  5
6EB7
330
1F
100
AcDbEntity
  8
1
  6
Continuous
 62
     7
370
    13
100
AcDbLine
 10
17923.56983518038
 20
12878.30275218255
 30
0.0
 11
17721.06983518038
 21
12878.30275218255
 31
0.0
  0
LINE
  5
6EB8
330
1F
100
AcDbEntity
  8
1
  6
Continuous
 62
     7
370
    13
100
AcDbLine
 10
17721.06983518038
 20
13283.30275218255
 30
0.0
 11
17923.56983518038
 21
13283.30275218255
 31
0.0
  0
LINE
  5
6EB9
330
1F
100
AcDbEntity
  8
1
  6
DASHDOT
 62
     7
370
    13
100
AcDbLine
 10
17417.30942668035
 20
13080.80275218255
 30
0.0
 11
18430.64372667943
 21
13080.80275218255
 31
0.0
  0
DIMENSION
  5
6EBA
330
1F
100
AcDbEntity
  8
1
  6
Continuous
 62
     7
370
    13
100
AcDbDimension
  2
*D130
 10
22241.92862668022
 20
13080.80275218255
 30
0.0
 11
21991.92862668021
 21
16463.60259318259
 31
0.0
 70
    32
  1
83.5
 71
     5
 42
6765.599682000058
  3
Standard
100
AcDbAlignedDimension
 13
18592.64372667943
 23
19846.40243418261
 33
0.0
 14
18592.64372667943
 24
13080.80275218255
 34
0.0
 50
270.0
100
AcDbRotatedDimension
1001
ACAD
1000
DSTYLE
1002
{
1070
    41
1040
500.0
1070
    42
1040
50.0
1070
    73
1070
     0
1070
    77
1070
     1
1070
   140
1040
400.0
1070
   147
1040
50.0
1070
   173
1070
     1
1070
   343
1005
2B
1070
   344
1005
2B
1070
   371
1070
    13
1070
   372
1070
    13
1002
}
  0
LINE
  5
6EBB
330
1F
100
AcDbEntity
  8
1
  6
Continuous
 62
     7
370
    13
100
AcDbLine
 10
15483.28364518075
 20
8226.558774182777
 30
0.0
 11
19150.90585168049
 21
8226.558774182777
 31
0.0
  0
TEXT
  5
6EBC
330
1F
100
AcDbEntity
  8
1
  6
Continuous
 62
     7
370
    13
100
AcDbText
 10
16985.63847568075
 20
8319.160381638459
 30
0.0
 40
400.0
  1
45±10
 41
0.6538460000000001
  7
KANJI
100
AcDbText
  0
LINE
  5
6EBD
330
1F
100
AcDbEntity
  8
1
  6
Continuous
 62
     7
370
    13
100
AcDbLine
 10
15483.28364518075
 20
8226.558774182777
 30
0.0
 11
15671.05962718042
 21
8276.873179683651
 31
0.0
  0
LINE
  5
6EBE
330
1F
100
AcDbEntity
  8
1
  6
Continuous
 62
     7
370
    13
100
AcDbLine
 10
15483.28364518075
 20
8226.558774182777
 30
0.0
 11
15671.05962718042
 21
8176.244368683795
 31
0.0
  0
ARC
  5
6EBF
330
1F
100
AcDbEntity
  8
1
  6
Continuous
 62
     7
370
    13
100
AcDbCircle
 10
12263.78272018008
 20
9512.839260183085
 30
0.0
 40
971.0737245000002
100
AcDbArc
 50
210.936889999534
 51
234.533603000024
  0
ARC
  5
6EC0
330
1F
100
AcDbEntity
  8
1
  6
Continuous
 62
     7
370
    13
100
AcDbCircle
 10
11725.01215168048
 20
9184.389322683534
 30
0.0
 40
340.1309474999999
100
AcDbArc
 50
142.5518130002957
 51
210.1376979998358
  0
ARC
  5
6EC1
330
1F
100
AcDbEntity
  8
1
  6
Continuous
 62
     7
370
    13
100
AcDbCircle
 10
9513.225058180164
 20
10746.24711768269
 30
0.0
 40
2367.8172315
100
AcDbArc
 50
325.090958999057
 51
334.7626740004721
  0
ARC
  5
6EC2
330
1F
100
AcDbEntity
  8
1
  6
Continuous
 62
     7
370
    13
100
AcDbCircle
 10
11979.35648518064
 20
9511.841583183748
 30
0.0
 40
969.7237785
100
AcDbArc
 50
210.85971199981
 51
234.5439719995688
  0
ARC
  5
6EC3
330
1F
100
AcDbEntity
  8
1
  6
Continuous
 62
     7
370
    13
100
AcDbCircle
 10
11442.49545117971
 20
9184.568818683009
 30
0.0
 40
341.0432099999999
100
AcDbArc
 50
142.3673390004547
 51
209.9250629999103
  0
ARC
  5
6EC4
330
1F
100
AcDbEntity
  8
1
  6
Continuous
 62
     7
370
    13
100
AcDbCircle
 10
9302.035580681055
 20
10703.73532068233
 30
0.0
 40
2284.0371495
100
AcDbArc
 50
324.9737589991031
 51
335.0243150001337
  0
LINE
  5
6EC5
330
1F
100
AcDbEntity
  8
1
  6
Continuous
 62
     7
370
    13
100
AcDbLine
 10
20365.90585168049
 20
13617.84506418333
 30
0.0
 11
20365.90585168049
 21
9441.558774182777
 31
0.0
  0
LINE
  5
6EC6
330
1F
100
AcDbEntity
  8
1
  6
Continuous
 62
     7
370
    13
100
AcDbLine
 10
20365.90585168049
 20
13617.84506418333
 30
0.0
 11
20416.22025718042
 21
13430.06908218366
 31
0.0
  0
LINE
  5
6EC7
330
1F
100
AcDbEntity
  8
1
  6
Continuous
 62
     7
370
    13
100
AcDbLine
 10
20365.90585168049
 20
13617.84506418333
 30
0.0
 11
20315.59144618053
 21
13430.06908218366
 31
0.0
  0
LINE
  5
6EC8
330
1F
100
AcDbEntity
  8
0
370
    13
100
AcDbLine
 10
808.5261243863788
 20
25618.24770785703
 30
0.0
 11
23388.98379643107
 21
25618.24770785703
 31
0.0
  0
LINE
  5
6EC9
330
1F
100
AcDbEntity
  8
1
  6
Continuous
 62
     7
370
    13
100
AcDbLine
 10
3564.224901948968
 20
25618.24770785703
 30
0.0
 11
3564.224901948968
 21
23781.11518948208
 31
0.0
  0
LINE
  5
6ECA
330
1F
100
AcDbEntity
  8
1
  6
Continuous
 62
     7
370
    13
100
AcDbLine
 10
808.5261243863788
 20
23781.11518948208
 30
0.0
 11
23388.98379642944
 21
23781.11518948208
 31
0.0
  0
LINE
  5
6ECB
330
1F
100
AcDbEntity
  8
1
  6
Continuous
 62
     7
370
    13
100
AcDbLine
 10
808.5261243863788
 20
25618.24770785703
 30
0.0
 11
808.5261243863788
 21
538.2916830669273
 31
0.0
  0
LINE
  5
6ECC
330
1F
100
AcDbEntity
  8
0
370
    13
100
AcDbLine
 10
808.5261243863788
 20
538.2916830669273
 30
0.0
 11
23388.98379643107
 21
538.2916830669273
 31
0.0
  0
LINE
  5
6ECD
330
1F
100
AcDbEntity
  8
1
  6
Continuous
 62
     7
370
    13
100
AcDbLine
 10
23388.98379643107
 20
25618.24770785703
 30
0.0
 11
23388.98379643107
 21
538.2916830669273
 31
0.0
  0
TEXT
  5
6ECE
330
1F
100
AcDbEntity
  8
1
  6
Continuous
 62
     7
370
    13
100
AcDbText
 10
3880.352063744823
 20
24414.05688342244
 30
0.0
 40
741.8776780800004
  1
操作表示器　Ｂ－９６１５Ｆ
 41
0.8
  7
KANJI
100
AcDbText
  0
LINE
  5
6ECF
330
1F
100
AcDbEntity
  8
1
  6
Continuous
 62
     7
370
    13
100
AcDbLine
 10
1654.504082148225
 20
24289.4983877669
 30
0.0
 11
2672.075692367769
 21
24289.4983877669
 31
0.0
  0
LINE
  5
6ED0
330
1F
100
AcDbEntity
  8
1
  6
Continuous
 62
     7
370
    13
100
AcDbLine
 10
1654.504082148225
 20
25203.93149856163
 30
0.0
 11
1654.504082148225
 21
24289.4983877669
 31
0.0
  0
LINE
  5
6ED1
330
1F
100
AcDbEntity
  8
1
  6
Continuous
 62
     7
370
    13
100
AcDbLine
 10
2672.075692367769
 20
24289.4983877669
 30
0.0
 11
2672.075692367769
 21
25203.93149856163
 31
0.0
  0
LINE
  5
6ED2
330
1F
100
AcDbEntity
  8
1
  6
Continuous
 62
     7
370
    13
100
AcDbLine
 10
2672.075692367769
 20
25203.93149856163
 30
0.0
 11
1654.504082148225
 21
25203.93149856163
 31
0.0
  0
TEXT
  5
6ED3
330
1F
100
AcDbEntity
  8
1
  6
Continuous
 62
     7
370
    13
100
AcDbText
 10
1846.446279077819
 20
24361.09845469845
 30
0.0
 40
750.6975222699594
  1
Ｂ
 41
0.9166669999999999
  7
KANJI
100
AcDbText
  0
TEXT
  5
6ED4
330
1F
100
AcDbEntity
  8
1
  6
Continuous
 62
     7
370
    13
100
AcDbText
 10
2921.58964837229
 20
4821.814417984235
 30
0.0
 40
423.007619611172
  1
重　量
 41
0.8872049999999999
  7
KANJI
100
AcDbText
  0
TEXT
  5
6ED5
330
1F
100
AcDbEntity
  8
1
  6
Continuous
 62
     7
370
    13
100
AcDbText
 10
2921.58964837229
 20
4232.413274180362
 30
0.0
 40
423.007619611172
  1
入力電源
 41
0.8872049999999999
  7
KANJI
100
AcDbText
  0
TEXT
  5
6ED6
330
1F
100
AcDbEntity
  8
1
  6
Continuous
 62
     7
370
    13
100
AcDbText
 10
2921.58964837229
 20
6070.270924411904
 30
0.0
 40
423.007619611172
  1
材　質
 41
0.8872049999999999
  7
KANJI
100
AcDbText
  0
TEXT
  5
6ED7
330
1F
100
AcDbEntity
  8
1
  6
Continuous
 62
     7
370
    13
100
AcDbText
 10
2921.58964837229
 20
5460.072833902916
 30
0.0
 40
423.007619611172
  1
彩　色
 41
0.8872049999999999
  7
KANJI
100
AcDbText
  0
TEXT
  5
6ED8
330
1F
100
AcDbEntity
  8
1
  6
Continuous
 62
     7
370
    13
100
AcDbText
 10
5467.165806895151
 20
4825.045264353844
 30
0.0
 40
423.007619611172
  1
約７０ｇ
 41
0.8872049999999999
  7
KANJI
100
AcDbText
  0
TEXT
  5
6ED9
330
1F
100
AcDbEntity
  8
1
  6
Continuous
 62
     7
370
    13
100
AcDbText
 10
5466.562075071532
 20
4232.413274180362
 30
0.0
 40
423.007619611172
  1
電気錠制御盤より供給
 41
0.8872049999999999
  7
KANJI
100
AcDbText
  0
TEXT
  5
6EDA
330
1F
100
AcDbEntity
  8
1
  6
Continuous
 62
     7
370
    13
100
AcDbText
 10
5467.165806895151
 20
5463.303680269178
 30
0.0
 40
423.007619611172
  1
ライトグレー
 41
0.8872049999999999
  7
KANJI
100
AcDbText
  0
TEXT
  5
6EDB
330
1F
100
AcDbEntity
  8
1
  6
Continuous
 62
     7
370
    13
100
AcDbText
 10
5467.066351663118
 20
6072.711560407261
 30
0.0
 40
423.007619611172
  1
樹　脂
 41
0.8872049999999999
  7
KANJI
100
AcDbText
  0
TEXT
  5
6EDC
330
1F
100
AcDbEntity
  8
1
  6
Continuous
 62
     7
370
    13
100
AcDbText
 10
12799.32741071962
 20
6680.172493516685
 30
0.0
 40
423.007619611172
  1
内　容
 41
0.8872049999999999
  7
KANJI
100
AcDbText
  0
LINE
  5
6EDD
330
1F
100
AcDbEntity
  8
1
  6
Continuous
 62
     7
370
    13
100
AcDbLine
 10
2526.196599586896
 20
7161.734173463061
 30
0.0
 11
20528.1943573179
 21
7161.734173463061
 31
0.0
  0
LINE
  5
6EDE
330
1F
100
AcDbEntity
  8
1
  6
Continuous
 62
     7
370
    13
100
AcDbLine
 10
2526.196599586896
 20
6556.460785362215
 30
0.0
 11
20528.1943573179
 21
6556.460785362215
 31
0.0
  0
LINE
  5
6EDF
330
1F
100
AcDbEntity
  8
1
  6
Continuous
 62
     7
370
    13
100
AcDbLine
 10
20528.1943573179
 20
7161.734173463061
 30
0.0
 11
20528.1943573179
 21
2319.547068652762
 31
0.0
  0
LINE
  5
6EE0
330
1F
100
AcDbEntity
  8
1
  6
Continuous
 62
     7
370
    13
100
AcDbLine
 10
2526.196599586896
 20
5951.187397257964
 30
0.0
 11
20528.1943573179
 21
5951.187397257964
 31
0.0
  0
LINE
  5
6EE1
330
1F
100
AcDbEntity
  8
1
  6
Continuous
 62
     7
370
    13
100
AcDbLine
 10
2526.196599586896
 20
5345.914009160493
 30
0.0
 11
20528.1943573179
 21
5345.914009160493
 31
0.0
  0
LINE
  5
6EE2
330
1F
100
AcDbEntity
  8
1
  6
Continuous
 62
     7
370
    13
100
AcDbLine
 10
2526.196599586896
 20
4740.640621056212
 30
0.0
 11
20528.1943573179
 21
4740.640621056212
 31
0.0
  0
LINE
  5
6EE3
330
1F
100
AcDbEntity
  8
1
  6
Continuous
 62
     7
370
    13
100
AcDbLine
 10
2526.196599586896
 20
4135.367232955338
 30
0.0
 11
20528.1943573179
 21
4135.367232955338
 31
0.0
  0
TEXT
  5
6EE4
330
1F
100
AcDbEntity
  8
1
  6
Continuous
 62
     7
370
    13
100
AcDbText
 10
3216.670708281017
 20
6679.184295596366
 30
0.0
 40
423.007619611172
  1
項　目
 41
0.944444
  7
KANJI
100
AcDbText
  0
LINE
  5
6EE5
330
1F
100
AcDbEntity
  8
1
  6
Continuous
 62
     7
370
    13
100
AcDbLine
 10
5177.637446159293
 20
7161.734173463061
 30
0.0
 11
5177.637446159293
 21
2319.547068652762
 31
0.0
  0
LINE
  5
6EE6
330
1F
100
AcDbEntity
  8
1
  6
Continuous
 62
     7
370
    13
100
AcDbLine
 10
2526.196599586896
 20
7161.734173463061
 30
0.0
 11
2526.196599586896
 21
2319.547068652762
 31
0.0
  0
TEXT
  5
6EE7
330
1F
100
AcDbEntity
  8
1
  6
Continuous
 62
     7
370
    13
100
AcDbText
 10
2921.58964837229
 20
3611.267641784165
 30
0.0
 40
423.007619611172
  1
使用環境温度
 41
0.7
  7
KANJI
100
AcDbText
  0
TEXT
  5
6EE8
330
1F
100
AcDbEntity
  8
1
  6
Continuous
 62
     7
370
    13
100
AcDbText
 10
2921.58964837229
 20
3021.866497980292
 30
0.0
 40
423.007619611172
  1
設置場所
 41
0.8872049999999999
  7
KANJI
100
AcDbText
  0
TEXT
  5
6EE9
330
1F
100
AcDbEntity
  8
1
  6
Continuous
 62
     7
370
    13
100
AcDbText
 10
5467.165806895151
 20
3614.498488153775
 30
0.0
 40
423.007619611172
  1
０℃～４０℃(結露なきこと）
 41
0.8872049999999999
  7
KANJI
100
AcDbText
  0
TEXT
  5
6EEA
330
1F
100
AcDbEntity
  8
1
  6
Continuous
 62
     7
370
    13
100
AcDbText
 10
5466.562075071532
 20
3021.866497980292
 30
0.0
 40
423.007619611172
  1
屋　内
 41
0.8872049999999999
  7
KANJI
100
AcDbText
  0
LINE
  5
6EEB
330
1F
100
AcDbEntity
  8
1
  6
Continuous
 62
     7
370
    13
100
AcDbLine
 10
2526.196599586896
 20
3530.093844854455
 30
0.0
 11
20528.1943573179
 21
3530.093844854455
 31
0.0
  0
LINE
  5
6EEC
330
1F
100
AcDbEntity
  8
1
  6
Continuous
 62
     7
370
    13
100
AcDbLine
 10
2526.196599586896
 20
2924.820456753608
 30
0.0
 11
20528.1943573179
 21
2924.820456753608
 31
0.0
  0
TEXT
  5
6EED
330
1F
100
AcDbEntity
  8
1
  6
Continuous
 62
     7
370
    13
100
AcDbText
 10
5466.562075071532
 20
2441.705430890244
 30
0.0
 40
423.007619611172
  1
※１コ用スイッチボックスに取付可能
 41
0.8872049999999999
  7
KANJI
100
AcDbText
  0
LINE
  5
6EEE
330
1F
100
AcDbEntity
  8
1
  6
Continuous
 62
     7
370
    13
100
AcDbLine
 10
2526.196599586896
 20
2319.547068652762
 30
0.0
 11
20528.1943573179
 21
2319.547068652762
 31
0.0
  0
ENDSEC
  0
SECTION
  2
OBJECTS
  0
DICTIONARY
  5
C
330
0
100
AcDbDictionary
281
     1
  3
ACAD_GROUP
350
D
  3
ACAD_LAYOUT
350
1A
  3
ACAD_MLINESTYLE
350
17
  3
ACAD_PLOTSETTINGS
350
19
  3
ACAD_PLOTSTYLENAME
350
E
  3
AcDbVariableDictionary
350
932
  0
DICTIONARY
  5
5A
330
2
100
AcDbDictionary
280
     1
281
     1
  3
ACAD_LAYERSTATES
360
5B
  0
DICTIONARY
  5
D
102
{ACAD_REACTORS
330
C
102
}
330
C
100
AcDbDictionary
281
     1
  0
DICTIONARY
  5
1A
102
{ACAD_REACTORS
330
C
102
}
330
C
100
AcDbDictionary
281
     1
  3
Model
350
22
  3
ﾚｲｱｳﾄ1
350
1E
  3
ﾚｲｱｳﾄ2
350
26
  0
DICTIONARY
  5
17
102
{ACAD_REACTORS
330
C
102
}
330
C
100
AcDbDictionary
281
     1
  3
Standard
350
18
  0
DICTIONARY
  5
19
102
{ACAD_REACTORS
330
C
102
}
330
C
100
AcDbDictionary
281
     1
  0
ACDBDICTIONARYWDFLT
  5
E
102
{ACAD_REACTORS
330
C
102
}
330
C
100
AcDbDictionary
281
     1
  3
Normal
350
F
100
AcDbDictionaryWithDefault
340
F
  0
DICTIONARY
  5
932
102
{ACAD_REACTORS
330
C
102
}
330
C
100
AcDbDictionary
281
     1
  3
DIMASSOC
350
934
  3
HIDETEXT
350
933
  0
DICTIONARY
  5
5B
102
{ACAD_REACTORS
330
5A
102
}
330
5A
100
AcDbDictionary
281
     1
  0
LAYOUT
  5
22
102
{ACAD_REACTORS
330
1A
102
}
330
1A
100
AcDbPlotSettings
  1

  2
DocuCentre a235
  4

  6

 40
0.0
 41
0.0
 42
0.0
 43
0.0
 44
0.0
 45
0.0
 46
0.0
 47
0.0
 48
0.0
 49
0.0
140
0.0
141
0.0
142
1.0
143
1.0
 70
  1712
 72
     0
 73
     0
 74
     0
  7

 75
     0
147
1.0
148
0.0
149
0.0
100
AcDbLayout
  1
Model
 70
     1
 71
     0
 10
0.0
 20
0.0
 11
12.0
 21
9.0
 12
0.0
 22
0.0
 32
0.0
 14
0.0
 24
0.0
 34
0.0
 15
0.0
 25
0.0
 35
0.0
146
0.0
 13
0.0
 23
0.0
 33
0.0
 16
1.0
 26
0.0
 36
0.0
 17
0.0
 27
1.0
 37
0.0
 76
     0
330
1F
  0
LAYOUT
  5
1E
102
{ACAD_REACTORS
330
1A
102
}
330
1A
100
AcDbPlotSettings
  1

  2
DocuCentre a235
  4

  6

 40
0.0
 41
0.0
 42
0.0
 43
0.0
 44
0.0
 45
0.0
 46
0.0
 47
0.0
 48
0.0
 49
0.0
140
0.0
141
0.0
142
1.0
143
1.0
 70
   688
 72
     0
 73
     0
 74
     5
  7

 75
    16
147
1.0
148
0.0
149
0.0
100
AcDbLayout
  1
ﾚｲｱｳﾄ1
 70
     1
 71
     1
 10
0.0
 20
0.0
 11
420.0
 21
297.0
 12
0.0
 22
0.0
 32
0.0
 14
1.000000000000000E+20
 24
1.000000000000000E+20
 34
1.000000000000000E+20
 15
-1.000000000000000E+20
 25
-1.000000000000000E+20
 35
-1.000000000000000E+20
146
0.0
 13
0.0
 23
0.0
 33
0.0
 16
1.0
 26
0.0
 36
0.0
 17
0.0
 27
1.0
 37
0.0
 76
     0
330
1B
  0
LAYOUT
  5
26
102
{ACAD_REACTORS
330
1A
102
}
330
1A
100
AcDbPlotSettings
  1

  2
DocuCentre a235
  4

  6

 40
0.0
 41
0.0
 42
0.0
 43
0.0
 44
0.0
 45
0.0
 46
0.0
 47
0.0
 48
0.0
 49
0.0
140
0.0
141
0.0
142
1.0
143
1.0
 70
   688
 72
     0
 73
     0
 74
     5
  7

 75
    16
147
1.0
148
0.0
149
0.0
100
AcDbLayout
  1
ﾚｲｱｳﾄ2
 70
     1
 71
     2
 10
0.0
 20
0.0
 11
12.0
 21
9.0
 12
0.0
 22
0.0
 32
0.0
 14
0.0
 24
0.0
 34
0.0
 15
0.0
 25
0.0
 35
0.0
146
0.0
 13
0.0
 23
0.0
 33
0.0
 16
1.0
 26
0.0
 36
0.0
 17
0.0
 27
1.0
 37
0.0
 76
     0
330
23
  0
MLINESTYLE
  5
18
102
{ACAD_REACTORS
330
17
102
}
330
17
100
AcDbMlineStyle
  2
STANDARD
 70
     0
  3

 62
   256
 51
90.0
 52
90.0
 71
     2
 49
0.5
 62
   256
  6
BYLAYER
 49
-0.5
 62
   256
  6
BYLAYER
  0
ACDBPLACEHOLDER
  5
F
102
{ACAD_REACTORS
330
E
102
}
330
E
  0
DICTIONARYVAR
  5
934
102
{ACAD_REACTORS
330
932
102
}
330
932
100
DictionaryVariables
280
     0
  1
2
  0
DICTIONARYVAR
  5
933
102
{ACAD_REACTORS
330
932
102
}
330
932
100
DictionaryVariables
280
     0
  1
1
  0
ENDSEC
  0
EOF
