  0
SECTION
  2
HEADER
  9
$ACADVER
  1
AC1015
  9
$ACADMAINTVER
 70
    13
  9
$DWGCODEPAGE
  3
ANSI_932
  9
$INSBASE
 10
0.0
 20
0.0
 30
0.0
  9
$EXTMIN
 10
1406.403542214771
 20
566.8131529631501
 30
0.0
  9
$EXTMAX
 10
23986.86121425946
 20
25646.76917775325
 30
0.0
  9
$LIMMIN
 10
0.0
 20
0.0
  9
$LIMMAX
 10
420.0
 20
297.0
  9
$ORTHOMODE
 70
     0
  9
$REGENMODE
 70
     1
  9
$FILLMODE
 70
     1
  9
$QTEXTMODE
 70
     0
  9
$MIRRTEXT
 70
     1
  9
$LTSCALE
 40
1.0
  9
$ATTMODE
 70
     1
  9
$TEXTSIZE
 40
2.5
  9
$TRACEWID
 40
1.0
  9
$TEXTSTYLE
  7
Standard
  9
$CLAYER
  8
0
  9
$CELTYPE
  6
ByLayer
  9
$CECOLOR
 62
   256
  9
$CELTSCALE
 40
1.0
  9
$DISPSILH
 70
     0
  9
$DIMSCALE
 40
1.0
  9
$DIMASZ
 40
2.5
  9
$DIMEXO
 40
0.625
  9
$DIMDLI
 40
3.75
  9
$DIMRND
 40
0.0
  9
$DIMDLE
 40
0.0
  9
$DIMEXE
 40
1.25
  9
$DIMTP
 40
0.0
  9
$DIMTM
 40
0.0
  9
$DIMTXT
 40
2.5
  9
$DIMCEN
 40
2.5
  9
$DIMTSZ
 40
0.0
  9
$DIMTOL
 70
     0
  9
$DIMLIM
 70
     0
  9
$DIMTIH
 70
     0
  9
$DIMTOH
 70
     0
  9
$DIMSE1
 70
     0
  9
$DIMSE2
 70
     0
  9
$DIMTAD
 70
     1
  9
$DIMZIN
 70
     8
  9
$DIMBLK
  1

  9
$DIMASO
 70
     1
  9
$DIMSHO
 70
     1
  9
$DIMPOST
  1

  9
$DIMAPOST
  1

  9
$DIMALT
 70
     0
  9
$DIMALTD
 70
     3
  9
$DIMALTF
 40
0.03937007874016
  9
$DIMLFAC
 40
1.0
  9
$DIMTOFL
 70
     1
  9
$DIMTVP
 40
0.0
  9
$DIMTIX
 70
     0
  9
$DIMSOXD
 70
     0
  9
$DIMSAH
 70
     0
  9
$DIMBLK1
  1

  9
$DIMBLK2
  1

  9
$DIMSTYLE
  2
ISO-25
  9
$DIMCLRD
 70
     0
  9
$DIMCLRE
 70
     0
  9
$DIMCLRT
 70
     0
  9
$DIMTFAC
 40
1.0
  9
$DIMGAP
 40
0.625
  9
$DIMJUST
 70
     0
  9
$DIMSD1
 70
     0
  9
$DIMSD2
 70
     0
  9
$DIMTOLJ
 70
     0
  9
$DIMTZIN
 70
     8
  9
$DIMALTZ
 70
     0
  9
$DIMALTTZ
 70
     0
  9
$DIMUPT
 70
     0
  9
$DIMDEC
 70
     2
  9
$DIMTDEC
 70
     2
  9
$DIMALTU
 70
     2
  9
$DIMALTTD
 70
     3
  9
$DIMTXSTY
  7
Standard
  9
$DIMAUNIT
 70
     0
  9
$DIMADEC
 70
     0
  9
$DIMALTRND
 40
0.0
  9
$DIMAZIN
 70
     0
  9
$DIMDSEP
 70
    46
  9
$DIMATFIT
 70
     3
  9
$DIMFRAC
 70
     0
  9
$DIMLDRBLK
  1

  9
$DIMLUNIT
 70
     2
  9
$DIMLWD
 70
    -2
  9
$DIMLWE
 70
    -2
  9
$DIMTMOVE
 70
     0
  9
$LUNITS
 70
     2
  9
$LUPREC
 70
     4
  9
$SKETCHINC
 40
1.0
  9
$FILLETRAD
 40
10.0
  9
$AUNITS
 70
     0
  9
$AUPREC
 70
     0
  9
$MENU
  1
.
  9
$ELEVATION
 40
0.0
  9
$PELEVATION
 40
0.0
  9
$THICKNESS
 40
0.0
  9
$LIMCHECK
 70
     0
  9
$CHAMFERA
 40
10.0
  9
$CHAMFERB
 40
10.0
  9
$CHAMFERC
 40
20.0
  9
$CHAMFERD
 40
0.0
  9
$SKPOLY
 70
     0
  9
$TDCREATE
 40
2455236.659162499
  9
$TDUCREATE
 40
2455236.284162499
  9
$TDUPDATE
 40
2455450.584330775
  9
$TDUUPDATE
 40
2455450.209330775
  9
$TDINDWG
 40
0.0107225116
  9
$TDUSRTIMER
 40
0.0107223264
  9
$USRTIMER
 70
     1
  9
$ANGBASE
 50
0.0
  9
$ANGDIR
 70
     0
  9
$PDMODE
 70
     0
  9
$PDSIZE
 40
0.0
  9
$PLINEWID
 40
0.0
  9
$SPLFRAME
 70
     0
  9
$SPLINETYPE
 70
     6
  9
$SPLINESEGS
 70
     8
  9
$HANDSEED
  5
6916
  9
$SURFTAB1
 70
     6
  9
$SURFTAB2
 70
     6
  9
$SURFTYPE
 70
     6
  9
$SURFU
 70
     6
  9
$SURFV
 70
     6
  9
$UCSBASE
  2

  9
$UCSNAME
  2

  9
$UCSORG
 10
0.0
 20
0.0
 30
0.0
  9
$UCSXDIR
 10
1.0
 20
0.0
 30
0.0
  9
$UCSYDIR
 10
0.0
 20
1.0
 30
0.0
  9
$UCSORTHOREF
  2

  9
$UCSORTHOVIEW
 70
     0
  9
$UCSORGTOP
 10
0.0
 20
0.0
 30
0.0
  9
$UCSORGBOTTOM
 10
0.0
 20
0.0
 30
0.0
  9
$UCSORGLEFT
 10
0.0
 20
0.0
 30
0.0
  9
$UCSORGRIGHT
 10
0.0
 20
0.0
 30
0.0
  9
$UCSORGFRONT
 10
0.0
 20
0.0
 30
0.0
  9
$UCSORGBACK
 10
0.0
 20
0.0
 30
0.0
  9
$PUCSBASE
  2

  9
$PUCSNAME
  2

  9
$PUCSORG
 10
0.0
 20
0.0
 30
0.0
  9
$PUCSXDIR
 10
1.0
 20
0.0
 30
0.0
  9
$PUCSYDIR
 10
0.0
 20
1.0
 30
0.0
  9
$PUCSORTHOREF
  2

  9
$PUCSORTHOVIEW
 70
     0
  9
$PUCSORGTOP
 10
0.0
 20
0.0
 30
0.0
  9
$PUCSORGBOTTOM
 10
0.0
 20
0.0
 30
0.0
  9
$PUCSORGLEFT
 10
0.0
 20
0.0
 30
0.0
  9
$PUCSORGRIGHT
 10
0.0
 20
0.0
 30
0.0
  9
$PUCSORGFRONT
 10
0.0
 20
0.0
 30
0.0
  9
$PUCSORGBACK
 10
0.0
 20
0.0
 30
0.0
  9
$USERI1
 70
     0
  9
$USERI2
 70
     0
  9
$USERI3
 70
     0
  9
$USERI4
 70
     0
  9
$USERI5
 70
     0
  9
$USERR1
 40
0.0
  9
$USERR2
 40
0.0
  9
$USERR3
 40
0.0
  9
$USERR4
 40
0.0
  9
$USERR5
 40
0.0
  9
$WORLDVIEW
 70
     1
  9
$SHADEDGE
 70
     3
  9
$SHADEDIF
 70
    70
  9
$TILEMODE
 70
     1
  9
$MAXACTVP
 70
    64
  9
$PINSBASE
 10
0.0
 20
0.0
 30
0.0
  9
$PLIMCHECK
 70
     0
  9
$PEXTMIN
 10
1.000000000000000E+20
 20
1.000000000000000E+20
 30
1.000000000000000E+20
  9
$PEXTMAX
 10
-1.000000000000000E+20
 20
-1.000000000000000E+20
 30
-1.000000000000000E+20
  9
$PLIMMIN
 10
0.0
 20
0.0
  9
$PLIMMAX
 10
420.0
 20
297.0
  9
$UNITMODE
 70
     0
  9
$VISRETAIN
 70
     1
  9
$PLINEGEN
 70
     0
  9
$PSLTSCALE
 70
     1
  9
$TREEDEPTH
 70
  3020
  9
$CMLSTYLE
  2
Standard
  9
$CMLJUST
 70
     0
  9
$CMLSCALE
 40
20.0
  9
$PROXYGRAPHICS
 70
     1
  9
$MEASUREMENT
 70
     1
  9
$CELWEIGHT
370
    -1
  9
$ENDCAPS
280
     0
  9
$JOINSTYLE
280
     0
  9
$LWDISPLAY
290
     0
  9
$INSUNITS
 70
     4
  9
$HYPERLINKBASE
  1

  9
$STYLESHEET
  1

  9
$XEDIT
290
     1
  9
$CEPSNTYPE
380
     0
  9
$PSTYLEMODE
290
     1
  9
$FINGERPRINTGUID
  2
{9F70917D-061E-40C1-9485-7AD4368FB371}
  9
$VERSIONGUID
  2
{223E8492-78CA-48A3-97E0-3114F04518D6}
  9
$EXTNAMES
290
     1
  9
$PSVPSCALE
 40
0.0
  9
$OLESTARTUP
290
     0
  0
ENDSEC
  0
SECTION
  2
CLASSES
  0
CLASS
  1
ACDBDICTIONARYWDFLT
  2
AcDbDictionaryWithDefault
  3
AutoCAD 2000
 90
        0
280
     0
281
     0
  0
CLASS
  1
ACDBPLACEHOLDER
  2
AcDbPlaceHolder
  3
AutoCAD 2000
 90
        0
280
     0
281
     0
  0
CLASS
  1
LAYOUT
  2
AcDbLayout
  3
AutoCAD 2000
 90
        0
280
     0
281
     0
  0
CLASS
  1
DICTIONARYVAR
  2
AcDbDictionaryVar
  3
AutoCAD 2000
 90
        0
280
     0
281
     0
  0
ENDSEC
  0
SECTION
  2
TABLES
  0
TABLE
  2
VPORT
  5
8
330
0
100
AcDbSymbolTable
 70
     2
  0
VPORT
  5
6915
330
8
100
AcDbSymbolTableRecord
100
AcDbViewportTableRecord
  2
*Active
 70
     0
 10
0.0
 20
0.0
 11
1.0
 21
1.0
 12
31783.18654450825
 22
18687.58998848722
 13
0.0
 23
0.0
 14
10.0
 24
10.0
 15
10.0
 25
10.0
 16
0.0
 26
0.0
 36
1.0
 17
0.0
 27
0.0
 37
0.0
 40
39515.77914026193
 41
1.663244353182751
 42
50.0
 43
0.0
 44
0.0
 50
0.0
 51
0.0
 71
     0
 72
   100
 73
     1
 74
     3
 75
     0
 76
     0
 77
     0
 78
     0
281
     0
 65
     1
110
0.0
120
0.0
130
0.0
111
1.0
121
0.0
131
0.0
112
0.0
122
1.0
132
0.0
 79
     0
146
0.0
  0
ENDTAB
  0
TABLE
  2
LTYPE
  5
5
330
0
100
AcDbSymbolTable
 70
     4
  0
LTYPE
  5
14
330
5
100
AcDbSymbolTableRecord
100
AcDbLinetypeTableRecord
  2
ByBlock
 70
     0
  3

 72
    65
 73
     0
 40
0.0
  0
LTYPE
  5
15
330
5
100
AcDbSymbolTableRecord
100
AcDbLinetypeTableRecord
  2
ByLayer
 70
     0
  3

 72
    65
 73
     0
 40
0.0
  0
LTYPE
  5
16
330
5
100
AcDbSymbolTableRecord
100
AcDbLinetypeTableRecord
  2
Continuous
 70
     0
  3
Solid line
 72
    65
 73
     0
 40
0.0
  0
LTYPE
  5
1294
330
5
100
AcDbSymbolTableRecord
100
AcDbLinetypeTableRecord
  2
HIDDEN
 70
     0
  3
------------------------
 72
    65
 73
     2
 40
12.6
 49
8.4
 74
     0
 49
-4.2
 74
     0
  0
LTYPE
  5
1878
330
5
100
AcDbSymbolTableRecord
100
AcDbLinetypeTableRecord
  2
DASHDOT
 70
     0
  3
--･--･--･--･--･--･--･--
 72
    65
 73
     4
 40
50.5
 49
30.0
 74
     0
 49
-9.0
 74
     0
 49
2.5
 74
     0
 49
-9.0
 74
     0
  0
LTYPE
  5
1B41
330
5
100
AcDbSymbolTableRecord
100
AcDbLinetypeTableRecord
  2
DIVIDE
 70
     0
  3
--･･--･･--･･--･･--･･--
 72
    65
 73
     6
 40
58.0
 49
30.0
 74
     0
 49
-9.0
 74
     0
 49
2.5
 74
     0
 49
-5.0
 74
     0
 49
2.5
 74
     0
 49
-9.0
 74
     0
  0
ENDTAB
  0
TABLE
  2
LAYER
  5
2
102
{ACAD_XDICTIONARY
360
5A
102
}
330
0
100
AcDbSymbolTable
 70
     3
  0
LAYER
  5
10
330
2
100
AcDbSymbolTableRecord
100
AcDbLayerTableRecord
  2
0
 70
     0
 62
     7
  6
Continuous
370
    -3
390
F
  0
LAYER
  5
55
330
2
100
AcDbSymbolTableRecord
100
AcDbLayerTableRecord
  2
1
 70
     0
 62
     7
  6
Continuous
370
    -3
390
F
  0
LAYER
  5
56
330
2
100
AcDbSymbolTableRecord
100
AcDbLayerTableRecord
  2
DEFPOINTS
 70
     0
 62
     7
  6
Continuous
290
     0
370
    -3
390
F
  0
ENDTAB
  0
TABLE
  2
STYLE
  5
3
330
0
100
AcDbSymbolTable
 70
     2
  0
STYLE
  5
11
330
3
100
AcDbSymbolTableRecord
100
AcDbTextStyleTableRecord
  2
Standard
 70
     0
 40
0.0
 41
1.0
 50
0.0
 71
     0
 42
2.5
  3
txt
  4

  0
STYLE
  5
57
330
3
100
AcDbSymbolTableRecord
100
AcDbTextStyleTableRecord
  2
KANJI
 70
     0
 40
0.0
 41
1.0
 50
0.0
 71
     0
 42
0.2
  3
TXT
  4
BIGFONT
  0
ENDTAB
  0
TABLE
  2
VIEW
  5
6
330
0
100
AcDbSymbolTable
 70
     0
  0
ENDTAB
  0
TABLE
  2
UCS
  5
7
330
0
100
AcDbSymbolTable
 70
     0
  0
ENDTAB
  0
TABLE
  2
APPID
  5
9
330
0
100
AcDbSymbolTable
 70
     2
  0
APPID
  5
12
330
9
100
AcDbSymbolTableRecord
100
AcDbRegAppTableRecord
  2
ACAD
 70
     0
  0
APPID
  5
59
330
9
100
AcDbSymbolTableRecord
100
AcDbRegAppTableRecord
  2
ACAD_PSEXT
 70
     0
  0
ENDTAB
  0
TABLE
  2
DIMSTYLE
  5
A
330
0
100
AcDbSymbolTable
 70
     2
100
AcDbDimStyleTable
 71
     0
  0
DIMSTYLE
105
27
330
A
100
AcDbSymbolTableRecord
100
AcDbDimStyleTableRecord
  2
ISO-25
 70
     0
 41
2.5
 42
0.625
 43
3.75
 44
1.25
 73
     0
 74
     0
 77
     1
 78
     8
140
2.5
141
2.5
143
0.03937007874016
147
0.625
171
     3
172
     1
271
     2
272
     2
274
     3
283
     0
284
     8
340
11
  0
DIMSTYLE
105
58
102
{ACAD_REACTORS
330
6883
330
6884
330
6885
330
6886
330
6887
102
}
330
A
100
AcDbSymbolTableRecord
100
AcDbDimStyleTableRecord
  2
Standard
 70
     0
340
11
  0
ENDTAB
  0
TABLE
  2
BLOCK_RECORD
  5
1
330
0
100
AcDbSymbolTable
 70
   121
  0
BLOCK_RECORD
  5
1F
330
1
100
AcDbSymbolTableRecord
100
AcDbBlockTableRecord
  2
*Model_Space
340
22
  0
BLOCK_RECORD
  5
1B
330
1
100
AcDbSymbolTableRecord
100
AcDbBlockTableRecord
  2
*Paper_Space
340
1E
  0
BLOCK_RECORD
  5
23
330
1
100
AcDbSymbolTableRecord
100
AcDbBlockTableRecord
  2
*Paper_Space0
340
26
  0
BLOCK_RECORD
  5
2B
330
1
100
AcDbSymbolTableRecord
100
AcDbBlockTableRecord
  2
_OPEN30
340
0
102
{BLKREFS
331
1253
331
1254
331
125C
331
125D
331
1265
331
1266
331
1274
331
1275
331
1280
331
1281
331
128C
331
128D
331
1560
331
1561
331
1569
331
156A
331
1572
331
1573
331
157D
331
157E
331
1589
331
158A
331
1595
331
1596
331
1822
331
1823
331
182B
331
182C
331
1834
331
1835
331
183F
331
1840
331
184B
331
184C
331
1858
331
1859
331
1864
331
1865
331
1870
331
1871
331
1ABF
331
1AC0
331
1AC8
331
1AC9
331
1AD2
331
1AD3
331
1ADB
331
1ADC
331
1AE4
331
1AE5
331
1AEF
331
1AF0
331
1AFB
331
1AFC
331
1B07
331
1B08
331
1B13
331
1B14
331
1B1F
331
1B20
331
1B2C
331
1B2D
331
1B39
331
1B3A
331
2547
331
2548
331
2550
331
2551
331
2559
331
255A
331
2562
331
2563
331
256B
331
256C
331
2575
331
2576
331
257F
331
2580
331
258B
331
258C
331
2597
331
2598
331
25A3
331
25A4
331
25AF
331
25B0
331
25BB
331
25BC
331
25C7
331
25C8
331
2E6C
331
2E6D
331
2E75
331
2E76
331
2E7E
331
2E7F
331
2E87
331
2E88
331
2E90
331
2E91
331
2E99
331
2E9A
331
2EA4
331
2EA5
331
2EB0
331
2EB1
331
2EBC
331
2EBD
331
2EC8
331
2EC9
331
2EEF
331
2EF0
331
2ED5
331
2ED6
331
2EE2
331
2EE3
331
368F
331
3690
331
3698
331
3699
331
36A1
331
36A2
331
36AA
331
36AB
331
36B4
331
36B5
331
36BE
331
36BF
331
36C8
331
36C9
331
36D3
331
36D4
331
36DF
331
36E0
331
36EB
331
36EC
331
36F7
331
36F8
331
3704
331
3705
331
3711
331
3712
331
371E
331
371F
331
372B
331
372C
331
3738
331
3739
331
532A
331
532B
331
5333
331
5334
331
533C
331
533D
331
5345
331
5346
331
534F
331
5350
331
5359
331
535A
331
5363
331
5364
331
536D
331
536E
331
5377
331
5378
331
5382
331
5383
331
538E
331
538F
331
539A
331
539B
331
5C7B
331
5C7C
331
5C84
331
5C85
331
5C8D
331
5C8E
331
5C97
331
5C98
331
5CA3
331
5CA4
331
5CAF
331
5CB0
331
5CBB
331
5CBC
331
5CC7
331
5CC8
331
5CD3
331
5CD4
331
5CDF
331
5CE0
331
5FC2
331
5FC3
331
5FCB
331
5FCC
331
5FD4
331
5FD5
331
5FDD
331
5FDE
331
5FE6
331
5FE7
331
5FEF
331
5FF0
331
5FF8
331
5FF9
331
6003
331
6004
331
600F
331
6010
331
601B
331
601C
331
617E
331
617F
331
6187
331
6188
331
6190
331
6191
331
619B
331
619C
331
61A7
331
61A8
331
61B4
331
61B5
331
61C1
331
61C2
331
61CD
331
61CE
331
68E4
331
68E5
331
68ED
331
68EE
331
68F7
331
68F8
331
6901
331
6902
331
690A
331
690B
102
}
  0
BLOCK_RECORD
  5
68A3
330
1
100
AcDbSymbolTableRecord
100
AcDbBlockTableRecord
  2
*D116
340
0
  0
BLOCK_RECORD
  5
68AF
330
1
100
AcDbSymbolTableRecord
100
AcDbBlockTableRecord
  2
*D117
340
0
  0
BLOCK_RECORD
  5
68BB
330
1
100
AcDbSymbolTableRecord
100
AcDbBlockTableRecord
  2
*D118
340
0
  0
BLOCK_RECORD
  5
68C8
330
1
100
AcDbSymbolTableRecord
100
AcDbBlockTableRecord
  2
*D119
340
0
  0
BLOCK_RECORD
  5
68D5
330
1
100
AcDbSymbolTableRecord
100
AcDbBlockTableRecord
  2
*D120
340
0
  0
ENDTAB
  0
ENDSEC
  0
SECTION
  2
BLOCKS
  0
BLOCK
  5
20
330
1F
100
AcDbEntity
  8
0
100
AcDbBlockBegin
  2
*Model_Space
 70
     0
 10
0.0
 20
0.0
 30
0.0
  3
*Model_Space
  1

  0
ENDBLK
  5
21
330
1F
100
AcDbEntity
  8
0
100
AcDbBlockEnd
  0
BLOCK
  5
1C
330
1B
100
AcDbEntity
 67
     1
  8
0
100
AcDbBlockBegin
  2
*Paper_Space
 70
     0
 10
0.0
 20
0.0
 30
0.0
  3
*Paper_Space
  1

  0
ENDBLK
  5
1D
330
1B
100
AcDbEntity
 67
     1
  8
0
100
AcDbBlockEnd
  0
BLOCK
  5
24
330
23
100
AcDbEntity
  8
0
100
AcDbBlockBegin
  2
*Paper_Space0
 70
     0
 10
0.0
 20
0.0
 30
0.0
  3
*Paper_Space0
  1

  0
ENDBLK
  5
25
330
23
100
AcDbEntity
  8
0
100
AcDbBlockEnd
  0
BLOCK
  5
2F
330
2B
100
AcDbEntity
  8
0
 62
     0
100
AcDbBlockBegin
  2
_OPEN30
 70
     2
 10
0.0
 20
0.0
 30
0.0
  3
_OPEN30
  1

  0
LINE
  5
2C
330
2B
100
AcDbEntity
  8
0
  6
ByBlock
 62
     0
100
AcDbLine
 10
-1.0
 20
0.267949
 30
0.0
 11
0.0
 21
0.0
 31
0.0
  0
LINE
  5
2D
330
2B
100
AcDbEntity
  8
0
  6
ByBlock
 62
     0
100
AcDbLine
 10
0.0
 20
0.0
 30
0.0
 11
-1.0
 21
-0.267949
 31
0.0
  0
LINE
  5
2E
330
2B
100
AcDbEntity
  8
0
  6
ByBlock
 62
     0
100
AcDbLine
 10
0.0
 20
0.0
 30
0.0
 11
-1.0
 21
0.0
 31
0.0
  0
ENDBLK
  5
30
330
2B
100
AcDbEntity
  8
0
 62
     0
100
AcDbBlockEnd
  0
BLOCK
  5
68AD
330
68A3
100
AcDbEntity
  8
0
100
AcDbBlockBegin
  2
*D116
 70
     1
 10
0.0
 20
0.0
 30
0.0
  3
*D116
  1

  0
LINE
  5
68E1
330
68A3
100
AcDbEntity
  8
1
  6
Continuous
 62
     0
370
    13
100
AcDbLine
 10
2194.876843092584
 20
16651.81845203643
 30
0.0
 11
2194.876843092585
 21
22566.23320257903
 31
0.0
  0
LINE
  5
68E2
330
68A3
100
AcDbEntity
  8
1
  6
Continuous
 62
     0
370
    13
100
AcDbLine
 10
7864.866098584666
 20
16619.65158312639
 30
0.0
 11
7864.866098584666
 21
22566.23320257903
 31
0.0
  0
LINE
  5
68E3
330
68A3
100
AcDbEntity
  8
1
  6
Continuous
 62
     0
370
    13
100
AcDbLine
 10
2694.876843092585
 20
22566.05320257903
 30
0.0
 11
7364.866098584666
 21
22566.05320257903
 31
0.0
  0
INSERT
  5
68E4
330
68A3
100
AcDbEntity
  8
1
  6
Continuous
 62
     0
370
    13
100
AcDbBlockReference
  2
_OPEN30
 10
2194.876843092585
 20
22566.05320257903
 30
0.0
 41
500.0
 42
500.0
 43
500.0
 50
180.0
  0
INSERT
  5
68E5
330
68A3
100
AcDbEntity
  8
1
  6
Continuous
 62
     0
370
    13
100
AcDbBlockReference
  2
_OPEN30
 10
7864.866098584666
 20
22566.05320257903
 30
0.0
 41
500.0
 42
500.0
 43
500.0
  0
MTEXT
  5
68E6
330
68A3
100
AcDbEntity
  8
1
  6
Continuous
 62
     0
370
    13
100
AcDbMText
 10
5029.871470838624
 20
22816.05320257903
 30
0.0
 40
400.0
 41
0.0
 71
     5
 72
     1
  1
\A1;70
 73
     1
 44
1.0
  0
POINT
  5
68E7
330
68A3
100
AcDbEntity
  8
DEFPOINTS
  6
Continuous
 62
     0
100
AcDbPoint
 10
2194.876843092584
 20
16601.81845203643
 30
0.0
  0
POINT
  5
68E8
330
68A3
100
AcDbEntity
  8
DEFPOINTS
  6
Continuous
 62
     0
100
AcDbPoint
 10
7864.866098584666
 20
16569.65158312639
 30
0.0
  0
POINT
  5
68E9
330
68A3
100
AcDbEntity
  8
DEFPOINTS
  6
Continuous
 62
     0
100
AcDbPoint
 10
7864.866098584666
 20
22566.05320257903
 30
0.0
  0
ENDBLK
  5
68AE
330
68A3
100
AcDbEntity
  8
0
100
AcDbBlockEnd
  0
BLOCK
  5
68B9
330
68AF
100
AcDbEntity
  8
0
100
AcDbBlockBegin
  2
*D117
 70
     1
 10
0.0
 20
0.0
 30
0.0
  3
*D117
  1

  0
LINE
  5
68EA
330
68AF
100
AcDbEntity
  8
1
  6
Continuous
 62
     0
370
    13
100
AcDbLine
 10
5079.866139084857
 20
11709.65150212591
 30
0.0
 11
9159.655312509425
 21
11709.65150212591
 31
0.0
  0
LINE
  5
68EB
330
68AF
100
AcDbEntity
  8
1
  6
Continuous
 62
     0
370
    13
100
AcDbLine
 10
5079.866139084857
 20
21429.65166412699
 30
0.0
 11
9159.655312509428
 21
21429.65166412699
 31
0.0
  0
LINE
  5
68EC
330
68AF
100
AcDbEntity
  8
1
  6
Continuous
 62
     0
370
    13
100
AcDbLine
 10
9159.475312509425
 20
12209.65150212591
 30
0.0
 11
9159.475312509428
 21
20929.65166412699
 31
0.0
  0
INSERT
  5
68ED
330
68AF
100
AcDbEntity
  8
1
  6
Continuous
 62
     0
370
    13
100
AcDbBlockReference
  2
_OPEN30
 10
9159.475312509425
 20
11709.65150212591
 30
0.0
 41
500.0
 42
500.0
 43
500.0
 50
270.0
  0
INSERT
  5
68EE
330
68AF
100
AcDbEntity
  8
1
  6
Continuous
 62
     0
370
    13
100
AcDbBlockReference
  2
_OPEN30
 10
9159.475312509428
 20
21429.65166412699
 30
0.0
 41
500.0
 42
500.0
 43
500.0
 50
90.0
  0
MTEXT
  5
68EF
330
68AF
100
AcDbEntity
  8
1
  6
Continuous
 62
     0
370
    13
100
AcDbMText
 10
8909.475312509425
 20
16569.65158312645
 30
0.0
 40
400.0
 41
0.0
 71
     5
 72
     1
  1
\A1;120
 11
0.0000000000000001
 21
1.0
 31
0.0
 73
     1
 44
1.0
  0
POINT
  5
68F0
330
68AF
100
AcDbEntity
  8
DEFPOINTS
  6
Continuous
 62
     0
100
AcDbPoint
 10
5029.866139084857
 20
11709.65150212591
 30
0.0
  0
POINT
  5
68F1
330
68AF
100
AcDbEntity
  8
DEFPOINTS
  6
Continuous
 62
     0
100
AcDbPoint
 10
5029.866139084857
 20
21429.65166412699
 30
0.0
  0
POINT
  5
68F2
330
68AF
100
AcDbEntity
  8
DEFPOINTS
  6
Continuous
 62
     0
100
AcDbPoint
 10
9159.475312509428
 20
21429.65166412699
 30
0.0
  0
ENDBLK
  5
68BA
330
68AF
100
AcDbEntity
  8
0
100
AcDbBlockEnd
  0
BLOCK
  5
68C6
330
68BB
100
AcDbEntity
  8
0
100
AcDbBlockBegin
  2
*D118
 70
     1
 10
0.0
 20
0.0
 30
0.0
  3
*D118
  1

  0
LINE
  5
68F3
330
68BB
100
AcDbEntity
  8
1
  6
Continuous
 62
     0
370
    13
100
AcDbLine
 10
11542.71029062831
 20
20427.46158312626
 30
0.0
 11
11542.71029062831
 21
22567.30410357959
 31
0.0
  0
LINE
  5
68F4
330
68BB
100
AcDbEntity
  8
1
  6
Continuous
 62
     0
370
    13
100
AcDbLine
 10
12103.23020962826
 20
21479.65154262614
 30
0.0
 11
12103.23020962826
 21
22567.30410357959
 31
0.0
  0
LINE
  5
68F5
330
68BB
100
AcDbEntity
  8
1
  6
Continuous
 62
     0
370
    13
100
AcDbLine
 10
11042.71029062831
 20
22567.12410357959
 30
0.0
 11
10542.71029062831
 21
22567.12410357959
 31
0.0
  0
LINE
  5
68F6
330
68BB
100
AcDbEntity
  8
1
  6
Continuous
 62
     0
370
    13
100
AcDbLine
 10
12603.23020962826
 20
22567.12410357959
 30
0.0
 11
13103.23020962826
 21
22567.12410357959
 31
0.0
  0
INSERT
  5
68F7
330
68BB
100
AcDbEntity
  8
1
  6
Continuous
 62
     0
370
    13
100
AcDbBlockReference
  2
_OPEN30
 10
11542.71029062831
 20
22567.12410357959
 30
0.0
 41
500.0
 42
500.0
 43
500.0
  0
INSERT
  5
68F8
330
68BB
100
AcDbEntity
  8
1
  6
Continuous
 62
     0
370
    13
100
AcDbBlockReference
  2
_OPEN30
 10
12103.23020962826
 20
22567.12410357959
 30
0.0
 41
500.0
 42
500.0
 43
500.0
 50
180.0
  0
MTEXT
  5
68F9
330
68BB
100
AcDbEntity
  8
1
  6
Continuous
 62
     0
370
    13
100
AcDbMText
 10
11822.97025012828
 20
22817.12410357959
 30
0.0
 40
400.0
 41
0.0
 71
     5
 72
     1
  1
\A1;7
 73
     1
 44
1.0
  0
POINT
  5
68FA
330
68BB
100
AcDbEntity
  8
DEFPOINTS
  6
Continuous
 62
     0
100
AcDbPoint
 10
11542.71029062831
 20
20377.46158312626
 30
0.0
  0
POINT
  5
68FB
330
68BB
100
AcDbEntity
  8
DEFPOINTS
  6
Continuous
 62
     0
100
AcDbPoint
 10
12103.23020962826
 20
21429.65154262614
 30
0.0
  0
POINT
  5
68FC
330
68BB
100
AcDbEntity
  8
DEFPOINTS
  6
Continuous
 62
     0
100
AcDbPoint
 10
12103.23020962826
 20
22567.12410357959
 30
0.0
  0
ENDBLK
  5
68C7
330
68BB
100
AcDbEntity
  8
0
100
AcDbBlockEnd
  0
BLOCK
  5
68D3
330
68C8
100
AcDbEntity
  8
0
100
AcDbBlockBegin
  2
*D119
 70
     1
 10
0.0
 20
0.0
 30
0.0
  3
*D119
  1

  0
LINE
  5
68FD
330
68C8
100
AcDbEntity
  8
1
  6
Continuous
 62
     0
370
    13
100
AcDbLine
 10
12081.2699715087
 20
22617.12410357959
 30
0.0
 11
12081.2699715087
 21
22567.30410357959
 31
0.0
  0
LINE
  5
68FE
330
68C8
100
AcDbEntity
  8
1
  6
Continuous
 62
     0
370
    13
100
AcDbLine
 10
12751.23029062792
 20
19080.43154262652
 30
0.0
 11
12751.23029062792
 21
22567.30410357959
 31
0.0
  0
LINE
  5
68FF
330
68C8
100
AcDbEntity
  8
1
  6
Continuous
 62
     0
370
    13
100
AcDbLine
 10
11581.2699715087
 20
22567.12410357959
 30
0.0
 11
11081.2699715087
 21
22567.12410357959
 31
0.0
  0
LINE
  5
6900
330
68C8
100
AcDbEntity
  8
1
  6
Continuous
 62
     0
370
    13
100
AcDbLine
 10
13251.23029062792
 20
22567.12410357959
 30
0.0
 11
13751.23029062792
 21
22567.12410357959
 31
0.0
  0
INSERT
  5
6901
330
68C8
100
AcDbEntity
  8
1
  6
Continuous
 62
     0
370
    13
100
AcDbBlockReference
  2
_OPEN30
 10
12081.2699715087
 20
22567.12410357959
 30
0.0
 41
500.0
 42
500.0
 43
500.0
  0
INSERT
  5
6902
330
68C8
100
AcDbEntity
  8
1
  6
Continuous
 62
     0
370
    13
100
AcDbBlockReference
  2
_OPEN30
 10
12751.23029062792
 20
22567.12410357959
 30
0.0
 41
500.0
 42
500.0
 43
500.0
 50
180.0
  0
MTEXT
  5
6903
330
68C8
100
AcDbEntity
  8
1
  6
Continuous
 62
     0
370
    13
100
AcDbMText
 10
12416.25013106831
 20
22817.12410357959
 30
0.0
 40
400.0
 41
0.0
 71
     5
 72
     1
  1
\A1;8
 73
     1
 44
1.0
  0
POINT
  5
6904
330
68C8
100
AcDbEntity
  8
DEFPOINTS
  6
Continuous
 62
     0
100
AcDbPoint
 10
12081.2699715087
 20
22567.12410357959
 30
0.0
  0
POINT
  5
6905
330
68C8
100
AcDbEntity
  8
DEFPOINTS
  6
Continuous
 62
     0
100
AcDbPoint
 10
12751.23029062792
 20
19030.43154262652
 30
0.0
  0
POINT
  5
6906
330
68C8
100
AcDbEntity
  8
DEFPOINTS
  6
Continuous
 62
     0
100
AcDbPoint
 10
12751.23029062792
 20
22567.12410357959
 30
0.0
  0
ENDBLK
  5
68D4
330
68C8
100
AcDbEntity
  8
0
100
AcDbBlockEnd
  0
BLOCK
  5
68DF
330
68D5
100
AcDbEntity
  8
0
100
AcDbBlockBegin
  2
*D120
 70
     1
 10
0.0
 20
0.0
 30
0.0
  3
*D120
  1

  0
LINE
  5
6907
330
68D5
100
AcDbEntity
  8
1
  6
Continuous
 62
     0
370
    13
100
AcDbLine
 10
18955.16974368406
 20
19952.45134312634
 30
0.0
 11
22711.60652510805
 21
19952.45134312634
 31
0.0
  0
LINE
  5
6908
330
68D5
100
AcDbEntity
  8
1
  6
Continuous
 62
     0
370
    13
100
AcDbLine
 10
18955.16974368406
 20
13186.85166112532
 30
0.0
 11
22711.60652510805
 21
13186.85166112532
 31
0.0
  0
LINE
  5
6909
330
68D5
100
AcDbEntity
  8
1
  6
Continuous
 62
     0
370
    13
100
AcDbLine
 10
22711.42652510805
 20
19452.45134312634
 30
0.0
 11
22711.42652510805
 21
13686.85166112532
 31
0.0
  0
INSERT
  5
690A
330
68D5
100
AcDbEntity
  8
1
  6
Continuous
 62
     0
370
    13
100
AcDbBlockReference
  2
_OPEN30
 10
22711.42652510805
 20
19952.45134312634
 30
0.0
 41
500.0
 42
500.0
 43
500.0
 50
90.0
  0
INSERT
  5
690B
330
68D5
100
AcDbEntity
  8
1
  6
Continuous
 62
     0
370
    13
100
AcDbBlockReference
  2
_OPEN30
 10
22711.42652510805
 20
13186.85166112532
 30
0.0
 41
500.0
 42
500.0
 43
500.0
 50
270.0
  0
MTEXT
  5
690C
330
68D5
100
AcDbEntity
  8
1
  6
Continuous
 62
     0
370
    13
100
AcDbMText
 10
22461.42652510804
 20
16569.65150212584
 30
0.0
 40
400.0
 41
0.0
 71
     5
 72
     1
  1
\A1;83.5
 11
0.0000000000000001
 21
1.0
 31
0.0
 73
     1
 44
1.0
  0
POINT
  5
690D
330
68D5
100
AcDbEntity
  8
DEFPOINTS
  6
Continuous
 62
     0
100
AcDbPoint
 10
18905.16974368406
 20
19952.45134312634
 30
0.0
  0
POINT
  5
690E
330
68D5
100
AcDbEntity
  8
DEFPOINTS
  6
Continuous
 62
     0
100
AcDbPoint
 10
18905.16974368406
 20
13186.85166112532
 30
0.0
  0
POINT
  5
690F
330
68D5
100
AcDbEntity
  8
DEFPOINTS
  6
Continuous
 62
     0
100
AcDbPoint
 10
22711.42652510805
 20
13186.85166112532
 30
0.0
  0
ENDBLK
  5
68E0
330
68D5
100
AcDbEntity
  8
0
100
AcDbBlockEnd
  0
ENDSEC
  0
SECTION
  2
ENTITIES
  0
TEXT
  5
653E
330
1F
100
AcDbEntity
  8
1
  6
Continuous
 62
     7
370
    13
100
AcDbText
 10
5373.306179584411
 20
16920.38162362713
 30
0.0
 40
283.4999999999999
  1
開　扉
 41
0.833333
  7
KANJI
100
AcDbText
  0
TEXT
  5
653F
330
1F
100
AcDbEntity
  8
1
  6
Continuous
 62
     7
370
    13
100
AcDbText
 10
3856.986139085435
 20
16920.38162362713
 30
0.0
 40
283.4999999999999
  1
解　錠
 41
0.833333
  7
KANJI
100
AcDbText
  0
TEXT
  5
6540
330
1F
100
AcDbEntity
  8
1
  6
Continuous
 62
     7
370
    13
100
AcDbText
 10
3854.556139085064
 20
19510.76154262595
 30
0.0
 40
283.4999999999999
  1
電　源
 41
0.833333
  7
KANJI
100
AcDbText
  0
TEXT
  5
6541
330
1F
100
AcDbEntity
  8
1
  6
Continuous
 62
     7
370
    13
100
AcDbText
 10
5313.366017584893
 20
14949.65170462643
 30
0.0
 40
729.0
  1
す
 41
0.8703700000000001
  7
KANJI
100
AcDbText
  0
TEXT
  5
6542
330
1F
100
AcDbEntity
  8
1
  6
Continuous
 62
     7
370
    13
100
AcDbText
 10
4017.366098584549
 20
14949.65170462643
 30
0.0
 40
729.0
  1
押
 41
0.8703700000000001
  7
KANJI
100
AcDbText
  0
LINE
  5
6543
330
1F
100
AcDbEntity
  8
1
  6
Continuous
 62
     7
370
    13
100
AcDbLine
 10
3787.874590085412
 20
14070.80162362581
 30
0.0
 11
6271.857566585299
 21
14070.80162362581
 31
0.0
  0
LINE
  5
6544
330
1F
100
AcDbEntity
  8
1
  6
Continuous
 62
     7
370
    13
100
AcDbLine
 10
3711.202055584989
 20
14095.10158312645
 30
0.0
 11
6348.530101084762
 21
14095.10158312645
 31
0.0
  0
LINE
  5
6545
330
1F
100
AcDbEntity
  8
1
  6
Continuous
 62
     7
370
    13
100
AcDbLine
 10
3660.582320584537
 20
14119.40162362676
 30
0.0
 11
6399.149836085213
 21
14119.40162362676
 31
0.0
  0
LINE
  5
6546
330
1F
100
AcDbEntity
  8
1
  6
Continuous
 62
     7
370
    13
100
AcDbLine
 10
3621.211541585042
 20
14143.70166412612
 30
0.0
 11
3838.733720584103
 21
14143.70166412612
 31
0.0
  0
LINE
  5
6547
330
1F
100
AcDbEntity
  8
1
  6
Continuous
 62
     7
370
    13
100
AcDbLine
 10
6220.998436085647
 20
14143.70166412612
 30
0.0
 11
6438.520655584085
 21
14143.70166412612
 31
0.0
  0
LINE
  5
6548
330
1F
100
AcDbEntity
  8
1
  6
Continuous
 62
     7
370
    13
100
AcDbLine
 10
3588.732931085222
 20
14168.0015831274
 30
0.0
 11
3747.004541584319
 21
14168.0015831274
 31
0.0
  0
LINE
  5
6549
330
1F
100
AcDbEntity
  8
1
  6
Continuous
 62
     7
370
    13
100
AcDbLine
 10
6312.727655584808
 20
14168.0015831274
 30
0.0
 11
6470.999225584527
 21
14168.0015831274
 31
0.0
  0
LINE
  5
654A
330
1F
100
AcDbEntity
  8
1
  6
Continuous
 62
     7
370
    13
100
AcDbLine
 10
3561.134125084238
 20
14192.30162362581
 30
0.0
 11
3696.180119584925
 21
14192.30162362581
 31
0.0
  0
LINE
  5
654B
330
1F
100
AcDbEntity
  8
1
  6
Continuous
 62
     7
370
    13
100
AcDbLine
 10
6363.552077585133
 20
14192.30162362581
 30
0.0
 11
6498.59807208489
 21
14192.30162362581
 31
0.0
  0
LINE
  5
654C
330
1F
100
AcDbEntity
  8
1
  6
Continuous
 62
     7
370
    13
100
AcDbLine
 10
3537.286631584255
 20
14216.60154262614
 30
0.0
 11
3658.361948584875
 21
14216.60154262614
 31
0.0
  0
LINE
  5
654D
330
1F
100
AcDbEntity
  8
1
  6
Continuous
 62
     7
370
    13
100
AcDbLine
 10
6401.370248585182
 20
14216.60154262614
 30
0.0
 11
6522.445525085496
 21
14216.60154262614
 31
0.0
  0
LINE
  5
654E
330
1F
100
AcDbEntity
  8
1
  6
Continuous
 62
     7
370
    13
100
AcDbLine
 10
3516.482429584983
 20
14240.90162362676
 30
0.0
 11
3627.983830084704
 21
14240.90162362676
 31
0.0
  0
LINE
  5
654F
330
1F
100
AcDbEntity
  8
1
  6
Continuous
 62
     7
370
    13
100
AcDbLine
 10
6431.748326585045
 20
14240.90162362676
 30
0.0
 11
6543.249727084767
 21
14240.90162362676
 31
0.0
  0
LINE
  5
6550
330
1F
100
AcDbEntity
  8
1
  6
Continuous
 62
     7
370
    13
100
AcDbLine
 10
3498.243578584196
 20
14265.20166412613
 30
0.0
 11
3602.723251084943
 21
14265.20166412613
 31
0.0
  0
LINE
  5
6551
330
1F
100
AcDbEntity
  8
1
  6
Continuous
 62
     7
370
    13
100
AcDbLine
 10
6457.008905584807
 20
14265.20166412613
 30
0.0
 11
6561.488578084624
 21
14265.20166412613
 31
0.0
  0
LINE
  5
6552
330
1F
100
AcDbEntity
  8
1
  6
Continuous
 62
     7
370
    13
100
AcDbLine
 10
3482.230445585097
 20
14289.5015831274
 30
0.0
 11
3581.345083084917
 21
14289.5015831274
 31
0.0
  0
LINE
  5
6553
330
1F
100
AcDbEntity
  8
1
  6
Continuous
 62
     7
370
    13
100
AcDbLine
 10
6478.387073584833
 20
14289.5015831274
 30
0.0
 11
6577.501751584961
 21
14289.5015831274
 31
0.0
  0
LINE
  5
6554
330
1F
100
AcDbEntity
  8
1
  6
Continuous
 62
     7
370
    13
100
AcDbLine
 10
3468.192943084432
 20
14313.80162362581
 30
0.0
 11
3563.100035585026
 21
14313.80162362581
 31
0.0
  0
LINE
  5
6555
330
1F
100
AcDbEntity
  8
1
  6
Continuous
 62
     7
370
    13
100
AcDbLine
 10
6496.632161585032
 20
14313.80162362581
 30
0.0
 11
6591.539213585318
 21
14313.80162362581
 31
0.0
  0
LINE
  5
6556
330
1F
100
AcDbEntity
  8
1
  6
Continuous
 62
     7
370
    13
100
AcDbLine
 10
3455.942179085687
 20
14338.10166412706
 30
0.0
 11
3547.495466585155
 21
14338.10166412706
 31
0.0
  0
LINE
  5
6557
330
1F
100
AcDbEntity
  8
1
  6
Continuous
 62
     7
370
    13
100
AcDbLine
 10
6512.236690084596
 20
14338.10166412706
 30
0.0
 11
6603.790018084372
 21
14338.10166412706
 31
0.0
  0
LINE
  5
6558
330
1F
100
AcDbEntity
  8
1
  6
Continuous
 62
     7
370
    13
100
AcDbLine
 10
3445.332110584772
 20
14362.40158312645
 30
0.0
 11
3534.189515584817
 21
14362.40158312645
 31
0.0
  0
LINE
  5
6559
330
1F
100
AcDbEntity
  8
1
  6
Continuous
 62
     7
370
    13
100
AcDbLine
 10
6525.54268158524
 20
14362.40158312645
 30
0.0
 11
6614.400086585288
 21
14362.40158312645
 31
0.0
  0
LINE
  5
655A
330
1F
100
AcDbEntity
  8
1
  6
Continuous
 62
     7
370
    13
100
AcDbLine
 10
3436.249054084561
 20
14386.70166412612
 30
0.0
 11
3522.936104585765
 21
14386.70166412612
 31
0.0
  0
LINE
  5
655B
330
1F
100
AcDbEntity
  8
1
  6
Continuous
 62
     7
370
    13
100
AcDbLine
 10
6536.796052083984
 20
14386.70166412612
 30
0.0
 11
6623.483143085498
 21
14386.70166412612
 31
0.0
  0
LINE
  5
655C
330
1F
100
AcDbEntity
  8
1
  6
Continuous
 62
     7
370
    13
100
AcDbLine
 10
3428.604193084815
 20
14411.0015831274
 30
0.0
 11
3513.553834084421
 21
14411.0015831274
 31
0.0
  0
LINE
  5
655D
330
1F
100
AcDbEntity
  8
1
  6
Continuous
 62
     7
370
    13
100
AcDbLine
 10
6546.178322584369
 20
14411.0015831274
 30
0.0
 11
6631.128004084311
 21
14411.0015831274
 31
0.0
  0
LINE
  5
655E
330
1F
100
AcDbEntity
  8
1
  6
Continuous
 62
     7
370
    13
100
AcDbLine
 10
3422.327786584472
 20
14435.30162362581
 30
0.0
 11
3505.907717585506
 21
14435.30162362581
 31
0.0
  0
LINE
  5
655F
330
1F
100
AcDbEntity
  8
1
  6
Continuous
 62
     7
370
    13
100
AcDbLine
 10
6553.824479585514
 20
14435.30162362581
 30
0.0
 11
6637.404370085278
 21
14435.30162362581
 31
0.0
  0
LINE
  5
6560
330
1F
100
AcDbEntity
  8
1
  6
Continuous
 62
     7
370
    13
100
AcDbLine
 10
3417.365888584813
 20
14459.60166412706
 30
0.0
 11
3499.897072085179
 21
14459.60166412706
 31
0.0
  0
LINE
  5
6561
330
1F
100
AcDbEntity
  8
1
  6
Continuous
 62
     7
370
    13
100
AcDbLine
 10
6559.835084584571
 20
14459.60166412706
 30
0.0
 11
6642.366308584314
 21
14459.60166412706
 31
0.0
  0
LINE
  5
6562
330
1F
100
AcDbEntity
  8
1
  6
Continuous
 62
     7
370
    13
100
AcDbLine
 10
3413.677918085188
 20
14483.90158312645
 30
0.0
 11
3495.448309085157
 21
14483.90158312645
 31
0.0
  0
LINE
  5
6563
330
1F
100
AcDbEntity
  8
1
  6
Continuous
 62
     7
370
    13
100
AcDbLine
 10
6564.283847585554
 20
14483.90158312645
 30
0.0
 11
6646.054279084871
 21
14483.90158312645
 31
0.0
  0
LINE
  5
6564
330
1F
100
AcDbEntity
  8
1
  6
Continuous
 62
     7
370
    13
100
AcDbLine
 10
3411.234998584521
 20
14508.20162362582
 30
0.0
 11
3492.50975058417
 21
14508.20162362582
 31
0.0
  0
LINE
  5
6565
330
1F
100
AcDbEntity
  8
1
  6
Continuous
 62
     7
370
    13
100
AcDbLine
 10
6567.222446584958
 20
14508.20162362582
 30
0.0
 11
6648.497198585537
 21
14508.20162362582
 31
0.0
  0
LINE
  5
6566
330
1F
100
AcDbEntity
  8
1
  6
Continuous
 62
     7
370
    13
100
AcDbLine
 10
3410.018095084932
 20
14532.5015831274
 30
0.0
 11
3491.048348585202
 21
14532.5015831274
 31
0.0
  0
LINE
  5
6567
330
1F
100
AcDbEntity
  8
1
  6
Continuous
 62
     7
370
    13
100
AcDbLine
 10
6568.683808085508
 20
14532.5015831274
 30
0.0
 11
6649.714102084195
 21
14532.5015831274
 31
0.0
  0
LINE
  5
6568
330
1F
100
AcDbEntity
  8
1
  6
Continuous
 62
     7
370
    13
100
AcDbLine
 10
3409.866139084857
 20
14556.80162362581
 30
0.0
 11
3490.866098584549
 21
14556.80162362581
 31
0.0
  0
LINE
  5
6569
330
1F
100
AcDbEntity
  8
1
  6
Continuous
 62
     7
370
    13
100
AcDbLine
 10
6568.866058085202
 20
14556.80162362581
 30
0.0
 11
6649.866058085201
 21
14556.80162362581
 31
0.0
  0
LINE
  5
656A
330
1F
100
AcDbEntity
  8
1
  6
Continuous
 62
     7
370
    13
100
AcDbLine
 10
3409.866139084857
 20
14581.10166412707
 30
0.0
 11
3490.866098584549
 21
14581.10166412707
 31
0.0
  0
LINE
  5
656B
330
1F
100
AcDbEntity
  8
1
  6
Continuous
 62
     7
370
    13
100
AcDbLine
 10
6568.866058085202
 20
14581.10166412707
 30
0.0
 11
6649.866058085201
 21
14581.10166412707
 31
0.0
  0
LINE
  5
656C
330
1F
100
AcDbEntity
  8
1
  6
Continuous
 62
     7
370
    13
100
AcDbLine
 10
3409.866139084857
 20
14605.40158312645
 30
0.0
 11
3490.866098584549
 21
14605.40158312645
 31
0.0
  0
LINE
  5
656D
330
1F
100
AcDbEntity
  8
1
  6
Continuous
 62
     7
370
    13
100
AcDbLine
 10
6568.866058085202
 20
14605.40158312645
 30
0.0
 11
6649.866058085201
 21
14605.40158312645
 31
0.0
  0
LINE
  5
656E
330
1F
100
AcDbEntity
  8
1
  6
Continuous
 62
     7
370
    13
100
AcDbLine
 10
3409.866139084857
 20
14629.70162362582
 30
0.0
 11
3490.866098584549
 21
14629.70162362582
 31
0.0
  0
LINE
  5
656F
330
1F
100
AcDbEntity
  8
1
  6
Continuous
 62
     7
370
    13
100
AcDbLine
 10
6568.866058085202
 20
14629.70162362582
 30
0.0
 11
6649.866058085201
 21
14629.70162362582
 31
0.0
  0
LINE
  5
6570
330
1F
100
AcDbEntity
  8
1
  6
Continuous
 62
     7
370
    13
100
AcDbLine
 10
3409.866139084857
 20
14654.00154262709
 30
0.0
 11
3490.866098584549
 21
14654.00154262709
 31
0.0
  0
LINE
  5
6571
330
1F
100
AcDbEntity
  8
1
  6
Continuous
 62
     7
370
    13
100
AcDbLine
 10
6568.866058085202
 20
14654.00154262709
 30
0.0
 11
6649.866058085201
 21
14654.00154262709
 31
0.0
  0
LINE
  5
6572
330
1F
100
AcDbEntity
  8
1
  6
Continuous
 62
     7
370
    13
100
AcDbLine
 10
3409.866139084857
 20
14678.30162362581
 30
0.0
 11
3490.866098584549
 21
14678.30162362581
 31
0.0
  0
LINE
  5
6573
330
1F
100
AcDbEntity
  8
1
  6
Continuous
 62
     7
370
    13
100
AcDbLine
 10
6568.866058085202
 20
14678.30162362581
 30
0.0
 11
6649.866058085201
 21
14678.30162362581
 31
0.0
  0
LINE
  5
6574
330
1F
100
AcDbEntity
  8
1
  6
Continuous
 62
     7
370
    13
100
AcDbLine
 10
3409.866139084857
 20
14702.60166412707
 30
0.0
 11
3490.866098584549
 21
14702.60166412707
 31
0.0
  0
LINE
  5
6575
330
1F
100
AcDbEntity
  8
1
  6
Continuous
 62
     7
370
    13
100
AcDbLine
 10
6568.866058085202
 20
14702.60166412707
 30
0.0
 11
6649.866058085201
 21
14702.60166412707
 31
0.0
  0
LINE
  5
6576
330
1F
100
AcDbEntity
  8
1
  6
Continuous
 62
     7
370
    13
100
AcDbLine
 10
3409.866139084857
 20
14726.90158312645
 30
0.0
 11
3490.866098584549
 21
14726.90158312645
 31
0.0
  0
LINE
  5
6577
330
1F
100
AcDbEntity
  8
1
  6
Continuous
 62
     7
370
    13
100
AcDbLine
 10
6568.866058085202
 20
14726.90158312645
 30
0.0
 11
6649.866058085201
 21
14726.90158312645
 31
0.0
  0
LINE
  5
6578
330
1F
100
AcDbEntity
  8
1
  6
Continuous
 62
     7
370
    13
100
AcDbLine
 10
3409.866139084857
 20
14751.20162362582
 30
0.0
 11
3490.866098584549
 21
14751.20162362582
 31
0.0
  0
LINE
  5
6579
330
1F
100
AcDbEntity
  8
1
  6
Continuous
 62
     7
370
    13
100
AcDbLine
 10
6568.866058085202
 20
14751.20162362582
 30
0.0
 11
6649.866058085201
 21
14751.20162362582
 31
0.0
  0
LINE
  5
657A
330
1F
100
AcDbEntity
  8
1
  6
Continuous
 62
     7
370
    13
100
AcDbLine
 10
3409.866139084857
 20
14775.50166412613
 30
0.0
 11
3490.866098584549
 21
14775.50166412613
 31
0.0
  0
LINE
  5
657B
330
1F
100
AcDbEntity
  8
1
  6
Continuous
 62
     7
370
    13
100
AcDbLine
 10
6568.866058085202
 20
14775.50166412613
 30
0.0
 11
6649.866058085201
 21
14775.50166412613
 31
0.0
  0
LINE
  5
657C
330
1F
100
AcDbEntity
  8
1
  6
Continuous
 62
     7
370
    13
100
AcDbLine
 10
3409.866139084857
 20
14799.8015831255
 30
0.0
 11
3490.866098584549
 21
14799.8015831255
 31
0.0
  0
LINE
  5
657D
330
1F
100
AcDbEntity
  8
1
  6
Continuous
 62
     7
370
    13
100
AcDbLine
 10
6568.866058085202
 20
14799.8015831255
 30
0.0
 11
6649.866058085201
 21
14799.8015831255
 31
0.0
  0
LINE
  5
657E
330
1F
100
AcDbEntity
  8
1
  6
Continuous
 62
     7
370
    13
100
AcDbLine
 10
3409.866139084857
 20
14824.10166412706
 30
0.0
 11
3490.866098584549
 21
14824.10166412706
 31
0.0
  0
LINE
  5
657F
330
1F
100
AcDbEntity
  8
1
  6
Continuous
 62
     7
370
    13
100
AcDbLine
 10
6568.866058085202
 20
14824.10166412706
 30
0.0
 11
6649.866058085201
 21
14824.10166412706
 31
0.0
  0
LINE
  5
6580
330
1F
100
AcDbEntity
  8
1
  6
Continuous
 62
     7
370
    13
100
AcDbLine
 10
3409.866139084857
 20
14848.40158312645
 30
0.0
 11
3490.866098584549
 21
14848.40158312645
 31
0.0
  0
LINE
  5
6581
330
1F
100
AcDbEntity
  8
1
  6
Continuous
 62
     7
370
    13
100
AcDbLine
 10
6568.866058085202
 20
14848.40158312645
 30
0.0
 11
6649.866058085201
 21
14848.40158312645
 31
0.0
  0
LINE
  5
6582
330
1F
100
AcDbEntity
  8
1
  6
Continuous
 62
     7
370
    13
100
AcDbLine
 10
3409.866139084857
 20
14872.70162362582
 30
0.0
 11
3490.866098584549
 21
14872.70162362582
 31
0.0
  0
LINE
  5
6583
330
1F
100
AcDbEntity
  8
1
  6
Continuous
 62
     7
370
    13
100
AcDbLine
 10
6568.866058085202
 20
14872.70162362582
 30
0.0
 11
6649.866058085201
 21
14872.70162362582
 31
0.0
  0
LINE
  5
6584
330
1F
100
AcDbEntity
  8
1
  6
Continuous
 62
     7
370
    13
100
AcDbLine
 10
3409.866139084857
 20
14897.00166412613
 30
0.0
 11
3490.866098584549
 21
14897.00166412613
 31
0.0
  0
LINE
  5
6585
330
1F
100
AcDbEntity
  8
1
  6
Continuous
 62
     7
370
    13
100
AcDbLine
 10
6568.866058085202
 20
14897.00166412613
 30
0.0
 11
6649.866058085201
 21
14897.00166412613
 31
0.0
  0
LINE
  5
6586
330
1F
100
AcDbEntity
  8
1
  6
Continuous
 62
     7
370
    13
100
AcDbLine
 10
3409.866139084857
 20
14921.3015831255
 30
0.0
 11
3490.866098584549
 21
14921.3015831255
 31
0.0
  0
LINE
  5
6587
330
1F
100
AcDbEntity
  8
1
  6
Continuous
 62
     7
370
    13
100
AcDbLine
 10
6568.866058085202
 20
14921.3015831255
 30
0.0
 11
6649.866058085201
 21
14921.3015831255
 31
0.0
  0
LINE
  5
6588
330
1F
100
AcDbEntity
  8
1
  6
Continuous
 62
     7
370
    13
100
AcDbLine
 10
3409.866139084857
 20
14945.60162362676
 30
0.0
 11
3490.866098584549
 21
14945.60162362676
 31
0.0
  0
LINE
  5
6589
330
1F
100
AcDbEntity
  8
1
  6
Continuous
 62
     7
370
    13
100
AcDbLine
 10
6568.866058085202
 20
14945.60162362676
 30
0.0
 11
6649.866058085201
 21
14945.60162362676
 31
0.0
  0
LINE
  5
658A
330
1F
100
AcDbEntity
  8
1
  6
Continuous
 62
     7
370
    13
100
AcDbLine
 10
3409.866139084857
 20
14969.90158312645
 30
0.0
 11
3490.866098584549
 21
14969.90158312645
 31
0.0
  0
LINE
  5
658B
330
1F
100
AcDbEntity
  8
1
  6
Continuous
 62
     7
370
    13
100
AcDbLine
 10
6568.866058085202
 20
14969.90158312645
 30
0.0
 11
6649.866058085201
 21
14969.90158312645
 31
0.0
  0
LINE
  5
658C
330
1F
100
AcDbEntity
  8
1
  6
Continuous
 62
     7
370
    13
100
AcDbLine
 10
3409.866139084857
 20
14994.20162362581
 30
0.0
 11
3490.866098584549
 21
14994.20162362581
 31
0.0
  0
LINE
  5
658D
330
1F
100
AcDbEntity
  8
1
  6
Continuous
 62
     7
370
    13
100
AcDbLine
 10
6568.866058085202
 20
14994.20162362581
 30
0.0
 11
6649.866058085201
 21
14994.20162362581
 31
0.0
  0
LINE
  5
658E
330
1F
100
AcDbEntity
  8
1
  6
Continuous
 62
     7
370
    13
100
AcDbLine
 10
3409.866139084857
 20
15018.50166412613
 30
0.0
 11
3490.866098584549
 21
15018.50166412613
 31
0.0
  0
LINE
  5
658F
330
1F
100
AcDbEntity
  8
1
  6
Continuous
 62
     7
370
    13
100
AcDbLine
 10
6568.866058085202
 20
15018.50166412613
 30
0.0
 11
6649.866058085201
 21
15018.50166412613
 31
0.0
  0
LINE
  5
6590
330
1F
100
AcDbEntity
  8
1
  6
Continuous
 62
     7
370
    13
100
AcDbLine
 10
3409.866139084857
 20
15042.8015831255
 30
0.0
 11
3490.866098584549
 21
15042.8015831255
 31
0.0
  0
LINE
  5
6591
330
1F
100
AcDbEntity
  8
1
  6
Continuous
 62
     7
370
    13
100
AcDbLine
 10
6568.866058085202
 20
15042.8015831255
 30
0.0
 11
6649.866058085201
 21
15042.8015831255
 31
0.0
  0
LINE
  5
6592
330
1F
100
AcDbEntity
  8
1
  6
Continuous
 62
     7
370
    13
100
AcDbLine
 10
3409.866139084857
 20
15067.10162362676
 30
0.0
 11
3490.866098584549
 21
15067.10162362676
 31
0.0
  0
LINE
  5
6593
330
1F
100
AcDbEntity
  8
1
  6
Continuous
 62
     7
370
    13
100
AcDbLine
 10
6568.866058085202
 20
15067.10162362676
 30
0.0
 11
6649.866058085201
 21
15067.10162362676
 31
0.0
  0
LINE
  5
6594
330
1F
100
AcDbEntity
  8
1
  6
Continuous
 62
     7
370
    13
100
AcDbLine
 10
3409.866139084857
 20
15091.40154262614
 30
0.0
 11
3490.866098584549
 21
15091.40154262614
 31
0.0
  0
LINE
  5
6595
330
1F
100
AcDbEntity
  8
1
  6
Continuous
 62
     7
370
    13
100
AcDbLine
 10
6568.866058085202
 20
15091.40154262614
 30
0.0
 11
6649.866058085201
 21
15091.40154262614
 31
0.0
  0
LINE
  5
6596
330
1F
100
AcDbEntity
  8
1
  6
Continuous
 62
     7
370
    13
100
AcDbLine
 10
3409.866139084857
 20
15115.70162362582
 30
0.0
 11
3490.866098584549
 21
15115.70162362582
 31
0.0
  0
LINE
  5
6597
330
1F
100
AcDbEntity
  8
1
  6
Continuous
 62
     7
370
    13
100
AcDbLine
 10
6568.866058085202
 20
15115.70162362582
 30
0.0
 11
6649.866058085201
 21
15115.70162362582
 31
0.0
  0
LINE
  5
6598
330
1F
100
AcDbEntity
  8
1
  6
Continuous
 62
     7
370
    13
100
AcDbLine
 10
3409.866139084857
 20
15140.00166412613
 30
0.0
 11
3490.866098584549
 21
15140.00166412613
 31
0.0
  0
LINE
  5
6599
330
1F
100
AcDbEntity
  8
1
  6
Continuous
 62
     7
370
    13
100
AcDbLine
 10
6568.866058085202
 20
15140.00166412613
 30
0.0
 11
6649.866058085201
 21
15140.00166412613
 31
0.0
  0
LINE
  5
659A
330
1F
100
AcDbEntity
  8
1
  6
Continuous
 62
     7
370
    13
100
AcDbLine
 10
3409.866139084857
 20
15164.3015831255
 30
0.0
 11
3490.866098584549
 21
15164.3015831255
 31
0.0
  0
LINE
  5
659B
330
1F
100
AcDbEntity
  8
1
  6
Continuous
 62
     7
370
    13
100
AcDbLine
 10
6568.866058085202
 20
15164.3015831255
 30
0.0
 11
6649.866058085201
 21
15164.3015831255
 31
0.0
  0
LINE
  5
659C
330
1F
100
AcDbEntity
  8
1
  6
Continuous
 62
     7
370
    13
100
AcDbLine
 10
3409.866139084857
 20
15188.60162362676
 30
0.0
 11
3490.866098584549
 21
15188.60162362676
 31
0.0
  0
LINE
  5
659D
330
1F
100
AcDbEntity
  8
1
  6
Continuous
 62
     7
370
    13
100
AcDbLine
 10
6568.866058085202
 20
15188.60162362676
 30
0.0
 11
6649.866058085201
 21
15188.60162362676
 31
0.0
  0
LINE
  5
659E
330
1F
100
AcDbEntity
  8
1
  6
Continuous
 62
     7
370
    13
100
AcDbLine
 10
3409.866139084857
 20
15212.90166412612
 30
0.0
 11
3490.866098584549
 21
15212.90166412612
 31
0.0
  0
LINE
  5
659F
330
1F
100
AcDbEntity
  8
1
  6
Continuous
 62
     7
370
    13
100
AcDbLine
 10
6568.866058085202
 20
15212.90166412612
 30
0.0
 11
6649.866058085201
 21
15212.90166412612
 31
0.0
  0
LINE
  5
65A0
330
1F
100
AcDbEntity
  8
1
  6
Continuous
 62
     7
370
    13
100
AcDbLine
 10
3409.866139084857
 20
15237.20158312645
 30
0.0
 11
3490.866098584549
 21
15237.20158312645
 31
0.0
  0
LINE
  5
65A1
330
1F
100
AcDbEntity
  8
1
  6
Continuous
 62
     7
370
    13
100
AcDbLine
 10
6568.866058085202
 20
15237.20158312645
 30
0.0
 11
6649.866058085201
 21
15237.20158312645
 31
0.0
  0
LINE
  5
65A2
330
1F
100
AcDbEntity
  8
1
  6
Continuous
 62
     7
370
    13
100
AcDbLine
 10
3409.866139084857
 20
15261.50166412613
 30
0.0
 11
3490.866098584549
 21
15261.50166412613
 31
0.0
  0
LINE
  5
65A3
330
1F
100
AcDbEntity
  8
1
  6
Continuous
 62
     7
370
    13
100
AcDbLine
 10
6568.866058085202
 20
15261.50166412613
 30
0.0
 11
6649.866058085201
 21
15261.50166412613
 31
0.0
  0
LINE
  5
65A4
330
1F
100
AcDbEntity
  8
1
  6
Continuous
 62
     7
370
    13
100
AcDbLine
 10
3409.866139084857
 20
15285.8015831255
 30
0.0
 11
3490.866098584549
 21
15285.8015831255
 31
0.0
  0
LINE
  5
65A5
330
1F
100
AcDbEntity
  8
1
  6
Continuous
 62
     7
370
    13
100
AcDbLine
 10
6568.866058085202
 20
15285.8015831255
 30
0.0
 11
6649.866058085201
 21
15285.8015831255
 31
0.0
  0
LINE
  5
65A6
330
1F
100
AcDbEntity
  8
1
  6
Continuous
 62
     7
370
    13
100
AcDbLine
 10
3409.866139084857
 20
15310.10162362676
 30
0.0
 11
3490.866098584549
 21
15310.10162362676
 31
0.0
  0
LINE
  5
65A7
330
1F
100
AcDbEntity
  8
1
  6
Continuous
 62
     7
370
    13
100
AcDbLine
 10
6568.866058085202
 20
15310.10162362676
 30
0.0
 11
6649.866058085201
 21
15310.10162362676
 31
0.0
  0
LINE
  5
65A8
330
1F
100
AcDbEntity
  8
1
  6
Continuous
 62
     7
370
    13
100
AcDbLine
 10
3409.866139084857
 20
15334.40166412612
 30
0.0
 11
3490.866098584549
 21
15334.40166412612
 31
0.0
  0
LINE
  5
65A9
330
1F
100
AcDbEntity
  8
1
  6
Continuous
 62
     7
370
    13
100
AcDbLine
 10
6568.866058085202
 20
15334.40166412612
 30
0.0
 11
6649.866058085201
 21
15334.40166412612
 31
0.0
  0
LINE
  5
65AA
330
1F
100
AcDbEntity
  8
1
  6
Continuous
 62
     7
370
    13
100
AcDbLine
 10
3409.866139084857
 20
15358.70158312645
 30
0.0
 11
3490.866098584549
 21
15358.70158312645
 31
0.0
  0
LINE
  5
65AB
330
1F
100
AcDbEntity
  8
1
  6
Continuous
 62
     7
370
    13
100
AcDbLine
 10
6568.866058085202
 20
15358.70158312645
 30
0.0
 11
6649.866058085201
 21
15358.70158312645
 31
0.0
  0
LINE
  5
65AC
330
1F
100
AcDbEntity
  8
1
  6
Continuous
 62
     7
370
    13
100
AcDbLine
 10
3409.866139084857
 20
15383.00162362582
 30
0.0
 11
3490.866098584549
 21
15383.00162362582
 31
0.0
  0
LINE
  5
65AD
330
1F
100
AcDbEntity
  8
1
  6
Continuous
 62
     7
370
    13
100
AcDbLine
 10
6568.866058085202
 20
15383.00162362582
 30
0.0
 11
6649.866058085201
 21
15383.00162362582
 31
0.0
  0
LINE
  5
65AE
330
1F
100
AcDbEntity
  8
1
  6
Continuous
 62
     7
370
    13
100
AcDbLine
 10
3409.866139084857
 20
15407.30154262708
 30
0.0
 11
3490.866098584549
 21
15407.30154262708
 31
0.0
  0
LINE
  5
65AF
330
1F
100
AcDbEntity
  8
1
  6
Continuous
 62
     7
370
    13
100
AcDbLine
 10
6568.866058085202
 20
15407.30154262708
 30
0.0
 11
6649.866058085201
 21
15407.30154262708
 31
0.0
  0
LINE
  5
65B0
330
1F
100
AcDbEntity
  8
1
  6
Continuous
 62
     7
370
    13
100
AcDbLine
 10
3409.866139084857
 20
15431.60162362676
 30
0.0
 11
3490.866098584549
 21
15431.60162362676
 31
0.0
  0
LINE
  5
65B1
330
1F
100
AcDbEntity
  8
1
  6
Continuous
 62
     7
370
    13
100
AcDbLine
 10
6568.866058085202
 20
15431.60162362676
 30
0.0
 11
6649.866058085201
 21
15431.60162362676
 31
0.0
  0
LINE
  5
65B2
330
1F
100
AcDbEntity
  8
1
  6
Continuous
 62
     7
370
    13
100
AcDbLine
 10
3409.866139084857
 20
15455.90166412612
 30
0.0
 11
3490.866098584549
 21
15455.90166412612
 31
0.0
  0
LINE
  5
65B3
330
1F
100
AcDbEntity
  8
1
  6
Continuous
 62
     7
370
    13
100
AcDbLine
 10
6568.866058085202
 20
15455.90166412612
 30
0.0
 11
6649.866058085201
 21
15455.90166412612
 31
0.0
  0
LINE
  5
65B4
330
1F
100
AcDbEntity
  8
1
  6
Continuous
 62
     7
370
    13
100
AcDbLine
 10
3409.866139084857
 20
15480.20158312645
 30
0.0
 11
3490.866098584549
 21
15480.20158312645
 31
0.0
  0
LINE
  5
65B5
330
1F
100
AcDbEntity
  8
1
  6
Continuous
 62
     7
370
    13
100
AcDbLine
 10
6568.866058085202
 20
15480.20158312645
 30
0.0
 11
6649.866058085201
 21
15480.20158312645
 31
0.0
  0
LINE
  5
65B6
330
1F
100
AcDbEntity
  8
1
  6
Continuous
 62
     7
370
    13
100
AcDbLine
 10
3409.866139084857
 20
15504.50162362582
 30
0.0
 11
3490.866098584549
 21
15504.50162362582
 31
0.0
  0
LINE
  5
65B7
330
1F
100
AcDbEntity
  8
1
  6
Continuous
 62
     7
370
    13
100
AcDbLine
 10
6568.866058085202
 20
15504.50162362582
 30
0.0
 11
6649.866058085201
 21
15504.50162362582
 31
0.0
  0
LINE
  5
65B8
330
1F
100
AcDbEntity
  8
1
  6
Continuous
 62
     7
370
    13
100
AcDbLine
 10
3409.866139084857
 20
15528.80154262708
 30
0.0
 11
3490.866098584549
 21
15528.80154262708
 31
0.0
  0
LINE
  5
65B9
330
1F
100
AcDbEntity
  8
1
  6
Continuous
 62
     7
370
    13
100
AcDbLine
 10
6568.866058085202
 20
15528.80154262708
 30
0.0
 11
6649.866058085201
 21
15528.80154262708
 31
0.0
  0
LINE
  5
65BA
330
1F
100
AcDbEntity
  8
1
  6
Continuous
 62
     7
370
    13
100
AcDbLine
 10
3409.866139084857
 20
15553.10162362676
 30
0.0
 11
3490.866098584549
 21
15553.10162362676
 31
0.0
  0
LINE
  5
65BB
330
1F
100
AcDbEntity
  8
1
  6
Continuous
 62
     7
370
    13
100
AcDbLine
 10
6568.866058085202
 20
15553.10162362676
 30
0.0
 11
6649.866058085201
 21
15553.10162362676
 31
0.0
  0
LINE
  5
65BC
330
1F
100
AcDbEntity
  8
1
  6
Continuous
 62
     7
370
    13
100
AcDbLine
 10
3409.866139084857
 20
15577.40166412612
 30
0.0
 11
3490.866098584549
 21
15577.40166412612
 31
0.0
  0
LINE
  5
65BD
330
1F
100
AcDbEntity
  8
1
  6
Continuous
 62
     7
370
    13
100
AcDbLine
 10
6568.866058085202
 20
15577.40166412612
 30
0.0
 11
6649.866058085201
 21
15577.40166412612
 31
0.0
  0
LINE
  5
65BE
330
1F
100
AcDbEntity
  8
1
  6
Continuous
 62
     7
370
    13
100
AcDbLine
 10
3409.866139084857
 20
15601.70158312645
 30
0.0
 11
3490.866098584549
 21
15601.70158312645
 31
0.0
  0
LINE
  5
65BF
330
1F
100
AcDbEntity
  8
1
  6
Continuous
 62
     7
370
    13
100
AcDbLine
 10
6568.866058085202
 20
15601.70158312645
 30
0.0
 11
6649.866058085201
 21
15601.70158312645
 31
0.0
  0
LINE
  5
65C0
330
1F
100
AcDbEntity
  8
1
  6
Continuous
 62
     7
370
    13
100
AcDbLine
 10
3409.866139084857
 20
15626.00162362582
 30
0.0
 11
3490.866098584549
 21
15626.00162362582
 31
0.0
  0
LINE
  5
65C1
330
1F
100
AcDbEntity
  8
1
  6
Continuous
 62
     7
370
    13
100
AcDbLine
 10
6568.866058085202
 20
15626.00162362582
 30
0.0
 11
6649.866058085201
 21
15626.00162362582
 31
0.0
  0
LINE
  5
65C2
330
1F
100
AcDbEntity
  8
1
  6
Continuous
 62
     7
370
    13
100
AcDbLine
 10
3409.866139084857
 20
15650.30166412612
 30
0.0
 11
3490.866098584549
 21
15650.30166412612
 31
0.0
  0
LINE
  5
65C3
330
1F
100
AcDbEntity
  8
1
  6
Continuous
 62
     7
370
    13
100
AcDbLine
 10
6568.866058085202
 20
15650.30166412612
 30
0.0
 11
6649.866058085201
 21
15650.30166412612
 31
0.0
  0
LINE
  5
65C4
330
1F
100
AcDbEntity
  8
1
  6
Continuous
 62
     7
370
    13
100
AcDbLine
 10
3409.866139084857
 20
15674.60158312645
 30
0.0
 11
3490.866098584549
 21
15674.60158312645
 31
0.0
  0
LINE
  5
65C5
330
1F
100
AcDbEntity
  8
1
  6
Continuous
 62
     7
370
    13
100
AcDbLine
 10
6568.866058085202
 20
15674.60158312645
 30
0.0
 11
6649.866058085201
 21
15674.60158312645
 31
0.0
  0
LINE
  5
65C6
330
1F
100
AcDbEntity
  8
1
  6
Continuous
 62
     7
370
    13
100
AcDbLine
 10
3409.866139084857
 20
15698.90166412612
 30
0.0
 11
3490.866098584549
 21
15698.90166412612
 31
0.0
  0
LINE
  5
65C7
330
1F
100
AcDbEntity
  8
1
  6
Continuous
 62
     7
370
    13
100
AcDbLine
 10
6568.866058085202
 20
15698.90166412612
 30
0.0
 11
6649.866058085201
 21
15698.90166412612
 31
0.0
  0
LINE
  5
65C8
330
1F
100
AcDbEntity
  8
1
  6
Continuous
 62
     7
370
    13
100
AcDbLine
 10
3409.866139084857
 20
15723.20158312645
 30
0.0
 11
3490.866098584549
 21
15723.20158312645
 31
0.0
  0
LINE
  5
65C9
330
1F
100
AcDbEntity
  8
1
  6
Continuous
 62
     7
370
    13
100
AcDbLine
 10
6568.866058085202
 20
15723.20158312645
 30
0.0
 11
6649.866058085201
 21
15723.20158312645
 31
0.0
  0
LINE
  5
65CA
330
1F
100
AcDbEntity
  8
1
  6
Continuous
 62
     7
370
    13
100
AcDbLine
 10
3409.866139084857
 20
15747.50162362582
 30
0.0
 11
3490.866098584549
 21
15747.50162362582
 31
0.0
  0
LINE
  5
65CB
330
1F
100
AcDbEntity
  8
1
  6
Continuous
 62
     7
370
    13
100
AcDbLine
 10
6568.866058085202
 20
15747.50162362582
 30
0.0
 11
6649.866058085201
 21
15747.50162362582
 31
0.0
  0
LINE
  5
65CC
330
1F
100
AcDbEntity
  8
1
  6
Continuous
 62
     7
370
    13
100
AcDbLine
 10
3409.866139084857
 20
15771.80166412612
 30
0.0
 11
3490.866098584549
 21
15771.80166412612
 31
0.0
  0
LINE
  5
65CD
330
1F
100
AcDbEntity
  8
1
  6
Continuous
 62
     7
370
    13
100
AcDbLine
 10
6568.866058085202
 20
15771.80166412612
 30
0.0
 11
6649.866058085201
 21
15771.80166412612
 31
0.0
  0
LINE
  5
65CE
330
1F
100
AcDbEntity
  8
1
  6
Continuous
 62
     7
370
    13
100
AcDbLine
 10
3409.866139084857
 20
15796.10158312645
 30
0.0
 11
3490.866098584549
 21
15796.10158312645
 31
0.0
  0
LINE
  5
65CF
330
1F
100
AcDbEntity
  8
1
  6
Continuous
 62
     7
370
    13
100
AcDbLine
 10
6568.866058085202
 20
15796.10158312645
 30
0.0
 11
6649.866058085201
 21
15796.10158312645
 31
0.0
  0
LINE
  5
65D0
330
1F
100
AcDbEntity
  8
1
  6
Continuous
 62
     7
370
    13
100
AcDbLine
 10
3409.866139084857
 20
15820.40162362676
 30
0.0
 11
3490.866098584549
 21
15820.40162362676
 31
0.0
  0
LINE
  5
65D1
330
1F
100
AcDbEntity
  8
1
  6
Continuous
 62
     7
370
    13
100
AcDbLine
 10
6568.866058085202
 20
15820.40162362676
 30
0.0
 11
6649.866058085201
 21
15820.40162362676
 31
0.0
  0
LINE
  5
65D2
330
1F
100
AcDbEntity
  8
1
  6
Continuous
 62
     7
370
    13
100
AcDbLine
 10
3409.866139084857
 20
15844.70154262614
 30
0.0
 11
3490.866098584549
 21
15844.70154262614
 31
0.0
  0
LINE
  5
65D3
330
1F
100
AcDbEntity
  8
1
  6
Continuous
 62
     7
370
    13
100
AcDbLine
 10
6568.866058085202
 20
15844.70154262614
 30
0.0
 11
6649.866058085201
 21
15844.70154262614
 31
0.0
  0
LINE
  5
65D4
330
1F
100
AcDbEntity
  8
1
  6
Continuous
 62
     7
370
    13
100
AcDbLine
 10
3409.866139084857
 20
15869.00162362582
 30
0.0
 11
3490.866098584549
 21
15869.00162362582
 31
0.0
  0
LINE
  5
65D5
330
1F
100
AcDbEntity
  8
1
  6
Continuous
 62
     7
370
    13
100
AcDbLine
 10
6568.866058085202
 20
15869.00162362582
 30
0.0
 11
6649.866058085201
 21
15869.00162362582
 31
0.0
  0
LINE
  5
65D6
330
1F
100
AcDbEntity
  8
1
  6
Continuous
 62
     7
370
    13
100
AcDbLine
 10
3409.866139084857
 20
15893.30166412612
 30
0.0
 11
3490.866098584549
 21
15893.30166412612
 31
0.0
  0
LINE
  5
65D7
330
1F
100
AcDbEntity
  8
1
  6
Continuous
 62
     7
370
    13
100
AcDbLine
 10
6568.866058085202
 20
15893.30166412612
 30
0.0
 11
6649.866058085201
 21
15893.30166412612
 31
0.0
  0
LINE
  5
65D8
330
1F
100
AcDbEntity
  8
1
  6
Continuous
 62
     7
370
    13
100
AcDbLine
 10
3409.866139084857
 20
15917.60158312645
 30
0.0
 11
3490.866098584549
 21
15917.60158312645
 31
0.0
  0
LINE
  5
65D9
330
1F
100
AcDbEntity
  8
1
  6
Continuous
 62
     7
370
    13
100
AcDbLine
 10
6568.866058085202
 20
15917.60158312645
 30
0.0
 11
6649.866058085201
 21
15917.60158312645
 31
0.0
  0
LINE
  5
65DA
330
1F
100
AcDbEntity
  8
1
  6
Continuous
 62
     7
370
    13
100
AcDbLine
 10
3409.866139084857
 20
15941.90162362676
 30
0.0
 11
3490.866098584549
 21
15941.90162362676
 31
0.0
  0
LINE
  5
65DB
330
1F
100
AcDbEntity
  8
1
  6
Continuous
 62
     7
370
    13
100
AcDbLine
 10
6568.866058085202
 20
15941.90162362676
 30
0.0
 11
6649.866058085201
 21
15941.90162362676
 31
0.0
  0
LINE
  5
65DC
330
1F
100
AcDbEntity
  8
1
  6
Continuous
 62
     7
370
    13
100
AcDbLine
 10
3409.866139084857
 20
15966.20154262615
 30
0.0
 11
3490.866098584549
 21
15966.20154262615
 31
0.0
  0
LINE
  5
65DD
330
1F
100
AcDbEntity
  8
1
  6
Continuous
 62
     7
370
    13
100
AcDbLine
 10
6568.866058085202
 20
15966.20154262615
 30
0.0
 11
6649.866058085201
 21
15966.20154262615
 31
0.0
  0
LINE
  5
65DE
330
1F
100
AcDbEntity
  8
1
  6
Continuous
 62
     7
370
    13
100
AcDbLine
 10
3409.866139084857
 20
15990.50162362582
 30
0.0
 11
3490.866098584549
 21
15990.50162362582
 31
0.0
  0
LINE
  5
65DF
330
1F
100
AcDbEntity
  8
1
  6
Continuous
 62
     7
370
    13
100
AcDbLine
 10
6568.866058085202
 20
15990.50162362582
 30
0.0
 11
6649.866058085201
 21
15990.50162362582
 31
0.0
  0
LINE
  5
65E0
330
1F
100
AcDbEntity
  8
1
  6
Continuous
 62
     7
370
    13
100
AcDbLine
 10
3409.866139084857
 20
16014.80166412612
 30
0.0
 11
3490.866098584549
 21
16014.80166412612
 31
0.0
  0
LINE
  5
65E1
330
1F
100
AcDbEntity
  8
1
  6
Continuous
 62
     7
370
    13
100
AcDbLine
 10
6568.866058085202
 20
16014.80166412612
 30
0.0
 11
6649.866058085201
 21
16014.80166412612
 31
0.0
  0
LINE
  5
65E2
330
1F
100
AcDbEntity
  8
1
  6
Continuous
 62
     7
370
    13
100
AcDbLine
 10
3409.866139084857
 20
16039.10158312645
 30
0.0
 11
3490.866098584549
 21
16039.10158312645
 31
0.0
  0
LINE
  5
65E3
330
1F
100
AcDbEntity
  8
1
  6
Continuous
 62
     7
370
    13
100
AcDbLine
 10
6568.866058085202
 20
16039.10158312645
 30
0.0
 11
6649.866058085201
 21
16039.10158312645
 31
0.0
  0
LINE
  5
65E4
330
1F
100
AcDbEntity
  8
1
  6
Continuous
 62
     7
370
    13
100
AcDbLine
 10
3409.866139084857
 20
16063.40162362676
 30
0.0
 11
3490.866098584549
 21
16063.40162362676
 31
0.0
  0
LINE
  5
65E5
330
1F
100
AcDbEntity
  8
1
  6
Continuous
 62
     7
370
    13
100
AcDbLine
 10
6568.866058085202
 20
16063.40162362676
 30
0.0
 11
6649.866058085201
 21
16063.40162362676
 31
0.0
  0
LINE
  5
65E6
330
1F
100
AcDbEntity
  8
1
  6
Continuous
 62
     7
370
    13
100
AcDbLine
 10
3409.882987084915
 20
16087.70166412613
 30
0.0
 11
3490.886389084422
 21
16087.70166412613
 31
0.0
  0
LINE
  5
65E7
330
1F
100
AcDbEntity
  8
1
  6
Continuous
 62
     7
370
    13
100
AcDbLine
 10
6568.845767585329
 20
16087.70166412613
 30
0.0
 11
6649.849210084212
 21
16087.70166412613
 31
0.0
  0
LINE
  5
65E8
330
1F
100
AcDbEntity
  8
1
  6
Continuous
 62
     7
370
    13
100
AcDbLine
 10
3410.693716084614
 20
16112.0015831274
 30
0.0
 11
3491.859604084194
 21
16112.0015831274
 31
0.0
  0
LINE
  5
65E9
330
1F
100
AcDbEntity
  8
1
  6
Continuous
 62
     7
370
    13
100
AcDbLine
 10
6567.872593084932
 20
16112.0015831274
 30
0.0
 11
6649.038481085445
 21
16112.0015831274
 31
0.0
  0
LINE
  5
65EA
330
1F
100
AcDbEntity
  8
1
  6
Continuous
 62
     7
370
    13
100
AcDbLine
 10
3412.726370585384
 20
16136.30166412612
 30
0.0
 11
3494.302888085774
 21
16136.30166412612
 31
0.0
  0
LINE
  5
65EB
330
1F
100
AcDbEntity
  8
1
  6
Continuous
 62
     7
370
    13
100
AcDbLine
 10
6565.429268584935
 20
16136.30166412612
 30
0.0
 11
6647.005786084367
 21
16136.30166412612
 31
0.0
  0
LINE
  5
65EC
330
1F
100
AcDbEntity
  8
1
  6
Continuous
 62
     7
370
    13
100
AcDbLine
 10
3415.996624084917
 20
16160.60158312645
 30
0.0
 11
3498.243578584196
 21
16160.60158312645
 31
0.0
  0
LINE
  5
65ED
330
1F
100
AcDbEntity
  8
1
  6
Continuous
 62
     7
370
    13
100
AcDbLine
 10
6561.488578084624
 20
16160.60158312645
 30
0.0
 11
6643.735532584833
 21
16160.60158312645
 31
0.0
  0
LINE
  5
65EE
330
1F
100
AcDbEntity
  8
1
  6
Continuous
 62
     7
370
    13
100
AcDbLine
 10
3420.529951084812
 20
16184.90162362676
 30
0.0
 11
3503.726630585122
 21
16184.90162362676
 31
0.0
  0
LINE
  5
65EF
330
1F
100
AcDbEntity
  8
1
  6
Continuous
 62
     7
370
    13
100
AcDbLine
 10
6556.005566584936
 20
16184.90162362676
 30
0.0
 11
6639.202246084315
 21
16184.90162362676
 31
0.0
  0
LINE
  5
65F0
330
1F
100
AcDbEntity
  8
1
  6
Continuous
 62
     7
370
    13
100
AcDbLine
 10
3426.363004085055
 20
16209.20166412612
 30
0.0
 11
3510.817775585513
 21
16209.20166412612
 31
0.0
  0
LINE
  5
65F1
330
1F
100
AcDbEntity
  8
1
  6
Continuous
 62
     7
370
    13
100
AcDbLine
 10
6548.914381084236
 20
16209.20166412612
 30
0.0
 11
6633.369152584696
 21
16209.20166412612
 31
0.0
  0
LINE
  5
65F2
330
1F
100
AcDbEntity
  8
1
  6
Continuous
 62
     7
370
    13
100
AcDbLine
 10
3433.54478808539
 20
16233.5015831274
 30
0.0
 11
3519.608219584945
 21
16233.5015831274
 31
0.0
  0
LINE
  5
65F3
330
1F
100
AcDbEntity
  8
1
  6
Continuous
 62
     7
370
    13
100
AcDbLine
 10
6540.123977585114
 20
16233.5015831274
 30
0.0
 11
6626.18736858436
 21
16233.5015831274
 31
0.0
  0
LINE
  5
65F4
330
1F
100
AcDbEntity
  8
1
  6
Continuous
 62
     7
370
    13
100
AcDbLine
 10
3442.139536084549
 20
16257.80162362581
 30
0.0
 11
3530.220434584276
 21
16257.80162362581
 31
0.0
  0
LINE
  5
65F5
330
1F
100
AcDbEntity
  8
1
  6
Continuous
 62
     7
370
    13
100
AcDbLine
 10
6529.511722085473
 20
16257.80162362581
 30
0.0
 11
6617.592620585201
 21
16257.80162362581
 31
0.0
  0
LINE
  5
65F6
330
1F
100
AcDbEntity
  8
1
  6
Continuous
 62
     7
370
    13
100
AcDbLine
 10
3452.229382084682
 20
16282.10154262614
 30
0.0
 11
3542.818607585243
 21
16282.10154262614
 31
0.0
  0
LINE
  5
65F7
330
1F
100
AcDbEntity
  8
1
  6
Continuous
 62
     7
370
    13
100
AcDbLine
 10
6516.913589584816
 20
16282.10154262614
 30
0.0
 11
6607.502815084444
 21
16282.10154262614
 31
0.0
  0
LINE
  5
65F8
330
1F
100
AcDbEntity
  8
1
  6
Continuous
 62
     7
370
    13
100
AcDbLine
 10
3463.918856584903
 20
16306.40162362676
 30
0.0
 11
3557.624476085533
 21
16306.40162362676
 31
0.0
  0
LINE
  5
65F9
330
1F
100
AcDbEntity
  8
1
  6
Continuous
 62
     7
370
    13
100
AcDbLine
 10
6502.107721085486
 20
16306.40162362676
 30
0.0
 11
6595.813340585156
 21
16306.40162362676
 31
0.0
  0
LINE
  5
65FA
330
1F
100
AcDbEntity
  8
1
  6
Continuous
 62
     7
370
    13
100
AcDbLine
 10
3477.342176585021
 20
16330.70166412613
 30
0.0
 11
3574.94361258467
 21
16330.70166412613
 31
0.0
  0
LINE
  5
65FB
330
1F
100
AcDbEntity
  8
1
  6
Continuous
 62
     7
370
    13
100
AcDbLine
 10
6484.788584584457
 20
16330.70166412613
 30
0.0
 11
6582.390020585036
 21
16330.70166412613
 31
0.0
  0
LINE
  5
65FC
330
1F
100
AcDbEntity
  8
1
  6
Continuous
 62
     7
370
    13
100
AcDbLine
 10
3492.672479585162
 20
16355.0015831274
 30
0.0
 11
3595.209812585439
 21
16355.0015831274
 31
0.0
  0
LINE
  5
65FD
330
1F
100
AcDbEntity
  8
1
  6
Continuous
 62
     7
370
    13
100
AcDbLine
 10
6464.522344085271
 20
16355.0015831274
 30
0.0
 11
6567.059717584896
 21
16355.0015831274
 31
0.0
  0
LINE
  5
65FE
330
1F
100
AcDbEntity
  8
1
  6
Continuous
 62
     7
370
    13
100
AcDbLine
 10
3510.136849084083
 20
16379.30162362581
 30
0.0
 11
3619.069982584827
 21
16379.30162362581
 31
0.0
  0
LINE
  5
65FF
330
1F
100
AcDbEntity
  8
1
  6
Continuous
 62
     7
370
    13
100
AcDbLine
 10
6440.662214585231
 20
16379.30162362581
 30
0.0
 11
6549.595348085045
 21
16379.30162362581
 31
0.0
  0
LINE
  5
6600
330
1F
100
AcDbEntity
  8
1
  6
Continuous
 62
     7
370
    13
100
AcDbLine
 10
3530.040979085112
 20
16403.60154262614
 30
0.0
 11
3647.55784458504
 21
16403.60154262614
 31
0.0
  0
LINE
  5
6601
330
1F
100
AcDbEntity
  8
1
  6
Continuous
 62
     7
370
    13
100
AcDbLine
 10
6412.174352585018
 20
16403.60154262614
 30
0.0
 11
6529.691177584638
 21
16403.60154262614
 31
0.0
  0
LINE
  5
6602
330
1F
100
AcDbEntity
  8
1
  6
Continuous
 62
     7
370
    13
100
AcDbLine
 10
3552.809309584787
 20
16427.90158312645
 30
0.0
 11
3682.519145584723
 21
16427.90158312645
 31
0.0
  0
LINE
  5
6603
330
1F
100
AcDbEntity
  8
1
  6
Continuous
 62
     7
370
    13
100
AcDbLine
 10
6377.213011085027
 20
16427.90158312645
 30
0.0
 11
6506.922847084964
 21
16427.90158312645
 31
0.0
  0
LINE
  5
6604
330
1F
100
AcDbEntity
  8
1
  6
Continuous
 62
     7
370
    13
100
AcDbLine
 10
3579.058777084865
 20
16452.20166412612
 30
0.0
 11
3727.949777584872
 21
16452.20166412612
 31
0.0
  0
LINE
  5
6605
330
1F
100
AcDbEntity
  8
1
  6
Continuous
 62
     7
370
    13
100
AcDbLine
 10
6331.782419585186
 20
16452.20166412612
 30
0.0
 11
6480.673379585844
 21
16452.20166412612
 31
0.0
  0
LINE
  5
6606
330
1F
100
AcDbEntity
  8
1
  6
Continuous
 62
     7
370
    13
100
AcDbLine
 10
3609.745748585032
 20
16476.5015831274
 30
0.0
 11
3797.408695084916
 21
16476.5015831274
 31
0.0
  0
LINE
  5
6607
330
1F
100
AcDbEntity
  8
1
  6
Continuous
 62
     7
370
    13
100
AcDbLine
 10
6262.323502085142
 20
16476.5015831274
 30
0.0
 11
6449.986408084718
 21
16476.5015831274
 31
0.0
  0
LINE
  5
6608
330
1F
100
AcDbEntity
  8
1
  6
Continuous
 62
     7
370
    13
100
AcDbLine
 10
3646.503143584326
 20
16500.80162362581
 30
0.0
 11
6413.229013085423
 21
16500.80162362581
 31
0.0
  0
LINE
  5
6609
330
1F
100
AcDbEntity
  8
1
  6
Continuous
 62
     7
370
    13
100
AcDbLine
 10
3692.598097085836
 20
16525.10166412706
 30
0.0
 11
6367.134100085182
 21
16525.10166412706
 31
0.0
  0
LINE
  5
660A
330
1F
100
AcDbEntity
  8
1
  6
Continuous
 62
     7
370
    13
100
AcDbLine
 10
3757.039105084987
 20
16549.40158312645
 30
0.0
 11
6302.693092085071
 21
16549.40158312645
 31
0.0
  0
LINE
  5
660B
330
1F
100
AcDbEntity
  8
1
  6
Continuous
 62
     7
370
    13
100
AcDbLine
 10
6163.866098584549
 20
14139.65162362676
 30
0.0
 11
3895.866098584549
 21
14139.65162362676
 31
0.0
  0
LINE
  5
660C
330
1F
100
AcDbEntity
  8
1
  6
Continuous
 62
     7
370
    13
100
AcDbLine
 10
3490.866098584549
 20
14544.65158312645
 30
0.0
 11
3490.866098584549
 21
16083.65162362676
 31
0.0
  0
ARC
  5
660D
330
1F
100
AcDbEntity
  8
1
  6
Continuous
 62
     7
370
    13
100
AcDbCircle
 10
3895.866098584549
 20
14544.65158312645
 30
0.0
 40
404.9999595
100
AcDbArc
 50
180.0
 51
270.0
  0
LINE
  5
660E
330
1F
100
AcDbEntity
  8
1
  6
Continuous
 62
     7
370
    13
100
AcDbLine
 10
6568.866058085202
 20
16083.65162362676
 30
0.0
 11
6568.866058085202
 21
14544.65158312645
 31
0.0
  0
ARC
  5
660F
330
1F
100
AcDbEntity
  8
1
  6
Continuous
 62
     7
370
    13
100
AcDbCircle
 10
6163.866098584549
 20
14544.65158312645
 30
0.0
 40
404.9999595
100
AcDbArc
 50
270.0
 51
0.0
  0
LINE
  5
6610
330
1F
100
AcDbEntity
  8
1
  6
Continuous
 62
     7
370
    13
100
AcDbLine
 10
3895.866098584549
 20
16488.65158312645
 30
0.0
 11
6163.866098584549
 21
16488.65158312645
 31
0.0
  0
ARC
  5
6611
330
1F
100
AcDbEntity
  8
1
  6
Continuous
 62
     7
370
    13
100
AcDbCircle
 10
6163.866098584549
 20
16083.65162362676
 30
0.0
 40
404.9999595
100
AcDbArc
 50
0.0
 51
90.0
  0
ARC
  5
6612
330
1F
100
AcDbEntity
  8
1
  6
Continuous
 62
     7
370
    13
100
AcDbCircle
 10
3895.866098584549
 20
16083.65162362676
 30
0.0
 40
404.9999595
100
AcDbArc
 50
90.0
 51
180.0
  0
LINE
  5
6613
330
1F
100
AcDbEntity
  8
1
  6
Continuous
 62
     7
370
    13
100
AcDbLine
 10
6163.866098584549
 20
14058.65162362676
 30
0.0
 11
3895.866098584549
 21
14058.65162362676
 31
0.0
  0
LINE
  5
6614
330
1F
100
AcDbEntity
  8
1
  6
Continuous
 62
     7
370
    13
100
AcDbLine
 10
3409.866139084857
 20
14544.65158312645
 30
0.0
 11
3409.866139084857
 21
16083.65162362676
 31
0.0
  0
ARC
  5
6615
330
1F
100
AcDbEntity
  8
1
  6
Continuous
 62
     7
370
    13
100
AcDbCircle
 10
3895.866098584549
 20
14544.65158312645
 30
0.0
 40
485.9999594999999
100
AcDbArc
 50
180.0
 51
270.0
  0
LINE
  5
6616
330
1F
100
AcDbEntity
  8
1
  6
Continuous
 62
     7
370
    13
100
AcDbLine
 10
6649.866058085201
 20
16083.65162362676
 30
0.0
 11
6649.866058085201
 21
14544.65158312645
 31
0.0
  0
ARC
  5
6617
330
1F
100
AcDbEntity
  8
1
  6
Continuous
 62
     7
370
    13
100
AcDbCircle
 10
6163.866098584549
 20
14544.65158312645
 30
0.0
 40
485.9999594999999
100
AcDbArc
 50
270.0
 51
0.0
  0
LINE
  5
6618
330
1F
100
AcDbEntity
  8
1
  6
Continuous
 62
     7
370
    13
100
AcDbLine
 10
3895.866098584549
 20
16569.65158312645
 30
0.0
 11
6163.866098584549
 21
16569.65158312645
 31
0.0
  0
ARC
  5
6619
330
1F
100
AcDbEntity
  8
1
  6
Continuous
 62
     7
370
    13
100
AcDbCircle
 10
6163.866098584549
 20
16083.65162362676
 30
0.0
 40
485.9999594999999
100
AcDbArc
 50
0.0
 51
90.0
  0
ARC
  5
661A
330
1F
100
AcDbEntity
  8
1
  6
Continuous
 62
     7
370
    13
100
AcDbCircle
 10
3895.866098584549
 20
16083.65162362676
 30
0.0
 40
485.9999594999999
100
AcDbArc
 50
90.0
 51
180.0
  0
ARC
  5
661B
330
1F
100
AcDbEntity
  8
1
  6
Continuous
 62
     7
370
    13
100
AcDbCircle
 10
5029.866139084857
 20
33174.6531221259
 30
0.0
 40
21465.00162
100
AcDbArc
 50
264.8320850004411
 51
275.1679149995589
  0
ARC
  5
661C
330
1F
100
AcDbEntity
  8
1
  6
Continuous
 62
     7
370
    13
100
AcDbCircle
 10
6890.363036585156
 20
12603.61423912611
 30
0.0
 40
809.9999594999999
100
AcDbArc
 50
275.1679149995589
 51
355.2497019997061
  0
ARC
  5
661D
330
1F
100
AcDbEntity
  8
1
  6
Continuous
 62
     7
370
    13
100
AcDbCircle
 10
-40836.38896391534
 20
16569.65158312645
 30
0.0
 40
48701.2550625
100
AcDbArc
 50
355.2497019997061
 51
4.750298000293846
  0
ARC
  5
661E
330
1F
100
AcDbEntity
  8
1
  6
Continuous
 62
     7
370
    13
100
AcDbCircle
 10
6890.363036585156
 20
20535.6889271268
 30
0.0
 40
809.9999594999999
100
AcDbArc
 50
4.750298000293846
 51
84.83208500044112
  0
ARC
  5
661F
330
1F
100
AcDbEntity
  8
1
  6
Continuous
 62
     7
370
    13
100
AcDbCircle
 10
5029.866139084857
 20
-35.34995587301091
 30
0.0
 40
21465.00162
100
AcDbArc
 50
84.83208500044112
 51
95.16791499955891
  0
ARC
  5
6620
330
1F
100
AcDbEntity
  8
1
  6
Continuous
 62
     7
370
    13
100
AcDbCircle
 10
3169.369282084895
 20
12603.61423912611
 30
0.0
 40
809.9999594999999
100
AcDbArc
 50
184.7502980002938
 51
264.8320850004411
  0
ARC
  5
6621
330
1F
100
AcDbEntity
  8
1
  6
Continuous
 62
     7
370
    13
100
AcDbCircle
 10
50896.12128258537
 20
16569.65158312645
 30
0.0
 40
48701.2550625
100
AcDbArc
 50
175.2497019997061
 51
184.6746109996064
  0
ARC
  5
6622
330
1F
100
AcDbEntity
  8
1
  6
Continuous
 62
     7
370
    13
100
AcDbCircle
 10
3169.369282084895
 20
20535.6889271268
 30
0.0
 40
809.9999594999999
100
AcDbArc
 50
95.16791499955891
 51
175.2497019997061
  0
LINE
  5
6623
330
1F
100
AcDbEntity
  8
1
  6
Continuous
 62
     7
370
    13
100
AcDbLine
 10
5799.366098584549
 20
17518.97154262672
 30
0.0
 11
5717.556139085064
 21
17518.97154262672
 31
0.0
  0
LINE
  5
6624
330
1F
100
AcDbEntity
  8
1
  6
Continuous
 62
     7
370
    13
100
AcDbLine
 10
5717.556139085064
 20
17548.94154262634
 30
0.0
 11
5799.366098584549
 21
17548.94154262634
 31
0.0
  0
LINE
  5
6625
330
1F
100
AcDbEntity
  8
1
  6
Continuous
 62
     7
370
    13
100
AcDbLine
 10
5717.556139085064
 20
17535.17162362639
 30
0.0
 11
5799.366098584549
 21
17535.17162362639
 31
0.0
  0
LINE
  5
6626
330
1F
100
AcDbEntity
  8
1
  6
Continuous
 62
     7
370
    13
100
AcDbLine
 10
5717.556139085064
 20
17563.52158312702
 30
0.0
 11
5799.366098584549
 21
17563.52158312702
 31
0.0
  0
CIRCLE
  5
6627
330
1F
100
AcDbEntity
  8
1
  6
Continuous
 62
     7
370
    13
100
AcDbCircle
 10
5961.366098584549
 20
17864.84154262633
 30
0.0
 40
30.7799595
  0
LINE
  5
6628
330
1F
100
AcDbEntity
  8
1
  6
Continuous
 62
     7
370
    13
100
AcDbLine
 10
3106.116139084857
 20
12865.52162362543
 30
0.0
 11
6953.616179585165
 21
12865.52162362543
 31
0.0
  0
LINE
  5
6629
330
1F
100
AcDbEntity
  8
1
  6
Continuous
 62
     7
370
    13
100
AcDbLine
 10
3106.116139084857
 20
20277.02154262671
 30
0.0
 11
3106.116139084857
 21
12865.52162362543
 31
0.0
  0
LINE
  5
662A
330
1F
100
AcDbEntity
  8
1
  6
Continuous
 62
     7
370
    13
100
AcDbLine
 10
6953.616179585165
 20
20277.02154262671
 30
0.0
 11
3106.116139084857
 21
20277.02154262671
 31
0.0
  0
LINE
  5
662B
330
1F
100
AcDbEntity
  8
1
  6
Continuous
 62
     7
370
    13
100
AcDbLine
 10
6953.616179585165
 20
12865.52162362543
 30
0.0
 11
6953.616179585165
 21
20277.02154262671
 31
0.0
  0
LINE
  5
662C
330
1F
100
AcDbEntity
  8
1
  6
Continuous
 62
     7
370
    13
100
AcDbLine
 10
7014.366179585166
 20
20336.15162362676
 30
0.0
 11
3045.366139084857
 21
20336.15162362676
 31
0.0
  0
LINE
  5
662D
330
1F
100
AcDbEntity
  8
1
  6
Continuous
 62
     7
370
    13
100
AcDbLine
 10
7014.366179585166
 20
12803.15158312645
 30
0.0
 11
7014.366179585166
 21
20336.15162362676
 31
0.0
  0
LINE
  5
662E
330
1F
100
AcDbEntity
  8
1
  6
Continuous
 62
     7
370
    13
100
AcDbLine
 10
3045.366139084857
 20
12803.15158312645
 30
0.0
 11
7014.366179585166
 21
12803.15158312645
 31
0.0
  0
LINE
  5
662F
330
1F
100
AcDbEntity
  8
1
  6
Continuous
 62
     7
370
    13
100
AcDbLine
 10
3045.366139084857
 20
20336.15162362676
 30
0.0
 11
3045.366139084857
 21
12803.15158312645
 31
0.0
  0
LINE
  5
6630
330
1F
100
AcDbEntity
  8
1
  6
Continuous
 62
     7
370
    13
100
AcDbLine
 10
5075.226139084669
 20
13451.15166412612
 30
0.0
 11
5216.976139084668
 21
13451.15166412612
 31
0.0
  0
LINE
  5
6631
330
1F
100
AcDbEntity
  8
1
  6
Continuous
 62
     7
370
    13
100
AcDbLine
 10
5318.226139084669
 20
13390.40154262614
 30
0.0
 11
5520.726139084668
 21
13390.40154262614
 31
0.0
  0
LINE
  5
6632
330
1F
100
AcDbEntity
  8
1
  6
Continuous
 62
     7
370
    13
100
AcDbLine
 10
5439.726139084669
 20
13410.65154262614
 30
0.0
 11
5439.726139084669
 21
13187.90154262614
 31
0.0
  0
LINE
  5
6633
330
1F
100
AcDbEntity
  8
1
  6
Continuous
 62
     7
370
    13
100
AcDbLine
 10
5419.476139084668
 20
13187.90154262614
 30
0.0
 11
5419.476139084668
 21
13410.65154262614
 31
0.0
  0
LINE
  5
6634
330
1F
100
AcDbEntity
  8
1
  6
Continuous
 62
     7
370
    13
100
AcDbLine
 10
5399.226139084669
 20
13410.65154262614
 30
0.0
 11
5399.226139084669
 21
13187.90154262614
 31
0.0
  0
LINE
  5
6635
330
1F
100
AcDbEntity
  8
1
  6
Continuous
 62
     7
370
    13
100
AcDbLine
 10
5318.226139084669
 20
13410.65154262614
 30
0.0
 11
5520.726139084668
 21
13410.65154262614
 31
0.0
  0
LINE
  5
6636
330
1F
100
AcDbEntity
  8
1
  6
Continuous
 62
     7
370
    13
100
AcDbLine
 10
5520.726139084668
 20
13430.90154262614
 30
0.0
 11
5318.226139084669
 21
13430.90154262614
 31
0.0
  0
LINE
  5
6637
330
1F
100
AcDbEntity
  8
1
  6
Continuous
 62
     7
370
    13
100
AcDbLine
 10
5318.226139084669
 20
13451.15166412612
 30
0.0
 11
5520.726139084668
 21
13451.15166412612
 31
0.0
  0
LINE
  5
6638
330
1F
100
AcDbEntity
  8
1
  6
Continuous
 62
     7
370
    13
100
AcDbLine
 10
5257.476139084669
 20
13187.90154262614
 30
0.0
 11
5176.476139084669
 21
13268.90154262614
 31
0.0
  0
LINE
  5
6639
330
1F
100
AcDbEntity
  8
1
  6
Continuous
 62
     7
370
    13
100
AcDbLine
 10
5237.226139084668
 20
13187.90154262614
 30
0.0
 11
5156.226139084669
 21
13268.90154262614
 31
0.0
  0
LINE
  5
663A
330
1F
100
AcDbEntity
  8
1
  6
Continuous
 62
     7
370
    13
100
AcDbLine
 10
5216.976139084668
 20
13187.90154262614
 30
0.0
 11
5135.976139084669
 21
13268.90154262614
 31
0.0
  0
LINE
  5
663B
330
1F
100
AcDbEntity
  8
1
  6
Continuous
 62
     7
370
    13
100
AcDbLine
 10
5115.726139084669
 20
13268.90154262614
 30
0.0
 11
5196.726139084669
 21
13187.90154262614
 31
0.0
  0
LINE
  5
663C
330
1F
100
AcDbEntity
  8
1
  6
Continuous
 62
     7
370
    13
100
AcDbLine
 10
5095.476139084669
 20
13289.15154262614
 30
0.0
 11
5257.476139084669
 21
13289.15154262614
 31
0.0
  0
LINE
  5
663D
330
1F
100
AcDbEntity
  8
1
  6
Continuous
 62
     7
370
    13
100
AcDbLine
 10
5054.976179584977
 20
13309.40154262614
 30
0.0
 11
5257.476139084669
 21
13309.40154262614
 31
0.0
  0
LINE
  5
663E
330
1F
100
AcDbEntity
  8
1
  6
Continuous
 62
     7
370
    13
100
AcDbLine
 10
5216.976139084668
 20
13329.65154262614
 30
0.0
 11
5277.726139084669
 21
13329.65154262614
 31
0.0
  0
LINE
  5
663F
330
1F
100
AcDbEntity
  8
1
  6
Continuous
 62
     7
370
    13
100
AcDbLine
 10
5216.976139084668
 20
13349.90154262614
 30
0.0
 11
5277.726139084669
 21
13349.90154262614
 31
0.0
  0
LINE
  5
6640
330
1F
100
AcDbEntity
  8
1
  6
Continuous
 62
     7
370
    13
100
AcDbLine
 10
5216.976139084668
 20
13370.15154262614
 30
0.0
 11
5277.726139084669
 21
13370.15154262614
 31
0.0
  0
LINE
  5
6641
330
1F
100
AcDbEntity
  8
1
  6
Continuous
 62
     7
370
    13
100
AcDbLine
 10
5075.226139084669
 20
13390.40154262614
 30
0.0
 11
5277.726139084669
 21
13390.40154262614
 31
0.0
  0
LINE
  5
6642
330
1F
100
AcDbEntity
  8
1
  6
Continuous
 62
     7
370
    13
100
AcDbLine
 10
5075.226139084669
 20
13410.65154262614
 30
0.0
 11
5277.726139084669
 21
13410.65154262614
 31
0.0
  0
LINE
  5
6643
330
1F
100
AcDbEntity
  8
1
  6
Continuous
 62
     7
370
    13
100
AcDbLine
 10
5075.226139084669
 20
13430.90154262614
 30
0.0
 11
5257.476139084669
 21
13430.90154262614
 31
0.0
  0
LINE
  5
6644
330
1F
100
AcDbEntity
  8
1
  6
Continuous
 62
     7
370
    13
100
AcDbLine
 10
4791.726179584977
 20
13187.90154262614
 30
0.0
 11
4973.976179584977
 21
13187.90154262614
 31
0.0
  0
LINE
  5
6645
330
1F
100
AcDbEntity
  8
1
  6
Continuous
 62
     7
370
    13
100
AcDbLine
 10
4791.726179584977
 20
13208.15154262614
 30
0.0
 11
4973.976179584977
 21
13208.15154262614
 31
0.0
  0
LINE
  5
6646
330
1F
100
AcDbEntity
  8
1
  6
Continuous
 62
     7
370
    13
100
AcDbLine
 10
4791.726179584977
 20
13228.40154262614
 30
0.0
 11
4973.976179584977
 21
13228.40154262614
 31
0.0
  0
LINE
  5
6647
330
1F
100
AcDbEntity
  8
1
  6
Continuous
 62
     7
370
    13
100
AcDbLine
 10
4791.726179584977
 20
13248.65154262614
 30
0.0
 11
4973.976179584977
 21
13248.65154262614
 31
0.0
  0
LINE
  5
6648
330
1F
100
AcDbEntity
  8
1
  6
Continuous
 62
     7
370
    13
100
AcDbLine
 10
4791.726179584977
 20
13268.90154262614
 30
0.0
 11
4953.726179584977
 21
13268.90154262614
 31
0.0
  0
LINE
  5
6649
330
1F
100
AcDbEntity
  8
1
  6
Continuous
 62
     7
370
    13
100
AcDbLine
 10
4933.476179584977
 20
13167.65154262614
 30
0.0
 11
4933.476179584977
 21
13451.15166412612
 31
0.0
  0
LINE
  5
664A
330
1F
100
AcDbEntity
  8
1
  6
Continuous
 62
     7
370
    13
100
AcDbLine
 10
4953.726179584977
 20
13167.65154262614
 30
0.0
 11
4953.726179584977
 21
13491.65166412612
 31
0.0
  0
LINE
  5
664B
330
1F
100
AcDbEntity
  8
1
  6
Continuous
 62
     7
370
    13
100
AcDbLine
 10
4973.976179584977
 20
13532.15166412612
 30
0.0
 11
4973.976179584977
 21
13167.65154262614
 31
0.0
  0
LINE
  5
664C
330
1F
100
AcDbEntity
  8
1
  6
Continuous
 62
     7
370
    13
100
AcDbLine
 10
4994.226179584977
 20
13167.65154262614
 30
0.0
 11
4994.226179584977
 21
13532.15166412612
 31
0.0
  0
LINE
  5
664D
330
1F
100
AcDbEntity
  8
1
  6
Continuous
 62
     7
370
    13
100
AcDbLine
 10
5014.476179584978
 20
13552.40166412612
 30
0.0
 11
5014.476179584978
 21
13167.65154262614
 31
0.0
  0
LINE
  5
664E
330
1F
100
AcDbEntity
  8
1
  6
Continuous
 62
     7
370
    13
100
AcDbLine
 10
4629.726058085013
 20
13167.65154262614
 30
0.0
 11
5034.726179584978
 21
13572.65166412612
 31
0.0
  0
LINE
  5
664F
330
1F
100
AcDbEntity
  8
1
  6
Continuous
 62
     7
370
    13
100
AcDbLine
 10
4609.476058085013
 20
13167.65154262614
 30
0.0
 11
5034.726179584978
 21
13592.90166412612
 31
0.0
  0
LINE
  5
6650
330
1F
100
AcDbEntity
  8
1
  6
Continuous
 62
     7
370
    13
100
AcDbLine
 10
4589.226058085013
 20
13167.65154262614
 30
0.0
 11
5034.726179584978
 21
13613.15162362676
 31
0.0
  0
LINE
  5
6651
330
1F
100
AcDbEntity
  8
1
  6
Continuous
 62
     7
370
    13
100
AcDbLine
 10
4568.976058085012
 20
13167.65154262614
 30
0.0
 11
5034.726179584978
 21
13633.40162362676
 31
0.0
  0
LINE
  5
6652
330
1F
100
AcDbEntity
  8
1
  6
Continuous
 62
     7
370
    13
100
AcDbLine
 10
4548.726058085012
 20
13167.65154262614
 30
0.0
 11
5034.726179584978
 21
13653.65162362676
 31
0.0
  0
LINE
  5
6653
330
1F
100
AcDbEntity
  8
1
  6
Continuous
 62
     7
370
    13
100
AcDbLine
 10
4528.476058085012
 20
13167.65154262614
 30
0.0
 11
5034.726179584978
 21
13673.90162362676
 31
0.0
  0
LINE
  5
6654
330
1F
100
AcDbEntity
  8
1
  6
Continuous
 62
     7
370
    13
100
AcDbLine
 10
4508.226058085012
 20
13167.65154262614
 30
0.0
 11
5034.726179584978
 21
13694.15162362676
 31
0.0
  0
LINE
  5
6655
330
1F
100
AcDbEntity
  8
1
  6
Continuous
 62
     7
370
    13
100
AcDbLine
 10
4487.976058085012
 20
13167.65154262614
 30
0.0
 11
5034.726179584978
 21
13714.40162362676
 31
0.0
  0
LINE
  5
6656
330
1F
100
AcDbEntity
  8
1
  6
Continuous
 62
     7
370
    13
100
AcDbLine
 10
5206.4461795846
 20
13266.47154262672
 30
0.0
 11
5311.746098585892
 21
13167.65154262614
 31
0.0
  0
LINE
  5
6657
330
1F
100
AcDbEntity
  8
1
  6
Continuous
 62
     7
370
    13
100
AcDbLine
 10
5378.976139084669
 20
13386.35162362676
 30
0.0
 11
5302.83613908448
 21
13386.35162362676
 31
0.0
  0
LINE
  5
6658
330
1F
100
AcDbEntity
  8
1
  6
Continuous
 62
     7
370
    13
100
AcDbLine
 10
5378.976139084669
 20
13167.65154262614
 30
0.0
 11
5378.976139084669
 21
13386.35162362676
 31
0.0
  0
LINE
  5
6659
330
1F
100
AcDbEntity
  8
1
  6
Continuous
 62
     7
370
    13
100
AcDbLine
 10
5457.546139084297
 20
13167.65154262614
 30
0.0
 11
5378.976139084669
 21
13167.65154262614
 31
0.0
  0
LINE
  5
665A
330
1F
100
AcDbEntity
  8
1
  6
Continuous
 62
     7
370
    13
100
AcDbLine
 10
5457.546139084297
 20
13386.35162362676
 30
0.0
 11
5457.546139084297
 21
13167.65154262614
 31
0.0
  0
LINE
  5
665B
330
1F
100
AcDbEntity
  8
1
  6
Continuous
 62
     7
370
    13
100
AcDbLine
 10
5530.446139085253
 20
13386.35162362676
 30
0.0
 11
5457.546139084297
 21
13386.35162362676
 31
0.0
  0
LINE
  5
665C
330
1F
100
AcDbEntity
  8
1
  6
Continuous
 62
     7
370
    13
100
AcDbLine
 10
5530.446139085253
 20
13456.01154262595
 30
0.0
 11
5530.446139085253
 21
13386.35162362676
 31
0.0
  0
LINE
  5
665D
330
1F
100
AcDbEntity
  8
1
  6
Continuous
 62
     7
370
    13
100
AcDbLine
 10
5302.83613908448
 20
13456.01154262595
 30
0.0
 11
5530.446139085253
 21
13456.01154262595
 31
0.0
  0
LINE
  5
665E
330
1F
100
AcDbEntity
  8
1
  6
Continuous
 62
     7
370
    13
100
AcDbLine
 10
5302.83613908448
 20
13456.01154262595
 30
0.0
 11
5302.83613908448
 21
13386.35162362676
 31
0.0
  0
LINE
  5
665F
330
1F
100
AcDbEntity
  8
1
  6
Continuous
 62
     7
370
    13
100
AcDbLine
 10
5058.216139085824
 20
13456.01154262595
 30
0.0
 11
5204.826139084675
 21
13456.01154262595
 31
0.0
  0
LINE
  5
6660
330
1F
100
AcDbEntity
  8
1
  6
Continuous
 62
     7
370
    13
100
AcDbLine
 10
5186.1961795846
 20
13386.35162362676
 30
0.0
 11
5058.216139085824
 21
13386.35162362676
 31
0.0
  0
LINE
  5
6661
330
1F
100
AcDbEntity
  8
1
  6
Continuous
 62
     7
370
    13
100
AcDbLine
 10
5034.726179584978
 20
13328.0316236262
 30
0.0
 11
5186.1961795846
 21
13328.0316236262
 31
0.0
  0
LINE
  5
6662
330
1F
100
AcDbEntity
  8
1
  6
Continuous
 62
     7
370
    13
100
AcDbLine
 10
5058.216139085824
 20
13386.35162362676
 30
0.0
 11
5058.216139085824
 21
13456.01154262595
 31
0.0
  0
LINE
  5
6663
330
1F
100
AcDbEntity
  8
1
  6
Continuous
 62
     7
370
    13
100
AcDbLine
 10
5204.826139084675
 20
13167.65154262614
 30
0.0
 11
5034.726179584978
 21
13328.0316236262
 31
0.0
  0
LINE
  5
6664
330
1F
100
AcDbEntity
  8
1
  6
Continuous
 62
     7
370
    13
100
AcDbLine
 10
5204.826139084675
 20
13167.65154262614
 30
0.0
 11
5311.746098585892
 21
13167.65154262614
 31
0.0
  0
LINE
  5
6665
330
1F
100
AcDbEntity
  8
1
  6
Continuous
 62
     7
370
    13
100
AcDbLine
 10
5034.726179584978
 20
13167.65154262614
 30
0.0
 11
5034.726179584978
 21
13739.51166412688
 31
0.0
  0
LINE
  5
6666
330
1F
100
AcDbEntity
  8
1
  6
Continuous
 62
     7
370
    13
100
AcDbLine
 10
4792.536139085423
 20
13167.65154262614
 30
0.0
 11
5034.726179584978
 21
13167.65154262614
 31
0.0
  0
LINE
  5
6667
330
1F
100
AcDbEntity
  8
1
  6
Continuous
 62
     7
370
    13
100
AcDbLine
 10
4792.536139085423
 20
13285.10162362676
 30
0.0
 11
4792.536139085423
 21
13167.65154262614
 31
0.0
  0
LINE
  5
6668
330
1F
100
AcDbEntity
  8
1
  6
Continuous
 62
     7
370
    13
100
AcDbLine
 10
4912.416098584566
 20
13285.10162362676
 30
0.0
 11
4792.536139085423
 21
13285.10162362676
 31
0.0
  0
LINE
  5
6669
330
1F
100
AcDbEntity
  8
1
  6
Continuous
 62
     7
370
    13
100
AcDbLine
 10
4912.416098584566
 20
13447.10158312645
 30
0.0
 11
4912.416098584566
 21
13285.10162362676
 31
0.0
  0
LINE
  5
666A
330
1F
100
AcDbEntity
  8
1
  6
Continuous
 62
     7
370
    13
100
AcDbLine
 10
4641.066139084869
 20
13167.65154262614
 30
0.0
 11
4912.416098584566
 21
13447.10158312645
 31
0.0
  0
LINE
  5
666B
330
1F
100
AcDbEntity
  8
1
  6
Continuous
 62
     7
370
    13
100
AcDbLine
 10
4466.106139085051
 20
13167.65154262614
 30
0.0
 11
4641.066139084869
 21
13167.65154262614
 31
0.0
  0
LINE
  5
666C
330
1F
100
AcDbEntity
  8
1
  6
Continuous
 62
     7
370
    13
100
AcDbLine
 10
5034.726179584978
 20
13739.51166412688
 30
0.0
 11
4466.106139085051
 21
13167.65154262614
 31
0.0
  0
ARC
  5
666D
330
1F
100
AcDbEntity
  8
1
  6
Continuous
 62
     7
370
    13
100
AcDbCircle
 10
5204.826139084675
 20
13361.24158312664
 30
0.0
 40
94.76991899999999
100
AcDbArc
 50
270.9793199996107
 51
90.0
  0
ARC
  5
666E
330
1F
100
AcDbEntity
  8
1
  6
Continuous
 62
     7
370
    13
100
AcDbCircle
 10
5186.1961795846
 20
13357.19154262634
 30
0.0
 40
29.1600405
100
AcDbArc
 50
270.0
 51
90.0
  0
LINE
  5
666F
330
1F
100
AcDbEntity
  8
1
  6
Continuous
 62
     7
370
    13
100
AcDbLine
 10
3693.366098584549
 20
18189.65162362676
 30
0.0
 11
3693.366098584549
 21
17055.65158312645
 31
0.0
  0
LINE
  5
6670
330
1F
100
AcDbEntity
  8
1
  6
Continuous
 62
     7
370
    13
100
AcDbLine
 10
3855.366098584548
 20
17055.65158312645
 30
0.0
 11
3693.366098584549
 21
17055.65158312645
 31
0.0
  0
LINE
  5
6671
330
1F
100
AcDbEntity
  8
1
  6
Continuous
 62
     7
370
    13
100
AcDbLine
 10
5191.866139084858
 20
18189.65162362676
 30
0.0
 11
5191.866139084858
 21
17055.65158312645
 31
0.0
  0
LINE
  5
6672
330
1F
100
AcDbEntity
  8
1
  6
Continuous
 62
     7
370
    13
100
AcDbLine
 10
5353.866139084857
 20
17055.65158312645
 30
0.0
 11
5191.866139084858
 21
17055.65158312645
 31
0.0
  0
LINE
  5
6673
330
1F
100
AcDbEntity
  8
1
  6
Continuous
 62
     7
370
    13
100
AcDbLine
 10
5798.556139085063
 20
17359.40154262614
 30
0.0
 11
6246.486139085435
 21
17521.40154262614
 31
0.0
  0
LINE
  5
6674
330
1F
100
AcDbEntity
  8
1
  6
Continuous
 62
     7
370
    13
100
AcDbLine
 10
6244.866098584549
 20
17541.65154262614
 30
0.0
 11
5799.366098584549
 21
17379.65154262614
 31
0.0
  0
LINE
  5
6675
330
1F
100
AcDbEntity
  8
1
  6
Continuous
 62
     7
370
    13
100
AcDbLine
 10
5802.606058084435
 20
17399.90154262614
 30
0.0
 11
6244.056139085063
 21
17561.90154262614
 31
0.0
  0
LINE
  5
6676
330
1F
100
AcDbEntity
  8
1
  6
Continuous
 62
     7
370
    13
100
AcDbLine
 10
6244.056139085063
 20
18371.90162362676
 30
0.0
 11
5802.606058084435
 21
18209.90162362676
 31
0.0
  0
LINE
  5
6677
330
1F
100
AcDbEntity
  8
1
  6
Continuous
 62
     7
370
    13
100
AcDbLine
 10
6244.056139085063
 20
18392.15162362676
 30
0.0
 11
5798.556139085063
 21
18230.15162362676
 31
0.0
  0
LINE
  5
6678
330
1F
100
AcDbEntity
  8
1
  6
Continuous
 62
     7
370
    13
100
AcDbLine
 10
5800.986139085434
 20
18250.40162362676
 30
0.0
 11
6244.056139085063
 21
18412.40162362676
 31
0.0
  0
LINE
  5
6679
330
1F
100
AcDbEntity
  8
1
  6
Continuous
 62
     7
370
    13
100
AcDbLine
 10
5637.366098584549
 20
18371.90162362676
 30
0.0
 11
6244.056139085063
 21
18371.90162362676
 31
0.0
  0
LINE
  5
667A
330
1F
100
AcDbEntity
  8
1
  6
Continuous
 62
     7
370
    13
100
AcDbLine
 10
6244.056139085063
 20
18392.15162362676
 30
0.0
 11
5637.366098584549
 21
18392.15162362676
 31
0.0
  0
LINE
  5
667B
330
1F
100
AcDbEntity
  8
1
  6
Continuous
 62
     7
370
    13
100
AcDbLine
 10
5637.366098584549
 20
18412.40162362676
 30
0.0
 11
6244.056139085063
 21
18412.40162362676
 31
0.0
  0
LINE
  5
667C
330
1F
100
AcDbEntity
  8
1
  6
Continuous
 62
     7
370
    13
100
AcDbLine
 10
6224.616098584549
 20
18432.65162362676
 30
0.0
 11
6224.616098584549
 21
17501.15154262614
 31
0.0
  0
LINE
  5
667D
330
1F
100
AcDbEntity
  8
1
  6
Continuous
 62
     7
370
    13
100
AcDbLine
 10
6204.366098584549
 20
17501.15154262614
 30
0.0
 11
6204.366098584549
 21
18413.21158312626
 31
0.0
  0
LINE
  5
667E
330
1F
100
AcDbEntity
  8
1
  6
Continuous
 62
     7
370
    13
100
AcDbLine
 10
6184.116098584549
 20
18351.65162362676
 30
0.0
 11
6184.116098584549
 21
17501.15154262614
 31
0.0
  0
LINE
  5
667F
330
1F
100
AcDbEntity
  8
1
  6
Continuous
 62
     7
370
    13
100
AcDbLine
 10
5860.116098584549
 20
18270.65162362676
 30
0.0
 11
5860.116098584549
 21
17420.15154262614
 31
0.0
  0
LINE
  5
6680
330
1F
100
AcDbEntity
  8
1
  6
Continuous
 62
     7
370
    13
100
AcDbLine
 10
5839.866098584549
 20
17420.15154262614
 30
0.0
 11
5839.866098584549
 21
18270.65162362676
 31
0.0
  0
LINE
  5
6681
330
1F
100
AcDbEntity
  8
1
  6
Continuous
 62
     7
370
    13
100
AcDbLine
 10
5819.61609858455
 20
18270.65162362676
 30
0.0
 11
5819.61609858455
 21
17420.15154262614
 31
0.0
  0
LINE
  5
6682
330
1F
100
AcDbEntity
  8
1
  6
Continuous
 62
     7
370
    13
100
AcDbLine
 10
5718.366098584549
 20
18351.65162362676
 30
0.0
 11
5718.366098584549
 21
18432.65162362676
 31
0.0
  0
LINE
  5
6683
330
1F
100
AcDbEntity
  8
1
  6
Continuous
 62
     7
370
    13
100
AcDbLine
 10
5718.366098584549
 20
17501.15154262614
 30
0.0
 11
5718.366098584549
 21
17582.15154262614
 31
0.0
  0
LINE
  5
6684
330
1F
100
AcDbEntity
  8
1
  6
Continuous
 62
     7
370
    13
100
AcDbLine
 10
5698.116098584549
 20
18432.65162362676
 30
0.0
 11
5698.116098584549
 21
17501.15154262614
 31
0.0
  0
LINE
  5
6685
330
1F
100
AcDbEntity
  8
1
  6
Continuous
 62
     7
370
    13
100
AcDbLine
 10
5677.866098584549
 20
17501.15154262614
 30
0.0
 11
5677.866098584549
 21
18432.65162362676
 31
0.0
  0
LINE
  5
6686
330
1F
100
AcDbEntity
  8
1
  6
Continuous
 62
     7
370
    13
100
AcDbLine
 10
5657.616098584549
 20
18432.65162362676
 30
0.0
 11
5657.616098584549
 21
17501.15154262614
 31
0.0
  0
CIRCLE
  5
6687
330
1F
100
AcDbEntity
  8
1
  6
Continuous
 62
     7
370
    13
100
AcDbCircle
 10
5961.366098584549
 20
17864.84154262633
 30
0.0
 40
8.0999595
  0
CIRCLE
  5
6688
330
1F
100
AcDbEntity
  8
1
  6
Continuous
 62
     7
370
    13
100
AcDbCircle
 10
5961.366098584549
 20
17864.84154262633
 30
0.0
 40
20.24999999999999
  0
LINE
  5
6689
330
1F
100
AcDbEntity
  8
1
  6
Continuous
 62
     7
370
    13
100
AcDbLine
 10
6163.866098584549
 20
17501.15154262614
 30
0.0
 11
6163.866098584549
 21
18351.65162362676
 31
0.0
  0
LINE
  5
668A
330
1F
100
AcDbEntity
  8
1
  6
Continuous
 62
     7
370
    13
100
AcDbLine
 10
5880.366098584548
 20
18225.291623626
 30
0.0
 11
5880.366098584548
 21
17440.40154262614
 31
0.0
  0
LINE
  5
668B
330
1F
100
AcDbEntity
  8
1
  6
Continuous
 62
     7
370
    13
100
AcDbLine
 10
5799.366098584549
 20
17420.15154262614
 30
0.0
 11
6244.866098584549
 21
17582.15154262614
 31
0.0
  0
LINE
  5
668C
330
1F
100
AcDbEntity
  8
1
  6
Continuous
 62
     7
370
    13
100
AcDbLine
 10
5799.366098584549
 20
18189.65162362676
 30
0.0
 11
6244.866098584549
 21
18351.65162362676
 31
0.0
  0
LINE
  5
668D
330
1F
100
AcDbEntity
  8
1
  6
Continuous
 62
     7
370
    13
100
AcDbLine
 10
5637.366098584549
 20
17501.15154262614
 30
0.0
 11
5799.366098584549
 21
17501.15154262614
 31
0.0
  0
LINE
  5
668E
330
1F
100
AcDbEntity
  8
1
  6
Continuous
 62
     7
370
    13
100
AcDbLine
 10
5718.366098584549
 20
18351.65162362676
 30
0.0
 11
5718.366098584549
 21
17582.15154262614
 31
0.0
  0
LINE
  5
668F
330
1F
100
AcDbEntity
  8
1
  6
Continuous
 62
     7
370
    13
100
AcDbLine
 10
5718.366098584549
 20
17582.15154262614
 30
0.0
 11
5799.366098584549
 21
17582.15154262614
 31
0.0
  0
LINE
  5
6690
330
1F
100
AcDbEntity
  8
1
  6
Continuous
 62
     7
370
    13
100
AcDbLine
 10
5718.366098584549
 20
18351.65162362676
 30
0.0
 11
6015.636179584806
 21
18351.65162362676
 31
0.0
  0
LINE
  5
6691
330
1F
100
AcDbEntity
  8
1
  6
Continuous
 62
     7
370
    13
100
AcDbLine
 10
5799.366098584549
 20
18270.65162362676
 30
0.0
 11
5799.366098584549
 21
17339.15154262614
 31
0.0
  0
LINE
  5
6692
330
1F
100
AcDbEntity
  8
1
  6
Continuous
 62
     7
370
    13
100
AcDbLine
 10
5799.366098584549
 20
17339.15154262614
 30
0.0
 11
6244.866098584549
 21
17501.15154262614
 31
0.0
  0
LINE
  5
6693
330
1F
100
AcDbEntity
  8
1
  6
Continuous
 62
     7
370
    13
100
AcDbLine
 10
6244.866098584549
 20
18432.65162362676
 30
0.0
 11
5799.366098584549
 21
18270.65162362676
 31
0.0
  0
LINE
  5
6694
330
1F
100
AcDbEntity
  8
1
  6
Continuous
 62
     7
370
    13
100
AcDbLine
 10
5637.366098584549
 20
18432.65162362676
 30
0.0
 11
5637.366098584549
 21
17501.15154262614
 31
0.0
  0
LINE
  5
6695
330
1F
100
AcDbEntity
  8
1
  6
Continuous
 62
     7
370
    13
100
AcDbLine
 10
6244.866098584549
 20
18432.65162362676
 30
0.0
 11
5637.366098584549
 21
18432.65162362676
 31
0.0
  0
LINE
  5
6696
330
1F
100
AcDbEntity
  8
1
  6
Continuous
 62
     7
370
    13
100
AcDbLine
 10
6244.866098584549
 20
17501.15154262614
 30
0.0
 11
6244.866098584549
 21
18432.65162362676
 31
0.0
  0
LINE
  5
6697
330
1F
100
AcDbEntity
  8
1
  6
Continuous
 62
     7
370
    13
100
AcDbLine
 10
4564.116179585165
 20
18108.65162362676
 30
0.0
 11
4564.116179585165
 21
18027.65162362676
 31
0.0
  0
LINE
  5
6698
330
1F
100
AcDbEntity
  8
1
  6
Continuous
 62
     7
370
    13
100
AcDbLine
 10
4543.866179585165
 20
18027.65162362676
 30
0.0
 11
4543.866179585165
 21
18108.65162362676
 31
0.0
  0
LINE
  5
6699
330
1F
100
AcDbEntity
  8
1
  6
Continuous
 62
     7
370
    13
100
AcDbLine
 10
4523.616179585165
 20
18108.65162362676
 30
0.0
 11
4523.616179585165
 21
18027.65162362676
 31
0.0
  0
ARC
  5
669A
330
1F
100
AcDbEntity
  8
1
  6
Continuous
 62
     7
370
    13
100
AcDbCircle
 10
4341.366058085201
 20
18108.65162362676
 30
0.0
 40
222.75
100
AcDbArc
 50
0.0
 51
180.0
  0
ARC
  5
669B
330
1F
100
AcDbEntity
  8
1
  6
Continuous
 62
     7
370
    13
100
AcDbCircle
 10
4341.366058085201
 20
18108.65162362676
 30
0.0
 40
202.4999999999999
100
AcDbArc
 50
0.0
 51
180.0
  0
ARC
  5
669C
330
1F
100
AcDbEntity
  8
1
  6
Continuous
 62
     7
370
    13
100
AcDbCircle
 10
4341.366058085201
 20
18108.65162362676
 30
0.0
 40
182.2499999999999
100
AcDbArc
 50
0.0
 51
180.0
  0
LINE
  5
669D
330
1F
100
AcDbEntity
  8
1
  6
Continuous
 62
     7
370
    13
100
AcDbLine
 10
4037.616098584549
 20
17440.40154262614
 30
0.0
 11
4645.116179585166
 21
17440.40154262614
 31
0.0
  0
LINE
  5
669E
330
1F
100
AcDbEntity
  8
1
  6
Continuous
 62
     7
370
    13
100
AcDbLine
 10
4037.616098584549
 20
18007.40162362676
 30
0.0
 11
4037.616098584549
 21
17440.40154262614
 31
0.0
  0
LINE
  5
669F
330
1F
100
AcDbEntity
  8
1
  6
Continuous
 62
     7
370
    13
100
AcDbLine
 10
4645.116179585166
 20
18007.40162362676
 30
0.0
 11
4037.616098584549
 21
18007.40162362676
 31
0.0
  0
LINE
  5
66A0
330
1F
100
AcDbEntity
  8
1
  6
Continuous
 62
     7
370
    13
100
AcDbLine
 10
4645.116179585166
 20
17440.40154262614
 30
0.0
 11
4645.116179585166
 21
18007.40162362676
 31
0.0
  0
LINE
  5
66A1
330
1F
100
AcDbEntity
  8
1
  6
Continuous
 62
     7
370
    13
100
AcDbLine
 10
4624.866179585166
 20
17987.15162362676
 30
0.0
 11
4057.866098584549
 21
17987.15162362676
 31
0.0
  0
LINE
  5
66A2
330
1F
100
AcDbEntity
  8
1
  6
Continuous
 62
     7
370
    13
100
AcDbLine
 10
4624.866179585166
 20
17460.65154262614
 30
0.0
 11
4624.866179585166
 21
17987.15162362676
 31
0.0
  0
LINE
  5
66A3
330
1F
100
AcDbEntity
  8
1
  6
Continuous
 62
     7
370
    13
100
AcDbLine
 10
4057.866098584549
 20
17460.65154262614
 30
0.0
 11
4624.866179585166
 21
17460.65154262614
 31
0.0
  0
LINE
  5
66A4
330
1F
100
AcDbEntity
  8
1
  6
Continuous
 62
     7
370
    13
100
AcDbLine
 10
4057.866098584549
 20
17987.15162362676
 30
0.0
 11
4057.866098584549
 21
17460.65154262614
 31
0.0
  0
LINE
  5
66A5
330
1F
100
AcDbEntity
  8
1
  6
Continuous
 62
     7
370
    13
100
AcDbLine
 10
4078.116098584549
 20
17480.90154262614
 30
0.0
 11
4604.616179585166
 21
17480.90154262614
 31
0.0
  0
LINE
  5
66A6
330
1F
100
AcDbEntity
  8
1
  6
Continuous
 62
     7
370
    13
100
AcDbLine
 10
4078.116098584549
 20
17966.90162362676
 30
0.0
 11
4078.116098584549
 21
17480.90154262614
 31
0.0
  0
LINE
  5
66A7
330
1F
100
AcDbEntity
  8
1
  6
Continuous
 62
     7
370
    13
100
AcDbLine
 10
4604.616179585166
 20
17966.90162362676
 30
0.0
 11
4078.116098584549
 21
17966.90162362676
 31
0.0
  0
LINE
  5
66A8
330
1F
100
AcDbEntity
  8
1
  6
Continuous
 62
     7
370
    13
100
AcDbLine
 10
4604.616179585166
 20
17480.90154262614
 30
0.0
 11
4604.616179585166
 21
17966.90162362676
 31
0.0
  0
LINE
  5
66A9
330
1F
100
AcDbEntity
  8
1
  6
Continuous
 62
     7
370
    13
100
AcDbLine
 10
4341.366058085201
 20
17723.90154262614
 30
0.0
 11
4341.366058085201
 21
17622.65154262614
 31
0.0
  0
LINE
  5
66AA
330
1F
100
AcDbEntity
  8
1
  6
Continuous
 62
     7
370
    13
100
AcDbLine
 10
4321.116058085201
 20
17622.65154262614
 30
0.0
 11
4321.116058085201
 21
17723.90154262614
 31
0.0
  0
LINE
  5
66AB
330
1F
100
AcDbEntity
  8
1
  6
Continuous
 62
     7
370
    13
100
AcDbLine
 10
4361.616058085201
 20
17723.90154262614
 30
0.0
 11
4361.616058085201
 21
17622.65154262614
 31
0.0
  0
ARC
  5
66AC
330
1F
100
AcDbEntity
  8
1
  6
Continuous
 62
     7
370
    13
100
AcDbCircle
 10
4341.366058085201
 20
17622.65154262614
 30
0.0
 40
20.24999999999999
100
AcDbArc
 50
180.0
 51
0.0
  0
CIRCLE
  5
66AD
330
1F
100
AcDbEntity
  8
1
  6
Continuous
 62
     7
370
    13
100
AcDbCircle
 10
4341.366058085201
 20
17784.65150212583
 30
0.0
 40
16.1999595
  0
CIRCLE
  5
66AE
330
1F
100
AcDbEntity
  8
1
  6
Continuous
 62
     7
370
    13
100
AcDbCircle
 10
4341.366058085201
 20
17784.65150212583
 30
0.0
 40
60.75
  0
CIRCLE
  5
66AF
330
1F
100
AcDbEntity
  8
1
  6
Continuous
 62
     7
370
    13
100
AcDbCircle
 10
4341.366058085201
 20
17784.65150212583
 30
0.0
 40
40.49999999999999
  0
LINE
  5
66B0
330
1F
100
AcDbEntity
  8
1
  6
Continuous
 62
     7
370
    13
100
AcDbLine
 10
4381.866058085201
 20
17622.65154262614
 30
0.0
 11
4381.866058085201
 21
17723.90154262614
 31
0.0
  0
LINE
  5
66B1
330
1F
100
AcDbEntity
  8
1
  6
Continuous
 62
     7
370
    13
100
AcDbLine
 10
4300.8660580852
 20
17723.90154262614
 30
0.0
 11
4300.8660580852
 21
17622.65154262614
 31
0.0
  0
ARC
  5
66B2
330
1F
100
AcDbEntity
  8
1
  6
Continuous
 62
     7
370
    13
100
AcDbCircle
 10
4341.366058085201
 20
17622.65154262614
 30
0.0
 40
40.49999999999999
100
AcDbArc
 50
180.0
 51
0.0
  0
CIRCLE
  5
66B3
330
1F
100
AcDbEntity
  8
1
  6
Continuous
 62
     7
370
    13
100
AcDbCircle
 10
4341.366058085201
 20
17784.65150212583
 30
0.0
 40
81.0
  0
LINE
  5
66B4
330
1F
100
AcDbEntity
  8
1
  6
Continuous
 62
     7
370
    13
100
AcDbLine
 10
4503.366179585166
 20
18108.65162362676
 30
0.0
 11
4503.366179585166
 21
18027.65162362676
 31
0.0
  0
LINE
  5
66B5
330
1F
100
AcDbEntity
  8
1
  6
Continuous
 62
     7
370
    13
100
AcDbLine
 10
4584.366179585166
 20
18108.65162362676
 30
0.0
 11
4584.366179585166
 21
18027.65162362676
 31
0.0
  0
LINE
  5
66B6
330
1F
100
AcDbEntity
  8
1
  6
Continuous
 62
     7
370
    13
100
AcDbLine
 10
4098.366098584548
 20
18108.65162362676
 30
0.0
 11
4179.366058085201
 21
18108.65162362676
 31
0.0
  0
ARC
  5
66B7
330
1F
100
AcDbEntity
  8
1
  6
Continuous
 62
     7
370
    13
100
AcDbCircle
 10
4341.366058085201
 20
18108.65162362676
 30
0.0
 40
162.0
100
AcDbArc
 50
0.0
 51
180.0
  0
ARC
  5
66B8
330
1F
100
AcDbEntity
  8
1
  6
Continuous
 62
     7
370
    13
100
AcDbCircle
 10
4341.366058085201
 20
18108.65162362676
 30
0.0
 40
243.0
100
AcDbArc
 50
0.0
 51
180.0
  0
LINE
  5
66B9
330
1F
100
AcDbEntity
  8
1
  6
Continuous
 62
     7
370
    13
100
AcDbLine
 10
4098.366098584548
 20
17501.15154262614
 30
0.0
 11
4584.366179585166
 21
17501.15154262614
 31
0.0
  0
LINE
  5
66BA
330
1F
100
AcDbEntity
  8
1
  6
Continuous
 62
     7
370
    13
100
AcDbLine
 10
4098.366098584548
 20
17946.65162362676
 30
0.0
 11
4098.366098584548
 21
17501.15154262614
 31
0.0
  0
LINE
  5
66BB
330
1F
100
AcDbEntity
  8
1
  6
Continuous
 62
     7
370
    13
100
AcDbLine
 10
4584.366179585166
 20
17946.65162362676
 30
0.0
 11
4098.366098584548
 21
17946.65162362676
 31
0.0
  0
LINE
  5
66BC
330
1F
100
AcDbEntity
  8
1
  6
Continuous
 62
     7
370
    13
100
AcDbLine
 10
4584.366179585166
 20
17501.15154262614
 30
0.0
 11
4584.366179585166
 21
17946.65162362676
 31
0.0
  0
LINE
  5
66BD
330
1F
100
AcDbEntity
  8
1
  6
Continuous
 62
     7
370
    13
100
AcDbLine
 10
4017.366098584549
 20
17420.15154262614
 30
0.0
 11
4665.366179585165
 21
17420.15154262614
 31
0.0
  0
LINE
  5
66BE
330
1F
100
AcDbEntity
  8
1
  6
Continuous
 62
     7
370
    13
100
AcDbLine
 10
4017.366098584549
 20
18027.65162362676
 30
0.0
 11
4017.366098584549
 21
17420.15154262614
 31
0.0
  0
LINE
  5
66BF
330
1F
100
AcDbEntity
  8
1
  6
Continuous
 62
     7
370
    13
100
AcDbLine
 10
4665.366179585165
 20
18027.65162362676
 30
0.0
 11
4017.366098584549
 21
18027.65162362676
 31
0.0
  0
LINE
  5
66C0
330
1F
100
AcDbEntity
  8
1
  6
Continuous
 62
     7
370
    13
100
AcDbLine
 10
4665.366179585165
 20
17420.15154262614
 30
0.0
 11
4665.366179585165
 21
18027.65162362676
 31
0.0
  0
CIRCLE
  5
66C1
330
1F
100
AcDbEntity
  8
1
  6
Continuous
 62
     7
370
    13
100
AcDbCircle
 10
5191.866139084858
 20
18351.65162362676
 30
0.0
 40
162.0
  0
CIRCLE
  5
66C2
330
1F
100
AcDbEntity
  8
1
  6
Continuous
 62
     7
370
    13
100
AcDbCircle
 10
3693.366098584549
 20
18351.65162362676
 30
0.0
 40
162.0
  0
LINE
  5
66C3
330
1F
100
AcDbEntity
  8
1
  6
Continuous
 62
     7
370
    13
100
AcDbLine
 10
6406.866058085201
 20
16731.65158312645
 30
0.0
 11
3652.866098584549
 21
16731.65158312645
 31
0.0
  0
LINE
  5
66C4
330
1F
100
AcDbEntity
  8
1
  6
Continuous
 62
     7
370
    13
100
AcDbLine
 10
6649.866179585166
 20
18392.15162362676
 30
0.0
 11
6649.866179585166
 21
16974.65158312645
 31
0.0
  0
LINE
  5
66C5
330
1F
100
AcDbEntity
  8
1
  6
Continuous
 62
     7
370
    13
100
AcDbLine
 10
6406.866058085201
 20
18635.15158312645
 30
0.0
 11
3652.866098584549
 21
18635.15158312645
 31
0.0
  0
LINE
  5
66C6
330
1F
100
AcDbEntity
  8
1
  6
Continuous
 62
     7
370
    13
100
AcDbLine
 10
3409.866139084857
 20
16974.65158312645
 30
0.0
 11
3409.866139084857
 21
18392.15162362676
 31
0.0
  0
LINE
  5
66C7
330
1F
100
AcDbEntity
  8
1
  6
Continuous
 62
     7
370
    13
100
AcDbLine
 10
3693.366098584549
 20
19647.65154262614
 30
0.0
 11
3855.366098584548
 21
19647.65154262614
 31
0.0
  0
LINE
  5
66C8
330
1F
100
AcDbEntity
  8
1
  6
Continuous
 62
     7
370
    13
100
AcDbLine
 10
3693.366098584549
 20
19242.65154262614
 30
0.0
 11
3693.366098584549
 21
19647.65154262614
 31
0.0
  0
LINE
  5
66C9
330
1F
100
AcDbEntity
  8
1
  6
Continuous
 62
     7
370
    13
100
AcDbLine
 10
4786.866179585166
 20
20012.15162362676
 30
0.0
 11
3652.866098584549
 21
20012.15162362676
 31
0.0
  0
LINE
  5
66CA
330
1F
100
AcDbEntity
  8
1
  6
Continuous
 62
     7
370
    13
100
AcDbLine
 10
5029.866139084857
 20
19040.15158312645
 30
0.0
 11
5029.866139084857
 21
19769.15154262614
 31
0.0
  0
LINE
  5
66CB
330
1F
100
AcDbEntity
  8
1
  6
Continuous
 62
     7
370
    13
100
AcDbLine
 10
3652.866098584549
 20
18797.15158312645
 30
0.0
 11
4786.866179585166
 21
18797.15158312645
 31
0.0
  0
LINE
  5
66CC
330
1F
100
AcDbEntity
  8
1
  6
Continuous
 62
     7
370
    13
100
AcDbLine
 10
3409.866139084857
 20
19040.15158312645
 30
0.0
 11
3409.866139084857
 21
19769.15154262614
 31
0.0
  0
ARC
  5
66CD
330
1F
100
AcDbEntity
  8
1
  6
Continuous
 62
     7
370
    13
100
AcDbCircle
 10
6406.866058085201
 20
16974.65158312645
 30
0.0
 40
243.0
100
AcDbArc
 50
270.0
 51
0.0
  0
ARC
  5
66CE
330
1F
100
AcDbEntity
  8
1
  6
Continuous
 62
     7
370
    13
100
AcDbCircle
 10
6406.866058085201
 20
18392.15162362676
 30
0.0
 40
243.0
100
AcDbArc
 50
0.0
 51
90.0
  0
ARC
  5
66CF
330
1F
100
AcDbEntity
  8
1
  6
Continuous
 62
     7
370
    13
100
AcDbCircle
 10
3652.866098584549
 20
16974.65158312645
 30
0.0
 40
243.0
100
AcDbArc
 50
180.0
 51
270.0
  0
ARC
  5
66D0
330
1F
100
AcDbEntity
  8
1
  6
Continuous
 62
     7
370
    13
100
AcDbCircle
 10
3652.866098584549
 20
18392.15162362676
 30
0.0
 40
243.0
100
AcDbArc
 50
90.0
 51
180.0
  0
CIRCLE
  5
66D1
330
1F
100
AcDbEntity
  8
1
  6
Continuous
 62
     7
370
    13
100
AcDbCircle
 10
3693.366098584549
 20
19080.65158312645
 30
0.0
 40
162.0
  0
ARC
  5
66D2
330
1F
100
AcDbEntity
  8
1
  6
Continuous
 62
     7
370
    13
100
AcDbCircle
 10
4786.866179585166
 20
19769.15154262614
 30
0.0
 40
243.0
100
AcDbArc
 50
0.0
 51
90.0
  0
ARC
  5
66D3
330
1F
100
AcDbEntity
  8
1
  6
Continuous
 62
     7
370
    13
100
AcDbCircle
 10
4786.866179585166
 20
19040.15158312645
 30
0.0
 40
243.0
100
AcDbArc
 50
270.0
 51
0.0
  0
ARC
  5
66D4
330
1F
100
AcDbEntity
  8
1
  6
Continuous
 62
     7
370
    13
100
AcDbCircle
 10
3652.866098584549
 20
19040.15158312645
 30
0.0
 40
243.0
100
AcDbArc
 50
180.0
 51
270.0
  0
ARC
  5
66D5
330
1F
100
AcDbEntity
  8
1
  6
Continuous
 62
     7
370
    13
100
AcDbCircle
 10
3652.866098584549
 20
19769.15154262614
 30
0.0
 40
243.0
100
AcDbArc
 50
90.0
 51
180.0
  0
LINE
  5
66D6
330
1F
100
AcDbEntity
  8
1
  6
Continuous
 62
     7
370
    13
100
AcDbLine
 10
11979.09503662807
 20
11709.65162362676
 30
0.0
 11
12103.23020962826
 21
11709.65162362676
 31
0.0
  0
LINE
  5
66D7
330
1F
100
AcDbEntity
  8
1
  6
Continuous
 62
     7
370
    13
100
AcDbLine
 10
12103.23020962826
 20
21429.65154262614
 30
0.0
 11
11981.73020962826
 21
21429.65154262614
 31
0.0
  0
LINE
  5
66D8
330
1F
100
AcDbEntity
  8
1
  6
Continuous
 62
     7
370
    13
100
AcDbLine
 10
12103.23020962826
 20
11709.65162362676
 30
0.0
 11
12103.23020962826
 21
21429.65154262614
 31
0.0
  0
LINE
  5
66D9
330
1F
100
AcDbEntity
  8
1
  6
Continuous
 62
     7
370
    13
100
AcDbLine
 10
11981.73020962826
 20
21429.65154262614
 30
0.0
 11
11981.73020962826
 21
11709.65162362676
 31
0.0
  0
LINE
  5
66DA
330
1F
100
AcDbEntity
  8
1
  6
Continuous
 62
     7
370
    13
100
AcDbLine
 10
11542.71029062831
 20
12761.841623626
 30
0.0
 11
11548.38029062887
 21
12720.5316641265
 31
0.0
  0
LINE
  5
66DB
330
1F
100
AcDbEntity
  8
1
  6
Continuous
 62
     7
370
    13
100
AcDbLine
 10
11548.38029062887
 20
12720.5316641265
 30
0.0
 11
11554.86020962865
 21
12680.0316641265
 31
0.0
  0
LINE
  5
66DC
330
1F
100
AcDbEntity
  8
1
  6
Continuous
 62
     7
370
    13
100
AcDbLine
 10
11554.86020962865
 20
12680.0316641265
 30
0.0
 11
11562.15020962787
 21
12638.72158312703
 31
0.0
  0
LINE
  5
66DD
330
1F
100
AcDbEntity
  8
1
  6
Continuous
 62
     7
370
    13
100
AcDbLine
 10
11562.15020962787
 20
12638.72158312703
 30
0.0
 11
11569.44025012743
 21
12598.22158312702
 31
0.0
  0
LINE
  5
66DE
330
1F
100
AcDbEntity
  8
1
  6
Continuous
 62
     7
370
    13
100
AcDbLine
 10
11569.44025012743
 20
12598.22158312702
 30
0.0
 11
11577.54020962806
 21
12557.72158312703
 31
0.0
  0
LINE
  5
66DF
330
1F
100
AcDbEntity
  8
1
  6
Continuous
 62
     7
370
    13
100
AcDbLine
 10
11577.54020962806
 20
12557.72158312703
 30
0.0
 11
11585.64029062775
 21
12517.22158312702
 31
0.0
  0
LINE
  5
66E0
330
1F
100
AcDbEntity
  8
1
  6
Continuous
 62
     7
370
    13
100
AcDbLine
 10
11585.64029062775
 20
12517.22158312702
 30
0.0
 11
11595.36020962864
 21
12477.5316641265
 31
0.0
  0
LINE
  5
66E1
330
1F
100
AcDbEntity
  8
1
  6
Continuous
 62
     7
370
    13
100
AcDbLine
 10
11595.36020962864
 20
12477.5316641265
 30
0.0
 11
11605.89029062775
 21
12437.841623626
 31
0.0
  0
LINE
  5
66E2
330
1F
100
AcDbEntity
  8
1
  6
Continuous
 62
     7
370
    13
100
AcDbLine
 10
11605.89029062775
 20
12437.841623626
 30
0.0
 11
11617.23025012761
 21
12398.15158312645
 31
0.0
  0
LINE
  5
66E3
330
1F
100
AcDbEntity
  8
1
  6
Continuous
 62
     7
370
    13
100
AcDbLine
 10
11617.23025012761
 20
12398.15158312645
 30
0.0
 11
11641.53029062793
 21
12325.2515831274
 31
0.0
  0
LINE
  5
66E4
330
1F
100
AcDbEntity
  8
1
  6
Continuous
 62
     7
370
    13
100
AcDbLine
 10
11641.53029062793
 20
12325.2515831274
 30
0.0
 11
11669.88025012856
 21
12253.16162362658
 31
0.0
  0
LINE
  5
66E5
330
1F
100
AcDbEntity
  8
1
  6
Continuous
 62
     7
370
    13
100
AcDbLine
 10
11669.88025012856
 20
12253.16162362658
 30
0.0
 11
11702.28029062793
 21
12182.69162362696
 31
0.0
  0
LINE
  5
66E6
330
1F
100
AcDbEntity
  8
1
  6
Continuous
 62
     7
370
    13
100
AcDbLine
 10
11536.23025012761
 20
12803.15158312645
 30
0.0
 11
11542.71029062831
 21
12761.841623626
 31
0.0
  0
LINE
  5
66E7
330
1F
100
AcDbEntity
  8
1
  6
Continuous
 62
     7
370
    13
100
AcDbLine
 10
11536.23025012761
 20
12803.15158312645
 30
0.0
 11
11536.23025012761
 21
20336.15162362676
 31
0.0
  0
LINE
  5
66E8
330
1F
100
AcDbEntity
  8
1
  6
Continuous
 62
     7
370
    13
100
AcDbLine
 10
11702.28029062793
 20
12182.69162362696
 30
0.0
 11
11736.3002501282
 21
12113.03154262558
 31
0.0
  0
LINE
  5
66E9
330
1F
100
AcDbEntity
  8
1
  6
Continuous
 62
     7
370
    13
100
AcDbLine
 10
11736.3002501282
 20
12113.03154262558
 30
0.0
 11
11773.560250128
 21
12044.99154262633
 31
0.0
  0
LINE
  5
66EA
330
1F
100
AcDbEntity
  8
1
  6
Continuous
 62
     7
370
    13
100
AcDbLine
 10
11773.560250128
 20
12044.99154262633
 30
0.0
 11
11812.44020962712
 21
11976.95166412612
 31
0.0
  0
LINE
  5
66EB
330
1F
100
AcDbEntity
  8
1
  6
Continuous
 62
     7
370
    13
100
AcDbLine
 10
11812.44020962712
 20
11976.95166412612
 30
0.0
 11
11853.75029062756
 21
11909.72162362733
 31
0.0
  0
LINE
  5
66EC
330
1F
100
AcDbEntity
  8
1
  6
Continuous
 62
     7
370
    13
100
AcDbLine
 10
11853.75029062756
 20
11909.72162362733
 30
0.0
 11
11979.09503662807
 21
11709.65162362676
 31
0.0
  0
LINE
  5
66ED
330
1F
100
AcDbEntity
  8
1
  6
Continuous
 62
     7
370
    13
100
AcDbLine
 10
11536.23025012761
 20
20336.15162362676
 30
0.0
 11
11542.71029062831
 21
20377.46158312626
 31
0.0
  0
LINE
  5
66EE
330
1F
100
AcDbEntity
  8
1
  6
Continuous
 62
     7
370
    13
100
AcDbLine
 10
11542.71029062831
 20
20377.46158312626
 30
0.0
 11
11548.38029062887
 21
20418.77154262671
 31
0.0
  0
LINE
  5
66EF
330
1F
100
AcDbEntity
  8
1
  6
Continuous
 62
     7
370
    13
100
AcDbLine
 10
11548.38029062887
 20
20418.77154262671
 30
0.0
 11
11554.86020962865
 21
20459.2715426267
 31
0.0
  0
LINE
  5
66F0
330
1F
100
AcDbEntity
  8
1
  6
Continuous
 62
     7
370
    13
100
AcDbLine
 10
11554.86020962865
 20
20459.2715426267
 30
0.0
 11
11562.15020962787
 21
20500.58162362618
 31
0.0
  0
LINE
  5
66F1
330
1F
100
AcDbEntity
  8
1
  6
Continuous
 62
     7
370
    13
100
AcDbLine
 10
11562.15020962787
 20
20500.58162362618
 30
0.0
 11
11569.44025012743
 21
20541.08162362619
 31
0.0
  0
LINE
  5
66F2
330
1F
100
AcDbEntity
  8
1
  6
Continuous
 62
     7
370
    13
100
AcDbLine
 10
11569.44025012743
 20
20541.08162362619
 30
0.0
 11
11577.54020962806
 21
20581.58162362619
 31
0.0
  0
LINE
  5
66F3
330
1F
100
AcDbEntity
  8
1
  6
Continuous
 62
     7
370
    13
100
AcDbLine
 10
11577.54020962806
 20
20581.58162362619
 30
0.0
 11
11585.64029062775
 21
20622.08162362618
 31
0.0
  0
LINE
  5
66F4
330
1F
100
AcDbEntity
  8
1
  6
Continuous
 62
     7
370
    13
100
AcDbLine
 10
11585.64029062775
 20
20622.08162362618
 30
0.0
 11
11595.36020962864
 21
20661.77154262671
 31
0.0
  0
LINE
  5
66F5
330
1F
100
AcDbEntity
  8
1
  6
Continuous
 62
     7
370
    13
100
AcDbLine
 10
11595.36020962864
 20
20661.77154262671
 30
0.0
 11
11605.89029062775
 21
20701.46154262689
 31
0.0
  0
LINE
  5
66F6
330
1F
100
AcDbEntity
  8
1
  6
Continuous
 62
     7
370
    13
100
AcDbLine
 10
11605.89029062775
 20
20701.46154262689
 30
0.0
 11
11617.23025012761
 21
20741.15158312645
 31
0.0
  0
LINE
  5
66F7
330
1F
100
AcDbEntity
  8
1
  6
Continuous
 62
     7
370
    13
100
AcDbLine
 10
11617.23025012761
 20
20741.15158312645
 30
0.0
 11
11641.53029062793
 21
20814.05162362581
 31
0.0
  0
LINE
  5
66F8
330
1F
100
AcDbEntity
  8
1
  6
Continuous
 62
     7
370
    13
100
AcDbLine
 10
11641.53029062793
 20
20814.05162362581
 30
0.0
 11
11669.88025012856
 21
20886.14154262632
 31
0.0
  0
LINE
  5
66F9
330
1F
100
AcDbEntity
  8
1
  6
Continuous
 62
     7
370
    13
100
AcDbLine
 10
11669.88025012856
 20
20886.14154262632
 30
0.0
 11
11702.28029062793
 21
20956.61158312625
 31
0.0
  0
LINE
  5
66FA
330
1F
100
AcDbEntity
  8
1
  6
Continuous
 62
     7
370
    13
100
AcDbLine
 10
11702.28029062793
 20
20956.61158312625
 30
0.0
 11
11736.3002501282
 21
21026.27162362543
 31
0.0
  0
LINE
  5
66FB
330
1F
100
AcDbEntity
  8
1
  6
Continuous
 62
     7
370
    13
100
AcDbLine
 10
11736.3002501282
 20
21026.27162362543
 30
0.0
 11
11773.560250128
 21
21094.31162362657
 31
0.0
  0
LINE
  5
66FC
330
1F
100
AcDbEntity
  8
1
  6
Continuous
 62
     7
370
    13
100
AcDbLine
 10
11773.560250128
 20
21094.31162362657
 30
0.0
 11
11812.44020962712
 21
21162.35154262614
 31
0.0
  0
LINE
  5
66FD
330
1F
100
AcDbEntity
  8
1
  6
Continuous
 62
     7
370
    13
100
AcDbLine
 10
11812.44020962712
 20
21162.35154262614
 30
0.0
 11
11853.75029062756
 21
21229.58158312588
 31
0.0
  0
LINE
  5
66FE
330
1F
100
AcDbEntity
  8
1
  6
Continuous
 62
     7
370
    13
100
AcDbLine
 10
11853.75029062756
 20
21229.58158312588
 30
0.0
 11
11895.87020962749
 21
21296.81162362657
 31
0.0
  0
LINE
  5
66FF
330
1F
100
AcDbEntity
  8
1
  6
Continuous
 62
     7
370
    13
100
AcDbLine
 10
11895.87020962749
 20
21296.81162362657
 30
0.0
 11
11938.80020962882
 21
21363.23158312589
 31
0.0
  0
LINE
  5
6700
330
1F
100
AcDbEntity
  8
1
  6
Continuous
 62
     7
370
    13
100
AcDbLine
 10
11938.80020962882
 20
21363.23158312589
 30
0.0
 11
11981.73020962826
 21
21429.65154262614
 31
0.0
  0
LINE
  5
6701
330
1F
100
AcDbEntity
  8
1
  6
DASHDOT
 62
     7
 48
10.0
370
    13
100
AcDbLine
 10
11131.61022112885
 20
16569.65150212583
 30
0.0
 11
13545.41022112884
 21
16569.65150212583
 31
0.0
  0
LINE
  5
6702
330
1F
100
AcDbEntity
  8
1
  6
Continuous
 62
     7
370
    13
100
AcDbLine
 10
12751.23029062792
 20
17572.43150212621
 30
0.0
 11
12751.23029062792
 21
17410.43150212621
 31
0.0
  0
LINE
  5
6703
330
1F
100
AcDbEntity
  8
1
  6
Continuous
 62
     7
370
    13
100
AcDbLine
 10
12467.73020962826
 20
17248.43154262652
 30
0.0
 11
12103.23020962826
 21
17248.43154262652
 31
0.0
  0
LINE
  5
6704
330
1F
100
AcDbEntity
  8
1
  6
Continuous
 62
     7
370
    13
100
AcDbLine
 10
12103.23020962826
 20
17734.43162362619
 30
0.0
 11
12467.73020962826
 21
17734.43162362619
 31
0.0
  0
LINE
  5
6705
330
1F
100
AcDbEntity
  8
1
  6
Continuous
 62
     7
370
    13
100
AcDbLine
 10
12751.23029062792
 20
19111.43154262652
 30
0.0
 11
12751.23029062792
 21
18949.43154262652
 31
0.0
  0
LINE
  5
6706
330
1F
100
AcDbEntity
  8
1
  6
Continuous
 62
     7
370
    13
100
AcDbLine
 10
12467.73020962826
 20
18787.43158312683
 30
0.0
 11
12103.23020962826
 21
18787.43158312683
 31
0.0
  0
LINE
  5
6707
330
1F
100
AcDbEntity
  8
1
  6
Continuous
 62
     7
370
    13
100
AcDbLine
 10
12103.23020962826
 20
19273.43154262652
 30
0.0
 11
12467.73020962826
 21
19273.43154262652
 31
0.0
  0
ARC
  5
6708
330
1F
100
AcDbEntity
  8
1
  6
Continuous
 62
     7
370
    13
100
AcDbCircle
 10
12589.23016912795
 20
17410.43150212621
 30
0.0
 40
162.0
100
AcDbArc
 50
270.0
 51
0.0
  0
ARC
  5
6709
330
1F
100
AcDbEntity
  8
1
  6
Continuous
 62
     7
370
    13
100
AcDbCircle
 10
12589.23016912795
 20
17572.43150212621
 30
0.0
 40
162.0
100
AcDbArc
 50
0.0
 51
90.0
  0
ARC
  5
670A
330
1F
100
AcDbEntity
  8
1
  6
Continuous
 62
     7
370
    13
100
AcDbCircle
 10
12589.23016912795
 20
18949.43154262652
 30
0.0
 40
162.0
100
AcDbArc
 50
270.0
 51
0.0
  0
ARC
  5
670B
330
1F
100
AcDbEntity
  8
1
  6
Continuous
 62
     7
370
    13
100
AcDbCircle
 10
12589.23016912795
 20
19111.43154262652
 30
0.0
 40
162.0
100
AcDbArc
 50
0.0
 51
90.0
  0
LINE
  5
670C
330
1F
100
AcDbEntity
  8
1
  6
Continuous
 62
     7
370
    13
100
AcDbLine
 10
12589.23016912795
 20
19354.43154262652
 30
0.0
 11
12467.73020962826
 21
19354.43154262652
 31
0.0
  0
LINE
  5
670D
330
1F
100
AcDbEntity
  8
1
  6
Continuous
 62
     7
370
    13
100
AcDbLine
 10
12467.73020962826
 20
14008.43154262652
 30
0.0
 11
12589.23016912795
 21
14008.43154262652
 31
0.0
  0
LINE
  5
670E
330
1F
100
AcDbEntity
  8
1
  6
Continuous
 62
     7
370
    13
100
AcDbLine
 10
12467.73020962826
 20
19354.43154262652
 30
0.0
 11
12467.73020962826
 21
14008.36662112629
 31
0.0
  0
LINE
  5
670F
330
1F
100
AcDbEntity
  8
1
  6
Continuous
 62
     7
370
    13
100
AcDbLine
 10
12589.23016912795
 20
14008.15841062599
 30
0.0
 11
12589.23016912795
 21
19354.43154262652
 31
0.0
  0
LINE
  5
6710
330
1F
100
AcDbEntity
  8
1
  6
Continuous
 62
     7
370
    13
100
AcDbLine
 10
12751.23029062792
 20
15304.43154262652
 30
0.0
 11
12751.23029062792
 21
15142.43154262652
 31
0.0
  0
LINE
  5
6711
330
1F
100
AcDbEntity
  8
1
  6
Continuous
 62
     7
370
    13
100
AcDbLine
 10
12467.73020962826
 20
14980.43158312683
 30
0.0
 11
12103.23020962826
 21
14980.43158312683
 31
0.0
  0
LINE
  5
6712
330
1F
100
AcDbEntity
  8
1
  6
Continuous
 62
     7
370
    13
100
AcDbLine
 10
12103.23020962826
 20
15466.43154262652
 30
0.0
 11
12467.73020962826
 21
15466.43154262652
 31
0.0
  0
ARC
  5
6713
330
1F
100
AcDbEntity
  8
1
  6
Continuous
 62
     7
370
    13
100
AcDbCircle
 10
12589.23016912795
 20
15142.43154262652
 30
0.0
 40
162.0
100
AcDbArc
 50
270.0
 51
0.0
  0
ARC
  5
6714
330
1F
100
AcDbEntity
  8
1
  6
Continuous
 62
     7
370
    13
100
AcDbCircle
 10
12589.23016912795
 20
15304.43154262652
 30
0.0
 40
162.0
100
AcDbArc
 50
0.0
 51
90.0
  0
ARC
  5
6715
330
1F
100
AcDbEntity
  8
1
  6
Continuous
 62
     7
370
    13
100
AcDbCircle
 10
20258.59274968435
 20
12603.61423912611
 30
0.0
 40
809.9999594999999
100
AcDbArc
 50
275.1679149995589
 51
355.2497019997061
  0
ARC
  5
6716
330
1F
100
AcDbEntity
  8
1
  6
Continuous
 62
     7
370
    13
100
AcDbCircle
 10
-27468.15929131642
 20
16569.65158312645
 30
0.0
 40
48701.2550625
100
AcDbArc
 50
355.2497019997061
 51
4.750298000293846
  0
ARC
  5
6717
330
1F
100
AcDbEntity
  8
1
  6
Continuous
 62
     7
370
    13
100
AcDbCircle
 10
20258.59274968435
 20
20535.6889271268
 30
0.0
 40
809.9999594999999
100
AcDbArc
 50
4.750298000293846
 51
84.83208500044112
  0
ARC
  5
6718
330
1F
100
AcDbEntity
  8
1
  6
Continuous
 62
     7
370
    13
100
AcDbCircle
 10
18398.09585218406
 20
-35.34995587301091
 30
0.0
 40
21465.00162
100
AcDbArc
 50
84.83208500044112
 51
95.16791499955891
  0
ARC
  5
6719
330
1F
100
AcDbEntity
  8
1
  6
Continuous
 62
     7
370
    13
100
AcDbCircle
 10
64264.35095518425
 20
16569.65158312645
 30
0.0
 40
48701.2550625
100
AcDbArc
 50
175.2497019997061
 51
184.6746109996064
  0
ARC
  5
671A
330
1F
100
AcDbEntity
  8
1
  6
Continuous
 62
     7
370
    13
100
AcDbCircle
 10
16537.59895468379
 20
20535.6889271268
 30
0.0
 40
809.9999594999999
100
AcDbArc
 50
95.16791499955891
 51
175.2497019997061
  0
ARC
  5
671B
330
1F
100
AcDbEntity
  8
1
  6
Continuous
 62
     7
370
    13
100
AcDbCircle
 10
18398.09585218406
 20
33174.6531221259
 30
0.0
 40
21465.00162
100
AcDbArc
 50
267.4938079985755
 51
267.7318459994308
  0
ARC
  5
671C
330
1F
100
AcDbEntity
  8
1
  6
Continuous
 62
     7
370
    13
100
AcDbCircle
 10
18398.09585218406
 20
33174.6531221259
 30
0.0
 40
21465.00162
100
AcDbArc
 50
264.8320850004411
 51
266.6494769997333
  0
ARC
  5
671D
330
1F
100
AcDbEntity
  8
1
  6
Continuous
 62
     7
370
    13
100
AcDbCircle
 10
18398.09585218406
 20
33174.6531221259
 30
0.0
 40
21465.00162
100
AcDbArc
 50
266.9526450009425
 51
267.1907869998882
  0
ARC
  5
671E
330
1F
100
AcDbEntity
  8
1
  6
Continuous
 62
     7
370
    13
100
AcDbCircle
 10
18398.09585218406
 20
33174.6531221259
 30
0.0
 40
21465.00162
100
AcDbArc
 50
273.3125130005709
 51
275.1679149995589
  0
ARC
  5
671F
330
1F
100
AcDbEntity
  8
1
  6
Continuous
 62
     7
370
    13
100
AcDbCircle
 10
18398.09585218406
 20
33174.6531221259
 30
0.0
 40
21465.00162
100
AcDbArc
 50
272.7712219999868
 51
273.0093579997983
  0
ARC
  5
6720
330
1F
100
AcDbEntity
  8
1
  6
Continuous
 62
     7
370
    13
100
AcDbCircle
 10
18398.09585218406
 20
33174.6531221259
 30
0.0
 40
21465.00162
100
AcDbArc
 50
268.0347479997698
 51
271.9016660013475
  0
ARC
  5
6721
330
1F
100
AcDbEntity
  8
1
  6
Continuous
 62
     7
370
    13
100
AcDbCircle
 10
18398.09585218406
 20
33174.6531221259
 30
0.0
 40
21465.00162
100
AcDbArc
 50
272.2301779991909
 51
272.4682110002132
  0
LINE
  5
6722
330
1F
100
AcDbEntity
  8
1
  6
Continuous
 62
     7
370
    13
100
AcDbLine
 10
13313.57336968417
 20
8890.697683125749
 30
0.0
 11
14083.07336968417
 21
8890.697683125749
 31
0.0
  0
LINE
  5
6723
330
1F
100
AcDbEntity
  8
1
  6
Continuous
 62
     7
370
    13
100
AcDbLine
 10
13313.57336968417
 20
9911.297683126687
 30
0.0
 11
13313.57336968417
 21
8890.697683125749
 31
0.0
  0
LINE
  5
6724
330
1F
100
AcDbEntity
  8
1
  6
Continuous
 62
     7
370
    13
100
AcDbLine
 10
14083.07336968417
 20
9911.297683126687
 30
0.0
 11
13313.57336968417
 21
9911.297683126687
 31
0.0
  0
LINE
  5
6725
330
1F
100
AcDbEntity
  8
1
  6
Continuous
 62
     7
370
    13
100
AcDbLine
 10
15022.67336968415
 20
8890.697683125749
 30
0.0
 11
14860.67336968415
 21
8890.697683125749
 31
0.0
  0
LINE
  5
6726
330
1F
100
AcDbEntity
  8
1
  6
Continuous
 62
     7
370
    13
100
AcDbLine
 10
15022.67336968415
 20
8809.697683125749
 30
0.0
 11
15022.67336968415
 21
8890.697683125749
 31
0.0
  0
LINE
  5
6727
330
1F
100
AcDbEntity
  8
1
  6
Continuous
 62
     7
370
    13
100
AcDbLine
 10
15962.27336968416
 20
8809.697683125749
 30
0.0
 11
15022.67336968415
 21
8809.697683125749
 31
0.0
  0
LINE
  5
6728
330
1F
100
AcDbEntity
  8
1
  6
Continuous
 62
     7
370
    13
100
AcDbLine
 10
15962.27336968416
 20
9911.297683126687
 30
0.0
 11
15962.27336968416
 21
8809.697683125749
 31
0.0
  0
LINE
  5
6729
330
1F
100
AcDbEntity
  8
1
  6
Continuous
 62
     7
370
    13
100
AcDbLine
 10
14860.67336968415
 20
9911.297683126687
 30
0.0
 11
15962.27336968416
 21
9911.297683126687
 31
0.0
  0
LINE
  5
672A
330
1F
100
AcDbEntity
  8
1
  6
Continuous
 62
     7
370
    13
100
AcDbLine
 10
14860.67336968415
 20
8809.697683125749
 30
0.0
 11
14860.67336968415
 21
10057.09768312669
 31
0.0
  0
LINE
  5
672B
330
1F
100
AcDbEntity
  8
1
  6
Continuous
 62
     7
370
    13
100
AcDbLine
 10
14083.07336968417
 20
8809.697683125749
 30
0.0
 11
14860.67336968415
 21
8809.697683125749
 31
0.0
  0
LINE
  5
672C
330
1F
100
AcDbEntity
  8
1
  6
Continuous
 62
     7
370
    13
100
AcDbLine
 10
14083.07336968417
 20
10057.09768312669
 30
0.0
 11
14083.07336968417
 21
8809.697683125749
 31
0.0
  0
LINE
  5
672D
330
1F
100
AcDbEntity
  8
1
  6
Continuous
 62
     7
370
    13
100
AcDbLine
 10
14083.07336968417
 20
10057.09768312669
 30
0.0
 11
14860.67336968415
 21
10057.09768312669
 31
0.0
  0
LINE
  5
672E
330
1F
100
AcDbEntity
  8
1
  6
Continuous
 62
     7
370
    13
100
AcDbLine
 10
16333.61726218498
 20
9687.482452125928
 30
0.0
 11
15962.27336968416
 21
9687.482452125928
 31
0.0
  0
LINE
  5
672F
330
1F
100
AcDbEntity
  8
1
  6
Continuous
 62
     7
370
    13
100
AcDbLine
 10
16333.61726218498
 20
9574.080467626846
 30
0.0
 11
15951.73409518484
 21
9574.080467626846
 31
0.0
  0
LINE
  5
6730
330
1F
100
AcDbEntity
  8
1
  6
Continuous
 62
     7
370
    13
100
AcDbLine
 10
11980.92026218406
 20
9573.891899626193
 30
0.0
 11
13313.57336968417
 21
9573.891899626193
 31
0.0
  0
LINE
  5
6731
330
1F
100
AcDbEntity
  8
1
  6
Continuous
 62
     7
370
    13
100
AcDbLine
 10
12049.14028468301
 20
9687.292628627023
 30
0.0
 11
13313.57336968417
 21
9687.292628627023
 31
0.0
  0
LINE
  5
6732
330
1F
100
AcDbEntity
  8
1
  6
Continuous
 62
     7
370
    13
100
AcDbLine
 10
11920.53565318458
 20
9484.792628627024
 30
0.0
 11
13313.57336968417
 21
9484.792628627024
 31
0.0
  0
LINE
  5
6733
330
1F
100
AcDbEntity
  8
1
  6
Continuous
 62
     7
370
    13
100
AcDbLine
 10
11869.18145068331
 20
9371.391899626193
 30
0.0
 11
13313.57336968417
 21
9371.391899626193
 31
0.0
  0
LINE
  5
6734
330
1F
100
AcDbEntity
  8
1
  6
Continuous
 62
     7
370
    13
100
AcDbLine
 10
11859.5003306846
 20
9282.481196625798
 30
0.0
 11
13313.57336968417
 21
9282.481196625798
 31
0.0
  0
LINE
  5
6735
330
1F
100
AcDbEntity
  8
1
  6
Continuous
 62
     7
370
    13
100
AcDbLine
 10
11881.79400118436
 20
9169.080467626846
 30
0.0
 11
13313.57336968417
 21
9169.080467626846
 31
0.0
  0
LINE
  5
6736
330
1F
100
AcDbEntity
  8
1
  6
Continuous
 62
     7
370
    13
100
AcDbLine
 10
15957.8096621835
 20
8700.550507125575
 30
0.0
 11
15957.8096621835
 21
8183.343070126531
 31
0.0
  0
LINE
  5
6737
330
1F
100
AcDbEntity
  8
1
  6
Continuous
 62
     7
370
    13
100
AcDbLine
 10
13313.57336968417
 20
8700.550507125575
 30
0.0
 11
13313.57336968417
 21
8183.343070126531
 31
0.0
  0
ARC
  5
6738
330
1F
100
AcDbEntity
  8
1
  6
Continuous
 62
     7
370
    13
100
AcDbCircle
 10
16537.59895468379
 20
12603.61423912611
 30
0.0
 40
809.9999594999999
100
AcDbArc
 50
180.2089250015574
 51
264.8320850004411
  0
ARC
  5
6739
330
1F
100
AcDbEntity
  8
1
  6
Continuous
 62
     7
370
    13
100
AcDbCircle
 10
18325.42382668399
 20
10481.56303612662
 30
0.0
 40
1110.46383
100
AcDbArc
 50
270.0
 51
0.0
  0
ARC
  5
673A
330
1F
100
AcDbEntity
  8
1
  6
Continuous
 62
     7
370
    13
100
AcDbCircle
 10
18325.42382668399
 20
10481.56303612662
 30
0.0
 40
1312.96383
100
AcDbArc
 50
270.0
 51
0.0
  0
ARC
  5
673B
330
1F
100
AcDbEntity
  8
1
  6
Continuous
 62
     7
370
    13
100
AcDbCircle
 10
18325.42382668399
 20
10481.56303612662
 30
0.0
 40
1199.564316
100
AcDbArc
 50
270.0
 51
0.0
  0
ARC
  5
673C
330
1F
100
AcDbEntity
  8
1
  6
Continuous
 62
     7
370
    13
100
AcDbCircle
 10
18325.42382668399
 20
10481.56303612662
 30
0.0
 40
997.0643160000001
100
AcDbArc
 50
270.0
 51
0.0
  0
ARC
  5
673D
330
1F
100
AcDbEntity
  8
1
  6
Continuous
 62
     7
370
    13
100
AcDbCircle
 10
18325.42382668399
 20
10481.56303612662
 30
0.0
 40
907.96383
100
AcDbArc
 50
270.0
 51
0.0
  0
ARC
  5
673E
330
1F
100
AcDbEntity
  8
1
  6
Continuous
 62
     7
370
    13
100
AcDbCircle
 10
18325.42382668399
 20
10481.56303612662
 30
0.0
 40
794.5643160000001
100
AcDbArc
 50
270.0
 51
0.0
  0
ARC
  5
673F
330
1F
100
AcDbEntity
  8
1
  6
Continuous
 62
     7
370
    13
100
AcDbCircle
 10
16349.02431268391
 20
10481.56303612662
 30
0.0
 40
1110.46383
100
AcDbArc
 50
270.0
 51
0.0
  0
ARC
  5
6740
330
1F
100
AcDbEntity
  8
1
  6
Continuous
 62
     7
370
    13
100
AcDbCircle
 10
16349.02431268391
 20
10481.56303612662
 30
0.0
 40
1312.96383
100
AcDbArc
 50
270.0
 51
0.0
  0
ARC
  5
6741
330
1F
100
AcDbEntity
  8
1
  6
Continuous
 62
     7
370
    13
100
AcDbCircle
 10
16349.02431268391
 20
10481.56303612662
 30
0.0
 40
1199.564316
100
AcDbArc
 50
270.0
 51
0.0
  0
ARC
  5
6742
330
1F
100
AcDbEntity
  8
1
  6
Continuous
 62
     7
370
    13
100
AcDbCircle
 10
16349.02431268391
 20
10481.56303612662
 30
0.0
 40
997.0643160000001
100
AcDbArc
 50
270.0
 51
0.0
  0
ARC
  5
6743
330
1F
100
AcDbEntity
  8
1
  6
Continuous
 62
     7
370
    13
100
AcDbCircle
 10
16349.02431268391
 20
10481.56303612662
 30
0.0
 40
907.96383
100
AcDbArc
 50
270.0
 51
0.0
  0
ARC
  5
6744
330
1F
100
AcDbEntity
  8
1
  6
Continuous
 62
     7
370
    13
100
AcDbCircle
 10
16349.02431268391
 20
10481.56303612662
 30
0.0
 40
794.5643160000001
100
AcDbArc
 50
270.0
 51
0.0
  0
LINE
  5
6745
330
1F
100
AcDbEntity
  8
1
  6
Continuous
 62
     7
370
    13
100
AcDbLine
 10
16416.29780968358
 20
9168.891899626194
 30
0.0
 11
15962.27332918385
 21
9168.891899626194
 31
0.0
  0
LINE
  5
6746
330
1F
100
AcDbEntity
  8
1
  6
Continuous
 62
     7
370
    13
100
AcDbLine
 10
18325.4238671843
 20
9168.891899626194
 30
0.0
 11
16416.29780968358
 21
9168.891899626194
 31
0.0
  0
LINE
  5
6747
330
1F
100
AcDbEntity
  8
1
  6
Continuous
 62
     7
370
    13
100
AcDbLine
 10
16349.02443418484
 20
9282.293884127154
 30
0.0
 11
15962.27332918385
 21
9282.293884127154
 31
0.0
  0
LINE
  5
6748
330
1F
100
AcDbEntity
  8
1
  6
Continuous
 62
     7
370
    13
100
AcDbLine
 10
18325.4238671843
 20
9282.293884127154
 30
0.0
 11
16883.46555268486
 21
9282.293884127154
 31
0.0
  0
LINE
  5
6749
330
1F
100
AcDbEntity
  8
1
  6
Continuous
 62
     7
370
    13
100
AcDbLine
 10
18325.42394818396
 20
9371.580467626847
 30
0.0
 11
17050.31785768359
 21
9371.580467626847
 31
0.0
  0
LINE
  5
674A
330
1F
100
AcDbEntity
  8
1
  6
Continuous
 62
     7
370
    13
100
AcDbLine
 10
16803.8794481842
 20
9371.580467626847
 30
0.0
 11
15962.27332918385
 21
9371.580467626847
 31
0.0
  0
LINE
  5
674B
330
1F
100
AcDbEntity
  8
1
  6
Continuous
 62
     7
370
    13
100
AcDbLine
 10
17016.69018118402
 20
9484.980467625907
 30
0.0
 11
16855.13798968408
 21
9484.980467625907
 31
0.0
  0
LINE
  5
674C
330
1F
100
AcDbEntity
  8
1
  6
Continuous
 62
     7
370
    13
100
AcDbLine
 10
18325.42382668399
 20
9484.98245212593
 30
0.0
 11
17203.83488968409
 21
9484.98245212593
 31
0.0
  0
LINE
  5
674D
330
1F
100
AcDbEntity
  8
1
  6
Continuous
 62
     7
370
    13
100
AcDbLine
 10
16400.0637896848
 20
9484.98245212593
 30
0.0
 11
15962.27336968416
 21
9484.98245212593
 31
0.0
  0
LINE
  5
674E
330
1F
100
AcDbEntity
  8
1
  6
Continuous
 62
     7
370
    13
100
AcDbLine
 10
16430.06396218408
 20
9573.948802125713
 30
0.0
 11
16761.95202568465
 21
9574.080467626846
 31
0.0
  0
LINE
  5
674F
330
1F
100
AcDbEntity
  8
1
  6
Continuous
 62
     7
370
    13
100
AcDbLine
 10
16996.0943921847
 20
9574.080467626846
 30
0.0
 11
17133.3968441845
 21
9573.97597762708
 31
0.0
  0
LINE
  5
6750
330
1F
100
AcDbEntity
  8
1
  6
Continuous
 62
     7
370
    13
100
AcDbLine
 10
18325.42394818396
 20
9574.080467626846
 30
0.0
 11
17297.89172518385
 21
9574.080467626846
 31
0.0
  0
LINE
  5
6751
330
1F
100
AcDbEntity
  8
1
  6
Continuous
 62
     7
370
    13
100
AcDbLine
 10
16951.99467118379
 20
9687.48046762591
 30
0.0
 11
16776.97663468336
 21
9687.48046762591
 31
0.0
  0
LINE
  5
6752
330
1F
100
AcDbEntity
  8
1
  6
Continuous
 62
     7
370
    13
100
AcDbLine
 10
17248.12973968374
 20
9687.48046762591
 30
0.0
 11
17117.8236221838
 21
9687.48046762591
 31
0.0
  0
LINE
  5
6753
330
1F
100
AcDbEntity
  8
1
  6
Continuous
 62
     7
370
    13
100
AcDbLine
 10
18325.4259731843
 20
9687.482452125928
 30
0.0
 11
17394.63897568387
 21
9687.482452125928
 31
0.0
  0
LINE
  5
6754
330
1F
100
AcDbEntity
  8
1
  6
DASHDOT
 62
     7
 48
10.0
370
    13
100
AcDbLine
 10
18398.09585218406
 20
10899.65150212583
 30
0.0
 11
18398.09585218406
 21
22239.63898762578
 31
0.0
  0
LINE
  5
6755
330
1F
100
AcDbEntity
  8
1
  6
Continuous
 62
     7
370
    13
100
AcDbLine
 10
10753.11890068427
 20
9282.482452125929
 30
0.0
 11
10753.11890068427
 21
9169.080467626846
 31
0.0
  0
LINE
  5
6756
330
1F
100
AcDbEntity
  8
1
  6
Continuous
 62
     7
370
    13
100
AcDbLine
 10
10753.11890068427
 20
9484.793884127155
 30
0.0
 11
10753.11890068427
 21
9371.391899626193
 31
0.0
  0
LINE
  5
6757
330
1F
100
AcDbEntity
  8
1
  6
Continuous
 62
     7
370
    13
100
AcDbLine
 10
10753.11890068427
 20
9687.293884127154
 30
0.0
 11
10753.11890068427
 21
9573.891899626193
 31
0.0
  0
LINE
  5
6758
330
1F
100
AcDbEntity
  8
1
  6
Continuous
 62
     7
370
    13
100
AcDbLine
 10
10753.11869818462
 20
9573.891899626193
 30
0.0
 11
11697.34161118396
 21
9573.891899626193
 31
0.0
  0
LINE
  5
6759
330
1F
100
AcDbEntity
  8
1
  6
Continuous
 62
     7
370
    13
100
AcDbLine
 10
10753.11886018396
 20
9484.793884127155
 30
0.0
 11
11636.78301418451
 21
9484.793884127155
 31
0.0
  0
LINE
  5
675A
330
1F
100
AcDbEntity
  8
1
  6
Continuous
 62
     7
370
    13
100
AcDbLine
 10
10753.11881968366
 20
9371.391899626193
 30
0.0
 11
11585.68173418451
 21
9371.391899626193
 31
0.0
  0
LINE
  5
675B
330
1F
100
AcDbEntity
  8
1
  6
Continuous
 62
     7
370
    13
100
AcDbLine
 10
10753.11886018396
 20
9282.482452125929
 30
0.0
 11
11576.07529618397
 21
9282.482452125929
 31
0.0
  0
LINE
  5
675C
330
1F
100
AcDbEntity
  8
1
  6
Continuous
 62
     7
370
    13
100
AcDbLine
 10
10753.11886018396
 20
9169.080467626846
 30
0.0
 11
11598.36933118371
 21
9169.080467626846
 31
0.0
  0
LINE
  5
675D
330
1F
100
AcDbEntity
  8
1
  6
Continuous
 62
     7
370
    13
100
AcDbLine
 10
10753.11890068427
 20
9687.293884127154
 30
0.0
 11
11765.84792818372
 21
9687.293884127154
 31
0.0
  0
LINE
  5
675E
330
1F
100
AcDbEntity
  8
1
  6
DASHDOT
 62
     7
 48
10.0
370
    13
100
AcDbLine
 10
15158.09589268437
 20
16569.65150212583
 30
0.0
 11
21638.09589268435
 21
16569.65150212583
 31
0.0
  0
LINE
  5
675F
330
1F
100
AcDbEntity
  8
1
  6
Continuous
 62
     7
370
    13
100
AcDbLine
 10
17345.09585218406
 20
13149.02162362543
 30
0.0
 11
17345.09585218406
 21
13732.22154262672
 31
0.0
  0
LINE
  5
6760
330
1F
100
AcDbEntity
  8
1
  6
Continuous
 62
     7
370
    13
100
AcDbLine
 10
20342.09585218405
 20
20368.55150212677
 30
0.0
 11
16454.09585218406
 21
20368.55150212677
 31
0.0
  0
LINE
  5
6761
330
1F
100
AcDbEntity
  8
1
  6
Continuous
 62
     7
370
    13
100
AcDbLine
 10
20504.09585218404
 20
20530.55150212677
 30
0.0
 11
16292.09585218406
 21
20530.55150212677
 31
0.0
  0
LINE
  5
6762
330
1F
100
AcDbEntity
  8
1
  6
Continuous
 62
     7
370
    13
100
AcDbLine
 10
17548.58862868476
 20
13726.55150212677
 30
0.0
 11
17459.48814268388
 21
13726.55150212677
 31
0.0
  0
LINE
  5
6763
330
1F
100
AcDbEntity
  8
1
  6
Continuous
 62
     7
370
    13
100
AcDbLine
 10
17346.08814268389
 20
13726.55150212677
 30
0.0
 11
17256.98814268388
 21
13726.55150212677
 31
0.0
  0
LINE
  5
6764
330
1F
100
AcDbEntity
  8
1
  6
Continuous
 62
     7
370
    13
100
AcDbLine
 10
19524.98814268387
 20
13726.55150212677
 30
0.0
 11
19435.88765668397
 21
13726.55150212677
 31
0.0
  0
LINE
  5
6765
330
1F
100
AcDbEntity
  8
1
  6
Continuous
 62
     7
370
    13
100
AcDbLine
 10
19322.48814268386
 20
13726.55150212677
 30
0.0
 11
19233.38765668397
 21
13726.55150212677
 31
0.0
  0
LINE
  5
6766
330
1F
100
AcDbEntity
  8
1
  6
Continuous
 62
     7
370
    13
100
AcDbLine
 10
19119.98814268386
 20
13726.55150212677
 30
0.0
 11
17661.98814268388
 21
13726.55150212677
 31
0.0
  0
LINE
  5
6767
330
1F
100
AcDbEntity
  8
1
  6
Continuous
 62
     7
370
    13
100
AcDbLine
 10
16616.09585218406
 20
14520.35158312645
 30
0.0
 11
16616.09585218406
 21
13726.55150212677
 31
0.0
  0
LINE
  5
6768
330
1F
100
AcDbEntity
  8
1
  6
Continuous
 62
     7
370
    13
100
AcDbLine
 10
17143.58814268388
 20
13726.55150212677
 30
0.0
 11
16616.09585218406
 21
13726.55150212677
 31
0.0
  0
LINE
  5
6769
330
1F
100
AcDbEntity
  8
1
  6
Continuous
 62
     7
370
    13
100
AcDbLine
 10
20180.09585218405
 20
13726.55150212677
 30
0.0
 11
19638.38765668397
 21
13726.55150212677
 31
0.0
  0
LINE
  5
676A
330
1F
100
AcDbEntity
  8
1
  6
Continuous
 62
     7
370
    13
100
AcDbLine
 10
17256.98814268388
 20
13605.05150212677
 30
0.0
 11
17345.09585218406
 21
13605.05150212677
 31
0.0
  0
LINE
  5
676B
330
1F
100
AcDbEntity
  8
1
  6
Continuous
 62
     7
370
    13
100
AcDbLine
 10
17459.48814268388
 20
13605.05150212677
 30
0.0
 11
17548.58814268389
 21
13605.05150212677
 31
0.0
  0
LINE
  5
676C
330
1F
100
AcDbEntity
  8
1
  6
Continuous
 62
     7
370
    13
100
AcDbLine
 10
17661.98814268388
 20
13605.05150212677
 30
0.0
 11
19119.98814268386
 21
13605.05150212677
 31
0.0
  0
LINE
  5
676D
330
1F
100
AcDbEntity
  8
1
  6
Continuous
 62
     7
370
    13
100
AcDbLine
 10
19233.38765668397
 20
13605.05150212677
 30
0.0
 11
19322.48814268386
 21
13605.05150212677
 31
0.0
  0
LINE
  5
676E
330
1F
100
AcDbEntity
  8
1
  6
Continuous
 62
     7
370
    13
100
AcDbLine
 10
19435.88765668397
 20
13605.05150212677
 30
0.0
 11
19524.98814268387
 21
13605.05150212677
 31
0.0
  0
LINE
  5
676F
330
1F
100
AcDbEntity
  8
1
  6
Continuous
 62
     7
370
    13
100
AcDbLine
 10
16616.09585218406
 20
13726.55150212677
 30
0.0
 11
16616.09585218406
 21
13605.05150212677
 31
0.0
  0
LINE
  5
6770
330
1F
100
AcDbEntity
  8
1
  6
Continuous
 62
     7
370
    13
100
AcDbLine
 10
16616.09585218406
 20
13605.05150212677
 30
0.0
 11
17143.58814268388
 21
13605.05150212677
 31
0.0
  0
LINE
  5
6771
330
1F
100
AcDbEntity
  8
1
  6
Continuous
 62
     7
370
    13
100
AcDbLine
 10
20180.09585218405
 20
13605.05150212677
 30
0.0
 11
20180.09585218405
 21
13726.55150212677
 31
0.0
  0
LINE
  5
6772
330
1F
100
AcDbEntity
  8
1
  6
Continuous
 62
     7
370
    13
100
AcDbLine
 10
19638.38765668397
 20
13605.05150212677
 30
0.0
 11
20180.09585218405
 21
13605.05150212677
 31
0.0
  0
LINE
  5
6773
330
1F
100
AcDbEntity
  8
1
  6
Continuous
 62
     7
370
    13
100
AcDbLine
 10
16616.09585218406
 20
19412.75150212679
 30
0.0
 11
16616.09585218406
 21
14520.35158312645
 31
0.0
  0
LINE
  5
6774
330
1F
100
AcDbEntity
  8
1
  6
Continuous
 62
     7
370
    13
100
AcDbLine
 10
20180.09585218405
 20
19412.75150212679
 30
0.0
 11
16616.09585218406
 21
19412.75150212679
 31
0.0
  0
LINE
  5
6775
330
1F
100
AcDbEntity
  8
1
  6
Continuous
 62
     7
370
    13
100
AcDbLine
 10
16616.09585218406
 20
19412.75150212679
 30
0.0
 11
20180.09585218405
 21
19412.75150212679
 31
0.0
  0
LINE
  5
6776
330
1F
100
AcDbEntity
  8
1
  6
Continuous
 62
     7
370
    13
100
AcDbLine
 10
16616.09585218406
 20
19534.25150212679
 30
0.0
 11
16616.09585218406
 21
19412.75150212679
 31
0.0
  0
LINE
  5
6777
330
1F
100
AcDbEntity
  8
1
  6
Continuous
 62
     7
370
    13
100
AcDbLine
 10
20180.09585218405
 20
19534.25150212679
 30
0.0
 11
20180.09585218405
 21
19412.75150212679
 31
0.0
  0
LINE
  5
6778
330
1F
100
AcDbEntity
  8
1
  6
Continuous
 62
     7
370
    13
100
AcDbLine
 10
16616.09585218406
 20
19534.25150212679
 30
0.0
 11
20180.09585218405
 21
19534.25150212679
 31
0.0
  0
LINE
  5
6779
330
1F
100
AcDbEntity
  8
1
  6
Continuous
 62
     7
370
    13
100
AcDbLine
 10
20180.09585218405
 20
19412.75150212679
 30
0.0
 11
20180.09585218405
 21
13726.55150212677
 31
0.0
  0
LINE
  5
677A
330
1F
100
AcDbEntity
  8
1
  6
Continuous
 62
     7
370
    13
100
AcDbLine
 10
17459.48814268388
 20
12770.75150212679
 30
0.0
 11
17548.58814268389
 21
12770.75150212679
 31
0.0
  0
LINE
  5
677B
330
1F
100
AcDbEntity
  8
1
  6
Continuous
 62
     7
370
    13
100
AcDbLine
 10
17256.98814268388
 20
12770.75150212679
 30
0.0
 11
17346.08814268389
 21
12770.75150212679
 31
0.0
  0
LINE
  5
677C
330
1F
100
AcDbEntity
  8
1
  6
Continuous
 62
     7
370
    13
100
AcDbLine
 10
17661.98814268388
 20
12770.75150212679
 30
0.0
 11
19119.98814268386
 21
12770.75150212679
 31
0.0
  0
LINE
  5
677D
330
1F
100
AcDbEntity
  8
1
  6
Continuous
 62
     7
370
    13
100
AcDbLine
 10
19233.38765668397
 20
12770.75150212679
 30
0.0
 11
19322.48814268386
 21
12770.75150212679
 31
0.0
  0
LINE
  5
677E
330
1F
100
AcDbEntity
  8
1
  6
Continuous
 62
     7
370
    13
100
AcDbLine
 10
19435.88765668397
 20
12770.75150212679
 30
0.0
 11
19524.98814268387
 21
12770.75150212679
 31
0.0
  0
LINE
  5
677F
330
1F
100
AcDbEntity
  8
1
  6
Continuous
 62
     7
370
    13
100
AcDbLine
 10
16454.09585218406
 20
12770.75150212679
 30
0.0
 11
17143.58814268388
 21
12770.75150212679
 31
0.0
  0
LINE
  5
6780
330
1F
100
AcDbEntity
  8
1
  6
Continuous
 62
     7
370
    13
100
AcDbLine
 10
16454.09585218406
 20
20368.55150212677
 30
0.0
 11
16454.09585218406
 21
12770.75150212679
 31
0.0
  0
LINE
  5
6781
330
1F
100
AcDbEntity
  8
1
  6
Continuous
 62
     7
370
    13
100
AcDbLine
 10
19638.38765668397
 20
12770.75150212679
 30
0.0
 11
20342.09585218405
 21
12770.75150212679
 31
0.0
  0
LINE
  5
6782
330
1F
100
AcDbEntity
  8
1
  6
Continuous
 62
     7
370
    13
100
AcDbLine
 10
20342.09585218405
 20
12770.75150212679
 30
0.0
 11
20342.09585218405
 21
20368.55150212677
 31
0.0
  0
LINE
  5
6783
330
1F
100
AcDbEntity
  8
1
  6
Continuous
 62
     7
370
    13
100
AcDbLine
 10
17256.98814268388
 20
12608.75150212679
 30
0.0
 11
17346.08814268389
 21
12608.75150212679
 31
0.0
  0
LINE
  5
6784
330
1F
100
AcDbEntity
  8
1
  6
Continuous
 62
     7
370
    13
100
AcDbLine
 10
17459.48814268388
 20
12608.75150212679
 30
0.0
 11
17548.58862868476
 21
12608.75150212679
 31
0.0
  0
LINE
  5
6785
330
1F
100
AcDbEntity
  8
1
  6
Continuous
 62
     7
370
    13
100
AcDbLine
 10
19435.88765668397
 20
12608.75150212679
 30
0.0
 11
19524.98814268387
 21
12608.75150212679
 31
0.0
  0
LINE
  5
6786
330
1F
100
AcDbEntity
  8
1
  6
Continuous
 62
     7
370
    13
100
AcDbLine
 10
17661.98814268388
 20
12608.75150212679
 30
0.0
 11
19119.98814268386
 21
12608.75150212679
 31
0.0
  0
LINE
  5
6787
330
1F
100
AcDbEntity
  8
1
  6
Continuous
 62
     7
370
    13
100
AcDbLine
 10
19233.38765668397
 20
12608.75150212679
 30
0.0
 11
19322.48814268386
 21
12608.75150212679
 31
0.0
  0
LINE
  5
6788
330
1F
100
AcDbEntity
  8
1
  6
Continuous
 62
     7
370
    13
100
AcDbLine
 10
16292.09585218406
 20
12608.75150212679
 30
0.0
 11
17143.58814268388
 21
12608.75150212679
 31
0.0
  0
LINE
  5
6789
330
1F
100
AcDbEntity
  8
1
  6
Continuous
 62
     7
370
    13
100
AcDbLine
 10
16292.09585218406
 20
20530.55150212677
 30
0.0
 11
16292.09585218406
 21
12608.75150212679
 31
0.0
  0
LINE
  5
678A
330
1F
100
AcDbEntity
  8
1
  6
Continuous
 62
     7
370
    13
100
AcDbLine
 10
19638.38765668397
 20
12608.75150212679
 30
0.0
 11
20504.09585218404
 21
12608.75150212679
 31
0.0
  0
LINE
  5
678B
330
1F
100
AcDbEntity
  8
1
  6
Continuous
 62
     7
370
    13
100
AcDbLine
 10
20504.09585218404
 20
12608.75150212679
 30
0.0
 11
20504.09585218404
 21
20530.55150212677
 31
0.0
  0
LINE
  5
678C
330
1F
100
AcDbEntity
  8
1
  6
Continuous
 62
     7
370
    13
100
AcDbLine
 10
18829.01585218461
 20
19874.45150212584
 30
0.0
 11
18829.01585218461
 21
19534.25150212679
 31
0.0
  0
LINE
  5
678D
330
1F
100
AcDbEntity
  8
1
  6
Continuous
 62
     7
370
    13
100
AcDbLine
 10
18981.29585218406
 20
19874.45150212584
 30
0.0
 11
18829.01585218461
 21
19874.45150212584
 31
0.0
  0
LINE
  5
678E
330
1F
100
AcDbEntity
  8
1
  6
Continuous
 62
     7
370
    13
100
AcDbLine
 10
19143.29585218406
 20
19874.45150212584
 30
0.0
 11
19143.29585218406
 21
19534.25150212679
 31
0.0
  0
LINE
  5
678F
330
1F
100
AcDbEntity
  8
1
  6
Continuous
 62
     7
370
    13
100
AcDbLine
 10
18981.29585218406
 20
19874.45150212584
 30
0.0
 11
19143.29585218406
 21
19874.45150212584
 31
0.0
  0
LINE
  5
6790
330
1F
100
AcDbEntity
  8
1
  6
Continuous
 62
     7
370
    13
100
AcDbLine
 10
18981.29585218406
 20
20028.35150212678
 30
0.0
 11
18981.29585218406
 21
19874.45150212584
 31
0.0
  0
LINE
  5
6791
330
1F
100
AcDbEntity
  8
1
  6
Continuous
 62
     7
370
    13
100
AcDbLine
 10
19402.49585218314
 20
20028.35150212678
 30
0.0
 11
19402.49585218314
 21
19534.25150212679
 31
0.0
  0
LINE
  5
6792
330
1F
100
AcDbEntity
  8
1
  6
Continuous
 62
     7
370
    13
100
AcDbLine
 10
18981.29585218406
 20
20028.35150212678
 30
0.0
 11
19402.49585218314
 21
20028.35150212678
 31
0.0
  0
LINE
  5
6793
330
1F
100
AcDbEntity
  8
1
  6
Continuous
 62
     7
370
    13
100
AcDbLine
 10
19544.24585218314
 20
20170.10150212678
 30
0.0
 11
19544.24585218314
 21
19534.25150212679
 31
0.0
  0
LINE
  5
6794
330
1F
100
AcDbEntity
  8
1
  6
Continuous
 62
     7
370
    13
100
AcDbLine
 10
18981.29585218406
 20
20170.10150212678
 30
0.0
 11
19544.24585218314
 21
20170.10150212678
 31
0.0
  0
LINE
  5
6795
330
1F
100
AcDbEntity
  8
1
  6
Continuous
 62
     7
370
    13
100
AcDbLine
 10
18981.29585218406
 20
20368.55150212677
 30
0.0
 11
18981.29585218406
 21
20170.10150212678
 31
0.0
  0
LINE
  5
6796
330
1F
100
AcDbEntity
  8
1
  6
Continuous
 62
     7
370
    13
100
AcDbLine
 10
19877.96585218463
 20
19667.90150212584
 30
0.0
 11
19877.96585218463
 21
20089.10150212678
 31
0.0
  0
LINE
  5
6797
330
1F
100
AcDbEntity
  8
1
  6
Continuous
 62
     7
370
    13
100
AcDbLine
 10
20214.11585218372
 20
19667.90150212584
 30
0.0
 11
19877.96585218463
 21
19667.90150212584
 31
0.0
  0
LINE
  5
6798
330
1F
100
AcDbEntity
  8
1
  6
Continuous
 62
     7
370
    13
100
AcDbLine
 10
20214.11585218372
 20
20089.10150212678
 30
0.0
 11
20214.11585218372
 21
19667.90150212584
 31
0.0
  0
LINE
  5
6799
330
1F
100
AcDbEntity
  8
1
  6
Continuous
 62
     7
370
    13
100
AcDbLine
 10
19877.96585218463
 20
20089.10150212678
 30
0.0
 11
20214.11585218372
 21
20089.10150212678
 31
0.0
  0
LINE
  5
679A
330
1F
100
AcDbEntity
  8
1
  6
Continuous
 62
     7
370
    13
100
AcDbLine
 10
17967.1758521835
 20
19874.45150212584
 30
0.0
 11
17967.1758521835
 21
19534.25150212679
 31
0.0
  0
LINE
  5
679B
330
1F
100
AcDbEntity
  8
1
  6
Continuous
 62
     7
370
    13
100
AcDbLine
 10
17814.89585218408
 20
19874.45150212584
 30
0.0
 11
17967.1758521835
 21
19874.45150212584
 31
0.0
  0
LINE
  5
679C
330
1F
100
AcDbEntity
  8
1
  6
Continuous
 62
     7
370
    13
100
AcDbLine
 10
17652.89585218408
 20
19874.45150212584
 30
0.0
 11
17652.89585218408
 21
19534.25150212679
 31
0.0
  0
LINE
  5
679D
330
1F
100
AcDbEntity
  8
1
  6
Continuous
 62
     7
370
    13
100
AcDbLine
 10
17814.89585218408
 20
19874.45150212584
 30
0.0
 11
17652.89585218408
 21
19874.45150212584
 31
0.0
  0
LINE
  5
679E
330
1F
100
AcDbEntity
  8
1
  6
Continuous
 62
     7
370
    13
100
AcDbLine
 10
17814.89585218408
 20
20028.35150212678
 30
0.0
 11
17814.89585218408
 21
19874.45150212584
 31
0.0
  0
LINE
  5
679F
330
1F
100
AcDbEntity
  8
1
  6
Continuous
 62
     7
370
    13
100
AcDbLine
 10
17393.69585218503
 20
20028.35150212678
 30
0.0
 11
17393.69585218503
 21
19534.25150212679
 31
0.0
  0
LINE
  5
67A0
330
1F
100
AcDbEntity
  8
1
  6
Continuous
 62
     7
370
    13
100
AcDbLine
 10
17814.89585218408
 20
20028.35150212678
 30
0.0
 11
17393.69585218503
 21
20028.35150212678
 31
0.0
  0
LINE
  5
67A1
330
1F
100
AcDbEntity
  8
1
  6
Continuous
 62
     7
370
    13
100
AcDbLine
 10
17251.94585218503
 20
20170.10150212678
 30
0.0
 11
17251.94585218503
 21
19534.25150212679
 31
0.0
  0
LINE
  5
67A2
330
1F
100
AcDbEntity
  8
1
  6
Continuous
 62
     7
370
    13
100
AcDbLine
 10
17814.89585218408
 20
20170.10150212678
 30
0.0
 11
17251.94585218503
 21
20170.10150212678
 31
0.0
  0
LINE
  5
67A3
330
1F
100
AcDbEntity
  8
1
  6
Continuous
 62
     7
370
    13
100
AcDbLine
 10
17814.89585218408
 20
20368.55150212677
 30
0.0
 11
17814.89585218408
 21
20170.10150212678
 31
0.0
  0
LINE
  5
67A4
330
1F
100
AcDbEntity
  8
1
  6
Continuous
 62
     7
370
    13
100
AcDbLine
 10
16918.22585218351
 20
19667.90150212584
 30
0.0
 11
16918.22585218351
 21
20089.10150212678
 31
0.0
  0
LINE
  5
67A5
330
1F
100
AcDbEntity
  8
1
  6
Continuous
 62
     7
370
    13
100
AcDbLine
 10
16582.07585218445
 20
19667.90150212584
 30
0.0
 11
16918.22585218351
 21
19667.90150212584
 31
0.0
  0
LINE
  5
67A6
330
1F
100
AcDbEntity
  8
1
  6
Continuous
 62
     7
370
    13
100
AcDbLine
 10
16582.07585218445
 20
20089.10150212678
 30
0.0
 11
16582.07585218445
 21
19667.90150212584
 31
0.0
  0
LINE
  5
67A7
330
1F
100
AcDbEntity
  8
1
  6
Continuous
 62
     7
370
    13
100
AcDbLine
 10
16918.22585218351
 20
20089.10150212678
 30
0.0
 11
16582.07585218445
 21
20089.10150212678
 31
0.0
  0
ARC
  5
67A8
330
1F
100
AcDbEntity
  8
1
  6
Continuous
 62
     7
370
    13
100
AcDbCircle
 10
18398.09585218406
 20
875.9001251257213
 30
0.0
 40
20391.75153899999
100
AcDbArc
 50
84.83208500044112
 51
95.16791499955891
  0
ARC
  5
67A9
330
1F
100
AcDbEntity
  8
1
  6
Continuous
 62
     7
370
    13
100
AcDbCircle
 10
18398.09585218406
 20
32263.40304112528
 30
0.0
 40
20391.75153899999
100
AcDbArc
 50
264.8320850004411
 51
266.4729179995029
  0
ARC
  5
67AA
330
1F
100
AcDbEntity
  8
1
  6
Continuous
 62
     7
370
    13
100
AcDbCircle
 10
18398.09585218406
 20
32263.40304112528
 30
0.0
 40
20391.75153899999
100
AcDbArc
 50
266.7920939985405
 51
267.0428070006612
  0
ARC
  5
67AB
330
1F
100
AcDbEntity
  8
1
  6
Continuous
 62
     7
370
    13
100
AcDbCircle
 10
18398.09585218406
 20
32263.40304112528
 30
0.0
 40
20391.75153899999
100
AcDbArc
 50
267.3618120002241
 51
267.6124039993041
  0
ARC
  5
67AC
330
1F
100
AcDbEntity
  8
1
  6
Continuous
 62
     7
370
    13
100
AcDbCircle
 10
18398.09585218406
 20
32263.40304112528
 30
0.0
 40
20391.75153899999
100
AcDbArc
 50
272.347620000949
 51
272.5982039992755
  0
ARC
  5
67AD
330
1F
100
AcDbEntity
  8
1
  6
Continuous
 62
     7
370
    13
100
AcDbCircle
 10
18398.09585218406
 20
32263.40304112528
 30
0.0
 40
20391.75153899999
100
AcDbArc
 50
272.9171989996777
 51
273.1679019997086
  0
ARC
  5
67AE
330
1F
100
AcDbEntity
  8
1
  6
Continuous
 62
     7
370
    13
100
AcDbCircle
 10
18398.09585218406
 20
32263.40304112528
 30
0.0
 40
20391.75153899999
100
AcDbArc
 50
267.9312699993687
 51
272.0287629996716
  0
ARC
  5
67AF
330
1F
100
AcDbEntity
  8
1
  6
Continuous
 62
     7
370
    13
100
AcDbCircle
 10
18398.09585218406
 20
32263.40304112528
 30
0.0
 40
20391.75153899999
100
AcDbArc
 50
273.4870659995522
 51
275.3057240008603
  0
ARC
  5
67B0
330
1F
100
AcDbEntity
  8
1
  6
Continuous
 62
     7
370
    13
100
AcDbCircle
 10
16630.62380968422
 20
20418.38707612709
 30
0.0
 40
769.4999595
100
AcDbArc
 50
95.16791499955891
 51
167.6453350004632
  0
ARC
  5
67B1
330
1F
100
AcDbEntity
  8
1
  6
Continuous
 62
     7
370
    13
100
AcDbCircle
 10
20165.56789468392
 20
20418.38707612709
 30
0.0
 40
769.4999595
100
AcDbArc
 50
12.52695500002395
 51
84.83208500044112
  0
ARC
  5
67B2
330
1F
100
AcDbEntity
  8
1
  6
Continuous
 62
     7
370
    13
100
AcDbCircle
 10
-25174.84650781615
 20
16569.65158312645
 30
0.0
 40
46266.1923195
100
AcDbArc
 50
355.0207909996287
 51
4.979209000371305
  0
ARC
  5
67B3
330
1F
100
AcDbEntity
  8
1
  6
Continuous
 62
     7
370
    13
100
AcDbCircle
 10
20165.56789468392
 20
12720.91609012581
 30
0.0
 40
769.4999595
100
AcDbArc
 50
275.1679149995589
 51
347.473044999976
  0
ARC
  5
67B4
330
1F
100
AcDbEntity
  8
1
  6
Continuous
 62
     7
370
    13
100
AcDbCircle
 10
16630.62380968422
 20
12720.91609012581
 30
0.0
 40
769.4999595
100
AcDbArc
 50
192.5269550000239
 51
264.8320850004411
  0
ARC
  5
67B5
330
1F
100
AcDbEntity
  8
1
  6
Continuous
 62
     7
370
    13
100
AcDbCircle
 10
61971.03821218433
 20
16569.65158312645
 30
0.0
 40
46266.1923195
100
AcDbArc
 50
175.0212259996095
 51
184.9792090003712
  0
LINE
  5
67B6
330
1F
100
AcDbEntity
  8
1
  6
Continuous
 62
     7
370
    13
100
AcDbLine
 10
18829.01585218461
 20
13264.85150212678
 30
0.0
 11
18829.01585218461
 21
13605.05150212677
 31
0.0
  0
LINE
  5
67B7
330
1F
100
AcDbEntity
  8
1
  6
Continuous
 62
     7
370
    13
100
AcDbLine
 10
18981.29585218406
 20
13264.85150212678
 30
0.0
 11
18829.01585218461
 21
13264.85150212678
 31
0.0
  0
LINE
  5
67B8
330
1F
100
AcDbEntity
  8
1
  6
Continuous
 62
     7
370
    13
100
AcDbLine
 10
18981.29585218406
 20
13110.95150212584
 30
0.0
 11
18981.29585218406
 21
13264.85150212678
 31
0.0
  0
LINE
  5
67B9
330
1F
100
AcDbEntity
  8
1
  6
Continuous
 62
     7
370
    13
100
AcDbLine
 10
18981.29585218406
 20
12770.75150212679
 30
0.0
 11
18981.29585218406
 21
12969.20150212584
 31
0.0
  0
LINE
  5
67BA
330
1F
100
AcDbEntity
  8
1
  6
Continuous
 62
     7
370
    13
100
AcDbLine
 10
19877.96585218463
 20
13471.40150212583
 30
0.0
 11
19877.96585218463
 21
13050.20150212584
 31
0.0
  0
LINE
  5
67BB
330
1F
100
AcDbEntity
  8
1
  6
Continuous
 62
     7
370
    13
100
AcDbLine
 10
20214.11585218372
 20
13471.40150212583
 30
0.0
 11
19877.96585218463
 21
13471.40150212583
 31
0.0
  0
LINE
  5
67BC
330
1F
100
AcDbEntity
  8
1
  6
Continuous
 62
     7
370
    13
100
AcDbLine
 10
20214.11585218372
 20
13050.20150212584
 30
0.0
 11
20214.11585218372
 21
13471.40150212583
 31
0.0
  0
LINE
  5
67BD
330
1F
100
AcDbEntity
  8
1
  6
Continuous
 62
     7
370
    13
100
AcDbLine
 10
19877.96585218463
 20
13050.20150212584
 30
0.0
 11
20214.11585218372
 21
13050.20150212584
 31
0.0
  0
LINE
  5
67BE
330
1F
100
AcDbEntity
  8
1
  6
Continuous
 62
     7
370
    13
100
AcDbLine
 10
17967.1758521835
 20
13264.85150212678
 30
0.0
 11
17967.1758521835
 21
13605.05150212677
 31
0.0
  0
LINE
  5
67BF
330
1F
100
AcDbEntity
  8
1
  6
Continuous
 62
     7
370
    13
100
AcDbLine
 10
17814.89585218408
 20
13264.85150212678
 30
0.0
 11
17967.1758521835
 21
13264.85150212678
 31
0.0
  0
LINE
  5
67C0
330
1F
100
AcDbEntity
  8
1
  6
Continuous
 62
     7
370
    13
100
AcDbLine
 10
17814.89585218408
 20
13110.95150212584
 30
0.0
 11
17814.89585218408
 21
13264.85150212678
 31
0.0
  0
LINE
  5
67C1
330
1F
100
AcDbEntity
  8
1
  6
Continuous
 62
     7
370
    13
100
AcDbLine
 10
17814.89585218408
 20
12770.75150212679
 30
0.0
 11
17814.89585218408
 21
12969.20150212584
 31
0.0
  0
LINE
  5
67C2
330
1F
100
AcDbEntity
  8
1
  6
Continuous
 62
     7
370
    13
100
AcDbLine
 10
16918.22585218351
 20
13471.40150212583
 30
0.0
 11
16918.22585218351
 21
13050.20150212584
 31
0.0
  0
LINE
  5
67C3
330
1F
100
AcDbEntity
  8
1
  6
Continuous
 62
     7
370
    13
100
AcDbLine
 10
16582.07585218445
 20
13471.40150212583
 30
0.0
 11
16918.22585218351
 21
13471.40150212583
 31
0.0
  0
LINE
  5
67C4
330
1F
100
AcDbEntity
  8
1
  6
Continuous
 62
     7
370
    13
100
AcDbLine
 10
16582.07585218445
 20
13050.20150212584
 30
0.0
 11
16582.07585218445
 21
13471.40150212583
 31
0.0
  0
LINE
  5
67C5
330
1F
100
AcDbEntity
  8
1
  6
Continuous
 62
     7
370
    13
100
AcDbLine
 10
16918.22585218351
 20
13050.20150212584
 30
0.0
 11
16582.07585218445
 21
13050.20150212584
 31
0.0
  0
LINE
  5
67C6
330
1F
100
AcDbEntity
  8
1
  6
Continuous
 62
     7
370
    13
100
AcDbLine
 10
17814.89585218408
 20
13264.85150212678
 30
0.0
 11
17661.98814268388
 21
13264.85150212678
 31
0.0
  0
LINE
  5
67C7
330
1F
100
AcDbEntity
  8
1
  6
Continuous
 62
     7
370
    13
100
AcDbLine
 10
17346.08862868476
 20
12969.20150212584
 30
0.0
 11
17251.94585218503
 21
12969.20150212584
 31
0.0
  0
LINE
  5
67C8
330
1F
100
AcDbEntity
  8
1
  6
Continuous
 62
     7
370
    13
100
AcDbLine
 10
17814.89585218408
 20
12969.20150212584
 30
0.0
 11
17661.98814268388
 21
12969.20150212584
 31
0.0
  0
LINE
  5
67C9
330
1F
100
AcDbEntity
  8
1
  6
Continuous
 62
     7
370
    13
100
AcDbLine
 10
17548.58862868476
 20
12969.20150212584
 30
0.0
 11
17459.48814268388
 21
12969.20150212584
 31
0.0
  0
LINE
  5
67CA
330
1F
100
AcDbEntity
  8
1
  6
Continuous
 62
     7
370
    13
100
AcDbLine
 10
17814.89585218408
 20
13110.95150212584
 30
0.0
 11
17661.98814268388
 21
13110.95150212584
 31
0.0
  0
LINE
  5
67CB
330
1F
100
AcDbEntity
  8
1
  6
Continuous
 62
     7
370
    13
100
AcDbLine
 10
17548.58862868476
 20
13110.95150212584
 30
0.0
 11
17459.48814268388
 21
13110.95150212584
 31
0.0
  0
LINE
  5
67CC
330
1F
100
AcDbEntity
  8
1
  6
Continuous
 62
     7
370
    13
100
AcDbLine
 10
18981.29585218406
 20
13264.85150212678
 30
0.0
 11
19119.98814268386
 21
13264.85150212678
 31
0.0
  0
LINE
  5
67CD
330
1F
100
AcDbEntity
  8
1
  6
Continuous
 62
     7
370
    13
100
AcDbLine
 10
18981.29585218406
 20
13110.95150212584
 30
0.0
 11
19119.98814268386
 21
13110.95150212584
 31
0.0
  0
LINE
  5
67CE
330
1F
100
AcDbEntity
  8
1
  6
Continuous
 62
     7
370
    13
100
AcDbLine
 10
18981.29585218406
 20
12969.20150212584
 30
0.0
 11
19119.98814268386
 21
12969.20150212584
 31
0.0
  0
LINE
  5
67CF
330
1F
100
AcDbEntity
  8
1
  6
Continuous
 62
     7
370
    13
100
AcDbLine
 10
19233.38765668397
 20
12969.20150212584
 30
0.0
 11
19322.48814268386
 21
12969.20150212584
 31
0.0
  0
LINE
  5
67D0
330
1F
100
AcDbEntity
  8
1
  6
Continuous
 62
     7
370
    13
100
AcDbLine
 10
19233.38765668397
 20
13110.95150212584
 30
0.0
 11
19322.48814268386
 21
13110.95150212584
 31
0.0
  0
LINE
  5
67D1
330
1F
100
AcDbEntity
  8
1
  6
Continuous
 62
     7
370
    13
100
AcDbLine
 10
19435.88765668397
 20
12969.20150212584
 30
0.0
 11
19524.98814268387
 21
12969.20150212584
 31
0.0
  0
LINE
  5
67D2
330
1F
100
AcDbEntity
  8
1
  6
Continuous
 62
     7
370
    13
100
AcDbLine
 10
10550.61890068427
 20
9270.330467626846
 30
0.0
 11
10550.61890068427
 21
9181.230467625908
 31
0.0
  0
LINE
  5
67D3
330
1F
100
AcDbEntity
  8
1
  6
Continuous
 62
     7
370
    13
100
AcDbLine
 10
10550.61890068427
 20
9472.641899626193
 30
0.0
 11
10550.61890068427
 21
9383.541899626186
 31
0.0
  0
LINE
  5
67D4
330
1F
100
AcDbEntity
  8
1
  6
Continuous
 62
     7
370
    13
100
AcDbLine
 10
10550.61890068427
 20
9675.141899626193
 30
0.0
 11
10550.61890068427
 21
9586.041899626186
 31
0.0
  0
LINE
  5
67D5
330
1F
100
AcDbEntity
  8
1
  6
Continuous
 62
     7
370
    13
100
AcDbLine
 10
10753.11890068427
 20
9270.330467626846
 30
0.0
 11
10550.61890068427
 21
9270.330467626846
 31
0.0
  0
LINE
  5
67D6
330
1F
100
AcDbEntity
  8
1
  6
Continuous
 62
     7
370
    13
100
AcDbLine
 10
10753.11890068427
 20
9270.330467626846
 30
0.0
 11
10550.61890068427
 21
9270.330467626846
 31
0.0
  0
LINE
  5
67D7
330
1F
100
AcDbEntity
  8
1
  6
Continuous
 62
     7
370
    13
100
AcDbLine
 10
10550.61890068427
 20
9181.230467625908
 30
0.0
 11
10753.11890068427
 21
9181.230467625908
 31
0.0
  0
LINE
  5
67D8
330
1F
100
AcDbEntity
  8
1
  6
Continuous
 62
     7
370
    13
100
AcDbLine
 10
10753.11890068427
 20
9472.641899626193
 30
0.0
 11
10550.61890068427
 21
9472.641899626193
 31
0.0
  0
LINE
  5
67D9
330
1F
100
AcDbEntity
  8
1
  6
Continuous
 62
     7
370
    13
100
AcDbLine
 10
10753.11890068427
 20
9472.641899626193
 30
0.0
 11
10550.61890068427
 21
9472.641899626193
 31
0.0
  0
LINE
  5
67DA
330
1F
100
AcDbEntity
  8
1
  6
Continuous
 62
     7
370
    13
100
AcDbLine
 10
10550.61890068427
 20
9383.541899626186
 30
0.0
 11
10753.11890068427
 21
9383.541899626186
 31
0.0
  0
LINE
  5
67DB
330
1F
100
AcDbEntity
  8
1
  6
Continuous
 62
     7
370
    13
100
AcDbLine
 10
10753.11890068427
 20
9675.141899626193
 30
0.0
 11
10550.61890068427
 21
9675.141899626193
 31
0.0
  0
LINE
  5
67DC
330
1F
100
AcDbEntity
  8
1
  6
Continuous
 62
     7
370
    13
100
AcDbLine
 10
10753.11890068427
 20
9675.141899626193
 30
0.0
 11
10550.61890068427
 21
9675.141899626193
 31
0.0
  0
LINE
  5
67DD
330
1F
100
AcDbEntity
  8
1
  6
Continuous
 62
     7
370
    13
100
AcDbLine
 10
10550.61890068427
 20
9586.041899626186
 30
0.0
 11
10753.11890068427
 21
9586.041899626186
 31
0.0
  0
LINE
  5
67DE
330
1F
100
AcDbEntity
  8
1
  6
Continuous
 62
     7
370
    13
100
AcDbLine
 10
17143.58862868476
 20
14578.14164062577
 30
0.0
 11
17143.58862868476
 21
10481.56303612662
 31
0.0
  0
LINE
  5
67DF
330
1F
100
AcDbEntity
  8
1
  6
Continuous
 62
     7
370
    13
100
AcDbLine
 10
17661.98814268388
 20
14249.69275612576
 30
0.0
 11
17661.98814268388
 21
10419.08153962668
 31
0.0
  0
LINE
  5
67E0
330
1F
100
AcDbEntity
  8
1
  6
Continuous
 62
     7
370
    13
100
AcDbLine
 10
17256.98814268388
 20
14502.92382562624
 30
0.0
 11
17256.98814268388
 21
10481.56303612662
 31
0.0
  0
LINE
  5
67E1
330
1F
100
AcDbEntity
  8
1
  6
Continuous
 62
     7
370
    13
100
AcDbLine
 10
17346.08862868476
 20
14447.23600162567
 30
0.0
 11
17346.08862868476
 21
10481.56303612662
 31
0.0
  0
LINE
  5
67E2
330
1F
100
AcDbEntity
  8
1
  6
Continuous
 62
     7
370
    13
100
AcDbLine
 10
17459.48814268388
 20
14376.36132562624
 30
0.0
 11
17459.48814268388
 21
10481.56303612662
 31
0.0
  0
LINE
  5
67E3
330
1F
100
AcDbEntity
  8
1
  6
Continuous
 62
     7
370
    13
100
AcDbLine
 10
17548.58862868476
 20
14320.67350162567
 30
0.0
 11
17548.58862868476
 21
10481.56303612662
 31
0.0
  0
LINE
  5
67E4
330
1F
100
AcDbEntity
  8
1
  6
Continuous
 62
     7
370
    13
100
AcDbLine
 10
19119.98814268386
 20
14240.66356462739
 30
0.0
 11
19119.98814268386
 21
10481.56303612662
 31
0.0
  0
LINE
  5
67E5
330
1F
100
AcDbEntity
  8
1
  6
Continuous
 62
     7
370
    13
100
AcDbLine
 10
19233.38765668397
 20
14311.7888951259
 30
0.0
 11
19233.38765668397
 21
10481.56303612662
 31
0.0
  0
LINE
  5
67E6
330
1F
100
AcDbEntity
  8
1
  6
Continuous
 62
     7
370
    13
100
AcDbLine
 10
19322.48814268386
 20
14367.47667862712
 30
0.0
 11
19322.48814268386
 21
10481.56303612662
 31
0.0
  0
LINE
  5
67E7
330
1F
100
AcDbEntity
  8
1
  6
Continuous
 62
     7
370
    13
100
AcDbLine
 10
19435.88765668397
 20
14438.3513951259
 30
0.0
 11
19435.88765668397
 21
10481.56303612662
 31
0.0
  0
LINE
  5
67E8
330
1F
100
AcDbEntity
  8
1
  6
Continuous
 62
     7
370
    13
100
AcDbLine
 10
19524.98814268387
 20
14494.03917862712
 30
0.0
 11
19524.98814268387
 21
10481.56303612662
 31
0.0
  0
LINE
  5
67E9
330
1F
100
AcDbEntity
  8
1
  6
Continuous
 62
     7
370
    13
100
AcDbLine
 10
19638.38765668397
 20
14564.9138951259
 30
0.0
 11
19638.38765668397
 21
10481.56303612662
 31
0.0
  0
LINE
  5
67EA
330
1F
100
AcDbEntity
  8
1
  6
Continuous
 62
     7
370
    13
100
AcDbLine
 10
20180.09585218405
 20
14903.48150212621
 30
0.0
 11
18754.49585218314
 21
14012.48150212621
 31
0.0
  0
LINE
  5
67EB
330
1F
100
AcDbEntity
  8
1
  6
Continuous
 62
     7
370
    13
100
AcDbLine
 10
18041.69585218503
 20
14012.48150212621
 30
0.0
 11
16616.09585218406
 21
14903.48150212621
 31
0.0
  0
LINE
  5
67EC
330
1F
100
AcDbEntity
  8
1
  6
Continuous
 62
     7
370
    13
100
AcDbLine
 10
18754.49585218314
 20
14012.48150212621
 30
0.0
 11
18041.69585218503
 21
14012.48150212621
 31
0.0
  0
LINE
  5
67ED
330
1F
100
AcDbEntity
  8
1
  6
Continuous
 62
     7
370
    13
100
AcDbLine
 10
20640.30901618377
 20
13723.89397312705
 30
0.0
 11
20969.14070668397
 21
13723.89397312705
 31
0.0
  0
LINE
  5
67EE
330
1F
100
AcDbEntity
  8
1
  6
Continuous
 62
     7
370
    13
100
AcDbLine
 10
20840.43186868418
 20
9674.708063626894
 30
0.0
 11
20840.43186868418
 21
9547.028938126125
 31
0.0
  0
ARC
  5
67EF
330
1F
100
AcDbEntity
  8
1
  6
Continuous
 62
     7
370
    13
100
AcDbCircle
 10
19625.43186868418
 20
9547.607683125548
 30
0.0
 40
1215.0
100
AcDbArc
 50
270.0
 51
0.0
  0
LINE
  5
67F0
330
1F
100
AcDbEntity
  8
1
  6
Continuous
 62
     7
370
    13
100
AcDbLine
 10
16869.04281418344
 20
14223.08154262557
 30
0.0
 11
16950.04281418344
 21
14223.08154262557
 31
0.0
  0
LINE
  5
67F1
330
1F
100
AcDbEntity
  8
1
  6
Continuous
 62
     7
370
    13
100
AcDbLine
 10
16990.54281418344
 20
14344.58154262557
 30
0.0
 11
17087.74257118442
 21
14344.58154262557
 31
0.0
  0
LINE
  5
67F2
330
1F
100
AcDbEntity
  8
1
  6
Continuous
 62
     7
370
    13
100
AcDbLine
 10
16990.54281418344
 20
14004.38150212621
 30
0.0
 11
17087.74257118442
 21
14004.38150212621
 31
0.0
  0
LINE
  5
67F3
330
1F
100
AcDbEntity
  8
1
  6
Continuous
 62
     7
370
    13
100
AcDbLine
 10
16990.54281418344
 20
14344.58154262557
 30
0.0
 11
16990.54281418344
 21
14263.58154262557
 31
0.0
  0
LINE
  5
67F4
330
1F
100
AcDbEntity
  8
1
  6
Continuous
 62
     7
370
    13
100
AcDbLine
 10
16869.04281418344
 20
14125.88150212621
 30
0.0
 11
16950.04281418344
 21
14125.88150212621
 31
0.0
  0
LINE
  5
67F5
330
1F
100
AcDbEntity
  8
1
  6
Continuous
 62
     7
370
    13
100
AcDbLine
 10
17087.74257118442
 20
14085.38150212621
 30
0.0
 11
17087.74257118442
 21
14004.38150212621
 31
0.0
  0
LINE
  5
67F6
330
1F
100
AcDbEntity
  8
1
  6
Continuous
 62
     7
370
    13
100
AcDbLine
 10
16990.54281418344
 20
14085.38150212621
 30
0.0
 11
16990.54281418344
 21
14004.38150212621
 31
0.0
  0
LINE
  5
67F7
330
1F
100
AcDbEntity
  8
1
  6
Continuous
 62
     7
370
    13
100
AcDbLine
 10
16869.04281418344
 20
14223.08154262557
 30
0.0
 11
16869.04281418344
 21
14125.88150212621
 31
0.0
  0
LINE
  5
67F8
330
1F
100
AcDbEntity
  8
1
  6
Continuous
 62
     7
370
    13
100
AcDbLine
 10
17087.74257118442
 20
14344.58154262557
 30
0.0
 11
17087.74257118442
 21
14263.58154262557
 31
0.0
  0
ARC
  5
67F9
330
1F
100
AcDbEntity
  8
1
  6
Continuous
 62
     7
370
    13
100
AcDbCircle
 10
17128.24257118442
 20
14085.38150212621
 30
0.0
 40
40.49999999999999
100
AcDbArc
 50
90.0
 51
180.0
  0
ARC
  5
67FA
330
1F
100
AcDbEntity
  8
1
  6
Continuous
 62
     7
370
    13
100
AcDbCircle
 10
16950.04281418344
 20
14263.58154262557
 30
0.0
 40
40.49999999999999
100
AcDbArc
 50
270.0
 51
0.0
  0
ARC
  5
67FB
330
1F
100
AcDbEntity
  8
1
  6
Continuous
 62
     7
370
    13
100
AcDbCircle
 10
17128.24257118442
 20
14263.58154262557
 30
0.0
 40
40.49999999999999
100
AcDbArc
 50
180.0
 51
270.0
  0
ARC
  5
67FC
330
1F
100
AcDbEntity
  8
1
  6
Continuous
 62
     7
370
    13
100
AcDbCircle
 10
16950.04281418344
 20
14085.38150212621
 30
0.0
 40
40.49999999999999
100
AcDbArc
 50
0.0
 51
90.0
  0
CIRCLE
  5
67FD
330
1F
100
AcDbEntity
  8
1
  6
Continuous
 62
     7
370
    13
100
AcDbCircle
 10
17039.14269268441
 20
15227.48154262652
 30
0.0
 40
210.5999999999999
  0
LINE
  5
67FE
330
1F
100
AcDbEntity
  8
1
  6
Continuous
 62
     7
370
    13
100
AcDbLine
 10
17209.24257118442
 20
15276.08154262557
 30
0.0
 11
17209.24257118442
 21
15178.88150212621
 31
0.0
  0
LINE
  5
67FF
330
1F
100
AcDbEntity
  8
1
  6
Continuous
 62
     7
370
    13
100
AcDbLine
 10
16869.04281418344
 20
15276.08154262557
 30
0.0
 11
16950.04281418344
 21
15276.08154262557
 31
0.0
  0
LINE
  5
6800
330
1F
100
AcDbEntity
  8
1
  6
Continuous
 62
     7
370
    13
100
AcDbLine
 10
16990.54281418344
 20
15397.58154262557
 30
0.0
 11
17087.74257118442
 21
15397.58154262557
 31
0.0
  0
LINE
  5
6801
330
1F
100
AcDbEntity
  8
1
  6
Continuous
 62
     7
370
    13
100
AcDbLine
 10
16990.54281418344
 20
15057.38150212621
 30
0.0
 11
17087.74257118442
 21
15057.38150212621
 31
0.0
  0
LINE
  5
6802
330
1F
100
AcDbEntity
  8
1
  6
Continuous
 62
     7
370
    13
100
AcDbLine
 10
16990.54281418344
 20
15397.58154262557
 30
0.0
 11
16990.54281418344
 21
15316.58154262557
 31
0.0
  0
LINE
  5
6803
330
1F
100
AcDbEntity
  8
1
  6
Continuous
 62
     7
370
    13
100
AcDbLine
 10
16869.04281418344
 20
15178.88150212621
 30
0.0
 11
16950.04281418344
 21
15178.88150212621
 31
0.0
  0
LINE
  5
6804
330
1F
100
AcDbEntity
  8
1
  6
Continuous
 62
     7
370
    13
100
AcDbLine
 10
17087.74257118442
 20
15138.38150212621
 30
0.0
 11
17087.74257118442
 21
15057.38150212621
 31
0.0
  0
LINE
  5
6805
330
1F
100
AcDbEntity
  8
1
  6
Continuous
 62
     7
370
    13
100
AcDbLine
 10
16990.54281418344
 20
15138.38150212621
 30
0.0
 11
16990.54281418344
 21
15057.38150212621
 31
0.0
  0
LINE
  5
6806
330
1F
100
AcDbEntity
  8
1
  6
Continuous
 62
     7
370
    13
100
AcDbLine
 10
17128.24257118442
 20
15178.88150212621
 30
0.0
 11
17209.24257118442
 21
15178.88150212621
 31
0.0
  0
LINE
  5
6807
330
1F
100
AcDbEntity
  8
1
  6
Continuous
 62
     7
370
    13
100
AcDbLine
 10
16869.04281418344
 20
15276.08154262557
 30
0.0
 11
16869.04281418344
 21
15178.88150212621
 31
0.0
  0
LINE
  5
6808
330
1F
100
AcDbEntity
  8
1
  6
Continuous
 62
     7
370
    13
100
AcDbLine
 10
17128.24257118442
 20
15276.08154262557
 30
0.0
 11
17209.24257118442
 21
15276.08154262557
 31
0.0
  0
LINE
  5
6809
330
1F
100
AcDbEntity
  8
1
  6
Continuous
 62
     7
370
    13
100
AcDbLine
 10
17087.74257118442
 20
15397.58154262557
 30
0.0
 11
17087.74257118442
 21
15316.58154262557
 31
0.0
  0
ARC
  5
680A
330
1F
100
AcDbEntity
  8
1
  6
Continuous
 62
     7
370
    13
100
AcDbCircle
 10
17128.24257118442
 20
15138.38150212621
 30
0.0
 40
40.49999999999999
100
AcDbArc
 50
90.0
 51
180.0
  0
ARC
  5
680B
330
1F
100
AcDbEntity
  8
1
  6
Continuous
 62
     7
370
    13
100
AcDbCircle
 10
16950.04281418344
 20
15316.58154262557
 30
0.0
 40
40.49999999999999
100
AcDbArc
 50
270.0
 51
0.0
  0
ARC
  5
680C
330
1F
100
AcDbEntity
  8
1
  6
Continuous
 62
     7
370
    13
100
AcDbCircle
 10
17128.24257118442
 20
15316.58154262557
 30
0.0
 40
40.49999999999999
100
AcDbArc
 50
180.0
 51
270.0
  0
ARC
  5
680D
330
1F
100
AcDbEntity
  8
1
  6
Continuous
 62
     7
370
    13
100
AcDbCircle
 10
16950.04281418344
 20
15138.38150212621
 30
0.0
 40
40.49999999999999
100
AcDbArc
 50
0.0
 51
90.0
  0
CIRCLE
  5
680E
330
1F
100
AcDbEntity
  8
1
  6
Continuous
 62
     7
370
    13
100
AcDbCircle
 10
19755.41289268399
 20
15227.48154262652
 30
0.0
 40
210.5999999999999
  0
LINE
  5
680F
330
1F
100
AcDbEntity
  8
1
  6
Continuous
 62
     7
370
    13
100
AcDbLine
 10
19925.51277118397
 20
15276.08154262557
 30
0.0
 11
19925.51277118397
 21
15178.88150212621
 31
0.0
  0
LINE
  5
6810
330
1F
100
AcDbEntity
  8
1
  6
Continuous
 62
     7
370
    13
100
AcDbLine
 10
19585.31301418488
 20
15276.08154262557
 30
0.0
 11
19666.31301418488
 21
15276.08154262557
 31
0.0
  0
LINE
  5
6811
330
1F
100
AcDbEntity
  8
1
  6
Continuous
 62
     7
370
    13
100
AcDbLine
 10
19706.81301418301
 20
15397.58154262557
 30
0.0
 11
19804.01277118397
 21
15397.58154262557
 31
0.0
  0
LINE
  5
6812
330
1F
100
AcDbEntity
  8
1
  6
Continuous
 62
     7
370
    13
100
AcDbLine
 10
19706.81301418301
 20
15057.38150212621
 30
0.0
 11
19804.01277118397
 21
15057.38150212621
 31
0.0
  0
LINE
  5
6813
330
1F
100
AcDbEntity
  8
1
  6
Continuous
 62
     7
370
    13
100
AcDbLine
 10
19706.81301418301
 20
15397.58154262557
 30
0.0
 11
19706.81301418301
 21
15316.58154262557
 31
0.0
  0
LINE
  5
6814
330
1F
100
AcDbEntity
  8
1
  6
Continuous
 62
     7
370
    13
100
AcDbLine
 10
19585.31301418488
 20
15178.88150212621
 30
0.0
 11
19666.31301418488
 21
15178.88150212621
 31
0.0
  0
LINE
  5
6815
330
1F
100
AcDbEntity
  8
1
  6
Continuous
 62
     7
370
    13
100
AcDbLine
 10
19804.01277118397
 20
15138.38150212621
 30
0.0
 11
19804.01277118397
 21
15057.38150212621
 31
0.0
  0
LINE
  5
6816
330
1F
100
AcDbEntity
  8
1
  6
Continuous
 62
     7
370
    13
100
AcDbLine
 10
19706.81301418301
 20
15138.38150212621
 30
0.0
 11
19706.81301418301
 21
15057.38150212621
 31
0.0
  0
LINE
  5
6817
330
1F
100
AcDbEntity
  8
1
  6
Continuous
 62
     7
370
    13
100
AcDbLine
 10
19844.51277118397
 20
15178.88150212621
 30
0.0
 11
19925.51277118397
 21
15178.88150212621
 31
0.0
  0
LINE
  5
6818
330
1F
100
AcDbEntity
  8
1
  6
Continuous
 62
     7
370
    13
100
AcDbLine
 10
19585.31301418488
 20
15276.08154262557
 30
0.0
 11
19585.31301418488
 21
15178.88150212621
 31
0.0
  0
LINE
  5
6819
330
1F
100
AcDbEntity
  8
1
  6
Continuous
 62
     7
370
    13
100
AcDbLine
 10
19844.51277118397
 20
15276.08154262557
 30
0.0
 11
19925.51277118397
 21
15276.08154262557
 31
0.0
  0
LINE
  5
681A
330
1F
100
AcDbEntity
  8
1
  6
Continuous
 62
     7
370
    13
100
AcDbLine
 10
19804.01277118397
 20
15397.58154262557
 30
0.0
 11
19804.01277118397
 21
15316.58154262557
 31
0.0
  0
ARC
  5
681B
330
1F
100
AcDbEntity
  8
1
  6
Continuous
 62
     7
370
    13
100
AcDbCircle
 10
19844.51277118397
 20
15138.38150212621
 30
0.0
 40
40.49999999999999
100
AcDbArc
 50
90.0
 51
180.0
  0
ARC
  5
681C
330
1F
100
AcDbEntity
  8
1
  6
Continuous
 62
     7
370
    13
100
AcDbCircle
 10
19666.31301418488
 20
15316.58154262557
 30
0.0
 40
40.49999999999999
100
AcDbArc
 50
270.0
 51
0.0
  0
ARC
  5
681D
330
1F
100
AcDbEntity
  8
1
  6
Continuous
 62
     7
370
    13
100
AcDbCircle
 10
19844.51277118397
 20
15316.58154262557
 30
0.0
 40
40.49999999999999
100
AcDbArc
 50
180.0
 51
270.0
  0
ARC
  5
681E
330
1F
100
AcDbEntity
  8
1
  6
Continuous
 62
     7
370
    13
100
AcDbCircle
 10
19666.31301418488
 20
15138.38150212621
 30
0.0
 40
40.49999999999999
100
AcDbArc
 50
0.0
 51
90.0
  0
LINE
  5
681F
330
1F
100
AcDbEntity
  8
1
  6
Continuous
 62
     7
370
    13
100
AcDbLine
 10
19925.51277118397
 20
14223.08154262557
 30
0.0
 11
19925.51277118397
 21
14125.88150212621
 31
0.0
  0
LINE
  5
6820
330
1F
100
AcDbEntity
  8
1
  6
Continuous
 62
     7
370
    13
100
AcDbLine
 10
19706.81301418301
 20
14344.58154262557
 30
0.0
 11
19804.01277118397
 21
14344.58154262557
 31
0.0
  0
LINE
  5
6821
330
1F
100
AcDbEntity
  8
1
  6
Continuous
 62
     7
370
    13
100
AcDbLine
 10
19706.81301418301
 20
14004.38150212621
 30
0.0
 11
19804.01277118397
 21
14004.38150212621
 31
0.0
  0
LINE
  5
6822
330
1F
100
AcDbEntity
  8
1
  6
Continuous
 62
     7
370
    13
100
AcDbLine
 10
19706.81301418301
 20
14344.58154262557
 30
0.0
 11
19706.81301418301
 21
14263.58154262557
 31
0.0
  0
LINE
  5
6823
330
1F
100
AcDbEntity
  8
1
  6
Continuous
 62
     7
370
    13
100
AcDbLine
 10
19804.01277118397
 20
14085.38150212621
 30
0.0
 11
19804.01277118397
 21
14004.38150212621
 31
0.0
  0
LINE
  5
6824
330
1F
100
AcDbEntity
  8
1
  6
Continuous
 62
     7
370
    13
100
AcDbLine
 10
19706.81301418301
 20
14085.38150212621
 30
0.0
 11
19706.81301418301
 21
14004.38150212621
 31
0.0
  0
LINE
  5
6825
330
1F
100
AcDbEntity
  8
1
  6
Continuous
 62
     7
370
    13
100
AcDbLine
 10
19844.51277118397
 20
14125.88150212621
 30
0.0
 11
19925.51277118397
 21
14125.88150212621
 31
0.0
  0
LINE
  5
6826
330
1F
100
AcDbEntity
  8
1
  6
Continuous
 62
     7
370
    13
100
AcDbLine
 10
19844.51277118397
 20
14223.08154262557
 30
0.0
 11
19925.51277118397
 21
14223.08154262557
 31
0.0
  0
LINE
  5
6827
330
1F
100
AcDbEntity
  8
1
  6
Continuous
 62
     7
370
    13
100
AcDbLine
 10
19804.01277118397
 20
14344.58154262557
 30
0.0
 11
19804.01277118397
 21
14263.58154262557
 31
0.0
  0
ARC
  5
6828
330
1F
100
AcDbEntity
  8
1
  6
Continuous
 62
     7
370
    13
100
AcDbCircle
 10
19844.51277118397
 20
14085.38150212621
 30
0.0
 40
40.49999999999999
100
AcDbArc
 50
90.0
 51
180.0
  0
ARC
  5
6829
330
1F
100
AcDbEntity
  8
1
  6
Continuous
 62
     7
370
    13
100
AcDbCircle
 10
19666.31301418488
 20
14263.58154262557
 30
0.0
 40
40.49999999999999
100
AcDbArc
 50
270.0
 51
0.0
  0
ARC
  5
682A
330
1F
100
AcDbEntity
  8
1
  6
Continuous
 62
     7
370
    13
100
AcDbCircle
 10
19844.51277118397
 20
14263.58154262557
 30
0.0
 40
40.49999999999999
100
AcDbArc
 50
180.0
 51
270.0
  0
ARC
  5
682B
330
1F
100
AcDbEntity
  8
1
  6
Continuous
 62
     7
370
    13
100
AcDbCircle
 10
19666.31301418488
 20
14085.38150212621
 30
0.0
 40
40.49999999999999
100
AcDbArc
 50
0.0
 51
90.0
  0
CIRCLE
  5
682C
330
1F
100
AcDbEntity
  8
1
  6
Continuous
 62
     7
370
    13
100
AcDbCircle
 10
19755.41289268399
 20
17495.87034262613
 30
0.0
 40
210.5999999999999
  0
LINE
  5
682D
330
1F
100
AcDbEntity
  8
1
  6
Continuous
 62
     7
370
    13
100
AcDbLine
 10
19925.51277118397
 20
17544.47038312549
 30
0.0
 11
19925.51277118397
 21
17447.27030212676
 31
0.0
  0
LINE
  5
682E
330
1F
100
AcDbEntity
  8
1
  6
Continuous
 62
     7
370
    13
100
AcDbLine
 10
19585.31301418488
 20
17544.47038312549
 30
0.0
 11
19666.31301418488
 21
17544.47038312549
 31
0.0
  0
LINE
  5
682F
330
1F
100
AcDbEntity
  8
1
  6
Continuous
 62
     7
370
    13
100
AcDbLine
 10
19706.81301418301
 20
17665.97038312548
 30
0.0
 11
19804.01277118397
 21
17665.97038312548
 31
0.0
  0
LINE
  5
6830
330
1F
100
AcDbEntity
  8
1
  6
Continuous
 62
     7
370
    13
100
AcDbLine
 10
19706.81301418301
 20
17325.77030212676
 30
0.0
 11
19804.01277118397
 21
17325.77030212676
 31
0.0
  0
LINE
  5
6831
330
1F
100
AcDbEntity
  8
1
  6
Continuous
 62
     7
370
    13
100
AcDbLine
 10
19706.81301418301
 20
17665.97038312548
 30
0.0
 11
19706.81301418301
 21
17584.97038312548
 31
0.0
  0
LINE
  5
6832
330
1F
100
AcDbEntity
  8
1
  6
Continuous
 62
     7
370
    13
100
AcDbLine
 10
19585.31301418488
 20
17447.27030212676
 30
0.0
 11
19666.31301418488
 21
17447.27030212676
 31
0.0
  0
LINE
  5
6833
330
1F
100
AcDbEntity
  8
1
  6
Continuous
 62
     7
370
    13
100
AcDbLine
 10
19804.01277118397
 20
17406.77030212676
 30
0.0
 11
19804.01277118397
 21
17325.77030212676
 31
0.0
  0
LINE
  5
6834
330
1F
100
AcDbEntity
  8
1
  6
Continuous
 62
     7
370
    13
100
AcDbLine
 10
19706.81301418301
 20
17406.77030212676
 30
0.0
 11
19706.81301418301
 21
17325.77030212676
 31
0.0
  0
LINE
  5
6835
330
1F
100
AcDbEntity
  8
1
  6
Continuous
 62
     7
370
    13
100
AcDbLine
 10
19844.51277118397
 20
17447.27030212676
 30
0.0
 11
19925.51277118397
 21
17447.27030212676
 31
0.0
  0
LINE
  5
6836
330
1F
100
AcDbEntity
  8
1
  6
Continuous
 62
     7
370
    13
100
AcDbLine
 10
19585.31301418488
 20
17544.47038312549
 30
0.0
 11
19585.31301418488
 21
17447.27030212676
 31
0.0
  0
LINE
  5
6837
330
1F
100
AcDbEntity
  8
1
  6
Continuous
 62
     7
370
    13
100
AcDbLine
 10
19844.51277118397
 20
17544.47038312549
 30
0.0
 11
19925.51277118397
 21
17544.47038312549
 31
0.0
  0
LINE
  5
6838
330
1F
100
AcDbEntity
  8
1
  6
Continuous
 62
     7
370
    13
100
AcDbLine
 10
19804.01277118397
 20
17665.97038312548
 30
0.0
 11
19804.01277118397
 21
17584.97038312548
 31
0.0
  0
ARC
  5
6839
330
1F
100
AcDbEntity
  8
1
  6
Continuous
 62
     7
370
    13
100
AcDbCircle
 10
19844.51277118397
 20
17406.77030212676
 30
0.0
 40
40.49999999999999
100
AcDbArc
 50
90.0
 51
180.0
  0
ARC
  5
683A
330
1F
100
AcDbEntity
  8
1
  6
Continuous
 62
     7
370
    13
100
AcDbCircle
 10
19666.31301418488
 20
17584.97038312548
 30
0.0
 40
40.49999999999999
100
AcDbArc
 50
270.0
 51
0.0
  0
ARC
  5
683B
330
1F
100
AcDbEntity
  8
1
  6
Continuous
 62
     7
370
    13
100
AcDbCircle
 10
19844.51277118397
 20
17584.97038312548
 30
0.0
 40
40.49999999999999
100
AcDbArc
 50
180.0
 51
270.0
  0
ARC
  5
683C
330
1F
100
AcDbEntity
  8
1
  6
Continuous
 62
     7
370
    13
100
AcDbCircle
 10
19666.31301418488
 20
17406.77030212676
 30
0.0
 40
40.49999999999999
100
AcDbArc
 50
0.0
 51
90.0
  0
CIRCLE
  5
683D
330
1F
100
AcDbEntity
  8
1
  6
Continuous
 62
     7
370
    13
100
AcDbCircle
 10
17039.14269268441
 20
19034.48154262652
 30
0.0
 40
210.5999999999999
  0
LINE
  5
683E
330
1F
100
AcDbEntity
  8
1
  6
Continuous
 62
     7
370
    13
100
AcDbLine
 10
17209.24257118442
 20
19083.08154262557
 30
0.0
 11
17209.24257118442
 21
18985.88150212621
 31
0.0
  0
LINE
  5
683F
330
1F
100
AcDbEntity
  8
1
  6
Continuous
 62
     7
370
    13
100
AcDbLine
 10
16869.04281418344
 20
19083.08154262557
 30
0.0
 11
16950.04281418344
 21
19083.08154262557
 31
0.0
  0
LINE
  5
6840
330
1F
100
AcDbEntity
  8
1
  6
Continuous
 62
     7
370
    13
100
AcDbLine
 10
16990.54281418344
 20
19204.58154262557
 30
0.0
 11
17087.74257118442
 21
19204.58154262557
 31
0.0
  0
LINE
  5
6841
330
1F
100
AcDbEntity
  8
1
  6
Continuous
 62
     7
370
    13
100
AcDbLine
 10
16990.54281418344
 20
18864.38150212621
 30
0.0
 11
17087.74257118442
 21
18864.38150212621
 31
0.0
  0
LINE
  5
6842
330
1F
100
AcDbEntity
  8
1
  6
Continuous
 62
     7
370
    13
100
AcDbLine
 10
16990.54281418344
 20
19204.58154262557
 30
0.0
 11
16990.54281418344
 21
19123.58154262557
 31
0.0
  0
LINE
  5
6843
330
1F
100
AcDbEntity
  8
1
  6
Continuous
 62
     7
370
    13
100
AcDbLine
 10
16869.04281418344
 20
18985.88150212621
 30
0.0
 11
16950.04281418344
 21
18985.88150212621
 31
0.0
  0
LINE
  5
6844
330
1F
100
AcDbEntity
  8
1
  6
Continuous
 62
     7
370
    13
100
AcDbLine
 10
17087.74257118442
 20
18945.38150212621
 30
0.0
 11
17087.74257118442
 21
18864.38150212621
 31
0.0
  0
LINE
  5
6845
330
1F
100
AcDbEntity
  8
1
  6
Continuous
 62
     7
370
    13
100
AcDbLine
 10
16990.54281418344
 20
18945.38150212621
 30
0.0
 11
16990.54281418344
 21
18864.38150212621
 31
0.0
  0
LINE
  5
6846
330
1F
100
AcDbEntity
  8
1
  6
Continuous
 62
     7
370
    13
100
AcDbLine
 10
17128.24257118442
 20
18985.88150212621
 30
0.0
 11
17209.24257118442
 21
18985.88150212621
 31
0.0
  0
LINE
  5
6847
330
1F
100
AcDbEntity
  8
1
  6
Continuous
 62
     7
370
    13
100
AcDbLine
 10
16869.04281418344
 20
19083.08154262557
 30
0.0
 11
16869.04281418344
 21
18985.88150212621
 31
0.0
  0
LINE
  5
6848
330
1F
100
AcDbEntity
  8
1
  6
Continuous
 62
     7
370
    13
100
AcDbLine
 10
17128.24257118442
 20
19083.08154262557
 30
0.0
 11
17209.24257118442
 21
19083.08154262557
 31
0.0
  0
LINE
  5
6849
330
1F
100
AcDbEntity
  8
1
  6
Continuous
 62
     7
370
    13
100
AcDbLine
 10
17087.74257118442
 20
19204.58154262557
 30
0.0
 11
17087.74257118442
 21
19123.58154262557
 31
0.0
  0
ARC
  5
684A
330
1F
100
AcDbEntity
  8
1
  6
Continuous
 62
     7
370
    13
100
AcDbCircle
 10
17128.24257118442
 20
18945.38150212621
 30
0.0
 40
40.49999999999999
100
AcDbArc
 50
90.0
 51
180.0
  0
ARC
  5
684B
330
1F
100
AcDbEntity
  8
1
  6
Continuous
 62
     7
370
    13
100
AcDbCircle
 10
16950.04281418344
 20
19123.58154262557
 30
0.0
 40
40.49999999999999
100
AcDbArc
 50
270.0
 51
0.0
  0
ARC
  5
684C
330
1F
100
AcDbEntity
  8
1
  6
Continuous
 62
     7
370
    13
100
AcDbCircle
 10
17128.24257118442
 20
19123.58154262557
 30
0.0
 40
40.49999999999999
100
AcDbArc
 50
180.0
 51
270.0
  0
ARC
  5
684D
330
1F
100
AcDbEntity
  8
1
  6
Continuous
 62
     7
370
    13
100
AcDbCircle
 10
16950.04281418344
 20
18945.38150212621
 30
0.0
 40
40.49999999999999
100
AcDbArc
 50
0.0
 51
90.0
  0
ARC
  5
684E
330
1F
100
AcDbEntity
  8
1
  6
Continuous
 62
     7
370
    13
100
AcDbCircle
 10
17039.14269268441
 20
14174.48154262652
 30
0.0
 40
210.5999999999999
100
AcDbArc
 50
60.26794000021827
 51
299.7320599997816
  0
LINE
  5
684F
330
1F
100
AcDbEntity
  8
1
  6
Continuous
 62
     7
370
    13
100
AcDbLine
 10
17128.24257118442
 20
14223.08154262557
 30
0.0
 11
17143.58862868476
 21
14223.08154262557
 31
0.0
  0
LINE
  5
6850
330
1F
100
AcDbEntity
  8
1
  6
Continuous
 62
     7
370
    13
100
AcDbLine
 10
17128.24257118442
 20
14125.88150212621
 30
0.0
 11
17143.58862868476
 21
14125.88150212621
 31
0.0
  0
LINE
  5
6851
330
1F
100
AcDbEntity
  8
1
  6
Continuous
 62
     7
370
    13
100
AcDbLine
 10
19638.38765668397
 20
14223.08154262557
 30
0.0
 11
19666.31301418488
 21
14223.08154262557
 31
0.0
  0
LINE
  5
6852
330
1F
100
AcDbEntity
  8
1
  6
Continuous
 62
     7
370
    13
100
AcDbLine
 10
19638.38765668397
 20
14125.88150212621
 30
0.0
 11
19666.31301418488
 21
14125.88150212621
 31
0.0
  0
ARC
  5
6853
330
1F
100
AcDbEntity
  8
1
  6
Continuous
 62
     7
370
    13
100
AcDbCircle
 10
19755.41289268399
 20
14174.48154262652
 30
0.0
 40
210.5999999999999
100
AcDbArc
 50
236.2427500014614
 51
123.7572499985385
  0
LINE
  5
6854
330
1F
100
AcDbEntity
  8
1
  6
Continuous
 62
     7
370
    13
100
AcDbLine
 10
20840.43186868418
 20
13723.89397312705
 30
0.0
 11
20840.43186868418
 21
9674.708063626894
 31
0.0
  0
LINE
  5
6855
330
1F
100
AcDbEntity
  8
1
  6
Continuous
 62
     7
370
    13
100
AcDbLine
 10
10550.61890068427
 20
8332.60768312555
 30
0.0
 11
13313.57336968417
 21
8332.60768312555
 31
0.0
  0
LINE
  5
6856
330
1F
100
AcDbEntity
  8
1
  6
Continuous
 62
     7
370
    13
100
AcDbLine
 10
10550.61890068427
 20
8170.607683125549
 30
0.0
 11
10550.61890068427
 21
8728.69768312575
 31
0.0
  0
LINE
  5
6857
330
1F
100
AcDbEntity
  8
1
  6
Continuous
 62
     7
370
    13
100
AcDbLine
 10
13313.57336968417
 20
8170.607683125549
 30
0.0
 11
13313.57336968417
 21
8728.69768312575
 31
0.0
  0
TEXT
  5
6858
330
1F
100
AcDbEntity
  8
1
  6
Continuous
 62
     7
370
    13
100
AcDbText
 10
11334.88307184512
 20
8373.107683125549
 30
0.0
 40
400.0
  1
135±10
 41
0.6538460000000001
  7
KANJI
100
AcDbText
  0
ARC
  5
6859
330
1F
100
AcDbEntity
  8
1
  6
Continuous
 62
     7
370
    13
100
AcDbCircle
 10
18600.59585218406
 20
19952.45134312634
 30
0.0
 40
202.4999999999999
100
AcDbArc
 50
270.0
 51
90.0
  0
LINE
  5
685A
330
1F
100
AcDbEntity
  8
1
  6
Continuous
 62
     7
370
    13
100
AcDbLine
 10
18398.09585218406
 20
20154.95134312634
 30
0.0
 11
18600.59585218406
 21
20154.95134312634
 31
0.0
  0
LINE
  5
685B
330
1F
100
AcDbEntity
  8
1
  6
Continuous
 62
     7
370
    13
100
AcDbLine
 10
18600.59585218406
 20
19749.95134312634
 30
0.0
 11
18398.09585218406
 21
19749.95134312634
 31
0.0
  0
ARC
  5
685C
330
1F
100
AcDbEntity
  8
1
  6
Continuous
 62
     7
370
    13
100
AcDbCircle
 10
18195.59585218406
 20
19952.45134312634
 30
0.0
 40
202.4999999999999
100
AcDbArc
 50
90.0
 51
270.0
  0
LINE
  5
685D
330
1F
100
AcDbEntity
  8
1
  6
Continuous
 62
     7
370
    13
100
AcDbLine
 10
18398.09585218406
 20
20154.95134312634
 30
0.0
 11
18195.59585218406
 21
20154.95134312634
 31
0.0
  0
LINE
  5
685E
330
1F
100
AcDbEntity
  8
1
  6
Continuous
 62
     7
370
    13
100
AcDbLine
 10
18195.59585218406
 20
19749.95134312634
 30
0.0
 11
18398.09585218406
 21
19749.95134312634
 31
0.0
  0
LINE
  5
685F
330
1F
100
AcDbEntity
  8
1
  6
DASHDOT
 62
     7
370
    13
100
AcDbLine
 10
17891.83544368403
 20
19952.45134312634
 30
0.0
 11
18905.16974368406
 21
19952.45134312634
 31
0.0
  0
ARC
  5
6860
330
1F
100
AcDbEntity
  8
1
  6
Continuous
 62
     7
370
    13
100
AcDbCircle
 10
18600.59585218406
 20
13186.85166112532
 30
0.0
 40
202.4999999999999
100
AcDbArc
 50
270.0
 51
90.0
  0
LINE
  5
6861
330
1F
100
AcDbEntity
  8
1
  6
Continuous
 62
     7
370
    13
100
AcDbLine
 10
18398.09585218406
 20
12984.35166112533
 30
0.0
 11
18600.59585218406
 21
12984.35166112533
 31
0.0
  0
LINE
  5
6862
330
1F
100
AcDbEntity
  8
1
  6
Continuous
 62
     7
370
    13
100
AcDbLine
 10
18600.59585218406
 20
13389.35166112533
 30
0.0
 11
18398.09585218406
 21
13389.35166112533
 31
0.0
  0
ARC
  5
6863
330
1F
100
AcDbEntity
  8
1
  6
Continuous
 62
     7
370
    13
100
AcDbCircle
 10
18195.59585218406
 20
13186.85166112532
 30
0.0
 40
202.4999999999999
100
AcDbArc
 50
90.0
 51
270.0
  0
LINE
  5
6864
330
1F
100
AcDbEntity
  8
1
  6
Continuous
 62
     7
370
    13
100
AcDbLine
 10
18398.09585218406
 20
12984.35166112533
 30
0.0
 11
18195.59585218406
 21
12984.35166112533
 31
0.0
  0
LINE
  5
6865
330
1F
100
AcDbEntity
  8
1
  6
Continuous
 62
     7
370
    13
100
AcDbLine
 10
18195.59585218406
 20
13389.35166112533
 30
0.0
 11
18398.09585218406
 21
13389.35166112533
 31
0.0
  0
LINE
  5
6866
330
1F
100
AcDbEntity
  8
1
  6
DASHDOT
 62
     7
370
    13
100
AcDbLine
 10
17891.83544368403
 20
13186.85166112532
 30
0.0
 11
18905.16974368406
 21
13186.85166112532
 31
0.0
  0
LINE
  5
6867
330
1F
100
AcDbEntity
  8
1
  6
Continuous
 62
     7
370
    13
100
AcDbLine
 10
15957.8096621835
 20
8332.60768312555
 30
0.0
 11
19625.43186868418
 21
8332.60768312555
 31
0.0
  0
TEXT
  5
6868
330
1F
100
AcDbEntity
  8
1
  6
Continuous
 62
     7
370
    13
100
AcDbText
 10
17460.16449268443
 20
8373.107683125549
 30
0.0
 40
400.0
  1
45±10
 41
0.6538460000000001
  7
KANJI
100
AcDbText
  0
LINE
  5
6869
330
1F
100
AcDbEntity
  8
1
  6
Continuous
 62
     7
370
    13
100
AcDbLine
 10
15957.80966218348
 20
8332.60768312555
 30
0.0
 11
16432.87628693043
 21
8459.901357975745
 31
0.0
  0
LINE
  5
686A
330
1F
100
AcDbEntity
  8
1
  6
Continuous
 62
     7
370
    13
100
AcDbLine
 10
15957.80966218348
 20
8332.60768312555
 30
0.0
 11
16432.87628693043
 21
8205.314008280199
 31
0.0
  0
ARC
  5
686B
330
1F
100
AcDbEntity
  8
1
  6
Continuous
 62
     7
370
    13
100
AcDbCircle
 10
12738.30873718376
 20
9618.888169126805
 30
0.0
 40
971.0737245000002
100
AcDbArc
 50
210.9368899990984
 51
234.533603000024
  0
ARC
  5
686C
330
1F
100
AcDbEntity
  8
1
  6
Continuous
 62
     7
370
    13
100
AcDbCircle
 10
12199.53816868415
 20
9290.438231626307
 30
0.0
 40
340.1309474999999
100
AcDbArc
 50
142.5518129994542
 51
210.1376980001921
  0
ARC
  5
686D
330
1F
100
AcDbEntity
  8
1
  6
Continuous
 62
     7
370
    13
100
AcDbCircle
 10
9987.751075184803
 20
10852.29602662641
 30
0.0
 40
2367.8172315
100
AcDbArc
 50
325.0909589990532
 51
334.7626740001196
  0
ARC
  5
686E
330
1F
100
AcDbEntity
  8
1
  6
Continuous
 62
     7
370
    13
100
AcDbCircle
 10
12453.88250218432
 20
9617.89049212652
 30
0.0
 40
969.7237785
100
AcDbArc
 50
210.8597119998793
 51
234.5439720002465
  0
ARC
  5
686F
330
1F
100
AcDbEntity
  8
1
  6
Continuous
 62
     7
370
    13
100
AcDbCircle
 10
11917.02146818435
 20
9290.617727625781
 30
0.0
 40
341.0432099999999
100
AcDbArc
 50
142.3673390004507
 51
209.9250629995483
  0
ARC
  5
6870
330
1F
100
AcDbEntity
  8
1
  6
Continuous
 62
     7
370
    13
100
AcDbCircle
 10
9776.561597683802
 20
10809.78422962604
 30
0.0
 40
2284.0371495
100
AcDbArc
 50
324.9737589995802
 51
335.0243150001337
  0
LINE
  5
6871
330
1F
100
AcDbEntity
  8
0
370
    13
100
AcDbLine
 10
1406.403542214771
 20
25646.76917775325
 30
0.0
 11
23986.86121425946
 21
25646.76917775325
 31
0.0
  0
LINE
  5
6872
330
1F
100
AcDbEntity
  8
1
  6
Continuous
 62
     7
370
    13
100
AcDbLine
 10
4162.102319777361
 20
25646.76917775325
 30
0.0
 11
4162.102319777361
 21
23809.6366593783
 31
0.0
  0
LINE
  5
6873
330
1F
100
AcDbEntity
  8
1
  6
Continuous
 62
     7
370
    13
100
AcDbLine
 10
1406.403542214771
 20
23809.6366593783
 30
0.0
 11
23986.86121425783
 21
23809.6366593783
 31
0.0
  0
LINE
  5
6874
330
1F
100
AcDbEntity
  8
1
  6
Continuous
 62
     7
370
    13
100
AcDbLine
 10
1406.403542214771
 20
25646.76917775325
 30
0.0
 11
1406.403542214771
 21
566.8131529631501
 31
0.0
  0
LINE
  5
6875
330
1F
100
AcDbEntity
  8
0
370
    13
100
AcDbLine
 10
1406.403542214771
 20
566.8131529631501
 30
0.0
 11
23986.86121425946
 21
566.8131529631501
 31
0.0
  0
LINE
  5
6876
330
1F
100
AcDbEntity
  8
1
  6
Continuous
 62
     7
370
    13
100
AcDbLine
 10
23986.86121425946
 20
25646.76917775325
 30
0.0
 11
23986.86121425946
 21
566.8131529631501
 31
0.0
  0
TEXT
  5
6877
330
1F
100
AcDbEntity
  8
1
  6
Continuous
 62
     7
370
    13
100
AcDbText
 10
4478.229481573216
 20
24442.57835331866
 30
0.0
 40
741.8776780800004
  1
操作表示器　Ｂ－９６１２Ｆ
 41
0.8
  7
KANJI
100
AcDbText
  0
LINE
  5
6878
330
1F
100
AcDbEntity
  8
1
  6
Continuous
 62
     7
370
    13
100
AcDbLine
 10
2252.381499976618
 20
24318.01985766312
 30
0.0
 11
3269.953110196162
 21
24318.01985766312
 31
0.0
  0
LINE
  5
6879
330
1F
100
AcDbEntity
  8
1
  6
Continuous
 62
     7
370
    13
100
AcDbLine
 10
2252.381499976618
 20
25232.45296845785
 30
0.0
 11
2252.381499976618
 21
24318.01985766312
 31
0.0
  0
LINE
  5
687A
330
1F
100
AcDbEntity
  8
1
  6
Continuous
 62
     7
370
    13
100
AcDbLine
 10
3269.953110196162
 20
24318.01985766312
 30
0.0
 11
3269.953110196162
 21
25232.45296845785
 31
0.0
  0
LINE
  5
687B
330
1F
100
AcDbEntity
  8
1
  6
Continuous
 62
     7
370
    13
100
AcDbLine
 10
3269.953110196162
 20
25232.45296845785
 30
0.0
 11
2252.381499976618
 21
25232.45296845785
 31
0.0
  0
TEXT
  5
687C
330
1F
100
AcDbEntity
  8
1
  6
Continuous
 62
     7
370
    13
100
AcDbText
 10
2444.323696906212
 20
24389.61992459467
 30
0.0
 40
750.6975222699594
  1
Ｂ
 41
0.9166669999999999
  7
KANJI
100
AcDbText
  0
LINE
  5
687D
330
1F
100
AcDbEntity
  8
1
  6
Continuous
 62
     7
370
    13
100
AcDbLine
 10
10550.61890068426
 20
8332.60768312555
 30
0.0
 11
11025.68552543121
 21
8459.901357975745
 31
0.0
  0
LINE
  5
687E
330
1F
100
AcDbEntity
  8
1
  6
Continuous
 62
     7
370
    13
100
AcDbLine
 10
10550.61890068426
 20
8332.60768312555
 30
0.0
 11
11025.68552543121
 21
8205.314008280199
 31
0.0
  0
LINE
  5
687F
330
1F
100
AcDbEntity
  8
1
  6
Continuous
 62
     7
370
    13
100
AcDbLine
 10
13313.57336968417
 20
8332.607683125564
 30
0.0
 11
12838.50674493723
 21
8205.314008275367
 31
0.0
  0
LINE
  5
6880
330
1F
100
AcDbEntity
  8
1
  6
Continuous
 62
     7
370
    13
100
AcDbLine
 10
13313.57336968417
 20
8332.607683125564
 30
0.0
 11
12838.50674493723
 21
8459.901357970913
 31
0.0
  0
LINE
  5
6881
330
1F
100
AcDbEntity
  8
1
  6
Continuous
 62
     7
370
    13
100
AcDbLine
 10
20840.43186868401
 20
13723.89397312711
 30
0.0
 11
20967.72554353421
 21
13248.82734838016
 31
0.0
  0
LINE
  5
6882
330
1F
100
AcDbEntity
  8
1
  6
Continuous
 62
     7
370
    13
100
AcDbLine
 10
20840.43186868401
 20
13723.89397312711
 30
0.0
 11
20713.13819383864
 21
13248.82734838016
 31
0.0
  0
DIMENSION
  5
6883
330
1F
100
AcDbEntity
  8
1
  6
Continuous
 62
     7
370
    13
100
AcDbDimension
  2
*D116
 10
7864.866098584666
 20
22566.05320257903
 30
0.0
 11
5029.871470838624
 21
22816.05320257903
 31
0.0
 70
    32
  1
70
 71
     5
 42
5669.98925549208
  3
Standard
100
AcDbAlignedDimension
 13
2194.876843092584
 23
16601.81845203643
 33
0.0
 14
7864.866098584666
 24
16569.65158312639
 34
0.0
100
AcDbRotatedDimension
1001
ACAD
1000
DSTYLE
1002
{
1070
    41
1040
500.0
1070
    42
1040
50.0
1070
    73
1070
     0
1070
    77
1070
     1
1070
   140
1040
400.0
1070
   147
1040
50.0
1070
   173
1070
     1
1070
   343
1005
2B
1070
   344
1005
2B
1070
   371
1070
    13
1070
   372
1070
    13
1002
}
  0
DIMENSION
  5
6884
330
1F
100
AcDbEntity
  8
1
  6
Continuous
 62
     7
370
    13
100
AcDbDimension
  2
*D117
 10
9159.475312509428
 20
21429.65166412699
 30
0.0
 11
8909.475312509425
 21
16569.65158312645
 31
0.0
 70
    32
  1
120
 71
     5
 42
9720.000162001086
  3
Standard
100
AcDbAlignedDimension
 13
5029.866139084857
 23
11709.65150212591
 33
0.0
 14
5029.866139084857
 24
21429.65166412699
 34
0.0
 50
90.0
100
AcDbRotatedDimension
1001
ACAD
1000
DSTYLE
1002
{
1070
    41
1040
500.0
1070
    42
1040
50.0
1070
    73
1070
     0
1070
    77
1070
     1
1070
   140
1040
400.0
1070
   147
1040
50.0
1070
   173
1070
     1
1070
   343
1005
2B
1070
   344
1005
2B
1070
   371
1070
    13
1070
   372
1070
    13
1002
}
  0
DIMENSION
  5
6885
330
1F
100
AcDbEntity
  8
1
  6
Continuous
 62
     7
370
    13
100
AcDbDimension
  2
*D118
 10
12103.23020962826
 20
22567.12410357959
 30
0.0
 11
11822.97025012828
 21
22817.12410357959
 31
0.0
 70
    32
  1
7
 71
     5
 42
560.5199189999548
  3
Standard
100
AcDbAlignedDimension
 13
11542.71029062831
 23
20377.46158312626
 33
0.0
 14
12103.23020962826
 24
21429.65154262614
 34
0.0
100
AcDbRotatedDimension
1001
ACAD
1000
DSTYLE
1002
{
1070
    41
1040
500.0
1070
    42
1040
50.0
1070
    73
1070
     0
1070
    77
1070
     1
1070
   140
1040
400.0
1070
   147
1040
50.0
1070
   173
1070
     1
1070
   343
1005
2B
1070
   344
1005
2B
1070
   371
1070
    13
1070
   372
1070
    13
1002
}
  0
DIMENSION
  5
6886
330
1F
100
AcDbEntity
  8
1
  6
Continuous
 62
     7
370
    13
100
AcDbDimension
  2
*D119
 10
12751.23029062792
 20
22567.12410357959
 30
0.0
 11
12416.25013106831
 21
22817.12410357959
 31
0.0
 70
    32
  1
8
 71
     5
 42
669.9603191192145
  3
Standard
100
AcDbAlignedDimension
 13
12081.2699715087
 23
22567.12410357959
 33
0.0
 14
12751.23029062792
 24
19030.43154262652
 34
0.0
100
AcDbRotatedDimension
1001
ACAD
1000
DSTYLE
1002
{
1070
    41
1040
500.0
1070
    42
1040
50.0
1070
    73
1070
     0
1070
    77
1070
     1
1070
   140
1040
400.0
1070
   147
1040
50.0
1070
   173
1070
     1
1070
   343
1005
2B
1070
   344
1005
2B
1070
   371
1070
    13
1070
   372
1070
    13
1002
}
  0
DIMENSION
  5
6887
330
1F
100
AcDbEntity
  8
1
  6
Continuous
 62
     7
370
    13
100
AcDbDimension
  2
*D120
 10
22711.42652510805
 20
13186.85166112532
 30
0.0
 11
22461.42652510804
 21
16569.65150212584
 31
0.0
 70
    32
  1
83.5
 71
     5
 42
6765.599682001019
  3
Standard
100
AcDbAlignedDimension
 13
18905.16974368406
 23
19952.45134312634
 33
0.0
 14
18905.16974368406
 24
13186.85166112532
 34
0.0
 50
270.0
100
AcDbRotatedDimension
1001
ACAD
1000
DSTYLE
1002
{
1070
    41
1040
500.0
1070
    42
1040
50.0
1070
    73
1070
     0
1070
    77
1070
     1
1070
   140
1040
400.0
1070
   147
1040
50.0
1070
   173
1070
     1
1070
   343
1005
2B
1070
   344
1005
2B
1070
   371
1070
    13
1070
   372
1070
    13
1002
}
  0
TEXT
  5
6888
330
1F
100
AcDbEntity
  8
1
  6
Continuous
 62
     7
370
    13
100
AcDbText
 10
3519.467066200697
 20
4850.335887880458
 30
0.0
 40
423.007619611172
  1
重　量
 41
0.8872049999999999
  7
KANJI
100
AcDbText
  0
TEXT
  5
6889
330
1F
100
AcDbEntity
  8
1
  6
Continuous
 62
     7
370
    13
100
AcDbText
 10
3519.467066200697
 20
4260.934744076585
 30
0.0
 40
423.007619611172
  1
入力電源
 41
0.8872049999999999
  7
KANJI
100
AcDbText
  0
TEXT
  5
688A
330
1F
100
AcDbEntity
  8
1
  6
Continuous
 62
     7
370
    13
100
AcDbText
 10
3519.467066200682
 20
6098.792394308127
 30
0.0
 40
423.007619611172
  1
材　質
 41
0.8872049999999999
  7
KANJI
100
AcDbText
  0
TEXT
  5
688B
330
1F
100
AcDbEntity
  8
1
  6
Continuous
 62
     7
370
    13
100
AcDbText
 10
3519.467066200697
 20
5488.594303799138
 30
0.0
 40
423.007619611172
  1
彩　色
 41
0.8872049999999999
  7
KANJI
100
AcDbText
  0
TEXT
  5
688C
330
1F
100
AcDbEntity
  8
1
  6
Continuous
 62
     7
370
    13
100
AcDbText
 10
6065.043224723559
 20
4853.566734250067
 30
0.0
 40
423.007619611172
  1
約７０ｇ
 41
0.8872049999999999
  7
KANJI
100
AcDbText
  0
TEXT
  5
688D
330
1F
100
AcDbEntity
  8
1
  6
Continuous
 62
     7
370
    13
100
AcDbText
 10
6064.439492899939
 20
4260.934744076585
 30
0.0
 40
423.007619611172
  1
電気錠制御盤より供給
 41
0.8872049999999999
  7
KANJI
100
AcDbText
  0
TEXT
  5
688E
330
1F
100
AcDbEntity
  8
1
  6
Continuous
 62
     7
370
    13
100
AcDbText
 10
6065.043224723559
 20
5491.825150165401
 30
0.0
 40
423.007619611172
  1
ライトグレー
 41
0.8872049999999999
  7
KANJI
100
AcDbText
  0
TEXT
  5
688F
330
1F
100
AcDbEntity
  8
1
  6
Continuous
 62
     7
370
    13
100
AcDbText
 10
6064.94376949151
 20
6101.233030303483
 30
0.0
 40
423.007619611172
  1
樹　脂
 41
0.8872049999999999
  7
KANJI
100
AcDbText
  0
TEXT
  5
6890
330
1F
100
AcDbEntity
  8
1
  6
Continuous
 62
     7
370
    13
100
AcDbText
 10
13397.20482854801
 20
6708.693963412908
 30
0.0
 40
423.007619611172
  1
内　容
 41
0.8872049999999999
  7
KANJI
100
AcDbText
  0
LINE
  5
6891
330
1F
100
AcDbEntity
  8
1
  6
Continuous
 62
     7
370
    13
100
AcDbLine
 10
3124.074017415289
 20
7190.255643359283
 30
0.0
 11
21126.07177514629
 21
7190.255643359283
 31
0.0
  0
LINE
  5
6892
330
1F
100
AcDbEntity
  8
1
  6
Continuous
 62
     7
370
    13
100
AcDbLine
 10
3124.074017415289
 20
6584.982255258437
 30
0.0
 11
21126.07177514629
 21
6584.982255258437
 31
0.0
  0
LINE
  5
6893
330
1F
100
AcDbEntity
  8
1
  6
Continuous
 62
     7
370
    13
100
AcDbLine
 10
21126.07177514629
 20
7190.255643359283
 30
0.0
 11
21126.07177514629
 21
2348.068538548985
 31
0.0
  0
LINE
  5
6894
330
1F
100
AcDbEntity
  8
1
  6
Continuous
 62
     7
370
    13
100
AcDbLine
 10
3124.074017415289
 20
5979.708867154187
 30
0.0
 11
21126.07177514629
 21
5979.708867154187
 31
0.0
  0
LINE
  5
6895
330
1F
100
AcDbEntity
  8
1
  6
Continuous
 62
     7
370
    13
100
AcDbLine
 10
3124.074017415289
 20
5374.435479056716
 30
0.0
 11
21126.07177514629
 21
5374.435479056716
 31
0.0
  0
LINE
  5
6896
330
1F
100
AcDbEntity
  8
1
  6
Continuous
 62
     7
370
    13
100
AcDbLine
 10
3124.074017415289
 20
4769.162090952435
 30
0.0
 11
21126.07177514629
 21
4769.162090952435
 31
0.0
  0
LINE
  5
6897
330
1F
100
AcDbEntity
  8
1
  6
Continuous
 62
     7
370
    13
100
AcDbLine
 10
3124.074017415289
 20
4163.88870285156
 30
0.0
 11
21126.07177514629
 21
4163.88870285156
 31
0.0
  0
TEXT
  5
6898
330
1F
100
AcDbEntity
  8
1
  6
Continuous
 62
     7
370
    13
100
AcDbText
 10
3814.54812610941
 20
6707.705765492588
 30
0.0
 40
423.007619611172
  1
項　目
 41
0.944444
  7
KANJI
100
AcDbText
  0
LINE
  5
6899
330
1F
100
AcDbEntity
  8
1
  6
Continuous
 62
     7
370
    13
100
AcDbLine
 10
5775.514863987686
 20
7190.255643359283
 30
0.0
 11
5775.514863987701
 21
2348.068538548985
 31
0.0
  0
LINE
  5
689A
330
1F
100
AcDbEntity
  8
1
  6
Continuous
 62
     7
370
    13
100
AcDbLine
 10
3124.074017415289
 20
7190.255643359283
 30
0.0
 11
3124.074017415289
 21
2348.068538548985
 31
0.0
  0
LINE
  5
689B
330
1F
100
AcDbEntity
  8
1
  6
Continuous
 62
     7
370
    13
100
AcDbLine
 10
3124.074017415318
 20
3558.615314750678
 30
0.0
 11
21126.07177514632
 21
3558.615314750678
 31
0.0
  0
LINE
  5
689C
330
1F
100
AcDbEntity
  8
1
  6
Continuous
 62
     7
370
    13
100
AcDbLine
 10
3124.074017415318
 20
2953.341926649831
 30
0.0
 11
21126.07177514632
 21
2953.341926649831
 31
0.0
  0
TEXT
  5
689D
330
1F
100
AcDbEntity
  8
1
  6
Continuous
 62
     7
370
    13
100
AcDbText
 10
3519.467066200697
 20
3639.789111680278
 30
0.0
 40
423.007619611172
  1
使用環境温度
 41
0.7
  7
KANJI
100
AcDbText
  0
TEXT
  5
689E
330
1F
100
AcDbEntity
  8
1
  6
Continuous
 62
     7
370
    13
100
AcDbText
 10
3519.467066200697
 20
3050.387967876406
 30
0.0
 40
423.007619611172
  1
設置場所
 41
0.8872049999999999
  7
KANJI
100
AcDbText
  0
TEXT
  5
689F
330
1F
100
AcDbEntity
  8
1
  6
Continuous
 62
     7
370
    13
100
AcDbText
 10
6065.043224723559
 20
3643.019958049888
 30
0.0
 40
423.007619611172
  1
０℃～４０℃(結露なきこと）
 41
0.8872049999999999
  7
KANJI
100
AcDbText
  0
TEXT
  5
68A0
330
1F
100
AcDbEntity
  8
1
  6
Continuous
 62
     7
370
    13
100
AcDbText
 10
6064.439492899939
 20
3050.387967876406
 30
0.0
 40
423.007619611172
  1
屋　内
 41
0.8872049999999999
  7
KANJI
100
AcDbText
  0
TEXT
  5
68A1
330
1F
100
AcDbEntity
  8
1
  6
Continuous
 62
     7
370
    13
100
AcDbText
 10
6064.439492899939
 20
2470.226900786357
 30
0.0
 40
423.007619611172
  1
※１コ用スイッチボックスに取付可能
 41
0.8872049999999999
  7
KANJI
100
AcDbText
  0
LINE
  5
68A2
330
1F
100
AcDbEntity
  8
1
  6
Continuous
 62
     7
370
    13
100
AcDbLine
 10
3124.074017415318
 20
2348.068538548985
 30
0.0
 11
21126.07177514632
 21
2348.068538548985
 31
0.0
  0
ENDSEC
  0
SECTION
  2
OBJECTS
  0
DICTIONARY
  5
C
330
0
100
AcDbDictionary
281
     1
  3
ACAD_GROUP
350
D
  3
ACAD_LAYOUT
350
1A
  3
ACAD_MLINESTYLE
350
17
  3
ACAD_PLOTSETTINGS
350
19
  3
ACAD_PLOTSTYLENAME
350
E
  3
AcDbVariableDictionary
350
932
  0
DICTIONARY
  5
5A
330
2
100
AcDbDictionary
280
     1
281
     1
  3
ACAD_LAYERSTATES
360
5B
  0
DICTIONARY
  5
D
102
{ACAD_REACTORS
330
C
102
}
330
C
100
AcDbDictionary
281
     1
  0
DICTIONARY
  5
1A
102
{ACAD_REACTORS
330
C
102
}
330
C
100
AcDbDictionary
281
     1
  3
Model
350
22
  3
ﾚｲｱｳﾄ1
350
1E
  3
ﾚｲｱｳﾄ2
350
26
  0
DICTIONARY
  5
17
102
{ACAD_REACTORS
330
C
102
}
330
C
100
AcDbDictionary
281
     1
  3
Standard
350
18
  0
DICTIONARY
  5
19
102
{ACAD_REACTORS
330
C
102
}
330
C
100
AcDbDictionary
281
     1
  0
ACDBDICTIONARYWDFLT
  5
E
102
{ACAD_REACTORS
330
C
102
}
330
C
100
AcDbDictionary
281
     1
  3
Normal
350
F
100
AcDbDictionaryWithDefault
340
F
  0
DICTIONARY
  5
932
102
{ACAD_REACTORS
330
C
102
}
330
C
100
AcDbDictionary
281
     1
  3
DIMASSOC
350
934
  3
HIDETEXT
350
933
  0
DICTIONARY
  5
5B
102
{ACAD_REACTORS
330
5A
102
}
330
5A
100
AcDbDictionary
281
     1
  0
LAYOUT
  5
22
102
{ACAD_REACTORS
330
1A
102
}
330
1A
100
AcDbPlotSettings
  1

  2
DocuCentre a235
  4

  6

 40
0.0
 41
0.0
 42
0.0
 43
0.0
 44
0.0
 45
0.0
 46
0.0
 47
0.0
 48
0.0
 49
0.0
140
0.0
141
0.0
142
1.0
143
1.0
 70
  1712
 72
     0
 73
     0
 74
     0
  7

 75
     0
147
1.0
148
0.0
149
0.0
100
AcDbLayout
  1
Model
 70
     1
 71
     0
 10
0.0
 20
0.0
 11
12.0
 21
9.0
 12
0.0
 22
0.0
 32
0.0
 14
0.0
 24
0.0
 34
0.0
 15
0.0
 25
0.0
 35
0.0
146
0.0
 13
0.0
 23
0.0
 33
0.0
 16
1.0
 26
0.0
 36
0.0
 17
0.0
 27
1.0
 37
0.0
 76
     0
330
1F
  0
LAYOUT
  5
1E
102
{ACAD_REACTORS
330
1A
102
}
330
1A
100
AcDbPlotSettings
  1

  2
DocuCentre a235
  4

  6

 40
0.0
 41
0.0
 42
0.0
 43
0.0
 44
0.0
 45
0.0
 46
0.0
 47
0.0
 48
0.0
 49
0.0
140
0.0
141
0.0
142
1.0
143
1.0
 70
   688
 72
     0
 73
     0
 74
     5
  7

 75
    16
147
1.0
148
0.0
149
0.0
100
AcDbLayout
  1
ﾚｲｱｳﾄ1
 70
     1
 71
     1
 10
0.0
 20
0.0
 11
420.0
 21
297.0
 12
0.0
 22
0.0
 32
0.0
 14
1.000000000000000E+20
 24
1.000000000000000E+20
 34
1.000000000000000E+20
 15
-1.000000000000000E+20
 25
-1.000000000000000E+20
 35
-1.000000000000000E+20
146
0.0
 13
0.0
 23
0.0
 33
0.0
 16
1.0
 26
0.0
 36
0.0
 17
0.0
 27
1.0
 37
0.0
 76
     0
330
1B
  0
LAYOUT
  5
26
102
{ACAD_REACTORS
330
1A
102
}
330
1A
100
AcDbPlotSettings
  1

  2
DocuCentre a235
  4

  6

 40
0.0
 41
0.0
 42
0.0
 43
0.0
 44
0.0
 45
0.0
 46
0.0
 47
0.0
 48
0.0
 49
0.0
140
0.0
141
0.0
142
1.0
143
1.0
 70
   688
 72
     0
 73
     0
 74
     5
  7

 75
    16
147
1.0
148
0.0
149
0.0
100
AcDbLayout
  1
ﾚｲｱｳﾄ2
 70
     1
 71
     2
 10
0.0
 20
0.0
 11
12.0
 21
9.0
 12
0.0
 22
0.0
 32
0.0
 14
0.0
 24
0.0
 34
0.0
 15
0.0
 25
0.0
 35
0.0
146
0.0
 13
0.0
 23
0.0
 33
0.0
 16
1.0
 26
0.0
 36
0.0
 17
0.0
 27
1.0
 37
0.0
 76
     0
330
23
  0
MLINESTYLE
  5
18
102
{ACAD_REACTORS
330
17
102
}
330
17
100
AcDbMlineStyle
  2
STANDARD
 70
     0
  3

 62
   256
 51
90.0
 52
90.0
 71
     2
 49
0.5
 62
   256
  6
BYLAYER
 49
-0.5
 62
   256
  6
BYLAYER
  0
ACDBPLACEHOLDER
  5
F
102
{ACAD_REACTORS
330
E
102
}
330
E
  0
DICTIONARYVAR
  5
934
102
{ACAD_REACTORS
330
932
102
}
330
932
100
DictionaryVariables
280
     0
  1
2
  0
DICTIONARYVAR
  5
933
102
{ACAD_REACTORS
330
932
102
}
330
932
100
DictionaryVariables
280
     0
  1
1
  0
ENDSEC
  0
EOF
