  0
SECTION
  2
HEADER
  9
$ACADVER
  1
AC1032
  9
$ACADMAINTVER
 90
       55
  9
$DWGCODEPAGE
  3
ANSI_932
  9
$LASTSAVEDBY
  1
irikuras
  9
$REQUIREDVERSIONS
160
                 0
  9
$INSBASE
 10
0.0
 20
0.0
 30
0.0
  9
$EXTMIN
 10
-2561.120760679875
 20
0.0
 30
0.0
  9
$EXTMAX
 10
31995.00000000001
 20
14377.5
 30
0.0
  9
$LIMMIN
 10
0.0
 20
0.0
  9
$LIMMAX
 10
420.0
 20
297.0
  9
$ORTHOMODE
 70
     0
  9
$REGENMODE
 70
     1
  9
$FILLMODE
 70
     1
  9
$QTEXTMODE
 70
     0
  9
$MIRRTEXT
 70
     1
  9
$LTSCALE
 40
0.25
  9
$ATTMODE
 70
     1
  9
$TEXTSIZE
 40
5.0
  9
$TRACEWID
 40
0.05
  9
$TEXTSTYLE
  7
Standard
  9
$CLAYER
  8
0
  9
$CELTYPE
  6
ByLayer
  9
$CECOLOR
 62
   256
  9
$CELTSCALE
 40
1.0
  9
$DISPSILH
 70
     0
  9
$DIMSCALE
 40
1.0
  9
$DIMASZ
 40
4.0
  9
$DIMEXO
 40
2.0
  9
$DIMDLI
 40
10.0
  9
$DIMRND
 40
0.0
  9
$DIMDLE
 40
0.0
  9
$DIMEXE
 40
2.0
  9
$DIMTP
 40
0.0
  9
$DIMTM
 40
0.0
  9
$DIMTXT
 40
3.5
  9
$DIMCEN
 40
0.09
  9
$DIMTSZ
 40
0.0
  9
$DIMTOL
 70
     0
  9
$DIMLIM
 70
     0
  9
$DIMTIH
 70
     0
  9
$DIMTOH
 70
     0
  9
$DIMSE1
 70
     0
  9
$DIMSE2
 70
     0
  9
$DIMTAD
 70
     3
  9
$DIMZIN
 70
     8
  9
$DIMBLK
  1

  9
$DIMASO
 70
     1
  9
$DIMSHO
 70
     1
  9
$DIMPOST
  1

  9
$DIMAPOST
  1

  9
$DIMALT
 70
     0
  9
$DIMALTD
 70
     2
  9
$DIMALTF
 40
25.4
  9
$DIMLFAC
 40
1.0
  9
$DIMTOFL
 70
     1
  9
$DIMTVP
 40
0.7
  9
$DIMTIX
 70
     0
  9
$DIMSOXD
 70
     0
  9
$DIMSAH
 70
     0
  9
$DIMBLK1
  1

  9
$DIMBLK2
  1

  9
$DIMSTYLE
  2
Standard
  9
$DIMCLRD
 70
     0
  9
$DIMCLRE
 70
     0
  9
$DIMCLRT
 70
     0
  9
$DIMTFAC
 40
0.5
  9
$DIMGAP
 40
0.09
  9
$DIMJUST
 70
     0
  9
$DIMSD1
 70
     0
  9
$DIMSD2
 70
     0
  9
$DIMTOLJ
 70
     1
  9
$DIMTZIN
 70
     8
  9
$DIMALTZ
 70
     0
  9
$DIMALTTZ
 70
     0
  9
$DIMUPT
 70
     1
  9
$DIMDEC
 70
     2
  9
$DIMTDEC
 70
     4
  9
$DIMALTU
 70
     2
  9
$DIMALTTD
 70
     2
  9
$DIMTXSTY
  7
Standard
  9
$DIMAUNIT
 70
     0
  9
$DIMADEC
 70
     0
  9
$DIMALTRND
 40
0.0
  9
$DIMAZIN
 70
     0
  9
$DIMDSEP
 70
    46
  9
$DIMATFIT
 70
     2
  9
$DIMFRAC
 70
     0
  9
$DIMLDRBLK
  1

  9
$DIMLUNIT
 70
     2
  9
$DIMLWD
 70
    -2
  9
$DIMLWE
 70
    -2
  9
$DIMTMOVE
 70
     2
  9
$DIMFXL
 40
1.0
  9
$DIMFXLON
 70
     0
  9
$DIMJOGANG
 40
0.7853981633974483
  9
$DIMTFILL
 70
     0
  9
$DIMTFILLCLR
 70
     0
  9
$DIMARCSYM
 70
     0
  9
$DIMLTYPE
  6

  9
$DIMLTEX1
  6

  9
$DIMLTEX2
  6

  9
$DIMTXTDIRECTION
 70
     0
  9
$LUNITS
 70
     2
  9
$LUPREC
 70
     4
  9
$SKETCHINC
 40
0.1
  9
$FILLETRAD
 40
0.5
  9
$AUNITS
 70
     0
  9
$AUPREC
 70
     0
  9
$MENU
  1
.
  9
$ELEVATION
 40
0.0
  9
$PELEVATION
 40
0.0
  9
$THICKNESS
 40
0.0
  9
$LIMCHECK
 70
     0
  9
$CHAMFERA
 40
0.0
  9
$CHAMFERB
 40
0.0
  9
$CHAMFERC
 40
0.0
  9
$CHAMFERD
 40
0.0
  9
$SKPOLY
 70
     0
  9
$TDCREATE
 40
2460391.81806713
  9
$TDUCREATE
 40
2460391.44306713
  9
$TDUPDATE
 40
2460391.443074873
  9
$TDUUPDATE
 40
2460391.068074873
  9
$TDINDWG
 40
0.0000000116
  9
$TDUSRTIMER
 40
0.0000000116
  9
$USRTIMER
 70
     1
  9
$ANGBASE
 50
0.0
  9
$ANGDIR
 70
     0
  9
$PDMODE
 70
     0
  9
$PDSIZE
 40
0.0
  9
$PLINEWID
 40
0.0
  9
$SPLFRAME
 70
     0
  9
$SPLINETYPE
 70
     6
  9
$SPLINESEGS
 70
     8
  9
$HANDSEED
  5
5E7
  9
$SURFTAB1
 70
     6
  9
$SURFTAB2
 70
     6
  9
$SURFTYPE
 70
     6
  9
$SURFU
 70
     6
  9
$SURFV
 70
     6
  9
$UCSBASE
  2

  9
$UCSNAME
  2

  9
$UCSORG
 10
0.0
 20
0.0
 30
0.0
  9
$UCSXDIR
 10
1.0
 20
0.0
 30
0.0
  9
$UCSYDIR
 10
0.0
 20
1.0
 30
0.0
  9
$UCSORTHOREF
  2

  9
$UCSORTHOVIEW
 70
     0
  9
$UCSORGTOP
 10
0.0
 20
0.0
 30
0.0
  9
$UCSORGBOTTOM
 10
0.0
 20
0.0
 30
0.0
  9
$UCSORGLEFT
 10
0.0
 20
0.0
 30
0.0
  9
$UCSORGRIGHT
 10
0.0
 20
0.0
 30
0.0
  9
$UCSORGFRONT
 10
0.0
 20
0.0
 30
0.0
  9
$UCSORGBACK
 10
0.0
 20
0.0
 30
0.0
  9
$PUCSBASE
  2

  9
$PUCSNAME
  2

  9
$PUCSORG
 10
0.0
 20
0.0
 30
0.0
  9
$PUCSXDIR
 10
1.0
 20
0.0
 30
0.0
  9
$PUCSYDIR
 10
0.0
 20
1.0
 30
0.0
  9
$PUCSORTHOREF
  2

  9
$PUCSORTHOVIEW
 70
     0
  9
$PUCSORGTOP
 10
0.0
 20
0.0
 30
0.0
  9
$PUCSORGBOTTOM
 10
0.0
 20
0.0
 30
0.0
  9
$PUCSORGLEFT
 10
0.0
 20
0.0
 30
0.0
  9
$PUCSORGRIGHT
 10
0.0
 20
0.0
 30
0.0
  9
$PUCSORGFRONT
 10
0.0
 20
0.0
 30
0.0
  9
$PUCSORGBACK
 10
0.0
 20
0.0
 30
0.0
  9
$USERI1
 70
     0
  9
$USERI2
 70
     0
  9
$USERI3
 70
     0
  9
$USERI4
 70
     0
  9
$USERI5
 70
     0
  9
$USERR1
 40
0.0
  9
$USERR2
 40
0.0
  9
$USERR3
 40
0.0
  9
$USERR4
 40
0.0
  9
$USERR5
 40
0.0
  9
$WORLDVIEW
 70
     1
  9
$SHADEDGE
 70
     3
  9
$SHADEDIF
 70
    70
  9
$TILEMODE
 70
     1
  9
$MAXACTVP
 70
    64
  9
$PINSBASE
 10
0.0
 20
0.0
 30
0.0
  9
$PLIMCHECK
 70
     0
  9
$PEXTMIN
 10
0.0
 20
0.0
 30
0.0
  9
$PEXTMAX
 10
420.0
 20
297.0
 30
0.0
  9
$PLIMMIN
 10
0.0
 20
0.0
  9
$PLIMMAX
 10
420.0
 20
297.0
  9
$UNITMODE
 70
     0
  9
$VISRETAIN
 70
     1
  9
$PLINEGEN
 70
     0
  9
$PSLTSCALE
 70
     1
  9
$TREEDEPTH
 70
  3020
  9
$CMLSTYLE
  2
Standard
  9
$CMLJUST
 70
     0
  9
$CMLSCALE
 40
1.0
  9
$PROXYGRAPHICS
 70
     1
  9
$MEASUREMENT
 70
     1
  9
$CELWEIGHT
370
    -1
  9
$ENDCAPS
280
     0
  9
$JOINSTYLE
280
     0
  9
$LWDISPLAY
290
     0
  9
$INSUNITS
 70
     4
  9
$HYPERLINKBASE
  1

  9
$STYLESHEET
  1

  9
$XEDIT
290
     1
  9
$CEPSNTYPE
380
     0
  9
$PSTYLEMODE
290
     1
  9
$FINGERPRINTGUID
  2
{fd13a28a-d618-4239-a0b3-eb65d9e71c28}
  9
$VERSIONGUID
  2
{FAEB1C32-E019-11D5-929B-00C0DF256EC4}
  9
$EXTNAMES
290
     1
  9
$PSVPSCALE
 40
0.0
  9
$OLESTARTUP
290
     0
  9
$SORTENTS
280
   127
  9
$INDEXCTL
280
     0
  9
$HIDETEXT
280
     1
  9
$XCLIPFRAME
280
     2
  9
$HALOGAP
280
     0
  9
$OBSCOLOR
 70
   257
  9
$OBSLTYPE
280
     0
  9
$INTERSECTIONDISPLAY
280
     0
  9
$INTERSECTIONCOLOR
 70
   257
  9
$DIMASSOC
280
     1
  9
$PROJECTNAME
  1

  9
$CAMERADISPLAY
290
     0
  9
$LENSLENGTH
 40
50.0
  9
$CAMERAHEIGHT
 40
0.0
  9
$STEPSPERSEC
 40
2.0
  9
$STEPSIZE
 40
6.0
  9
$3DDWFPREC
 40
2.0
  9
$PSOLWIDTH
 40
0.25
  9
$PSOLHEIGHT
 40
4.0
  9
$LOFTANG1
 40
1.570796326794897
  9
$LOFTANG2
 40
1.570796326794897
  9
$LOFTMAG1
 40
0.0
  9
$LOFTMAG2
 40
0.0
  9
$LOFTPARAM
 70
     7
  9
$LOFTNORMALS
280
     1
  9
$LATITUDE
 40
37.795
  9
$LONGITUDE
 40
-122.394
  9
$NORTHDIRECTION
 40
0.0
  9
$TIMEZONE
 70
 -8000
  9
$LIGHTGLYPHDISPLAY
280
     1
  9
$TILEMODELIGHTSYNCH
280
     1
  9
$CMATERIAL
347
44
  9
$SOLIDHIST
280
     0
  9
$SHOWHIST
280
     1
  9
$DWFFRAME
280
     2
  9
$DGNFRAME
280
     2
  9
$REALWORLDSCALE
290
     1
  9
$INTERFERECOLOR
 62
   256
  9
$CSHADOW
280
     0
  9
$SHADOWPLANELOCATION
 40
0.0
  0
ENDSEC
  0
SECTION
  2
CLASSES
  0
CLASS
  1
ACDBDICTIONARYWDFLT
  2
AcDbDictionaryWithDefault
  3
ObjectDBX Classes
 90
        0
 91
        3
280
     0
281
     0
  0
CLASS
  1
VISUALSTYLE
  2
AcDbVisualStyle
  3
ObjectDBX Classes
 90
     4095
 91
        3
280
     0
281
     0
  0
CLASS
  1
MATERIAL
  2
AcDbMaterial
  3
ObjectDBX Classes
 90
     1153
 91
        3
280
     0
281
     0
  0
CLASS
  1
SCALE
  2
AcDbScale
  3
ObjectDBX Classes
 90
     1153
 91
        3
280
     0
281
     0
  0
CLASS
  1
TABLESTYLE
  2
AcDbTableStyle
  3
ObjectDBX Classes
 90
     4095
 91
        3
280
     0
281
     0
  0
CLASS
  1
MLEADERSTYLE
  2
AcDbMLeaderStyle
  3
ACDB_MLEADERSTYLE_CLASS
 90
     4095
 91
        3
280
     0
281
     0
  0
CLASS
  1
SUN
  2
AcDbSun
  3
SCENEOE
 90
     1153
 91
        3
280
     0
281
     0
  0
CLASS
  1
DICTIONARYVAR
  2
AcDbDictionaryVar
  3
ObjectDBX Classes
 90
        0
 91
        3
280
     0
281
     0
  0
CLASS
  1
CELLSTYLEMAP
  2
AcDbCellStyleMap
  3
ObjectDBX Classes
 90
     1152
 91
        3
280
     0
281
     0
  0
ENDSEC
  0
SECTION
  2
TABLES
  0
TABLE
  2
VPORT
  5
8
330
0
100
AcDbSymbolTable
 70
     1
  0
VPORT
  5
29
330
8
100
AcDbSymbolTableRecord
100
AcDbViewportTableRecord
  2
*Active
 70
     0
 10
0.0
 20
0.0
 11
1.0
 21
1.0
 12
10.42990654205607
 22
4.5
 13
0.0
 23
0.0
 14
0.5
 24
0.5
 15
0.5
 25
0.5
 16
0.0
 26
0.0
 36
1.0
 17
0.0
 27
0.0
 37
0.0
 40
9.0
 41
1.972972972850329
 42
50.0
 43
0.0
 44
0.0
 50
0.0
 51
0.0
 71
     0
 72
   100
 73
     1
 74
     3
 75
     0
 76
     0
 77
     0
 78
     0
281
     0
 65
     1
110
0.0
120
0.0
130
0.0
111
1.0
121
0.0
131
0.0
112
0.0
122
1.0
132
0.0
 79
     0
146
0.0
348
2F
 60
     3
 61
     5
292
     1
282
     1
141
0.0
142
0.0
 63
   250
361
6D
  0
ENDTAB
  0
TABLE
  2
LTYPE
  5
5
330
0
100
AcDbSymbolTable
 70
     9
  0
LTYPE
  5
14
330
5
100
AcDbSymbolTableRecord
100
AcDbLinetypeTableRecord
  2
ByBlock
 70
     0
  3

 72
    65
 73
     0
 40
0.0
  0
LTYPE
  5
15
330
5
100
AcDbSymbolTableRecord
100
AcDbLinetypeTableRecord
  2
ByLayer
 70
     0
  3

 72
    65
 73
     0
 40
0.0
  0
LTYPE
  5
16
330
5
100
AcDbSymbolTableRecord
100
AcDbLinetypeTableRecord
  2
Continuous
 70
     0
  3
Solid line
 72
    65
 73
     0
 40
0.0
  0
LTYPE
  5
BC
330
5
100
AcDbSymbolTableRecord
100
AcDbLinetypeTableRecord
  2
DOT
 70
     0
  3
DOT
 72
    65
 73
     2
 40
4.0
 49
6.0
 74
     0
 49
-2.0
 74
     0
  0
LTYPE
  5
BD
330
5
100
AcDbSymbolTableRecord
100
AcDbLinetypeTableRecord
  2
HIDDEN
 70
     0
  3
HIDDEN
 72
    65
 73
     2
 40
4.2
 49
8.4
 74
     0
 49
-4.2
 74
     0
  0
LTYPE
  5
BE
330
5
100
AcDbSymbolTableRecord
100
AcDbLinetypeTableRecord
  2
DASHDOT
 70
     0
  3
DASHDOT
 72
    65
 73
     4
 40
14.5
 49
30.0
 74
     0
 49
-9.0
 74
     0
 49
2.5
 74
     0
 49
-9.0
 74
     0
  0
LTYPE
  5
BF
330
5
100
AcDbSymbolTableRecord
100
AcDbLinetypeTableRecord
  2
PHANTOM
 70
     0
  3
PHANTOM
 72
    65
 73
     6
 40
12.0
 49
30.0
 74
     0
 49
-9.0
 74
     0
 49
2.5
 74
     0
 49
-5.0
 74
     0
 49
2.5
 74
     0
 49
-9.0
 74
     0
  0
LTYPE
  5
C0
330
5
100
AcDbSymbolTableRecord
100
AcDbLinetypeTableRecord
  2
ACAD_ISO14W100
 70
     0
  3
ACAD_ISO14W100
 72
    65
 73
     8
 40
1.5
 49
12.0
 74
     0
 49
-3.0
 74
     0
 49
0.5
 74
     0
 49
-3.0
 74
     0
 49
0.5
 74
     0
 49
-3.0
 74
     0
 49
0.5
 74
     0
 49
-3.0
 74
     0
  0
LTYPE
  5
C1
330
5
100
AcDbSymbolTableRecord
100
AcDbLinetypeTableRecord
  2
ACAD_ISO06W100
 70
     0
  3
ACAD_ISO06W100
 72
    65
 73
     8
 40
13.5
 49
24.0
 74
     0
 49
-3.0
 74
     0
 49
0.5
 74
     0
 49
-3.0
 74
     0
 49
0.5
 74
     0
 49
-3.0
 74
     0
 49
0.5
 74
     0
 49
-3.0
 74
     0
  0
LTYPE
  5
C2
330
5
100
AcDbSymbolTableRecord
100
AcDbLinetypeTableRecord
  2
ACAD_ISO11W100
 70
     0
  3
ACAD_ISO11W100
 72
    65
 73
     6
 40
15.5
 49
12.0
 74
     0
 49
-3.0
 74
     0
 49
12.0
 74
     0
 49
-3.0
 74
     0
 49
0.5
 74
     0
 49
-3.0
 74
     0
  0
LTYPE
  5
C3
330
5
100
AcDbSymbolTableRecord
100
AcDbLinetypeTableRecord
  2
ACAD_ISO13W100
 70
     0
  3
ACAD_ISO13W100
 72
    65
 73
     8
 40
13.0
 49
12.0
 74
     0
 49
-3.0
 74
     0
 49
12.0
 74
     0
 49
-3.0
 74
     0
 49
0.5
 74
     0
 49
-3.0
 74
     0
 49
0.5
 74
     0
 49
-3.0
 74
     0
  0
ENDTAB
  0
TABLE
  2
LAYER
  5
2
330
0
100
AcDbSymbolTable
 70
    66
  0
LAYER
  5
10
330
2
100
AcDbSymbolTableRecord
100
AcDbLayerTableRecord
  2
0
 70
     0
 62
     7
  6
Continuous
370
    -3
390
F
347
46
348
0
  0
LAYER
  5
C4
330
2
100
AcDbSymbolTableRecord
100
AcDbLayerTableRecord
  2
1
 70
     0
 62
     7
  6
Continuous
370
    30
390
F
347
46
348
0
  0
LAYER
  5
C5
330
2
100
AcDbSymbolTableRecord
100
AcDbLayerTableRecord
  2
2
 70
     0
 62
   136
420
    32896
  6
Continuous
370
     9
390
F
347
46
348
0
  0
LAYER
  5
C6
330
2
100
AcDbSymbolTableRecord
100
AcDbLayerTableRecord
  2
3
 70
     0
 62
   216
420
  8388736
  6
Continuous
370
     9
390
F
347
46
348
0
  0
LAYER
  5
C7
330
2
100
AcDbSymbolTableRecord
100
AcDbLayerTableRecord
  2
4
 70
     0
 62
    56
420
  8421376
  6
Continuous
370
     9
390
F
347
46
348
0
  0
LAYER
  5
C8
330
2
100
AcDbSymbolTableRecord
100
AcDbLayerTableRecord
  2
5
 70
     0
 62
    96
420
    32768
  6
Continuous
370
    30
390
F
347
46
348
0
  0
LAYER
  5
C9
330
2
100
AcDbSymbolTableRecord
100
AcDbLayerTableRecord
  2
6
 70
     0
 62
    16
420
  8388608
  6
Continuous
370
     9
390
F
347
46
348
0
  0
LAYER
  5
CA
330
2
100
AcDbSymbolTableRecord
100
AcDbLayerTableRecord
  2
7
 70
     0
 62
     4
  6
Continuous
370
     9
390
F
347
46
348
0
  0
LAYER
  5
CB
330
2
100
AcDbSymbolTableRecord
100
AcDbLayerTableRecord
  2
8
 70
     0
 62
     6
  6
Continuous
370
     9
390
F
347
46
348
0
  0
LAYER
  5
CC
330
2
100
AcDbSymbolTableRecord
100
AcDbLayerTableRecord
  2
9
 70
     0
 62
     2
  6
Continuous
370
    30
390
F
347
46
348
0
  0
LAYER
  5
CD
330
2
100
AcDbSymbolTableRecord
100
AcDbLayerTableRecord
  2
10
 70
     0
 62
     3
  6
Continuous
370
     9
390
F
347
46
348
0
  0
LAYER
  5
CE
330
2
100
AcDbSymbolTableRecord
100
AcDbLayerTableRecord
  2
11
 70
     0
 62
     8
420
  8421504
  6
Continuous
370
     9
390
F
347
46
348
0
  0
LAYER
  5
CF
330
2
100
AcDbSymbolTableRecord
100
AcDbLayerTableRecord
  2
12
 70
     0
 62
   138
420
    20560
  6
Continuous
370
     9
390
F
347
46
348
0
  0
LAYER
  5
D0
330
2
100
AcDbSymbolTableRecord
100
AcDbLayerTableRecord
  2
13
 70
     0
 62
   218
420
  5242960
  6
Continuous
370
     9
390
F
347
46
348
0
  0
LAYER
  5
D1
330
2
100
AcDbSymbolTableRecord
100
AcDbLayerTableRecord
  2
14
 70
     0
 62
    58
420
  5263360
  6
Continuous
370
     9
390
F
347
46
348
0
  0
LAYER
  5
D2
330
2
100
AcDbSymbolTableRecord
100
AcDbLayerTableRecord
  2
15
 70
     0
 62
    98
420
    20480
  6
Continuous
370
     9
390
F
347
46
348
0
  0
LAYER
  5
D3
330
2
100
AcDbSymbolTableRecord
100
AcDbLayerTableRecord
  2
16
 70
     0
 62
    18
420
  5242880
  6
Continuous
370
     9
390
F
347
46
348
0
  0
LAYER
  5
D4
330
2
100
AcDbSymbolTableRecord
100
AcDbLayerTableRecord
  2
17
 70
     0
 62
   132
420
    49344
  6
Continuous
370
     9
390
F
347
46
348
0
  0
LAYER
  5
D5
330
2
100
AcDbSymbolTableRecord
100
AcDbLayerTableRecord
  2
18
 70
     0
 62
   212
420
 12583104
  6
Continuous
370
     9
390
F
347
46
348
0
  0
LAYER
  5
D6
330
2
100
AcDbSymbolTableRecord
100
AcDbLayerTableRecord
  2
19
 70
     0
 62
    52
420
 12632064
  6
Continuous
370
     9
390
F
347
46
348
0
  0
LAYER
  5
D7
330
2
100
AcDbSymbolTableRecord
100
AcDbLayerTableRecord
  2
20
 70
     0
 62
   251
420
  5263440
  6
Continuous
370
     9
390
F
347
46
348
0
  0
LAYER
  5
D8
330
2
100
AcDbSymbolTableRecord
100
AcDbLayerTableRecord
  2
21
 70
     0
 62
     7
  6
Continuous
370
     9
390
F
347
46
348
0
  0
LAYER
  5
D9
330
2
100
AcDbSymbolTableRecord
100
AcDbLayerTableRecord
  2
22
 70
     0
 62
     7
  6
Continuous
370
     9
390
F
347
46
348
0
  0
LAYER
  5
DA
330
2
100
AcDbSymbolTableRecord
100
AcDbLayerTableRecord
  2
23
 70
     0
 62
    11
420
 16744512
  6
Continuous
370
     9
390
F
347
46
348
0
  0
LAYER
  5
DB
330
2
100
AcDbSymbolTableRecord
100
AcDbLayerTableRecord
  2
24
 70
     0
 62
   216
420
  8388736
  6
Continuous
370
     9
390
F
347
46
348
0
  0
LAYER
  5
DC
330
2
100
AcDbSymbolTableRecord
100
AcDbLayerTableRecord
  2
25
 70
     0
 62
     8
420
  8421504
  6
Continuous
370
     9
390
F
347
46
348
0
  0
LAYER
  5
DD
330
2
100
AcDbSymbolTableRecord
100
AcDbLayerTableRecord
  2
26
 70
     0
 62
     5
  6
Continuous
370
     9
390
F
347
46
348
0
  0
LAYER
  5
DE
330
2
100
AcDbSymbolTableRecord
100
AcDbLayerTableRecord
  2
27
 70
     0
 62
     3
  6
Continuous
370
     9
390
F
347
46
348
0
  0
LAYER
  5
DF
330
2
100
AcDbSymbolTableRecord
100
AcDbLayerTableRecord
  2
28
 70
     0
 62
     1
  6
Continuous
370
     9
390
F
347
46
348
0
  0
LAYER
  5
E0
330
2
100
AcDbSymbolTableRecord
100
AcDbLayerTableRecord
  2
29
 70
     0
 62
     4
  6
Continuous
370
     9
390
F
347
46
348
0
  0
LAYER
  5
E1
330
2
100
AcDbSymbolTableRecord
100
AcDbLayerTableRecord
  2
30
 70
     0
 62
     6
  6
Continuous
370
     9
390
F
347
46
348
0
  0
LAYER
  5
E2
330
2
100
AcDbSymbolTableRecord
100
AcDbLayerTableRecord
  2
31
 70
     0
 62
     2
  6
Continuous
370
     9
390
F
347
46
348
0
  0
LAYER
  5
E3
330
2
100
AcDbSymbolTableRecord
100
AcDbLayerTableRecord
  2
32
 70
     0
 62
     7
  6
Continuous
370
     9
390
F
347
46
348
0
  0
LAYER
  5
E4
330
2
100
AcDbSymbolTableRecord
100
AcDbLayerTableRecord
  2
33
 70
     0
 62
     7
  6
Continuous
370
     9
390
F
347
46
348
0
  0
LAYER
  5
E5
330
2
100
AcDbSymbolTableRecord
100
AcDbLayerTableRecord
  2
34
 70
     0
 62
     9
420
 12632256
  6
Continuous
370
     9
390
F
347
46
348
0
  0
LAYER
  5
E6
330
2
100
AcDbSymbolTableRecord
100
AcDbLayerTableRecord
  2
35
 70
     0
 62
     7
  6
Continuous
370
     9
390
F
347
46
348
0
  0
LAYER
  5
E7
330
2
100
AcDbSymbolTableRecord
100
AcDbLayerTableRecord
  2
36
 70
     0
 62
    96
420
    32768
  6
Continuous
370
     9
390
F
347
46
348
0
  0
LAYER
  5
E8
330
2
100
AcDbSymbolTableRecord
100
AcDbLayerTableRecord
  2
37
 70
     0
 62
    16
420
  8388608
  6
Continuous
370
     9
390
F
347
46
348
0
  0
LAYER
  5
E9
330
2
100
AcDbSymbolTableRecord
100
AcDbLayerTableRecord
  2
38
 70
     0
 62
   136
420
    32896
  6
Continuous
370
     9
390
F
347
46
348
0
  0
LAYER
  5
EA
330
2
100
AcDbSymbolTableRecord
100
AcDbLayerTableRecord
  2
39
 70
     0
 62
    56
420
  8421376
  6
Continuous
370
     9
390
F
347
46
348
0
  0
LAYER
  5
EB
330
2
100
AcDbSymbolTableRecord
100
AcDbLayerTableRecord
  2
40
 70
     0
 62
   216
420
  8388736
  6
Continuous
370
     9
390
F
347
46
348
0
  0
LAYER
  5
EC
330
2
100
AcDbSymbolTableRecord
100
AcDbLayerTableRecord
  2
41
 70
     0
 62
     7
  6
Continuous
370
     9
390
F
347
46
348
0
  0
LAYER
  5
ED
330
2
100
AcDbSymbolTableRecord
100
AcDbLayerTableRecord
  2
42
 70
     0
 62
     5
  6
Continuous
370
     9
390
F
347
46
348
0
  0
LAYER
  5
EE
330
2
100
AcDbSymbolTableRecord
100
AcDbLayerTableRecord
  2
43
 70
     0
 62
     3
  6
Continuous
370
     9
390
F
347
46
348
0
  0
LAYER
  5
EF
330
2
100
AcDbSymbolTableRecord
100
AcDbLayerTableRecord
  2
44
 70
     0
 62
     1
  6
Continuous
370
     9
390
F
347
46
348
0
  0
LAYER
  5
F0
330
2
100
AcDbSymbolTableRecord
100
AcDbLayerTableRecord
  2
45
 70
     0
 62
     4
  6
Continuous
370
     9
390
F
347
46
348
0
  0
LAYER
  5
F1
330
2
100
AcDbSymbolTableRecord
100
AcDbLayerTableRecord
  2
46
 70
     0
 62
     6
  6
Continuous
370
     9
390
F
347
46
348
0
  0
LAYER
  5
F2
330
2
100
AcDbSymbolTableRecord
100
AcDbLayerTableRecord
  2
47
 70
     0
 62
     2
  6
Continuous
370
     9
390
F
347
46
348
0
  0
LAYER
  5
F3
330
2
100
AcDbSymbolTableRecord
100
AcDbLayerTableRecord
  2
48
 70
     0
 62
     7
  6
Continuous
370
     9
390
F
347
46
348
0
  0
LAYER
  5
F4
330
2
100
AcDbSymbolTableRecord
100
AcDbLayerTableRecord
  2
49
 70
     0
 62
     7
  6
Continuous
370
     9
390
F
347
46
348
0
  0
LAYER
  5
F5
330
2
100
AcDbSymbolTableRecord
100
AcDbLayerTableRecord
  2
50
 70
     0
 62
     9
420
 12632256
  6
Continuous
370
     9
390
F
347
46
348
0
  0
LAYER
  5
F6
330
2
100
AcDbSymbolTableRecord
100
AcDbLayerTableRecord
  2
51
 70
     0
 62
   176
420
      128
  6
Continuous
370
     9
390
F
347
46
348
0
  0
LAYER
  5
F7
330
2
100
AcDbSymbolTableRecord
100
AcDbLayerTableRecord
  2
52
 70
     0
 62
    96
420
    32768
  6
Continuous
370
     9
390
F
347
46
348
0
  0
LAYER
  5
F8
330
2
100
AcDbSymbolTableRecord
100
AcDbLayerTableRecord
  2
53
 70
     0
 62
    16
420
  8388608
  6
Continuous
370
     9
390
F
347
46
348
0
  0
LAYER
  5
F9
330
2
100
AcDbSymbolTableRecord
100
AcDbLayerTableRecord
  2
54
 70
     0
 62
   136
420
    32896
  6
Continuous
370
     9
390
F
347
46
348
0
  0
LAYER
  5
FA
330
2
100
AcDbSymbolTableRecord
100
AcDbLayerTableRecord
  2
55
 70
     0
 62
    56
420
  8421376
  6
Continuous
370
     9
390
F
347
46
348
0
  0
LAYER
  5
FB
330
2
100
AcDbSymbolTableRecord
100
AcDbLayerTableRecord
  2
56
 70
     0
 62
   216
420
  8388736
  6
Continuous
370
     9
390
F
347
46
348
0
  0
LAYER
  5
FC
330
2
100
AcDbSymbolTableRecord
100
AcDbLayerTableRecord
  2
57
 70
     0
 62
     8
420
  8421504
  6
Continuous
370
     9
390
F
347
46
348
0
  0
LAYER
  5
FD
330
2
100
AcDbSymbolTableRecord
100
AcDbLayerTableRecord
  2
58
 70
     0
 62
     5
  6
Continuous
370
     9
390
F
347
46
348
0
  0
LAYER
  5
FE
330
2
100
AcDbSymbolTableRecord
100
AcDbLayerTableRecord
  2
59
 70
     0
 62
     3
  6
Continuous
370
     9
390
F
347
46
348
0
  0
LAYER
  5
FF
330
2
100
AcDbSymbolTableRecord
100
AcDbLayerTableRecord
  2
60
 70
     0
 62
     1
  6
Continuous
370
     9
390
F
347
46
348
0
  0
LAYER
  5
100
330
2
100
AcDbSymbolTableRecord
100
AcDbLayerTableRecord
  2
61
 70
     0
 62
     4
  6
Continuous
370
     9
390
F
347
46
348
0
  0
LAYER
  5
101
330
2
100
AcDbSymbolTableRecord
100
AcDbLayerTableRecord
  2
62
 70
     0
 62
     6
  6
Continuous
370
     9
390
F
347
46
348
0
  0
LAYER
  5
102
330
2
100
AcDbSymbolTableRecord
100
AcDbLayerTableRecord
  2
63
 70
     0
 62
     2
  6
Continuous
370
     9
390
F
347
46
348
0
  0
LAYER
  5
103
330
2
100
AcDbSymbolTableRecord
100
AcDbLayerTableRecord
  2
64
 70
     0
 62
     7
  6
Continuous
370
     9
390
F
347
46
348
0
  0
LAYER
  5
104
330
2
100
AcDbSymbolTableRecord
100
AcDbLayerTableRecord
  2
128
 70
     0
 62
     7
  6
Continuous
370
     9
390
F
347
46
348
0
  0
ENDTAB
  0
TABLE
  2
STYLE
  5
3
330
0
100
AcDbSymbolTable
 70
     3
  0
STYLE
  5
11
330
3
100
AcDbSymbolTableRecord
100
AcDbTextStyleTableRecord
  2
Standard
 70
     0
 40
0.0
 41
1.0
 50
0.0
 71
     0
 42
5.0
  3
txt
  4
bigfont
  0
STYLE
  5
6F
330
3
100
AcDbSymbolTableRecord
100
AcDbTextStyleTableRecord
  2
T_STANDARD
 70
     4
 40
10.0
 41
1.0
 50
0.0
 71
     0
 42
5.0
  3
txt
  4
bigfont
1001
ACAD
1000

1071
      256
  0
STYLE
  5
31A
330
3
100
AcDbSymbolTableRecord
100
AcDbTextStyleTableRecord
  2
ＭＳ ゴシック
 70
     0
 40
0.0
 41
1.0
 50
0.0
 71
     0
 42
5.0
  3

  4

1001
ACAD
1000
ＭＳ ゴシック
1071
      256
  0
ENDTAB
  0
TABLE
  2
VIEW
  5
6
330
0
100
AcDbSymbolTable
 70
     0
  0
ENDTAB
  0
TABLE
  2
UCS
  5
7
330
0
100
AcDbSymbolTable
 70
     0
  0
ENDTAB
  0
TABLE
  2
APPID
  5
9
330
0
100
AcDbSymbolTable
 70
     2
  0
APPID
  5
12
330
9
100
AcDbSymbolTableRecord
100
AcDbRegAppTableRecord
  2
ACAD
 70
     0
  0
APPID
  5
6E
330
9
100
AcDbSymbolTableRecord
100
AcDbRegAppTableRecord
  2
ODA
 70
     0
  0
ENDTAB
  0
TABLE
  2
DIMSTYLE
  5
A
330
0
100
AcDbSymbolTable
 70
     1
100
AcDbDimStyleTable
  0
DIMSTYLE
105
27
102
{ACAD_REACTORS
330
324
330
32E
330
338
330
342
330
34C
330
386
330
3E4
330
3EE
330
470
330
562
102
}
330
A
100
AcDbSymbolTableRecord
100
AcDbDimStyleTableRecord
  2
Standard
 70
     0
178
     0
340
11
  0
ENDTAB
  0
TABLE
  2
BLOCK_RECORD
  5
1
330
0
100
AcDbSymbolTable
 70
   112
  0
BLOCK_RECORD
  5
1F
330
1
100
AcDbSymbolTableRecord
100
AcDbBlockTableRecord
  2
*Model_Space
340
22
 70
     0
280
     1
281
     0
  0
BLOCK_RECORD
  5
1B
330
1
100
AcDbSymbolTableRecord
100
AcDbBlockTableRecord
  2
*Paper_Space
340
1E
 70
     0
280
     1
281
     0
  0
BLOCK_RECORD
  5
23
330
1
100
AcDbSymbolTableRecord
100
AcDbBlockTableRecord
  2
*Paper_Space0
340
26
 70
     0
280
     1
281
     0
  0
BLOCK_RECORD
  5
70
330
1
100
AcDbSymbolTableRecord
100
AcDbBlockTableRecord
  2
_ORIGIN
340
0
 70
     0
280
     1
281
     0
  0
BLOCK_RECORD
  5
75
330
1
100
AcDbSymbolTableRecord
100
AcDbBlockTableRecord
  2
_DOTBLANK
340
0
 70
     0
280
     1
281
     0
  0
BLOCK_RECORD
  5
7A
330
1
100
AcDbSymbolTableRecord
100
AcDbBlockTableRecord
  2
_DOT
340
0
 70
     0
280
     1
281
     0
  0
BLOCK_RECORD
  5
7F
330
1
100
AcDbSymbolTableRecord
100
AcDbBlockTableRecord
  2
_OPEN
340
0
102
{BLKREFS
331
322
331
323
331
32C
331
32D
331
336
331
337
331
340
331
341
331
34A
331
34B
331
384
331
385
331
3E2
331
3E3
331
3EC
331
3ED
331
46E
331
46F
331
471
331
560
331
561
102
}
 70
     0
280
     1
281
     0
  0
BLOCK_RECORD
  5
85
330
1
100
AcDbSymbolTableRecord
100
AcDbBlockTableRecord
  2
_CLOSED
340
0
 70
     0
280
     1
281
     0
  0
BLOCK_RECORD
  5
8C
330
1
100
AcDbSymbolTableRecord
100
AcDbBlockTableRecord
  2
_CLOSEDBLANK
340
0
 70
     0
280
     1
281
     0
  0
BLOCK_RECORD
  5
92
330
1
100
AcDbSymbolTableRecord
100
AcDbBlockTableRecord
  2
_ARROWFILLED
340
0
 70
     0
280
     1
281
     0
  0
BLOCK_RECORD
  5
96
330
1
100
AcDbSymbolTableRecord
100
AcDbBlockTableRecord
  2
_BOXBLANK
340
0
 70
     0
280
     1
281
     0
  0
BLOCK_RECORD
  5
9E
330
1
100
AcDbSymbolTableRecord
100
AcDbBlockTableRecord
  2
_BOXFILLED
340
0
 70
     0
280
     1
281
     0
  0
BLOCK_RECORD
  5
A3
330
1
100
AcDbSymbolTableRecord
100
AcDbBlockTableRecord
  2
_INTEGRAL
340
0
 70
     0
280
     1
281
     0
  0
BLOCK_RECORD
  5
A8
330
1
100
AcDbSymbolTableRecord
100
AcDbBlockTableRecord
  2
_OBLIQUE
340
0
 70
     0
280
     1
281
     0
  0
BLOCK_RECORD
  5
AC
330
1
100
AcDbSymbolTableRecord
100
AcDbBlockTableRecord
  2
_NONE
340
0
 70
     0
280
     1
281
     0
  0
BLOCK_RECORD
  5
AF
330
1
100
AcDbSymbolTableRecord
100
AcDbBlockTableRecord
  2
MARK_OPEN
340
0
 70
     0
280
     1
281
     0
  0
BLOCK_RECORD
  5
B4
330
1
100
AcDbSymbolTableRecord
100
AcDbBlockTableRecord
  2
MARK_ORIGIN
340
0
 70
     0
280
     1
281
     0
  0
BLOCK_RECORD
  5
B8
330
1
100
AcDbSymbolTableRecord
100
AcDbBlockTableRecord
  2
MARK_DOT
340
0
 70
     0
280
     1
281
     0
  0
BLOCK_RECORD
  5
113
330
1
100
AcDbSymbolTableRecord
100
AcDbBlockTableRecord
  2
G1
340
0
102
{BLKREFS
331
117
102
}
 70
     0
280
     1
281
     0
  0
BLOCK_RECORD
  5
17F
330
1
100
AcDbSymbolTableRecord
100
AcDbBlockTableRecord
  2
G2
340
0
102
{BLKREFS
331
188
102
}
 70
     0
280
     1
281
     0
  0
BLOCK_RECORD
  5
189
330
1
100
AcDbSymbolTableRecord
100
AcDbBlockTableRecord
  2
G3
340
0
102
{BLKREFS
331
192
102
}
 70
     0
280
     1
281
     0
  0
BLOCK_RECORD
  5
1A3
330
1
100
AcDbSymbolTableRecord
100
AcDbBlockTableRecord
  2
G4
340
0
102
{BLKREFS
331
1AA
102
}
 70
     0
280
     1
281
     0
  0
BLOCK_RECORD
  5
1AB
330
1
100
AcDbSymbolTableRecord
100
AcDbBlockTableRecord
  2
G5
340
0
102
{BLKREFS
331
1B2
102
}
 70
     0
280
     1
281
     0
  0
BLOCK_RECORD
  5
1B3
330
1
100
AcDbSymbolTableRecord
100
AcDbBlockTableRecord
  2
G6
340
0
102
{BLKREFS
331
1BA
102
}
 70
     0
280
     1
281
     0
  0
BLOCK_RECORD
  5
1BB
330
1
100
AcDbSymbolTableRecord
100
AcDbBlockTableRecord
  2
G7
340
0
102
{BLKREFS
331
1C2
102
}
 70
     0
280
     1
281
     0
  0
BLOCK_RECORD
  5
1C3
330
1
100
AcDbSymbolTableRecord
100
AcDbBlockTableRecord
  2
G8
340
0
102
{BLKREFS
331
1CA
102
}
 70
     0
280
     1
281
     0
  0
BLOCK_RECORD
  5
1CB
330
1
100
AcDbSymbolTableRecord
100
AcDbBlockTableRecord
  2
G9
340
0
102
{BLKREFS
331
1D2
102
}
 70
     0
280
     1
281
     0
  0
BLOCK_RECORD
  5
1D3
330
1
100
AcDbSymbolTableRecord
100
AcDbBlockTableRecord
  2
G10
340
0
102
{BLKREFS
331
1DA
102
}
 70
     0
280
     1
281
     0
  0
BLOCK_RECORD
  5
1DB
330
1
100
AcDbSymbolTableRecord
100
AcDbBlockTableRecord
  2
G11
340
0
102
{BLKREFS
331
1E2
102
}
 70
     0
280
     1
281
     0
  0
BLOCK_RECORD
  5
1E3
330
1
100
AcDbSymbolTableRecord
100
AcDbBlockTableRecord
  2
G12
340
0
102
{BLKREFS
331
1EA
102
}
 70
     0
280
     1
281
     0
  0
BLOCK_RECORD
  5
1EB
330
1
100
AcDbSymbolTableRecord
100
AcDbBlockTableRecord
  2
G13
340
0
102
{BLKREFS
331
1F2
102
}
 70
     0
280
     1
281
     0
  0
BLOCK_RECORD
  5
1F3
330
1
100
AcDbSymbolTableRecord
100
AcDbBlockTableRecord
  2
G14
340
0
102
{BLKREFS
331
1FA
102
}
 70
     0
280
     1
281
     0
  0
BLOCK_RECORD
  5
1FB
330
1
100
AcDbSymbolTableRecord
100
AcDbBlockTableRecord
  2
G15
340
0
102
{BLKREFS
331
202
102
}
 70
     0
280
     1
281
     0
  0
BLOCK_RECORD
  5
203
330
1
100
AcDbSymbolTableRecord
100
AcDbBlockTableRecord
  2
G16
340
0
102
{BLKREFS
331
20A
102
}
 70
     0
280
     1
281
     0
  0
BLOCK_RECORD
  5
20B
330
1
100
AcDbSymbolTableRecord
100
AcDbBlockTableRecord
  2
G17
340
0
102
{BLKREFS
331
212
102
}
 70
     0
280
     1
281
     0
  0
BLOCK_RECORD
  5
213
330
1
100
AcDbSymbolTableRecord
100
AcDbBlockTableRecord
  2
G18
340
0
102
{BLKREFS
331
21A
102
}
 70
     0
280
     1
281
     0
  0
BLOCK_RECORD
  5
21B
330
1
100
AcDbSymbolTableRecord
100
AcDbBlockTableRecord
  2
G19
340
0
102
{BLKREFS
331
222
102
}
 70
     0
280
     1
281
     0
  0
BLOCK_RECORD
  5
223
330
1
100
AcDbSymbolTableRecord
100
AcDbBlockTableRecord
  2
G20
340
0
102
{BLKREFS
331
22A
102
}
 70
     0
280
     1
281
     0
  0
BLOCK_RECORD
  5
22B
330
1
100
AcDbSymbolTableRecord
100
AcDbBlockTableRecord
  2
G21
340
0
102
{BLKREFS
331
232
102
}
 70
     0
280
     1
281
     0
  0
BLOCK_RECORD
  5
233
330
1
100
AcDbSymbolTableRecord
100
AcDbBlockTableRecord
  2
G22
340
0
102
{BLKREFS
331
23A
102
}
 70
     0
280
     1
281
     0
  0
BLOCK_RECORD
  5
23B
330
1
100
AcDbSymbolTableRecord
100
AcDbBlockTableRecord
  2
G23
340
0
102
{BLKREFS
331
242
102
}
 70
     0
280
     1
281
     0
  0
BLOCK_RECORD
  5
243
330
1
100
AcDbSymbolTableRecord
100
AcDbBlockTableRecord
  2
G24
340
0
102
{BLKREFS
331
24A
102
}
 70
     0
280
     1
281
     0
  0
BLOCK_RECORD
  5
24B
330
1
100
AcDbSymbolTableRecord
100
AcDbBlockTableRecord
  2
G25
340
0
102
{BLKREFS
331
252
102
}
 70
     0
280
     1
281
     0
  0
BLOCK_RECORD
  5
253
330
1
100
AcDbSymbolTableRecord
100
AcDbBlockTableRecord
  2
G26
340
0
102
{BLKREFS
331
25A
102
}
 70
     0
280
     1
281
     0
  0
BLOCK_RECORD
  5
25B
330
1
100
AcDbSymbolTableRecord
100
AcDbBlockTableRecord
  2
G27
340
0
102
{BLKREFS
331
262
102
}
 70
     0
280
     1
281
     0
  0
BLOCK_RECORD
  5
263
330
1
100
AcDbSymbolTableRecord
100
AcDbBlockTableRecord
  2
G28
340
0
102
{BLKREFS
331
26A
102
}
 70
     0
280
     1
281
     0
  0
BLOCK_RECORD
  5
26B
330
1
100
AcDbSymbolTableRecord
100
AcDbBlockTableRecord
  2
G29
340
0
102
{BLKREFS
331
272
102
}
 70
     0
280
     1
281
     0
  0
BLOCK_RECORD
  5
273
330
1
100
AcDbSymbolTableRecord
100
AcDbBlockTableRecord
  2
G30
340
0
102
{BLKREFS
331
27A
102
}
 70
     0
280
     1
281
     0
  0
BLOCK_RECORD
  5
27B
330
1
100
AcDbSymbolTableRecord
100
AcDbBlockTableRecord
  2
G31
340
0
102
{BLKREFS
331
282
102
}
 70
     0
280
     1
281
     0
  0
BLOCK_RECORD
  5
283
330
1
100
AcDbSymbolTableRecord
100
AcDbBlockTableRecord
  2
G32
340
0
102
{BLKREFS
331
28A
102
}
 70
     0
280
     1
281
     0
  0
BLOCK_RECORD
  5
28B
330
1
100
AcDbSymbolTableRecord
100
AcDbBlockTableRecord
  2
G33
340
0
102
{BLKREFS
331
292
102
}
 70
     0
280
     1
281
     0
  0
BLOCK_RECORD
  5
293
330
1
100
AcDbSymbolTableRecord
100
AcDbBlockTableRecord
  2
G34
340
0
102
{BLKREFS
331
29A
102
}
 70
     0
280
     1
281
     0
  0
BLOCK_RECORD
  5
29B
330
1
100
AcDbSymbolTableRecord
100
AcDbBlockTableRecord
  2
G35
340
0
102
{BLKREFS
331
2A2
102
}
 70
     0
280
     1
281
     0
  0
BLOCK_RECORD
  5
2A3
330
1
100
AcDbSymbolTableRecord
100
AcDbBlockTableRecord
  2
G36
340
0
102
{BLKREFS
331
2AA
102
}
 70
     0
280
     1
281
     0
  0
BLOCK_RECORD
  5
2AB
330
1
100
AcDbSymbolTableRecord
100
AcDbBlockTableRecord
  2
G37
340
0
102
{BLKREFS
331
2B2
102
}
 70
     0
280
     1
281
     0
  0
BLOCK_RECORD
  5
2B3
330
1
100
AcDbSymbolTableRecord
100
AcDbBlockTableRecord
  2
G38
340
0
102
{BLKREFS
331
2BA
102
}
 70
     0
280
     1
281
     0
  0
BLOCK_RECORD
  5
2BB
330
1
100
AcDbSymbolTableRecord
100
AcDbBlockTableRecord
  2
G39
340
0
102
{BLKREFS
331
2C2
102
}
 70
     0
280
     1
281
     0
  0
BLOCK_RECORD
  5
2C3
330
1
100
AcDbSymbolTableRecord
100
AcDbBlockTableRecord
  2
G40
340
0
102
{BLKREFS
331
2CA
102
}
 70
     0
280
     1
281
     0
  0
BLOCK_RECORD
  5
2CB
330
1
100
AcDbSymbolTableRecord
100
AcDbBlockTableRecord
  2
G41
340
0
102
{BLKREFS
331
2D2
102
}
 70
     0
280
     1
281
     0
  0
BLOCK_RECORD
  5
2D3
330
1
100
AcDbSymbolTableRecord
100
AcDbBlockTableRecord
  2
G42
340
0
102
{BLKREFS
331
2DA
102
}
 70
     0
280
     1
281
     0
  0
BLOCK_RECORD
  5
2DB
330
1
100
AcDbSymbolTableRecord
100
AcDbBlockTableRecord
  2
G43
340
0
102
{BLKREFS
331
2E2
102
}
 70
     0
280
     1
281
     0
  0
BLOCK_RECORD
  5
2E3
330
1
100
AcDbSymbolTableRecord
100
AcDbBlockTableRecord
  2
G44
340
0
102
{BLKREFS
331
2EA
102
}
 70
     0
280
     1
281
     0
  0
BLOCK_RECORD
  5
2EB
330
1
100
AcDbSymbolTableRecord
100
AcDbBlockTableRecord
  2
G45
340
0
102
{BLKREFS
331
2F2
102
}
 70
     0
280
     1
281
     0
  0
BLOCK_RECORD
  5
2F3
330
1
100
AcDbSymbolTableRecord
100
AcDbBlockTableRecord
  2
G46
340
0
102
{BLKREFS
331
2FA
102
}
 70
     0
280
     1
281
     0
  0
BLOCK_RECORD
  5
2FD
330
1
100
AcDbSymbolTableRecord
100
AcDbBlockTableRecord
  2
G47
340
0
102
{BLKREFS
331
308
102
}
 70
     0
280
     1
281
     0
  0
BLOCK_RECORD
  5
309
330
1
100
AcDbSymbolTableRecord
100
AcDbBlockTableRecord
  2
G48
340
0
102
{BLKREFS
331
314
102
}
 70
     0
280
     1
281
     0
  0
BLOCK_RECORD
  5
31B
330
1
100
AcDbSymbolTableRecord
100
AcDbBlockTableRecord
  2
Dim1
340
0
 70
     0
280
     1
281
     0
  0
BLOCK_RECORD
  5
325
330
1
100
AcDbSymbolTableRecord
100
AcDbBlockTableRecord
  2
Dim2
340
0
 70
     0
280
     1
281
     0
  0
BLOCK_RECORD
  5
32F
330
1
100
AcDbSymbolTableRecord
100
AcDbBlockTableRecord
  2
Dim3
340
0
 70
     0
280
     1
281
     0
  0
BLOCK_RECORD
  5
339
330
1
100
AcDbSymbolTableRecord
100
AcDbBlockTableRecord
  2
Dim4
340
0
 70
     0
280
     1
281
     0
  0
BLOCK_RECORD
  5
343
330
1
100
AcDbSymbolTableRecord
100
AcDbBlockTableRecord
  2
Dim5
340
0
 70
     0
280
     1
281
     0
  0
BLOCK_RECORD
  5
37D
330
1
100
AcDbSymbolTableRecord
100
AcDbBlockTableRecord
  2
Dim6
340
0
 70
     0
280
     1
281
     0
  0
BLOCK_RECORD
  5
387
330
1
100
AcDbSymbolTableRecord
100
AcDbBlockTableRecord
  2
G49
340
0
102
{BLKREFS
331
38E
102
}
 70
     0
280
     1
281
     0
  0
BLOCK_RECORD
  5
38F
330
1
100
AcDbSymbolTableRecord
100
AcDbBlockTableRecord
  2
G50
340
0
102
{BLKREFS
331
396
102
}
 70
     0
280
     1
281
     0
  0
BLOCK_RECORD
  5
397
330
1
100
AcDbSymbolTableRecord
100
AcDbBlockTableRecord
  2
G51
340
0
102
{BLKREFS
331
39E
102
}
 70
     0
280
     1
281
     0
  0
BLOCK_RECORD
  5
39F
330
1
100
AcDbSymbolTableRecord
100
AcDbBlockTableRecord
  2
G52
340
0
102
{BLKREFS
331
3A6
102
}
 70
     0
280
     1
281
     0
  0
BLOCK_RECORD
  5
3A7
330
1
100
AcDbSymbolTableRecord
100
AcDbBlockTableRecord
  2
G53
340
0
102
{BLKREFS
331
3AE
102
}
 70
     0
280
     1
281
     0
  0
BLOCK_RECORD
  5
3AF
330
1
100
AcDbSymbolTableRecord
100
AcDbBlockTableRecord
  2
G54
340
0
102
{BLKREFS
331
3B6
102
}
 70
     0
280
     1
281
     0
  0
BLOCK_RECORD
  5
3B7
330
1
100
AcDbSymbolTableRecord
100
AcDbBlockTableRecord
  2
G55
340
0
102
{BLKREFS
331
3BE
102
}
 70
     0
280
     1
281
     0
  0
BLOCK_RECORD
  5
3BF
330
1
100
AcDbSymbolTableRecord
100
AcDbBlockTableRecord
  2
G56
340
0
102
{BLKREFS
331
3C6
102
}
 70
     0
280
     1
281
     0
  0
BLOCK_RECORD
  5
3C7
330
1
100
AcDbSymbolTableRecord
100
AcDbBlockTableRecord
  2
G57
340
0
102
{BLKREFS
331
3D0
102
}
 70
     0
280
     1
281
     0
  0
BLOCK_RECORD
  5
3D1
330
1
100
AcDbSymbolTableRecord
100
AcDbBlockTableRecord
  2
G58
340
0
102
{BLKREFS
331
3DA
102
}
 70
     0
280
     1
281
     0
  0
BLOCK_RECORD
  5
3DB
330
1
100
AcDbSymbolTableRecord
100
AcDbBlockTableRecord
  2
Dim7
340
0
 70
     0
280
     1
281
     0
  0
BLOCK_RECORD
  5
3E5
330
1
100
AcDbSymbolTableRecord
100
AcDbBlockTableRecord
  2
Dim8
340
0
 70
     0
280
     1
281
     0
  0
BLOCK_RECORD
  5
3F9
330
1
100
AcDbSymbolTableRecord
100
AcDbBlockTableRecord
  2
G59
340
0
102
{BLKREFS
331
400
102
}
 70
     0
280
     1
281
     0
  0
BLOCK_RECORD
  5
401
330
1
100
AcDbSymbolTableRecord
100
AcDbBlockTableRecord
  2
G60
340
0
102
{BLKREFS
331
408
102
}
 70
     0
280
     1
281
     0
  0
BLOCK_RECORD
  5
409
330
1
100
AcDbSymbolTableRecord
100
AcDbBlockTableRecord
  2
G61
340
0
102
{BLKREFS
331
410
102
}
 70
     0
280
     1
281
     0
  0
BLOCK_RECORD
  5
411
330
1
100
AcDbSymbolTableRecord
100
AcDbBlockTableRecord
  2
G62
340
0
102
{BLKREFS
331
418
102
}
 70
     0
280
     1
281
     0
  0
BLOCK_RECORD
  5
419
330
1
100
AcDbSymbolTableRecord
100
AcDbBlockTableRecord
  2
G63
340
0
102
{BLKREFS
331
420
102
}
 70
     0
280
     1
281
     0
  0
BLOCK_RECORD
  5
444
330
1
100
AcDbSymbolTableRecord
100
AcDbBlockTableRecord
  2
G64
340
0
102
{BLKREFS
331
44D
102
}
 70
     0
280
     1
281
     0
  0
BLOCK_RECORD
  5
467
330
1
100
AcDbSymbolTableRecord
100
AcDbBlockTableRecord
  2
Dim9
340
0
 70
     0
280
     1
281
     0
  0
BLOCK_RECORD
  5
478
330
1
100
AcDbSymbolTableRecord
100
AcDbBlockTableRecord
  2
G65
340
0
102
{BLKREFS
331
47F
102
}
 70
     0
280
     1
281
     0
  0
BLOCK_RECORD
  5
480
330
1
100
AcDbSymbolTableRecord
100
AcDbBlockTableRecord
  2
G66
340
0
102
{BLKREFS
331
487
102
}
 70
     0
280
     1
281
     0
  0
BLOCK_RECORD
  5
488
330
1
100
AcDbSymbolTableRecord
100
AcDbBlockTableRecord
  2
G67
340
0
102
{BLKREFS
331
48F
102
}
 70
     0
280
     1
281
     0
  0
BLOCK_RECORD
  5
490
330
1
100
AcDbSymbolTableRecord
100
AcDbBlockTableRecord
  2
G68
340
0
102
{BLKREFS
331
497
102
}
 70
     0
280
     1
281
     0
  0
BLOCK_RECORD
  5
498
330
1
100
AcDbSymbolTableRecord
100
AcDbBlockTableRecord
  2
G69
340
0
102
{BLKREFS
331
49F
102
}
 70
     0
280
     1
281
     0
  0
BLOCK_RECORD
  5
4A0
330
1
100
AcDbSymbolTableRecord
100
AcDbBlockTableRecord
  2
G70
340
0
102
{BLKREFS
331
4A7
102
}
 70
     0
280
     1
281
     0
  0
BLOCK_RECORD
  5
4A8
330
1
100
AcDbSymbolTableRecord
100
AcDbBlockTableRecord
  2
G71
340
0
102
{BLKREFS
331
4AF
102
}
 70
     0
280
     1
281
     0
  0
BLOCK_RECORD
  5
4B0
330
1
100
AcDbSymbolTableRecord
100
AcDbBlockTableRecord
  2
G72
340
0
102
{BLKREFS
331
4B9
102
}
 70
     0
280
     1
281
     0
  0
BLOCK_RECORD
  5
4BA
330
1
100
AcDbSymbolTableRecord
100
AcDbBlockTableRecord
  2
G73
340
0
102
{BLKREFS
331
4C3
102
}
 70
     0
280
     1
281
     0
  0
BLOCK_RECORD
  5
4C4
330
1
100
AcDbSymbolTableRecord
100
AcDbBlockTableRecord
  2
G74
340
0
102
{BLKREFS
331
4CD
102
}
 70
     0
280
     1
281
     0
  0
BLOCK_RECORD
  5
4DB
330
1
100
AcDbSymbolTableRecord
100
AcDbBlockTableRecord
  2
G75
340
0
102
{BLKREFS
331
4E2
102
}
 70
     0
280
     1
281
     0
  0
BLOCK_RECORD
  5
4E3
330
1
100
AcDbSymbolTableRecord
100
AcDbBlockTableRecord
  2
G76
340
0
102
{BLKREFS
331
4EA
102
}
 70
     0
280
     1
281
     0
  0
BLOCK_RECORD
  5
4EB
330
1
100
AcDbSymbolTableRecord
100
AcDbBlockTableRecord
  2
G77
340
0
102
{BLKREFS
331
4F2
102
}
 70
     0
280
     1
281
     0
  0
BLOCK_RECORD
  5
4F3
330
1
100
AcDbSymbolTableRecord
100
AcDbBlockTableRecord
  2
G78
340
0
102
{BLKREFS
331
4FA
102
}
 70
     0
280
     1
281
     0
  0
BLOCK_RECORD
  5
4FB
330
1
100
AcDbSymbolTableRecord
100
AcDbBlockTableRecord
  2
G79
340
0
102
{BLKREFS
331
502
102
}
 70
     0
280
     1
281
     0
  0
BLOCK_RECORD
  5
503
330
1
100
AcDbSymbolTableRecord
100
AcDbBlockTableRecord
  2
G80
340
0
102
{BLKREFS
331
50A
102
}
 70
     0
280
     1
281
     0
  0
BLOCK_RECORD
  5
519
330
1
100
AcDbSymbolTableRecord
100
AcDbBlockTableRecord
  2
G81
340
0
102
{BLKREFS
331
522
102
}
 70
     0
280
     1
281
     0
  0
BLOCK_RECORD
  5
523
330
1
100
AcDbSymbolTableRecord
100
AcDbBlockTableRecord
  2
G82
340
0
102
{BLKREFS
331
52C
102
}
 70
     0
280
     1
281
     0
  0
BLOCK_RECORD
  5
52D
330
1
100
AcDbSymbolTableRecord
100
AcDbBlockTableRecord
  2
G83
340
0
102
{BLKREFS
331
536
102
}
 70
     0
280
     1
281
     0
  0
BLOCK_RECORD
  5
537
330
1
100
AcDbSymbolTableRecord
100
AcDbBlockTableRecord
  2
G84
340
0
102
{BLKREFS
331
540
102
}
 70
     0
280
     1
281
     0
  0
BLOCK_RECORD
  5
541
330
1
100
AcDbSymbolTableRecord
100
AcDbBlockTableRecord
  2
G85
340
0
102
{BLKREFS
331
54A
102
}
 70
     0
280
     1
281
     0
  0
BLOCK_RECORD
  5
54B
330
1
100
AcDbSymbolTableRecord
100
AcDbBlockTableRecord
  2
G86
340
0
102
{BLKREFS
331
554
102
}
 70
     0
280
     1
281
     0
  0
BLOCK_RECORD
  5
559
330
1
100
AcDbSymbolTableRecord
100
AcDbBlockTableRecord
  2
Dim10
340
0
 70
     0
280
     1
281
     0
  0
ENDTAB
  0
ENDSEC
  0
SECTION
  2
BLOCKS
  0
BLOCK
  5
20
330
1F
100
AcDbEntity
  8
0
100
AcDbBlockBegin
  2
*Model_Space
 70
     0
 10
0.0
 20
0.0
 30
0.0
  3
*Model_Space
  1

  0
ENDBLK
  5
21
330
1F
100
AcDbEntity
  8
0
100
AcDbBlockEnd
  0
BLOCK
  5
1C
330
1B
100
AcDbEntity
 67
     1
  8
0
100
AcDbBlockBegin
  2
*Paper_Space
 70
     0
 10
0.0
 20
0.0
 30
0.0
  3
*Paper_Space
  1

  0
ENDBLK
  5
1D
330
1B
100
AcDbEntity
 67
     1
  8
0
100
AcDbBlockEnd
  0
BLOCK
  5
24
330
23
100
AcDbEntity
  8
0
100
AcDbBlockBegin
  2
*Paper_Space0
 70
     0
 10
0.0
 20
0.0
 30
0.0
  3
*Paper_Space0
  1

  0
ENDBLK
  5
25
330
23
100
AcDbEntity
  8
0
100
AcDbBlockEnd
  0
BLOCK
  5
73
330
70
100
AcDbEntity
  8
0
100
AcDbBlockBegin
  2
_ORIGIN
 70
     0
 10
0.0
 20
0.0
 30
0.0
  3
_ORIGIN
  1

  0
CIRCLE
  5
71
330
70
100
AcDbEntity
  8
0
 62
     0
100
AcDbCircle
 10
0.0
 20
0.0
 30
0.0
 40
0.5
  0
LINE
  5
72
330
70
100
AcDbEntity
  8
0
 62
     0
100
AcDbLine
 10
0.0
 20
0.0
 30
0.0
 11
-1.0
 21
0.0
 31
0.0
  0
ENDBLK
  5
74
330
70
100
AcDbEntity
  8
0
100
AcDbBlockEnd
  0
BLOCK
  5
78
330
75
100
AcDbEntity
  8
0
100
AcDbBlockBegin
  2
_DOTBLANK
 70
     0
 10
0.0
 20
0.0
 30
0.0
  3
_DOTBLANK
  1

  0
CIRCLE
  5
76
330
75
100
AcDbEntity
  8
0
 62
     0
100
AcDbCircle
 10
0.0
 20
0.0
 30
0.0
 40
0.5
  0
LINE
  5
77
330
75
100
AcDbEntity
  8
0
 62
     0
100
AcDbLine
 10
-0.5
 20
0.0
 30
0.0
 11
-1.0
 21
0.0
 31
0.0
  0
ENDBLK
  5
79
330
75
100
AcDbEntity
  8
0
100
AcDbBlockEnd
  0
BLOCK
  5
7D
330
7A
100
AcDbEntity
  8
0
100
AcDbBlockBegin
  2
_DOT
 70
     0
 10
0.0
 20
0.0
 30
0.0
  3
_DOT
  1

  0
LWPOLYLINE
  5
7B
330
7A
100
AcDbEntity
  8
0
 62
     0
100
AcDbPolyline
 90
        2
 70
     1
 43
0.5
 10
-0.25
 20
0.0
 42
1.0
 10
0.25
 20
0.0
 42
1.0
  0
LINE
  5
7C
330
7A
100
AcDbEntity
  8
0
 62
     0
100
AcDbLine
 10
-0.5
 20
0.0
 30
0.0
 11
-1.0
 21
0.0
 31
0.0
  0
ENDBLK
  5
7E
330
7A
100
AcDbEntity
  8
0
100
AcDbBlockEnd
  0
BLOCK
  5
83
330
7F
100
AcDbEntity
  8
0
100
AcDbBlockBegin
  2
_OPEN
 70
     0
 10
0.0
 20
0.0
 30
0.0
  3
_OPEN
  1

  0
LINE
  5
80
330
7F
100
AcDbEntity
  8
0
 62
     0
100
AcDbLine
 10
0.0
 20
0.0
 30
0.0
 11
-1.0
 21
0.1666666666666667
 31
0.0
  0
LINE
  5
81
330
7F
100
AcDbEntity
  8
0
 62
     0
100
AcDbLine
 10
0.0
 20
0.0
 30
0.0
 11
-1.0
 21
-0.1666666666666667
 31
0.0
  0
LINE
  5
82
330
7F
100
AcDbEntity
  8
0
 62
     0
100
AcDbLine
 10
0.0
 20
0.0
 30
0.0
 11
-1.0
 21
0.0
 31
0.0
  0
ENDBLK
  5
84
330
7F
100
AcDbEntity
  8
0
100
AcDbBlockEnd
  0
BLOCK
  5
8A
330
85
100
AcDbEntity
  8
0
100
AcDbBlockBegin
  2
_CLOSED
 70
     0
 10
0.0
 20
0.0
 30
0.0
  3
_CLOSED
  1

  0
LINE
  5
86
330
85
100
AcDbEntity
  8
0
 62
     0
100
AcDbLine
 10
0.0
 20
0.0
 30
0.0
 11
-1.0
 21
0.1666666666666667
 31
0.0
  0
LINE
  5
87
330
85
100
AcDbEntity
  8
0
 62
     0
100
AcDbLine
 10
0.0
 20
0.0
 30
0.0
 11
-1.0
 21
-0.1666666666666667
 31
0.0
  0
LINE
  5
88
330
85
100
AcDbEntity
  8
0
 62
     0
100
AcDbLine
 10
-1.0
 20
0.1666666666666667
 30
0.0
 11
-1.0
 21
-0.1666666666666667
 31
0.0
  0
LINE
  5
89
330
85
100
AcDbEntity
  8
0
 62
     0
100
AcDbLine
 10
0.0
 20
0.0
 30
0.0
 11
-1.0
 21
0.0
 31
0.0
  0
ENDBLK
  5
8B
330
85
100
AcDbEntity
  8
0
100
AcDbBlockEnd
  0
BLOCK
  5
90
330
8C
100
AcDbEntity
  8
0
100
AcDbBlockBegin
  2
_CLOSEDBLANK
 70
     0
 10
0.0
 20
0.0
 30
0.0
  3
_CLOSEDBLANK
  1

  0
LINE
  5
8D
330
8C
100
AcDbEntity
  8
0
 62
     0
100
AcDbLine
 10
0.0
 20
0.0
 30
0.0
 11
-1.0
 21
0.1666666666666667
 31
0.0
  0
LINE
  5
8E
330
8C
100
AcDbEntity
  8
0
 62
     0
100
AcDbLine
 10
0.0
 20
0.0
 30
0.0
 11
-1.0
 21
-0.1666666666666667
 31
0.0
  0
LINE
  5
8F
330
8C
100
AcDbEntity
  8
0
 62
     0
100
AcDbLine
 10
-1.0
 20
0.1666666666666667
 30
0.0
 11
-1.0
 21
-0.1666666666666667
 31
0.0
  0
ENDBLK
  5
91
330
8C
100
AcDbEntity
  8
0
100
AcDbBlockEnd
  0
BLOCK
  5
94
330
92
100
AcDbEntity
  8
0
100
AcDbBlockBegin
  2
_ARROWFILLED
 70
     0
 10
0.0
 20
0.0
 30
0.0
  3
_ARROWFILLED
  1

  0
SOLID
  5
93
330
92
100
AcDbEntity
  8
0
 62
     0
100
AcDbTrace
 10
0.0
 20
0.0
 30
0.0
 11
-1.0
 21
-0.1666666666666667
 31
0.0
 12
-1.0
 22
0.1666666666666667
 32
0.0
 13
0.0
 23
0.0
 33
0.0
  0
ENDBLK
  5
95
330
92
100
AcDbEntity
  8
0
100
AcDbBlockEnd
  0
BLOCK
  5
9C
330
96
100
AcDbEntity
  8
0
100
AcDbBlockBegin
  2
_BOXBLANK
 70
     0
 10
0.0
 20
0.0
 30
0.0
  3
_BOXBLANK
  1

  0
LINE
  5
97
330
96
100
AcDbEntity
  8
0
 62
     0
100
AcDbLine
 10
-0.5
 20
-0.5
 30
0.0
 11
0.5
 21
-0.5
 31
0.0
  0
LINE
  5
98
330
96
100
AcDbEntity
  8
0
 62
     0
100
AcDbLine
 10
0.5
 20
-0.5
 30
0.0
 11
0.5
 21
0.5
 31
0.0
  0
LINE
  5
99
330
96
100
AcDbEntity
  8
0
 62
     0
100
AcDbLine
 10
0.5
 20
0.5
 30
0.0
 11
-0.5
 21
0.5
 31
0.0
  0
LINE
  5
9A
330
96
100
AcDbEntity
  8
0
 62
     0
100
AcDbLine
 10
-0.5
 20
0.5
 30
0.0
 11
-0.5
 21
-0.5
 31
0.0
  0
LINE
  5
9B
330
96
100
AcDbEntity
  8
0
 62
     0
100
AcDbLine
 10
-0.5
 20
0.0
 30
0.0
 11
-1.0
 21
0.0
 31
0.0
  0
ENDBLK
  5
9D
330
96
100
AcDbEntity
  8
0
100
AcDbBlockEnd
  0
BLOCK
  5
A1
330
9E
100
AcDbEntity
  8
0
100
AcDbBlockBegin
  2
_BOXFILLED
 70
     0
 10
0.0
 20
0.0
 30
0.0
  3
_BOXFILLED
  1

  0
SOLID
  5
9F
330
9E
100
AcDbEntity
  8
0
 62
     0
100
AcDbTrace
 10
-0.5
 20
0.5
 30
0.0
 11
0.5
 21
0.5
 31
0.0
 12
-0.5
 22
-0.5
 32
0.0
 13
0.5
 23
-0.5
 33
0.0
  0
LINE
  5
A0
330
9E
100
AcDbEntity
  8
0
 62
     0
100
AcDbLine
 10
-0.5
 20
0.0
 30
0.0
 11
-1.0
 21
0.0
 31
0.0
  0
ENDBLK
  5
A2
330
9E
100
AcDbEntity
  8
0
100
AcDbBlockEnd
  0
BLOCK
  5
A6
330
A3
100
AcDbEntity
  8
0
100
AcDbBlockBegin
  2
_INTEGRAL
 70
     0
 10
0.0
 20
0.0
 30
0.0
  3
_INTEGRAL
  1

  0
ARC
  5
A4
330
A3
100
AcDbEntity
  8
0
 62
     0
100
AcDbCircle
 10
0.444888
 20
-0.0913346
 30
0.0
 40
0.4541666
100
AcDbArc
 50
101.9999999999999
 51
167.9999999999998
  0
ARC
  5
A5
330
A3
100
AcDbEntity
  8
0
 62
     0
100
AcDbCircle
 10
-0.444888
 20
0.0913346
 30
0.0
 40
0.4541666
100
AcDbArc
 50
281.9999999999997
 51
347.9999999999997
  0
ENDBLK
  5
A7
330
A3
100
AcDbEntity
  8
0
100
AcDbBlockEnd
  0
BLOCK
  5
AA
330
A8
100
AcDbEntity
  8
0
100
AcDbBlockBegin
  2
_OBLIQUE
 70
     0
 10
0.0
 20
0.0
 30
0.0
  3
_OBLIQUE
  1

  0
LINE
  5
A9
330
A8
100
AcDbEntity
  8
0
 62
     0
100
AcDbLine
 10
-0.5
 20
-0.5
 30
0.0
 11
0.5
 21
0.5
 31
0.0
  0
ENDBLK
  5
AB
330
A8
100
AcDbEntity
  8
0
100
AcDbBlockEnd
  0
BLOCK
  5
AD
330
AC
100
AcDbEntity
  8
0
100
AcDbBlockBegin
  2
_NONE
 70
     0
 10
0.0
 20
0.0
 30
0.0
  3
_NONE
  1

  0
ENDBLK
  5
AE
330
AC
100
AcDbEntity
  8
0
100
AcDbBlockEnd
  0
BLOCK
  5
B2
330
AF
100
AcDbEntity
  8
0
100
AcDbBlockBegin
  2
MARK_OPEN
 70
     0
 10
0.0
 20
0.0
 30
0.0
  3
MARK_OPEN
  1

  0
LINE
  5
B0
330
AF
100
AcDbEntity
  8
0
 62
     0
100
AcDbLine
 10
0.0
 20
0.0
 30
0.0
 11
-1.0
 21
0.1666666666666667
 31
0.0
  0
LINE
  5
B1
330
AF
100
AcDbEntity
  8
0
 62
     0
100
AcDbLine
 10
0.0
 20
0.0
 30
0.0
 11
-1.0
 21
-0.1666666666666667
 31
0.0
  0
ENDBLK
  5
B3
330
AF
100
AcDbEntity
  8
0
100
AcDbBlockEnd
  0
BLOCK
  5
B6
330
B4
100
AcDbEntity
  8
0
100
AcDbBlockBegin
  2
MARK_ORIGIN
 70
     0
 10
0.0
 20
0.0
 30
0.0
  3
MARK_ORIGIN
  1

  0
CIRCLE
  5
B5
330
B4
100
AcDbEntity
  8
0
 62
     0
100
AcDbCircle
 10
0.0
 20
0.0
 30
0.0
 40
0.5
  0
ENDBLK
  5
B7
330
B4
100
AcDbEntity
  8
0
100
AcDbBlockEnd
  0
BLOCK
  5
BA
330
B8
100
AcDbEntity
  8
0
100
AcDbBlockBegin
  2
MARK_DOT
 70
     0
 10
0.0
 20
0.0
 30
0.0
  3
MARK_DOT
  1

  0
LWPOLYLINE
  5
B9
330
B8
100
AcDbEntity
  8
0
 62
     0
100
AcDbPolyline
 90
        2
 70
     1
 43
0.5
 10
-0.25
 20
0.0
 42
1.0
 10
0.25
 20
0.0
 42
1.0
  0
ENDBLK
  5
BB
330
B8
100
AcDbEntity
  8
0
100
AcDbBlockEnd
  0
BLOCK
  5
114
330
113
100
AcDbEntity
  8
0
100
AcDbBlockBegin
  2
G1
 70
     0
 10
0.0
 20
0.0
 30
0.0
  3
G1
  1

  0
LINE
  5
116
330
113
100
AcDbEntity
  8
15
  6
Continuous
 62
    98
420
    20480
370
     9
100
AcDbLine
 10
320.0046747756101
 20
28.68585124761804
 30
0.0
 11
320.2628349117595
 21
28.68585126723716
 31
0.0
  0
ENDBLK
  5
115
330
113
100
AcDbEntity
  8
0
100
AcDbBlockEnd
  0
BLOCK
  5
180
330
17F
100
AcDbEntity
  8
0
100
AcDbBlockBegin
  2
G2
 70
     0
 10
0.0
 20
0.0
 30
0.0
  3
G2
  1

  0
ARC
  5
182
330
17F
100
AcDbEntity
  8
1
  6
Continuous
 62
     7
370
     9
100
AcDbCircle
 10
178.7288915477571
 20
202.0285794899739
 30
0.0
 40
2.0
100
AcDbArc
 50
89.99999999999991
 51
179.9999999999998
  0
ARC
  5
183
330
17F
100
AcDbEntity
  8
1
  6
Continuous
 62
     7
370
     9
100
AcDbCircle
 10
178.7288915477571
 20
202.0285794899739
 30
0.0
 40
2.0
100
AcDbArc
 50
0.0
 51
89.99999999999991
  0
LINE
  5
184
330
17F
100
AcDbEntity
  8
1
  6
Continuous
 62
     7
370
     9
100
AcDbLine
 10
180.7288915477571
 20
202.0285794899739
 30
0.0
 11
180.7288915477571
 21
190.0285794899739
 31
0.0
  0
ARC
  5
185
330
17F
100
AcDbEntity
  8
1
  6
Continuous
 62
     7
370
     9
100
AcDbCircle
 10
178.7288915477571
 20
190.0285794899739
 30
0.0
 40
2.0
100
AcDbArc
 50
269.9999999999998
 51
0.0
  0
LINE
  5
186
330
17F
100
AcDbEntity
  8
1
  6
Continuous
 62
     7
370
     9
100
AcDbLine
 10
176.7288915477571
 20
190.0285794899739
 30
0.0
 11
176.7288915477571
 21
202.0285794899739
 31
0.0
  0
ARC
  5
187
330
17F
100
AcDbEntity
  8
1
  6
Continuous
 62
     7
370
     9
100
AcDbCircle
 10
178.7288915477571
 20
190.0285794899739
 30
0.0
 40
2.0
100
AcDbArc
 50
179.9999999999998
 51
269.9999999999998
  0
ENDBLK
  5
181
330
17F
100
AcDbEntity
  8
0
100
AcDbBlockEnd
  0
BLOCK
  5
18A
330
189
100
AcDbEntity
  8
0
100
AcDbBlockBegin
  2
G3
 70
     0
 10
0.0
 20
0.0
 30
0.0
  3
G3
  1

  0
ARC
  5
18C
330
189
100
AcDbEntity
  8
1
  6
Continuous
 62
     7
370
     9
100
AcDbCircle
 10
88.7288915477572
 20
202.0285794899739
 30
0.0
 40
2.0
100
AcDbArc
 50
89.99999999999991
 51
179.9999999999992
  0
ARC
  5
18D
330
189
100
AcDbEntity
  8
1
  6
Continuous
 62
     7
370
     9
100
AcDbCircle
 10
88.7288915477572
 20
202.0285794899739
 30
0.0
 40
2.0
100
AcDbArc
 50
0.0000000000008142
 51
89.99999999999991
  0
LINE
  5
18E
330
189
100
AcDbEntity
  8
1
  6
Continuous
 62
     7
370
     9
100
AcDbLine
 10
86.7288915477572
 20
190.028579489974
 30
0.0
 11
86.7288915477572
 21
202.028579489974
 31
0.0
  0
ARC
  5
18F
330
189
100
AcDbEntity
  8
1
  6
Continuous
 62
     7
370
     9
100
AcDbCircle
 10
88.7288915477572
 20
190.0285794899739
 30
0.0
 40
2.0
100
AcDbArc
 50
179.9999999999992
 51
269.9999999999998
  0
LINE
  5
190
330
189
100
AcDbEntity
  8
1
  6
Continuous
 62
     7
370
     9
100
AcDbLine
 10
90.7288915477572
 20
202.028579489974
 30
0.0
 11
90.7288915477572
 21
190.028579489974
 31
0.0
  0
ARC
  5
191
330
189
100
AcDbEntity
  8
1
  6
Continuous
 62
     7
370
     9
100
AcDbCircle
 10
88.7288915477572
 20
190.0285794899739
 30
0.0
 40
2.0
100
AcDbArc
 50
269.9999999999998
 51
0.0000000000008142
  0
ENDBLK
  5
18B
330
189
100
AcDbEntity
  8
0
100
AcDbBlockEnd
  0
BLOCK
  5
1A4
330
1A3
100
AcDbEntity
  8
0
100
AcDbBlockBegin
  2
G4
 70
     0
 10
0.0
 20
0.0
 30
0.0
  3
G4
  1

  0
LINE
  5
1A6
330
1A3
100
AcDbEntity
  8
1
  6
Continuous
 62
     7
370
     9
100
AcDbLine
 10
143.3038915477571
 20
188.3285794899739
 30
0.0
 11
142.6538915477571
 21
188.3285794899739
 31
0.0
  0
LINE
  5
1A7
330
1A3
100
AcDbEntity
  8
1
  6
Continuous
 62
     7
370
     9
100
AcDbLine
 10
142.6538915477571
 20
188.3285794899739
 30
0.0
 11
142.6538915477571
 21
189.0285794899739
 31
0.0
  0
LINE
  5
1A8
330
1A3
100
AcDbEntity
  8
1
  6
Continuous
 62
     7
370
     9
100
AcDbLine
 10
142.6538915477571
 20
189.0285794899739
 30
0.0
 11
143.3038915477571
 21
189.0285794899739
 31
0.0
  0
LINE
  5
1A9
330
1A3
100
AcDbEntity
  8
1
  6
Continuous
 62
     7
370
     9
100
AcDbLine
 10
143.3038915477571
 20
189.0285794899739
 30
0.0
 11
143.3038915477571
 21
188.3285794899739
 31
0.0
  0
ENDBLK
  5
1A5
330
1A3
100
AcDbEntity
  8
0
100
AcDbBlockEnd
  0
BLOCK
  5
1AC
330
1AB
100
AcDbEntity
  8
0
100
AcDbBlockBegin
  2
G5
 70
     0
 10
0.0
 20
0.0
 30
0.0
  3
G5
  1

  0
LINE
  5
1AE
330
1AB
100
AcDbEntity
  8
1
  6
Continuous
 62
     7
370
     9
100
AcDbLine
 10
142.3288915477571
 20
188.0285794899739
 30
0.0
 11
143.6288915477571
 21
188.0285794899739
 31
0.0
  0
LINE
  5
1AF
330
1AB
100
AcDbEntity
  8
1
  6
Continuous
 62
     7
370
     9
100
AcDbLine
 10
143.6288915477571
 20
188.0285794899739
 30
0.0
 11
143.6288915477571
 21
188.3285794899739
 31
0.0
  0
LINE
  5
1B0
330
1AB
100
AcDbEntity
  8
1
  6
Continuous
 62
     7
370
     9
100
AcDbLine
 10
143.6288915477571
 20
188.3285794899739
 30
0.0
 11
142.3288915477571
 21
188.3285794899739
 31
0.0
  0
LINE
  5
1B1
330
1AB
100
AcDbEntity
  8
1
  6
Continuous
 62
     7
370
     9
100
AcDbLine
 10
142.3288915477571
 20
188.3285794899739
 30
0.0
 11
142.3288915477571
 21
188.0285794899739
 31
0.0
  0
ENDBLK
  5
1AD
330
1AB
100
AcDbEntity
  8
0
100
AcDbBlockEnd
  0
BLOCK
  5
1B4
330
1B3
100
AcDbEntity
  8
0
100
AcDbBlockBegin
  2
G6
 70
     0
 10
0.0
 20
0.0
 30
0.0
  3
G6
  1

  0
LINE
  5
1B6
330
1B3
100
AcDbEntity
  8
1
  6
Continuous
 62
     7
370
     9
100
AcDbLine
 10
140.8038915477571
 20
188.3285794899739
 30
0.0
 11
140.1538915477571
 21
188.3285794899739
 31
0.0
  0
LINE
  5
1B7
330
1B3
100
AcDbEntity
  8
1
  6
Continuous
 62
     7
370
     9
100
AcDbLine
 10
140.1538915477571
 20
188.3285794899739
 30
0.0
 11
140.1538915477571
 21
189.0285794899739
 31
0.0
  0
LINE
  5
1B8
330
1B3
100
AcDbEntity
  8
1
  6
Continuous
 62
     7
370
     9
100
AcDbLine
 10
140.1538915477571
 20
189.0285794899739
 30
0.0
 11
140.8038915477571
 21
189.0285794899739
 31
0.0
  0
LINE
  5
1B9
330
1B3
100
AcDbEntity
  8
1
  6
Continuous
 62
     7
370
     9
100
AcDbLine
 10
140.8038915477571
 20
189.0285794899739
 30
0.0
 11
140.8038915477571
 21
188.3285794899739
 31
0.0
  0
ENDBLK
  5
1B5
330
1B3
100
AcDbEntity
  8
0
100
AcDbBlockEnd
  0
BLOCK
  5
1BC
330
1BB
100
AcDbEntity
  8
0
100
AcDbBlockBegin
  2
G7
 70
     0
 10
0.0
 20
0.0
 30
0.0
  3
G7
  1

  0
LINE
  5
1BE
330
1BB
100
AcDbEntity
  8
1
  6
Continuous
 62
     7
370
     9
100
AcDbLine
 10
139.8288915477572
 20
188.0285794899739
 30
0.0
 11
141.1288915477571
 21
188.0285794899739
 31
0.0
  0
LINE
  5
1BF
330
1BB
100
AcDbEntity
  8
1
  6
Continuous
 62
     7
370
     9
100
AcDbLine
 10
141.1288915477571
 20
188.0285794899739
 30
0.0
 11
141.1288915477571
 21
188.3285794899739
 31
0.0
  0
LINE
  5
1C0
330
1BB
100
AcDbEntity
  8
1
  6
Continuous
 62
     7
370
     9
100
AcDbLine
 10
141.1288915477571
 20
188.3285794899739
 30
0.0
 11
139.8288915477572
 21
188.3285794899739
 31
0.0
  0
LINE
  5
1C1
330
1BB
100
AcDbEntity
  8
1
  6
Continuous
 62
     7
370
     9
100
AcDbLine
 10
139.8288915477572
 20
188.3285794899739
 30
0.0
 11
139.8288915477572
 21
188.0285794899739
 31
0.0
  0
ENDBLK
  5
1BD
330
1BB
100
AcDbEntity
  8
0
100
AcDbBlockEnd
  0
BLOCK
  5
1C4
330
1C3
100
AcDbEntity
  8
0
100
AcDbBlockBegin
  2
G8
 70
     0
 10
0.0
 20
0.0
 30
0.0
  3
G8
  1

  0
LINE
  5
1C6
330
1C3
100
AcDbEntity
  8
1
  6
Continuous
 62
     7
370
     9
100
AcDbLine
 10
138.3038915477572
 20
188.3285794899739
 30
0.0
 11
137.6538915477572
 21
188.3285794899739
 31
0.0
  0
LINE
  5
1C7
330
1C3
100
AcDbEntity
  8
1
  6
Continuous
 62
     7
370
     9
100
AcDbLine
 10
137.6538915477572
 20
188.3285794899739
 30
0.0
 11
137.6538915477572
 21
189.0285794899739
 31
0.0
  0
LINE
  5
1C8
330
1C3
100
AcDbEntity
  8
1
  6
Continuous
 62
     7
370
     9
100
AcDbLine
 10
137.6538915477572
 20
189.0285794899739
 30
0.0
 11
138.3038915477572
 21
189.0285794899739
 31
0.0
  0
LINE
  5
1C9
330
1C3
100
AcDbEntity
  8
1
  6
Continuous
 62
     7
370
     9
100
AcDbLine
 10
138.3038915477572
 20
189.0285794899739
 30
0.0
 11
138.3038915477572
 21
188.3285794899739
 31
0.0
  0
ENDBLK
  5
1C5
330
1C3
100
AcDbEntity
  8
0
100
AcDbBlockEnd
  0
BLOCK
  5
1CC
330
1CB
100
AcDbEntity
  8
0
100
AcDbBlockBegin
  2
G9
 70
     0
 10
0.0
 20
0.0
 30
0.0
  3
G9
  1

  0
LINE
  5
1CE
330
1CB
100
AcDbEntity
  8
1
  6
Continuous
 62
     7
370
     9
100
AcDbLine
 10
137.3288915477572
 20
188.0285794899739
 30
0.0
 11
138.6288915477571
 21
188.0285794899739
 31
0.0
  0
LINE
  5
1CF
330
1CB
100
AcDbEntity
  8
1
  6
Continuous
 62
     7
370
     9
100
AcDbLine
 10
138.6288915477571
 20
188.0285794899739
 30
0.0
 11
138.6288915477571
 21
188.3285794899739
 31
0.0
  0
LINE
  5
1D0
330
1CB
100
AcDbEntity
  8
1
  6
Continuous
 62
     7
370
     9
100
AcDbLine
 10
138.6288915477571
 20
188.3285794899739
 30
0.0
 11
137.3288915477572
 21
188.3285794899739
 31
0.0
  0
LINE
  5
1D1
330
1CB
100
AcDbEntity
  8
1
  6
Continuous
 62
     7
370
     9
100
AcDbLine
 10
137.3288915477572
 20
188.3285794899739
 30
0.0
 11
137.3288915477572
 21
188.0285794899739
 31
0.0
  0
ENDBLK
  5
1CD
330
1CB
100
AcDbEntity
  8
0
100
AcDbBlockEnd
  0
BLOCK
  5
1D4
330
1D3
100
AcDbEntity
  8
0
100
AcDbBlockBegin
  2
G10
 70
     0
 10
0.0
 20
0.0
 30
0.0
  3
G10
  1

  0
LINE
  5
1D6
330
1D3
100
AcDbEntity
  8
1
  6
Continuous
 62
     7
370
     9
100
AcDbLine
 10
135.8038915477573
 20
188.3285794899739
 30
0.0
 11
135.1538915477573
 21
188.3285794899739
 31
0.0
  0
LINE
  5
1D7
330
1D3
100
AcDbEntity
  8
1
  6
Continuous
 62
     7
370
     9
100
AcDbLine
 10
135.1538915477573
 20
188.3285794899739
 30
0.0
 11
135.1538915477573
 21
189.0285794899739
 31
0.0
  0
LINE
  5
1D8
330
1D3
100
AcDbEntity
  8
1
  6
Continuous
 62
     7
370
     9
100
AcDbLine
 10
135.1538915477573
 20
189.0285794899739
 30
0.0
 11
135.8038915477573
 21
189.0285794899739
 31
0.0
  0
LINE
  5
1D9
330
1D3
100
AcDbEntity
  8
1
  6
Continuous
 62
     7
370
     9
100
AcDbLine
 10
135.8038915477573
 20
189.0285794899739
 30
0.0
 11
135.8038915477573
 21
188.3285794899739
 31
0.0
  0
ENDBLK
  5
1D5
330
1D3
100
AcDbEntity
  8
0
100
AcDbBlockEnd
  0
BLOCK
  5
1DC
330
1DB
100
AcDbEntity
  8
0
100
AcDbBlockBegin
  2
G11
 70
     0
 10
0.0
 20
0.0
 30
0.0
  3
G11
  1

  0
LINE
  5
1DE
330
1DB
100
AcDbEntity
  8
1
  6
Continuous
 62
     7
370
     9
100
AcDbLine
 10
134.8288915477573
 20
188.0285794899739
 30
0.0
 11
136.1288915477573
 21
188.0285794899739
 31
0.0
  0
LINE
  5
1DF
330
1DB
100
AcDbEntity
  8
1
  6
Continuous
 62
     7
370
     9
100
AcDbLine
 10
136.1288915477573
 20
188.0285794899739
 30
0.0
 11
136.1288915477573
 21
188.3285794899739
 31
0.0
  0
LINE
  5
1E0
330
1DB
100
AcDbEntity
  8
1
  6
Continuous
 62
     7
370
     9
100
AcDbLine
 10
136.1288915477573
 20
188.3285794899739
 30
0.0
 11
134.8288915477573
 21
188.3285794899739
 31
0.0
  0
LINE
  5
1E1
330
1DB
100
AcDbEntity
  8
1
  6
Continuous
 62
     7
370
     9
100
AcDbLine
 10
134.8288915477573
 20
188.3285794899739
 30
0.0
 11
134.8288915477573
 21
188.0285794899739
 31
0.0
  0
ENDBLK
  5
1DD
330
1DB
100
AcDbEntity
  8
0
100
AcDbBlockEnd
  0
BLOCK
  5
1E4
330
1E3
100
AcDbEntity
  8
0
100
AcDbBlockBegin
  2
G12
 70
     0
 10
0.0
 20
0.0
 30
0.0
  3
G12
  1

  0
LINE
  5
1E6
330
1E3
100
AcDbEntity
  8
1
  6
Continuous
 62
     7
370
     9
100
AcDbLine
 10
133.3038915477574
 20
188.3285794899739
 30
0.0
 11
132.6538915477574
 21
188.3285794899739
 31
0.0
  0
LINE
  5
1E7
330
1E3
100
AcDbEntity
  8
1
  6
Continuous
 62
     7
370
     9
100
AcDbLine
 10
132.6538915477574
 20
188.3285794899739
 30
0.0
 11
132.6538915477574
 21
189.0285794899739
 31
0.0
  0
LINE
  5
1E8
330
1E3
100
AcDbEntity
  8
1
  6
Continuous
 62
     7
370
     9
100
AcDbLine
 10
132.6538915477574
 20
189.0285794899739
 30
0.0
 11
133.3038915477574
 21
189.0285794899739
 31
0.0
  0
LINE
  5
1E9
330
1E3
100
AcDbEntity
  8
1
  6
Continuous
 62
     7
370
     9
100
AcDbLine
 10
133.3038915477574
 20
189.0285794899739
 30
0.0
 11
133.3038915477574
 21
188.3285794899739
 31
0.0
  0
ENDBLK
  5
1E5
330
1E3
100
AcDbEntity
  8
0
100
AcDbBlockEnd
  0
BLOCK
  5
1EC
330
1EB
100
AcDbEntity
  8
0
100
AcDbBlockBegin
  2
G13
 70
     0
 10
0.0
 20
0.0
 30
0.0
  3
G13
  1

  0
LINE
  5
1EE
330
1EB
100
AcDbEntity
  8
1
  6
Continuous
 62
     7
370
     9
100
AcDbLine
 10
132.3288915477574
 20
188.0285794899739
 30
0.0
 11
133.6288915477573
 21
188.0285794899739
 31
0.0
  0
LINE
  5
1EF
330
1EB
100
AcDbEntity
  8
1
  6
Continuous
 62
     7
370
     9
100
AcDbLine
 10
133.6288915477573
 20
188.0285794899739
 30
0.0
 11
133.6288915477573
 21
188.3285794899739
 31
0.0
  0
LINE
  5
1F0
330
1EB
100
AcDbEntity
  8
1
  6
Continuous
 62
     7
370
     9
100
AcDbLine
 10
133.6288915477573
 20
188.3285794899739
 30
0.0
 11
132.3288915477574
 21
188.3285794899739
 31
0.0
  0
LINE
  5
1F1
330
1EB
100
AcDbEntity
  8
1
  6
Continuous
 62
     7
370
     9
100
AcDbLine
 10
132.3288915477574
 20
188.3285794899739
 30
0.0
 11
132.3288915477574
 21
188.0285794899739
 31
0.0
  0
ENDBLK
  5
1ED
330
1EB
100
AcDbEntity
  8
0
100
AcDbBlockEnd
  0
BLOCK
  5
1F4
330
1F3
100
AcDbEntity
  8
0
100
AcDbBlockBegin
  2
G14
 70
     0
 10
0.0
 20
0.0
 30
0.0
  3
G14
  1

  0
LINE
  5
1F6
330
1F3
100
AcDbEntity
  8
1
  6
Continuous
 62
     7
370
     9
100
AcDbLine
 10
142.6538915477571
 20
181.2285794899739
 30
0.0
 11
143.3038915477571
 21
181.2285794899739
 31
0.0
  0
LINE
  5
1F7
330
1F3
100
AcDbEntity
  8
1
  6
Continuous
 62
     7
370
     9
100
AcDbLine
 10
143.3038915477571
 20
181.2285794899739
 30
0.0
 11
143.3038915477571
 21
180.528579489974
 31
0.0
  0
LINE
  5
1F8
330
1F3
100
AcDbEntity
  8
1
  6
Continuous
 62
     7
370
     9
100
AcDbLine
 10
143.3038915477571
 20
180.528579489974
 30
0.0
 11
142.6538915477571
 21
180.528579489974
 31
0.0
  0
LINE
  5
1F9
330
1F3
100
AcDbEntity
  8
1
  6
Continuous
 62
     7
370
     9
100
AcDbLine
 10
142.6538915477571
 20
180.528579489974
 30
0.0
 11
142.6538915477571
 21
181.2285794899739
 31
0.0
  0
ENDBLK
  5
1F5
330
1F3
100
AcDbEntity
  8
0
100
AcDbBlockEnd
  0
BLOCK
  5
1FC
330
1FB
100
AcDbEntity
  8
0
100
AcDbBlockBegin
  2
G15
 70
     0
 10
0.0
 20
0.0
 30
0.0
  3
G15
  1

  0
LINE
  5
1FE
330
1FB
100
AcDbEntity
  8
1
  6
Continuous
 62
     7
370
     9
100
AcDbLine
 10
142.3288915477571
 20
181.5285794899739
 30
0.0
 11
143.6288915477571
 21
181.5285794899739
 31
0.0
  0
LINE
  5
1FF
330
1FB
100
AcDbEntity
  8
1
  6
Continuous
 62
     7
370
     9
100
AcDbLine
 10
143.6288915477571
 20
181.5285794899739
 30
0.0
 11
143.6288915477571
 21
181.2285794899739
 31
0.0
  0
LINE
  5
200
330
1FB
100
AcDbEntity
  8
1
  6
Continuous
 62
     7
370
     9
100
AcDbLine
 10
143.6288915477571
 20
181.2285794899739
 30
0.0
 11
142.3288915477571
 21
181.2285794899739
 31
0.0
  0
LINE
  5
201
330
1FB
100
AcDbEntity
  8
1
  6
Continuous
 62
     7
370
     9
100
AcDbLine
 10
142.3288915477571
 20
181.2285794899739
 30
0.0
 11
142.3288915477571
 21
181.5285794899739
 31
0.0
  0
ENDBLK
  5
1FD
330
1FB
100
AcDbEntity
  8
0
100
AcDbBlockEnd
  0
BLOCK
  5
204
330
203
100
AcDbEntity
  8
0
100
AcDbBlockBegin
  2
G16
 70
     0
 10
0.0
 20
0.0
 30
0.0
  3
G16
  1

  0
LINE
  5
206
330
203
100
AcDbEntity
  8
1
  6
Continuous
 62
     7
370
     9
100
AcDbLine
 10
140.1538915477571
 20
181.2285794899739
 30
0.0
 11
140.8038915477571
 21
181.2285794899739
 31
0.0
  0
LINE
  5
207
330
203
100
AcDbEntity
  8
1
  6
Continuous
 62
     7
370
     9
100
AcDbLine
 10
140.8038915477571
 20
181.2285794899739
 30
0.0
 11
140.8038915477571
 21
180.528579489974
 31
0.0
  0
LINE
  5
208
330
203
100
AcDbEntity
  8
1
  6
Continuous
 62
     7
370
     9
100
AcDbLine
 10
140.8038915477571
 20
180.528579489974
 30
0.0
 11
140.1538915477571
 21
180.528579489974
 31
0.0
  0
LINE
  5
209
330
203
100
AcDbEntity
  8
1
  6
Continuous
 62
     7
370
     9
100
AcDbLine
 10
140.1538915477571
 20
180.528579489974
 30
0.0
 11
140.1538915477571
 21
181.2285794899739
 31
0.0
  0
ENDBLK
  5
205
330
203
100
AcDbEntity
  8
0
100
AcDbBlockEnd
  0
BLOCK
  5
20C
330
20B
100
AcDbEntity
  8
0
100
AcDbBlockBegin
  2
G17
 70
     0
 10
0.0
 20
0.0
 30
0.0
  3
G17
  1

  0
LINE
  5
20E
330
20B
100
AcDbEntity
  8
1
  6
Continuous
 62
     7
370
     9
100
AcDbLine
 10
139.8288915477572
 20
181.5285794899739
 30
0.0
 11
141.1288915477571
 21
181.5285794899739
 31
0.0
  0
LINE
  5
20F
330
20B
100
AcDbEntity
  8
1
  6
Continuous
 62
     7
370
     9
100
AcDbLine
 10
141.1288915477571
 20
181.5285794899739
 30
0.0
 11
141.1288915477571
 21
181.2285794899739
 31
0.0
  0
LINE
  5
210
330
20B
100
AcDbEntity
  8
1
  6
Continuous
 62
     7
370
     9
100
AcDbLine
 10
141.1288915477571
 20
181.2285794899739
 30
0.0
 11
139.8288915477572
 21
181.2285794899739
 31
0.0
  0
LINE
  5
211
330
20B
100
AcDbEntity
  8
1
  6
Continuous
 62
     7
370
     9
100
AcDbLine
 10
139.8288915477572
 20
181.2285794899739
 30
0.0
 11
139.8288915477572
 21
181.5285794899739
 31
0.0
  0
ENDBLK
  5
20D
330
20B
100
AcDbEntity
  8
0
100
AcDbBlockEnd
  0
BLOCK
  5
214
330
213
100
AcDbEntity
  8
0
100
AcDbBlockBegin
  2
G18
 70
     0
 10
0.0
 20
0.0
 30
0.0
  3
G18
  1

  0
LINE
  5
216
330
213
100
AcDbEntity
  8
1
  6
Continuous
 62
     7
370
     9
100
AcDbLine
 10
137.6538915477571
 20
181.2285794899739
 30
0.0
 11
138.3038915477571
 21
181.2285794899739
 31
0.0
  0
LINE
  5
217
330
213
100
AcDbEntity
  8
1
  6
Continuous
 62
     7
370
     9
100
AcDbLine
 10
138.3038915477571
 20
181.2285794899739
 30
0.0
 11
138.3038915477571
 21
180.528579489974
 31
0.0
  0
LINE
  5
218
330
213
100
AcDbEntity
  8
1
  6
Continuous
 62
     7
370
     9
100
AcDbLine
 10
138.3038915477571
 20
180.528579489974
 30
0.0
 11
137.6538915477571
 21
180.528579489974
 31
0.0
  0
LINE
  5
219
330
213
100
AcDbEntity
  8
1
  6
Continuous
 62
     7
370
     9
100
AcDbLine
 10
137.6538915477571
 20
180.528579489974
 30
0.0
 11
137.6538915477571
 21
181.2285794899739
 31
0.0
  0
ENDBLK
  5
215
330
213
100
AcDbEntity
  8
0
100
AcDbBlockEnd
  0
BLOCK
  5
21C
330
21B
100
AcDbEntity
  8
0
100
AcDbBlockBegin
  2
G19
 70
     0
 10
0.0
 20
0.0
 30
0.0
  3
G19
  1

  0
LINE
  5
21E
330
21B
100
AcDbEntity
  8
1
  6
Continuous
 62
     7
370
     9
100
AcDbLine
 10
137.3288915477572
 20
181.5285794899739
 30
0.0
 11
138.6288915477571
 21
181.5285794899739
 31
0.0
  0
LINE
  5
21F
330
21B
100
AcDbEntity
  8
1
  6
Continuous
 62
     7
370
     9
100
AcDbLine
 10
138.6288915477571
 20
181.5285794899739
 30
0.0
 11
138.6288915477571
 21
181.2285794899739
 31
0.0
  0
LINE
  5
220
330
21B
100
AcDbEntity
  8
1
  6
Continuous
 62
     7
370
     9
100
AcDbLine
 10
138.6288915477571
 20
181.2285794899739
 30
0.0
 11
137.3288915477572
 21
181.2285794899739
 31
0.0
  0
LINE
  5
221
330
21B
100
AcDbEntity
  8
1
  6
Continuous
 62
     7
370
     9
100
AcDbLine
 10
137.3288915477572
 20
181.2285794899739
 30
0.0
 11
137.3288915477572
 21
181.5285794899739
 31
0.0
  0
ENDBLK
  5
21D
330
21B
100
AcDbEntity
  8
0
100
AcDbBlockEnd
  0
BLOCK
  5
224
330
223
100
AcDbEntity
  8
0
100
AcDbBlockBegin
  2
G20
 70
     0
 10
0.0
 20
0.0
 30
0.0
  3
G20
  1

  0
LINE
  5
226
330
223
100
AcDbEntity
  8
1
  6
Continuous
 62
     7
370
     9
100
AcDbLine
 10
135.1538915477573
 20
181.2285794899739
 30
0.0
 11
135.8038915477572
 21
181.2285794899739
 31
0.0
  0
LINE
  5
227
330
223
100
AcDbEntity
  8
1
  6
Continuous
 62
     7
370
     9
100
AcDbLine
 10
135.8038915477572
 20
181.2285794899739
 30
0.0
 11
135.8038915477572
 21
180.528579489974
 31
0.0
  0
LINE
  5
228
330
223
100
AcDbEntity
  8
1
  6
Continuous
 62
     7
370
     9
100
AcDbLine
 10
135.8038915477572
 20
180.528579489974
 30
0.0
 11
135.1538915477573
 21
180.528579489974
 31
0.0
  0
LINE
  5
229
330
223
100
AcDbEntity
  8
1
  6
Continuous
 62
     7
370
     9
100
AcDbLine
 10
135.1538915477573
 20
180.528579489974
 30
0.0
 11
135.1538915477573
 21
181.2285794899739
 31
0.0
  0
ENDBLK
  5
225
330
223
100
AcDbEntity
  8
0
100
AcDbBlockEnd
  0
BLOCK
  5
22C
330
22B
100
AcDbEntity
  8
0
100
AcDbBlockBegin
  2
G21
 70
     0
 10
0.0
 20
0.0
 30
0.0
  3
G21
  1

  0
LINE
  5
22E
330
22B
100
AcDbEntity
  8
1
  6
Continuous
 62
     7
370
     9
100
AcDbLine
 10
134.8288915477573
 20
181.5285794899739
 30
0.0
 11
136.1288915477573
 21
181.5285794899739
 31
0.0
  0
LINE
  5
22F
330
22B
100
AcDbEntity
  8
1
  6
Continuous
 62
     7
370
     9
100
AcDbLine
 10
136.1288915477573
 20
181.5285794899739
 30
0.0
 11
136.1288915477573
 21
181.2285794899739
 31
0.0
  0
LINE
  5
230
330
22B
100
AcDbEntity
  8
1
  6
Continuous
 62
     7
370
     9
100
AcDbLine
 10
136.1288915477573
 20
181.2285794899739
 30
0.0
 11
134.8288915477573
 21
181.2285794899739
 31
0.0
  0
LINE
  5
231
330
22B
100
AcDbEntity
  8
1
  6
Continuous
 62
     7
370
     9
100
AcDbLine
 10
134.8288915477573
 20
181.2285794899739
 30
0.0
 11
134.8288915477573
 21
181.5285794899739
 31
0.0
  0
ENDBLK
  5
22D
330
22B
100
AcDbEntity
  8
0
100
AcDbBlockEnd
  0
BLOCK
  5
234
330
233
100
AcDbEntity
  8
0
100
AcDbBlockBegin
  2
G22
 70
     0
 10
0.0
 20
0.0
 30
0.0
  3
G22
  1

  0
LINE
  5
236
330
233
100
AcDbEntity
  8
1
  6
Continuous
 62
     7
370
     9
100
AcDbLine
 10
132.6538915477573
 20
181.2285794899739
 30
0.0
 11
133.3038915477573
 21
181.2285794899739
 31
0.0
  0
LINE
  5
237
330
233
100
AcDbEntity
  8
1
  6
Continuous
 62
     7
370
     9
100
AcDbLine
 10
133.3038915477573
 20
181.2285794899739
 30
0.0
 11
133.3038915477573
 21
180.528579489974
 31
0.0
  0
LINE
  5
238
330
233
100
AcDbEntity
  8
1
  6
Continuous
 62
     7
370
     9
100
AcDbLine
 10
133.3038915477573
 20
180.528579489974
 30
0.0
 11
132.6538915477573
 21
180.528579489974
 31
0.0
  0
LINE
  5
239
330
233
100
AcDbEntity
  8
1
  6
Continuous
 62
     7
370
     9
100
AcDbLine
 10
132.6538915477573
 20
180.528579489974
 30
0.0
 11
132.6538915477573
 21
181.2285794899739
 31
0.0
  0
ENDBLK
  5
235
330
233
100
AcDbEntity
  8
0
100
AcDbBlockEnd
  0
BLOCK
  5
23C
330
23B
100
AcDbEntity
  8
0
100
AcDbBlockBegin
  2
G23
 70
     0
 10
0.0
 20
0.0
 30
0.0
  3
G23
  1

  0
LINE
  5
23E
330
23B
100
AcDbEntity
  8
1
  6
Continuous
 62
     7
370
     9
100
AcDbLine
 10
132.3288915477574
 20
181.5285794899739
 30
0.0
 11
133.6288915477573
 21
181.5285794899739
 31
0.0
  0
LINE
  5
23F
330
23B
100
AcDbEntity
  8
1
  6
Continuous
 62
     7
370
     9
100
AcDbLine
 10
133.6288915477573
 20
181.5285794899739
 30
0.0
 11
133.6288915477573
 21
181.2285794899739
 31
0.0
  0
LINE
  5
240
330
23B
100
AcDbEntity
  8
1
  6
Continuous
 62
     7
370
     9
100
AcDbLine
 10
133.6288915477573
 20
181.2285794899739
 30
0.0
 11
132.3288915477574
 21
181.2285794899739
 31
0.0
  0
LINE
  5
241
330
23B
100
AcDbEntity
  8
1
  6
Continuous
 62
     7
370
     9
100
AcDbLine
 10
132.3288915477574
 20
181.2285794899739
 30
0.0
 11
132.3288915477574
 21
181.5285794899739
 31
0.0
  0
ENDBLK
  5
23D
330
23B
100
AcDbEntity
  8
0
100
AcDbBlockEnd
  0
BLOCK
  5
244
330
243
100
AcDbEntity
  8
0
100
AcDbBlockBegin
  2
G24
 70
     0
 10
0.0
 20
0.0
 30
0.0
  3
G24
  1

  0
LINE
  5
246
330
243
100
AcDbEntity
  8
1
  6
Continuous
 62
     7
370
     9
100
AcDbLine
 10
130.8038915477574
 20
188.3285794899739
 30
0.0
 11
130.1538915477574
 21
188.3285794899739
 31
0.0
  0
LINE
  5
247
330
243
100
AcDbEntity
  8
1
  6
Continuous
 62
     7
370
     9
100
AcDbLine
 10
130.1538915477574
 20
188.3285794899739
 30
0.0
 11
130.1538915477574
 21
189.0285794899739
 31
0.0
  0
LINE
  5
248
330
243
100
AcDbEntity
  8
1
  6
Continuous
 62
     7
370
     9
100
AcDbLine
 10
130.1538915477574
 20
189.0285794899739
 30
0.0
 11
130.8038915477574
 21
189.0285794899739
 31
0.0
  0
LINE
  5
249
330
243
100
AcDbEntity
  8
1
  6
Continuous
 62
     7
370
     9
100
AcDbLine
 10
130.8038915477574
 20
189.0285794899739
 30
0.0
 11
130.8038915477574
 21
188.3285794899739
 31
0.0
  0
ENDBLK
  5
245
330
243
100
AcDbEntity
  8
0
100
AcDbBlockEnd
  0
BLOCK
  5
24C
330
24B
100
AcDbEntity
  8
0
100
AcDbBlockBegin
  2
G25
 70
     0
 10
0.0
 20
0.0
 30
0.0
  3
G25
  1

  0
LINE
  5
24E
330
24B
100
AcDbEntity
  8
1
  6
Continuous
 62
     7
370
     9
100
AcDbLine
 10
129.8288915477574
 20
188.0285794899739
 30
0.0
 11
131.1288915477575
 21
188.0285794899739
 31
0.0
  0
LINE
  5
24F
330
24B
100
AcDbEntity
  8
1
  6
Continuous
 62
     7
370
     9
100
AcDbLine
 10
131.1288915477575
 20
188.0285794899739
 30
0.0
 11
131.1288915477575
 21
188.3285794899739
 31
0.0
  0
LINE
  5
250
330
24B
100
AcDbEntity
  8
1
  6
Continuous
 62
     7
370
     9
100
AcDbLine
 10
131.1288915477575
 20
188.3285794899739
 30
0.0
 11
129.8288915477574
 21
188.3285794899739
 31
0.0
  0
LINE
  5
251
330
24B
100
AcDbEntity
  8
1
  6
Continuous
 62
     7
370
     9
100
AcDbLine
 10
129.8288915477574
 20
188.3285794899739
 30
0.0
 11
129.8288915477574
 21
188.0285794899739
 31
0.0
  0
ENDBLK
  5
24D
330
24B
100
AcDbEntity
  8
0
100
AcDbBlockEnd
  0
BLOCK
  5
254
330
253
100
AcDbEntity
  8
0
100
AcDbBlockBegin
  2
G26
 70
     0
 10
0.0
 20
0.0
 30
0.0
  3
G26
  1

  0
LINE
  5
256
330
253
100
AcDbEntity
  8
1
  6
Continuous
 62
     7
370
     9
100
AcDbLine
 10
130.1538915477574
 20
181.2285794899739
 30
0.0
 11
130.8038915477574
 21
181.2285794899739
 31
0.0
  0
LINE
  5
257
330
253
100
AcDbEntity
  8
1
  6
Continuous
 62
     7
370
     9
100
AcDbLine
 10
130.8038915477574
 20
181.2285794899739
 30
0.0
 11
130.8038915477574
 21
180.528579489974
 31
0.0
  0
LINE
  5
258
330
253
100
AcDbEntity
  8
1
  6
Continuous
 62
     7
370
     9
100
AcDbLine
 10
130.8038915477574
 20
180.528579489974
 30
0.0
 11
130.1538915477574
 21
180.528579489974
 31
0.0
  0
LINE
  5
259
330
253
100
AcDbEntity
  8
1
  6
Continuous
 62
     7
370
     9
100
AcDbLine
 10
130.1538915477574
 20
180.528579489974
 30
0.0
 11
130.1538915477574
 21
181.2285794899739
 31
0.0
  0
ENDBLK
  5
255
330
253
100
AcDbEntity
  8
0
100
AcDbBlockEnd
  0
BLOCK
  5
25C
330
25B
100
AcDbEntity
  8
0
100
AcDbBlockBegin
  2
G27
 70
     0
 10
0.0
 20
0.0
 30
0.0
  3
G27
  1

  0
LINE
  5
25E
330
25B
100
AcDbEntity
  8
1
  6
Continuous
 62
     7
370
     9
100
AcDbLine
 10
129.8288915477575
 20
181.5285794899739
 30
0.0
 11
131.1288915477575
 21
181.5285794899739
 31
0.0
  0
LINE
  5
25F
330
25B
100
AcDbEntity
  8
1
  6
Continuous
 62
     7
370
     9
100
AcDbLine
 10
131.1288915477575
 20
181.5285794899739
 30
0.0
 11
131.1288915477575
 21
181.2285794899739
 31
0.0
  0
LINE
  5
260
330
25B
100
AcDbEntity
  8
1
  6
Continuous
 62
     7
370
     9
100
AcDbLine
 10
131.1288915477575
 20
181.2285794899739
 30
0.0
 11
129.8288915477575
 21
181.2285794899739
 31
0.0
  0
LINE
  5
261
330
25B
100
AcDbEntity
  8
1
  6
Continuous
 62
     7
370
     9
100
AcDbLine
 10
129.8288915477575
 20
181.2285794899739
 30
0.0
 11
129.8288915477575
 21
181.5285794899739
 31
0.0
  0
ENDBLK
  5
25D
330
25B
100
AcDbEntity
  8
0
100
AcDbBlockEnd
  0
BLOCK
  5
264
330
263
100
AcDbEntity
  8
0
100
AcDbBlockBegin
  2
G28
 70
     0
 10
0.0
 20
0.0
 30
0.0
  3
G28
  1

  0
LINE
  5
266
330
263
100
AcDbEntity
  8
1
  6
Continuous
 62
     7
370
     9
100
AcDbLine
 10
142.3288915477572
 20
184.9785794899739
 30
0.0
 11
143.6288915477571
 21
184.9785794899739
 31
0.0
  0
LINE
  5
267
330
263
100
AcDbEntity
  8
1
  6
Continuous
 62
     7
370
     9
100
AcDbLine
 10
143.6288915477571
 20
184.9785794899739
 30
0.0
 11
143.6288915477571
 21
183.7785794899739
 31
0.0
  0
LINE
  5
268
330
263
100
AcDbEntity
  8
1
  6
Continuous
 62
     7
370
     9
100
AcDbLine
 10
143.6288915477571
 20
183.7785794899739
 30
0.0
 11
142.3288915477572
 21
183.7785794899739
 31
0.0
  0
LINE
  5
269
330
263
100
AcDbEntity
  8
1
  6
Continuous
 62
     7
370
     9
100
AcDbLine
 10
142.3288915477572
 20
183.7785794899739
 30
0.0
 11
142.3288915477572
 21
184.9785794899739
 31
0.0
  0
ENDBLK
  5
265
330
263
100
AcDbEntity
  8
0
100
AcDbBlockEnd
  0
BLOCK
  5
26C
330
26B
100
AcDbEntity
  8
0
100
AcDbBlockBegin
  2
G29
 70
     0
 10
0.0
 20
0.0
 30
0.0
  3
G29
  1

  0
LINE
  5
26E
330
26B
100
AcDbEntity
  8
1
  6
Continuous
 62
     7
370
     9
100
AcDbLine
 10
142.3288915477571
 20
185.7785794899739
 30
0.0
 11
143.6288915477571
 21
185.7785794899739
 31
0.0
  0
LINE
  5
26F
330
26B
100
AcDbEntity
  8
1
  6
Continuous
 62
     7
370
     9
100
AcDbLine
 10
143.6288915477571
 20
185.7785794899739
 30
0.0
 11
143.6288915477571
 21
183.7785794899739
 31
0.0
  0
LINE
  5
270
330
26B
100
AcDbEntity
  8
1
  6
Continuous
 62
     7
370
     9
100
AcDbLine
 10
143.6288915477571
 20
183.7785794899739
 30
0.0
 11
142.3288915477571
 21
183.7785794899739
 31
0.0
  0
LINE
  5
271
330
26B
100
AcDbEntity
  8
1
  6
Continuous
 62
     7
370
     9
100
AcDbLine
 10
142.3288915477571
 20
183.7785794899739
 30
0.0
 11
142.3288915477571
 21
185.7785794899739
 31
0.0
  0
ENDBLK
  5
26D
330
26B
100
AcDbEntity
  8
0
100
AcDbBlockEnd
  0
BLOCK
  5
274
330
273
100
AcDbEntity
  8
0
100
AcDbBlockBegin
  2
G30
 70
     0
 10
0.0
 20
0.0
 30
0.0
  3
G30
  1

  0
LINE
  5
276
330
273
100
AcDbEntity
  8
1
  6
Continuous
 62
     7
370
     9
100
AcDbLine
 10
142.3288915477571
 20
186.7785794899735
 30
0.0
 11
143.6288915477571
 21
186.7785794899735
 31
0.0
  0
LINE
  5
277
330
273
100
AcDbEntity
  8
1
  6
Continuous
 62
     7
370
     9
100
AcDbLine
 10
143.6288915477571
 20
186.7785794899735
 30
0.0
 11
143.6288915477571
 21
182.7785794899741
 31
0.0
  0
LINE
  5
278
330
273
100
AcDbEntity
  8
1
  6
Continuous
 62
     7
370
     9
100
AcDbLine
 10
143.6288915477571
 20
182.7785794899741
 30
0.0
 11
142.3288915477571
 21
182.7785794899741
 31
0.0
  0
LINE
  5
279
330
273
100
AcDbEntity
  8
1
  6
Continuous
 62
     7
370
     9
100
AcDbLine
 10
142.3288915477571
 20
182.7785794899741
 30
0.0
 11
142.3288915477571
 21
186.7785794899735
 31
0.0
  0
ENDBLK
  5
275
330
273
100
AcDbEntity
  8
0
100
AcDbBlockEnd
  0
BLOCK
  5
27C
330
27B
100
AcDbEntity
  8
0
100
AcDbBlockBegin
  2
G31
 70
     0
 10
0.0
 20
0.0
 30
0.0
  3
G31
  1

  0
LINE
  5
27E
330
27B
100
AcDbEntity
  8
1
  6
Continuous
 62
     7
370
     9
100
AcDbLine
 10
139.8288915477572
 20
184.9785794899739
 30
0.0
 11
141.1288915477571
 21
184.9785794899739
 31
0.0
  0
LINE
  5
27F
330
27B
100
AcDbEntity
  8
1
  6
Continuous
 62
     7
370
     9
100
AcDbLine
 10
141.1288915477571
 20
184.9785794899739
 30
0.0
 11
141.1288915477571
 21
183.7785794899739
 31
0.0
  0
LINE
  5
280
330
27B
100
AcDbEntity
  8
1
  6
Continuous
 62
     7
370
     9
100
AcDbLine
 10
141.1288915477571
 20
183.7785794899739
 30
0.0
 11
139.8288915477572
 21
183.7785794899739
 31
0.0
  0
LINE
  5
281
330
27B
100
AcDbEntity
  8
1
  6
Continuous
 62
     7
370
     9
100
AcDbLine
 10
139.8288915477572
 20
183.7785794899739
 30
0.0
 11
139.8288915477572
 21
184.9785794899739
 31
0.0
  0
ENDBLK
  5
27D
330
27B
100
AcDbEntity
  8
0
100
AcDbBlockEnd
  0
BLOCK
  5
284
330
283
100
AcDbEntity
  8
0
100
AcDbBlockBegin
  2
G32
 70
     0
 10
0.0
 20
0.0
 30
0.0
  3
G32
  1

  0
LINE
  5
286
330
283
100
AcDbEntity
  8
1
  6
Continuous
 62
     7
370
     9
100
AcDbLine
 10
139.8288915477571
 20
185.7785794899739
 30
0.0
 11
141.1288915477571
 21
185.7785794899739
 31
0.0
  0
LINE
  5
287
330
283
100
AcDbEntity
  8
1
  6
Continuous
 62
     7
370
     9
100
AcDbLine
 10
141.1288915477571
 20
185.7785794899739
 30
0.0
 11
141.1288915477571
 21
183.7785794899739
 31
0.0
  0
LINE
  5
288
330
283
100
AcDbEntity
  8
1
  6
Continuous
 62
     7
370
     9
100
AcDbLine
 10
141.1288915477571
 20
183.7785794899739
 30
0.0
 11
139.8288915477571
 21
183.7785794899739
 31
0.0
  0
LINE
  5
289
330
283
100
AcDbEntity
  8
1
  6
Continuous
 62
     7
370
     9
100
AcDbLine
 10
139.8288915477571
 20
183.7785794899739
 30
0.0
 11
139.8288915477571
 21
185.7785794899739
 31
0.0
  0
ENDBLK
  5
285
330
283
100
AcDbEntity
  8
0
100
AcDbBlockEnd
  0
BLOCK
  5
28C
330
28B
100
AcDbEntity
  8
0
100
AcDbBlockBegin
  2
G33
 70
     0
 10
0.0
 20
0.0
 30
0.0
  3
G33
  1

  0
LINE
  5
28E
330
28B
100
AcDbEntity
  8
1
  6
Continuous
 62
     7
370
     9
100
AcDbLine
 10
139.8288915477571
 20
186.7785794899735
 30
0.0
 11
141.1288915477571
 21
186.7785794899735
 31
0.0
  0
LINE
  5
28F
330
28B
100
AcDbEntity
  8
1
  6
Continuous
 62
     7
370
     9
100
AcDbLine
 10
141.1288915477571
 20
186.7785794899735
 30
0.0
 11
141.1288915477571
 21
182.7785794899741
 31
0.0
  0
LINE
  5
290
330
28B
100
AcDbEntity
  8
1
  6
Continuous
 62
     7
370
     9
100
AcDbLine
 10
141.1288915477571
 20
182.7785794899741
 30
0.0
 11
139.8288915477571
 21
182.7785794899741
 31
0.0
  0
LINE
  5
291
330
28B
100
AcDbEntity
  8
1
  6
Continuous
 62
     7
370
     9
100
AcDbLine
 10
139.8288915477571
 20
182.7785794899741
 30
0.0
 11
139.8288915477571
 21
186.7785794899735
 31
0.0
  0
ENDBLK
  5
28D
330
28B
100
AcDbEntity
  8
0
100
AcDbBlockEnd
  0
BLOCK
  5
294
330
293
100
AcDbEntity
  8
0
100
AcDbBlockBegin
  2
G34
 70
     0
 10
0.0
 20
0.0
 30
0.0
  3
G34
  1

  0
LINE
  5
296
330
293
100
AcDbEntity
  8
1
  6
Continuous
 62
     7
370
     9
100
AcDbLine
 10
137.3288915477572
 20
184.9785794899739
 30
0.0
 11
138.6288915477571
 21
184.9785794899739
 31
0.0
  0
LINE
  5
297
330
293
100
AcDbEntity
  8
1
  6
Continuous
 62
     7
370
     9
100
AcDbLine
 10
138.6288915477571
 20
184.9785794899739
 30
0.0
 11
138.6288915477571
 21
183.7785794899739
 31
0.0
  0
LINE
  5
298
330
293
100
AcDbEntity
  8
1
  6
Continuous
 62
     7
370
     9
100
AcDbLine
 10
138.6288915477571
 20
183.7785794899739
 30
0.0
 11
137.3288915477572
 21
183.7785794899739
 31
0.0
  0
LINE
  5
299
330
293
100
AcDbEntity
  8
1
  6
Continuous
 62
     7
370
     9
100
AcDbLine
 10
137.3288915477572
 20
183.7785794899739
 30
0.0
 11
137.3288915477572
 21
184.9785794899739
 31
0.0
  0
ENDBLK
  5
295
330
293
100
AcDbEntity
  8
0
100
AcDbBlockEnd
  0
BLOCK
  5
29C
330
29B
100
AcDbEntity
  8
0
100
AcDbBlockBegin
  2
G35
 70
     0
 10
0.0
 20
0.0
 30
0.0
  3
G35
  1

  0
LINE
  5
29E
330
29B
100
AcDbEntity
  8
1
  6
Continuous
 62
     7
370
     9
100
AcDbLine
 10
137.3288915477572
 20
185.7785794899739
 30
0.0
 11
138.6288915477571
 21
185.7785794899739
 31
0.0
  0
LINE
  5
29F
330
29B
100
AcDbEntity
  8
1
  6
Continuous
 62
     7
370
     9
100
AcDbLine
 10
138.6288915477571
 20
185.7785794899739
 30
0.0
 11
138.6288915477571
 21
183.7785794899739
 31
0.0
  0
LINE
  5
2A0
330
29B
100
AcDbEntity
  8
1
  6
Continuous
 62
     7
370
     9
100
AcDbLine
 10
138.6288915477571
 20
183.7785794899739
 30
0.0
 11
137.3288915477572
 21
183.7785794899739
 31
0.0
  0
LINE
  5
2A1
330
29B
100
AcDbEntity
  8
1
  6
Continuous
 62
     7
370
     9
100
AcDbLine
 10
137.3288915477572
 20
183.7785794899739
 30
0.0
 11
137.3288915477572
 21
185.7785794899739
 31
0.0
  0
ENDBLK
  5
29D
330
29B
100
AcDbEntity
  8
0
100
AcDbBlockEnd
  0
BLOCK
  5
2A4
330
2A3
100
AcDbEntity
  8
0
100
AcDbBlockBegin
  2
G36
 70
     0
 10
0.0
 20
0.0
 30
0.0
  3
G36
  1

  0
LINE
  5
2A6
330
2A3
100
AcDbEntity
  8
1
  6
Continuous
 62
     7
370
     9
100
AcDbLine
 10
137.3288915477572
 20
186.7785794899735
 30
0.0
 11
138.6288915477571
 21
186.7785794899735
 31
0.0
  0
LINE
  5
2A7
330
2A3
100
AcDbEntity
  8
1
  6
Continuous
 62
     7
370
     9
100
AcDbLine
 10
138.6288915477571
 20
186.7785794899735
 30
0.0
 11
138.6288915477571
 21
182.7785794899741
 31
0.0
  0
LINE
  5
2A8
330
2A3
100
AcDbEntity
  8
1
  6
Continuous
 62
     7
370
     9
100
AcDbLine
 10
138.6288915477571
 20
182.7785794899741
 30
0.0
 11
137.3288915477572
 21
182.7785794899741
 31
0.0
  0
LINE
  5
2A9
330
2A3
100
AcDbEntity
  8
1
  6
Continuous
 62
     7
370
     9
100
AcDbLine
 10
137.3288915477572
 20
182.7785794899741
 30
0.0
 11
137.3288915477572
 21
186.7785794899735
 31
0.0
  0
ENDBLK
  5
2A5
330
2A3
100
AcDbEntity
  8
0
100
AcDbBlockEnd
  0
BLOCK
  5
2AC
330
2AB
100
AcDbEntity
  8
0
100
AcDbBlockBegin
  2
G37
 70
     0
 10
0.0
 20
0.0
 30
0.0
  3
G37
  1

  0
LINE
  5
2AE
330
2AB
100
AcDbEntity
  8
1
  6
Continuous
 62
     7
370
     9
100
AcDbLine
 10
134.8288915477573
 20
184.9785794899739
 30
0.0
 11
136.1288915477573
 21
184.9785794899739
 31
0.0
  0
LINE
  5
2AF
330
2AB
100
AcDbEntity
  8
1
  6
Continuous
 62
     7
370
     9
100
AcDbLine
 10
136.1288915477573
 20
184.9785794899739
 30
0.0
 11
136.1288915477573
 21
183.7785794899739
 31
0.0
  0
LINE
  5
2B0
330
2AB
100
AcDbEntity
  8
1
  6
Continuous
 62
     7
370
     9
100
AcDbLine
 10
136.1288915477573
 20
183.7785794899739
 30
0.0
 11
134.8288915477573
 21
183.7785794899739
 31
0.0
  0
LINE
  5
2B1
330
2AB
100
AcDbEntity
  8
1
  6
Continuous
 62
     7
370
     9
100
AcDbLine
 10
134.8288915477573
 20
183.7785794899739
 30
0.0
 11
134.8288915477573
 21
184.9785794899739
 31
0.0
  0
ENDBLK
  5
2AD
330
2AB
100
AcDbEntity
  8
0
100
AcDbBlockEnd
  0
BLOCK
  5
2B4
330
2B3
100
AcDbEntity
  8
0
100
AcDbBlockBegin
  2
G38
 70
     0
 10
0.0
 20
0.0
 30
0.0
  3
G38
  1

  0
LINE
  5
2B6
330
2B3
100
AcDbEntity
  8
1
  6
Continuous
 62
     7
370
     9
100
AcDbLine
 10
134.8288915477573
 20
185.7785794899739
 30
0.0
 11
136.1288915477573
 21
185.7785794899739
 31
0.0
  0
LINE
  5
2B7
330
2B3
100
AcDbEntity
  8
1
  6
Continuous
 62
     7
370
     9
100
AcDbLine
 10
136.1288915477573
 20
185.7785794899739
 30
0.0
 11
136.1288915477573
 21
183.7785794899739
 31
0.0
  0
LINE
  5
2B8
330
2B3
100
AcDbEntity
  8
1
  6
Continuous
 62
     7
370
     9
100
AcDbLine
 10
136.1288915477573
 20
183.7785794899739
 30
0.0
 11
134.8288915477573
 21
183.7785794899739
 31
0.0
  0
LINE
  5
2B9
330
2B3
100
AcDbEntity
  8
1
  6
Continuous
 62
     7
370
     9
100
AcDbLine
 10
134.8288915477573
 20
183.7785794899739
 30
0.0
 11
134.8288915477573
 21
185.7785794899739
 31
0.0
  0
ENDBLK
  5
2B5
330
2B3
100
AcDbEntity
  8
0
100
AcDbBlockEnd
  0
BLOCK
  5
2BC
330
2BB
100
AcDbEntity
  8
0
100
AcDbBlockBegin
  2
G39
 70
     0
 10
0.0
 20
0.0
 30
0.0
  3
G39
  1

  0
LINE
  5
2BE
330
2BB
100
AcDbEntity
  8
1
  6
Continuous
 62
     7
370
     9
100
AcDbLine
 10
134.8288915477573
 20
186.7785794899735
 30
0.0
 11
136.1288915477573
 21
186.7785794899735
 31
0.0
  0
LINE
  5
2BF
330
2BB
100
AcDbEntity
  8
1
  6
Continuous
 62
     7
370
     9
100
AcDbLine
 10
136.1288915477573
 20
186.7785794899735
 30
0.0
 11
136.1288915477573
 21
182.7785794899741
 31
0.0
  0
LINE
  5
2C0
330
2BB
100
AcDbEntity
  8
1
  6
Continuous
 62
     7
370
     9
100
AcDbLine
 10
136.1288915477573
 20
182.7785794899741
 30
0.0
 11
134.8288915477573
 21
182.7785794899741
 31
0.0
  0
LINE
  5
2C1
330
2BB
100
AcDbEntity
  8
1
  6
Continuous
 62
     7
370
     9
100
AcDbLine
 10
134.8288915477573
 20
182.7785794899741
 30
0.0
 11
134.8288915477573
 21
186.7785794899735
 31
0.0
  0
ENDBLK
  5
2BD
330
2BB
100
AcDbEntity
  8
0
100
AcDbBlockEnd
  0
BLOCK
  5
2C4
330
2C3
100
AcDbEntity
  8
0
100
AcDbBlockBegin
  2
G40
 70
     0
 10
0.0
 20
0.0
 30
0.0
  3
G40
  1

  0
LINE
  5
2C6
330
2C3
100
AcDbEntity
  8
1
  6
Continuous
 62
     7
370
     9
100
AcDbLine
 10
132.3288915477574
 20
184.9785794899739
 30
0.0
 11
133.6288915477573
 21
184.9785794899739
 31
0.0
  0
LINE
  5
2C7
330
2C3
100
AcDbEntity
  8
1
  6
Continuous
 62
     7
370
     9
100
AcDbLine
 10
133.6288915477573
 20
184.9785794899739
 30
0.0
 11
133.6288915477573
 21
183.7785794899739
 31
0.0
  0
LINE
  5
2C8
330
2C3
100
AcDbEntity
  8
1
  6
Continuous
 62
     7
370
     9
100
AcDbLine
 10
133.6288915477573
 20
183.7785794899739
 30
0.0
 11
132.3288915477574
 21
183.7785794899739
 31
0.0
  0
LINE
  5
2C9
330
2C3
100
AcDbEntity
  8
1
  6
Continuous
 62
     7
370
     9
100
AcDbLine
 10
132.3288915477574
 20
183.7785794899739
 30
0.0
 11
132.3288915477574
 21
184.9785794899739
 31
0.0
  0
ENDBLK
  5
2C5
330
2C3
100
AcDbEntity
  8
0
100
AcDbBlockEnd
  0
BLOCK
  5
2CC
330
2CB
100
AcDbEntity
  8
0
100
AcDbBlockBegin
  2
G41
 70
     0
 10
0.0
 20
0.0
 30
0.0
  3
G41
  1

  0
LINE
  5
2CE
330
2CB
100
AcDbEntity
  8
1
  6
Continuous
 62
     7
370
     9
100
AcDbLine
 10
132.3288915477573
 20
185.7785794899739
 30
0.0
 11
133.6288915477573
 21
185.7785794899739
 31
0.0
  0
LINE
  5
2CF
330
2CB
100
AcDbEntity
  8
1
  6
Continuous
 62
     7
370
     9
100
AcDbLine
 10
133.6288915477573
 20
185.7785794899739
 30
0.0
 11
133.6288915477573
 21
183.7785794899739
 31
0.0
  0
LINE
  5
2D0
330
2CB
100
AcDbEntity
  8
1
  6
Continuous
 62
     7
370
     9
100
AcDbLine
 10
133.6288915477573
 20
183.7785794899739
 30
0.0
 11
132.3288915477573
 21
183.7785794899739
 31
0.0
  0
LINE
  5
2D1
330
2CB
100
AcDbEntity
  8
1
  6
Continuous
 62
     7
370
     9
100
AcDbLine
 10
132.3288915477573
 20
183.7785794899739
 30
0.0
 11
132.3288915477573
 21
185.7785794899739
 31
0.0
  0
ENDBLK
  5
2CD
330
2CB
100
AcDbEntity
  8
0
100
AcDbBlockEnd
  0
BLOCK
  5
2D4
330
2D3
100
AcDbEntity
  8
0
100
AcDbBlockBegin
  2
G42
 70
     0
 10
0.0
 20
0.0
 30
0.0
  3
G42
  1

  0
LINE
  5
2D6
330
2D3
100
AcDbEntity
  8
1
  6
Continuous
 62
     7
370
     9
100
AcDbLine
 10
132.3288915477573
 20
186.7785794899735
 30
0.0
 11
133.6288915477573
 21
186.7785794899735
 31
0.0
  0
LINE
  5
2D7
330
2D3
100
AcDbEntity
  8
1
  6
Continuous
 62
     7
370
     9
100
AcDbLine
 10
133.6288915477573
 20
186.7785794899735
 30
0.0
 11
133.6288915477573
 21
182.7785794899741
 31
0.0
  0
LINE
  5
2D8
330
2D3
100
AcDbEntity
  8
1
  6
Continuous
 62
     7
370
     9
100
AcDbLine
 10
133.6288915477573
 20
182.7785794899741
 30
0.0
 11
132.3288915477573
 21
182.7785794899741
 31
0.0
  0
LINE
  5
2D9
330
2D3
100
AcDbEntity
  8
1
  6
Continuous
 62
     7
370
     9
100
AcDbLine
 10
132.3288915477573
 20
182.7785794899741
 30
0.0
 11
132.3288915477573
 21
186.7785794899735
 31
0.0
  0
ENDBLK
  5
2D5
330
2D3
100
AcDbEntity
  8
0
100
AcDbBlockEnd
  0
BLOCK
  5
2DC
330
2DB
100
AcDbEntity
  8
0
100
AcDbBlockBegin
  2
G43
 70
     0
 10
0.0
 20
0.0
 30
0.0
  3
G43
  1

  0
LINE
  5
2DE
330
2DB
100
AcDbEntity
  8
1
  6
Continuous
 62
     7
370
     9
100
AcDbLine
 10
129.8288915477575
 20
184.9785794899739
 30
0.0
 11
131.1288915477575
 21
184.9785794899739
 31
0.0
  0
LINE
  5
2DF
330
2DB
100
AcDbEntity
  8
1
  6
Continuous
 62
     7
370
     9
100
AcDbLine
 10
131.1288915477575
 20
184.9785794899739
 30
0.0
 11
131.1288915477575
 21
183.7785794899739
 31
0.0
  0
LINE
  5
2E0
330
2DB
100
AcDbEntity
  8
1
  6
Continuous
 62
     7
370
     9
100
AcDbLine
 10
131.1288915477575
 20
183.7785794899739
 30
0.0
 11
129.8288915477575
 21
183.7785794899739
 31
0.0
  0
LINE
  5
2E1
330
2DB
100
AcDbEntity
  8
1
  6
Continuous
 62
     7
370
     9
100
AcDbLine
 10
129.8288915477575
 20
183.7785794899739
 30
0.0
 11
129.8288915477575
 21
184.9785794899739
 31
0.0
  0
ENDBLK
  5
2DD
330
2DB
100
AcDbEntity
  8
0
100
AcDbBlockEnd
  0
BLOCK
  5
2E4
330
2E3
100
AcDbEntity
  8
0
100
AcDbBlockBegin
  2
G44
 70
     0
 10
0.0
 20
0.0
 30
0.0
  3
G44
  1

  0
LINE
  5
2E6
330
2E3
100
AcDbEntity
  8
1
  6
Continuous
 62
     7
370
     9
100
AcDbLine
 10
129.8288915477574
 20
185.7785794899739
 30
0.0
 11
131.1288915477575
 21
185.7785794899739
 31
0.0
  0
LINE
  5
2E7
330
2E3
100
AcDbEntity
  8
1
  6
Continuous
 62
     7
370
     9
100
AcDbLine
 10
131.1288915477575
 20
185.7785794899739
 30
0.0
 11
131.1288915477575
 21
183.7785794899739
 31
0.0
  0
LINE
  5
2E8
330
2E3
100
AcDbEntity
  8
1
  6
Continuous
 62
     7
370
     9
100
AcDbLine
 10
131.1288915477575
 20
183.7785794899739
 30
0.0
 11
129.8288915477574
 21
183.7785794899739
 31
0.0
  0
LINE
  5
2E9
330
2E3
100
AcDbEntity
  8
1
  6
Continuous
 62
     7
370
     9
100
AcDbLine
 10
129.8288915477574
 20
183.7785794899739
 30
0.0
 11
129.8288915477574
 21
185.7785794899739
 31
0.0
  0
ENDBLK
  5
2E5
330
2E3
100
AcDbEntity
  8
0
100
AcDbBlockEnd
  0
BLOCK
  5
2EC
330
2EB
100
AcDbEntity
  8
0
100
AcDbBlockBegin
  2
G45
 70
     0
 10
0.0
 20
0.0
 30
0.0
  3
G45
  1

  0
LINE
  5
2EE
330
2EB
100
AcDbEntity
  8
1
  6
Continuous
 62
     7
370
     9
100
AcDbLine
 10
129.8288915477574
 20
186.7785794899735
 30
0.0
 11
131.1288915477575
 21
186.7785794899735
 31
0.0
  0
LINE
  5
2EF
330
2EB
100
AcDbEntity
  8
1
  6
Continuous
 62
     7
370
     9
100
AcDbLine
 10
131.1288915477575
 20
186.7785794899735
 30
0.0
 11
131.1288915477575
 21
182.7785794899741
 31
0.0
  0
LINE
  5
2F0
330
2EB
100
AcDbEntity
  8
1
  6
Continuous
 62
     7
370
     9
100
AcDbLine
 10
131.1288915477575
 20
182.7785794899741
 30
0.0
 11
129.8288915477574
 21
182.7785794899741
 31
0.0
  0
LINE
  5
2F1
330
2EB
100
AcDbEntity
  8
1
  6
Continuous
 62
     7
370
     9
100
AcDbLine
 10
129.8288915477574
 20
182.7785794899741
 30
0.0
 11
129.8288915477574
 21
186.7785794899735
 31
0.0
  0
ENDBLK
  5
2ED
330
2EB
100
AcDbEntity
  8
0
100
AcDbBlockEnd
  0
BLOCK
  5
2F4
330
2F3
100
AcDbEntity
  8
0
100
AcDbBlockBegin
  2
G46
 70
     0
 10
0.0
 20
0.0
 30
0.0
  3
G46
  1

  0
LINE
  5
2F6
330
2F3
100
AcDbEntity
  8
1
  6
Continuous
 62
     7
370
     9
100
AcDbLine
 10
128.4788915477571
 20
188.0285794899739
 30
0.0
 11
144.9788915477571
 21
188.0285794899739
 31
0.0
  0
LINE
  5
2F7
330
2F3
100
AcDbEntity
  8
1
  6
Continuous
 62
     7
370
     9
100
AcDbLine
 10
144.9788915477571
 20
188.0285794899739
 30
0.0
 11
144.9788915477571
 21
181.5285794899739
 31
0.0
  0
LINE
  5
2F8
330
2F3
100
AcDbEntity
  8
1
  6
Continuous
 62
     7
370
     9
100
AcDbLine
 10
144.9788915477571
 20
181.5285794899739
 30
0.0
 11
128.4788915477571
 21
181.5285794899739
 31
0.0
  0
LINE
  5
2F9
330
2F3
100
AcDbEntity
  8
1
  6
Continuous
 62
     7
370
     9
100
AcDbLine
 10
128.4788915477571
 20
181.5285794899739
 30
0.0
 11
128.4788915477571
 21
188.0285794899739
 31
0.0
  0
ENDBLK
  5
2F5
330
2F3
100
AcDbEntity
  8
0
100
AcDbBlockEnd
  0
BLOCK
  5
2FE
330
2FD
100
AcDbEntity
  8
0
100
AcDbBlockBegin
  2
G47
 70
     0
 10
0.0
 20
0.0
 30
0.0
  3
G47
  1

  0
ARC
  5
300
330
2FD
100
AcDbEntity
  8
1
  6
Continuous
 62
     7
370
     9
100
AcDbCircle
 10
96.7288915477572
 20
214.0285794899739
 30
0.0
 40
3.0
100
AcDbArc
 50
89.99999999999991
 51
179.9999999999995
  0
LINE
  5
301
330
2FD
100
AcDbEntity
  8
1
  6
Continuous
 62
     7
370
     9
100
AcDbLine
 10
93.7288915477572
 20
178.028579489974
 30
0.0
 11
93.7288915477572
 21
214.028579489974
 31
0.0
  0
ARC
  5
302
330
2FD
100
AcDbEntity
  8
1
  6
Continuous
 62
     7
370
     9
100
AcDbCircle
 10
96.7288915477572
 20
178.0285794899739
 30
0.0
 40
3.0
100
AcDbArc
 50
179.9999999999995
 51
269.9999999999998
  0
LINE
  5
303
330
2FD
100
AcDbEntity
  8
1
  6
Continuous
 62
     7
370
     9
100
AcDbLine
 10
170.7288915477571
 20
175.0285794899739
 30
0.0
 11
96.7288915477572
 21
175.0285794899739
 31
0.0
  0
ARC
  5
304
330
2FD
100
AcDbEntity
  8
1
  6
Continuous
 62
     7
370
     9
100
AcDbCircle
 10
170.7288915477571
 20
178.0285794899739
 30
0.0
 40
3.0
100
AcDbArc
 50
269.9999999999998
 51
0.0
  0
LINE
  5
305
330
2FD
100
AcDbEntity
  8
1
  6
Continuous
 62
     7
370
     9
100
AcDbLine
 10
173.7288915477571
 20
214.0285794899739
 30
0.0
 11
173.7288915477571
 21
178.0285794899739
 31
0.0
  0
LINE
  5
306
330
2FD
100
AcDbEntity
  8
1
  6
Continuous
 62
     7
370
     9
100
AcDbLine
 10
96.7288915477572
 20
217.0285794899739
 30
0.0
 11
170.7288915477571
 21
217.0285794899739
 31
0.0
  0
ARC
  5
307
330
2FD
100
AcDbEntity
  8
1
  6
Continuous
 62
     7
370
     9
100
AcDbCircle
 10
170.7288915477571
 20
214.0285794899739
 30
0.0
 40
3.0
100
AcDbArc
 50
0.0
 51
89.99999999999991
  0
ENDBLK
  5
2FF
330
2FD
100
AcDbEntity
  8
0
100
AcDbBlockEnd
  0
BLOCK
  5
30A
330
309
100
AcDbEntity
  8
0
100
AcDbBlockBegin
  2
G48
 70
     0
 10
0.0
 20
0.0
 30
0.0
  3
G48
  1

  0
LINE
  5
30C
330
309
100
AcDbEntity
  8
1
  6
Continuous
 62
     7
370
     9
100
AcDbLine
 10
146.7288915477571
 20
175.0285794899739
 30
0.0
 11
126.7288915477571
 21
175.0285794899739
 31
0.0
  0
ARC
  5
30D
330
309
100
AcDbEntity
  8
1
  6
Continuous
 62
     7
370
     9
100
AcDbCircle
 10
127.2288915477571
 20
189.0285794899739
 30
0.0
 40
0.5
100
AcDbArc
 50
89.99999999999349
 51
179.9999999999967
  0
LINE
  5
30E
330
309
100
AcDbEntity
  8
1
  6
Continuous
 62
     7
370
     9
100
AcDbLine
 10
127.2288915477572
 20
189.5285794899739
 30
0.0
 11
146.2288915477571
 21
189.5285794899739
 31
0.0
  0
ARC
  5
30F
330
309
100
AcDbEntity
  8
1
  6
Continuous
 62
     7
370
     9
100
AcDbCircle
 10
146.2288915477571
 20
189.0285794899739
 30
0.0
 40
0.5
100
AcDbArc
 50
359.9999999999964
 51
89.99999999999991
  0
LINE
  5
310
330
309
100
AcDbEntity
  8
1
  6
Continuous
 62
     7
370
     9
100
AcDbLine
 10
126.7288915477571
 20
175.528579489974
 30
0.0
 11
126.7288915477571
 21
189.028579489974
 31
0.0
  0
ARC
  5
311
330
309
100
AcDbEntity
  8
1
  6
Continuous
 62
     7
370
     9
100
AcDbCircle
 10
126.2288915477571
 20
175.5285794899739
 30
0.0
 40
0.5
100
AcDbArc
 50
270.0000000000061
 51
0.0000000000032569
  0
LINE
  5
312
330
309
100
AcDbEntity
  8
1
  6
Continuous
 62
     7
370
     9
100
AcDbLine
 10
146.7288915477571
 20
189.0285794899739
 30
0.0
 11
146.7288915477571
 21
175.5285794899739
 31
0.0
  0
ARC
  5
313
330
309
100
AcDbEntity
  8
1
  6
Continuous
 62
     7
370
     9
100
AcDbCircle
 10
147.2288915477571
 20
175.5285794899739
 30
0.0
 40
0.5
100
AcDbArc
 50
180.0000000000029
 51
269.9999999999998
  0
ENDBLK
  5
30B
330
309
100
AcDbEntity
  8
0
100
AcDbBlockEnd
  0
BLOCK
  5
31C
330
31B
100
AcDbEntity
  8
0
100
AcDbBlockBegin
  2
Dim1
 70
     0
 10
0.0
 20
0.0
 30
0.0
  3
Dim1
  1

  0
LINE
  5
31E
330
31B
100
AcDbEntity
  8
1
  6
Continuous
 62
     7
370
     9
100
AcDbLine
 10
83.7288915477572
 20
198.0285794899739
 30
0.0
 11
83.72889154775726
 21
249.028579489974
 31
0.0
  0
LINE
  5
31F
330
31B
100
AcDbEntity
  8
1
  6
Continuous
 62
     7
370
     9
100
AcDbLine
 10
183.7288915477574
 20
198.0285794899739
 30
0.0
 11
183.7288915477575
 21
249.028579489974
 31
0.0
  0
LINE
  5
320
330
31B
100
AcDbEntity
  8
1
  6
Continuous
 62
     7
370
     9
100
AcDbLine
 10
83.72889154775726
 20
247.028579489974
 30
0.0
 11
183.7288915477575
 21
247.028579489974
 31
0.0
  0
MTEXT
  5
321
330
31B
100
AcDbEntity
  8
1
  6
Continuous
 62
     7
370
     9
100
AcDbMText
 10
133.7288915477574
 20
247.528579489974
 30
0.0
 40
3.0
 41
36.42857142857143
 46
3.0
 71
     8
 72
     1
  1
100
  7
ＭＳ ゴシック
 73
     1
 44
1.0
  0
INSERT
  5
322
330
31B
100
AcDbEntity
  8
1
  6
Continuous
 62
     7
370
     9
100
AcDbBlockReference
  2
_OPEN
 10
83.72889154775726
 20
247.028579489974
 30
0.0
 41
2.4
 42
2.4
 43
2.4
 50
179.9999999999998
  0
INSERT
  5
323
330
31B
100
AcDbEntity
  8
1
  6
Continuous
 62
     7
370
     9
100
AcDbBlockReference
  2
_OPEN
 10
183.7288915477575
 20
247.028579489974
 30
0.0
 41
2.4
 42
2.4
 43
2.4
 50
359.9999999999997
  0
ENDBLK
  5
31D
330
31B
100
AcDbEntity
  8
0
100
AcDbBlockEnd
  0
BLOCK
  5
326
330
325
100
AcDbEntity
  8
0
100
AcDbBlockBegin
  2
Dim2
 70
     0
 10
0.0
 20
0.0
 30
0.0
  3
Dim2
  1

  0
LINE
  5
328
330
325
100
AcDbEntity
  8
1
  6
Continuous
 62
     7
370
     9
100
AcDbLine
 10
88.7288915477572
 20
207.0285794899739
 30
0.0
 11
88.72889154775726
 21
239.0285794899739
 31
0.0
  0
LINE
  5
329
330
325
100
AcDbEntity
  8
1
  6
Continuous
 62
     7
370
     9
100
AcDbLine
 10
178.7288915477571
 20
207.0285794899739
 30
0.0
 11
178.7288915477573
 21
239.0285794899739
 31
0.0
  0
LINE
  5
32A
330
325
100
AcDbEntity
  8
1
  6
Continuous
 62
     7
370
     9
100
AcDbLine
 10
88.72889154775726
 20
237.0285794899739
 30
0.0
 11
178.7288915477573
 21
237.0285794899739
 31
0.0
  0
MTEXT
  5
32B
330
325
100
AcDbEntity
  8
1
  6
Continuous
 62
     7
370
     9
100
AcDbMText
 10
133.7288915477573
 20
237.5285794899739
 30
0.0
 40
3.0
 41
24.28571428571428
 46
3.0
 71
     8
 72
     1
  1
90
  7
ＭＳ ゴシック
 73
     1
 44
1.0
  0
INSERT
  5
32C
330
325
100
AcDbEntity
  8
1
  6
Continuous
 62
     7
370
     9
100
AcDbBlockReference
  2
_OPEN
 10
88.72889154775726
 20
237.0285794899739
 30
0.0
 41
2.4
 42
2.4
 43
2.4
 50
179.9999999999998
  0
INSERT
  5
32D
330
325
100
AcDbEntity
  8
1
  6
Continuous
 62
     7
370
     9
100
AcDbBlockReference
  2
_OPEN
 10
178.7288915477573
 20
237.0285794899739
 30
0.0
 41
2.4
 42
2.4
 43
2.4
 50
359.9999999999997
  0
ENDBLK
  5
327
330
325
100
AcDbEntity
  8
0
100
AcDbBlockEnd
  0
BLOCK
  5
330
330
32F
100
AcDbEntity
  8
0
100
AcDbBlockBegin
  2
Dim3
 70
     0
 10
0.0
 20
0.0
 30
0.0
  3
Dim3
  1

  0
LINE
  5
332
330
32F
100
AcDbEntity
  8
1
  6
Continuous
 62
     7
370
     9
100
AcDbLine
 10
93.7288915477572
 20
215.8632057929356
 30
0.0
 11
93.7288915477572
 21
229.0285794899739
 31
0.0
  0
LINE
  5
333
330
32F
100
AcDbEntity
  8
1
  6
Continuous
 62
     7
370
     9
100
AcDbLine
 10
173.7288915477571
 20
215.3871918501298
 30
0.0
 11
173.7288915477571
 21
229.0285794899739
 31
0.0
  0
LINE
  5
334
330
32F
100
AcDbEntity
  8
1
  6
Continuous
 62
     7
370
     9
100
AcDbLine
 10
93.7288915477572
 20
227.0285794899739
 30
0.0
 11
173.7288915477571
 21
227.0285794899739
 31
0.0
  0
MTEXT
  5
335
330
32F
100
AcDbEntity
  8
1
  6
Continuous
 62
     7
370
     9
100
AcDbMText
 10
133.7288915477571
 20
227.5285794899739
 30
0.0
 40
3.0
 41
24.28571428571428
 46
3.0
 71
     8
 72
     1
  1
80
  7
ＭＳ ゴシック
 73
     1
 44
1.0
  0
INSERT
  5
336
330
32F
100
AcDbEntity
  8
1
  6
Continuous
 62
     7
370
     9
100
AcDbBlockReference
  2
_OPEN
 10
93.7288915477572
 20
227.0285794899739
 30
0.0
 41
2.4
 42
2.4
 43
2.4
 50
179.9999999999998
  0
INSERT
  5
337
330
32F
100
AcDbEntity
  8
1
  6
Continuous
 62
     7
370
     9
100
AcDbBlockReference
  2
_OPEN
 10
173.7288915477571
 20
227.0285794899739
 30
0.0
 41
2.4
 42
2.4
 43
2.4
 50
359.9999999999997
  0
ENDBLK
  5
331
330
32F
100
AcDbEntity
  8
0
100
AcDbBlockEnd
  0
BLOCK
  5
33A
330
339
100
AcDbEntity
  8
0
100
AcDbBlockBegin
  2
Dim4
 70
     0
 10
0.0
 20
0.0
 30
0.0
  3
Dim4
  1

  0
LINE
  5
33C
330
339
100
AcDbEntity
  8
1
  6
Continuous
 62
     7
370
     9
100
AcDbLine
 10
172.7288915477571
 20
217.0285794899739
 30
0.0
 11
205.7288915477571
 21
217.0285794899739
 31
0.0
  0
LINE
  5
33D
330
339
100
AcDbEntity
  8
1
  6
Continuous
 62
     7
370
     9
100
AcDbLine
 10
172.7288915477571
 20
175.0285794899739
 30
0.0
 11
205.7288915477571
 21
175.0285794899739
 31
0.0
  0
LINE
  5
33E
330
339
100
AcDbEntity
  8
1
  6
Continuous
 62
     7
370
     9
100
AcDbLine
 10
203.7288915477571
 20
217.0285794899739
 30
0.0
 11
203.7288915477571
 21
175.0285794899739
 31
0.0
  0
MTEXT
  5
33F
330
339
100
AcDbEntity
  8
1
  6
Continuous
 62
     7
370
     9
100
AcDbMText
 10
203.2288915477571
 20
196.0285794899739
 30
0.0
 40
3.0
 41
24.28571428571428
 46
3.0
 71
     8
 72
     1
  1
42
  7
ＭＳ ゴシック
 11
1.837589179357618E-15
 21
1.0
 31
0.0
 73
     1
 44
1.0
  0
INSERT
  5
340
330
339
100
AcDbEntity
  8
1
  6
Continuous
 62
     7
370
     9
100
AcDbBlockReference
  2
_OPEN
 10
203.7288915477571
 20
217.0285794899739
 30
0.0
 41
2.4
 42
2.4
 43
2.4
 50
89.9999999999999
  0
INSERT
  5
341
330
339
100
AcDbEntity
  8
1
  6
Continuous
 62
     7
370
     9
100
AcDbBlockReference
  2
_OPEN
 10
203.7288915477571
 20
175.0285794899739
 30
0.0
 41
2.4
 42
2.4
 43
2.4
 50
269.9999999999999
  0
ENDBLK
  5
33B
330
339
100
AcDbEntity
  8
0
100
AcDbBlockEnd
  0
BLOCK
  5
344
330
343
100
AcDbEntity
  8
0
100
AcDbBlockBegin
  2
Dim5
 70
     0
 10
0.0
 20
0.0
 30
0.0
  3
Dim5
  1

  0
LINE
  5
346
330
343
100
AcDbEntity
  8
1
  6
Continuous
 62
     7
370
     9
100
AcDbLine
 10
180.7288915477571
 20
204.0285794899739
 30
0.0
 11
195.7288915477571
 21
204.0285794899739
 31
0.0
  0
LINE
  5
347
330
343
100
AcDbEntity
  8
1
  6
Continuous
 62
     7
370
     9
100
AcDbLine
 10
180.7288915477574
 20
188.0285794899739
 30
0.0
 11
195.7288915477571
 21
188.0285794899739
 31
0.0
  0
LINE
  5
348
330
343
100
AcDbEntity
  8
1
  6
Continuous
 62
     7
370
     9
100
AcDbLine
 10
193.7288915477571
 20
204.0285794899739
 30
0.0
 11
193.7288915477571
 21
188.0285794899739
 31
0.0
  0
MTEXT
  5
349
330
343
100
AcDbEntity
  8
1
  6
Continuous
 62
     7
370
     9
100
AcDbMText
 10
193.2288915477571
 20
196.0285794899739
 30
0.0
 40
3.0
 41
22.14285714285714
 46
3.0
 71
     8
 72
     1
  1
16
  7
ＭＳ ゴシック
 11
1.393499969507555E-15
 21
1.0
 31
0.0
 73
     1
 44
1.0
  0
INSERT
  5
34A
330
343
100
AcDbEntity
  8
1
  6
Continuous
 62
     7
370
     9
100
AcDbBlockReference
  2
_OPEN
 10
193.7288915477571
 20
204.0285794899739
 30
0.0
 41
2.4
 42
2.4
 43
2.4
 50
89.99999999999991
  0
INSERT
  5
34B
330
343
100
AcDbEntity
  8
1
  6
Continuous
 62
     7
370
     9
100
AcDbBlockReference
  2
_OPEN
 10
193.7288915477571
 20
188.0285794899739
 30
0.0
 41
2.4
 42
2.4
 43
2.4
 50
269.9999999999999
  0
ENDBLK
  5
345
330
343
100
AcDbEntity
  8
0
100
AcDbBlockEnd
  0
BLOCK
  5
37E
330
37D
100
AcDbEntity
  8
0
100
AcDbBlockBegin
  2
Dim6
 70
     0
 10
0.0
 20
0.0
 30
0.0
  3
Dim6
  1

  0
LINE
  5
380
330
37D
100
AcDbEntity
  8
1
  6
Continuous
 62
     7
370
     9
100
AcDbLine
 10
176.7288915477571
 20
188.0285794899739
 30
0.0
 11
176.728891547757
 21
180.0068430739638
 31
0.0
  0
LINE
  5
381
330
37D
100
AcDbEntity
  8
1
  6
Continuous
 62
     7
370
     9
100
AcDbLine
 10
180.7288915477574
 20
188.0285794899739
 30
0.0
 11
180.7288915477574
 21
180.0068430739638
 31
0.0
  0
LINE
  5
382
330
37D
100
AcDbEntity
  8
1
  6
Continuous
 62
     7
370
     9
100
AcDbLine
 10
174.328891547757
 20
182.0068430739638
 30
0.0
 11
183.1288915477574
 21
182.0068430739638
 31
0.0
  0
MTEXT
  5
383
330
37D
100
AcDbEntity
  8
1
  6
Continuous
 62
     7
370
     9
100
AcDbMText
 10
178.7288915477571
 20
182.5068430739638
 30
0.0
 40
3.0
 41
10.71428571428571
 46
3.0
 71
     8
 72
     1
  1
4
  7
ＭＳ ゴシック
 73
     1
 44
1.0
  0
INSERT
  5
384
330
37D
100
AcDbEntity
  8
1
  6
Continuous
 62
     7
370
     9
100
AcDbBlockReference
  2
_OPEN
 10
176.728891547757
 20
182.0068430739638
 30
0.0
 41
2.4
 42
2.4
 43
2.4
 50
359.9999999999997
  0
INSERT
  5
385
330
37D
100
AcDbEntity
  8
1
  6
Continuous
 62
     7
370
     9
100
AcDbBlockReference
  2
_OPEN
 10
180.7288915477574
 20
182.0068430739638
 30
0.0
 41
2.4
 42
2.4
 43
2.4
 50
179.9999999999995
  0
ENDBLK
  5
37F
330
37D
100
AcDbEntity
  8
0
100
AcDbBlockEnd
  0
BLOCK
  5
388
330
387
100
AcDbEntity
  8
0
100
AcDbBlockBegin
  2
G49
 70
     0
 10
0.0
 20
0.0
 30
0.0
  3
G49
  1

  0
LINE
  5
38A
330
387
100
AcDbEntity
  8
1
  6
Continuous
 62
     7
370
     9
100
AcDbLine
 10
248.2288915477569
 20
196.0285794899739
 30
0.0
 11
250.7288915477571
 21
196.0285794899739
 31
0.0
  0
LINE
  5
38B
330
387
100
AcDbEntity
  8
1
  6
Continuous
 62
     7
370
     9
100
AcDbLine
 10
250.7288915477571
 20
196.0285794899739
 30
0.0
 11
250.7288915477571
 21
180.0285794899739
 31
0.0
  0
LINE
  5
38C
330
387
100
AcDbEntity
  8
1
  6
Continuous
 62
     7
370
     9
100
AcDbLine
 10
250.7288915477571
 20
180.0285794899739
 30
0.0
 11
248.2288915477569
 21
180.0285794899739
 31
0.0
  0
LINE
  5
38D
330
387
100
AcDbEntity
  8
1
  6
Continuous
 62
     7
370
     9
100
AcDbLine
 10
248.2288915477569
 20
180.0285794899739
 30
0.0
 11
248.2288915477569
 21
196.0285794899739
 31
0.0
  0
ENDBLK
  5
389
330
387
100
AcDbEntity
  8
0
100
AcDbBlockEnd
  0
BLOCK
  5
390
330
38F
100
AcDbEntity
  8
0
100
AcDbBlockBegin
  2
G50
 70
     0
 10
0.0
 20
0.0
 30
0.0
  3
G50
  1

  0
LINE
  5
392
330
38F
100
AcDbEntity
  8
1
  6
Continuous
 62
     7
370
     9
100
AcDbLine
 10
250.7288915477569
 20
217.0285794899739
 30
0.0
 11
253.7288915477571
 21
217.0285794899739
 31
0.0
  0
LINE
  5
393
330
38F
100
AcDbEntity
  8
1
  6
Continuous
 62
     7
370
     9
100
AcDbLine
 10
253.7288915477571
 20
217.0285794899739
 30
0.0
 11
253.7288915477571
 21
175.0285794899739
 31
0.0
  0
LINE
  5
394
330
38F
100
AcDbEntity
  8
1
  6
Continuous
 62
     7
370
     9
100
AcDbLine
 10
253.7288915477571
 20
175.0285794899739
 30
0.0
 11
250.7288915477569
 21
175.0285794899739
 31
0.0
  0
LINE
  5
395
330
38F
100
AcDbEntity
  8
1
  6
Continuous
 62
     7
370
     9
100
AcDbLine
 10
250.7288915477569
 20
175.0285794899739
 30
0.0
 11
250.7288915477569
 21
217.0285794899739
 31
0.0
  0
ENDBLK
  5
391
330
38F
100
AcDbEntity
  8
0
100
AcDbBlockEnd
  0
BLOCK
  5
398
330
397
100
AcDbEntity
  8
0
100
AcDbBlockBegin
  2
G51
 70
     0
 10
0.0
 20
0.0
 30
0.0
  3
G51
  1

  0
LINE
  5
39A
330
397
100
AcDbEntity
  8
1
  6
Continuous
 62
     7
370
     9
100
AcDbLine
 10
244.228891547757
 20
193.2785794899739
 30
0.0
 11
244.728891547757
 21
193.2785794899739
 31
0.0
  0
LINE
  5
39B
330
397
100
AcDbEntity
  8
1
  6
Continuous
 62
     7
370
     9
100
AcDbLine
 10
244.728891547757
 20
193.2785794899739
 30
0.0
 11
244.728891547757
 21
192.7785794899739
 31
0.0
  0
LINE
  5
39C
330
397
100
AcDbEntity
  8
1
  6
Continuous
 62
     7
370
     9
100
AcDbLine
 10
244.728891547757
 20
192.7785794899739
 30
0.0
 11
244.228891547757
 21
192.7785794899739
 31
0.0
  0
LINE
  5
39D
330
397
100
AcDbEntity
  8
1
  6
Continuous
 62
     7
370
     9
100
AcDbLine
 10
244.228891547757
 20
192.7785794899739
 30
0.0
 11
244.228891547757
 21
193.2785794899739
 31
0.0
  0
ENDBLK
  5
399
330
397
100
AcDbEntity
  8
0
100
AcDbBlockEnd
  0
BLOCK
  5
3A0
330
39F
100
AcDbEntity
  8
0
100
AcDbBlockBegin
  2
G52
 70
     0
 10
0.0
 20
0.0
 30
0.0
  3
G52
  1

  0
LINE
  5
3A2
330
39F
100
AcDbEntity
  8
1
  6
Continuous
 62
     7
370
     9
100
AcDbLine
 10
244.2288915477569
 20
191.2785794899739
 30
0.0
 11
244.7288915477569
 21
191.2785794899739
 31
0.0
  0
LINE
  5
3A3
330
39F
100
AcDbEntity
  8
1
  6
Continuous
 62
     7
370
     9
100
AcDbLine
 10
244.7288915477569
 20
191.2785794899739
 30
0.0
 11
244.7288915477569
 21
190.7785794899739
 31
0.0
  0
LINE
  5
3A4
330
39F
100
AcDbEntity
  8
1
  6
Continuous
 62
     7
370
     9
100
AcDbLine
 10
244.7288915477569
 20
190.7785794899739
 30
0.0
 11
244.2288915477569
 21
190.7785794899739
 31
0.0
  0
LINE
  5
3A5
330
39F
100
AcDbEntity
  8
1
  6
Continuous
 62
     7
370
     9
100
AcDbLine
 10
244.2288915477569
 20
190.7785794899739
 30
0.0
 11
244.2288915477569
 21
191.2785794899739
 31
0.0
  0
ENDBLK
  5
3A1
330
39F
100
AcDbEntity
  8
0
100
AcDbBlockEnd
  0
BLOCK
  5
3A8
330
3A7
100
AcDbEntity
  8
0
100
AcDbBlockBegin
  2
G53
 70
     0
 10
0.0
 20
0.0
 30
0.0
  3
G53
  1

  0
LINE
  5
3AA
330
3A7
100
AcDbEntity
  8
1
  6
Continuous
 62
     7
370
     9
100
AcDbLine
 10
244.228891547757
 20
189.278579489974
 30
0.0
 11
244.728891547757
 21
189.278579489974
 31
0.0
  0
LINE
  5
3AB
330
3A7
100
AcDbEntity
  8
1
  6
Continuous
 62
     7
370
     9
100
AcDbLine
 10
244.728891547757
 20
189.278579489974
 30
0.0
 11
244.728891547757
 21
188.7785794899739
 31
0.0
  0
LINE
  5
3AC
330
3A7
100
AcDbEntity
  8
1
  6
Continuous
 62
     7
370
     9
100
AcDbLine
 10
244.728891547757
 20
188.7785794899739
 30
0.0
 11
244.228891547757
 21
188.7785794899739
 31
0.0
  0
LINE
  5
3AD
330
3A7
100
AcDbEntity
  8
1
  6
Continuous
 62
     7
370
     9
100
AcDbLine
 10
244.228891547757
 20
188.7785794899739
 30
0.0
 11
244.228891547757
 21
189.278579489974
 31
0.0
  0
ENDBLK
  5
3A9
330
3A7
100
AcDbEntity
  8
0
100
AcDbBlockEnd
  0
BLOCK
  5
3B0
330
3AF
100
AcDbEntity
  8
0
100
AcDbBlockBegin
  2
G54
 70
     0
 10
0.0
 20
0.0
 30
0.0
  3
G54
  1

  0
LINE
  5
3B2
330
3AF
100
AcDbEntity
  8
1
  6
Continuous
 62
     7
370
     9
100
AcDbLine
 10
244.2288915477569
 20
187.2785794899739
 30
0.0
 11
244.728891547757
 21
187.2785794899739
 31
0.0
  0
LINE
  5
3B3
330
3AF
100
AcDbEntity
  8
1
  6
Continuous
 62
     7
370
     9
100
AcDbLine
 10
244.728891547757
 20
187.2785794899739
 30
0.0
 11
244.728891547757
 21
186.7785794899751
 31
0.0
  0
LINE
  5
3B4
330
3AF
100
AcDbEntity
  8
1
  6
Continuous
 62
     7
370
     9
100
AcDbLine
 10
244.728891547757
 20
186.7785794899751
 30
0.0
 11
244.2288915477569
 21
186.7785794899751
 31
0.0
  0
LINE
  5
3B5
330
3AF
100
AcDbEntity
  8
1
  6
Continuous
 62
     7
370
     9
100
AcDbLine
 10
244.2288915477569
 20
186.7785794899751
 30
0.0
 11
244.2288915477569
 21
187.2785794899739
 31
0.0
  0
ENDBLK
  5
3B1
330
3AF
100
AcDbEntity
  8
0
100
AcDbBlockEnd
  0
BLOCK
  5
3B8
330
3B7
100
AcDbEntity
  8
0
100
AcDbBlockBegin
  2
G55
 70
     0
 10
0.0
 20
0.0
 30
0.0
  3
G55
  1

  0
LINE
  5
3BA
330
3B7
100
AcDbEntity
  8
1
  6
Continuous
 62
     7
370
     9
100
AcDbLine
 10
244.228891547757
 20
185.2785794899752
 30
0.0
 11
244.7288915477569
 21
185.2785794899752
 31
0.0
  0
LINE
  5
3BB
330
3B7
100
AcDbEntity
  8
1
  6
Continuous
 62
     7
370
     9
100
AcDbLine
 10
244.7288915477569
 20
185.2785794899752
 30
0.0
 11
244.7288915477569
 21
184.7785794899752
 31
0.0
  0
LINE
  5
3BC
330
3B7
100
AcDbEntity
  8
1
  6
Continuous
 62
     7
370
     9
100
AcDbLine
 10
244.7288915477569
 20
184.7785794899752
 30
0.0
 11
244.228891547757
 21
184.7785794899752
 31
0.0
  0
LINE
  5
3BD
330
3B7
100
AcDbEntity
  8
1
  6
Continuous
 62
     7
370
     9
100
AcDbLine
 10
244.228891547757
 20
184.7785794899752
 30
0.0
 11
244.228891547757
 21
185.2785794899752
 31
0.0
  0
ENDBLK
  5
3B9
330
3B7
100
AcDbEntity
  8
0
100
AcDbBlockEnd
  0
BLOCK
  5
3C0
330
3BF
100
AcDbEntity
  8
0
100
AcDbBlockBegin
  2
G56
 70
     0
 10
0.0
 20
0.0
 30
0.0
  3
G56
  1

  0
LINE
  5
3C2
330
3BF
100
AcDbEntity
  8
1
  6
Continuous
 62
     7
370
     9
100
AcDbLine
 10
244.228891547757
 20
183.2785794899752
 30
0.0
 11
244.728891547757
 21
183.2785794899752
 31
0.0
  0
LINE
  5
3C3
330
3BF
100
AcDbEntity
  8
1
  6
Continuous
 62
     7
370
     9
100
AcDbLine
 10
244.728891547757
 20
183.2785794899752
 30
0.0
 11
244.728891547757
 21
182.7785794899752
 31
0.0
  0
LINE
  5
3C4
330
3BF
100
AcDbEntity
  8
1
  6
Continuous
 62
     7
370
     9
100
AcDbLine
 10
244.728891547757
 20
182.7785794899752
 30
0.0
 11
244.228891547757
 21
182.7785794899752
 31
0.0
  0
LINE
  5
3C5
330
3BF
100
AcDbEntity
  8
1
  6
Continuous
 62
     7
370
     9
100
AcDbLine
 10
244.228891547757
 20
182.7785794899752
 30
0.0
 11
244.228891547757
 21
183.2785794899752
 31
0.0
  0
ENDBLK
  5
3C1
330
3BF
100
AcDbEntity
  8
0
100
AcDbBlockEnd
  0
BLOCK
  5
3C8
330
3C7
100
AcDbEntity
  8
0
100
AcDbBlockBegin
  2
G57
 70
     0
 10
0.0
 20
0.0
 30
0.0
  3
G57
  1

  0
LINE
  5
3CA
330
3C7
100
AcDbEntity
  8
1
  6
Continuous
 62
     7
370
     9
100
AcDbLine
 10
250.7288915477569
 20
217.0285794899739
 30
0.0
 11
250.7288915477569
 21
175.0285794899739
 31
0.0
  0
LINE
  5
3CB
330
3C7
100
AcDbEntity
  8
1
  6
Continuous
 62
     7
370
     9
100
AcDbLine
 10
236.7288915477571
 20
217.0285794899739
 30
0.0
 11
250.7288915477569
 21
217.0285794899739
 31
0.0
  0
ARC
  5
3CC
330
3C7
100
AcDbEntity
  8
1
  6
Continuous
 62
     7
370
     9
100
AcDbCircle
 10
236.7288915477571
 20
214.0285794899739
 30
0.0
 40
3.0
100
AcDbArc
 50
89.99999999999991
 51
179.9999999999998
  0
LINE
  5
3CD
330
3C7
100
AcDbEntity
  8
1
  6
Continuous
 62
     7
370
     9
100
AcDbLine
 10
233.7288915477571
 20
178.0285794899739
 30
0.0
 11
233.7288915477571
 21
214.0285794899739
 31
0.0
  0
LINE
  5
3CE
330
3C7
100
AcDbEntity
  8
1
  6
Continuous
 62
     7
370
     9
100
AcDbLine
 10
250.7288915477569
 20
175.0285794899739
 30
0.0
 11
236.7288915477571
 21
175.0285794899739
 31
0.0
  0
ARC
  5
3CF
330
3C7
100
AcDbEntity
  8
1
  6
Continuous
 62
     7
370
     9
100
AcDbCircle
 10
236.7288915477571
 20
178.0285794899739
 30
0.0
 40
3.0
100
AcDbArc
 50
179.9999999999998
 51
269.9999999999998
  0
ENDBLK
  5
3C9
330
3C7
100
AcDbEntity
  8
0
100
AcDbBlockEnd
  0
BLOCK
  5
3D2
330
3D1
100
AcDbEntity
  8
0
100
AcDbBlockBegin
  2
G58
 70
     0
 10
0.0
 20
0.0
 30
0.0
  3
G58
  1

  0
LINE
  5
3D4
330
3D1
100
AcDbEntity
  8
1
  6
Continuous
 62
     7
370
     9
100
AcDbLine
 10
233.7288915477571
 20
210.0285794899739
 30
0.0
 11
233.7288915477571
 21
198.0285794899739
 31
0.0
  0
LINE
  5
3D5
330
3D1
100
AcDbEntity
  8
1
  6
Continuous
 62
     7
370
     9
100
AcDbLine
 10
233.4288915477571
 20
210.0285794899739
 30
0.0
 11
233.7288915477571
 21
210.0285794899739
 31
0.0
  0
ARC
  5
3D6
330
3D1
100
AcDbEntity
  8
1
  6
Continuous
 62
     7
370
     9
100
AcDbCircle
 10
233.4288915477571
 20
209.7285794899739
 30
0.0
 40
0.3
100
AcDbArc
 50
89.99999999999991
 51
180.0000000000051
  0
LINE
  5
3D7
330
3D1
100
AcDbEntity
  8
1
  6
Continuous
 62
     7
370
     9
100
AcDbLine
 10
233.1288915477571
 20
198.3285794899739
 30
0.0
 11
233.1288915477571
 21
209.7285794899739
 31
0.0
  0
LINE
  5
3D8
330
3D1
100
AcDbEntity
  8
1
  6
Continuous
 62
     7
370
     9
100
AcDbLine
 10
233.7288915477571
 20
198.0285794899739
 30
0.0
 11
233.4288915477571
 21
198.0285794899739
 31
0.0
  0
ARC
  5
3D9
330
3D1
100
AcDbEntity
  8
1
  6
Continuous
 62
     7
370
     9
100
AcDbCircle
 10
233.4288915477571
 20
198.3285794899739
 30
0.0
 40
0.3
100
AcDbArc
 50
179.9999999999998
 51
269.9999999999998
  0
ENDBLK
  5
3D3
330
3D1
100
AcDbEntity
  8
0
100
AcDbBlockEnd
  0
BLOCK
  5
3DC
330
3DB
100
AcDbEntity
  8
0
100
AcDbBlockBegin
  2
Dim7
 70
     0
 10
0.0
 20
0.0
 30
0.0
  3
Dim7
  1

  0
LINE
  5
3DE
330
3DB
100
AcDbEntity
  8
1
  6
Continuous
 62
     7
370
     9
100
AcDbLine
 10
233.7288915477571
 20
216.0285794899739
 30
0.0
 11
233.7288915477571
 21
239.0285794899739
 31
0.0
  0
LINE
  5
3DF
330
3DB
100
AcDbEntity
  8
1
  6
Continuous
 62
     7
370
     9
100
AcDbLine
 10
253.7288915477571
 20
219.0285794899739
 30
0.0
 11
253.7288915477571
 21
239.0285794899739
 31
0.0
  0
LINE
  5
3E0
330
3DB
100
AcDbEntity
  8
1
  6
Continuous
 62
     7
370
     9
100
AcDbLine
 10
233.7288915477571
 20
237.0285794899739
 30
0.0
 11
253.7288915477571
 21
237.0285794899739
 31
0.0
  0
MTEXT
  5
3E1
330
3DB
100
AcDbEntity
  8
1
  6
Continuous
 62
     7
370
     9
100
AcDbMText
 10
243.7288915477571
 20
237.5285794899739
 30
0.0
 40
3.0
 41
24.28571428571428
 46
3.0
 71
     8
 72
     1
  1
20
  7
ＭＳ ゴシック
 73
     1
 44
1.0
  0
INSERT
  5
3E2
330
3DB
100
AcDbEntity
  8
1
  6
Continuous
 62
     7
370
     9
100
AcDbBlockReference
  2
_OPEN
 10
233.7288915477571
 20
237.0285794899739
 30
0.0
 41
2.4
 42
2.4
 43
2.4
 50
179.9999999999998
  0
INSERT
  5
3E3
330
3DB
100
AcDbEntity
  8
1
  6
Continuous
 62
     7
370
     9
100
AcDbBlockReference
  2
_OPEN
 10
253.7288915477571
 20
237.0285794899739
 30
0.0
 41
2.4
 42
2.4
 43
2.4
 50
359.9999999999997
  0
ENDBLK
  5
3DD
330
3DB
100
AcDbEntity
  8
0
100
AcDbBlockEnd
  0
BLOCK
  5
3E6
330
3E5
100
AcDbEntity
  8
0
100
AcDbBlockBegin
  2
Dim8
 70
     0
 10
0.0
 20
0.0
 30
0.0
  3
Dim8
  1

  0
LINE
  5
3E8
330
3E5
100
AcDbEntity
  8
1
  6
Continuous
 62
     7
370
     9
100
AcDbLine
 10
250.728891547757
 20
219.0285794899739
 30
0.0
 11
250.7288915477572
 21
229.0285794899739
 31
0.0
  0
LINE
  5
3E9
330
3E5
100
AcDbEntity
  8
1
  6
Continuous
 62
     7
370
     9
100
AcDbLine
 10
240.7288915477571
 20
198.0285794899739
 30
0.0
 11
240.7288915477571
 21
229.0285794899739
 31
0.0
  0
LINE
  5
3EA
330
3E5
100
AcDbEntity
  8
1
  6
Continuous
 62
     7
370
     9
100
AcDbLine
 10
250.7288915477571
 20
227.0285794899739
 30
0.0
 11
240.7288915477571
 21
227.0285794899739
 31
0.0
  0
MTEXT
  5
3EB
330
3E5
100
AcDbEntity
  8
1
  6
Continuous
 62
     7
370
     9
100
AcDbMText
 10
245.7288915477571
 20
227.5285794899739
 30
0.0
 40
3.0
 41
22.14285714285714
 46
3.0
 71
     8
 72
     1
  1
10
  7
ＭＳ ゴシック
 73
     1
 44
1.0
  0
INSERT
  5
3EC
330
3E5
100
AcDbEntity
  8
1
  6
Continuous
 62
     7
370
     9
100
AcDbBlockReference
  2
_OPEN
 10
250.7288915477571
 20
227.0285794899739
 30
0.0
 41
2.4
 42
2.4
 43
2.4
 50
359.9999999999997
  0
INSERT
  5
3ED
330
3E5
100
AcDbEntity
  8
1
  6
Continuous
 62
     7
370
     9
100
AcDbBlockReference
  2
_OPEN
 10
240.7288915477571
 20
227.0285794899739
 30
0.0
 41
2.4
 42
2.4
 43
2.4
 50
179.9999999999998
  0
ENDBLK
  5
3E7
330
3E5
100
AcDbEntity
  8
0
100
AcDbBlockEnd
  0
BLOCK
  5
3FA
330
3F9
100
AcDbEntity
  8
0
100
AcDbBlockBegin
  2
G59
 70
     0
 10
0.0
 20
0.0
 30
0.0
  3
G59
  1

  0
LINE
  5
3FC
330
3F9
100
AcDbEntity
  8
1
  6
Continuous
 62
     7
370
     9
100
AcDbLine
 10
246.5288915477571
 20
192.1285794899739
 30
0.0
 11
246.7288915477571
 21
192.1285794899739
 31
0.0
  0
LINE
  5
3FD
330
3F9
100
AcDbEntity
  8
1
  6
Continuous
 62
     7
370
     9
100
AcDbLine
 10
246.7288915477571
 20
192.1285794899739
 30
0.0
 11
246.7288915477571
 21
191.9285794899738
 31
0.0
  0
LINE
  5
3FE
330
3F9
100
AcDbEntity
  8
1
  6
Continuous
 62
     7
370
     9
100
AcDbLine
 10
246.7288915477571
 20
191.9285794899738
 30
0.0
 11
246.5288915477571
 21
191.9285794899738
 31
0.0
  0
LINE
  5
3FF
330
3F9
100
AcDbEntity
  8
1
  6
Continuous
 62
     7
370
     9
100
AcDbLine
 10
246.5288915477571
 20
191.9285794899738
 30
0.0
 11
246.5288915477571
 21
192.1285794899739
 31
0.0
  0
ENDBLK
  5
3FB
330
3F9
100
AcDbEntity
  8
0
100
AcDbBlockEnd
  0
BLOCK
  5
402
330
401
100
AcDbEntity
  8
0
100
AcDbBlockBegin
  2
G60
 70
     0
 10
0.0
 20
0.0
 30
0.0
  3
G60
  1

  0
LINE
  5
404
330
401
100
AcDbEntity
  8
1
  6
Continuous
 62
     7
370
     9
100
AcDbLine
 10
246.5288915477571
 20
190.1285794899739
 30
0.0
 11
246.7288915477571
 21
190.1285794899739
 31
0.0
  0
LINE
  5
405
330
401
100
AcDbEntity
  8
1
  6
Continuous
 62
     7
370
     9
100
AcDbLine
 10
246.7288915477571
 20
190.1285794899739
 30
0.0
 11
246.7288915477571
 21
189.9285794899739
 31
0.0
  0
LINE
  5
406
330
401
100
AcDbEntity
  8
1
  6
Continuous
 62
     7
370
     9
100
AcDbLine
 10
246.7288915477571
 20
189.9285794899739
 30
0.0
 11
246.5288915477571
 21
189.9285794899739
 31
0.0
  0
LINE
  5
407
330
401
100
AcDbEntity
  8
1
  6
Continuous
 62
     7
370
     9
100
AcDbLine
 10
246.5288915477571
 20
189.9285794899739
 30
0.0
 11
246.5288915477571
 21
190.1285794899739
 31
0.0
  0
ENDBLK
  5
403
330
401
100
AcDbEntity
  8
0
100
AcDbBlockEnd
  0
BLOCK
  5
40A
330
409
100
AcDbEntity
  8
0
100
AcDbBlockBegin
  2
G61
 70
     0
 10
0.0
 20
0.0
 30
0.0
  3
G61
  1

  0
LINE
  5
40C
330
409
100
AcDbEntity
  8
1
  6
Continuous
 62
     7
370
     9
100
AcDbLine
 10
246.5288915477571
 20
188.1285794899744
 30
0.0
 11
246.7288915477571
 21
188.1285794899744
 31
0.0
  0
LINE
  5
40D
330
409
100
AcDbEntity
  8
1
  6
Continuous
 62
     7
370
     9
100
AcDbLine
 10
246.7288915477571
 20
188.1285794899744
 30
0.0
 11
246.7288915477571
 21
187.9285794899739
 31
0.0
  0
LINE
  5
40E
330
409
100
AcDbEntity
  8
1
  6
Continuous
 62
     7
370
     9
100
AcDbLine
 10
246.7288915477571
 20
187.9285794899739
 30
0.0
 11
246.5288915477571
 21
187.9285794899739
 31
0.0
  0
LINE
  5
40F
330
409
100
AcDbEntity
  8
1
  6
Continuous
 62
     7
370
     9
100
AcDbLine
 10
246.5288915477571
 20
187.9285794899739
 30
0.0
 11
246.5288915477571
 21
188.1285794899744
 31
0.0
  0
ENDBLK
  5
40B
330
409
100
AcDbEntity
  8
0
100
AcDbBlockEnd
  0
BLOCK
  5
412
330
411
100
AcDbEntity
  8
0
100
AcDbBlockBegin
  2
G62
 70
     0
 10
0.0
 20
0.0
 30
0.0
  3
G62
  1

  0
LINE
  5
414
330
411
100
AcDbEntity
  8
1
  6
Continuous
 62
     7
370
     9
100
AcDbLine
 10
246.5288915477571
 20
186.1285794899752
 30
0.0
 11
246.7288915477571
 21
186.1285794899752
 31
0.0
  0
LINE
  5
415
330
411
100
AcDbEntity
  8
1
  6
Continuous
 62
     7
370
     9
100
AcDbLine
 10
246.7288915477571
 20
186.1285794899752
 30
0.0
 11
246.7288915477571
 21
185.9285794899751
 31
0.0
  0
LINE
  5
416
330
411
100
AcDbEntity
  8
1
  6
Continuous
 62
     7
370
     9
100
AcDbLine
 10
246.7288915477571
 20
185.9285794899751
 30
0.0
 11
246.5288915477571
 21
185.9285794899751
 31
0.0
  0
LINE
  5
417
330
411
100
AcDbEntity
  8
1
  6
Continuous
 62
     7
370
     9
100
AcDbLine
 10
246.5288915477571
 20
185.9285794899751
 30
0.0
 11
246.5288915477571
 21
186.1285794899752
 31
0.0
  0
ENDBLK
  5
413
330
411
100
AcDbEntity
  8
0
100
AcDbBlockEnd
  0
BLOCK
  5
41A
330
419
100
AcDbEntity
  8
0
100
AcDbBlockBegin
  2
G63
 70
     0
 10
0.0
 20
0.0
 30
0.0
  3
G63
  1

  0
LINE
  5
41C
330
419
100
AcDbEntity
  8
1
  6
Continuous
 62
     7
370
     9
100
AcDbLine
 10
246.5288915477571
 20
184.1285794899752
 30
0.0
 11
246.7288915477571
 21
184.1285794899752
 31
0.0
  0
LINE
  5
41D
330
419
100
AcDbEntity
  8
1
  6
Continuous
 62
     7
370
     9
100
AcDbLine
 10
246.7288915477571
 20
184.1285794899752
 30
0.0
 11
246.7288915477571
 21
183.9285794899752
 31
0.0
  0
LINE
  5
41E
330
419
100
AcDbEntity
  8
1
  6
Continuous
 62
     7
370
     9
100
AcDbLine
 10
246.7288915477571
 20
183.9285794899752
 30
0.0
 11
246.5288915477571
 21
183.9285794899752
 31
0.0
  0
LINE
  5
41F
330
419
100
AcDbEntity
  8
1
  6
Continuous
 62
     7
370
     9
100
AcDbLine
 10
246.5288915477571
 20
183.9285794899752
 30
0.0
 11
246.5288915477571
 21
184.1285794899752
 31
0.0
  0
ENDBLK
  5
41B
330
419
100
AcDbEntity
  8
0
100
AcDbBlockEnd
  0
BLOCK
  5
445
330
444
100
AcDbEntity
  8
0
100
AcDbBlockBegin
  2
G64
 70
     0
 10
0.0
 20
0.0
 30
0.0
  3
G64
  1

  0
LINE
  5
447
330
444
100
AcDbEntity
  8
1
  6
Continuous
 62
     7
370
     9
100
AcDbLine
 10
248.2288915477569
 20
196.0285794899739
 30
0.0
 11
248.2288915477569
 21
180.0285794899739
 31
0.0
  0
LINE
  5
448
330
444
100
AcDbEntity
  8
1
  6
Continuous
 62
     7
370
     9
100
AcDbLine
 10
248.2288915477569
 20
180.0285794899739
 30
0.0
 11
241.0288915477571
 21
180.0285794899739
 31
0.0
  0
ARC
  5
449
330
444
100
AcDbEntity
  8
1
  6
Continuous
 62
     7
370
     9
100
AcDbCircle
 10
241.0288915477571
 20
180.3285794899739
 30
0.0
 40
0.3
100
AcDbArc
 50
179.9999999999946
 51
269.9999999999998
  0
LINE
  5
44A
330
444
100
AcDbEntity
  8
1
  6
Continuous
 62
     7
370
     9
100
AcDbLine
 10
240.7288915477571
 20
180.328579489974
 30
0.0
 11
240.7288915477571
 21
195.728579489974
 31
0.0
  0
LINE
  5
44B
330
444
100
AcDbEntity
  8
1
  6
Continuous
 62
     7
370
     9
100
AcDbLine
 10
241.0288915477571
 20
196.0285794899739
 30
0.0
 11
248.2288915477569
 21
196.0285794899739
 31
0.0
  0
ARC
  5
44C
330
444
100
AcDbEntity
  8
1
  6
Continuous
 62
     7
370
     9
100
AcDbCircle
 10
241.0288915477571
 20
195.7285794899739
 30
0.0
 40
0.3
100
AcDbArc
 50
89.99999999999991
 51
179.9999999999946
  0
ENDBLK
  5
446
330
444
100
AcDbEntity
  8
0
100
AcDbBlockEnd
  0
BLOCK
  5
468
330
467
100
AcDbEntity
  8
0
100
AcDbBlockBegin
  2
Dim9
 70
     0
 10
0.0
 20
0.0
 30
0.0
  3
Dim9
  1

  0
LINE
  5
46A
330
467
100
AcDbEntity
  8
1
  6
Continuous
 62
     7
370
     9
100
AcDbLine
 10
250.728891547757
 20
219.0285794899739
 30
0.0
 11
250.7288915477572
 21
229.0285794899739
 31
0.0
  0
LINE
  5
46B
330
467
100
AcDbEntity
  8
1
  6
Continuous
 62
     7
370
     9
100
AcDbLine
 10
253.7288915477571
 20
219.0285794899739
 30
0.0
 11
253.7288915477571
 21
229.0285794899739
 31
0.0
  0
LINE
  5
46C
330
467
100
AcDbEntity
  8
1
  6
Continuous
 62
     7
370
     9
100
AcDbLine
 10
248.3288915477571
 20
227.0285794899739
 30
0.0
 11
256.1288915477571
 21
227.0285794899739
 31
0.0
  0
MTEXT
  5
46D
330
467
100
AcDbEntity
  8
1
  6
Continuous
 62
     7
370
     9
100
AcDbMText
 10
252.2288915477571
 20
227.5285794899739
 30
0.0
 40
3.0
 41
9.999999999999998
 46
3.0
 71
     8
 72
     1
  1
3
  7
ＭＳ ゴシック
 73
     1
 44
1.0
  0
INSERT
  5
46E
330
467
100
AcDbEntity
  8
1
  6
Continuous
 62
     7
370
     9
100
AcDbBlockReference
  2
_OPEN
 10
250.7288915477571
 20
227.0285794899739
 30
0.0
 41
2.4
 42
2.4
 43
2.4
 50
359.9999999999997
  0
INSERT
  5
46F
330
467
100
AcDbEntity
  8
1
  6
Continuous
 62
     7
370
     9
100
AcDbBlockReference
  2
_OPEN
 10
253.7288915477571
 20
227.0285794899739
 30
0.0
 41
2.4
 42
2.4
 43
2.4
 50
179.9999999999995
  0
ENDBLK
  5
469
330
467
100
AcDbEntity
  8
0
100
AcDbBlockEnd
  0
BLOCK
  5
479
330
478
100
AcDbEntity
  8
0
100
AcDbBlockBegin
  2
G65
 70
     0
 10
0.0
 20
0.0
 30
0.0
  3
G65
  1

  0
LINE
  5
47B
330
478
100
AcDbEntity
  8
1
  6
Continuous
 62
     7
370
     9
100
AcDbLine
 10
83.7288915477572
 20
147.6168147840918
 30
0.0
 11
183.7288915477571
 21
147.6168147840918
 31
0.0
  0
LINE
  5
47C
330
478
100
AcDbEntity
  8
1
  6
Continuous
 62
     7
370
     9
100
AcDbLine
 10
183.7288915477571
 20
147.6168147840918
 30
0.0
 11
183.7288915477571
 21
144.6168147840918
 31
0.0
  0
LINE
  5
47D
330
478
100
AcDbEntity
  8
1
  6
Continuous
 62
     7
370
     9
100
AcDbLine
 10
183.7288915477571
 20
144.6168147840918
 30
0.0
 11
83.7288915477572
 21
144.6168147840918
 31
0.0
  0
LINE
  5
47E
330
478
100
AcDbEntity
  8
1
  6
Continuous
 62
     7
370
     9
100
AcDbLine
 10
83.7288915477572
 20
144.6168147840918
 30
0.0
 11
83.7288915477572
 21
147.6168147840918
 31
0.0
  0
ENDBLK
  5
47A
330
478
100
AcDbEntity
  8
0
100
AcDbBlockEnd
  0
BLOCK
  5
481
330
480
100
AcDbEntity
  8
0
100
AcDbBlockBegin
  2
G66
 70
     0
 10
0.0
 20
0.0
 30
0.0
  3
G66
  1

  0
LINE
  5
483
330
480
100
AcDbEntity
  8
1
  6
Continuous
 62
     7
370
     9
100
AcDbLine
 10
129.8288915477574
 20
155.6168147840918
 30
0.0
 11
131.1288915477575
 21
155.6168147840918
 31
0.0
  0
LINE
  5
484
330
480
100
AcDbEntity
  8
1
  6
Continuous
 62
     7
370
     9
100
AcDbLine
 10
131.1288915477575
 20
155.6168147840918
 30
0.0
 11
131.1288915477575
 21
154.6168147840918
 31
0.0
  0
LINE
  5
485
330
480
100
AcDbEntity
  8
1
  6
Continuous
 62
     7
370
     9
100
AcDbLine
 10
131.1288915477575
 20
154.6168147840918
 30
0.0
 11
129.8288915477574
 21
154.6168147840918
 31
0.0
  0
LINE
  5
486
330
480
100
AcDbEntity
  8
1
  6
Continuous
 62
     7
370
     9
100
AcDbLine
 10
129.8288915477574
 20
154.6168147840918
 30
0.0
 11
129.8288915477574
 21
155.6168147840918
 31
0.0
  0
ENDBLK
  5
482
330
480
100
AcDbEntity
  8
0
100
AcDbBlockEnd
  0
BLOCK
  5
489
330
488
100
AcDbEntity
  8
0
100
AcDbBlockBegin
  2
G67
 70
     0
 10
0.0
 20
0.0
 30
0.0
  3
G67
  1

  0
LINE
  5
48B
330
488
100
AcDbEntity
  8
1
  6
Continuous
 62
     7
370
     9
100
AcDbLine
 10
132.3288915477573
 20
155.6168147840918
 30
0.0
 11
133.6288915477573
 21
155.6168147840918
 31
0.0
  0
LINE
  5
48C
330
488
100
AcDbEntity
  8
1
  6
Continuous
 62
     7
370
     9
100
AcDbLine
 10
133.6288915477573
 20
155.6168147840918
 30
0.0
 11
133.6288915477573
 21
154.6168147840918
 31
0.0
  0
LINE
  5
48D
330
488
100
AcDbEntity
  8
1
  6
Continuous
 62
     7
370
     9
100
AcDbLine
 10
133.6288915477573
 20
154.6168147840918
 30
0.0
 11
132.3288915477573
 21
154.6168147840918
 31
0.0
  0
LINE
  5
48E
330
488
100
AcDbEntity
  8
1
  6
Continuous
 62
     7
370
     9
100
AcDbLine
 10
132.3288915477573
 20
154.6168147840918
 30
0.0
 11
132.3288915477573
 21
155.6168147840918
 31
0.0
  0
ENDBLK
  5
48A
330
488
100
AcDbEntity
  8
0
100
AcDbBlockEnd
  0
BLOCK
  5
491
330
490
100
AcDbEntity
  8
0
100
AcDbBlockBegin
  2
G68
 70
     0
 10
0.0
 20
0.0
 30
0.0
  3
G68
  1

  0
LINE
  5
493
330
490
100
AcDbEntity
  8
1
  6
Continuous
 62
     7
370
     9
100
AcDbLine
 10
134.8288915477573
 20
155.6168147840918
 30
0.0
 11
136.1288915477573
 21
155.6168147840918
 31
0.0
  0
LINE
  5
494
330
490
100
AcDbEntity
  8
1
  6
Continuous
 62
     7
370
     9
100
AcDbLine
 10
136.1288915477573
 20
155.6168147840918
 30
0.0
 11
136.1288915477573
 21
154.6168147840918
 31
0.0
  0
LINE
  5
495
330
490
100
AcDbEntity
  8
1
  6
Continuous
 62
     7
370
     9
100
AcDbLine
 10
136.1288915477573
 20
154.6168147840918
 30
0.0
 11
134.8288915477573
 21
154.6168147840918
 31
0.0
  0
LINE
  5
496
330
490
100
AcDbEntity
  8
1
  6
Continuous
 62
     7
370
     9
100
AcDbLine
 10
134.8288915477573
 20
154.6168147840918
 30
0.0
 11
134.8288915477573
 21
155.6168147840918
 31
0.0
  0
ENDBLK
  5
492
330
490
100
AcDbEntity
  8
0
100
AcDbBlockEnd
  0
BLOCK
  5
499
330
498
100
AcDbEntity
  8
0
100
AcDbBlockBegin
  2
G69
 70
     0
 10
0.0
 20
0.0
 30
0.0
  3
G69
  1

  0
LINE
  5
49B
330
498
100
AcDbEntity
  8
1
  6
Continuous
 62
     7
370
     9
100
AcDbLine
 10
137.3288915477572
 20
155.6168147840918
 30
0.0
 11
138.6288915477571
 21
155.6168147840918
 31
0.0
  0
LINE
  5
49C
330
498
100
AcDbEntity
  8
1
  6
Continuous
 62
     7
370
     9
100
AcDbLine
 10
138.6288915477571
 20
155.6168147840918
 30
0.0
 11
138.6288915477571
 21
154.6168147840918
 31
0.0
  0
LINE
  5
49D
330
498
100
AcDbEntity
  8
1
  6
Continuous
 62
     7
370
     9
100
AcDbLine
 10
138.6288915477571
 20
154.6168147840918
 30
0.0
 11
137.3288915477572
 21
154.6168147840918
 31
0.0
  0
LINE
  5
49E
330
498
100
AcDbEntity
  8
1
  6
Continuous
 62
     7
370
     9
100
AcDbLine
 10
137.3288915477572
 20
154.6168147840918
 30
0.0
 11
137.3288915477572
 21
155.6168147840918
 31
0.0
  0
ENDBLK
  5
49A
330
498
100
AcDbEntity
  8
0
100
AcDbBlockEnd
  0
BLOCK
  5
4A1
330
4A0
100
AcDbEntity
  8
0
100
AcDbBlockBegin
  2
G70
 70
     0
 10
0.0
 20
0.0
 30
0.0
  3
G70
  1

  0
LINE
  5
4A3
330
4A0
100
AcDbEntity
  8
1
  6
Continuous
 62
     7
370
     9
100
AcDbLine
 10
139.8288915477571
 20
155.6168147840918
 30
0.0
 11
141.1288915477571
 21
155.6168147840918
 31
0.0
  0
LINE
  5
4A4
330
4A0
100
AcDbEntity
  8
1
  6
Continuous
 62
     7
370
     9
100
AcDbLine
 10
141.1288915477571
 20
155.6168147840918
 30
0.0
 11
141.1288915477571
 21
154.6168147840918
 31
0.0
  0
LINE
  5
4A5
330
4A0
100
AcDbEntity
  8
1
  6
Continuous
 62
     7
370
     9
100
AcDbLine
 10
141.1288915477571
 20
154.6168147840918
 30
0.0
 11
139.8288915477571
 21
154.6168147840918
 31
0.0
  0
LINE
  5
4A6
330
4A0
100
AcDbEntity
  8
1
  6
Continuous
 62
     7
370
     9
100
AcDbLine
 10
139.8288915477571
 20
154.6168147840918
 30
0.0
 11
139.8288915477571
 21
155.6168147840918
 31
0.0
  0
ENDBLK
  5
4A2
330
4A0
100
AcDbEntity
  8
0
100
AcDbBlockEnd
  0
BLOCK
  5
4A9
330
4A8
100
AcDbEntity
  8
0
100
AcDbBlockBegin
  2
G71
 70
     0
 10
0.0
 20
0.0
 30
0.0
  3
G71
  1

  0
LINE
  5
4AB
330
4A8
100
AcDbEntity
  8
1
  6
Continuous
 62
     7
370
     9
100
AcDbLine
 10
142.3288915477572
 20
155.6168147840918
 30
0.0
 11
143.6288915477571
 21
155.6168147840918
 31
0.0
  0
LINE
  5
4AC
330
4A8
100
AcDbEntity
  8
1
  6
Continuous
 62
     7
370
     9
100
AcDbLine
 10
143.6288915477571
 20
155.6168147840918
 30
0.0
 11
143.6288915477571
 21
154.6168147840918
 31
0.0
  0
LINE
  5
4AD
330
4A8
100
AcDbEntity
  8
1
  6
Continuous
 62
     7
370
     9
100
AcDbLine
 10
143.6288915477571
 20
154.6168147840918
 30
0.0
 11
142.3288915477572
 21
154.6168147840918
 31
0.0
  0
LINE
  5
4AE
330
4A8
100
AcDbEntity
  8
1
  6
Continuous
 62
     7
370
     9
100
AcDbLine
 10
142.3288915477572
 20
154.6168147840918
 30
0.0
 11
142.3288915477572
 21
155.6168147840918
 31
0.0
  0
ENDBLK
  5
4AA
330
4A8
100
AcDbEntity
  8
0
100
AcDbBlockEnd
  0
BLOCK
  5
4B1
330
4B0
100
AcDbEntity
  8
0
100
AcDbBlockBegin
  2
G72
 70
     0
 10
0.0
 20
0.0
 30
0.0
  3
G72
  1

  0
LINE
  5
4B3
330
4B0
100
AcDbEntity
  8
1
  6
Continuous
 62
     7
370
     9
100
AcDbLine
 10
173.7288915477571
 20
147.6168147840918
 30
0.0
 11
93.7288915477572
 21
147.6168147840918
 31
0.0
  0
LINE
  5
4B4
330
4B0
100
AcDbEntity
  8
1
  6
Continuous
 62
     7
370
     9
100
AcDbLine
 10
93.7288915477572
 20
147.6168147840918
 30
0.0
 11
93.7288915477572
 21
161.6168147840918
 31
0.0
  0
ARC
  5
4B5
330
4B0
100
AcDbEntity
  8
1
  6
Continuous
 62
     7
370
     9
100
AcDbCircle
 10
96.7288915477572
 20
161.6168147840918
 30
0.0
 40
3.0
100
AcDbArc
 50
89.99999999999991
 51
179.9999999999998
  0
LINE
  5
4B6
330
4B0
100
AcDbEntity
  8
1
  6
Continuous
 62
     7
370
     9
100
AcDbLine
 10
96.7288915477572
 20
164.6168147840918
 30
0.0
 11
170.7288915477571
 21
164.6168147840918
 31
0.0
  0
LINE
  5
4B7
330
4B0
100
AcDbEntity
  8
1
  6
Continuous
 62
     7
370
     9
100
AcDbLine
 10
173.7288915477571
 20
161.6168147840918
 30
0.0
 11
173.7288915477571
 21
147.6168147840918
 31
0.0
  0
ARC
  5
4B8
330
4B0
100
AcDbEntity
  8
1
  6
Continuous
 62
     7
370
     9
100
AcDbCircle
 10
170.7288915477571
 20
161.6168147840918
 30
0.0
 40
3.0
100
AcDbArc
 50
0.0
 51
89.99999999999991
  0
ENDBLK
  5
4B2
330
4B0
100
AcDbEntity
  8
0
100
AcDbBlockEnd
  0
BLOCK
  5
4BB
330
4BA
100
AcDbEntity
  8
0
100
AcDbBlockBegin
  2
G73
 70
     0
 10
0.0
 20
0.0
 30
0.0
  3
G73
  1

  0
LINE
  5
4BD
330
4BA
100
AcDbEntity
  8
1
  6
Continuous
 62
     7
370
     9
100
AcDbLine
 10
126.7288915477571
 20
164.6168147840918
 30
0.0
 11
146.7288915477571
 21
164.6168147840918
 31
0.0
  0
LINE
  5
4BE
330
4BA
100
AcDbEntity
  8
1
  6
Continuous
 62
     7
370
     9
100
AcDbLine
 10
146.7288915477571
 20
154.6168147840918
 30
0.0
 11
126.7288915477571
 21
154.6168147840918
 31
0.0
  0
LINE
  5
4BF
330
4BA
100
AcDbEntity
  8
1
  6
Continuous
 62
     7
370
     9
100
AcDbLine
 10
126.7288915477571
 20
154.6168147840918
 30
0.0
 11
126.7288915477571
 21
164.1168147840918
 31
0.0
  0
ARC
  5
4C0
330
4BA
100
AcDbEntity
  8
1
  6
Continuous
 62
     7
370
     9
100
AcDbCircle
 10
126.2288915477571
 20
164.1168147840918
 30
0.0
 40
0.5
100
AcDbArc
 50
0.0
 51
89.99999999999991
  0
LINE
  5
4C1
330
4BA
100
AcDbEntity
  8
1
  6
Continuous
 62
     7
370
     9
100
AcDbLine
 10
146.7288915477571
 20
164.1168147840918
 30
0.0
 11
146.7288915477571
 21
154.6168147840918
 31
0.0
  0
ARC
  5
4C2
330
4BA
100
AcDbEntity
  8
1
  6
Continuous
 62
     7
370
     9
100
AcDbCircle
 10
147.2288915477571
 20
164.1168147840918
 30
0.0
 40
0.5
100
AcDbArc
 50
89.99999999999991
 51
179.9999999999998
  0
ENDBLK
  5
4BC
330
4BA
100
AcDbEntity
  8
0
100
AcDbBlockEnd
  0
BLOCK
  5
4C5
330
4C4
100
AcDbEntity
  8
0
100
AcDbBlockBegin
  2
G74
 70
     0
 10
0.0
 20
0.0
 30
0.0
  3
G74
  1

  0
LINE
  5
4C7
330
4C4
100
AcDbEntity
  8
1
  6
Continuous
 62
     7
370
     9
100
AcDbLine
 10
131.7288915477573
 20
164.6168147840918
 30
0.0
 11
119.7288915477571
 21
164.6168147840918
 31
0.0
  0
LINE
  5
4C8
330
4C4
100
AcDbEntity
  8
1
  6
Continuous
 62
     7
370
     9
100
AcDbLine
 10
119.7288915477571
 20
164.6168147840918
 30
0.0
 11
119.7288915477571
 21
164.9168147840919
 31
0.0
  0
ARC
  5
4C9
330
4C4
100
AcDbEntity
  8
1
  6
Continuous
 62
     7
370
     9
100
AcDbCircle
 10
120.0288915477571
 20
164.9168147840919
 30
0.0
 40
0.3
100
AcDbArc
 50
89.99999999999991
 51
179.9999999999998
  0
LINE
  5
4CA
330
4C4
100
AcDbEntity
  8
1
  6
Continuous
 62
     7
370
     9
100
AcDbLine
 10
120.0288915477571
 20
165.2168147840918
 30
0.0
 11
131.4288915477572
 21
165.2168147840918
 31
0.0
  0
LINE
  5
4CB
330
4C4
100
AcDbEntity
  8
1
  6
Continuous
 62
     7
370
     9
100
AcDbLine
 10
131.7288915477571
 20
164.9168147840919
 30
0.0
 11
131.7288915477573
 21
164.6168147840918
 31
0.0
  0
ARC
  5
4CC
330
4C4
100
AcDbEntity
  8
1
  6
Continuous
 62
     7
370
     9
100
AcDbCircle
 10
131.4288915477572
 20
164.9168147840919
 30
0.0
 40
0.3
100
AcDbArc
 50
0.0
 51
89.99999999999991
  0
ENDBLK
  5
4C6
330
4C4
100
AcDbEntity
  8
0
100
AcDbBlockEnd
  0
BLOCK
  5
4DC
330
4DB
100
AcDbEntity
  8
0
100
AcDbBlockBegin
  2
G75
 70
     0
 10
0.0
 20
0.0
 30
0.0
  3
G75
  1

  0
LINE
  5
4DE
330
4DB
100
AcDbEntity
  8
1
  6
Continuous
 62
     7
370
     9
100
AcDbLine
 10
168.3046003859207
 20
112.0969254587527
 30
0.0
 11
183.3046003859207
 21
112.0969254587527
 31
0.0
  0
LINE
  5
4DF
330
4DB
100
AcDbEntity
  8
1
  6
Continuous
 62
     7
370
     9
100
AcDbLine
 10
183.3046003859207
 20
112.0969254587527
 30
0.0
 11
183.3046003859207
 21
110.2969254587528
 31
0.0
  0
LINE
  5
4E0
330
4DB
100
AcDbEntity
  8
1
  6
Continuous
 62
     7
370
     9
100
AcDbLine
 10
183.3046003859207
 20
110.2969254587528
 30
0.0
 11
168.3046003859207
 21
110.2969254587528
 31
0.0
  0
LINE
  5
4E1
330
4DB
100
AcDbEntity
  8
1
  6
Continuous
 62
     7
370
     9
100
AcDbLine
 10
168.3046003859207
 20
110.2969254587528
 30
0.0
 11
168.3046003859207
 21
112.0969254587527
 31
0.0
  0
ENDBLK
  5
4DD
330
4DB
100
AcDbEntity
  8
0
100
AcDbBlockEnd
  0
BLOCK
  5
4E4
330
4E3
100
AcDbEntity
  8
0
100
AcDbBlockBegin
  2
G76
 70
     0
 10
0.0
 20
0.0
 30
0.0
  3
G76
  1

  0
LINE
  5
4E6
330
4E3
100
AcDbEntity
  8
1
  6
Continuous
 62
     7
370
     9
100
AcDbLine
 10
168.3046003859207
 20
109.1569254587528
 30
0.0
 11
183.3046003859207
 21
109.1569254587528
 31
0.0
  0
LINE
  5
4E7
330
4E3
100
AcDbEntity
  8
1
  6
Continuous
 62
     7
370
     9
100
AcDbLine
 10
183.3046003859207
 20
109.1569254587528
 30
0.0
 11
183.3046003859207
 21
107.3569254587528
 31
0.0
  0
LINE
  5
4E8
330
4E3
100
AcDbEntity
  8
1
  6
Continuous
 62
     7
370
     9
100
AcDbLine
 10
183.3046003859207
 20
107.3569254587528
 30
0.0
 11
168.3046003859207
 21
107.3569254587528
 31
0.0
  0
LINE
  5
4E9
330
4E3
100
AcDbEntity
  8
1
  6
Continuous
 62
     7
370
     9
100
AcDbLine
 10
168.3046003859207
 20
107.3569254587528
 30
0.0
 11
168.3046003859207
 21
109.1569254587528
 31
0.0
  0
ENDBLK
  5
4E5
330
4E3
100
AcDbEntity
  8
0
100
AcDbBlockEnd
  0
BLOCK
  5
4EC
330
4EB
100
AcDbEntity
  8
0
100
AcDbBlockBegin
  2
G77
 70
     0
 10
0.0
 20
0.0
 30
0.0
  3
G77
  1

  0
LINE
  5
4EE
330
4EB
100
AcDbEntity
  8
1
  6
Continuous
 62
     7
370
     9
100
AcDbLine
 10
168.3046003859207
 20
106.2169254587531
 30
0.0
 11
183.3046003859207
 21
106.2169254587531
 31
0.0
  0
LINE
  5
4EF
330
4EB
100
AcDbEntity
  8
1
  6
Continuous
 62
     7
370
     9
100
AcDbLine
 10
183.3046003859207
 20
106.2169254587531
 30
0.0
 11
183.3046003859207
 21
104.416925458753
 31
0.0
  0
LINE
  5
4F0
330
4EB
100
AcDbEntity
  8
1
  6
Continuous
 62
     7
370
     9
100
AcDbLine
 10
183.3046003859207
 20
104.416925458753
 30
0.0
 11
168.3046003859207
 21
104.416925458753
 31
0.0
  0
LINE
  5
4F1
330
4EB
100
AcDbEntity
  8
1
  6
Continuous
 62
     7
370
     9
100
AcDbLine
 10
168.3046003859207
 20
104.416925458753
 30
0.0
 11
168.3046003859207
 21
106.2169254587531
 31
0.0
  0
ENDBLK
  5
4ED
330
4EB
100
AcDbEntity
  8
0
100
AcDbBlockEnd
  0
BLOCK
  5
4F4
330
4F3
100
AcDbEntity
  8
0
100
AcDbBlockBegin
  2
G78
 70
     0
 10
0.0
 20
0.0
 30
0.0
  3
G78
  1

  0
LINE
  5
4F6
330
4F3
100
AcDbEntity
  8
1
  6
Continuous
 62
     7
370
     9
100
AcDbLine
 10
168.3046003859207
 20
103.2769254587532
 30
0.0
 11
183.3046003859207
 21
103.2769254587532
 31
0.0
  0
LINE
  5
4F7
330
4F3
100
AcDbEntity
  8
1
  6
Continuous
 62
     7
370
     9
100
AcDbLine
 10
183.3046003859207
 20
103.2769254587532
 30
0.0
 11
183.3046003859207
 21
101.4769254587534
 31
0.0
  0
LINE
  5
4F8
330
4F3
100
AcDbEntity
  8
1
  6
Continuous
 62
     7
370
     9
100
AcDbLine
 10
183.3046003859207
 20
101.4769254587534
 30
0.0
 11
168.3046003859207
 21
101.4769254587534
 31
0.0
  0
LINE
  5
4F9
330
4F3
100
AcDbEntity
  8
1
  6
Continuous
 62
     7
370
     9
100
AcDbLine
 10
168.3046003859207
 20
101.4769254587534
 30
0.0
 11
168.3046003859207
 21
103.2769254587532
 31
0.0
  0
ENDBLK
  5
4F5
330
4F3
100
AcDbEntity
  8
0
100
AcDbBlockEnd
  0
BLOCK
  5
4FC
330
4FB
100
AcDbEntity
  8
0
100
AcDbBlockBegin
  2
G79
 70
     0
 10
0.0
 20
0.0
 30
0.0
  3
G79
  1

  0
LINE
  5
4FE
330
4FB
100
AcDbEntity
  8
1
  6
Continuous
 62
     7
370
     9
100
AcDbLine
 10
168.3046003859207
 20
100.3369254587534
 30
0.0
 11
183.3046003859207
 21
100.3369254587534
 31
0.0
  0
LINE
  5
4FF
330
4FB
100
AcDbEntity
  8
1
  6
Continuous
 62
     7
370
     9
100
AcDbLine
 10
183.3046003859207
 20
100.3369254587534
 30
0.0
 11
183.3046003859207
 21
98.53692545875339
 31
0.0
  0
LINE
  5
500
330
4FB
100
AcDbEntity
  8
1
  6
Continuous
 62
     7
370
     9
100
AcDbLine
 10
183.3046003859207
 20
98.53692545875339
 30
0.0
 11
168.3046003859207
 21
98.53692545875339
 31
0.0
  0
LINE
  5
501
330
4FB
100
AcDbEntity
  8
1
  6
Continuous
 62
     7
370
     9
100
AcDbLine
 10
168.3046003859207
 20
98.53692545875339
 30
0.0
 11
168.3046003859207
 21
100.3369254587534
 31
0.0
  0
ENDBLK
  5
4FD
330
4FB
100
AcDbEntity
  8
0
100
AcDbBlockEnd
  0
BLOCK
  5
504
330
503
100
AcDbEntity
  8
0
100
AcDbBlockBegin
  2
G80
 70
     0
 10
0.0
 20
0.0
 30
0.0
  3
G80
  1

  0
LINE
  5
506
330
503
100
AcDbEntity
  8
1
  6
Continuous
 62
     7
370
     9
100
AcDbLine
 10
168.3046003859207
 20
97.39692545875337
 30
0.0
 11
183.3046003859207
 21
97.39692545875337
 31
0.0
  0
LINE
  5
507
330
503
100
AcDbEntity
  8
1
  6
Continuous
 62
     7
370
     9
100
AcDbLine
 10
183.3046003859207
 20
97.39692545875337
 30
0.0
 11
183.3046003859207
 21
95.59692545875276
 31
0.0
  0
LINE
  5
508
330
503
100
AcDbEntity
  8
1
  6
Continuous
 62
     7
370
     9
100
AcDbLine
 10
183.3046003859207
 20
95.59692545875276
 30
0.0
 11
168.3046003859207
 21
95.59692545875276
 31
0.0
  0
LINE
  5
509
330
503
100
AcDbEntity
  8
1
  6
Continuous
 62
     7
370
     9
100
AcDbLine
 10
168.3046003859207
 20
95.59692545875276
 30
0.0
 11
168.3046003859207
 21
97.39692545875337
 31
0.0
  0
ENDBLK
  5
505
330
503
100
AcDbEntity
  8
0
100
AcDbBlockEnd
  0
BLOCK
  5
51A
330
519
100
AcDbEntity
  8
0
100
AcDbBlockBegin
  2
G81
 70
     0
 10
0.0
 20
0.0
 30
0.0
  3
G81
  1

  0
LINE
  5
51C
330
519
100
AcDbEntity
  8
1
  6
Continuous
 62
     7
370
     9
100
AcDbLine
 10
160.8046003859207
 20
112.0969254587527
 30
0.0
 11
160.8046003859207
 21
110.2969254587528
 31
0.0
  0
LINE
  5
51D
330
519
100
AcDbEntity
  8
1
  6
Continuous
 62
     7
370
     9
100
AcDbLine
 10
93.30460038592082
 20
110.2969254587528
 30
0.0
 11
93.30460038592082
 21
112.0969254587527
 31
0.0
  0
LINE
  5
51E
330
519
100
AcDbEntity
  8
1
  6
Continuous
 62
     7
370
     9
100
AcDbLine
 10
93.30460038592082
 20
112.0969254587527
 30
0.0
 11
127.3293251442641
 21
112.0969254587527
 31
0.0
  0
LINE
  5
51F
330
519
100
AcDbEntity
  8
1
  6
Continuous
 62
     7
370
     9
100
AcDbLine
 10
128.095709121077
 20
112.0969254587527
 30
0.0
 11
160.8046003859207
 21
112.0969254587527
 31
0.0
  0
LINE
  5
520
330
519
100
AcDbEntity
  8
1
  6
Continuous
 62
     7
370
     9
100
AcDbLine
 10
160.8046003859207
 20
110.2969254587528
 30
0.0
 11
128.8160520651393
 21
110.2969254587528
 31
0.0
  0
LINE
  5
521
330
519
100
AcDbEntity
  8
1
  6
Continuous
 62
     7
370
     9
100
AcDbLine
 10
128.0496680883264
 20
110.2969254587528
 30
0.0
 11
93.30460038592082
 21
110.2969254587528
 31
0.0
  0
ENDBLK
  5
51B
330
519
100
AcDbEntity
  8
0
100
AcDbBlockEnd
  0
BLOCK
  5
524
330
523
100
AcDbEntity
  8
0
100
AcDbBlockBegin
  2
G82
 70
     0
 10
0.0
 20
0.0
 30
0.0
  3
G82
  1

  0
LINE
  5
526
330
523
100
AcDbEntity
  8
1
  6
Continuous
 62
     7
370
     9
100
AcDbLine
 10
93.30460038592082
 20
109.1569254587528
 30
0.0
 11
93.30460038592082
 21
107.3569254587528
 31
0.0
  0
LINE
  5
527
330
523
100
AcDbEntity
  8
1
  6
Continuous
 62
     7
370
     9
100
AcDbLine
 10
160.8046003859207
 20
107.3569254587528
 30
0.0
 11
160.8046003859207
 21
109.1569254587528
 31
0.0
  0
LINE
  5
528
330
523
100
AcDbEntity
  8
1
  6
Continuous
 62
     7
370
     9
100
AcDbLine
 10
160.8046003859207
 20
109.1569254587528
 30
0.0
 11
128.976907493099
 21
109.1569254587528
 31
0.0
  0
LINE
  5
529
330
523
100
AcDbEntity
  8
1
  6
Continuous
 62
     7
370
     9
100
AcDbLine
 10
128.2105235162861
 20
109.1569254587528
 30
0.0
 11
93.30460038592082
 21
109.1569254587528
 31
0.0
  0
LINE
  5
52A
330
523
100
AcDbEntity
  8
1
  6
Continuous
 62
     7
370
     9
100
AcDbLine
 10
93.30460038592082
 20
107.3569254587528
 30
0.0
 11
127.9840822110291
 21
107.3569254587528
 31
0.0
  0
LINE
  5
52B
330
523
100
AcDbEntity
  8
1
  6
Continuous
 62
     7
370
     9
100
AcDbLine
 10
128.750466187842
 20
107.3569254587528
 30
0.0
 11
160.8046003859207
 21
107.3569254587528
 31
0.0
  0
ENDBLK
  5
525
330
523
100
AcDbEntity
  8
0
100
AcDbBlockEnd
  0
BLOCK
  5
52E
330
52D
100
AcDbEntity
  8
0
100
AcDbBlockBegin
  2
G83
 70
     0
 10
0.0
 20
0.0
 30
0.0
  3
G83
  1

  0
LINE
  5
530
330
52D
100
AcDbEntity
  8
1
  6
Continuous
 62
     7
370
     9
100
AcDbLine
 10
160.8046003859207
 20
106.2169254587531
 30
0.0
 11
160.8046003859207
 21
104.416925458753
 31
0.0
  0
LINE
  5
531
330
52D
100
AcDbEntity
  8
1
  6
Continuous
 62
     7
370
     9
100
AcDbLine
 10
93.30460038592082
 20
104.416925458753
 30
0.0
 11
93.30460038592082
 21
106.2169254587531
 31
0.0
  0
LINE
  5
532
330
52D
100
AcDbEntity
  8
1
  6
Continuous
 62
     7
370
     9
100
AcDbLine
 10
93.30460038592082
 20
106.2169254587531
 30
0.0
 11
127.6187028880414
 21
106.2169254587531
 31
0.0
  0
LINE
  5
533
330
52D
100
AcDbEntity
  8
1
  6
Continuous
 62
     7
370
     9
100
AcDbLine
 10
128.3850868648543
 20
106.2169254587531
 30
0.0
 11
160.8046003859207
 21
106.2169254587531
 31
0.0
  0
LINE
  5
534
330
52D
100
AcDbEntity
  8
1
  6
Continuous
 62
     7
370
     9
100
AcDbLine
 10
160.8046003859207
 20
104.416925458753
 30
0.0
 11
127.644592168145
 21
104.416925458753
 31
0.0
  0
LINE
  5
535
330
52D
100
AcDbEntity
  8
1
  6
Continuous
 62
     7
370
     9
100
AcDbLine
 10
126.8782081913321
 20
104.416925458753
 30
0.0
 11
93.30460038592082
 21
104.416925458753
 31
0.0
  0
ENDBLK
  5
52F
330
52D
100
AcDbEntity
  8
0
100
AcDbBlockEnd
  0
BLOCK
  5
538
330
537
100
AcDbEntity
  8
0
100
AcDbBlockBegin
  2
G84
 70
     0
 10
0.0
 20
0.0
 30
0.0
  3
G84
  1

  0
LINE
  5
53A
330
537
100
AcDbEntity
  8
1
  6
Continuous
 62
     7
370
     9
100
AcDbLine
 10
93.30460038592082
 20
103.2769254587532
 30
0.0
 11
93.30460038592082
 21
101.4769254587534
 31
0.0
  0
LINE
  5
53B
330
537
100
AcDbEntity
  8
1
  6
Continuous
 62
     7
370
     9
100
AcDbLine
 10
160.8046003859207
 20
101.4769254587534
 30
0.0
 11
160.8046003859207
 21
103.2769254587532
 31
0.0
  0
LINE
  5
53C
330
537
100
AcDbEntity
  8
1
  6
Continuous
 62
     7
370
     9
100
AcDbLine
 10
160.8046003859207
 20
103.2769254587532
 30
0.0
 11
127.1435549189012
 21
103.2769254587532
 31
0.0
  0
LINE
  5
53D
330
537
100
AcDbEntity
  8
1
  6
Continuous
 62
     7
370
     9
100
AcDbLine
 10
126.3771709420883
 20
103.2769254587532
 30
0.0
 11
93.30460038592082
 21
103.2769254587532
 31
0.0
  0
LINE
  5
53E
330
537
100
AcDbEntity
  8
1
  6
Continuous
 62
     7
370
     9
100
AcDbLine
 10
93.30460038592082
 20
101.4769254587534
 30
0.0
 11
125.6520086108616
 21
101.4769254587534
 31
0.0
  0
LINE
  5
53F
330
537
100
AcDbEntity
  8
1
  6
Continuous
 62
     7
370
     9
100
AcDbLine
 10
126.4183925876745
 20
101.4769254587534
 30
0.0
 11
160.8046003859207
 21
101.4769254587534
 31
0.0
  0
ENDBLK
  5
539
330
537
100
AcDbEntity
  8
0
100
AcDbBlockEnd
  0
BLOCK
  5
542
330
541
100
AcDbEntity
  8
0
100
AcDbBlockBegin
  2
G85
 70
     0
 10
0.0
 20
0.0
 30
0.0
  3
G85
  1

  0
LINE
  5
544
330
541
100
AcDbEntity
  8
1
  6
Continuous
 62
     7
370
     9
100
AcDbLine
 10
160.8046003859207
 20
100.3369254587534
 30
0.0
 11
160.8046003859207
 21
98.53692545875339
 31
0.0
  0
LINE
  5
545
330
541
100
AcDbEntity
  8
1
  6
Continuous
 62
     7
370
     9
100
AcDbLine
 10
93.30460038592082
 20
98.53692545875339
 30
0.0
 11
93.30460038592082
 21
100.3369254587534
 31
0.0
  0
LINE
  5
546
330
541
100
AcDbEntity
  8
1
  6
Continuous
 62
     7
370
     9
100
AcDbLine
 10
93.30460038592082
 20
100.3369254587534
 30
0.0
 11
125.3129209221544
 21
100.3369254587534
 31
0.0
  0
LINE
  5
547
330
541
100
AcDbEntity
  8
1
  6
Continuous
 62
     7
370
     9
100
AcDbLine
 10
126.0793048989673
 20
100.3369254587534
 30
0.0
 11
160.8046003859207
 21
100.3369254587534
 31
0.0
  0
LINE
  5
548
330
541
100
AcDbEntity
  8
1
  6
Continuous
 62
     7
370
     9
100
AcDbLine
 10
160.8046003859207
 20
98.53692545875339
 30
0.0
 11
125.9090538939307
 21
98.53692545875339
 31
0.0
  0
LINE
  5
549
330
541
100
AcDbEntity
  8
1
  6
Continuous
 62
     7
370
     9
100
AcDbLine
 10
125.1426699171178
 20
98.53692545875339
 30
0.0
 11
93.30460038592082
 21
98.53692545875339
 31
0.0
  0
ENDBLK
  5
543
330
541
100
AcDbEntity
  8
0
100
AcDbBlockEnd
  0
BLOCK
  5
54C
330
54B
100
AcDbEntity
  8
0
100
AcDbBlockBegin
  2
G86
 70
     0
 10
0.0
 20
0.0
 30
0.0
  3
G86
  1

  0
LINE
  5
54E
330
54B
100
AcDbEntity
  8
1
  6
Continuous
 62
     7
370
     9
100
AcDbLine
 10
93.30460038592082
 20
97.39692545875337
 30
0.0
 11
93.30460038592082
 21
95.59692545875276
 31
0.0
  0
LINE
  5
54F
330
54B
100
AcDbEntity
  8
1
  6
Continuous
 62
     7
370
     9
100
AcDbLine
 10
160.8046003859207
 20
95.59692545875276
 30
0.0
 11
160.8046003859207
 21
97.39692545875337
 31
0.0
  0
LINE
  5
550
330
54B
100
AcDbEntity
  8
1
  6
Continuous
 62
     7
370
     9
100
AcDbLine
 10
160.8046003859207
 20
97.39692545875337
 30
0.0
 11
126.0928503126224
 21
97.39692545875337
 31
0.0
  0
LINE
  5
551
330
54B
100
AcDbEntity
  8
1
  6
Continuous
 62
     7
370
     9
100
AcDbLine
 10
125.3264663358095
 20
97.39692545875337
 30
0.0
 11
93.30460038592082
 21
97.39692545875337
 31
0.0
  0
LINE
  5
552
330
54B
100
AcDbEntity
  8
1
  6
Continuous
 62
     7
370
     9
100
AcDbLine
 10
93.30460038592082
 20
95.59692545875276
 30
0.0
 11
126.0627697696642
 21
95.59692545875276
 31
0.0
  0
LINE
  5
553
330
54B
100
AcDbEntity
  8
1
  6
Continuous
 62
     7
370
     9
100
AcDbLine
 10
126.8291537464771
 20
95.59692545875276
 30
0.0
 11
160.8046003859207
 21
95.59692545875276
 31
0.0
  0
ENDBLK
  5
54D
330
54B
100
AcDbEntity
  8
0
100
AcDbBlockEnd
  0
BLOCK
  5
55A
330
559
100
AcDbEntity
  8
0
100
AcDbBlockBegin
  2
Dim10
 70
     0
 10
0.0
 20
0.0
 30
0.0
  3
Dim10
  1

  0
LINE
  5
55C
330
559
100
AcDbEntity
  8
1
  6
Continuous
 62
     7
370
     9
100
AcDbLine
 10
93.30460038592082
 20
115.9719254587527
 30
0.0
 11
93.30460038592082
 21
129.0969254587527
 31
0.0
  0
LINE
  5
55D
330
559
100
AcDbEntity
  8
1
  6
Continuous
 62
     7
370
     9
100
AcDbLine
 10
183.3046003859207
 20
114.0969254587527
 30
0.0
 11
183.3046003859208
 21
129.0969254587527
 31
0.0
  0
LINE
  5
55E
330
559
100
AcDbEntity
  8
1
  6
Continuous
 62
     7
370
     9
100
AcDbLine
 10
93.30460038592082
 20
127.0969254587527
 30
0.0
 11
183.3046003859208
 21
127.0969254587527
 31
0.0
  0
MTEXT
  5
55F
330
559
100
AcDbEntity
  8
1
  6
Continuous
 62
     7
370
     9
100
AcDbMText
 10
138.3046003859208
 20
127.5969254587527
 30
0.0
 40
3.0
 41
84.99999999999997
 46
3.0
 71
     8
 72
     1
  1
600±10
  7
ＭＳ ゴシック
 73
     1
 44
1.0
  0
INSERT
  5
560
330
559
100
AcDbEntity
  8
1
  6
Continuous
 62
     7
370
     9
100
AcDbBlockReference
  2
_OPEN
 10
93.30460038592082
 20
127.0969254587527
 30
0.0
 41
2.4
 42
2.4
 43
2.4
 50
179.9999999999998
  0
INSERT
  5
561
330
559
100
AcDbEntity
  8
1
  6
Continuous
 62
     7
370
     9
100
AcDbBlockReference
  2
_OPEN
 10
183.3046003859208
 20
127.0969254587527
 30
0.0
 41
2.4
 42
2.4
 43
2.4
 50
359.9999999999997
  0
ENDBLK
  5
55B
330
559
100
AcDbEntity
  8
0
100
AcDbBlockEnd
  0
ENDSEC
  0
SECTION
  2
ENTITIES
  0
LINE
  5
105
330
1F
100
AcDbEntity
  8
15
  6
Continuous
 62
    98
420
    20480
370
     9
100
AcDbLine
 10
31995.00000000001
 20
14377.5
 30
0.0
 11
24705.00000000001
 21
14377.5
 31
0.0
  0
MTEXT
  5
106
330
1F
100
AcDbEntity
  8
15
  6
Continuous
 62
    98
420
    20480
370
     9
100
AcDbMText
 10
-2561.120760679875
 20
455.5402402808934
 30
0.0
 40
22.49999865889549
 41
87.33218906399622
 46
22.49999865889549
 71
     7
 72
     1
  1
{\fＭＳ ゴシック;\W0.714286;\T1.080000;型　式}
 73
     1
 44
1.0
  0
LINE
  5
107
330
1F
100
AcDbEntity
  8
15
  6
Continuous
 62
    98
420
    20480
370
    50
100
AcDbLine
 10
20.51596467391376
 20
267.1682892483032
 30
0.0
 11
20.51596467391376
 21
18.28252377717462
 31
0.0
  0
LINE
  5
108
330
1F
100
AcDbEntity
  8
15
  6
Continuous
 62
    98
420
    20480
370
    50
100
AcDbLine
 10
20.51596467391376
 20
18.28252377717462
 30
0.0
 11
393.3603993291064
 21
18.28252377717463
 31
0.0
  0
LINE
  5
109
330
1F
100
AcDbEntity
  8
15
  6
Continuous
 62
    98
420
    20480
370
    50
100
AcDbLine
 10
20.51596467391376
 20
267.1682892483032
 30
0.0
 11
393.3603993291064
 21
267.1682892483032
 31
0.0
  0
LINE
  5
10A
330
1F
100
AcDbEntity
  8
15
  6
Continuous
 62
    98
420
    20480
370
     9
100
AcDbLine
 10
306.2019600590614
 20
53.1459061088786
 30
0.0
 11
393.3603993291064
 21
53.1459061088786
 31
0.0
  0
LINE
  5
10B
330
1F
100
AcDbEntity
  8
15
  6
Continuous
 62
    98
420
    20480
370
     9
100
AcDbLine
 10
306.2019600590612
 20
53.14589948519263
 30
0.0
 11
393.3603993291064
 21
53.1459061088786
 31
0.0
  0
LINE
  5
10C
330
1F
100
AcDbEntity
  8
15
  6
Continuous
 62
    98
420
    20480
370
     9
100
AcDbLine
 10
393.3603993291063
 20
29.90365563686661
 30
0.0
 11
306.2019600590612
 21
29.90364901318061
 31
0.0
  0
LINE
  5
10D
330
1F
100
AcDbEntity
  8
15
  6
Continuous
 62
    98
420
    20480
370
     9
100
AcDbLine
 10
306.2019600590613
 20
44.4300555581881
 30
0.0
 11
393.0684738323852
 21
44.4300555581881
 31
0.0
  0
LINE
  5
10E
330
1F
100
AcDbEntity
  8
15
  6
Continuous
 62
    98
420
    20480
370
     9
100
AcDbLine
 10
393.0684738323851
 20
35.71421825486959
 30
0.0
 11
306.2019600590613
 21
35.71421163118362
 31
0.0
  0
LINE
  5
10F
330
1F
100
AcDbEntity
  8
15
  6
Continuous
 62
    98
420
    20480
370
     9
100
AcDbLine
 10
320.7283666040688
 20
44.4300555581881
 30
0.0
 11
320.7283666040688
 21
35.71421275731642
 31
0.0
  0
LINE
  5
110
330
1F
100
AcDbEntity
  8
15
  6
Continuous
 62
    98
420
    20480
370
     9
100
AcDbLine
 10
344.9390441790814
 20
44.4300555581881
 30
0.0
 11
344.9390441790814
 21
35.7142145972292
 31
0.0
  0
LINE
  5
111
330
1F
100
AcDbEntity
  8
15
  6
Continuous
 62
    98
420
    20480
370
     9
100
AcDbLine
 10
369.1497217540939
 20
44.4300555581881
 30
0.0
 11
369.1497217540939
 21
35.71421643714196
 31
0.0
  0
MTEXT
  5
112
330
1F
100
AcDbEntity
  8
15
  6
Continuous
 62
    98
420
    20480
370
     9
100
AcDbMText
 10
360.9266330932317
 20
18.65719125040017
 30
0.0
 40
9.684271030005002
 41
35.06437036691013
 46
9.684271030005002
 71
     7
 72
     1
  1
{\fＭＳ ゴシック|b1;\W0.714286;アート}
 11
0.9999999999999971
 21
7.599592331552029E-8
 31
0.0
 73
     1
 44
1.0
  0
INSERT
  5
117
330
1F
100
AcDbEntity
  8
0
100
AcDbBlockReference
  2
G1
 10
0.0
 20
0.0
 30
0.0
  0
HATCH
  5
118
330
1F
100
AcDbEntity
  8
15
  6
Continuous
 62
    98
420
    20480
370
     9
100
AcDbHatch
 10
0.0
 20
0.0
 30
0.0
210
0.0
220
0.0
230
1.0
  2
SOLID
 70
     1
 71
     0
 91
        1
 92
        0
 93
        8
 72
     1
 10
310.35664354811
 20
19.1333463019043
 11
313.4235089574605
 21
19.13334653497357
 72
     1
 10
313.4235089574605
 20
19.13334653497357
 11
318.2031354504267
 21
23.86565008617118
 72
     1
 10
318.2031354504267
 20
23.86565008617118
 11
318.2031356535335
 21
21.19304890777416
 72
     1
 10
318.2031356535335
 20
21.19304890777416
 11
316.0453519724847
 21
21.1930487437914
 72
     1
 10
316.0453519724847
 20
21.1930487437914
 11
316.0453521290136
 21
19.13334673422296
 72
     1
 10
316.0453521290136
 20
19.13334673422296
 11
320.2628356377109
 21
19.13334705473452
 72
     1
 10
320.2628356377109
 20
19.13334705473452
 11
320.2628348923346
 21
28.94145529093496
 72
     1
 10
320.2628348923346
 20
28.94145529093496
 11
310.35664354811
 21
19.1333463019043
 97
        0
 75
     0
 76
     1
 98
        0
  0
LINE
  5
119
330
1F
100
AcDbEntity
  8
15
  6
Continuous
 62
    98
420
    20480
370
     9
100
AcDbLine
 10
320.2628348923346
 20
28.94145529093496
 30
0.0
 11
310.35664354811
 21
19.1333463019043
 31
0.0
  0
LINE
  5
11A
330
1F
100
AcDbEntity
  8
15
  6
Continuous
 62
    98
420
    20480
370
     9
100
AcDbLine
 10
320.2628356377109
 20
19.13334705473452
 30
0.0
 11
320.2628348923346
 21
28.94145529093496
 31
0.0
  0
LINE
  5
11B
330
1F
100
AcDbEntity
  8
15
  6
Continuous
 62
    98
420
    20480
370
    30
100
AcDbLine
 10
325.7553805924107
 20
22.86042916920093
 30
0.0
 11
325.7553808756538
 21
19.13334747214556
 31
0.0
  0
LINE
  5
11C
330
1F
100
AcDbEntity
  8
15
  6
Continuous
 62
    98
420
    20480
370
    30
100
AcDbLine
 10
324.4803232270053
 20
22.86042907230177
 30
0.0
 11
325.7553805924107
 21
22.86042916920093
 31
0.0
  0
LINE
  5
11D
330
1F
100
AcDbEntity
  8
15
  6
Continuous
 62
    98
420
    20480
370
    30
100
AcDbLine
 10
324.4803231375603
 20
24.03740040238657
 30
0.0
 11
324.4803232270053
 21
22.86042907230177
 31
0.0
  0
LINE
  5
11E
330
1F
100
AcDbEntity
  8
15
  6
Continuous
 62
    98
420
    20480
370
    30
100
AcDbLine
 10
328.4035659956566
 20
24.03740070053703
 30
0.0
 11
324.4803231375603
 21
24.03740040238657
 31
0.0
  0
LINE
  5
11F
330
1F
100
AcDbEntity
  8
15
  6
Continuous
 62
    98
420
    20480
370
    30
100
AcDbLine
 10
323.2052725682526
 20
20.74331192082359
 30
0.0
 11
324.9302332490274
 21
19.13334740943771
 31
0.0
  0
ARC
  5
120
330
1F
100
AcDbEntity
  8
15
  6
Continuous
 62
    98
420
    20480
370
    30
100
AcDbCircle
 10
322.8026209128843
 20
22.37002276932121
 30
0.0
 40
1.677702351390078
100
AcDbArc
 50
283.9448509848726
 51
83.64030041852497
  0
LINE
  5
121
330
1F
100
AcDbEntity
  8
15
  6
Continuous
 62
    98
420
    20480
370
    30
100
AcDbLine
 10
320.6551619509445
 20
24.03740011168991
 30
0.0
 11
322.9884614652279
 21
24.03740028901116
 31
0.0
  0
LINE
  5
122
330
1F
100
AcDbEntity
  8
15
  6
Continuous
 62
    98
420
    20480
370
    30
100
AcDbLine
 10
320.6551619509445
 20
24.03740011168991
 30
0.0
 11
320.6551620403896
 21
22.86042878160511
 31
0.0
  0
LINE
  5
123
330
1F
100
AcDbEntity
  8
15
  6
Continuous
 62
    98
420
    20480
370
    30
100
AcDbLine
 10
320.6551620403896
 20
22.86042878160511
 30
0.0
 11
322.6167845603977
 21
22.86042893068043
 31
0.0
  0
LINE
  5
124
330
1F
100
AcDbEntity
  8
15
  6
Continuous
 62
    98
420
    20480
370
    30
100
AcDbLine
 10
320.2628354290055
 20
21.87961640082576
 30
0.0
 11
322.6167846349354
 21
21.87961657971631
 31
0.0
  0
ARC
  5
125
330
1F
100
AcDbEntity
  8
15
  6
Continuous
 62
    98
420
    20480
370
    30
100
AcDbCircle
 10
322.6167845976666
 20
22.3700227551984
 30
0.0
 40
0.4904061754820551
100
AcDbArc
 50
270.0000044491355
 51
90.00000425936346
  0
LINE
  5
126
330
1F
100
AcDbEntity
  8
15
  6
Continuous
 62
    98
420
    20480
370
    30
100
AcDbLine
 10
320.2628354290055
 20
21.87961640082576
 30
0.0
 11
323.2052726906033
 21
19.13334727834773
 31
0.0
  0
LINE
  5
127
330
1F
100
AcDbEntity
  8
15
  6
Continuous
 62
    98
420
    20480
370
    30
100
AcDbLine
 10
318.2031356535335
 20
21.19304890777416
 30
0.0
 11
316.0453519724847
 21
21.1930487437914
 31
0.0
  0
LINE
  5
128
330
1F
100
AcDbEntity
  8
15
  6
Continuous
 62
    98
420
    20480
370
    30
100
AcDbLine
 10
318.2031354504267
 20
23.86565008617118
 30
0.0
 11
318.2031356535335
 21
21.19304890777416
 31
0.0
  0
LINE
  5
129
330
1F
100
AcDbEntity
  8
15
  6
Continuous
 62
    98
420
    20480
370
    30
100
AcDbLine
 10
313.4235089574605
 20
19.13334653497357
 30
0.0
 11
318.2031354504267
 21
23.86565008617118
 31
0.0
  0
HATCH
  5
12A
330
1F
100
AcDbEntity
  8
15
  6
Continuous
 62
    98
420
    20480
370
     9
100
AcDbHatch
 10
0.0
 20
0.0
 30
0.0
210
0.0
220
0.0
230
1.0
  2
SOLID
 70
     1
 71
     0
 91
        1
 92
        0
 93
        8
 72
     1
 10
324.4803231375603
 20
24.03740040238657
 11
328.4035659956566
 21
24.03740070053703
 72
     1
 10
328.4035659956566
 20
24.03740070053703
 11
328.4035660851016
 21
22.86042937045224
 72
     1
 10
328.4035660851016
 20
22.86042937045224
 11
327.1285174473766
 21
22.86042927355373
 72
     1
 10
327.1285174473766
 20
22.86042927355373
 11
327.1285177306196
 21
19.13334757649837
 72
     1
 10
327.1285177306196
 20
19.13334757649837
 11
325.7553808756538
 21
19.13334747214556
 72
     1
 10
325.7553808756538
 20
19.13334747214556
 11
325.7553805924107
 21
22.86042916920093
 72
     1
 10
325.7553805924107
 20
22.86042916920093
 11
324.4803232270053
 21
22.86042907230177
 72
     1
 10
324.4803232270053
 20
22.86042907230177
 11
324.4803231375603
 21
24.03740040238657
 97
        0
 75
     0
 76
     1
 98
        0
  0
HATCH
  5
12B
330
1F
100
AcDbEntity
  8
15
  6
Continuous
 62
    98
420
    20480
370
     9
100
AcDbHatch
 10
0.0
 20
0.0
 30
0.0
210
0.0
220
0.0
230
1.0
  2
SOLID
 70
     1
 71
     0
 91
        1
 92
        0
 93
        9
 72
     1
 10
323.2069289408628
 20
20.74176597189279
 11
324.9302332490274
 21
19.13334740943771
 72
     1
 10
324.9302332490274
 20
19.13334740943771
 11
323.2052726906033
 21
19.13334727834773
 72
     1
 10
323.2052726906033
 20
19.13334727834773
 11
320.2628354290055
 21
21.87961640082576
 72
     1
 10
320.2628354290055
 20
21.87961640082576
 11
322.6167846349354
 21
21.87961657971631
 72
     2
 10
322.6167845976666
 20
22.3700227551984
 40
0.4904061754820551
 50
270.0000043542397
 51
450.0000043542463
 73
     1
 72
     1
 10
322.6167845603977
 20
22.86042893068043
 11
320.6551620403896
 21
22.86042878160511
 72
     1
 10
320.6551620403896
 20
22.86042878160511
 11
320.6551619509445
 21
24.03740011168991
 72
     1
 10
320.6551619509445
 20
24.03740011168991
 11
322.6167782889059
 21
24.03740026076476
 72
     2
 10
322.8026209128843
 20
22.37002276932121
 40
1.677702351390078
 50
263.640173957834
 51
436.0550731150826
 73
     0
 97
        0
 75
     0
 76
     1
 98
        0
  0
LINE
  5
12C
330
1F
100
AcDbEntity
  8
15
  6
Continuous
 62
    98
420
    20480
370
    30
100
AcDbLine
 10
316.0453519724847
 20
21.1930487437914
 30
0.0
 11
316.0453521290136
 21
19.13334673422296
 31
0.0
  0
LINE
  5
12D
330
1F
100
AcDbEntity
  8
15
  6
Continuous
 62
    98
420
    20480
370
    30
100
AcDbLine
 10
316.0453521290136
 20
19.13334673422296
 30
0.0
 11
320.2628356377109
 21
19.13334705473452
 31
0.0
  0
LINE
  5
12E
330
1F
100
AcDbEntity
  8
15
  6
Continuous
 62
    98
420
    20480
370
    30
100
AcDbLine
 10
324.9302332490274
 20
19.13334740943771
 30
0.0
 11
323.2052726906033
 21
19.13334727834773
 31
0.0
  0
LINE
  5
12F
330
1F
100
AcDbEntity
  8
15
  6
Continuous
 62
    98
420
    20480
370
    30
100
AcDbLine
 10
325.7553808756538
 20
19.13334747214556
 30
0.0
 11
327.1285177306196
 21
19.13334757649837
 31
0.0
  0
LINE
  5
130
330
1F
100
AcDbEntity
  8
15
  6
Continuous
 62
    98
420
    20480
370
    30
100
AcDbLine
 10
327.1285177306196
 20
19.13334757649837
 30
0.0
 11
327.1285174473766
 21
22.86042927355373
 31
0.0
  0
LINE
  5
131
330
1F
100
AcDbEntity
  8
15
  6
Continuous
 62
    98
420
    20480
370
    30
100
AcDbLine
 10
327.1285174473766
 20
22.86042927355373
 30
0.0
 11
328.4035660851016
 21
22.86042937045224
 31
0.0
  0
LINE
  5
132
330
1F
100
AcDbEntity
  8
15
  6
Continuous
 62
    98
420
    20480
370
    30
100
AcDbLine
 10
328.4035660851016
 20
22.86042937045224
 30
0.0
 11
328.4035659956566
 21
24.03740070053703
 31
0.0
  0
LINE
  5
133
330
1F
100
AcDbEntity
  8
15
  6
Continuous
 62
    98
420
    20480
370
    30
100
AcDbLine
 10
310.35664354811
 20
19.1333463019043
 30
0.0
 11
313.4235089574605
 21
19.13334653497357
 31
0.0
  0
MTEXT
  5
134
330
1F
100
AcDbEntity
  8
15
  6
Continuous
 62
    98
420
    20480
370
     9
100
AcDbMText
 10
329.619625880976
 20
19.06605920630536
 30
0.0
 40
3.486337570801802
 41
37.83807007905209
 46
3.486337570801802
 71
     7
 72
     1
  1
{\fＭＳ ゴシック;\W1.488095;\T1.026667;株式会社}
 11
0.9999999999999971
 21
7.599592331552029E-8
 31
0.0
 73
     1
 44
1.0
  0
MTEXT
  5
135
330
1F
100
AcDbEntity
  8
15
  6
Continuous
 62
    98
420
    20480
370
     9
100
AcDbMText
 10
329.5512955036425
 20
22.82421424621745
 30
0.0
 40
1.743168785400901
 41
22.00915234123299
 46
1.743168785400901
 71
     7
 72
     1
  1
{\fＭＳ ゴシック;\W0.873016;出入管理システム}
 11
0.9999999999999971
 21
7.599592331552029E-8
 31
0.0
 73
     1
 44
1.0
  0
LINE
  5
136
330
1F
100
AcDbEntity
  8
15
  6
Continuous
 62
    98
420
    20480
370
     9
100
AcDbLine
 10
358.8228815032862
 20
23.80265505733958
 30
0.0
 11
346.7537011865454
 21
23.80265414013108
 31
0.0
  0
LINE
  5
137
330
1F
100
AcDbEntity
  8
15
  6
Continuous
 62
    98
420
    20480
370
    50
100
AcDbLine
 10
393.3603993291064
 20
18.28252377717462
 30
0.0
 11
393.3603993291064
 21
267.1682892483032
 31
0.0
  0
LINE
  5
138
330
1F
100
AcDbEntity
  8
15
  6
Continuous
 62
    98
420
    20480
370
     9
100
AcDbLine
 10
349.8979806457056
 20
35.67662851193376
 30
0.0
 11
349.8979806457056
 21
29.83573446465566
 31
0.0
  0
LINE
  5
139
330
1F
100
AcDbEntity
  8
15
  6
Continuous
 62
    98
420
    20480
370
     9
100
AcDbLine
 10
356.7123570341968
 20
35.67663331733239
 30
0.0
 11
356.7123570341968
 21
29.83573924775335
 31
0.0
  0
LINE
  5
13A
330
1F
100
AcDbEntity
  8
15
  6
Continuous
 62
    98
420
    20480
370
     9
100
AcDbLine
 10
382.016121898906
 20
35.6766309529703
 30
0.0
 11
382.016121898906
 21
29.83573690524595
 31
0.0
  0
LINE
  5
13B
330
1F
100
AcDbEntity
  8
15
  6
Continuous
 62
    98
420
    20480
370
     9
100
AcDbLine
 10
384.9859140875584
 20
34.93678437342526
 30
0.0
 11
384.9859140875584
 21
30.57558348479098
 31
0.0
  0
CIRCLE
  5
13C
330
1F
100
AcDbEntity
  8
15
  6
Continuous
 62
    98
420
    20480
370
     9
100
AcDbCircle
 10
384.9859140875584
 20
32.75618392910813
 30
0.0
 40
0.9345430475644728
  0
CIRCLE
  5
13D
330
1F
100
AcDbEntity
  8
15
  6
Continuous
 62
    98
420
    20480
370
     9
100
AcDbCircle
 10
384.9859140875584
 20
32.75618392910813
 30
0.0
 40
1.557571745940843
  0
LINE
  5
13E
330
1F
100
AcDbEntity
  8
15
  6
Continuous
 62
    98
420
    20480
370
     9
100
AcDbLine
 10
387.5551980508485
 20
33.69072697667262
 30
0.0
 11
387.5551980508485
 21
31.82164088154364
 31
0.0
  0
LINE
  5
13F
330
1F
100
AcDbEntity
  8
15
  6
Continuous
 62
    98
420
    20480
370
     9
100
AcDbLine
 10
392.5394276378591
 20
34.31375567504895
 30
0.0
 11
392.5394276378591
 21
31.1986121831673
 31
0.0
  0
LINE
  5
140
330
1F
100
AcDbEntity
  8
15
  6
Continuous
 62
    98
420
    20480
370
     9
100
AcDbLine
 10
387.5551980508485
 20
33.69072697667262
 30
0.0
 11
392.5394276378591
 21
34.31375567504895
 31
0.0
  0
LINE
  5
141
330
1F
100
AcDbEntity
  8
15
  6
Continuous
 62
    98
420
    20480
370
     9
100
AcDbLine
 10
387.5551980508485
 20
31.82164088154364
 30
0.0
 11
392.5394276378591
 21
31.1986121831673
 31
0.0
  0
LINE
  5
142
330
1F
100
AcDbEntity
  8
15
  6
Continuous
 62
    98
420
    20480
370
     9
100
AcDbLine
 10
382.8053136432412
 20
32.75618392910813
 30
0.0
 11
393.0709489961615
 21
32.75618392910813
 31
0.0
  0
LINE
  5
143
330
1F
100
AcDbEntity
  8
15
  6
Continuous
 62
    98
420
    20480
370
     9
100
AcDbLine
 10
320.7283666040688
 20
35.71421275731642
 30
0.0
 11
320.7283666040688
 21
29.90365011712827
 31
0.0
  0
LINE
  5
144
330
1F
100
AcDbEntity
  8
15
  6
Continuous
 62
    98
420
    20480
370
     9
100
AcDbLine
 10
20.51596467391368
 20
61.86175003588311
 30
0.0
 11
393.3603993291064
 21
61.86175003588311
 31
0.0
  0
LINE
  5
145
330
1F
100
AcDbEntity
  8
15
  6
Continuous
 62
    98
420
    20480
370
    30
100
AcDbLine
 10
20.51596467391377
 20
61.86175003588311
 30
0.0
 11
393.3603993291064
 21
61.86175003588311
 31
0.0
  0
LINE
  5
146
330
1F
100
AcDbEntity
  8
15
  6
Continuous
 62
    98
420
    20480
370
    30
100
AcDbLine
 10
306.2019600590614
 20
267.1682892483032
 30
0.0
 11
306.2019600590614
 21
18.28252377717463
 31
0.0
  0
LINE
  5
147
330
1F
100
AcDbEntity
  8
15
  6
Continuous
 62
    98
420
    20480
370
    30
100
AcDbLine
 10
273.9210566257114
 20
61.86175003588311
 30
0.0
 11
273.9210566257114
 21
18.28252377717463
 31
0.0
  0
LINE
  5
148
330
1F
100
AcDbEntity
  8
15
  6
Continuous
 62
    98
420
    20480
370
    30
100
AcDbLine
 10
273.9210566257114
 20
57.0196145208806
 30
0.0
 11
306.2019600590614
 21
57.0196145208806
 31
0.0
  0
LINE
  5
149
330
1F
100
AcDbEntity
  8
15
  6
Continuous
 62
    98
420
    20480
370
     9
100
AcDbLine
 10
273.9210566257114
 20
52.1774790058781
 30
0.0
 11
306.2019600590614
 21
52.17747900587808
 31
0.0
  0
LINE
  5
14A
330
1F
100
AcDbEntity
  8
15
  6
Continuous
 62
    98
420
    20480
370
     9
100
AcDbLine
 10
273.9210566257114
 20
47.33534349087557
 30
0.0
 11
306.2019600590614
 21
47.33534349087556
 31
0.0
  0
LINE
  5
14B
330
1F
100
AcDbEntity
  8
15
  6
Continuous
 62
    98
420
    20480
370
     9
100
AcDbLine
 10
273.9210566257114
 20
42.49320797587309
 30
0.0
 11
306.2019600590614
 21
42.49320797587308
 31
0.0
  0
LINE
  5
14C
330
1F
100
AcDbEntity
  8
15
  6
Continuous
 62
    98
420
    20480
370
     9
100
AcDbLine
 10
273.9210566257114
 20
37.65107246087058
 30
0.0
 11
306.2019600590614
 21
37.65107246087057
 31
0.0
  0
LINE
  5
14D
330
1F
100
AcDbEntity
  8
15
  6
Continuous
 62
    98
420
    20480
370
     9
100
AcDbLine
 10
273.9210566257114
 20
32.80893694586809
 30
0.0
 11
306.2019600590614
 21
32.80893694586807
 31
0.0
  0
LINE
  5
14E
330
1F
100
AcDbEntity
  8
15
  6
Continuous
 62
    98
420
    20480
370
     9
100
AcDbLine
 10
273.9210566257114
 20
27.96680143086559
 30
0.0
 11
306.2019600590614
 21
27.96680143086557
 31
0.0
  0
LINE
  5
14F
330
1F
100
AcDbEntity
  8
15
  6
Continuous
 62
    98
420
    20480
370
     9
100
AcDbLine
 10
273.9210566257114
 20
23.12466591586309
 30
0.0
 11
306.2019600590614
 21
23.12466591586307
 31
0.0
  0
LINE
  5
150
330
1F
100
AcDbEntity
  8
15
  6
Continuous
 62
    98
420
    20480
370
     9
100
AcDbLine
 10
278.7631921407139
 20
57.0196145208806
 30
0.0
 11
278.7631921407139
 21
18.28252377717462
 31
0.0
  0
MTEXT
  5
151
330
1F
100
AcDbEntity
  8
15
  6
Continuous
 62
    98
420
    20480
370
     9
100
AcDbMText
 10
20.93338250687324
 20
61.48946270324
 30
0.0
 40
4.8421355150025
 41
32.02928839332952
 46
4.8421355150025
 71
     1
 72
     1
  1
{\fＭＳ ゴシック;\W0.714286;\T1.080000;※特記事項}
 73
     1
 44
1.0
  0
MTEXT
  5
152
330
1F
100
AcDbEntity
  8
15
  6
Continuous
 62
    98
420
    20480
370
     9
100
AcDbMText
 10
290.0615083423864
 20
59.19857550263172
 30
0.0
 40
3.0
 41
16.01415786112066
 46
3.0
 71
     5
 72
     1
  1
{\fＭＳ ゴシック;\W0.714286;\T1.133333;図面履歴}
 73
     1
 44
1.0
  0
MTEXT
  5
153
330
1F
100
AcDbEntity
  8
15
  6
Continuous
 62
    98
420
    20480
370
     9
100
AcDbMText
 10
294.5871726404295
 20
66.21114984087896
 30
0.0
 40
3.0
 41
122.8510875234447
 46
3.0
 71
     6
 72
     1
  1
{\fＭＳ ゴシック;\W0.714286;\T1.133333;＊　記載されている会社名、製品名は、登録商標または商品です。}
 73
     1
 44
1.0
  0
MTEXT
  5
154
330
1F
100
AcDbEntity
  8
15
  6
Continuous
 62
    98
420
    20480
370
     9
100
AcDbMText
 10
292.4825760998877
 20
49.5143044726267
 30
0.0
 40
3.0
 41
1.762475918909591
 46
3.0
 71
     5
 72
     1
  1
{\fＭＳ ゴシック;\W0.714286;-}
 73
     1
 44
1.0
  0
MTEXT
  5
155
330
1F
100
AcDbEntity
  8
15
  6
Continuous
 62
    98
420
    20480
370
     9
100
AcDbMText
 10
292.4825760998877
 20
44.67216895762419
 30
0.0
 40
3.0
 41
1.762475918909591
 46
3.0
 71
     5
 72
     1
  1
{\fＭＳ ゴシック;\W0.714286;-}
 73
     1
 44
1.0
  0
MTEXT
  5
156
330
1F
100
AcDbEntity
  8
15
  6
Continuous
 62
    98
420
    20480
370
     9
100
AcDbMText
 10
292.4825760998877
 20
40.31424699412197
 30
0.0
 40
3.0
 41
1.762475918909591
 46
3.0
 71
     5
 72
     1
  1
{\fＭＳ ゴシック;\W0.714286;-}
 73
     1
 44
1.0
  0
MTEXT
  5
157
330
1F
100
AcDbEntity
  8
15
  6
Continuous
 62
    98
420
    20480
370
     9
100
AcDbMText
 10
292.4825760998877
 20
35.47211147911945
 30
0.0
 40
3.0
 41
1.762475918909591
 46
3.0
 71
     5
 72
     1
  1
{\fＭＳ ゴシック;\W0.714286;-}
 73
     1
 44
1.0
  0
MTEXT
  5
158
330
1F
100
AcDbEntity
  8
15
  6
Continuous
 62
    98
420
    20480
370
     9
100
AcDbMText
 10
292.4825760998877
 20
30.62997596411696
 30
0.0
 40
3.0
 41
1.762475918909591
 46
3.0
 71
     5
 72
     1
  1
{\fＭＳ ゴシック;\W0.714286;-}
 73
     1
 44
1.0
  0
MTEXT
  5
159
330
1F
100
AcDbEntity
  8
15
  6
Continuous
 62
    98
420
    20480
370
     9
100
AcDbMText
 10
292.4825760998877
 20
25.78784044911446
 30
0.0
 40
3.0
 41
1.762475918909591
 46
3.0
 71
     5
 72
     1
  1
{\fＭＳ ゴシック;\W0.714286;-}
 73
     1
 44
1.0
  0
MTEXT
  5
15A
330
1F
100
AcDbEntity
  8
15
  6
Continuous
 62
    98
420
    20480
370
     9
100
AcDbMText
 10
306.6193778920209
 20
59.06839509004563
 30
0.0
 40
2.5
 41
9.967187528915966
 46
2.5
 71
     7
 72
     1
  1
{\fＭＳ ゴシック;\W0.714286;\T1.160000;型　式}
 73
     1
 44
1.0
  0
MTEXT
  5
15B
330
1F
100
AcDbEntity
  8
15
  6
Continuous
 62
    98
420
    20480
370
     9
100
AcDbMText
 10
306.6193778920209
 20
50.19667604077367
 30
0.0
 40
2.5
 41
9.671150615453106
 46
2.5
 71
     7
 72
     1
  1
{\fＭＳ ゴシック;\W0.714286;\T1.160000;製品名}
 73
     1
 44
1.0
  0
MTEXT
  5
15C
330
1F
100
AcDbEntity
  8
15
  6
Continuous
 62
    98
420
    20480
370
     9
100
AcDbMText
 10
306.924185645817
 20
41.60362706276553
 30
0.0
 40
2.5
 41
17.41504820916125
 46
2.5
 71
     7
 72
     1
  1
{\fＭＳ ゴシック;\W0.714286;縮尺（Ａ３）}
 73
     1
 44
1.0
  0
MTEXT
  5
15D
330
1F
100
AcDbEntity
  8
15
  6
Continuous
 62
    98
420
    20480
370
     9
100
AcDbMText
 10
370.170096944348
 20
41.37838329994046
 30
0.0
 40
2.5
 41
6.35442422222027
 46
2.5
 71
     7
 72
     1
  1
{\fＭＳ ゴシック;\W0.714286;\T1.160000;作図}
 73
     1
 44
1.0
  0
MTEXT
  5
15E
330
1F
100
AcDbEntity
  8
15
  6
Continuous
 62
    98
420
    20480
370
     9
100
AcDbMText
 10
321.4168695831377
 20
41.69506136169783
 30
0.0
 40
2.5
 41
6.585815774074091
 46
2.5
 71
     7
 72
     1
  1
{\fＭＳ ゴシック;\W0.714286;\T1.160000;承認}
 73
     1
 44
1.0
  0
MTEXT
  5
15F
330
1F
100
AcDbEntity
  8
15
  6
Continuous
 62
    98
420
    20480
370
     9
100
AcDbMText
 10
345.6275471581502
 20
41.69506136169783
 30
0.0
 40
2.5
 41
6.380187241868263
 46
2.5
 71
     7
 72
     1
  1
{\fＭＳ ゴシック;\W0.714286;\T1.160000;検図}
 73
     1
 44
1.0
  0
MTEXT
  5
160
330
1F
100
AcDbEntity
  8
15
  6
Continuous
 62
    98
420
    20480
370
     9
100
AcDbMText
 10
308.9465114304984
 20
37.17600841253579
 30
0.0
 40
3.0
 41
9.043723583903963
 46
3.0
 71
     7
 72
     1
  1
{\fＭＳ ゴシック;\W0.714286;１：１}
 73
     1
 44
1.0
  0
MTEXT
  5
161
330
1F
100
AcDbEntity
  8
15
  6
Continuous
 62
    98
420
    20480
370
     9
100
AcDbMText
 10
313.4651633315651
 20
32.80893032218212
 30
0.0
 40
3.0
 41
15.99874761182968
 46
3.0
 71
     5
 72
     1
  1
{\fＭＳ ゴシック;\W0.714286;\T1.133333;図面番号}
 73
     1
 44
1.0
  0
MTEXT
  5
162
330
1F
100
AcDbEntity
  8
15
  6
Continuous
 62
    98
420
    20480
370
     9
100
AcDbMText
 10
350.191461852217
 20
31.41076779810096
 30
0.0
 40
3.0
 41
7.170968598542242
 46
3.0
 71
     7
 72
     1
  1
{\fＭＳ ゴシック;\W0.714286;\T1.133333;日付}
 73
     1
 44
1.0
  0
MTEXT
  5
163
330
1F
100
AcDbEntity
  8
15
  6
Continuous
 62
    98
420
    20480
370
     9
100
AcDbMText
 10
332.8366448045268
 20
40.07715828744134
 30
0.0
 40
5.0
 41
13.45025529582736
 46
5.0
 71
     5
 72
     1
  1
{\fHG正楷書体-PRO;\W0.714286;\T1.080000;太田}
 73
     1
 44
1.0
  0
MTEXT
  5
164
330
1F
100
AcDbEntity
  8
15
  6
Continuous
 62
    98
420
    20480
370
     9
100
AcDbMText
 10
357.0374750223021
 20
40.04705766313435
 30
0.0
 40
5.0
 41
13.45025529582736
 46
5.0
 71
     5
 72
     1
  1
{\fHG正楷書体-PRO;\W0.714286;\T1.080000;太田}
 73
     1
 44
1.0
  0
MTEXT
  5
165
330
1F
100
AcDbEntity
  8
15
  6
Continuous
 62
    98
420
    20480
370
     9
100
AcDbMText
 10
381.2627634915995
 20
40.06513238273413
 30
0.0
 40
5.0
 41
13.56358246845561
 46
5.0
 71
     5
 72
     1
  1
{\fHG正楷書体-PRO;\W0.714286;\T1.080000;宮村}
 73
     1
 44
1.0
  0
MTEXT
  5
166
330
1F
100
AcDbEntity
  8
15
  6
Continuous
 62
    98
420
    20480
370
     9
100
AcDbMText
 10
358.9367848236869
 20
31.23795300575362
 30
0.0
 40
3.0
 41
29.39090599498289
 46
3.0
 71
     7
 72
     1
  1
{\fＭＳ ゴシック;\W0.714286;\T1.133333;2023年12月07日}
 73
     1
 44
1.0
  0
MTEXT
  5
167
330
1F
100
AcDbEntity
  8
15
  6
Continuous
 62
    98
420
    20480
370
     9
100
AcDbMText
 10
276.3421243832126
 20
54.35643998762919
 30
0.0
 40
3.0
 41
3.324066213035803
 46
3.0
 71
     5
 72
     1
  1
{\fＭＳ ゴシック;\W0.714286;\T1.133333;01}
 73
     1
 44
1.0
  0
MTEXT
  5
168
330
1F
100
AcDbEntity
  8
15
  6
Continuous
 62
    98
420
    20480
370
     9
100
AcDbMText
 10
276.3421243832126
 20
49.51430447262669
 30
0.0
 40
3.0
 41
3.878074187546244
 46
3.0
 71
     5
 72
     1
  1
{\fＭＳ ゴシック;\W0.714286;\T1.133333;02}
 73
     1
 44
1.0
  0
MTEXT
  5
169
330
1F
100
AcDbEntity
  8
15
  6
Continuous
 62
    98
420
    20480
370
     9
100
AcDbMText
 10
276.3421243832126
 20
45.15638250912446
 30
0.0
 40
3.0
 41
3.862854188246507
 46
3.0
 71
     5
 72
     1
  1
{\fＭＳ ゴシック;\W0.714286;\T1.133333;03}
 73
     1
 44
1.0
  0
MTEXT
  5
16A
330
1F
100
AcDbEntity
  8
15
  6
Continuous
 62
    98
420
    20480
370
     9
100
AcDbMText
 10
276.3421243832126
 20
40.31424699412195
 30
0.0
 40
3.0
 41
3.956694996428951
 46
3.0
 71
     5
 72
     1
  1
{\fＭＳ ゴシック;\W0.714286;\T1.133333;04}
 73
     1
 44
1.0
  0
MTEXT
  5
16B
330
1F
100
AcDbEntity
  8
15
  6
Continuous
 62
    98
420
    20480
370
     9
100
AcDbMText
 10
276.3421243832126
 20
35.47211147911946
 30
0.0
 40
3.0
 41
3.862854188246507
 46
3.0
 71
     5
 72
     1
  1
{\fＭＳ ゴシック;\W0.714286;\T1.133333;05}
 73
     1
 44
1.0
  0
MTEXT
  5
16C
330
1F
100
AcDbEntity
  8
15
  6
Continuous
 62
    98
420
    20480
370
     9
100
AcDbMText
 10
276.3421243832126
 20
30.14576241261669
 30
0.0
 40
3.0
 41
3.879501062480595
 46
3.0
 71
     5
 72
     1
  1
{\fＭＳ ゴシック;\W0.714286;\T1.133333;06}
 73
     1
 44
1.0
  0
MTEXT
  5
16D
330
1F
100
AcDbEntity
  8
15
  6
Continuous
 62
    98
420
    20480
370
     9
100
AcDbMText
 10
292.4825760998877
 20
54.35643998762922
 30
0.0
 40
3.0
 41
1.762475918909591
 46
3.0
 71
     5
 72
     1
  1
{\fＭＳ ゴシック;\W0.714286;-}
 73
     1
 44
1.0
  0
MTEXT
  5
16E
330
1F
100
AcDbEntity
  8
15
  6
Continuous
 62
    98
420
    20480
370
     9
100
AcDbMText
 10
292.4825760998877
 20
54.35643998762922
 30
0.0
 40
3.0
 41
1.762475918909591
 46
3.0
 71
     5
 72
     1
  1
{\fＭＳ ゴシック;\W0.714286;-}
 73
     1
 44
1.0
  0
LINE
  5
16F
330
1F
100
AcDbEntity
  8
1
  6
Continuous
 62
     7
370
     9
100
AcDbLine
 10
171.1879632989759
 20
217.0285794899739
 30
0.0
 11
96.31604683508169
 21
217.0285794899739
 31
0.0
  0
LINE
  5
170
330
1F
100
AcDbEntity
  8
1
  6
Continuous
 62
     7
370
     9
100
AcDbLine
 10
96.31604683508169
 20
175.0285794899739
 30
0.0
 11
171.1879632989759
 21
175.0285794899739
 31
0.0
  0
ARC
  5
171
330
1F
100
AcDbEntity
  8
1
  6
Continuous
 62
     7
370
     9
100
AcDbCircle
 10
147.2288915477571
 20
196.0285794899739
 30
0.0
 40
36.5
100
AcDbArc
 50
337.8488155505098
 51
22.15118444948654
  0
ARC
  5
172
330
1F
100
AcDbEntity
  8
1
  6
Continuous
 62
     7
370
     9
100
AcDbCircle
 10
171.7947372858079
 20
205.9674528237393
 30
0.0
 40
10.0
100
AcDbArc
 50
22.47943439710335
 51
31.60750224624904
  0
LINE
  5
173
330
1F
100
AcDbEntity
  8
1
  6
Continuous
 62
     7
370
     9
100
AcDbLine
 10
179.6583194274781
 20
212.2695537466173
 30
0.0
 11
180.3113204528532
 21
211.2084270803827
 31
0.0
  0
ARC
  5
174
330
1F
100
AcDbEntity
  8
1
  6
Continuous
 62
     7
370
     9
100
AcDbCircle
 10
171.7947372858079
 20
186.0897061562086
 30
0.0
 40
10.0
100
AcDbArc
 50
328.3924977537506
 51
337.5205656028947
  0
LINE
  5
175
330
1F
100
AcDbEntity
  8
1
  6
Continuous
 62
     7
370
     9
100
AcDbLine
 10
180.3113204528532
 20
180.8487318995653
 30
0.0
 11
179.6583194274781
 21
179.7876052333306
 31
0.0
  0
ARC
  5
176
330
1F
100
AcDbEntity
  8
1
  6
Continuous
 62
     7
370
     9
100
AcDbCircle
 10
171.1417362604327
 20
207.0285794899739
 30
0.0
 40
10.0
100
AcDbArc
 50
31.60750224624918
 51
89.99999999999991
  0
ARC
  5
177
330
1F
100
AcDbEntity
  8
1
  6
Continuous
 62
     7
370
     9
100
AcDbCircle
 10
171.1417362604327
 20
185.0285794899739
 30
0.0
 40
10.0
100
AcDbArc
 50
269.9999999999998
 51
328.3924977537507
  0
ARC
  5
178
330
1F
100
AcDbEntity
  8
1
  6
Continuous
 62
     7
370
     9
100
AcDbCircle
 10
120.2288915477571
 20
196.0285794899739
 30
0.0
 40
36.5
100
AcDbArc
 50
157.8488155505134
 51
202.1511844494895
  0
ARC
  5
179
330
1F
100
AcDbEntity
  8
1
  6
Continuous
 62
     7
370
     9
100
AcDbCircle
 10
95.66304580970655
 20
205.9674528237393
 30
0.0
 40
10.0
100
AcDbArc
 50
148.3924977537513
 51
157.5205656028968
  0
LINE
  5
17A
330
1F
100
AcDbEntity
  8
1
  6
Continuous
 62
     7
370
     9
100
AcDbLine
 10
87.79946366803625
 20
212.2695537466173
 30
0.0
 11
87.14646264266105
 21
211.2084270803827
 31
0.0
  0
ARC
  5
17B
330
1F
100
AcDbEntity
  8
1
  6
Continuous
 62
     7
370
     9
100
AcDbCircle
 10
95.66304580970649
 20
186.0897061562086
 30
0.0
 40
10.0
100
AcDbArc
 50
202.4794343971045
 51
211.6075022462485
  0
LINE
  5
17C
330
1F
100
AcDbEntity
  8
1
  6
Continuous
 62
     7
370
     9
100
AcDbLine
 10
87.14646264266105
 20
180.8487318995653
 30
0.0
 11
87.7994636680362
 21
179.7876052333306
 31
0.0
  0
ARC
  5
17D
330
1F
100
AcDbEntity
  8
1
  6
Continuous
 62
     7
370
     9
100
AcDbCircle
 10
96.31604683508169
 20
207.0285794899739
 30
0.0
 40
10.0
100
AcDbArc
 50
89.99999999999991
 51
148.392497753751
  0
ARC
  5
17E
330
1F
100
AcDbEntity
  8
1
  6
Continuous
 62
     7
370
     9
100
AcDbCircle
 10
96.31604683508169
 20
185.0285794899739
 30
0.0
 40
10.0
100
AcDbArc
 50
211.6075022462482
 51
269.9999999999998
  0
INSERT
  5
188
330
1F
100
AcDbEntity
  8
0
100
AcDbBlockReference
  2
G2
 10
0.0
 20
0.0
 30
0.0
  0
INSERT
  5
192
330
1F
100
AcDbEntity
  8
0
100
AcDbBlockReference
  2
G3
 10
0.0
 20
0.0
 30
0.0
  0
ARC
  5
193
330
1F
100
AcDbEntity
  8
1
  6
Continuous
 62
     7
370
     9
100
AcDbCircle
 10
128.6788915477572
 20
193.8285794899739
 30
0.0
 40
0.3
100
AcDbArc
 50
269.9999999999998
 51
0.0
  0
LINE
  5
194
330
1F
100
AcDbEntity
  8
1
  6
Continuous
 62
     7
370
     9
100
AcDbLine
 10
128.9788915477572
 20
193.8285794899739
 30
0.0
 11
128.9788915477574
 21
196.9796434000383
 31
0.0
  0
LINE
  5
195
330
1F
100
AcDbEntity
  8
1
  6
Continuous
 62
     7
370
     9
100
AcDbLine
 10
128.2788915477573
 20
193.5285794899739
 30
0.0
 11
128.6788915477572
 21
193.5285794899739
 31
0.0
  0
ARC
  5
196
330
1F
100
AcDbEntity
  8
1
  6
Continuous
 62
     7
370
     9
100
AcDbCircle
 10
128.2788915477573
 20
193.8285794899739
 30
0.0
 40
0.3
100
AcDbArc
 50
179.9999999999998
 51
269.9999999999998
  0
LINE
  5
197
330
1F
100
AcDbEntity
  8
1
  6
Continuous
 62
     7
370
     9
100
AcDbLine
 10
127.9788915477573
 20
193.8285794899739
 30
0.0
 11
127.9788915477574
 21
197.5333889615908
 31
0.0
  0
ARC
  5
198
330
1F
100
AcDbEntity
  8
1
  6
Continuous
 62
     7
370
     9
100
AcDbCircle
 10
123.1788915477572
 20
193.8285794899739
 30
0.0
 40
0.3
100
AcDbArc
 50
269.9999999999998
 51
0.0
  0
LINE
  5
199
330
1F
100
AcDbEntity
  8
1
  6
Continuous
 62
     7
370
     9
100
AcDbLine
 10
123.4788915477573
 20
193.8285794899739
 30
0.0
 11
123.4788915477574
 21
197.5333889615904
 31
0.0
  0
LINE
  5
19A
330
1F
100
AcDbEntity
  8
1
  6
Continuous
 62
     7
370
     9
100
AcDbLine
 10
123.1788915477572
 20
193.5285794899739
 30
0.0
 11
122.7788915477573
 21
193.5285794899739
 31
0.0
  0
ARC
  5
19B
330
1F
100
AcDbEntity
  8
1
  6
Continuous
 62
     7
370
     9
100
AcDbCircle
 10
122.7788915477572
 20
193.8285794899739
 30
0.0
 40
0.3
100
AcDbArc
 50
179.9999999999946
 51
270.0000000000105
  0
LINE
  5
19C
330
1F
100
AcDbEntity
  8
1
  6
Continuous
 62
     7
370
     9
100
AcDbLine
 10
122.4788915477573
 20
193.828579489974
 30
0.0
 11
122.4788915477574
 21
196.9796434000378
 31
0.0
  0
ARC
  5
19D
330
1F
100
AcDbEntity
  8
1
  6
Continuous
 62
     7
370
     9
100
AcDbCircle
 10
130.4788915477574
 20
196.9796434000382
 30
0.0
 40
1.5
100
AcDbArc
 50
123.9744759502935
 51
179.9999999999967
  0
ARC
  5
19E
330
1F
100
AcDbEntity
  8
1
  6
Continuous
 62
     7
370
     9
100
AcDbCircle
 10
125.7288915477571
 20
204.0285794899739
 30
0.0
 40
7.000000000000014
100
AcDbArc
 50
303.974475950293
 51
236.0255240497096
  0
ARC
  5
19F
330
1F
100
AcDbEntity
  8
1
  6
Continuous
 62
     7
370
     9
100
AcDbCircle
 10
129.4788915477574
 20
197.5333889615907
 30
0.0
 40
1.5
100
AcDbArc
 50
120.0000000000006
 51
179.9999999999978
  0
CIRCLE
  5
1A0
330
1F
100
AcDbEntity
  8
1
  6
Continuous
 62
     7
370
     9
100
AcDbCircle
 10
125.7288915477571
 20
204.0285794899739
 30
0.0
 40
6.000000000000028
  0
ARC
  5
1A1
330
1F
100
AcDbEntity
  8
1
  6
Continuous
 62
     7
370
     9
100
AcDbCircle
 10
121.9788915477574
 20
197.5333889615905
 30
0.0
 40
1.5
100
AcDbArc
 50
359.9999999999974
 51
60.00000000000485
  0
ARC
  5
1A2
330
1F
100
AcDbEntity
  8
1
  6
Continuous
 62
     7
370
     9
100
AcDbCircle
 10
120.9788915477574
 20
196.9796434000379
 30
0.0
 40
1.5
100
AcDbArc
 50
359.9999999999974
 51
56.02552404971199
  0
INSERT
  5
1AA
330
1F
100
AcDbEntity
  8
0
100
AcDbBlockReference
  2
G4
 10
0.0
 20
0.0
 30
0.0
  0
INSERT
  5
1B2
330
1F
100
AcDbEntity
  8
0
100
AcDbBlockReference
  2
G5
 10
0.0
 20
0.0
 30
0.0
  0
INSERT
  5
1BA
330
1F
100
AcDbEntity
  8
0
100
AcDbBlockReference
  2
G6
 10
0.0
 20
0.0
 30
0.0
  0
INSERT
  5
1C2
330
1F
100
AcDbEntity
  8
0
100
AcDbBlockReference
  2
G7
 10
0.0
 20
0.0
 30
0.0
  0
INSERT
  5
1CA
330
1F
100
AcDbEntity
  8
0
100
AcDbBlockReference
  2
G8
 10
0.0
 20
0.0
 30
0.0
  0
INSERT
  5
1D2
330
1F
100
AcDbEntity
  8
0
100
AcDbBlockReference
  2
G9
 10
0.0
 20
0.0
 30
0.0
  0
INSERT
  5
1DA
330
1F
100
AcDbEntity
  8
0
100
AcDbBlockReference
  2
G10
 10
0.0
 20
0.0
 30
0.0
  0
INSERT
  5
1E2
330
1F
100
AcDbEntity
  8
0
100
AcDbBlockReference
  2
G11
 10
0.0
 20
0.0
 30
0.0
  0
INSERT
  5
1EA
330
1F
100
AcDbEntity
  8
0
100
AcDbBlockReference
  2
G12
 10
0.0
 20
0.0
 30
0.0
  0
INSERT
  5
1F2
330
1F
100
AcDbEntity
  8
0
100
AcDbBlockReference
  2
G13
 10
0.0
 20
0.0
 30
0.0
  0
INSERT
  5
1FA
330
1F
100
AcDbEntity
  8
0
100
AcDbBlockReference
  2
G14
 10
0.0
 20
0.0
 30
0.0
  0
INSERT
  5
202
330
1F
100
AcDbEntity
  8
0
100
AcDbBlockReference
  2
G15
 10
0.0
 20
0.0
 30
0.0
  0
INSERT
  5
20A
330
1F
100
AcDbEntity
  8
0
100
AcDbBlockReference
  2
G16
 10
0.0
 20
0.0
 30
0.0
  0
INSERT
  5
212
330
1F
100
AcDbEntity
  8
0
100
AcDbBlockReference
  2
G17
 10
0.0
 20
0.0
 30
0.0
  0
INSERT
  5
21A
330
1F
100
AcDbEntity
  8
0
100
AcDbBlockReference
  2
G18
 10
0.0
 20
0.0
 30
0.0
  0
INSERT
  5
222
330
1F
100
AcDbEntity
  8
0
100
AcDbBlockReference
  2
G19
 10
0.0
 20
0.0
 30
0.0
  0
INSERT
  5
22A
330
1F
100
AcDbEntity
  8
0
100
AcDbBlockReference
  2
G20
 10
0.0
 20
0.0
 30
0.0
  0
INSERT
  5
232
330
1F
100
AcDbEntity
  8
0
100
AcDbBlockReference
  2
G21
 10
0.0
 20
0.0
 30
0.0
  0
INSERT
  5
23A
330
1F
100
AcDbEntity
  8
0
100
AcDbBlockReference
  2
G22
 10
0.0
 20
0.0
 30
0.0
  0
INSERT
  5
242
330
1F
100
AcDbEntity
  8
0
100
AcDbBlockReference
  2
G23
 10
0.0
 20
0.0
 30
0.0
  0
INSERT
  5
24A
330
1F
100
AcDbEntity
  8
0
100
AcDbBlockReference
  2
G24
 10
0.0
 20
0.0
 30
0.0
  0
INSERT
  5
252
330
1F
100
AcDbEntity
  8
0
100
AcDbBlockReference
  2
G25
 10
0.0
 20
0.0
 30
0.0
  0
INSERT
  5
25A
330
1F
100
AcDbEntity
  8
0
100
AcDbBlockReference
  2
G26
 10
0.0
 20
0.0
 30
0.0
  0
INSERT
  5
262
330
1F
100
AcDbEntity
  8
0
100
AcDbBlockReference
  2
G27
 10
0.0
 20
0.0
 30
0.0
  0
INSERT
  5
26A
330
1F
100
AcDbEntity
  8
0
100
AcDbBlockReference
  2
G28
 10
0.0
 20
0.0
 30
0.0
  0
INSERT
  5
272
330
1F
100
AcDbEntity
  8
0
100
AcDbBlockReference
  2
G29
 10
0.0
 20
0.0
 30
0.0
  0
INSERT
  5
27A
330
1F
100
AcDbEntity
  8
0
100
AcDbBlockReference
  2
G30
 10
0.0
 20
0.0
 30
0.0
  0
INSERT
  5
282
330
1F
100
AcDbEntity
  8
0
100
AcDbBlockReference
  2
G31
 10
0.0
 20
0.0
 30
0.0
  0
INSERT
  5
28A
330
1F
100
AcDbEntity
  8
0
100
AcDbBlockReference
  2
G32
 10
0.0
 20
0.0
 30
0.0
  0
INSERT
  5
292
330
1F
100
AcDbEntity
  8
0
100
AcDbBlockReference
  2
G33
 10
0.0
 20
0.0
 30
0.0
  0
INSERT
  5
29A
330
1F
100
AcDbEntity
  8
0
100
AcDbBlockReference
  2
G34
 10
0.0
 20
0.0
 30
0.0
  0
INSERT
  5
2A2
330
1F
100
AcDbEntity
  8
0
100
AcDbBlockReference
  2
G35
 10
0.0
 20
0.0
 30
0.0
  0
INSERT
  5
2AA
330
1F
100
AcDbEntity
  8
0
100
AcDbBlockReference
  2
G36
 10
0.0
 20
0.0
 30
0.0
  0
INSERT
  5
2B2
330
1F
100
AcDbEntity
  8
0
100
AcDbBlockReference
  2
G37
 10
0.0
 20
0.0
 30
0.0
  0
INSERT
  5
2BA
330
1F
100
AcDbEntity
  8
0
100
AcDbBlockReference
  2
G38
 10
0.0
 20
0.0
 30
0.0
  0
INSERT
  5
2C2
330
1F
100
AcDbEntity
  8
0
100
AcDbBlockReference
  2
G39
 10
0.0
 20
0.0
 30
0.0
  0
INSERT
  5
2CA
330
1F
100
AcDbEntity
  8
0
100
AcDbBlockReference
  2
G40
 10
0.0
 20
0.0
 30
0.0
  0
INSERT
  5
2D2
330
1F
100
AcDbEntity
  8
0
100
AcDbBlockReference
  2
G41
 10
0.0
 20
0.0
 30
0.0
  0
INSERT
  5
2DA
330
1F
100
AcDbEntity
  8
0
100
AcDbBlockReference
  2
G42
 10
0.0
 20
0.0
 30
0.0
  0
INSERT
  5
2E2
330
1F
100
AcDbEntity
  8
0
100
AcDbBlockReference
  2
G43
 10
0.0
 20
0.0
 30
0.0
  0
INSERT
  5
2EA
330
1F
100
AcDbEntity
  8
0
100
AcDbBlockReference
  2
G44
 10
0.0
 20
0.0
 30
0.0
  0
INSERT
  5
2F2
330
1F
100
AcDbEntity
  8
0
100
AcDbBlockReference
  2
G45
 10
0.0
 20
0.0
 30
0.0
  0
INSERT
  5
2FA
330
1F
100
AcDbEntity
  8
0
100
AcDbBlockReference
  2
G46
 10
0.0
 20
0.0
 30
0.0
  0
LINE
  5
2FB
330
1F
100
AcDbEntity
  8
1
  6
Continuous
 62
     7
370
     9
100
AcDbLine
 10
126.7288915477571
 20
180.0285794899739
 30
0.0
 11
146.7288915477571
 21
180.0285794899739
 31
0.0
  0
CIRCLE
  5
2FC
330
1F
100
AcDbEntity
  8
1
  6
Continuous
 62
     7
370
     9
100
AcDbCircle
 10
114.2288915477572
 20
210.028579489974
 30
0.0
 40
2.0
  0
INSERT
  5
308
330
1F
100
AcDbEntity
  8
0
100
AcDbBlockReference
  2
G47
 10
0.0
 20
0.0
 30
0.0
  0
INSERT
  5
314
330
1F
100
AcDbEntity
  8
0
100
AcDbBlockReference
  2
G48
 10
0.0
 20
0.0
 30
0.0
  0
LINE
  5
315
330
1F
100
AcDbEntity
  8
1
  6
Continuous
 62
     7
370
     9
100
AcDbLine
 10
127.9788915477574
 20
193.8285794899739
 30
0.0
 11
127.9788915477574
 21
197.4000426981926
 31
0.0
  0
LINE
  5
316
330
1F
100
AcDbEntity
  8
1
  6
DASHDOT
 62
     7
370
     9
100
AcDbLine
 10
85.7288915477572
 20
196.0285794899739
 30
0.0
 11
91.7288915477572
 21
196.0285794899739
 31
0.0
  0
LINE
  5
317
330
1F
100
AcDbEntity
  8
1
  6
DASHDOT
 62
     7
370
     9
100
AcDbLine
 10
88.7288915477572
 20
187.0285794899739
 30
0.0
 11
88.7288915477572
 21
205.0285794899739
 31
0.0
  0
LINE
  5
318
330
1F
100
AcDbEntity
  8
1
  6
DASHDOT
 62
     7
370
     9
100
AcDbLine
 10
175.7288915477571
 20
196.0285794899739
 30
0.0
 11
181.7288915477571
 21
196.0285794899739
 31
0.0
  0
LINE
  5
319
330
1F
100
AcDbEntity
  8
1
  6
DASHDOT
 62
     7
370
     9
100
AcDbLine
 10
178.7288915477571
 20
187.0285794899739
 30
0.0
 11
178.7288915477571
 21
205.0285794899739
 31
0.0
  0
DIMENSION
  5
324
330
1F
100
AcDbEntity
  8
1
  6
Continuous
 62
     7
370
     9
100
AcDbDimension
280
     0
  2
Dim1
 10
183.7288915477575
 20
247.028579489974
 30
0.0
 11
133.7288915477574
 21
249.028579489974
 31
0.0
 70
   160
  1
<>
 71
     5
 42
-1.0
 73
     0
 74
     0
 75
     0
  3
Standard
100
AcDbAlignedDimension
 13
83.7288915477572
 23
196.0285794899739
 33
0.0
 14
183.7288915477574
 24
196.0285794899739
 34
0.0
100
AcDbRotatedDimension
1001
ACAD
1000
DSTYLE
1002
{
1070
   279
1070
     2
1070
   340
1005
31A
1070
   140
1040
3.0
1070
    40
1040
1.0
1070
   147
1040
0.0
1070
    76
1070
     0
1070
    75
1070
     0
1070
   344
1005
7F
1070
   343
1005
7F
1070
   173
1070
     1
1070
   289
1070
     2
1070
   288
1070
     1
1070
    77
1070
     1
1070
   172
1070
     1
1070
   174
1070
     0
1070
    74
1070
     0
1070
    73
1070
     0
1070
   284
1070
     8
1070
    78
1070
     8
1070
    42
1040
2.0
1070
    44
1040
2.0
1070
    43
1040
10.0
1070
   271
1070
     2
1070
    41
1040
2.4
1002
}
  0
DIMENSION
  5
32E
330
1F
100
AcDbEntity
  8
1
  6
Continuous
 62
     7
370
     9
100
AcDbDimension
280
     0
  2
Dim2
 10
178.7288915477573
 20
237.0285794899739
 30
0.0
 11
133.7288915477573
 21
239.0285794899739
 31
0.0
 70
   160
  1
<>
 71
     5
 42
-1.0
 73
     0
 74
     0
 75
     0
  3
Standard
100
AcDbAlignedDimension
 13
88.7288915477572
 23
205.0285794899739
 33
0.0
 14
178.7288915477571
 24
205.0285794899739
 34
0.0
100
AcDbRotatedDimension
1001
ACAD
1000
DSTYLE
1002
{
1070
   279
1070
     2
1070
   340
1005
31A
1070
   140
1040
3.0
1070
    40
1040
1.0
1070
   147
1040
0.0
1070
    76
1070
     0
1070
    75
1070
     0
1070
   344
1005
7F
1070
   343
1005
7F
1070
   173
1070
     1
1070
   289
1070
     2
1070
   288
1070
     1
1070
    77
1070
     1
1070
   172
1070
     1
1070
   174
1070
     0
1070
    74
1070
     0
1070
    73
1070
     0
1070
   284
1070
     8
1070
    78
1070
     8
1070
    42
1040
2.0
1070
    44
1040
2.0
1070
    43
1040
10.0
1070
   271
1070
     2
1070
    41
1040
2.4
1002
}
  0
DIMENSION
  5
338
330
1F
100
AcDbEntity
  8
1
  6
Continuous
 62
     7
370
     9
100
AcDbDimension
280
     0
  2
Dim3
 10
173.7288915477571
 20
227.0285794899739
 30
0.0
 11
133.7288915477571
 21
229.0285794899739
 31
0.0
 70
   160
  1
<>
 71
     5
 42
-1.0
 73
     0
 74
     0
 75
     0
  3
Standard
100
AcDbAlignedDimension
 13
93.7288915477572
 23
213.8632057929356
 33
0.0
 14
173.7288915477571
 24
213.3871918501298
 34
0.0
100
AcDbRotatedDimension
1001
ACAD
1000
DSTYLE
1002
{
1070
   279
1070
     2
1070
   340
1005
31A
1070
   140
1040
3.0
1070
    40
1040
1.0
1070
   147
1040
0.0
1070
    76
1070
     0
1070
    75
1070
     0
1070
   344
1005
7F
1070
   343
1005
7F
1070
   173
1070
     1
1070
   289
1070
     2
1070
   288
1070
     1
1070
    77
1070
     1
1070
   172
1070
     1
1070
   174
1070
     0
1070
    74
1070
     0
1070
    73
1070
     0
1070
   284
1070
     8
1070
    78
1070
     8
1070
    42
1040
2.0
1070
    44
1040
2.0
1070
    43
1040
10.0
1070
   271
1070
     2
1070
    41
1040
2.4
1002
}
  0
DIMENSION
  5
342
330
1F
100
AcDbEntity
  8
1
  6
Continuous
 62
     7
370
     9
100
AcDbDimension
280
     0
  2
Dim4
 10
203.7288915477571
 20
175.0285794899739
 30
0.0
 11
201.7288915477571
 21
196.0285794899739
 31
0.0
 70
   160
  1
<>
 71
     5
 42
-1.0
 73
     0
 74
     0
 75
     0
 53
89.9999999999999
  3
Standard
100
AcDbAlignedDimension
 13
170.7288915477571
 23
217.0285794899739
 33
0.0
 14
170.7288915477571
 24
175.0285794899739
 34
0.0
 50
-89.99999999999991
100
AcDbRotatedDimension
1001
ACAD
1000
DSTYLE
1002
{
1070
   279
1070
     2
1070
   340
1005
31A
1070
   140
1040
3.0
1070
    40
1040
1.0
1070
   147
1040
0.0
1070
    76
1070
     0
1070
    75
1070
     0
1070
   344
1005
7F
1070
   343
1005
7F
1070
   173
1070
     1
1070
   289
1070
     2
1070
   288
1070
     1
1070
    77
1070
     1
1070
   172
1070
     1
1070
   174
1070
     0
1070
    74
1070
     0
1070
    73
1070
     0
1070
   284
1070
     8
1070
    78
1070
     8
1070
    42
1040
2.0
1070
    44
1040
2.0
1070
    43
1040
10.0
1070
   271
1070
     2
1070
    41
1040
2.4
1002
}
  0
DIMENSION
  5
34C
330
1F
100
AcDbEntity
  8
1
  6
Continuous
 62
     7
370
     9
100
AcDbDimension
280
     0
  2
Dim5
 10
193.7288915477571
 20
188.0285794899739
 30
0.0
 11
191.7288915477571
 21
196.0285794899739
 31
0.0
 70
   160
  1
<>
 71
     5
 42
-1.0
 73
     0
 74
     0
 75
     0
 53
89.99999999999991
  3
Standard
100
AcDbAlignedDimension
 13
178.7288915477571
 23
204.0285794899739
 33
0.0
 14
178.7288915477574
 24
188.0285794899739
 34
0.0
 50
-89.9999999999999
100
AcDbRotatedDimension
1001
ACAD
1000
DSTYLE
1002
{
1070
   279
1070
     2
1070
   340
1005
31A
1070
   140
1040
3.0
1070
    40
1040
1.0
1070
   147
1040
0.0
1070
    76
1070
     0
1070
    75
1070
     0
1070
   344
1005
7F
1070
   343
1005
7F
1070
   173
1070
     1
1070
   289
1070
     2
1070
   288
1070
     1
1070
    77
1070
     1
1070
   172
1070
     1
1070
   174
1070
     0
1070
    74
1070
     0
1070
    73
1070
     0
1070
   284
1070
     8
1070
    78
1070
     8
1070
    42
1040
2.0
1070
    44
1040
2.0
1070
    43
1040
10.0
1070
   271
1070
     2
1070
    41
1040
2.4
1002
}
  0
MTEXT
  5
34D
330
1F
100
AcDbEntity
  8
1
  6
DASHDOT
 62
     7
370
     9
100
AcDbMText
 10
166.7288915477571
 20
210.0285794899739
 30
0.0
 40
5.0
 41
4.701595426456249
 46
5.0
 71
     3
 72
     1
  1
{\fYu Gothic UI|b1;\W0.857143;\T1.266667;R}
 73
     1
 44
1.0
  0
MTEXT
  5
34E
330
1F
100
AcDbEntity
  8
1
  6
DASHDOT
 62
     7
370
     9
100
AcDbMText
 10
163.7288915477571
 20
210.0285794899739
 30
0.0
 40
5.0
 41
8.2096299397
 46
5.0
 71
     3
 72
     1
  1
{\fYu Gothic UI|b1;\W0.857143;\T1.266667;W}
 73
     1
 44
1.0
  0
MTEXT
  5
34F
330
1F
100
AcDbEntity
  8
1
  6
DASHDOT
 62
     7
370
     9
100
AcDbMText
 10
159.1850581240254
 20
210.0285794899739
 30
0.0
 40
5.0
 41
2.3186575293
 46
5.0
 71
     3
 72
     1
  1
{\fYu Gothic UI|b1;\W0.857143;\T1.266667;-}
 73
     1
 44
1.0
  0
MTEXT
  5
350
330
1F
100
AcDbEntity
  8
1
  6
DASHDOT
 62
     7
370
     9
100
AcDbMText
 10
157.3794879961412
 20
210.0285794899739
 30
0.0
 40
5.0
 41
5.1606865744
 46
5.0
 71
     3
 72
     1
  1
{\fYu Gothic UI|b1;\W0.857143;\T1.266667;N}
 73
     1
 44
1.0
  0
MTEXT
  5
351
330
1F
100
AcDbEntity
  8
1
  6
DASHDOT
 62
     7
370
     9
100
AcDbMText
 10
153.7683477403724
 20
210.0285794899739
 30
0.0
 40
5.0
 41
5.1424294285
 46
5.0
 71
     3
 72
     1
  1
{\fYu Gothic UI|b1;\W0.857143;\T1.266667;G}
 73
     1
 44
1.0
  0
MTEXT
  5
352
330
1F
100
AcDbEntity
  8
1
  6
DASHDOT
 62
     7
370
     9
100
AcDbMText
 10
134.4686217450044
 20
204.0285794899739
 30
0.0
 40
3.0
 41
3.316777844410313
 46
3.0
 71
     4
 72
     1
  1
{\fメイリオ;\W0.952381;R}
 73
     1
 44
1.0
  0
MTEXT
  5
353
330
1F
100
AcDbEntity
  8
1
  6
DASHDOT
 62
     7
370
     9
100
AcDbMText
 10
135.7379922591532
 20
204.0285794899739
 30
0.0
 40
3.0
 41
2.64120013206
 46
3.0
 71
     4
 72
     1
  1
{\fメイリオ;\W0.952381;E}
 73
     1
 44
1.0
  0
MTEXT
  5
354
330
1F
100
AcDbEntity
  8
1
  6
DASHDOT
 62
     7
370
     9
100
AcDbMText
 10
137.228891547757
 20
204.0285794899739
 30
0.0
 40
3.0
 41
3.4688573163
 46
3.0
 71
     4
 72
     1
  1
{\fメイリオ;\W0.952381;G}
 73
     1
 44
1.0
  0
MTEXT
  5
355
330
1F
100
AcDbEntity
  8
1
  6
DASHDOT
 62
     7
370
     9
100
AcDbMText
 10
138.0232239462632
 20
204.0285794899739
 30
0.0
 40
3.0
 41
1.56605722116
 46
3.0
 71
     4
 72
     1
  1
{\fメイリオ;\W0.952381;I}
 73
     1
 44
1.0
  0
MTEXT
  5
356
330
1F
100
AcDbEntity
  8
1
  6
DASHDOT
 62
     7
370
     9
100
AcDbMText
 10
139.297457948972
 20
204.0285794899739
 30
0.0
 40
3.0
 41
2.994171578280001
 46
3.0
 71
     4
 72
     1
  1
{\fメイリオ;\W0.952381;S}
 73
     1
 44
1.0
  0
MTEXT
  5
357
330
1F
100
AcDbEntity
  8
1
  6
DASHDOT
 62
     7
370
     9
100
AcDbMText
 10
140.6114104415873
 20
204.0285794899739
 30
0.0
 40
3.0
 41
3.38365731204
 46
3.0
 71
     4
 72
     1
  1
{\fメイリオ;\W0.952381;T}
 73
     1
 44
1.0
  0
MTEXT
  5
358
330
1F
100
AcDbEntity
  8
1
  6
DASHDOT
 62
     7
370
     9
100
AcDbMText
 10
141.8649746179162
 20
204.0285794899739
 30
0.0
 40
3.0
 41
2.64120013206
 46
3.0
 71
     4
 72
     1
  1
{\fメイリオ;\W0.952381;E}
 73
     1
 44
1.0
  0
MTEXT
  5
359
330
1F
100
AcDbEntity
  8
1
  6
DASHDOT
 62
     7
370
     9
100
AcDbMText
 10
143.1748742033981
 20
204.0285794899739
 30
0.0
 40
3.0
 41
3.316777844410313
 46
3.0
 71
     4
 72
     1
  1
{\fメイリオ;\W0.952381;R}
 73
     1
 44
1.0
  0
MTEXT
  5
35A
330
1F
100
AcDbEntity
  8
1
  6
DASHDOT
 62
     7
370
     9
100
AcDbMText
 10
136.5155994866828
 20
191.5285794899739
 30
0.0
 40
3.0
 41
3.09154301172
 46
3.0
 71
     5
 72
     1
  1
{\fメイリオ;\W0.952381;N}
 73
     1
 44
1.0
  0
MTEXT
  5
35B
330
1F
100
AcDbEntity
  8
1
  6
DASHDOT
 62
     7
370
     9
100
AcDbMText
 10
137.7651107558786
 20
191.5285794899739
 30
0.0
 40
3.0
 41
3.09154301172
 46
3.0
 71
     5
 72
     1
  1
{\fメイリオ;\W0.952381;N}
 73
     1
 44
1.0
  0
MTEXT
  5
35C
330
1F
100
AcDbEntity
  8
1
  6
DASHDOT
 62
     7
370
     9
100
AcDbMText
 10
138.7528042242633
 20
191.5285794899739
 30
0.0
 40
3.0
 41
2.64120013206
 46
3.0
 71
     5
 72
     1
  1
{\fメイリオ;\W0.952381;E}
 73
     1
 44
1.0
  0
MTEXT
  5
35D
330
1F
100
AcDbEntity
  8
1
  6
DASHDOT
 62
     7
370
     9
100
AcDbMText
 10
139.7214490291216
 20
191.5285794899739
 30
0.0
 40
3.0
 41
2.52760012638
 46
3.0
 71
     5
 72
     1
  1
{\fメイリオ;\W0.952381;L}
 73
     1
 44
1.0
  0
MTEXT
  5
35E
330
1F
100
AcDbEntity
  8
1
  6
DASHDOT
 62
     7
370
     9
100
AcDbMText
 10
135.1145094907018
 20
191.5285794899739
 30
0.0
 40
3.0
 41
3.639891253423125
 46
3.0
 71
     5
 72
     1
  1
{\fメイリオ;\W0.952381;A}
 73
     1
 44
1.0
  0
MTEXT
  5
35F
330
1F
100
AcDbEntity
  8
1
  6
DASHDOT
 62
     7
370
     9
100
AcDbMText
 10
133.8529745970106
 20
191.5285794899739
 30
0.0
 40
3.0
 41
3.09965729784
 46
3.0
 71
     5
 72
     1
  1
{\fメイリオ;\W0.952381;H}
 73
     1
 44
1.0
  0
MTEXT
  5
360
330
1F
100
AcDbEntity
  8
1
  6
DASHDOT
 62
     7
370
     9
100
AcDbMText
 10
132.7640935471979
 20
191.2526796131423
 30
0.0
 40
3.0
 41
2.26997233656
 46
3.0
 71
     5
 72
     1
  1
{\fYu Gothic UI;\W0.714286;C}
 73
     1
 44
1.0
  0
MTEXT
  5
361
330
1F
100
AcDbEntity
  8
1
  6
DASHDOT
 62
     7
370
     9
100
AcDbMText
 10
164.7288915477571
 20
196.3779861658156
 30
0.0
 40
3.0
 41
3.316777844410313
 46
3.0
 71
     6
 72
     1
  1
{\fメイリオ;\W0.952381;R}
 73
     1
 44
1.0
  0
MTEXT
  5
362
330
1F
100
AcDbEntity
  8
1
  6
DASHDOT
 62
     7
370
     9
100
AcDbMText
 10
162.340267788005
 20
196.3779861658156
 30
0.0
 40
3.0
 41
5.01868596522
 46
3.0
 71
     6
 72
     1
  1
{\fメイリオ;\W0.952381;W}
 73
     1
 44
1.0
  0
MTEXT
  5
363
330
1F
100
AcDbEntity
  8
1
  6
DASHDOT
 62
     7
370
     9
100
AcDbMText
 10
160.449434626304
 20
196.3779861658156
 30
0.0
 40
3.0
 41
3.701762685088125
 46
3.0
 71
     6
 72
     1
  1
{\fメイリオ;\W0.952381;O}
 73
     1
 44
1.0
  0
MTEXT
  5
364
330
1F
100
AcDbEntity
  8
1
  6
DASHDOT
 62
     7
370
     9
100
AcDbMText
 10
158.9016293920974
 20
196.3779861658156
 30
0.0
 40
3.0
 41
2.654512632725626
 46
3.0
 71
     6
 72
     1
  1
{\fメイリオ;\W0.952381;P}
 73
     1
 44
1.0
  0
MTEXT
  5
365
330
1F
100
AcDbEntity
  8
1
  6
DASHDOT
 62
     7
370
     9
100
AcDbMText
 10
163.4610485943793
 20
196.3779861658156
 30
0.0
 40
3.0
 41
2.64120013206
 46
3.0
 71
     6
 72
     1
  1
{\fメイリオ;\W0.952381;E}
 73
     1
 44
1.0
  0
MTEXT
  5
366
330
1F
100
AcDbEntity
  8
1
  6
DASHDOT
 62
     7
370
     9
100
AcDbMText
 10
164.7288915477571
 20
192.3779861658156
 30
0.0
 40
3.0
 41
3.667657326240001
 46
3.0
 71
     6
 72
     1
  1
{\fメイリオ;\W0.952381;V}
 73
     1
 44
1.0
  0
MTEXT
  5
367
330
1F
100
AcDbEntity
  8
1
  6
DASHDOT
 62
     7
370
     9
100
AcDbMText
 10
163.439297992764
 20
192.3779861658156
 30
0.0
 40
3.0
 41
2.2735857308625
 46
3.0
 71
     6
 72
     1
  1
{\fメイリオ;\W0.714286;4}
 73
     1
 44
1.0
  0
MTEXT
  5
368
330
1F
100
AcDbEntity
  8
1
  6
DASHDOT
 62
     7
370
     9
100
AcDbMText
 10
162.5711652848115
 20
192.3779861658156
 30
0.0
 40
3.0
 41
2.03567224284
 46
3.0
 71
     6
 72
     1
  1
{\fメイリオ;\W0.714286;2}
 73
     1
 44
1.0
  0
MTEXT
  5
369
330
1F
100
AcDbEntity
  8
1
  6
DASHDOT
 62
     7
370
     9
100
AcDbMText
 10
158.0932808990113
 20
192.0452528059482
 30
0.0
 40
3.0
 41
2.26997233656
 46
3.0
 71
     6
 72
     1
  1
{\fYu Gothic UI;\W0.714286;C}
 73
     1
 44
1.0
  0
MTEXT
  5
36A
330
1F
100
AcDbEntity
  8
1
  6
DASHDOT
 62
     7
370
     9
100
AcDbMText
 10
156.5175106055851
 20
192.3779861658156
 30
0.0
 40
3.0
 41
3.38137516906875
 46
3.0
 71
     6
 72
     1
  1
{\fメイリオ;\W0.952381;D}
 73
     1
 44
1.0
  0
MTEXT
  5
36B
330
1F
100
AcDbEntity
  8
1
  6
DASHDOT
 62
     7
370
     9
100
AcDbMText
 10
155.160597297357
 20
192.3779861658156
 30
0.0
 40
2.8
 41
2.381542476096
 46
2.8
 71
     6
 72
     1
  1
{\fメイリオ;\W1.020408;/}
 73
     1
 44
1.0
  0
MTEXT
  5
36C
330
1F
100
AcDbEntity
  8
1
  6
DASHDOT
 62
     7
370
     9
100
AcDbMText
 10
154.3868973256104
 20
192.0667332137547
 30
0.0
 40
3.0
 41
2.26997233656
 46
3.0
 71
     6
 72
     1
  1
{\fYu Gothic UI;\W0.714286;C}
 73
     1
 44
1.0
  0
MTEXT
  5
36D
330
1F
100
AcDbEntity
  8
1
  6
DASHDOT
 62
     7
370
     9
100
AcDbMText
 10
152.8407132542574
 20
192.3779861658156
 30
0.0
 40
3.0
 41
3.639891253423125
 46
3.0
 71
     6
 72
     1
  1
{\fメイリオ;\W0.952381;A}
 73
     1
 44
1.0
  0
MTEXT
  5
36E
330
1F
100
AcDbEntity
  8
1
  6
DASHDOT
 62
     7
370
     9
100
AcDbMText
 10
160.2163033257159
 20
192.3779861658156
 30
0.0
 40
3.0
 41
2.03567224284
 46
3.0
 71
     6
 72
     1
  1
{\fメイリオ;\W0.714286;2}
 73
     1
 44
1.0
  0
MTEXT
  5
36F
330
1F
100
AcDbEntity
  8
1
  6
DASHDOT
 62
     7
370
     9
100
AcDbMText
 10
159.4186912018828
 20
192.3779861658156
 30
0.0
 40
3.0
 41
1.61880064752
 46
3.0
 71
     6
 72
     1
  1
{\fメイリオ;\W0.714286;1}
 73
     1
 44
1.0
  0
MTEXT
  5
370
330
1F
100
AcDbEntity
  8
1
  6
DASHDOT
 62
     7
370
     9
100
AcDbMText
 10
161.8857448794155
 20
192.3779861658156
 30
0.0
 40
3.0
 41
2.09044369332
 46
3.0
 71
     6
 72
     1
  1
{\fYu Gothic UI;\W0.714286;~}
 73
     1
 44
1.0
  0
MTEXT
  5
371
330
1F
100
AcDbEntity
  8
1
  6
DASHDOT
 62
     7
370
     9
100
AcDbMText
 10
158.1250206151269
 20
180.9803247335464
 30
0.0
 40
3.0
 41
1.56605722116
 46
3.0
 71
     9
 72
     1
  1
{\fメイリオ;\W0.952381;I}
 73
     1
 44
1.0
  0
MTEXT
  5
372
330
1F
100
AcDbEntity
  8
1
  6
DASHDOT
 62
     7
370
     9
100
AcDbMText
 10
159.8430479489319
 20
180.9803247335464
 30
0.0
 40
3.0
 41
3.09154301172
 46
3.0
 71
     9
 72
     1
  1
{\fメイリオ;\W0.952381;N}
 73
     1
 44
1.0
  0
MTEXT
  5
373
330
1F
100
AcDbEntity
  8
1
  6
DASHDOT
 62
     7
370
     9
100
AcDbMText
 10
161.0467613675214
 20
180.9803247335464
 30
0.0
 40
3.0
 41
3.38365731204
 46
3.0
 71
     9
 72
     1
  1
{\fメイリオ;\W0.952381;T}
 73
     1
 44
1.0
  0
MTEXT
  5
374
330
1F
100
AcDbEntity
  8
1
  6
DASHDOT
 62
     7
370
     9
100
AcDbMText
 10
162.1519891427718
 20
180.9803247335464
 30
0.0
 40
3.0
 41
2.654512632725626
 46
3.0
 71
     9
 72
     1
  1
{\fメイリオ;\W0.952381;P}
 73
     1
 44
1.0
  0
MTEXT
  5
375
330
1F
100
AcDbEntity
  8
1
  6
DASHDOT
 62
     7
370
     9
100
AcDbMText
 10
164.7288915477571
 20
180.9803247335464
 30
0.0
 40
3.0
 41
3.38365731204
 46
3.0
 71
     9
 72
     1
  1
{\fメイリオ;\W0.952381;T}
 73
     1
 44
1.0
  0
MTEXT
  5
376
330
1F
100
AcDbEntity
  8
1
  6
DASHDOT
 62
     7
370
     9
100
AcDbMText
 10
163.5210611723998
 20
180.9803247335464
 30
0.0
 40
3.0
 41
3.115885870080001
 46
3.0
 71
     9
 72
     1
  1
{\fメイリオ;\W0.952381;U}
 73
     1
 44
1.0
  0
MTEXT
  5
377
330
1F
100
AcDbEntity
  8
1
  6
DASHDOT
 62
     7
370
     9
100
AcDbMText
 10
164.7288915477571
 20
187.4996389625177
 30
0.0
 40
3.0
 41
3.38365731204
 46
3.0
 71
     6
 72
     1
  1
{\fメイリオ;\W0.952381;T}
 73
     1
 44
1.0
  0
MTEXT
  5
378
330
1F
100
AcDbEntity
  8
1
  6
DASHDOT
 62
     7
370
     9
100
AcDbMText
 10
163.5287152563922
 20
187.4996389625177
 30
0.0
 40
3.0
 41
3.115885870080001
 46
3.0
 71
     6
 72
     1
  1
{\fメイリオ;\W0.952381;U}
 73
     1
 44
1.0
  0
MTEXT
  5
379
330
1F
100
AcDbEntity
  8
1
  6
DASHDOT
 62
     7
370
     9
100
AcDbMText
 10
162.1520778001153
 20
187.4996389625177
 30
0.0
 40
3.0
 41
2.654512632725626
 46
3.0
 71
     6
 72
     1
  1
{\fメイリオ;\W0.952381;P}
 73
     1
 44
1.0
  0
MTEXT
  5
37A
330
1F
100
AcDbEntity
  8
1
  6
DASHDOT
 62
     7
370
     9
100
AcDbMText
 10
161.0375283384584
 20
187.4996389625177
 30
0.0
 40
3.0
 41
3.38365731204
 46
3.0
 71
     6
 72
     1
  1
{\fメイリオ;\W0.952381;T}
 73
     1
 44
1.0
  0
MTEXT
  5
37B
330
1F
100
AcDbEntity
  8
1
  6
DASHDOT
 62
     7
370
     9
100
AcDbMText
 10
159.8313831755889
 20
187.4996389625177
 30
0.0
 40
3.0
 41
3.115885870080001
 46
3.0
 71
     6
 72
     1
  1
{\fメイリオ;\W0.952381;U}
 73
     1
 44
1.0
  0
MTEXT
  5
37C
330
1F
100
AcDbEntity
  8
1
  6
DASHDOT
 62
     7
370
     9
100
AcDbMText
 10
158.473051349864
 20
187.4996389625177
 30
0.0
 40
3.0
 41
3.701762685088125
 46
3.0
 71
     6
 72
     1
  1
{\fメイリオ;\W0.952381;O}
 73
     1
 44
1.0
  0
DIMENSION
  5
386
330
1F
100
AcDbEntity
  8
1
  6
Continuous
 62
     7
370
     9
100
AcDbDimension
280
     0
  2
Dim6
 10
180.7288915477574
 20
182.0068430739638
 30
0.0
 11
178.7288915477571
 21
184.0068430739638
 31
0.0
 70
   160
  1
<>
 71
     5
 42
-1.0
 73
     0
 74
     0
 75
     0
  3
Standard
100
AcDbAlignedDimension
 13
176.7288915477571
 23
190.0285794899739
 33
0.0
 14
180.7288915477574
 24
190.0285794899739
 34
0.0
100
AcDbRotatedDimension
1001
ACAD
1000
DSTYLE
1002
{
1070
   279
1070
     2
1070
   340
1005
31A
1070
   140
1040
3.0
1070
    40
1040
1.0
1070
   147
1040
0.0
1070
    76
1070
     0
1070
    75
1070
     0
1070
   344
1005
7F
1070
   343
1005
7F
1070
   173
1070
     1
1070
   289
1070
     2
1070
   288
1070
     1
1070
    77
1070
     1
1070
   172
1070
     1
1070
   174
1070
     0
1070
    74
1070
     0
1070
    73
1070
     0
1070
   284
1070
     8
1070
    78
1070
     8
1070
    42
1040
2.0
1070
    44
1040
2.0
1070
    43
1040
10.0
1070
   271
1070
     2
1070
    41
1040
2.4
1002
}
  0
INSERT
  5
38E
330
1F
100
AcDbEntity
  8
0
100
AcDbBlockReference
  2
G49
 10
0.0
 20
0.0
 30
0.0
  0
INSERT
  5
396
330
1F
100
AcDbEntity
  8
0
100
AcDbBlockReference
  2
G50
 10
0.0
 20
0.0
 30
0.0
  0
INSERT
  5
39E
330
1F
100
AcDbEntity
  8
0
100
AcDbBlockReference
  2
G51
 10
0.0
 20
0.0
 30
0.0
  0
INSERT
  5
3A6
330
1F
100
AcDbEntity
  8
0
100
AcDbBlockReference
  2
G52
 10
0.0
 20
0.0
 30
0.0
  0
INSERT
  5
3AE
330
1F
100
AcDbEntity
  8
0
100
AcDbBlockReference
  2
G53
 10
0.0
 20
0.0
 30
0.0
  0
INSERT
  5
3B6
330
1F
100
AcDbEntity
  8
0
100
AcDbBlockReference
  2
G54
 10
0.0
 20
0.0
 30
0.0
  0
INSERT
  5
3BE
330
1F
100
AcDbEntity
  8
0
100
AcDbBlockReference
  2
G55
 10
0.0
 20
0.0
 30
0.0
  0
INSERT
  5
3C6
330
1F
100
AcDbEntity
  8
0
100
AcDbBlockReference
  2
G56
 10
0.0
 20
0.0
 30
0.0
  0
INSERT
  5
3D0
330
1F
100
AcDbEntity
  8
0
100
AcDbBlockReference
  2
G57
 10
0.0
 20
0.0
 30
0.0
  0
INSERT
  5
3DA
330
1F
100
AcDbEntity
  8
0
100
AcDbBlockReference
  2
G58
 10
0.0
 20
0.0
 30
0.0
  0
DIMENSION
  5
3E4
330
1F
100
AcDbEntity
  8
1
  6
Continuous
 62
     7
370
     9
100
AcDbDimension
280
     0
  2
Dim7
 10
253.7288915477571
 20
237.0285794899739
 30
0.0
 11
243.7288915477571
 21
239.0285794899739
 31
0.0
 70
   160
  1
<>
 71
     5
 42
-1.0
 73
     0
 74
     0
 75
     0
  3
Standard
100
AcDbAlignedDimension
 13
233.7288915477571
 23
214.0285794899739
 33
0.0
 14
253.7288915477571
 24
217.0285794899739
 34
0.0
100
AcDbRotatedDimension
1001
ACAD
1000
DSTYLE
1002
{
1070
   279
1070
     2
1070
   340
1005
31A
1070
   140
1040
3.0
1070
    40
1040
1.0
1070
   147
1040
0.0
1070
    76
1070
     0
1070
    75
1070
     0
1070
   344
1005
7F
1070
   343
1005
7F
1070
   173
1070
     1
1070
   289
1070
     2
1070
   288
1070
     1
1070
    77
1070
     1
1070
   172
1070
     1
1070
   174
1070
     0
1070
    74
1070
     0
1070
    73
1070
     0
1070
   284
1070
     8
1070
    78
1070
     8
1070
    42
1040
2.0
1070
    44
1040
2.0
1070
    43
1040
10.0
1070
   271
1070
     2
1070
    41
1040
2.4
1002
}
  0
DIMENSION
  5
3EE
330
1F
100
AcDbEntity
  8
1
  6
Continuous
 62
     7
370
     9
100
AcDbDimension
280
     0
  2
Dim8
 10
240.7288915477571
 20
227.0285794899739
 30
0.0
 11
245.7288915477571
 21
229.0285794899739
 31
0.0
 70
   160
  1
<>
 71
     5
 42
-1.0
 73
     0
 74
     0
 75
     0
  3
Standard
100
AcDbAlignedDimension
 13
250.7288915477569
 23
217.0285794899739
 33
0.0
 14
240.7288915477571
 24
196.0285794899739
 34
0.0
 50
179.9999999999998
100
AcDbRotatedDimension
1001
ACAD
1000
DSTYLE
1002
{
1070
   279
1070
     2
1070
   340
1005
31A
1070
   140
1040
3.0
1070
    40
1040
1.0
1070
   147
1040
0.0
1070
    76
1070
     0
1070
    75
1070
     0
1070
   344
1005
7F
1070
   343
1005
7F
1070
   173
1070
     1
1070
   289
1070
     2
1070
   288
1070
     1
1070
    77
1070
     1
1070
   172
1070
     1
1070
   174
1070
     0
1070
    74
1070
     0
1070
    73
1070
     0
1070
   284
1070
     8
1070
    78
1070
     8
1070
    42
1040
2.0
1070
    44
1040
2.0
1070
    43
1040
10.0
1070
   271
1070
     2
1070
    41
1040
2.4
1002
}
  0
LINE
  5
3EF
330
1F
100
AcDbEntity
  8
1
  6
Continuous
 62
     7
370
     9
100
AcDbLine
 10
242.5288915477571
 20
191.5285794899739
 30
0.0
 11
242.0288915477571
 21
191.5285794899739
 31
0.0
  0
LINE
  5
3F0
330
1F
100
AcDbEntity
  8
1
  6
Continuous
 62
     7
370
     9
100
AcDbLine
 10
242.0288915477571
 20
191.5285794899739
 30
0.0
 11
242.0288915477571
 21
184.5285794899739
 31
0.0
  0
LINE
  5
3F1
330
1F
100
AcDbEntity
  8
1
  6
Continuous
 62
     7
370
     9
100
AcDbLine
 10
242.0288915477571
 20
184.5285794899739
 30
0.0
 11
242.5288915477571
 21
184.5285794899739
 31
0.0
  0
LINE
  5
3F2
330
1F
100
AcDbEntity
  8
1
  6
Continuous
 62
     7
370
     9
100
AcDbLine
 10
241.0288915477571
 20
181.5285794899739
 30
0.0
 11
241.5288915477571
 21
181.5285794899739
 31
0.0
  0
LINE
  5
3F3
330
1F
100
AcDbEntity
  8
1
  6
Continuous
 62
     7
370
     9
100
AcDbLine
 10
241.5288915477571
 20
181.5285794899739
 30
0.0
 11
241.5288915477571
 21
183.0285794899738
 31
0.0
  0
LINE
  5
3F4
330
1F
100
AcDbEntity
  8
1
  6
Continuous
 62
     7
370
     9
100
AcDbLine
 10
241.5288915477571
 20
183.0285794899738
 30
0.0
 11
241.0288915477571
 21
183.0285794899738
 31
0.0
  0
LINE
  5
3F5
330
1F
100
AcDbEntity
  8
1
  6
Continuous
 62
     7
370
     9
100
AcDbLine
 10
241.0288915477571
 20
190.528579489974
 30
0.0
 11
241.5288915477571
 21
190.528579489974
 31
0.0
  0
LINE
  5
3F6
330
1F
100
AcDbEntity
  8
1
  6
Continuous
 62
     7
370
     9
100
AcDbLine
 10
241.5288915477571
 20
190.528579489974
 30
0.0
 11
241.5288915477571
 21
185.5285794899739
 31
0.0
  0
LINE
  5
3F7
330
1F
100
AcDbEntity
  8
1
  6
Continuous
 62
     7
370
     9
100
AcDbLine
 10
241.5288915477571
 20
185.5285794899739
 30
0.0
 11
241.0288915477571
 21
185.5285794899739
 31
0.0
  0
LINE
  5
3F8
330
1F
100
AcDbEntity
  8
1
  6
Continuous
 62
     7
370
     9
100
AcDbLine
 10
246.7288915477571
 20
181.5285794899739
 30
0.0
 11
246.7288915477571
 21
194.5285794899739
 31
0.0
  0
INSERT
  5
400
330
1F
100
AcDbEntity
  8
0
100
AcDbBlockReference
  2
G59
 10
0.0
 20
0.0
 30
0.0
  0
INSERT
  5
408
330
1F
100
AcDbEntity
  8
0
100
AcDbBlockReference
  2
G60
 10
0.0
 20
0.0
 30
0.0
  0
INSERT
  5
410
330
1F
100
AcDbEntity
  8
0
100
AcDbBlockReference
  2
G61
 10
0.0
 20
0.0
 30
0.0
  0
INSERT
  5
418
330
1F
100
AcDbEntity
  8
0
100
AcDbBlockReference
  2
G62
 10
0.0
 20
0.0
 30
0.0
  0
INSERT
  5
420
330
1F
100
AcDbEntity
  8
0
100
AcDbBlockReference
  2
G63
 10
0.0
 20
0.0
 30
0.0
  0
LINE
  5
421
330
1F
100
AcDbEntity
  8
1
  6
Continuous
 62
     7
370
     9
100
AcDbLine
 10
245.0288915477571
 20
193.8185794899733
 30
0.0
 11
245.0288915477571
 21
192.1285794899739
 31
0.0
  0
LINE
  5
422
330
1F
100
AcDbEntity
  8
1
  6
Continuous
 62
     7
370
     9
100
AcDbLine
 10
245.0288915477571
 20
191.9285794899738
 30
0.0
 11
245.0288915477571
 21
190.1285794899739
 31
0.0
  0
LINE
  5
423
330
1F
100
AcDbEntity
  8
1
  6
Continuous
 62
     7
370
     9
100
AcDbLine
 10
245.0288915477571
 20
189.9285794899739
 30
0.0
 11
245.0288915477571
 21
188.1285794899744
 31
0.0
  0
LINE
  5
424
330
1F
100
AcDbEntity
  8
1
  6
Continuous
 62
     7
370
     9
100
AcDbLine
 10
245.0288915477571
 20
187.9285794899739
 30
0.0
 11
245.0288915477571
 21
186.1285794899752
 31
0.0
  0
LINE
  5
425
330
1F
100
AcDbEntity
  8
1
  6
Continuous
 62
     7
370
     9
100
AcDbLine
 10
245.0288915477571
 20
185.9285794899751
 30
0.0
 11
245.0288915477571
 21
184.1285794899752
 31
0.0
  0
LINE
  5
426
330
1F
100
AcDbEntity
  8
1
  6
Continuous
 62
     7
370
     9
100
AcDbLine
 10
245.0288915477571
 20
183.9285794899752
 30
0.0
 11
245.0288915477571
 21
182.1285794899752
 31
0.0
  0
LINE
  5
427
330
1F
100
AcDbEntity
  8
1
  6
Continuous
 62
     7
370
     9
100
AcDbLine
 10
245.0288915477571
 20
192.1285794899739
 30
0.0
 11
242.5288915477571
 21
192.1285794899739
 31
0.0
  0
LINE
  5
428
330
1F
100
AcDbEntity
  8
1
  6
Continuous
 62
     7
370
     9
100
AcDbLine
 10
242.5288915477571
 20
191.9285794899738
 30
0.0
 11
245.0288915477571
 21
191.9285794899738
 31
0.0
  0
LINE
  5
429
330
1F
100
AcDbEntity
  8
1
  6
Continuous
 62
     7
370
     9
100
AcDbLine
 10
245.0288915477571
 20
190.1285794899739
 30
0.0
 11
242.0288915477571
 21
190.1285794899739
 31
0.0
  0
LINE
  5
42A
330
1F
100
AcDbEntity
  8
1
  6
Continuous
 62
     7
370
     9
100
AcDbLine
 10
242.0288915477571
 20
189.9285794899739
 30
0.0
 11
245.0288915477571
 21
189.9285794899739
 31
0.0
  0
LINE
  5
42B
330
1F
100
AcDbEntity
  8
1
  6
Continuous
 62
     7
370
     9
100
AcDbLine
 10
245.0288915477571
 20
188.1285794899744
 30
0.0
 11
242.0288915477571
 21
188.1285794899744
 31
0.0
  0
LINE
  5
42C
330
1F
100
AcDbEntity
  8
1
  6
Continuous
 62
     7
370
     9
100
AcDbLine
 10
242.0288915477571
 20
187.9285794899739
 30
0.0
 11
245.0288915477571
 21
187.9285794899739
 31
0.0
  0
LINE
  5
42D
330
1F
100
AcDbEntity
  8
1
  6
Continuous
 62
     7
370
     9
100
AcDbLine
 10
245.0288915477571
 20
186.1285794899752
 30
0.0
 11
242.0288915477571
 21
186.1285794899752
 31
0.0
  0
LINE
  5
42E
330
1F
100
AcDbEntity
  8
1
  6
Continuous
 62
     7
370
     9
100
AcDbLine
 10
242.0288915477571
 20
185.9285794899751
 30
0.0
 11
245.0288915477571
 21
185.9285794899751
 31
0.0
  0
LINE
  5
42F
330
1F
100
AcDbEntity
  8
1
  6
Continuous
 62
     7
370
     9
100
AcDbLine
 10
245.0288915477571
 20
184.1285794899752
 30
0.0
 11
242.5288915477571
 21
184.1285794899752
 31
0.0
  0
LINE
  5
430
330
1F
100
AcDbEntity
  8
1
  6
Continuous
 62
     7
370
     9
100
AcDbLine
 10
242.5288915477571
 20
183.9285794899752
 30
0.0
 11
245.0288915477571
 21
183.9285794899752
 31
0.0
  0
LINE
  5
431
330
1F
100
AcDbEntity
  8
1
  6
Continuous
 62
     7
370
     9
100
AcDbLine
 10
244.928891547757
 20
181.2285794899739
 30
0.0
 11
244.9288915477571
 21
180.228579489974
 31
0.0
  0
LINE
  5
432
330
1F
100
AcDbEntity
  8
1
  6
Continuous
 62
     7
370
     9
100
AcDbLine
 10
244.928891547757
 20
194.828579489974
 30
0.0
 11
244.928891547757
 21
195.828579489974
 31
0.0
  0
LINE
  5
433
330
1F
100
AcDbEntity
  8
1
  6
Continuous
 62
     7
370
     9
100
AcDbLine
 10
247.2288915477569
 20
196.0285794899739
 30
0.0
 11
247.2288915477569
 21
180.0285794899739
 31
0.0
  0
LINE
  5
434
330
1F
100
AcDbEntity
  8
1
  6
Continuous
 62
     7
370
     9
100
AcDbLine
 10
241.0288915477571
 20
180.2285794899739
 30
0.0
 11
241.0288915477571
 21
185.5285794899739
 31
0.0
  0
LINE
  5
435
330
1F
100
AcDbEntity
  8
1
  6
Continuous
 62
     7
370
     9
100
AcDbLine
 10
241.0288915477571
 20
190.528579489974
 30
0.0
 11
241.0288915477571
 21
195.8285794899739
 31
0.0
  0
LINE
  5
436
330
1F
100
AcDbEntity
  8
1
  6
Continuous
 62
     7
370
     9
100
AcDbLine
 10
245.128891547757
 20
195.528579489974
 30
0.0
 11
245.128891547757
 21
194.9285794899739
 31
0.0
  0
LINE
  5
437
330
1F
100
AcDbEntity
  8
1
  6
Continuous
 62
     7
370
     9
100
AcDbLine
 10
245.428891547757
 20
194.9285794899739
 30
0.0
 11
245.428891547757
 21
194.828579489974
 31
0.0
  0
LINE
  5
438
330
1F
100
AcDbEntity
  8
1
  6
Continuous
 62
     7
370
     9
100
AcDbLine
 10
245.928891547757
 20
194.9285794899739
 30
0.0
 11
245.928891547757
 21
194.828579489974
 31
0.0
  0
LINE
  5
439
330
1F
100
AcDbEntity
  8
1
  6
Continuous
 62
     7
370
     9
100
AcDbLine
 10
245.928891547757
 20
195.5285794899739
 30
0.0
 11
245.928891547757
 21
195.828579489974
 31
0.0
  0
LINE
  5
43A
330
1F
100
AcDbEntity
  8
1
  6
Continuous
 62
     7
370
     9
100
AcDbLine
 10
245.428891547757
 20
195.828579489974
 30
0.0
 11
245.428891547757
 21
195.528579489974
 31
0.0
  0
LINE
  5
43B
330
1F
100
AcDbEntity
  8
1
  6
Continuous
 62
     7
370
     9
100
AcDbLine
 10
245.128891547757
 20
194.9285794899739
 30
0.0
 11
247.2288915477571
 21
194.9285794899739
 31
0.0
  0
LINE
  5
43C
330
1F
100
AcDbEntity
  8
1
  6
Continuous
 62
     7
370
     9
100
AcDbLine
 10
247.2288915477569
 20
195.5285794899739
 30
0.0
 11
245.128891547757
 21
195.5285794899739
 31
0.0
  0
LINE
  5
43D
330
1F
100
AcDbEntity
  8
1
  6
Continuous
 62
     7
370
     9
100
AcDbLine
 10
245.128891547757
 20
181.1285794899739
 30
0.0
 11
245.128891547757
 21
180.5285794899739
 31
0.0
  0
LINE
  5
43E
330
1F
100
AcDbEntity
  8
1
  6
Continuous
 62
     7
370
     9
100
AcDbLine
 10
245.428891547757
 20
181.2285794899739
 30
0.0
 11
245.428891547757
 21
181.1285794899739
 31
0.0
  0
LINE
  5
43F
330
1F
100
AcDbEntity
  8
1
  6
Continuous
 62
     7
370
     9
100
AcDbLine
 10
245.928891547757
 20
181.2285794899739
 30
0.0
 11
245.928891547757
 21
181.1285794899739
 31
0.0
  0
LINE
  5
440
330
1F
100
AcDbEntity
  8
1
  6
Continuous
 62
     7
370
     9
100
AcDbLine
 10
245.928891547757
 20
180.5285794899739
 30
0.0
 11
245.928891547757
 21
180.228579489974
 31
0.0
  0
LINE
  5
441
330
1F
100
AcDbEntity
  8
1
  6
Continuous
 62
     7
370
     9
100
AcDbLine
 10
245.428891547757
 20
180.5285794899739
 30
0.0
 11
245.428891547757
 21
180.228579489974
 31
0.0
  0
LINE
  5
442
330
1F
100
AcDbEntity
  8
1
  6
Continuous
 62
     7
370
     9
100
AcDbLine
 10
247.2288915477569
 20
181.1285794899739
 30
0.0
 11
245.128891547757
 21
181.1285794899739
 31
0.0
  0
LINE
  5
443
330
1F
100
AcDbEntity
  8
1
  6
Continuous
 62
     7
370
     9
100
AcDbLine
 10
245.128891547757
 20
180.5285794899739
 30
0.0
 11
247.2288915477569
 21
180.5285794899738
 31
0.0
  0
INSERT
  5
44D
330
1F
100
AcDbEntity
  8
0
100
AcDbBlockReference
  2
G64
 10
0.0
 20
0.0
 30
0.0
  0
LINE
  5
44E
330
1F
100
AcDbEntity
  8
1
  6
Continuous
 62
     7
370
     9
100
AcDbLine
 10
247.0288915477571
 20
180.2285794899739
 30
0.0
 11
247.0288915477571
 21
180.5285794899739
 31
0.0
  0
LINE
  5
44F
330
1F
100
AcDbEntity
  8
1
  6
Continuous
 62
     7
370
     9
100
AcDbLine
 10
247.0288915477571
 20
181.1285794899739
 30
0.0
 11
247.0288915477571
 21
181.2285794899739
 31
0.0
  0
LINE
  5
450
330
1F
100
AcDbEntity
  8
1
  6
Continuous
 62
     7
370
     9
100
AcDbLine
 10
247.128891547757
 20
181.2285794899739
 30
0.0
 11
247.128891547757
 21
181.4285794899738
 31
0.0
  0
LINE
  5
451
330
1F
100
AcDbEntity
  8
1
  6
Continuous
 62
     7
370
     9
100
AcDbLine
 10
247.128891547757
 20
181.4285794899738
 30
0.0
 11
247.2288915477569
 21
181.4285794899738
 31
0.0
  0
LINE
  5
452
330
1F
100
AcDbEntity
  8
1
  6
Continuous
 62
     7
370
     9
100
AcDbLine
 10
247.128891547757
 20
182.1285794899752
 30
0.0
 11
247.2288915477569
 21
182.1285794899752
 31
0.0
  0
LINE
  5
453
330
1F
100
AcDbEntity
  8
1
  6
Continuous
 62
     7
370
     9
100
AcDbLine
 10
247.128891547757
 20
182.1285794899752
 30
0.0
 11
247.128891547757
 21
193.8185794899733
 31
0.0
  0
LINE
  5
454
330
1F
100
AcDbEntity
  8
1
  6
Continuous
 62
     7
370
     9
100
AcDbLine
 10
247.128891547757
 20
193.8185794899733
 30
0.0
 11
247.228891547757
 21
193.8185794899733
 31
0.0
  0
LINE
  5
455
330
1F
100
AcDbEntity
  8
1
  6
Continuous
 62
     7
370
     9
100
AcDbLine
 10
247.2288915477569
 20
194.628579489974
 30
0.0
 11
247.128891547757
 21
194.628579489974
 31
0.0
  0
LINE
  5
456
330
1F
100
AcDbEntity
  8
1
  6
Continuous
 62
     7
370
     9
100
AcDbLine
 10
247.128891547757
 20
194.828579489974
 30
0.0
 11
247.128891547757
 21
194.628579489974
 31
0.0
  0
LINE
  5
457
330
1F
100
AcDbEntity
  8
1
  6
Continuous
 62
     7
370
     9
100
AcDbLine
 10
247.0288915477571
 20
195.8285794899739
 30
0.0
 11
247.0288915477571
 21
195.5285794899739
 31
0.0
  0
LINE
  5
458
330
1F
100
AcDbEntity
  8
1
  6
Continuous
 62
     7
370
     9
100
AcDbLine
 10
247.0288915477571
 20
194.9285794899739
 30
0.0
 11
247.0288915477571
 21
194.828579489974
 31
0.0
  0
LINE
  5
459
330
1F
100
AcDbEntity
  8
1
  6
Continuous
 62
     7
370
     9
100
AcDbLine
 10
247.0288915477571
 20
180.2285794899739
 30
0.0
 11
241.0288915477571
 21
180.2285794899739
 31
0.0
  0
LINE
  5
45A
330
1F
100
AcDbEntity
  8
1
  6
Continuous
 62
     7
370
     9
100
AcDbLine
 10
247.128891547757
 20
181.2285794899739
 30
0.0
 11
244.9288915477571
 21
181.2285794899739
 31
0.0
  0
LINE
  5
45B
330
1F
100
AcDbEntity
  8
1
  6
Continuous
 62
     7
370
     9
100
AcDbLine
 10
244.928891547757
 20
194.828579489974
 30
0.0
 11
247.128891547757
 21
194.8285794899739
 31
0.0
  0
LINE
  5
45C
330
1F
100
AcDbEntity
  8
1
  6
Continuous
 62
     7
370
     9
100
AcDbLine
 10
241.0288915477571
 20
195.8285794899739
 30
0.0
 11
247.0288915477571
 21
195.8285794899739
 31
0.0
  0
LINE
  5
45D
330
1F
100
AcDbEntity
  8
1
  6
Continuous
 62
     7
370
     9
100
AcDbLine
 10
242.5288915477571
 20
183.0285794899738
 30
0.0
 11
242.3288915477571
 21
183.0285794899738
 31
0.0
  0
LINE
  5
45E
330
1F
100
AcDbEntity
  8
1
  6
Continuous
 62
     7
370
     9
100
AcDbLine
 10
242.3288915477571
 20
183.0285794899738
 30
0.0
 11
242.3288915477571
 21
181.5285794899739
 31
0.0
  0
LINE
  5
45F
330
1F
100
AcDbEntity
  8
1
  6
Continuous
 62
     7
370
     9
100
AcDbLine
 10
242.5288915477571
 20
193.0285794899739
 30
0.0
 11
242.3288915477571
 21
193.0285794899739
 31
0.0
  0
LINE
  5
460
330
1F
100
AcDbEntity
  8
1
  6
Continuous
 62
     7
370
     9
100
AcDbLine
 10
242.3288915477571
 20
193.0285794899739
 30
0.0
 11
242.3288915477571
 21
194.5285794899739
 31
0.0
  0
LINE
  5
461
330
1F
100
AcDbEntity
  8
1
  6
Continuous
 62
     7
370
     9
100
AcDbLine
 10
242.5288915477571
 20
191.5285794899739
 30
0.0
 11
242.5288915477571
 21
193.0285794899739
 31
0.0
  0
LINE
  5
462
330
1F
100
AcDbEntity
  8
1
  6
Continuous
 62
     7
370
     9
100
AcDbLine
 10
242.5288915477571
 20
183.0285794899738
 30
0.0
 11
242.5288915477571
 21
184.5285794899739
 31
0.0
  0
LINE
  5
463
330
1F
100
AcDbEntity
  8
1
  6
Continuous
 62
     7
370
     9
100
AcDbLine
 10
242.3288915477571
 20
193.8185794899733
 30
0.0
 11
245.0288915477571
 21
193.8185794899733
 31
0.0
  0
LINE
  5
464
330
1F
100
AcDbEntity
  8
1
  6
Continuous
 62
     7
370
     9
100
AcDbLine
 10
245.0288915477571
 20
182.1285794899752
 30
0.0
 11
242.3288915477571
 21
182.1285794899752
 31
0.0
  0
LINE
  5
465
330
1F
100
AcDbEntity
  8
1
  6
Continuous
 62
     7
370
     9
100
AcDbLine
 10
246.7288915477571
 20
194.5285794899739
 30
0.0
 11
242.3288915477571
 21
194.5285794899739
 31
0.0
  0
LINE
  5
466
330
1F
100
AcDbEntity
  8
1
  6
Continuous
 62
     7
370
     9
100
AcDbLine
 10
242.3288915477571
 20
181.5285794899739
 30
0.0
 11
246.7288915477571
 21
181.5285794899739
 31
0.0
  0
DIMENSION
  5
470
330
1F
100
AcDbEntity
  8
1
  6
Continuous
 62
     7
370
     9
100
AcDbDimension
280
     0
  2
Dim9
 10
253.7288915477571
 20
227.0285794899739
 30
0.0
 11
252.2288915477571
 21
229.0285794899739
 31
0.0
 70
   160
  1
<>
 71
     5
 42
-1.0
 73
     0
 74
     0
 75
     0
  3
Standard
100
AcDbAlignedDimension
 13
250.7288915477569
 23
217.0285794899739
 33
0.0
 14
253.7288915477571
 24
217.0285794899739
 34
0.0
100
AcDbRotatedDimension
1001
ACAD
1000
DSTYLE
1002
{
1070
   279
1070
     2
1070
   340
1005
31A
1070
   140
1040
3.0
1070
    40
1040
1.0
1070
   147
1040
0.0
1070
    76
1070
     0
1070
    75
1070
     0
1070
   344
1005
7F
1070
   343
1005
7F
1070
   173
1070
     1
1070
   289
1070
     2
1070
   288
1070
     1
1070
    77
1070
     1
1070
   172
1070
     1
1070
   174
1070
     0
1070
    74
1070
     0
1070
    73
1070
     0
1070
   284
1070
     8
1070
    78
1070
     8
1070
    42
1040
2.0
1070
    44
1040
2.0
1070
    43
1040
10.0
1070
   271
1070
     2
1070
    41
1040
2.4
1002
}
  0
INSERT
  5
471
330
1F
100
AcDbEntity
  8
1
  6
Continuous
 62
     7
370
     9
100
AcDbBlockReference
  2
_OPEN
 10
244.0989948538316
 20
180.0285794899739
 30
0.0
 41
2.4
 42
2.4
 43
2.4
 50
135.0000006219319
  0
POLYLINE
  5
472
330
1F
100
AcDbEntity
  8
1
  6
Continuous
 62
     7
370
     9
100
AcDb2dPolyline
 66
     1
 10
0.0
 20
0.0
 30
0.0
  0
VERTEX
  5
473
330
472
100
AcDbEntity
  8
1
  6
Continuous
 62
     7
370
     9
100
AcDbVertex
100
AcDb2dVertex
 10
244.0989948538316
 20
180.0285794899739
 30
0.0
  0
VERTEX
  5
474
330
472
100
AcDbEntity
  8
1
  6
Continuous
 62
     7
370
     9
100
AcDbVertex
100
AcDb2dVertex
 10
259.0989951794746
 20
165.0285794899739
 30
0.0
  0
VERTEX
  5
475
330
472
100
AcDbEntity
  8
1
  6
Continuous
 62
     7
370
     9
100
AcDbVertex
100
AcDb2dVertex
 10
290.8989951794746
 20
165.0285794899739
 30
0.0
  0
SEQEND
  5
476
330
472
100
AcDbEntity
  8
1
  6
Continuous
 62
     7
370
     9
  0
MTEXT
  5
477
330
1F
100
AcDbEntity
  8
1
  6
Continuous
 62
     7
370
     9
100
AcDbMText
 10
259.0989951794746
 20
165.5285794899739
 30
0.0
 40
3.0
 41
41.45547191767578
 46
3.0
 71
     7
 72
     1
  1
{\fＭＳ ゴシック;\W0.714286;\T1.133333;入出力ケーブル接続部}
 73
     1
 44
1.0
  0
INSERT
  5
47F
330
1F
100
AcDbEntity
  8
0
100
AcDbBlockReference
  2
G65
 10
0.0
 20
0.0
 30
0.0
  0
INSERT
  5
487
330
1F
100
AcDbEntity
  8
0
100
AcDbBlockReference
  2
G66
 10
0.0
 20
0.0
 30
0.0
  0
INSERT
  5
48F
330
1F
100
AcDbEntity
  8
0
100
AcDbBlockReference
  2
G67
 10
0.0
 20
0.0
 30
0.0
  0
INSERT
  5
497
330
1F
100
AcDbEntity
  8
0
100
AcDbBlockReference
  2
G68
 10
0.0
 20
0.0
 30
0.0
  0
INSERT
  5
49F
330
1F
100
AcDbEntity
  8
0
100
AcDbBlockReference
  2
G69
 10
0.0
 20
0.0
 30
0.0
  0
INSERT
  5
4A7
330
1F
100
AcDbEntity
  8
0
100
AcDbBlockReference
  2
G70
 10
0.0
 20
0.0
 30
0.0
  0
INSERT
  5
4AF
330
1F
100
AcDbEntity
  8
0
100
AcDbBlockReference
  2
G71
 10
0.0
 20
0.0
 30
0.0
  0
INSERT
  5
4B9
330
1F
100
AcDbEntity
  8
0
100
AcDbBlockReference
  2
G72
 10
0.0
 20
0.0
 30
0.0
  0
INSERT
  5
4C3
330
1F
100
AcDbEntity
  8
0
100
AcDbBlockReference
  2
G73
 10
0.0
 20
0.0
 30
0.0
  0
INSERT
  5
4CD
330
1F
100
AcDbEntity
  8
0
100
AcDbBlockReference
  2
G74
 10
0.0
 20
0.0
 30
0.0
  0
LINE
  5
4CE
330
1F
100
AcDbEntity
  8
1
  6
Continuous
 62
     7
370
     9
100
AcDbLine
 10
93.30460038592082
 20
113.9719254587527
 30
0.0
 11
91.80460038592093
 21
112.8469254587528
 31
0.0
  0
LINE
  5
4CF
330
1F
100
AcDbEntity
  8
1
  6
Continuous
 62
     7
370
     9
100
AcDbLine
 10
91.80460038592093
 20
112.8469254587528
 30
0.0
 11
80.55460038592082
 21
112.8469254587527
 31
0.0
  0
LINE
  5
4D0
330
1F
100
AcDbEntity
  8
1
  6
Continuous
 62
     7
370
     9
100
AcDbLine
 10
80.55460038592082
 20
112.8469254587528
 30
0.0
 11
80.55460038592082
 21
94.84692545875274
 31
0.0
  0
LINE
  5
4D1
330
1F
100
AcDbEntity
  8
1
  6
Continuous
 62
     7
370
     9
100
AcDbLine
 10
80.55460038592082
 20
94.84692545875274
 30
0.0
 11
91.80460038592093
 21
94.84692545875274
 31
0.0
  0
LINE
  5
4D2
330
1F
100
AcDbEntity
  8
1
  6
Continuous
 62
     7
370
     9
100
AcDbLine
 10
91.80460038592093
 20
94.84692545875274
 30
0.0
 11
93.30460038592082
 21
93.72192545875276
 31
0.0
  0
LINE
  5
4D3
330
1F
100
AcDbEntity
  8
1
  6
Continuous
 62
     7
370
     9
100
AcDbLine
 10
93.30460038592082
 20
93.72192545875276
 30
0.0
 11
93.30460038592082
 21
113.9719254587527
 31
0.0
  0
LINE
  5
4D4
330
1F
100
AcDbEntity
  8
1
  6
Continuous
 62
     7
370
     9
100
AcDbLine
 10
93.30460038592082
 20
110.7469254587527
 30
0.0
 11
81.30460038592082
 21
110.7469254587527
 31
0.0
  0
LINE
  5
4D5
330
1F
100
AcDbEntity
  8
1
  6
Continuous
 62
     7
370
     9
100
AcDbLine
 10
91.80460038592093
 20
109.2469254587528
 30
0.0
 11
81.30460038592082
 21
109.2469254587527
 31
0.0
  0
LINE
  5
4D6
330
1F
100
AcDbEntity
  8
1
  6
Continuous
 62
     7
370
     9
100
AcDbLine
 10
81.30460038592082
 20
112.8469254587528
 30
0.0
 11
81.30460038592082
 21
94.84692545875274
 31
0.0
  0
LINE
  5
4D7
330
1F
100
AcDbEntity
  8
1
  6
Continuous
 62
     7
370
     9
100
AcDbLine
 10
81.30460038592082
 20
96.94692545875276
 30
0.0
 11
93.30460038592082
 21
96.94692545875276
 31
0.0
  0
LINE
  5
4D8
330
1F
100
AcDbEntity
  8
1
  6
Continuous
 62
     7
370
     9
100
AcDbLine
 10
91.80460038592093
 20
98.44692545875274
 30
0.0
 11
81.30460038592082
 21
98.44692545875274
 31
0.0
  0
LINE
  5
4D9
330
1F
100
AcDbEntity
  8
1
  6
Continuous
 62
     7
370
     9
100
AcDbLine
 10
91.80460038592093
 20
98.44692545875274
 30
0.0
 11
91.80460038592093
 21
109.2469254587527
 31
0.0
  0
LINE
  5
4DA
330
1F
100
AcDbEntity
  8
1
  6
Continuous
 62
     7
370
     9
100
AcDbLine
 10
90.30460038592093
 20
109.2469254587527
 30
0.0
 11
90.30460038592093
 21
98.44692545875274
 31
0.0
  0
INSERT
  5
4E2
330
1F
100
AcDbEntity
  8
0
100
AcDbBlockReference
  2
G75
 10
0.0
 20
0.0
 30
0.0
  0
INSERT
  5
4EA
330
1F
100
AcDbEntity
  8
0
100
AcDbBlockReference
  2
G76
 10
0.0
 20
0.0
 30
0.0
  0
INSERT
  5
4F2
330
1F
100
AcDbEntity
  8
0
100
AcDbBlockReference
  2
G77
 10
0.0
 20
0.0
 30
0.0
  0
INSERT
  5
4FA
330
1F
100
AcDbEntity
  8
0
100
AcDbBlockReference
  2
G78
 10
0.0
 20
0.0
 30
0.0
  0
INSERT
  5
502
330
1F
100
AcDbEntity
  8
0
100
AcDbBlockReference
  2
G79
 10
0.0
 20
0.0
 30
0.0
  0
INSERT
  5
50A
330
1F
100
AcDbEntity
  8
0
100
AcDbBlockReference
  2
G80
 10
0.0
 20
0.0
 30
0.0
  0
LINE
  5
50B
330
1F
100
AcDbEntity
  8
1
  6
Continuous
 62
     7
370
     9
100
AcDbLine
 10
160.8046003859207
 20
111.7969254587528
 30
0.0
 11
168.3046003859207
 21
111.7969254587528
 31
0.0
  0
LINE
  5
50C
330
1F
100
AcDbEntity
  8
1
  6
Continuous
 62
     7
370
     9
100
AcDbLine
 10
168.3046003859207
 20
110.5969254587518
 30
0.0
 11
160.8046003859207
 21
110.5969254587518
 31
0.0
  0
LINE
  5
50D
330
1F
100
AcDbEntity
  8
1
  6
Continuous
 62
     7
370
     9
100
AcDbLine
 10
160.8046003859207
 20
108.8569254587529
 30
0.0
 11
168.3046003859207
 21
108.8569254587529
 31
0.0
  0
LINE
  5
50E
330
1F
100
AcDbEntity
  8
1
  6
Continuous
 62
     7
370
     9
100
AcDbLine
 10
168.3046003859207
 20
107.6569254587518
 30
0.0
 11
160.8046003859207
 21
107.6569254587518
 31
0.0
  0
LINE
  5
50F
330
1F
100
AcDbEntity
  8
1
  6
Continuous
 62
     7
370
     9
100
AcDbLine
 10
160.8046003859207
 20
105.9169254587532
 30
0.0
 11
168.3046003859207
 21
105.9169254587532
 31
0.0
  0
LINE
  5
510
330
1F
100
AcDbEntity
  8
1
  6
Continuous
 62
     7
370
     9
100
AcDbLine
 10
168.3046003859207
 20
104.7169254587521
 30
0.0
 11
160.8046003859207
 21
104.7169254587521
 31
0.0
  0
LINE
  5
511
330
1F
100
AcDbEntity
  8
1
  6
Continuous
 62
     7
370
     9
100
AcDbLine
 10
160.8046003859207
 20
102.9769254587533
 30
0.0
 11
168.3046003859207
 21
102.9769254587533
 31
0.0
  0
LINE
  5
512
330
1F
100
AcDbEntity
  8
1
  6
Continuous
 62
     7
370
     9
100
AcDbLine
 10
168.3046003859207
 20
101.7769254587522
 30
0.0
 11
160.8046003859207
 21
101.7769254587522
 31
0.0
  0
LINE
  5
513
330
1F
100
AcDbEntity
  8
1
  6
Continuous
 62
     7
370
     9
100
AcDbLine
 10
160.8046003859207
 20
100.0369254587535
 30
0.0
 11
168.3046003859207
 21
100.0369254587535
 31
0.0
  0
LINE
  5
514
330
1F
100
AcDbEntity
  8
1
  6
Continuous
 62
     7
370
     9
100
AcDbLine
 10
168.3046003859207
 20
98.83692545875239
 30
0.0
 11
160.8046003859207
 21
98.83692545875239
 31
0.0
  0
LINE
  5
515
330
1F
100
AcDbEntity
  8
1
  6
Continuous
 62
     7
370
     9
100
AcDbLine
 10
160.8046003859207
 20
97.09692545875347
 30
0.0
 11
168.3046003859207
 21
97.09692545875347
 31
0.0
  0
LINE
  5
516
330
1F
100
AcDbEntity
  8
1
  6
Continuous
 62
     7
370
     9
100
AcDbLine
 10
168.3046003859207
 20
95.89692545875242
 30
0.0
 11
160.8046003859207
 21
95.89692545875242
 31
0.0
  0
SPLINE
  5
517
330
1F
100
AcDbEntity
  8
1
  6
Continuous
 62
     7
370
     9
100
AcDbSpline
210
0.0
220
0.0
230
1.0
 70
  1288
 71
     3
 72
    10
 73
     6
 74
     4
 42
0.0000000001
 43
0.0000000001
 40
0.0
 40
0.0
 40
0.0
 40
0.0
 40
1.0
 40
2.0
 40
3.0
 40
3.0
 40
3.0
 40
3.0
 10
125.1714083975144
 20
115.0969254587527
 30
0.0
 10
126.838075064181
 20
113.0403451862566
 30
0.0
 10
130.1714081686172
 20
108.9271845691684
 30
0.0
 10
123.1714086275386
 20
98.9772241107818
 30
0.0
 10
126.5047417308477
 20
94.72369165329086
 30
0.0
 10
128.1714083975144
 20
92.59692545875274
 30
0.0
  0
SPLINE
  5
518
330
1F
100
AcDbEntity
  8
1
  6
Continuous
 62
     7
370
     9
100
AcDbSpline
210
0.0
220
0.0
230
1.0
 70
  1288
 71
     3
 72
    10
 73
     6
 74
     4
 42
0.0000000001
 43
0.0000000001
 40
0.0
 40
0.0
 40
0.0
 40
0.0
 40
1.0
 40
2.0
 40
3.0
 40
3.0
 40
3.0
 40
3.0
 10
125.9377923743273
 20
115.0969254587527
 30
0.0
 10
127.6044590409939
 20
113.0403451862566
 30
0.0
 10
130.9377921454301
 20
108.9271845691684
 30
0.0
 10
123.9377926043515
 20
98.9772241107818
 30
0.0
 10
127.2711257076606
 20
94.72369165329086
 30
0.0
 10
128.9377923743273
 20
92.59692545875274
 30
0.0
  0
INSERT
  5
522
330
1F
100
AcDbEntity
  8
0
100
AcDbBlockReference
  2
G81
 10
0.0
 20
0.0
 30
0.0
  0
INSERT
  5
52C
330
1F
100
AcDbEntity
  8
0
100
AcDbBlockReference
  2
G82
 10
0.0
 20
0.0
 30
0.0
  0
INSERT
  5
536
330
1F
100
AcDbEntity
  8
0
100
AcDbBlockReference
  2
G83
 10
0.0
 20
0.0
 30
0.0
  0
INSERT
  5
540
330
1F
100
AcDbEntity
  8
0
100
AcDbBlockReference
  2
G84
 10
0.0
 20
0.0
 30
0.0
  0
INSERT
  5
54A
330
1F
100
AcDbEntity
  8
0
100
AcDbBlockReference
  2
G85
 10
0.0
 20
0.0
 30
0.0
  0
INSERT
  5
554
330
1F
100
AcDbEntity
  8
0
100
AcDbBlockReference
  2
G86
 10
0.0
 20
0.0
 30
0.0
  0
MTEXT
  5
555
330
1F
100
AcDbEntity
  8
1
  6
Continuous
 62
     7
370
     9
100
AcDbMText
 10
189.3046003859207
 20
105.3169254587531
 30
0.0
 40
3.0
 41
24.98646357538852
 46
3.0
 71
     4
 72
     1
  1
{\fＭＳ ゴシック;\W0.714286;\T1.200000;黄(解錠出力)}
 73
     1
 44
1.0
  0
MTEXT
  5
556
330
1F
100
AcDbEntity
  8
1
  6
Continuous
 62
     7
370
     9
100
AcDbMText
 10
189.3046003859207
 20
102.3769254587532
 30
0.0
 40
3.0
 41
24.98646357538852
 46
3.0
 71
     4
 72
     1
  1
{\fＭＳ ゴシック;\W0.714286;\T1.200000;黄(解錠出力)}
 73
     1
 44
1.0
  0
MTEXT
  5
557
330
1F
100
AcDbEntity
  8
1
  6
Continuous
 62
     7
370
     9
100
AcDbMText
 10
189.3046003859207
 20
99.43692545875336
 30
0.0
 40
3.0
 41
24.56943559457571
 46
3.0
 71
     4
 72
     1
  1
{\fＭＳ ゴシック;\W0.714286;\T1.200000;白(解錠入力)}
 73
     1
 44
1.0
  0
MTEXT
  5
558
330
1F
100
AcDbEntity
  8
1
  6
Continuous
 62
     7
370
     9
100
AcDbMText
 10
189.3046003859207
 20
96.49692545875337
 30
0.0
 40
3.0
 41
24.56943559457571
 46
3.0
 71
     4
 72
     1
  1
{\fＭＳ ゴシック;\W0.714286;\T1.200000;白(解錠入力)}
 73
     1
 44
1.0
  0
DIMENSION
  5
562
330
1F
100
AcDbEntity
  8
1
  6
Continuous
 62
     7
370
     9
100
AcDbDimension
280
     0
  2
Dim10
 10
183.3046003859208
 20
127.0969254587527
 30
0.0
 11
138.3046003859208
 21
129.0969254587527
 31
0.0
 70
   160
  1
600±10
 71
     5
 42
-1.0
 73
     0
 74
     0
 75
     0
  3
Standard
100
AcDbAlignedDimension
 13
93.30460038592082
 23
113.9719254587527
 33
0.0
 14
183.3046003859207
 24
112.0969254587527
 34
0.0
100
AcDbRotatedDimension
1001
ACAD
1000
DSTYLE
1002
{
1070
   279
1070
     2
1070
   340
1005
31A
1070
   140
1040
3.0
1070
    40
1040
1.0
1070
   147
1040
0.0
1070
    76
1070
     0
1070
    75
1070
     0
1070
   344
1005
7F
1070
   343
1005
7F
1070
   173
1070
     1
1070
   289
1070
     2
1070
   288
1070
     1
1070
    77
1070
     1
1070
   172
1070
     1
1070
   174
1070
     0
1070
    74
1070
     0
1070
    73
1070
     0
1070
   284
1070
     8
1070
    78
1070
     8
1070
    42
1040
2.0
1070
    44
1040
2.0
1070
    43
1040
10.0
1070
   271
1070
     2
1070
    41
1040
2.4
1002
}
  0
MTEXT
  5
563
330
1F
100
AcDbEntity
  8
15
  6
Continuous
 62
    98
420
    20480
370
     9
100
AcDbMText
 10
138.3046003859207
 20
82.7702979723152
 30
0.0
 40
5.0
 41
19.30418147432675
 46
5.0
 71
     8
 72
     1
  1
{\fＭＳ ゴシック;\W0.714286;\T1.080000;配線図}
 73
     1
 44
1.0
  0
LINE
  5
564
330
1F
100
AcDbEntity
  8
15
  6
Continuous
 62
    98
420
    20480
370
    30
100
AcDbLine
 10
128.3046003859208
 20
82.7702979723152
 30
0.0
 11
148.3046003859208
 21
82.7702979723152
 31
0.0
  0
MTEXT
  5
565
330
1F
100
AcDbEntity
  8
1
  6
Continuous
 62
     7
370
     9
100
AcDbMText
 10
189.3046003859207
 20
108.2569254587528
 30
0.0
 40
3.0
 41
36.44566763565773
 46
3.0
 71
     4
 72
     1
  1
{\fＭＳ ゴシック;\W0.714286;\T1.200000;灰(GND　極性なし)}
 73
     1
 44
1.0
  0
MTEXT
  5
566
330
1F
100
AcDbEntity
  8
15
  6
Continuous
 62
    98
420
    20480
370
     9
100
AcDbMText
 10
220.0502532364446
 20
91.70056340202325
 30
0.0
 40
4.0
 41
0.0
 46
4.0
 71
     7
 72
     1
  1
{\fＭＳ 明朝;\W0.714286;　}
 73
     1
 44
1.0
  0
MTEXT
  5
567
330
1F
100
AcDbEntity
  8
1
  6
Continuous
 62
     7
370
     9
100
AcDbMText
 10
189.3046003859207
 20
111.1969254587527
 30
0.0
 40
3.0
 41
40.79828303539664
 46
3.0
 71
     4
 72
     1
  1
{\fＭＳ ゴシック;\W0.714286;\T1.200000;灰(＋24Ｖ 極性なし)}
 73
     1
 44
1.0
  0
LINE
  5
568
330
1F
100
AcDbEntity
  8
15
  6
Continuous
 62
    98
420
    20480
370
     9
100
AcDbLine
 10
331.0676182992048
 20
267.1682892483032
 30
0.0
 11
331.0676182992048
 21
261.6666672390537
 31
0.0
  0
MTEXT
  5
569
330
1F
100
AcDbEntity
  8
15
  6
PHANTOM
 62
    98
420
    20480
370
     9
100
AcDbMText
 10
318.7056464437192
 20
264.4174782436784
 30
0.0
 40
3.0
 41
20.35858233971042
 46
3.0
 71
     5
 72
     1
  1
{\fＭＳ ゴシック;\W0.714286;\T1.133333;商品コード}
 73
     1
 44
1.0
  0
MTEXT
  5
56A
330
1F
100
AcDbEntity
  8
15
  6
PHANTOM
 62
    98
420
    20480
370
     9
100
AcDbMText
 10
351.215231043831
 20
258.9158562344287
 30
0.0
 40
3.0
 41
28.83106949434461
 46
3.0
 71
     5
 72
     1
  1
{\fＭＳ ゴシック;\W0.714286;\T1.133333;定　　　　　格}
 73
     1
 44
1.0
  0
MTEXT
  5
56B
330
1F
100
AcDbEntity
  8
15
  6
PHANTOM
 62
    98
420
    20480
370
     9
100
AcDbMText
 10
312.4183746190972
 20
245.1618012113046
 30
0.0
 40
3.0
 41
11.88604762257842
 46
3.0
 71
     5
 72
     1
  1
{\fＭＳ ゴシック;\W0.714286;\T1.133333;彩　色}
 73
     1
 44
1.0
  0
MTEXT
  5
56C
330
1F
100
AcDbEntity
  8
15
  6
PHANTOM
 62
    98
420
    20480
370
     9
100
AcDbMText
 10
324.8512037391689
 20
242.4108012113047
 30
0.0
 40
3.0
 41
11.82431150041886
 46
3.0
 71
     5
 72
     1
  1
{\fＭＳ ゴシック;\W0.714286;\T1.133333;文　字}
 73
     1
 44
1.0
  0
LINE
  5
56D
330
1F
100
AcDbEntity
  8
15
  6
Continuous
 62
    98
420
    20480
370
     9
100
AcDbLine
 10
318.6347891791331
 20
250.6634232205543
 30
0.0
 11
318.6347891791331
 21
239.6598012113046
 31
0.0
  0
MTEXT
  5
56E
330
1F
100
AcDbEntity
  8
15
  6
PHANTOM
 62
    98
420
    20480
370
     9
100
AcDbMText
 10
318.6347891791331
 20
253.4142342251791
 30
0.0
 40
3.0
 41
11.99415718010437
 46
3.0
 71
     5
 72
     1
  1
{\fＭＳ ゴシック;\W0.714286;\T1.133333;材　質}
 73
     1
 44
1.0
  0
MTEXT
  5
56F
330
1F
100
AcDbEntity
  8
15
  6
PHANTOM
 62
    98
420
    20480
370
     9
100
AcDbMText
 10
324.8512037391689
 20
247.9126122159294
 30
0.0
 40
3.0
 41
12.02473986619728
 46
3.0
 71
     5
 72
     1
  1
{\fＭＳ ゴシック;\W0.714286;\T1.133333;本　体}
 73
     1
 44
1.0
  0
MTEXT
  5
570
330
1F
100
AcDbEntity
  8
15
  6
PHANTOM
 62
    98
420
    20480
370
     9
100
AcDbMText
 10
318.6347891791331
 20
236.909179202055
 30
0.0
 40
3.0
 41
11.90150543436721
 46
3.0
 71
     5
 72
     1
  1
{\fＭＳ ゴシック;\W0.714286;\T1.133333;重　量}
 73
     1
 44
1.0
  0
MTEXT
  5
571
330
1F
100
AcDbEntity
  8
15
  6
Continuous
 62
    98
420
    20480
370
     9
100
AcDbMText
 10
318.6347891791331
 20
231.4073681974302
 30
0.0
 40
3.0
 41
16.16921160398674
 46
3.0
 71
     5
 72
     1
  1
{\fＭＳ ゴシック;\W0.714286;\T1.133333;入力電源}
 73
     1
 44
1.0
  0
MTEXT
  5
572
330
1F
100
AcDbEntity
  8
15
  6
Continuous
 62
    98
420
    20480
370
     9
100
AcDbMText
 10
318.6347891791331
 20
225.9057461881805
 30
0.0
 40
3.0
 41
16.18409866580179
 46
3.0
 71
     5
 72
     1
  1
{\fＭＳ ゴシック;\W0.714286;\T1.133333;消費電流}
 73
     1
 44
1.0
  0
LINE
  5
573
330
1F
100
AcDbEntity
  8
15
  6
Continuous
 62
    98
420
    20480
370
     9
100
AcDbLine
 10
331.0676182992048
 20
256.1785202130936
 30
0.0
 11
331.0676182992048
 21
206.6502465615535
 31
0.0
  0
LINE
  5
574
330
1F
100
AcDbEntity
  8
15
  6
Continuous
 62
    98
420
    20480
370
     9
100
AcDbLine
 10
331.0676182992048
 20
201.1484471465573
 30
0.0
 11
331.0676182992048
 21
195.6468251373078
 31
0.0
  0
MTEXT
  5
575
330
1F
100
AcDbEntity
  8
15
  6
PHANTOM
 62
    98
420
    20480
370
     9
100
AcDbMText
 10
318.6347891791331
 20
220.4041241789309
 30
0.0
 40
3.0
 41
15.86110174316268
 46
3.0
 71
     5
 72
     1
  1
{\fＭＳ ゴシック;\W0.714286;\T1.133333;消費電力}
 73
     1
 44
1.0
  0
MTEXT
  5
576
330
1F
100
AcDbEntity
  8
15
  6
Continuous
 62
    98
420
    20480
370
     9
100
AcDbMText
 10
318.6347891791331
 20
214.9025021696813
 30
0.0
 40
3.0
 41
15.98328980004088
 46
3.0
 71
     5
 72
     1
  1
{\fＭＳ ゴシック;\W0.714286;\T1.133333;受信感度}
 73
     1
 44
1.0
  0
MTEXT
  5
577
330
1F
100
AcDbEntity
  8
15
  6
Continuous
 62
    98
420
    20480
370
     9
100
AcDbMText
 10
318.6347891791331
 20
209.4008801604317
 30
0.0
 40
3.0
 41
16.12231498114442
 46
3.0
 71
     5
 72
     1
  1
{\fＭＳ ゴシック;\W0.714286;\T1.133333;設置温度}
 73
     1
 44
1.0
  0
MTEXT
  5
578
330
1F
100
AcDbEntity
  8
15
  6
Continuous
 62
    98
420
    20480
370
     9
100
AcDbMText
 10
318.6347891791331
 20
198.3976361419325
 30
0.0
 40
3.0
 41
15.95375348889983
 46
3.0
 71
     5
 72
     1
  1
{\fＭＳ ゴシック;\W0.714286;\T1.133333;解錠入力}
 73
     1
 44
1.0
  0
MTEXT
  5
579
330
1F
100
AcDbEntity
  8
15
  6
Continuous
 62
    98
420
    20480
370
     9
100
AcDbMText
 10
318.6347891791331
 20
187.3943921234332
 30
0.0
 40
3.0
 41
15.95375348889983
 46
3.0
 71
     5
 72
     1
  1
{\fＭＳ ゴシック;\W0.714286;\T1.133333;解錠出力}
 73
     1
 44
1.0
  0
MTEXT
  5
57A
330
1F
100
AcDbEntity
  8
15
  6
Continuous
 62
    98
420
    20480
370
     9
100
AcDbMText
 10
318.6347891791331
 20
179.1419591095586
 30
0.0
 40
3.0
 41
28.90831099079078
 46
3.0
 71
     5
 72
     1
  1
{\fＭＳ ゴシック;\W0.714286;\T1.133333;送信機登録個数}
 73
     1
 44
1.0
  0
LINE
  5
57B
330
1F
100
AcDbEntity
  8
15
  6
Continuous
 62
    98
420
    20480
370
     9
100
AcDbLine
 10
331.0676182992048
 20
190.1452031280581
 30
0.0
 11
331.0676182992048
 21
173.640337100309
 31
0.0
  0
LINE
  5
57C
330
1F
100
AcDbEntity
  8
15
  6
Continuous
 62
    98
420
    20480
370
     9
100
AcDbLine
 10
331.0676182992048
 20
267.1682892483032
 30
0.0
 11
331.0676182992048
 21
261.6666672390537
 31
0.0
  0
MTEXT
  5
57D
330
1F
100
AcDbEntity
  8
15
  6
PHANTOM
 62
    98
420
    20480
370
     9
100
AcDbMText
 10
318.7056464437192
 20
264.4174782436784
 30
0.0
 40
3.0
 41
20.35858233971042
 46
3.0
 71
     5
 72
     1
  1
{\fＭＳ ゴシック;\W0.714286;\T1.133333;商品コード}
 73
     1
 44
1.0
  0
MTEXT
  5
57E
330
1F
100
AcDbEntity
  8
15
  6
PHANTOM
 62
    98
420
    20480
370
     9
100
AcDbMText
 10
351.215231043831
 20
258.9158562344287
 30
0.0
 40
3.0
 41
28.83106949434461
 46
3.0
 71
     5
 72
     1
  1
{\fＭＳ ゴシック;\W0.714286;\T1.133333;定　　　　　格}
 73
     1
 44
1.0
  0
MTEXT
  5
57F
330
1F
100
AcDbEntity
  8
15
  6
PHANTOM
 62
    98
420
    20480
370
     9
100
AcDbMText
 10
312.4183746190972
 20
245.1618012113046
 30
0.0
 40
3.0
 41
11.88604762257842
 46
3.0
 71
     5
 72
     1
  1
{\fＭＳ ゴシック;\W0.714286;\T1.133333;彩　色}
 73
     1
 44
1.0
  0
MTEXT
  5
580
330
1F
100
AcDbEntity
  8
15
  6
PHANTOM
 62
    98
420
    20480
370
     9
100
AcDbMText
 10
324.8512037391689
 20
242.4108012113047
 30
0.0
 40
3.0
 41
11.82431150041886
 46
3.0
 71
     5
 72
     1
  1
{\fＭＳ ゴシック;\W0.714286;\T1.133333;文　字}
 73
     1
 44
1.0
  0
LINE
  5
581
330
1F
100
AcDbEntity
  8
15
  6
Continuous
 62
    98
420
    20480
370
     9
100
AcDbLine
 10
318.6347891791331
 20
250.6634232205543
 30
0.0
 11
318.6347891791331
 21
239.6598012113046
 31
0.0
  0
MTEXT
  5
582
330
1F
100
AcDbEntity
  8
15
  6
PHANTOM
 62
    98
420
    20480
370
     9
100
AcDbMText
 10
318.6347891791331
 20
253.4142342251791
 30
0.0
 40
3.0
 41
11.99415718010437
 46
3.0
 71
     5
 72
     1
  1
{\fＭＳ ゴシック;\W0.714286;\T1.133333;材　質}
 73
     1
 44
1.0
  0
MTEXT
  5
583
330
1F
100
AcDbEntity
  8
15
  6
PHANTOM
 62
    98
420
    20480
370
     9
100
AcDbMText
 10
324.8512037391689
 20
247.9126122159294
 30
0.0
 40
3.0
 41
12.02473986619728
 46
3.0
 71
     5
 72
     1
  1
{\fＭＳ ゴシック;\W0.714286;\T1.133333;本　体}
 73
     1
 44
1.0
  0
MTEXT
  5
584
330
1F
100
AcDbEntity
  8
15
  6
PHANTOM
 62
    98
420
    20480
370
     9
100
AcDbMText
 10
318.6347891791331
 20
236.909179202055
 30
0.0
 40
3.0
 41
11.90150543436721
 46
3.0
 71
     5
 72
     1
  1
{\fＭＳ ゴシック;\W0.714286;\T1.133333;重　量}
 73
     1
 44
1.0
  0
MTEXT
  5
585
330
1F
100
AcDbEntity
  8
15
  6
Continuous
 62
    98
420
    20480
370
     9
100
AcDbMText
 10
318.6347891791331
 20
231.4073681974302
 30
0.0
 40
3.0
 41
16.16921160398674
 46
3.0
 71
     5
 72
     1
  1
{\fＭＳ ゴシック;\W0.714286;\T1.133333;入力電源}
 73
     1
 44
1.0
  0
MTEXT
  5
586
330
1F
100
AcDbEntity
  8
15
  6
Continuous
 62
    98
420
    20480
370
     9
100
AcDbMText
 10
318.6347891791331
 20
225.9057461881805
 30
0.0
 40
3.0
 41
16.18409866580179
 46
3.0
 71
     5
 72
     1
  1
{\fＭＳ ゴシック;\W0.714286;\T1.133333;消費電流}
 73
     1
 44
1.0
  0
LINE
  5
587
330
1F
100
AcDbEntity
  8
15
  6
Continuous
 62
    98
420
    20480
370
     9
100
AcDbLine
 10
331.0676182992048
 20
256.1785202130936
 30
0.0
 11
331.0676182992048
 21
206.6502465615535
 31
0.0
  0
LINE
  5
588
330
1F
100
AcDbEntity
  8
15
  6
Continuous
 62
    98
420
    20480
370
     9
100
AcDbLine
 10
331.0676182992048
 20
201.1484471465573
 30
0.0
 11
331.0676182992048
 21
195.6468251373078
 31
0.0
  0
MTEXT
  5
589
330
1F
100
AcDbEntity
  8
15
  6
PHANTOM
 62
    98
420
    20480
370
     9
100
AcDbMText
 10
318.6347891791331
 20
220.4041241789309
 30
0.0
 40
3.0
 41
15.86110174316268
 46
3.0
 71
     5
 72
     1
  1
{\fＭＳ ゴシック;\W0.714286;\T1.133333;消費電力}
 73
     1
 44
1.0
  0
MTEXT
  5
58A
330
1F
100
AcDbEntity
  8
15
  6
Continuous
 62
    98
420
    20480
370
     9
100
AcDbMText
 10
318.6347891791331
 20
214.9025021696813
 30
0.0
 40
3.0
 41
15.98328980004088
 46
3.0
 71
     5
 72
     1
  1
{\fＭＳ ゴシック;\W0.714286;\T1.133333;受信感度}
 73
     1
 44
1.0
  0
MTEXT
  5
58B
330
1F
100
AcDbEntity
  8
15
  6
Continuous
 62
    98
420
    20480
370
     9
100
AcDbMText
 10
318.6347891791331
 20
209.4008801604317
 30
0.0
 40
3.0
 41
16.12231498114442
 46
3.0
 71
     5
 72
     1
  1
{\fＭＳ ゴシック;\W0.714286;\T1.133333;設置温度}
 73
     1
 44
1.0
  0
MTEXT
  5
58C
330
1F
100
AcDbEntity
  8
15
  6
Continuous
 62
    98
420
    20480
370
     9
100
AcDbMText
 10
318.6347891791331
 20
198.3976361419325
 30
0.0
 40
3.0
 41
15.95375348889983
 46
3.0
 71
     5
 72
     1
  1
{\fＭＳ ゴシック;\W0.714286;\T1.133333;解錠入力}
 73
     1
 44
1.0
  0
MTEXT
  5
58D
330
1F
100
AcDbEntity
  8
15
  6
Continuous
 62
    98
420
    20480
370
     9
100
AcDbMText
 10
318.6347891791331
 20
187.3943921234332
 30
0.0
 40
3.0
 41
15.95375348889983
 46
3.0
 71
     5
 72
     1
  1
{\fＭＳ ゴシック;\W0.714286;\T1.133333;解錠出力}
 73
     1
 44
1.0
  0
MTEXT
  5
58E
330
1F
100
AcDbEntity
  8
15
  6
Continuous
 62
    98
420
    20480
370
     9
100
AcDbMText
 10
318.6347891791331
 20
179.1419591095586
 30
0.0
 40
3.0
 41
28.90831099079078
 46
3.0
 71
     5
 72
     1
  1
{\fＭＳ ゴシック;\W0.714286;\T1.133333;送信機登録個数}
 73
     1
 44
1.0
  0
LINE
  5
58F
330
1F
100
AcDbEntity
  8
15
  6
Continuous
 62
    98
420
    20480
370
     9
100
AcDbLine
 10
331.0676182992048
 20
190.1452031280581
 30
0.0
 11
331.0676182992048
 21
173.640337100309
 31
0.0
  0
MTEXT
  5
590
330
1F
100
AcDbEntity
  8
15
  6
PHANTOM
 62
    98
420
    20480
370
     9
100
AcDbMText
 10
362.4291570799056
 20
264.4174782436784
 30
0.0
 40
3.0
 41
27.48842774361871
 46
3.0
 71
     5
 72
     1
  1
{\fＭＳ ゴシック;\W0.714286;\T1.133333;０１１５００５}
 73
     1
 44
1.0
  0
MTEXT
  5
591
330
1F
100
AcDbEntity
  8
15
  6
PHANTOM
 62
    98
420
    20480
370
     9
100
AcDbMText
 10
362.3584294915815
 20
253.4142342251791
 30
0.0
 40
3.0
 41
7.835131317984533
 46
3.0
 71
     5
 72
     1
  1
{\fＭＳ ゴシック;\W0.714286;\T1.133333;樹脂}
 73
     1
 44
1.0
  0
MTEXT
  5
592
330
1F
100
AcDbEntity
  8
15
  6
PHANTOM
 62
    98
420
    20480
370
     9
100
AcDbMText
 10
362.3584294915815
 20
247.9126122159295
 30
0.0
 40
3.0
 41
15.71993624965761
 46
3.0
 71
     5
 72
     1
  1
{\fＭＳ ゴシック;\W0.714286;\T1.133333;ホワイト}
 73
     1
 44
1.0
  0
MTEXT
  5
593
330
1F
100
AcDbEntity
  8
15
  6
PHANTOM
 62
    98
420
    20480
370
     9
100
AcDbMText
 10
362.3584294915815
 20
242.4109902066798
 30
0.0
 40
3.0
 41
15.25838977089308
 46
3.0
 71
     5
 72
     1
  1
{\fＭＳ ゴシック;\W0.714286;\T1.133333;ブラック}
 73
     1
 44
1.0
  0
MTEXT
  5
594
330
1F
100
AcDbEntity
  8
15
  6
PHANTOM
 62
    98
420
    20480
370
     9
100
AcDbMText
 10
362.3584294915815
 20
236.909179202055
 30
0.0
 40
3.0
 41
11.50095244377041
 46
3.0
 71
     5
 72
     1
  1
{\fＭＳ ゴシック;\W0.714286;\T1.133333;約44ｇ}
 73
     1
 44
1.0
  0
MTEXT
  5
595
330
1F
100
AcDbEntity
  8
15
  6
Continuous
 62
    98
420
    20480
370
     9
100
AcDbMText
 10
362.3584294915815
 20
231.4073681974301
 30
0.0
 40
3.0
 41
25.40108913410386
 46
3.0
 71
     5
 72
     1
  1
{\fＭＳ ゴシック;\W0.714286;\T1.133333;DC24Ｖ±10％}
 73
     1
 44
1.0
  0
MTEXT
  5
596
330
1F
100
AcDbEntity
  8
15
  6
Continuous
 62
    98
420
    20480
370
     9
100
AcDbMText
 10
362.3584294915815
 20
225.9057461881805
 30
0.0
 40
3.0
 41
72.82315420088042
 46
3.0
 71
     5
 72
     1
  1
{\fＭＳ ゴシック;\W0.714286;\T1.133333;DC24Ｖ　待機時：10mA　運用時：25mA}
 73
     1
 44
1.0
  0
MTEXT
  5
597
330
1F
100
AcDbEntity
  8
15
  6
PHANTOM
 62
    98
420
    20480
370
     9
100
AcDbMText
 10
362.3584294915815
 20
220.4041241789309
 30
0.0
 40
3.0
 41
16.35513340793259
 46
3.0
 71
     5
 72
     1
  1
{\fＭＳ ゴシック;\W0.714286;\T1.133333;最大１Ｗ}
 73
     1
 44
1.0
  0
MTEXT
  5
598
330
1F
100
AcDbEntity
  8
15
  6
Continuous
 62
    98
420
    20480
370
     9
100
AcDbMText
 10
362.3584294915815
 20
214.9025021696813
 30
0.0
 40
3.0
 41
15.23095374507739
 46
3.0
 71
     5
 72
     1
  1
{\fＭＳ ゴシック;\W0.714286;\T1.133333;-115dBm}
 73
     1
 44
1.0
  0
MTEXT
  5
599
330
1F
100
AcDbEntity
  8
15
  6
Continuous
 62
    98
420
    20480
370
     9
100
AcDbMText
 10
362.3584294915815
 20
209.4008801604317
 30
0.0
 40
3.0
 41
54.57890760346876
 46
3.0
 71
     5
 72
     1
  1
{\fＭＳ ゴシック;\W0.714286;\T1.133333;-15℃～60℃（結露なきこと）}
 73
     1
 44
1.0
  0
MTEXT
  5
59A
330
1F
100
AcDbEntity
  8
15
  6
Continuous
 62
    98
420
    20480
370
     9
100
AcDbMText
 10
358.2862629076417
 20
198.3976361419325
 30
0.0
 40
3.0
 41
58.03828158735713
 46
3.0
 71
     5
 72
     1
  1
{\fＭＳ ゴシック;\W0.714286;\T1.133333;無電圧ａ接点　瞬時／連続入力}
 73
     1
 44
1.0
  0
MTEXT
  5
59B
330
1F
100
AcDbEntity
  8
15
  6
Continuous
 62
    98
420
    20480
370
     9
100
AcDbMText
 10
358.2862629076417
 20
187.3943921234332
 30
0.0
 40
3.0
 41
53.63178804912312
 46
3.0
 71
     5
 72
     1
  1
{\fＭＳ ゴシック;\W0.714286;\T1.133333;無電圧ｃ接点　解錠時メイク}
 73
     1
 44
1.0
  0
MTEXT
  5
59C
330
1F
100
AcDbEntity
  8
15
  6
Continuous
 62
    98
420
    20480
370
     9
100
AcDbMText
 10
362.3584294915815
 20
181.8927701141835
 30
0.0
 40
3.0
 41
52.24084116659371
 46
3.0
 71
     5
 72
     1
  1
{\fＭＳ ゴシック;\W0.714286;\T1.133333;DIPスイッチ登録：制限なし}
 73
     1
 44
1.0
  0
MTEXT
  5
59D
330
1F
100
AcDbEntity
  8
15
  6
Continuous
 62
    98
420
    20480
370
     9
100
AcDbMText
 10
362.3584294915815
 20
176.3911481049338
 30
0.0
 40
3.0
 41
43.72131470162379
 46
3.0
 71
     5
 72
     1
  1
{\fＭＳ ゴシック;\W0.714286;\T1.133333;ボタン登録 ：最大50個}
 73
     1
 44
1.0
  0
MTEXT
  5
59E
330
1F
100
AcDbEntity
  8
15
  6
Continuous
 62
    98
420
    20480
370
     9
100
AcDbMText
 10
349.9256003715774
 20
203.8992581511821
 30
0.0
 40
3.0
 41
74.24202026962527
 46
3.0
 71
     5
 72
     1
  1
{\fＭＳ ゴシック;\W0.714286;\T1.133333;外部入力 ：接点容量DC24Ｖ 0.1Ａ以上}
 73
     1
 44
1.0
  0
MTEXT
  5
59F
330
1F
100
AcDbEntity
  8
15
  6
Continuous
 62
    98
420
    20480
370
     9
100
AcDbMText
 10
349.9256003715774
 20
192.8960141326828
 30
0.0
 40
3.0
 41
71.73734240291593
 46
3.0
 71
     5
 72
     1
  1
{\fＭＳ ゴシック;\W0.714286;\T1.133333;外部出力 ：接点容量DC24Ｖ １Ａ以下}
 73
     1
 44
1.0
  0
MTEXT
  5
5A0
330
1F
100
AcDbEntity
  8
15
  6
PHANTOM
 62
    98
420
    20480
370
     9
100
AcDbMText
 10
362.4291570799056
 20
264.4174782436784
 30
0.0
 40
3.0
 41
27.48842774361871
 46
3.0
 71
     5
 72
     1
  1
{\fＭＳ ゴシック;\W0.714286;\T1.133333;０１１５００５}
 73
     1
 44
1.0
  0
MTEXT
  5
5A1
330
1F
100
AcDbEntity
  8
15
  6
PHANTOM
 62
    98
420
    20480
370
     9
100
AcDbMText
 10
362.3584294915815
 20
253.4142342251791
 30
0.0
 40
3.0
 41
7.835131317984533
 46
3.0
 71
     5
 72
     1
  1
{\fＭＳ ゴシック;\W0.714286;\T1.133333;樹脂}
 73
     1
 44
1.0
  0
MTEXT
  5
5A2
330
1F
100
AcDbEntity
  8
15
  6
PHANTOM
 62
    98
420
    20480
370
     9
100
AcDbMText
 10
362.3584294915815
 20
247.9126122159295
 30
0.0
 40
3.0
 41
15.71993624965761
 46
3.0
 71
     5
 72
     1
  1
{\fＭＳ ゴシック;\W0.714286;\T1.133333;ホワイト}
 73
     1
 44
1.0
  0
MTEXT
  5
5A3
330
1F
100
AcDbEntity
  8
15
  6
PHANTOM
 62
    98
420
    20480
370
     9
100
AcDbMText
 10
362.3584294915815
 20
242.4109902066798
 30
0.0
 40
3.0
 41
15.25838977089308
 46
3.0
 71
     5
 72
     1
  1
{\fＭＳ ゴシック;\W0.714286;\T1.133333;ブラック}
 73
     1
 44
1.0
  0
MTEXT
  5
5A4
330
1F
100
AcDbEntity
  8
15
  6
PHANTOM
 62
    98
420
    20480
370
     9
100
AcDbMText
 10
362.3584294915815
 20
236.909179202055
 30
0.0
 40
3.0
 41
11.50095244377041
 46
3.0
 71
     5
 72
     1
  1
{\fＭＳ ゴシック;\W0.714286;\T1.133333;約44ｇ}
 73
     1
 44
1.0
  0
MTEXT
  5
5A5
330
1F
100
AcDbEntity
  8
15
  6
Continuous
 62
    98
420
    20480
370
     9
100
AcDbMText
 10
362.3584294915815
 20
231.4073681974301
 30
0.0
 40
3.0
 41
25.40108913410386
 46
3.0
 71
     5
 72
     1
  1
{\fＭＳ ゴシック;\W0.714286;\T1.133333;DC24Ｖ±10％}
 73
     1
 44
1.0
  0
MTEXT
  5
5A6
330
1F
100
AcDbEntity
  8
15
  6
Continuous
 62
    98
420
    20480
370
     9
100
AcDbMText
 10
362.3584294915815
 20
225.9057461881805
 30
0.0
 40
3.0
 41
72.82315420088042
 46
3.0
 71
     5
 72
     1
  1
{\fＭＳ ゴシック;\W0.714286;\T1.133333;DC24Ｖ　待機時：10mA　運用時：25mA}
 73
     1
 44
1.0
  0
MTEXT
  5
5A7
330
1F
100
AcDbEntity
  8
15
  6
PHANTOM
 62
    98
420
    20480
370
     9
100
AcDbMText
 10
362.3584294915815
 20
220.4041241789309
 30
0.0
 40
3.0
 41
16.35513340793259
 46
3.0
 71
     5
 72
     1
  1
{\fＭＳ ゴシック;\W0.714286;\T1.133333;最大１Ｗ}
 73
     1
 44
1.0
  0
MTEXT
  5
5A8
330
1F
100
AcDbEntity
  8
15
  6
Continuous
 62
    98
420
    20480
370
     9
100
AcDbMText
 10
362.3584294915815
 20
214.9025021696813
 30
0.0
 40
3.0
 41
15.23095374507739
 46
3.0
 71
     5
 72
     1
  1
{\fＭＳ ゴシック;\W0.714286;\T1.133333;-115dBm}
 73
     1
 44
1.0
  0
MTEXT
  5
5A9
330
1F
100
AcDbEntity
  8
15
  6
Continuous
 62
    98
420
    20480
370
     9
100
AcDbMText
 10
362.3584294915815
 20
209.4008801604317
 30
0.0
 40
3.0
 41
54.57890760346876
 46
3.0
 71
     5
 72
     1
  1
{\fＭＳ ゴシック;\W0.714286;\T1.133333;-15℃～60℃（結露なきこと）}
 73
     1
 44
1.0
  0
MTEXT
  5
5AA
330
1F
100
AcDbEntity
  8
15
  6
Continuous
 62
    98
420
    20480
370
     9
100
AcDbMText
 10
358.2862629076417
 20
198.3976361419325
 30
0.0
 40
3.0
 41
58.03828158735713
 46
3.0
 71
     5
 72
     1
  1
{\fＭＳ ゴシック;\W0.714286;\T1.133333;無電圧ａ接点　瞬時／連続入力}
 73
     1
 44
1.0
  0
MTEXT
  5
5AB
330
1F
100
AcDbEntity
  8
15
  6
Continuous
 62
    98
420
    20480
370
     9
100
AcDbMText
 10
358.2862629076417
 20
187.3943921234332
 30
0.0
 40
3.0
 41
53.63178804912312
 46
3.0
 71
     5
 72
     1
  1
{\fＭＳ ゴシック;\W0.714286;\T1.133333;無電圧ｃ接点　解錠時メイク}
 73
     1
 44
1.0
  0
MTEXT
  5
5AC
330
1F
100
AcDbEntity
  8
15
  6
Continuous
 62
    98
420
    20480
370
     9
100
AcDbMText
 10
362.3584294915815
 20
181.8927701141835
 30
0.0
 40
3.0
 41
52.24084116659371
 46
3.0
 71
     5
 72
     1
  1
{\fＭＳ ゴシック;\W0.714286;\T1.133333;DIPスイッチ登録：制限なし}
 73
     1
 44
1.0
  0
MTEXT
  5
5AD
330
1F
100
AcDbEntity
  8
15
  6
Continuous
 62
    98
420
    20480
370
     9
100
AcDbMText
 10
362.3584294915815
 20
176.3911481049338
 30
0.0
 40
3.0
 41
43.72131470162379
 46
3.0
 71
     5
 72
     1
  1
{\fＭＳ ゴシック;\W0.714286;\T1.133333;ボタン登録 ：最大50個}
 73
     1
 44
1.0
  0
MTEXT
  5
5AE
330
1F
100
AcDbEntity
  8
15
  6
Continuous
 62
    98
420
    20480
370
     9
100
AcDbMText
 10
349.9256003715774
 20
203.8992581511821
 30
0.0
 40
3.0
 41
74.24202026962527
 46
3.0
 71
     5
 72
     1
  1
{\fＭＳ ゴシック;\W0.714286;\T1.133333;外部入力 ：接点容量DC24Ｖ 0.1Ａ以上}
 73
     1
 44
1.0
  0
MTEXT
  5
5AF
330
1F
100
AcDbEntity
  8
15
  6
Continuous
 62
    98
420
    20480
370
     9
100
AcDbMText
 10
349.9256003715774
 20
192.8960141326828
 30
0.0
 40
3.0
 41
71.73734240291593
 46
3.0
 71
     5
 72
     1
  1
{\fＭＳ ゴシック;\W0.714286;\T1.133333;外部出力 ：接点容量DC24Ｖ １Ａ以下}
 73
     1
 44
1.0
  0
LINE
  5
5B0
330
1F
100
AcDbEntity
  8
15
  6
Continuous
 62
    98
420
    20480
370
     9
100
AcDbLine
 10
385.2935974301137
 20
201.1486655894646
 30
0.0
 11
385.2935974301137
 21
195.6468251373078
 31
0.0
  0
LINE
  5
5B1
330
1F
100
AcDbEntity
  8
15
  6
Continuous
 62
    98
420
    20480
370
     9
100
AcDbLine
 10
385.2935974301137
 20
201.1486655894646
 30
0.0
 11
385.2935974301137
 21
195.6468251373078
 31
0.0
  0
MTEXT
  5
5B2
330
1F
100
AcDbEntity
  8
15
  6
Continuous
 62
    98
420
    20480
370
     9
100
AcDbMText
 10
388.8925120312941
 20
198.514269188979
 30
0.0
 40
3.0
 41
6.584285188035177
 46
3.0
 71
     5
 72
     1
  1
{\fＭＳ ゴシック;\W0.714286;\T1.133333;１点}
 73
     1
 44
1.0
  0
MTEXT
  5
5B3
330
1F
100
AcDbEntity
  8
15
  6
Continuous
 62
    98
420
    20480
370
     9
100
AcDbMText
 10
388.8925120312941
 20
198.514269188979
 30
0.0
 40
3.0
 41
6.584285188035177
 46
3.0
 71
     5
 72
     1
  1
{\fＭＳ ゴシック;\W0.714286;\T1.133333;１点}
 73
     1
 44
1.0
  0
LINE
  5
5B4
330
1F
100
AcDbEntity
  8
15
  6
Continuous
 62
    98
420
    20480
370
     9
100
AcDbLine
 10
385.2935974301137
 20
190.1454215709653
 30
0.0
 11
385.2935974301137
 21
184.6435811188086
 31
0.0
  0
LINE
  5
5B5
330
1F
100
AcDbEntity
  8
15
  6
Continuous
 62
    98
420
    20480
370
     9
100
AcDbLine
 10
385.2935974301137
 20
190.1454215709653
 30
0.0
 11
385.2935974301137
 21
184.6435811188086
 31
0.0
  0
MTEXT
  5
5B6
330
1F
100
AcDbEntity
  8
15
  6
Continuous
 62
    98
420
    20480
370
     9
100
AcDbMText
 10
388.8925120312941
 20
187.5110251704797
 30
0.0
 40
3.0
 41
6.584285188035177
 46
3.0
 71
     5
 72
     1
  1
{\fＭＳ ゴシック;\W0.714286;\T1.133333;１点}
 73
     1
 44
1.0
  0
MTEXT
  5
5B7
330
1F
100
AcDbEntity
  8
15
  6
Continuous
 62
    98
420
    20480
370
     9
100
AcDbMText
 10
388.8925120312941
 20
187.5110251704797
 30
0.0
 40
3.0
 41
6.584285188035177
 46
3.0
 71
     5
 72
     1
  1
{\fＭＳ ゴシック;\W0.714286;\T1.133333;１点}
 73
     1
 44
1.0
  0
LINE
  5
5B8
330
1F
100
AcDbEntity
  8
15
  6
Continuous
 62
    98
420
    20480
370
     9
100
AcDbLine
 10
385.2935974301137
 20
190.1454215709653
 30
0.0
 11
385.2935974301137
 21
184.6435811188086
 31
0.0
  0
LINE
  5
5B9
330
1F
100
AcDbEntity
  8
15
  6
Continuous
 62
    98
420
    20480
370
     9
100
AcDbLine
 10
385.2935974301137
 20
190.1454215709653
 30
0.0
 11
385.2935974301137
 21
184.6435811188086
 31
0.0
  0
MTEXT
  5
5BA
330
1F
100
AcDbEntity
  8
15
  6
Continuous
 62
    98
420
    20480
370
     9
100
AcDbMText
 10
388.8925120312941
 20
187.5110251704797
 30
0.0
 40
3.0
 41
6.584285188035177
 46
3.0
 71
     5
 72
     1
  1
{\fＭＳ ゴシック;\W0.714286;\T1.133333;１点}
 73
     1
 44
1.0
  0
MTEXT
  5
5BB
330
1F
100
AcDbEntity
  8
15
  6
Continuous
 62
    98
420
    20480
370
     9
100
AcDbMText
 10
388.8925120312941
 20
187.5110251704797
 30
0.0
 40
3.0
 41
6.584285188035177
 46
3.0
 71
     5
 72
     1
  1
{\fＭＳ ゴシック;\W0.714286;\T1.133333;１点}
 73
     1
 44
1.0
  0
LINE
  5
5BC
330
1F
100
AcDbEntity
  8
15
  6
Continuous
 62
    98
420
    20480
370
     9
100
AcDbLine
 10
306.2019600590614
 20
217.6533131743061
 30
0.0
 11
393.3603993291064
 21
217.6533131743061
 31
0.0
  0
LINE
  5
5BD
330
1F
100
AcDbEntity
  8
15
  6
Continuous
 62
    98
420
    20480
370
     9
100
AcDbLine
 10
306.2019600590614
 20
223.1549351835557
 30
0.0
 11
393.3603993291064
 21
223.1549351835557
 31
0.0
  0
LINE
  5
5BE
330
1F
100
AcDbEntity
  8
15
  6
Continuous
 62
    98
420
    20480
370
     9
100
AcDbLine
 10
306.2019600590614
 20
228.6565571928053
 30
0.0
 11
393.3603993291064
 21
228.6565571928053
 31
0.0
  0
LINE
  5
5BF
330
1F
100
AcDbEntity
  8
15
  6
Continuous
 62
    98
420
    20480
370
     9
100
AcDbLine
 10
306.2019600590614
 20
239.6598012113046
 30
0.0
 11
393.3603993291064
 21
239.6598012113046
 31
0.0
  0
LINE
  5
5C0
330
1F
100
AcDbEntity
  8
15
  6
Continuous
 62
    98
420
    20480
370
     9
100
AcDbLine
 10
306.2019600590614
 20
234.158179202055
 30
0.0
 11
393.3603993291064
 21
234.158179202055
 31
0.0
  0
LINE
  5
5C1
330
1F
100
AcDbEntity
  8
15
  6
Continuous
 62
    98
420
    20480
370
     9
100
AcDbLine
 10
318.6347891791331
 20
245.1618012113046
 30
0.0
 11
393.3603993291064
 21
245.1618012113046
 31
0.0
  0
LINE
  5
5C2
330
1F
100
AcDbEntity
  8
15
  6
Continuous
 62
    98
420
    20480
370
     9
100
AcDbLine
 10
306.2019600590614
 20
217.6533131743061
 30
0.0
 11
393.3603993291064
 21
217.6533131743061
 31
0.0
  0
LINE
  5
5C3
330
1F
100
AcDbEntity
  8
15
  6
Continuous
 62
    98
420
    20480
370
     9
100
AcDbLine
 10
306.2019600590614
 20
223.1549351835557
 30
0.0
 11
393.3603993291064
 21
223.1549351835557
 31
0.0
  0
LINE
  5
5C4
330
1F
100
AcDbEntity
  8
15
  6
Continuous
 62
    98
420
    20480
370
     9
100
AcDbLine
 10
306.2019600590614
 20
228.6565571928053
 30
0.0
 11
393.3603993291064
 21
228.6565571928053
 31
0.0
  0
LINE
  5
5C5
330
1F
100
AcDbEntity
  8
15
  6
Continuous
 62
    98
420
    20480
370
     9
100
AcDbLine
 10
306.2019600590614
 20
239.6598012113046
 30
0.0
 11
393.3603993291064
 21
239.6598012113046
 31
0.0
  0
LINE
  5
5C6
330
1F
100
AcDbEntity
  8
15
  6
Continuous
 62
    98
420
    20480
370
     9
100
AcDbLine
 10
306.2019600590614
 20
234.158179202055
 30
0.0
 11
393.3603993291064
 21
234.158179202055
 31
0.0
  0
LINE
  5
5C7
330
1F
100
AcDbEntity
  8
15
  6
Continuous
 62
    98
420
    20480
370
     9
100
AcDbLine
 10
318.6347891791331
 20
245.1618012113046
 30
0.0
 11
393.3603993291064
 21
245.1618012113046
 31
0.0
  0
LINE
  5
5C8
330
1F
100
AcDbEntity
  8
15
  6
Continuous
 62
    98
420
    20480
370
    30
100
AcDbLine
 10
306.2019600590614
 20
173.640337100309
 30
0.0
 11
393.3603993291064
 21
173.640337100309
 31
0.0
  0
LINE
  5
5C9
330
1F
100
AcDbEntity
  8
15
  6
Continuous
 62
    98
420
    20480
370
     9
100
AcDbLine
 10
306.2019600590614
 20
212.1516911650565
 30
0.0
 11
393.3603993291064
 21
212.1516911650565
 31
0.0
  0
LINE
  5
5CA
330
1F
100
AcDbEntity
  8
15
  6
Continuous
 62
    98
420
    20480
370
    30
100
AcDbLine
 10
306.2019600590614
 20
184.6435811188084
 30
0.0
 11
393.3603993291064
 21
184.6435811188084
 31
0.0
  0
LINE
  5
5CB
330
1F
100
AcDbEntity
  8
15
  6
Continuous
 62
    98
420
    20480
370
     9
100
AcDbLine
 10
306.2019600590614
 20
190.1452031280581
 30
0.0
 11
393.3603993291064
 21
190.1452031280581
 31
0.0
  0
LINE
  5
5CC
330
1F
100
AcDbEntity
  8
15
  6
Continuous
 62
    98
420
    20480
370
    30
100
AcDbLine
 10
306.2019600590614
 20
195.6468251373077
 30
0.0
 11
393.3603993291064
 21
195.6468251373077
 31
0.0
  0
LINE
  5
5CD
330
1F
100
AcDbEntity
  8
15
  6
Continuous
 62
    98
420
    20480
370
     9
100
AcDbLine
 10
306.2019600590614
 20
201.1484471465573
 30
0.0
 11
393.3603993291064
 21
201.1484471465573
 31
0.0
  0
LINE
  5
5CE
330
1F
100
AcDbEntity
  8
15
  6
Continuous
 62
    98
420
    20480
370
    30
100
AcDbLine
 10
306.2019600590614
 20
206.6500691558069
 30
0.0
 11
393.3603993291064
 21
206.6500691558069
 31
0.0
  0
LINE
  5
5CF
330
1F
100
AcDbEntity
  8
15
  6
Continuous
 62
    98
420
    20480
370
    30
100
AcDbLine
 10
306.2019600590614
 20
173.640337100309
 30
0.0
 11
393.3603993291064
 21
173.640337100309
 31
0.0
  0
LINE
  5
5D0
330
1F
100
AcDbEntity
  8
15
  6
Continuous
 62
    98
420
    20480
370
     9
100
AcDbLine
 10
306.2019600590614
 20
212.1516911650565
 30
0.0
 11
393.3603993291064
 21
212.1516911650565
 31
0.0
  0
LINE
  5
5D1
330
1F
100
AcDbEntity
  8
15
  6
Continuous
 62
    98
420
    20480
370
    30
100
AcDbLine
 10
306.2019600590614
 20
184.6435811188084
 30
0.0
 11
393.3603993291064
 21
184.6435811188084
 31
0.0
  0
LINE
  5
5D2
330
1F
100
AcDbEntity
  8
15
  6
Continuous
 62
    98
420
    20480
370
     9
100
AcDbLine
 10
306.2019600590614
 20
190.1452031280581
 30
0.0
 11
393.3603993291064
 21
190.1452031280581
 31
0.0
  0
LINE
  5
5D3
330
1F
100
AcDbEntity
  8
15
  6
Continuous
 62
    98
420
    20480
370
    30
100
AcDbLine
 10
306.2019600590614
 20
195.6468251373077
 30
0.0
 11
393.3603993291064
 21
195.6468251373077
 31
0.0
  0
LINE
  5
5D4
330
1F
100
AcDbEntity
  8
15
  6
Continuous
 62
    98
420
    20480
370
     9
100
AcDbLine
 10
306.2019600590614
 20
201.1484471465573
 30
0.0
 11
393.3603993291064
 21
201.1484471465573
 31
0.0
  0
LINE
  5
5D5
330
1F
100
AcDbEntity
  8
15
  6
Continuous
 62
    98
420
    20480
370
    30
100
AcDbLine
 10
306.2019600590614
 20
206.6500691558069
 30
0.0
 11
393.3603993291064
 21
206.6500691558069
 31
0.0
  0
LINE
  5
5D6
330
1F
100
AcDbEntity
  8
15
  6
Continuous
 62
    98
420
    20480
370
    30
100
AcDbLine
 10
306.2019600590614
 20
256.1650452298039
 30
0.0
 11
393.3603993291064
 21
256.1650452298039
 31
0.0
  0
LINE
  5
5D7
330
1F
100
AcDbEntity
  8
15
  6
Continuous
 62
    98
420
    20480
370
    30
100
AcDbLine
 10
306.2019600590614
 20
261.6666672390536
 30
0.0
 11
393.3603993291064
 21
261.6666672390536
 31
0.0
  0
LINE
  5
5D8
330
1F
100
AcDbEntity
  8
15
  6
Continuous
 62
    98
420
    20480
370
    30
100
AcDbLine
 10
306.2019600590614
 20
256.1650452298039
 30
0.0
 11
393.3603993291064
 21
256.1650452298039
 31
0.0
  0
LINE
  5
5D9
330
1F
100
AcDbEntity
  8
15
  6
Continuous
 62
    98
420
    20480
370
    30
100
AcDbLine
 10
306.2019600590614
 20
261.6666672390536
 30
0.0
 11
393.3603993291064
 21
261.6666672390536
 31
0.0
  0
LINE
  5
5DA
330
1F
100
AcDbEntity
  8
15
  6
Continuous
 62
    98
420
    20480
370
     9
100
AcDbLine
 10
393.3603993291064
 20
250.6634232205543
 30
0.0
 11
306.2019600590614
 21
250.6634232205543
 31
0.0
  0
MTEXT
  5
5DB
330
1F
100
AcDbEntity
  8
15
  6
Continuous
 62
    98
420
    20480
370
     9
100
AcDbMText
 10
349.7761682362132
 20
57.6388282190934
 30
0.0
 40
5.0
 41
46.20123058681042
 46
5.0
 71
     5
 72
     1
  1
{\fＭＳ ゴシック;\W0.714286;\T1.080000;Ｗｉ－１１３０}
 73
     1
 44
1.0
  0
MTEXT
  5
5DC
330
1F
100
AcDbEntity
  8
15
  6
Continuous
 62
    98
420
    20480
370
     9
100
AcDbMText
 10
349.9591747721609
 20
48.88937288140265
 30
0.0
 40
5.0
 41
53.28982159816881
 46
5.0
 71
     5
 72
     1
  1
{\fＭＳ ゴシック;\W0.714286;\T1.080000;ワイヤレス受信機}
 73
     1
 44
1.0
  0
MTEXT
  5
5DD
330
1F
100
AcDbEntity
  8
15
  6
Continuous
 62
    98
420
    20480
370
     9
100
AcDbMText
 10
335.5873519689655
 20
32.78697636724124
 30
0.0
 40
3.5
 41
34.13541442945104
 46
3.5
 71
     5
 72
     1
  1
{\fＭＳ ゴシック;\W0.714286;G94001-01-23Z07}
 73
     1
 44
1.0
  0
ENDSEC
  0
SECTION
  2
OBJECTS
  0
DICTIONARY
  5
C
330
0
100
AcDbDictionary
281
     1
  3
ACAD_DETAILVIEWSTYLE
350
5E5
  3
ACAD_GROUP
350
D
  3
ACAD_LAYOUT
350
1A
  3
ACAD_MATERIAL
350
43
  3
ACAD_MLEADERSTYLE
350
6B
  3
ACAD_MLINESTYLE
350
17
  3
ACAD_PLOTSETTINGS
350
19
  3
ACAD_PLOTSTYLENAME
350
E
  3
ACAD_SCALELIST
350
47
  3
ACAD_SECTIONVIEWSTYLE
350
5E6
  3
ACAD_TABLESTYLE
350
69
  3
ACAD_VISUALSTYLE
350
2A
  3
ACDB_RECOMPOSE_DATA
350
5E2
  3
AcDbVariableDictionary
350
5DE
  0
SUN
  5
6D
330
29
100
AcDbSun
 90
        1
290
     0
 63
     7
421
 16777215
 40
1.0
291
     1
 91
  2455826
 92
 54000000
292
     0
 70
     2
 71
   256
280
     1
  0
DICTIONARY
  5
5E5
102
{ACAD_REACTORS
330
C
102
}
330
C
100
AcDbDictionary
281
     1
  0
DICTIONARY
  5
D
102
{ACAD_REACTORS
330
C
102
}
330
C
100
AcDbDictionary
281
     1
  0
DICTIONARY
  5
1A
102
{ACAD_REACTORS
330
C
102
}
330
C
100
AcDbDictionary
281
     1
  3
Layout1
350
1E
  3
Layout2
350
26
  3
Model
350
22
  0
DICTIONARY
  5
43
102
{ACAD_REACTORS
330
C
102
}
330
C
100
AcDbDictionary
281
     1
  3
ByBlock
350
45
  3
ByLayer
350
44
  3
Global
350
46
  0
DICTIONARY
  5
6B
102
{ACAD_REACTORS
330
C
102
}
330
C
100
AcDbDictionary
281
     1
  3
Standard
350
6C
  0
DICTIONARY
  5
17
102
{ACAD_REACTORS
330
C
102
}
330
C
100
AcDbDictionary
281
     1
  3
Standard
350
18
  0
DICTIONARY
  5
19
102
{ACAD_REACTORS
330
C
102
}
330
C
100
AcDbDictionary
281
     1
  0
ACDBDICTIONARYWDFLT
  5
E
102
{ACAD_REACTORS
330
C
102
}
330
C
100
AcDbDictionary
281
     1
  3
Normal
350
F
100
AcDbDictionaryWithDefault
340
F
  0
DICTIONARY
  5
47
102
{ACAD_REACTORS
330
C
102
}
330
C
100
AcDbDictionary
281
     1
  3
A0
350
48
  3
A1
350
49
  3
A2
350
4A
  3
A3
350
4B
  3
A4
350
4C
  3
A5
350
4D
  3
A6
350
4E
  3
A7
350
4F
  3
A8
350
50
  3
A9
350
51
  3
B0
350
52
  3
B1
350
53
  3
B2
350
54
  3
B3
350
55
  3
B4
350
56
  3
B5
350
57
  3
B6
350
58
  3
B7
350
59
  3
B8
350
5A
  3
B9
350
5B
  3
C0
350
5C
  3
C1
350
5D
  3
C2
350
5E
  3
C3
350
5F
  3
C4
350
60
  3
C5
350
61
  3
C6
350
62
  3
C7
350
63
  3
C8
350
64
  3
C9
350
65
  3
D0
350
66
  3
D1
350
67
  3
D2
350
68
  0
DICTIONARY
  5
5E6
102
{ACAD_REACTORS
330
C
102
}
330
C
100
AcDbDictionary
281
     1
  0
DICTIONARY
  5
69
102
{ACAD_REACTORS
330
C
102
}
330
C
100
AcDbDictionary
281
     1
  3
Standard
350
6A
  0
DICTIONARY
  5
2A
102
{ACAD_REACTORS
330
C
102
}
330
C
100
AcDbDictionary
281
     1
  3
2dWireframe
350
2F
  3
Basic
350
32
  3
Brighten
350
36
  3
ColorChange
350
3A
  3
Conceptual
350
34
  3
Dim
350
35
  3
EdgeColorOff
350
3D
  3
Facepattern
350
39
  3
Flat
350
2B
  3
FlatWithEdges
350
2C
  3
Gouraud
350
2D
  3
GouraudWithEdges
350
2E
  3
Hidden
350
31
  3
JitterOff
350
3B
  3
Linepattern
350
38
  3
OverhangOff
350
3C
  3
Realistic
350
33
  3
Shaded
350
42
  3
Shaded with edges
350
41
  3
Shades of Gray
350
3E
  3
Sketchy
350
3F
  3
Thicken
350
37
  3
Wireframe
350
30
  3
X-Ray
350
40
  0
XRECORD
  5
5E2
102
{ACAD_REACTORS
330
C
102
}
330
C
100
AcDbXrecord
280
     1
 90
        1
330
6A
  0
DICTIONARY
  5
5DE
102
{ACAD_REACTORS
330
C
102
}
330
C
100
AcDbDictionary
281
     1
  3
CANNOSCALE
350
5DF
  3
CMLEADERSTYLE
350
5E4
  3
CTABLESTYLE
350
5E3
  0
LAYOUT
  5
1E
102
{ACAD_REACTORS
330
1A
102
}
330
1A
100
AcDbPlotSettings
  1

  2
none_device
  4

  6

 40
0.0
 41
0.0
 42
0.0
 43
0.0
 44
0.0
 45
0.0
 46
0.0
 47
0.0
 48
0.0
 49
0.0
140
0.0
141
0.0
142
1.0
143
1.0
 70
   688
 72
     0
 73
     0
 74
     5
  7

 75
    16
 76
     0
 77
     2
 78
   300
147
1.0
148
0.0
149
0.0
100
AcDbLayout
  1
Layout1
 70
     1
 71
     1
 10
0.0
 20
0.0
 11
420.0
 21
297.0
 12
0.0
 22
0.0
 32
0.0
 14
0.0
 24
0.0
 34
0.0
 15
420.0
 25
297.0
 35
0.0
146
0.0
 13
0.0
 23
0.0
 33
0.0
 16
1.0
 26
0.0
 36
0.0
 17
0.0
 27
1.0
 37
0.0
 76
     0
330
1B
  0
LAYOUT
  5
26
102
{ACAD_REACTORS
330
1A
102
}
330
1A
100
AcDbPlotSettings
  1

  2
none_device
  4

  6

 40
0.0
 41
0.0
 42
0.0
 43
0.0
 44
0.0
 45
0.0
 46
0.0
 47
0.0
 48
0.0
 49
0.0
140
0.0
141
0.0
142
1.0
143
1.0
 70
   688
 72
     0
 73
     0
 74
     5
  7

 75
    16
 76
     0
 77
     2
 78
   300
147
1.0
148
0.0
149
0.0
100
AcDbLayout
  1
Layout2
 70
     1
 71
     2
 10
0.0
 20
0.0
 11
0.0
 21
0.0
 12
0.0
 22
0.0
 32
0.0
 14
0.0
 24
0.0
 34
0.0
 15
0.0
 25
0.0
 35
0.0
146
0.0
 13
0.0
 23
0.0
 33
0.0
 16
1.0
 26
0.0
 36
0.0
 17
0.0
 27
1.0
 37
0.0
 76
     0
330
23
  0
LAYOUT
  5
22
102
{ACAD_REACTORS
330
1A
102
}
330
1A
100
AcDbPlotSettings
  1

  2
none_device
  4
Letter_(8.50_x_11.00_Inches)
  6

 40
6.35
 41
6.35
 42
6.35000508
 43
6.35000508
 44
215.9
 45
279.4
 46
0.0
 47
0.0
 48
0.0
 49
0.0
140
0.0
141
0.0
142
1.0
143
1.0
 70
  1712
 72
     0
 73
     0
 74
     0
  7

 75
     0
 76
     0
 77
     2
 78
   300
147
1.0
148
0.0
149
0.0
100
AcDbLayout
  1
Model
 70
     1
 71
     0
 10
0.0
 20
0.0
 11
420.0
 21
297.0
 12
0.0
 22
0.0
 32
0.0
 14
-2561.120760679875
 24
0.0
 34
0.0
 15
31995.00000000001
 25
14377.5
 35
0.0
146
0.0
 13
0.0
 23
0.0
 33
0.0
 16
1.0
 26
0.0
 36
0.0
 17
0.0
 27
1.0
 37
0.0
 76
     0
330
1F
331
29
  0
MATERIAL
  5
45
102
{ACAD_REACTORS
330
43
102
}
330
43
100
AcDbMaterial
  1
ByBlock
 72
     1
 94
      127
  0
MATERIAL
  5
44
102
{ACAD_REACTORS
330
43
102
}
330
43
100
AcDbMaterial
  1
ByLayer
 72
     1
 94
      127
  0
MATERIAL
  5
46
102
{ACAD_REACTORS
330
43
102
}
330
43
100
AcDbMaterial
  1
Global
 72
     1
 94
      127
  0
MLEADERSTYLE
  5
6C
102
{ACAD_REACTORS
330
6B
102
}
330
6B
100
AcDbMLeaderStyle
179
     2
170
     2
171
     1
172
     0
 90
        2
 40
0.0
 41
0.0
173
     1
 91
-1056964608
340
14
 92
       -2
290
     1
 42
0.09
291
     1
 43
0.36
  3
Standard
341
0
 44
0.18
300

342
11
174
     1
178
     6
175
     1
176
     0
 93
-1056964608
 45
0.18
292
     0
297
     0
 46
0.18
343
0
 94
-1056964608
 47
1.0
 49
1.0
140
1.0
293
     1
141
0.0
294
     1
177
     0
142
1.0
295
     0
296
     0
143
0.125
271
     0
272
     9
273
     9
298
     0
  0
MLINESTYLE
  5
18
102
{ACAD_REACTORS
330
17
102
}
330
17
100
AcDbMlineStyle
  2
Standard
 70
     0
  3

 62
   256
 51
90.0
 52
90.0
 71
     2
 49
0.5
 62
   256
  6
BYLAYER
 49
-0.5
 62
   256
  6
BYLAYER
  0
ACDBPLACEHOLDER
  5
F
102
{ACAD_REACTORS
330
E
102
}
330
E
  0
SCALE
  5
48
102
{ACAD_REACTORS
330
47
102
}
330
47
100
AcDbScale
 70
     0
300
1:1
140
1.0
141
1.0
290
     1
  0
SCALE
  5
49
102
{ACAD_REACTORS
330
47
102
}
330
47
100
AcDbScale
 70
     0
300
1:2
140
1.0
141
2.0
290
     0
  0
SCALE
  5
4A
102
{ACAD_REACTORS
330
47
102
}
330
47
100
AcDbScale
 70
     0
300
1:4
140
1.0
141
4.0
290
     0
  0
SCALE
  5
4B
102
{ACAD_REACTORS
330
47
102
}
330
47
100
AcDbScale
 70
     0
300
1:5
140
1.0
141
5.0
290
     0
  0
SCALE
  5
4C
102
{ACAD_REACTORS
330
47
102
}
330
47
100
AcDbScale
 70
     0
300
1:8
140
1.0
141
8.0
290
     0
  0
SCALE
  5
4D
102
{ACAD_REACTORS
330
47
102
}
330
47
100
AcDbScale
 70
     0
300
1:10
140
1.0
141
10.0
290
     0
  0
SCALE
  5
4E
102
{ACAD_REACTORS
330
47
102
}
330
47
100
AcDbScale
 70
     0
300
1:16
140
1.0
141
16.0
290
     0
  0
SCALE
  5
4F
102
{ACAD_REACTORS
330
47
102
}
330
47
100
AcDbScale
 70
     0
300
1:20
140
1.0
141
20.0
290
     0
  0
SCALE
  5
50
102
{ACAD_REACTORS
330
47
102
}
330
47
100
AcDbScale
 70
     0
300
1:30
140
1.0
141
30.0
290
     0
  0
SCALE
  5
51
102
{ACAD_REACTORS
330
47
102
}
330
47
100
AcDbScale
 70
     0
300
1:40
140
1.0
141
40.0
290
     0
  0
SCALE
  5
52
102
{ACAD_REACTORS
330
47
102
}
330
47
100
AcDbScale
 70
     0
300
1:50
140
1.0
141
50.0
290
     0
  0
SCALE
  5
53
102
{ACAD_REACTORS
330
47
102
}
330
47
100
AcDbScale
 70
     0
300
1:100
140
1.0
141
100.0
290
     0
  0
SCALE
  5
54
102
{ACAD_REACTORS
330
47
102
}
330
47
100
AcDbScale
 70
     0
300
2:1
140
2.0
141
1.0
290
     0
  0
SCALE
  5
55
102
{ACAD_REACTORS
330
47
102
}
330
47
100
AcDbScale
 70
     0
300
4:1
140
4.0
141
1.0
290
     0
  0
SCALE
  5
56
102
{ACAD_REACTORS
330
47
102
}
330
47
100
AcDbScale
 70
     0
300
8:1
140
8.0
141
1.0
290
     0
  0
SCALE
  5
57
102
{ACAD_REACTORS
330
47
102
}
330
47
100
AcDbScale
 70
     0
300
10:1
140
10.0
141
1.0
290
     0
  0
SCALE
  5
58
102
{ACAD_REACTORS
330
47
102
}
330
47
100
AcDbScale
 70
     0
300
100:1
140
100.0
141
1.0
290
     0
  0
SCALE
  5
59
102
{ACAD_REACTORS
330
47
102
}
330
47
100
AcDbScale
 70
     0
300
1/128" = 1'-0"
140
0.0078125
141
12.0
290
     0
  0
SCALE
  5
5A
102
{ACAD_REACTORS
330
47
102
}
330
47
100
AcDbScale
 70
     0
300
1/64" = 1'-0"
140
0.015625
141
12.0
290
     0
  0
SCALE
  5
5B
102
{ACAD_REACTORS
330
47
102
}
330
47
100
AcDbScale
 70
     0
300
1/32" = 1'-0"
140
0.03125
141
12.0
290
     0
  0
SCALE
  5
5C
102
{ACAD_REACTORS
330
47
102
}
330
47
100
AcDbScale
 70
     0
300
1/16" = 1'-0"
140
0.0625
141
12.0
290
     0
  0
SCALE
  5
5D
102
{ACAD_REACTORS
330
47
102
}
330
47
100
AcDbScale
 70
     0
300
3/32" = 1'-0"
140
0.09375
141
12.0
290
     0
  0
SCALE
  5
5E
102
{ACAD_REACTORS
330
47
102
}
330
47
100
AcDbScale
 70
     0
300
1/8" = 1'-0"
140
0.125
141
12.0
290
     0
  0
SCALE
  5
5F
102
{ACAD_REACTORS
330
47
102
}
330
47
100
AcDbScale
 70
     0
300
3/16" = 1'-0"
140
0.1875
141
12.0
290
     0
  0
SCALE
  5
60
102
{ACAD_REACTORS
330
47
102
}
330
47
100
AcDbScale
 70
     0
300
1/4" = 1'-0"
140
0.25
141
12.0
290
     0
  0
SCALE
  5
61
102
{ACAD_REACTORS
330
47
102
}
330
47
100
AcDbScale
 70
     0
300
3/8" = 1'-0"
140
0.375
141
12.0
290
     0
  0
SCALE
  5
62
102
{ACAD_REACTORS
330
47
102
}
330
47
100
AcDbScale
 70
     0
300
1/2" = 1'-0"
140
0.5
141
12.0
290
     0
  0
SCALE
  5
63
102
{ACAD_REACTORS
330
47
102
}
330
47
100
AcDbScale
 70
     0
300
3/4" = 1'-0"
140
0.75
141
12.0
290
     0
  0
SCALE
  5
64
102
{ACAD_REACTORS
330
47
102
}
330
47
100
AcDbScale
 70
     0
300
1" = 1'-0"
140
1.0
141
12.0
290
     0
  0
SCALE
  5
65
102
{ACAD_REACTORS
330
47
102
}
330
47
100
AcDbScale
 70
     0
300
1-1/2" = 1'-0"
140
1.5
141
12.0
290
     0
  0
SCALE
  5
66
102
{ACAD_REACTORS
330
47
102
}
330
47
100
AcDbScale
 70
     0
300
3" = 1'-0"
140
3.0
141
12.0
290
     0
  0
SCALE
  5
67
102
{ACAD_REACTORS
330
47
102
}
330
47
100
AcDbScale
 70
     0
300
6" = 1'-0"
140
6.0
141
12.0
290
     0
  0
SCALE
  5
68
102
{ACAD_REACTORS
330
47
102
}
330
47
100
AcDbScale
 70
     0
300
1'-0" = 1'-0"
140
12.0
141
12.0
290
     0
  0
TABLESTYLE
  5
6A
102
{ACAD_REACTORS
330
69
102
}
102
{ACAD_XDICTIONARY
360
5E0
102
}
330
69
100
AcDbTableStyle
  3
Standard
 70
     0
 71
     0
 40
0.06
 41
0.06
280
     0
281
     0
  7
Standard
140
0.18
170
     2
 62
     0
 63
   257
283
     0
 90
        4
 91
        0
  1

274
    -2
284
     1
 64
     0
275
    -2
285
     1
 65
     0
276
    -2
286
     1
 66
     0
277
    -2
287
     1
 67
     0
278
    -2
288
     1
 68
     0
279
    -2
289
     1
 69
     0
  7
Standard
140
0.25
170
     5
 62
     0
 63
   257
283
     0
 90
        4
 91
        0
  1

274
    -2
284
     1
 64
     0
275
    -2
285
     1
 65
     0
276
    -2
286
     1
 66
     0
277
    -2
287
     1
 67
     0
278
    -2
288
     1
 68
     0
279
    -2
289
     1
 69
     0
  7
Standard
140
0.18
170
     5
 62
     0
 63
   257
283
     0
 90
        4
 91
        0
  1

274
    -2
284
     1
 64
     0
275
    -2
285
     1
 65
     0
276
    -2
286
     1
 66
     0
277
    -2
287
     1
 67
     0
278
    -2
288
     1
 68
     0
279
    -2
289
     1
 69
     0
  0
VISUALSTYLE
  5
2F
102
{ACAD_REACTORS
330
2A
102
}
330
2A
100
AcDbVisualStyle
  2
2dWireframe
 70
     4
177
     3
291
     0
 70
    58
 90
        0
176
     1
 90
        2
176
     1
 90
        0
176
     1
 90
        0
176
     1
 40
0.6
176
     1
 40
30.0
176
     1
 62
     7
420
 16777215
176
     1
 90
        1
176
     1
 90
        4
176
     1
 62
     7
176
     1
 62
   257
176
     1
 90
        1
176
     1
 90
        1
176
     1
 40
1.0
176
     1
 90
        0
176
     1
 62
   257
176
     1
 40
1.0
176
     1
 90
        1
176
     1
 90
        6
176
     1
 90
        2
176
     1
 62
     7
176
     1
 90
        5
176
     1
 90
        0
176
     1
 90
        0
176
     1
290
     0
176
     1
 90
        1
176
     1
 40
0.0
176
     1
 90
        0
176
     1
290
     1
176
     1
290
     1
176
     1
290
     0
176
     1
290
     0
176
     1
290
     0
176
     1
290
     0
176
     1
290
     0
176
     1
290
     0
176
     1
290
     0
176
     1
 90
       50
176
     1
 40
0.0
176
     1
 40
1.0
176
     1
 90
        0
176
     1
 62
    18
420
        0
176
     1
 90
       50
176
     1
 90
        3
176
     1
 62
     5
420
      255
176
     1
290
     0
176
     1
 90
       50
176
     1
 90
       50
176
     1
 90
       50
176
     1
290
     0
176
     1
 90
       50
176
     1
 62
   256
176
     0
 40
1.0
176
     0
 90
        2
176
     1
  1
strokes_ogs.tif
176
     1
290
     0
176
     1
 40
1.0
176
     1
 40
1.0
176
     1
  0
VISUALSTYLE
  5
32
102
{ACAD_REACTORS
330
2A
102
}
330
2A
100
AcDbVisualStyle
  2
Basic
 70
     7
177
     3
291
     1
 70
    58
 90
        1
176
     1
 90
        0
176
     1
 90
        1
176
     1
 90
        0
176
     1
 40
0.6
176
     1
 40
30.0
176
     1
 62
     7
420
 16777215
176
     1
 90
        0
176
     1
 90
        4
176
     1
 62
     7
176
     1
 62
   257
176
     1
 90
        1
176
     1
 90
        1
176
     1
 40
1.0
176
     1
 90
        8
176
     1
 62
     7
176
     1
 40
1.0
176
     1
 90
        1
176
     1
 90
        6
176
     1
 90
        2
176
     1
 62
     7
176
     1
 90
        5
176
     1
 90
        0
176
     1
 90
        0
176
     1
290
     0
176
     1
 90
        1
176
     1
 40
0.0
176
     1
 90
        0
176
     1
290
     0
176
     1
290
     1
176
     1
290
     1
176
     1
290
     0
176
     1
290
     0
176
     1
290
     0
176
     1
290
     0
176
     1
290
     0
176
     1
290
     0
176
     1
 90
       50
176
     1
 40
0.0
176
     1
 40
1.0
176
     1
 90
        0
176
     1
 62
    18
420
        0
176
     1
 90
       50
176
     1
 90
        3
176
     1
 62
     5
420
      255
176
     1
290
     0
176
     1
 90
       50
176
     1
 90
       50
176
     1
 90
       50
176
     1
290
     0
176
     1
 90
       50
176
     1
 62
   256
176
     0
 40
1.0
176
     0
 90
        2
176
     1
  1
strokes_ogs.tif
176
     1
290
     0
176
     1
 40
1.0
176
     1
 40
1.0
176
     1
  0
VISUALSTYLE
  5
36
102
{ACAD_REACTORS
330
2A
102
}
330
2A
100
AcDbVisualStyle
  2
Brighten
 70
    12
177
     3
291
     1
 70
    58
 90
        2
176
     1
 90
        2
176
     1
 90
        0
176
     1
 90
        0
176
     1
 40
0.6
176
     1
 40
30.0
176
     1
 62
     7
420
 16777215
176
     1
 90
        1
176
     1
 90
        4
176
     1
 62
     7
176
     1
 62
   257
176
     1
 90
        1
176
     1
 90
        1
176
     1
 40
1.0
176
     1
 90
        8
176
     1
 62
     7
176
     1
 40
1.0
176
     1
 90
        1
176
     1
 90
        6
176
     1
 90
        2
176
     1
 62
     7
176
     1
 90
        5
176
     1
 90
        0
176
     1
 90
        0
176
     1
290
     0
176
     1
 90
        1
176
     1
 40
50.0
176
     1
 90
        0
176
     1
290
     0
176
     1
290
     1
176
     1
290
     1
176
     1
290
     0
176
     1
290
     0
176
     1
290
     0
176
     1
290
     0
176
     1
290
     0
176
     1
290
     0
176
     1
 90
       50
176
     1
 40
0.0
176
     1
 40
1.0
176
     1
 90
        0
176
     1
 62
    18
420
        0
176
     1
 90
       50
176
     1
 90
        3
176
     1
 62
     5
420
      255
176
     1
290
     0
176
     1
 90
       50
176
     1
 90
       50
176
     1
 90
       50
176
     1
290
     0
176
     1
 90
       50
176
     1
 62
   256
176
     0
 40
1.0
176
     0
 90
        2
176
     1
  1
strokes_ogs.tif
176
     1
290
     0
176
     1
 40
1.0
176
     1
 40
1.0
176
     1
  0
VISUALSTYLE
  5
3A
102
{ACAD_REACTORS
330
2A
102
}
330
2A
100
AcDbVisualStyle
  2
ColorChange
 70
    16
177
     3
291
     1
 70
    58
 90
        2
176
     1
 90
        2
176
     1
 90
        3
176
     1
 90
        0
176
     1
 40
0.6
176
     1
 40
30.0
176
     1
 62
     8
420
  8421504
176
     1
 90
        1
176
     1
 90
        4
176
     1
 62
     7
176
     1
 62
   257
176
     1
 90
        1
176
     1
 90
        1
176
     1
 40
1.0
176
     1
 90
        8
176
     1
 62
     8
420
  8421504
176
     1
 40
1.0
176
     1
 90
        1
176
     1
 90
        6
176
     1
 90
        2
176
     1
 62
     7
176
     1
 90
        5
176
     1
 90
        0
176
     1
 90
        0
176
     1
290
     0
176
     1
 90
        1
176
     1
 40
0.0
176
     1
 90
        0
176
     1
290
     0
176
     1
290
     1
176
     1
290
     1
176
     1
290
     0
176
     1
290
     0
176
     1
290
     0
176
     1
290
     0
176
     1
290
     0
176
     1
290
     0
176
     1
 90
       50
176
     1
 40
0.0
176
     1
 40
1.0
176
     1
 90
        0
176
     1
 62
    18
420
        0
176
     1
 90
       50
176
     1
 90
        3
176
     1
 62
     5
420
      255
176
     1
290
     0
176
     1
 90
       50
176
     1
 90
       50
176
     1
 90
       50
176
     1
290
     0
176
     1
 90
       50
176
     1
 62
   256
176
     0
 40
1.0
176
     0
 90
        2
176
     1
  1
strokes_ogs.tif
176
     1
290
     0
176
     1
 40
1.0
176
     1
 40
1.0
176
     1
  0
VISUALSTYLE
  5
34
102
{ACAD_REACTORS
330
2A
102
}
330
2A
100
AcDbVisualStyle
  2
Conceptual
 70
     9
177
     3
291
     0
 70
    58
 90
        3
176
     1
 90
        2
176
     1
 90
        0
176
     1
 90
        0
176
     1
 40
0.6
176
     1
 40
30.0
176
     1
 62
     7
420
 16777215
176
     1
 90
        2
176
     1
 90
        2
176
     1
 62
     7
176
     1
 62
   257
176
     1
 90
        1
176
     1
 90
        1
176
     1
 40
179.0
176
     1
 90
        8
176
     1
 62
     7
176
     1
 40
1.0
176
     1
 90
        1
176
     1
 90
        6
176
     1
 90
        2
176
     1
 62
     7
176
     1
 90
        3
176
     1
 90
        0
176
     1
 90
        0
176
     1
290
     0
176
     1
 90
        1
176
     1
 40
0.0
176
     1
 90
        0
176
     1
290
     0
176
     1
290
     1
176
     1
290
     1
176
     1
290
     0
176
     1
290
     0
176
     1
290
     0
176
     1
290
     0
176
     1
290
     0
176
     1
290
     0
176
     1
 90
       50
176
     1
 40
0.0
176
     1
 40
1.0
176
     1
 90
        0
176
     1
 62
    18
420
        0
176
     1
 90
       50
176
     1
 90
        3
176
     1
 62
     5
420
      255
176
     1
290
     0
176
     1
 90
       50
176
     1
 90
       50
176
     1
 90
       50
176
     1
290
     0
176
     1
 90
       50
176
     1
 62
   256
176
     0
 40
1.0
176
     0
 90
        2
176
     1
  1
strokes_ogs.tif
176
     1
290
     0
176
     1
 40
1.0
176
     1
 40
1.0
176
     1
  0
VISUALSTYLE
  5
35
102
{ACAD_REACTORS
330
2A
102
}
330
2A
100
AcDbVisualStyle
  2
Dim
 70
    11
177
     3
291
     1
 70
    58
 90
        2
176
     1
 90
        2
176
     1
 90
        0
176
     1
 90
        0
176
     1
 40
0.6
176
     1
 40
30.0
176
     1
 62
     7
420
 16777215
176
     1
 90
        1
176
     1
 90
        4
176
     1
 62
     7
176
     1
 62
   257
176
     1
 90
        1
176
     1
 90
        1
176
     1
 40
1.0
176
     1
 90
        8
176
     1
 62
     7
176
     1
 40
1.0
176
     1
 90
        1
176
     1
 90
        6
176
     1
 90
        2
176
     1
 62
     7
176
     1
 90
        5
176
     1
 90
        0
176
     1
 90
        0
176
     1
290
     0
176
     1
 90
        1
176
     1
 40
-50.0
176
     1
 90
        0
176
     1
290
     0
176
     1
290
     1
176
     1
290
     1
176
     1
290
     0
176
     1
290
     0
176
     1
290
     0
176
     1
290
     0
176
     1
290
     0
176
     1
290
     0
176
     1
 90
       50
176
     1
 40
0.0
176
     1
 40
1.0
176
     1
 90
        0
176
     1
 62
    18
420
        0
176
     1
 90
       50
176
     1
 90
        3
176
     1
 62
     5
420
      255
176
     1
290
     0
176
     1
 90
       50
176
     1
 90
       50
176
     1
 90
       50
176
     1
290
     0
176
     1
 90
       50
176
     1
 62
   256
176
     0
 40
1.0
176
     0
 90
        2
176
     1
  1
strokes_ogs.tif
176
     1
290
     0
176
     1
 40
1.0
176
     1
 40
1.0
176
     1
  0
VISUALSTYLE
  5
3D
102
{ACAD_REACTORS
330
2A
102
}
330
2A
100
AcDbVisualStyle
  2
EdgeColorOff
 70
    22
177
     3
291
     1
 70
    58
 90
        2
176
     0
 90
        2
176
     0
 90
        0
176
     0
 90
        0
176
     0
 40
0.6
176
     0
 40
30.0
176
     0
 62
     7
420
 16777215
176
     0
 90
        1
176
     0
 90
        4
176
     0
 62
     7
176
     0
 62
   257
176
     0
 90
        1
176
     0
 90
        1
176
     0
 40
1.0
176
     0
 90
        8
176
     2
 62
     7
176
     0
 40
1.0
176
     0
 90
        1
176
     0
 90
        6
176
     0
 90
        2
176
     0
 62
     7
176
     0
 90
        5
176
     0
 90
        0
176
     0
 90
        0
176
     0
290
     0
176
     0
 90
        1
176
     0
 40
0.0
176
     0
 90
        0
176
     0
290
     0
176
     0
290
     1
176
     0
290
     1
176
     0
290
     0
176
     0
290
     0
176
     0
290
     0
176
     0
290
     0
176
     0
290
     0
176
     0
290
     0
176
     0
 90
       50
176
     0
 40
0.0
176
     0
 40
1.0
176
     0
 90
        0
176
     0
 62
    18
420
        0
176
     0
 90
       50
176
     0
 90
        3
176
     0
 62
     5
420
      255
176
     0
290
     0
176
     0
 90
       50
176
     0
 90
       50
176
     0
 90
       50
176
     0
290
     0
176
     0
 90
       50
176
     0
 62
   256
176
     0
 40
1.0
176
     0
 90
        2
176
     0
  1
strokes_ogs.tif
176
     0
290
     0
176
     0
 40
1.0
176
     0
 40
1.0
176
     0
  0
VISUALSTYLE
  5
39
102
{ACAD_REACTORS
330
2A
102
}
330
2A
100
AcDbVisualStyle
  2
Facepattern
 70
    15
177
     3
291
     1
 70
    58
 90
        2
176
     1
 90
        2
176
     1
 90
        0
176
     1
 90
        0
176
     1
 40
0.6
176
     1
 40
30.0
176
     1
 62
     7
420
 16777215
176
     1
 90
        1
176
     1
 90
        4
176
     1
 62
     7
176
     1
 62
   257
176
     1
 90
        1
176
     1
 90
        1
176
     1
 40
1.0
176
     1
 90
        8
176
     1
 62
     7
176
     1
 40
1.0
176
     1
 90
        1
176
     1
 90
        6
176
     1
 90
        2
176
     1
 62
     7
176
     1
 90
        5
176
     1
 90
        0
176
     1
 90
        0
176
     1
290
     0
176
     1
 90
        1
176
     1
 40
0.0
176
     1
 90
        0
176
     1
290
     0
176
     1
290
     1
176
     1
290
     1
176
     1
290
     0
176
     1
290
     0
176
     1
290
     0
176
     1
290
     0
176
     1
290
     0
176
     1
290
     0
176
     1
 90
       50
176
     1
 40
0.0
176
     1
 40
1.0
176
     1
 90
        0
176
     1
 62
    18
420
        0
176
     1
 90
       50
176
     1
 90
        3
176
     1
 62
     5
420
      255
176
     1
290
     0
176
     1
 90
       50
176
     1
 90
       50
176
     1
 90
       50
176
     1
290
     0
176
     1
 90
       50
176
     1
 62
   256
176
     0
 40
1.0
176
     0
 90
        2
176
     1
  1
strokes_ogs.tif
176
     1
290
     0
176
     1
 40
1.0
176
     1
 40
1.0
176
     1
  0
VISUALSTYLE
  5
2B
102
{ACAD_REACTORS
330
2A
102
}
330
2A
100
AcDbVisualStyle
  2
Flat
 70
     0
177
     3
291
     1
 70
    58
 90
        2
176
     1
 90
        1
176
     1
 90
        1
176
     1
 90
        2
176
     1
 40
0.6
176
     1
 40
30.0
176
     1
 62
     7
420
 16777215
176
     1
 90
        0
176
     1
 90
        0
176
     1
 62
     7
176
     1
 62
   257
176
     1
 90
        1
176
     1
 90
        1
176
     1
 40
1.0
176
     1
 90
        8
176
     1
 62
     7
176
     1
 40
1.0
176
     1
 90
        1
176
     1
 90
        6
176
     1
 90
        2
176
     1
 62
     7
176
     1
 90
        5
176
     1
 90
        0
176
     1
 90
        0
176
     1
290
     0
176
     1
 90
       13
176
     1
 40
0.0
176
     1
 90
        0
176
     1
290
     0
176
     1
290
     1
176
     1
290
     1
176
     1
290
     0
176
     1
290
     0
176
     1
290
     0
176
     1
290
     0
176
     1
290
     0
176
     1
290
     0
176
     1
 90
       50
176
     1
 40
0.0
176
     1
 40
1.0
176
     1
 90
        0
176
     1
 62
    18
420
        0
176
     1
 90
       50
176
     1
 90
        3
176
     1
 62
     5
420
      255
176
     1
290
     0
176
     1
 90
       50
176
     1
 90
       50
176
     1
 90
       50
176
     1
290
     0
176
     1
 90
       50
176
     1
 62
   256
176
     0
 40
1.0
176
     0
 90
        2
176
     1
  1
strokes_ogs.tif
176
     1
290
     0
176
     1
 40
1.0
176
     1
 40
1.0
176
     1
  0
VISUALSTYLE
  5
2C
102
{ACAD_REACTORS
330
2A
102
}
330
2A
100
AcDbVisualStyle
  2
FlatWithEdges
 70
     1
177
     3
291
     1
 70
    58
 90
        2
176
     1
 90
        1
176
     1
 90
        1
176
     1
 90
        2
176
     1
 40
0.6
176
     1
 40
30.0
176
     1
 62
     7
420
 16777215
176
     1
 90
        1
176
     1
 90
        0
176
     1
 62
     7
176
     1
 62
   257
176
     1
 90
        1
176
     1
 90
        1
176
     1
 40
1.0
176
     1
 90
        0
176
     1
 62
   257
176
     1
 40
1.0
176
     1
 90
        1
176
     1
 90
        6
176
     1
 90
        2
176
     1
 62
     7
176
     1
 90
        5
176
     1
 90
        0
176
     1
 90
        0
176
     1
290
     0
176
     1
 90
       13
176
     1
 40
0.0
176
     1
 90
        0
176
     1
290
     0
176
     1
290
     1
176
     1
290
     1
176
     1
290
     0
176
     1
290
     0
176
     1
290
     0
176
     1
290
     0
176
     1
290
     0
176
     1
290
     0
176
     1
 90
       50
176
     1
 40
0.0
176
     1
 40
1.0
176
     1
 90
        0
176
     1
 62
    18
420
        0
176
     1
 90
       50
176
     1
 90
        3
176
     1
 62
     5
420
      255
176
     1
290
     0
176
     1
 90
       50
176
     1
 90
       50
176
     1
 90
       50
176
     1
290
     0
176
     1
 90
       50
176
     1
 62
   256
176
     0
 40
1.0
176
     0
 90
        2
176
     1
  1
strokes_ogs.tif
176
     1
290
     0
176
     1
 40
1.0
176
     1
 40
1.0
176
     1
  0
VISUALSTYLE
  5
2D
102
{ACAD_REACTORS
330
2A
102
}
330
2A
100
AcDbVisualStyle
  2
Gouraud
 70
     2
177
     3
291
     1
 70
    58
 90
        2
176
     1
 90
        2
176
     1
 90
        1
176
     1
 90
        2
176
     1
 40
0.6
176
     1
 40
30.0
176
     1
 62
     7
420
 16777215
176
     1
 90
        0
176
     1
 90
        0
176
     1
 62
     7
176
     1
 62
   257
176
     1
 90
        1
176
     1
 90
        1
176
     1
 40
1.0
176
     1
 90
        0
176
     1
 62
     7
176
     1
 40
1.0
176
     1
 90
        1
176
     1
 90
        6
176
     1
 90
        2
176
     1
 62
     7
176
     1
 90
        5
176
     1
 90
        0
176
     1
 90
        0
176
     1
290
     0
176
     1
 90
       13
176
     1
 40
0.0
176
     1
 90
        0
176
     1
290
     0
176
     1
290
     1
176
     1
290
     1
176
     1
290
     0
176
     1
290
     0
176
     1
290
     0
176
     1
290
     0
176
     1
290
     0
176
     1
290
     0
176
     1
 90
       50
176
     1
 40
0.0
176
     1
 40
1.0
176
     1
 90
        0
176
     1
 62
    18
420
        0
176
     1
 90
       50
176
     1
 90
        3
176
     1
 62
     5
420
      255
176
     1
290
     0
176
     1
 90
       50
176
     1
 90
       50
176
     1
 90
       50
176
     1
290
     0
176
     1
 90
       50
176
     1
 62
   256
176
     0
 40
1.0
176
     0
 90
        2
176
     1
  1
strokes_ogs.tif
176
     1
290
     0
176
     1
 40
1.0
176
     1
 40
1.0
176
     1
  0
VISUALSTYLE
  5
2E
102
{ACAD_REACTORS
330
2A
102
}
330
2A
100
AcDbVisualStyle
  2
GouraudWithEdges
 70
     3
177
     3
291
     1
 70
    58
 90
        2
176
     1
 90
        2
176
     1
 90
        1
176
     1
 90
        2
176
     1
 40
0.6
176
     1
 40
30.0
176
     1
 62
     7
420
 16777215
176
     1
 90
        1
176
     1
 90
        0
176
     1
 62
     7
176
     1
 62
   257
176
     1
 90
        1
176
     1
 90
        1
176
     1
 40
1.0
176
     1
 90
        0
176
     1
 62
   257
176
     1
 40
1.0
176
     1
 90
        1
176
     1
 90
        6
176
     1
 90
        2
176
     1
 62
     7
176
     1
 90
        5
176
     1
 90
        0
176
     1
 90
        0
176
     1
290
     0
176
     1
 90
       13
176
     1
 40
0.0
176
     1
 90
        0
176
     1
290
     0
176
     1
290
     1
176
     1
290
     1
176
     1
290
     0
176
     1
290
     0
176
     1
290
     0
176
     1
290
     0
176
     1
290
     0
176
     1
290
     0
176
     1
 90
       50
176
     1
 40
0.0
176
     1
 40
1.0
176
     1
 90
        0
176
     1
 62
    18
420
        0
176
     1
 90
       50
176
     1
 90
        3
176
     1
 62
     5
420
      255
176
     1
290
     0
176
     1
 90
       50
176
     1
 90
       50
176
     1
 90
       50
176
     1
290
     0
176
     1
 90
       50
176
     1
 62
   256
176
     0
 40
1.0
176
     0
 90
        2
176
     1
  1
strokes_ogs.tif
176
     1
290
     0
176
     1
 40
1.0
176
     1
 40
1.0
176
     1
  0
VISUALSTYLE
  5
31
102
{ACAD_REACTORS
330
2A
102
}
330
2A
100
AcDbVisualStyle
  2
Hidden
 70
     6
177
     3
291
     0
 70
    58
 90
        1
176
     1
 90
        2
176
     1
 90
        2
176
     1
 90
        0
176
     1
 40
0.6
176
     1
 40
30.0
176
     1
 62
     7
420
 16777215
176
     1
 90
        2
176
     1
 90
        2
176
     1
 62
     7
176
     1
 62
   257
176
     1
 90
        2
176
     1
 90
        1
176
     1
 40
40.0
176
     1
 90
        0
176
     1
 62
   257
176
     1
 40
1.0
176
     1
 90
        1
176
     1
 90
        6
176
     1
 90
        2
176
     1
 62
     7
176
     1
 90
        3
176
     1
 90
        0
176
     1
 90
        0
176
     1
290
     0
176
     1
 90
        1
176
     1
 40
0.0
176
     1
 90
        0
176
     1
290
     0
176
     1
290
     1
176
     1
290
     1
176
     1
290
     0
176
     1
290
     0
176
     1
290
     0
176
     1
290
     0
176
     1
290
     0
176
     1
290
     0
176
     1
 90
       50
176
     1
 40
0.0
176
     1
 40
1.0
176
     1
 90
        0
176
     1
 62
    18
420
        0
176
     1
 90
       50
176
     1
 90
        3
176
     1
 62
     5
420
      255
176
     1
290
     0
176
     1
 90
       50
176
     1
 90
       50
176
     1
 90
       50
176
     1
290
     0
176
     1
 90
       50
176
     1
 62
   256
176
     0
 40
1.0
176
     0
 90
        2
176
     1
  1
strokes_ogs.tif
176
     1
290
     0
176
     1
 40
1.0
176
     1
 40
1.0
176
     1
  0
VISUALSTYLE
  5
3B
102
{ACAD_REACTORS
330
2A
102
}
330
2A
100
AcDbVisualStyle
  2
JitterOff
 70
    20
177
     3
291
     1
 70
    58
 90
        2
176
     0
 90
        2
176
     0
 90
        0
176
     0
 90
        0
176
     0
 40
0.6
176
     0
 40
30.0
176
     0
 62
     7
420
 16777215
176
     0
 90
        1
176
     0
 90
        4
176
     0
 62
     7
176
     0
 62
   257
176
     0
 90
        1
176
     0
 90
        1
176
     0
 40
1.0
176
     0
 90
       10
176
     2
 62
     7
176
     0
 40
1.0
176
     0
 90
        1
176
     0
 90
        6
176
     0
 90
        2
176
     0
 62
     7
176
     0
 90
        5
176
     0
 90
        0
176
     0
 90
        0
176
     0
290
     0
176
     0
 90
        1
176
     0
 40
0.0
176
     0
 90
        0
176
     0
290
     0
176
     0
290
     1
176
     0
290
     1
176
     0
290
     0
176
     0
290
     0
176
     0
290
     0
176
     0
290
     0
176
     0
290
     0
176
     0
290
     0
176
     0
 90
       50
176
     0
 40
0.0
176
     0
 40
1.0
176
     0
 90
        0
176
     0
 62
    18
420
        0
176
     0
 90
       50
176
     0
 90
        3
176
     0
 62
     5
420
      255
176
     0
290
     0
176
     0
 90
       50
176
     0
 90
       50
176
     0
 90
       50
176
     0
290
     0
176
     0
 90
       50
176
     0
 62
   256
176
     0
 40
1.0
176
     0
 90
        2
176
     0
  1
strokes_ogs.tif
176
     0
290
     0
176
     0
 40
1.0
176
     0
 40
1.0
176
     0
  0
VISUALSTYLE
  5
38
102
{ACAD_REACTORS
330
2A
102
}
330
2A
100
AcDbVisualStyle
  2
Linepattern
 70
    14
177
     3
291
     1
 70
    58
 90
        2
176
     1
 90
        2
176
     1
 90
        0
176
     1
 90
        0
176
     1
 40
0.6
176
     1
 40
30.0
176
     1
 62
     7
420
 16777215
176
     1
 90
        1
176
     1
 90
        4
176
     1
 62
     7
176
     1
 62
   257
176
     1
 90
        7
176
     1
 90
        7
176
     1
 40
1.0
176
     1
 90
        8
176
     1
 62
     7
176
     1
 40
1.0
176
     1
 90
        1
176
     1
 90
        6
176
     1
 90
        2
176
     1
 62
     7
176
     1
 90
        5
176
     1
 90
        0
176
     1
 90
        0
176
     1
290
     0
176
     1
 90
        1
176
     1
 40
0.0
176
     1
 90
        0
176
     1
290
     0
176
     1
290
     1
176
     1
290
     1
176
     1
290
     0
176
     1
290
     0
176
     1
290
     0
176
     1
290
     0
176
     1
290
     0
176
     1
290
     0
176
     1
 90
       50
176
     1
 40
0.0
176
     1
 40
1.0
176
     1
 90
        0
176
     1
 62
    18
420
        0
176
     1
 90
       50
176
     1
 90
        3
176
     1
 62
     5
420
      255
176
     1
290
     0
176
     1
 90
       50
176
     1
 90
       50
176
     1
 90
       50
176
     1
290
     0
176
     1
 90
       50
176
     1
 62
   256
176
     0
 40
1.0
176
     0
 90
        2
176
     1
  1
strokes_ogs.tif
176
     1
290
     0
176
     1
 40
1.0
176
     1
 40
1.0
176
     1
  0
VISUALSTYLE
  5
3C
102
{ACAD_REACTORS
330
2A
102
}
330
2A
100
AcDbVisualStyle
  2
OverhangOff
 70
    21
177
     3
291
     1
 70
    58
 90
        2
176
     0
 90
        2
176
     0
 90
        0
176
     0
 90
        0
176
     0
 40
0.6
176
     0
 40
30.0
176
     0
 62
     7
420
 16777215
176
     0
 90
        1
176
     0
 90
        4
176
     0
 62
     7
176
     0
 62
   257
176
     0
 90
        1
176
     0
 90
        1
176
     0
 40
1.0
176
     0
 90
        9
176
     2
 62
     7
176
     0
 40
1.0
176
     0
 90
        1
176
     0
 90
        6
176
     0
 90
        2
176
     0
 62
     7
176
     0
 90
        5
176
     0
 90
        0
176
     0
 90
        0
176
     0
290
     0
176
     0
 90
        1
176
     0
 40
0.0
176
     0
 90
        0
176
     0
290
     0
176
     0
290
     1
176
     0
290
     1
176
     0
290
     0
176
     0
290
     0
176
     0
290
     0
176
     0
290
     0
176
     0
290
     0
176
     0
290
     0
176
     0
 90
       50
176
     0
 40
0.0
176
     0
 40
1.0
176
     0
 90
        0
176
     0
 62
    18
420
        0
176
     0
 90
       50
176
     0
 90
        3
176
     0
 62
     5
420
      255
176
     0
290
     0
176
     0
 90
       50
176
     0
 90
       50
176
     0
 90
       50
176
     0
290
     0
176
     0
 90
       50
176
     0
 62
   256
176
     0
 40
1.0
176
     0
 90
        2
176
     0
  1
strokes_ogs.tif
176
     0
290
     0
176
     0
 40
1.0
176
     0
 40
1.0
176
     0
  0
VISUALSTYLE
  5
33
102
{ACAD_REACTORS
330
2A
102
}
330
2A
100
AcDbVisualStyle
  2
Realistic
 70
     8
177
     3
291
     0
 70
    58
 90
        2
176
     1
 90
        3
176
     1
 90
        0
176
     1
 90
        2
176
     1
 40
0.6
176
     1
 40
30.0
176
     1
 62
     7
420
 16777215
176
     1
 90
        0
176
     1
 90
        0
176
     1
 62
     7
176
     1
 62
   257
176
     1
 90
        1
176
     1
 90
        1
176
     1
 40
1.0
176
     1
 90
        8
176
     1
 62
   257
176
     1
 40
1.0
176
     1
 90
        1
176
     1
 90
        6
176
     1
 90
        2
176
     1
 62
     7
176
     1
 90
        3
176
     1
 90
        0
176
     1
 90
        0
176
     1
290
     0
176
     1
 90
       13
176
     1
 40
0.0
176
     1
 90
        0
176
     1
290
     0
176
     1
290
     1
176
     1
290
     1
176
     1
290
     0
176
     1
290
     0
176
     1
290
     0
176
     1
290
     0
176
     1
290
     0
176
     1
290
     0
176
     1
 90
       50
176
     1
 40
0.0
176
     1
 40
1.0
176
     1
 90
        0
176
     1
 62
    18
420
        0
176
     1
 90
       50
176
     1
 90
        3
176
     1
 62
     5
420
      255
176
     1
290
     0
176
     1
 90
       50
176
     1
 90
       50
176
     1
 90
       50
176
     1
290
     0
176
     1
 90
       50
176
     1
 62
   256
176
     0
 40
1.0
176
     0
 90
        2
176
     1
  1
strokes_ogs.tif
176
     1
290
     0
176
     1
 40
1.0
176
     1
 40
1.0
176
     1
  0
VISUALSTYLE
  5
42
102
{ACAD_REACTORS
330
2A
102
}
330
2A
100
AcDbVisualStyle
  2
Shaded
 70
    27
177
     3
291
     0
 70
    58
 90
        2
176
     1
 90
        2
176
     1
 90
        1
176
     1
 90
        2
176
     1
 40
0.6
176
     1
 40
30.0
176
     1
 62
     7
420
 16777215
176
     1
 90
        0
176
     1
 90
        4
176
     1
 62
     7
176
     1
 62
   257
176
     1
 90
        1
176
     1
 90
        1
176
     1
 40
1.0
176
     1
 90
        8
176
     1
 62
   257
176
     1
 40
1.0
176
     1
 90
        1
176
     1
 90
        6
176
     1
 90
        2
176
     1
 62
     8
420
  7895160
176
     1
 90
        3
176
     1
 90
        0
176
     1
 90
        0
176
     1
290
     0
176
     1
 90
        5
176
     1
 40
0.0
176
     1
 90
        0
176
     1
290
     0
176
     1
290
     1
176
     1
290
     1
176
     1
290
     0
176
     1
290
     0
176
     1
290
     0
176
     1
290
     0
176
     1
290
     0
176
     1
290
     0
176
     1
 90
       50
176
     1
 40
0.0
176
     1
 40
1.0
176
     1
 90
        0
176
     1
 62
    18
420
        0
176
     1
 90
       50
176
     1
 90
        3
176
     1
 62
     5
420
      255
176
     1
290
     0
176
     1
 90
       50
176
     1
 90
       50
176
     1
 90
       50
176
     1
290
     0
176
     1
 90
       50
176
     1
 62
   256
176
     0
 40
1.0
176
     0
 90
        2
176
     1
  1
strokes_ogs.tif
176
     1
290
     0
176
     1
 40
1.0
176
     1
 40
1.0
176
     1
  0
VISUALSTYLE
  5
41
102
{ACAD_REACTORS
330
2A
102
}
330
2A
100
AcDbVisualStyle
  2
Shaded with edges
 70
    26
177
     3
291
     0
 70
    58
 90
        2
176
     1
 90
        2
176
     1
 90
        1
176
     1
 90
        2
176
     1
 40
0.6
176
     1
 40
30.0
176
     1
 62
     7
420
 16777215
176
     1
 90
        1
176
     1
 90
       10
176
     1
 62
     7
176
     1
 62
   257
176
     1
 90
        2
176
     1
 90
        1
176
     1
 40
1.0
176
     1
 90
        8
176
     1
 62
   257
176
     1
 40
1.0
176
     1
 90
        1
176
     1
 90
        6
176
     1
 90
        2
176
     1
 62
     7
176
     1
 90
        3
176
     1
 90
        0
176
     1
 90
        0
176
     1
290
     0
176
     1
 90
        5
176
     1
 40
0.0
176
     1
 90
        0
176
     1
290
     0
176
     1
290
     1
176
     1
290
     1
176
     1
290
     0
176
     1
290
     0
176
     1
290
     0
176
     1
290
     0
176
     1
290
     0
176
     1
290
     0
176
     1
 90
       50
176
     1
 40
0.0
176
     1
 40
1.0
176
     1
 90
        0
176
     1
 62
    18
420
        0
176
     1
 90
       50
176
     1
 90
        3
176
     1
 62
     5
420
      255
176
     1
290
     0
176
     1
 90
       50
176
     1
 90
       50
176
     1
 90
       50
176
     1
290
     0
176
     1
 90
       50
176
     1
 62
   256
176
     0
 40
1.0
176
     0
 90
        2
176
     1
  1
strokes_ogs.tif
176
     1
290
     0
176
     1
 40
1.0
176
     1
 40
1.0
176
     1
  0
VISUALSTYLE
  5
3E
102
{ACAD_REACTORS
330
2A
102
}
330
2A
100
AcDbVisualStyle
  2
Shades of Gray
 70
    23
177
     3
291
     0
 70
    58
 90
        2
176
     1
 90
        2
176
     1
 90
        3
176
     1
 90
        0
176
     1
 40
0.6
176
     1
 40
30.0
176
     1
 62
     7
420
 16777215
176
     1
 90
        2
176
     1
 90
        2
176
     1
 62
     7
176
     1
 62
     7
176
     1
 90
        1
176
     1
 90
        1
176
     1
 40
40.0
176
     1
 90
        8
176
     1
 62
     7
176
     1
 40
1.0
176
     1
 90
        1
176
     1
 90
        6
176
     1
 90
        2
176
     1
 62
     7
176
     1
 90
        3
176
     1
 90
        0
176
     1
 90
        0
176
     1
290
     0
176
     1
 90
        1
176
     1
 40
0.0
176
     1
 90
        0
176
     1
290
     0
176
     1
290
     1
176
     1
290
     1
176
     1
290
     0
176
     1
290
     0
176
     1
290
     0
176
     1
290
     0
176
     1
290
     0
176
     1
290
     0
176
     1
 90
       50
176
     1
 40
0.0
176
     1
 40
1.0
176
     1
 90
        0
176
     1
 62
    18
420
        0
176
     1
 90
       50
176
     1
 90
        3
176
     1
 62
     5
420
      255
176
     1
290
     0
176
     1
 90
       50
176
     1
 90
       50
176
     1
 90
       50
176
     1
290
     0
176
     1
 90
       50
176
     1
 62
   256
176
     0
 40
1.0
176
     0
 90
        2
176
     1
  1
strokes_ogs.tif
176
     1
290
     0
176
     1
 40
1.0
176
     1
 40
1.0
176
     1
  0
VISUALSTYLE
  5
3F
102
{ACAD_REACTORS
330
2A
102
}
330
2A
100
AcDbVisualStyle
  2
Sketchy
 70
    24
177
     3
291
     0
 70
    58
 90
        1
176
     1
 90
        2
176
     1
 90
        2
176
     1
 90
        0
176
     1
 40
0.6
176
     1
 40
30.0
176
     1
 62
     7
420
 16777215
176
     1
 90
        2
176
     1
 90
        2
176
     1
 62
     7
176
     1
 62
     7
176
     1
 90
        1
176
     1
 90
        1
176
     1
 40
40.0
176
     1
 90
       11
176
     1
 62
     7
176
     1
 40
1.0
176
     1
 90
        1
176
     1
 90
        6
176
     1
 90
        2
176
     1
 62
     7
176
     1
 90
        6
176
     1
 90
        0
176
     1
 90
        0
176
     1
290
     0
176
     1
 90
        1
176
     1
 40
0.0
176
     1
 90
        0
176
     1
290
     0
176
     1
290
     1
176
     1
290
     1
176
     1
290
     0
176
     1
290
     0
176
     1
290
     0
176
     1
290
     0
176
     1
290
     0
176
     1
290
     0
176
     1
 90
       50
176
     1
 40
0.0
176
     1
 40
1.0
176
     1
 90
        0
176
     1
 62
    18
420
        0
176
     1
 90
       50
176
     1
 90
        3
176
     1
 62
     5
420
      255
176
     1
290
     0
176
     1
 90
       50
176
     1
 90
       50
176
     1
 90
       50
176
     1
290
     0
176
     1
 90
       50
176
     1
 62
   256
176
     0
 40
1.0
176
     0
 90
        2
176
     1
  1
strokes_ogs.tif
176
     1
290
     0
176
     1
 40
1.0
176
     1
 40
1.0
176
     1
  0
VISUALSTYLE
  5
37
102
{ACAD_REACTORS
330
2A
102
}
330
2A
100
AcDbVisualStyle
  2
Thicken
 70
    13
177
     3
291
     1
 70
    58
 90
        2
176
     1
 90
        2
176
     1
 90
        0
176
     1
 90
        0
176
     1
 40
0.6
176
     1
 40
30.0
176
     1
 62
     7
420
 16777215
176
     1
 90
        1
176
     1
 90
        4
176
     1
 62
     7
176
     1
 62
   257
176
     1
 90
        1
176
     1
 90
        1
176
     1
 40
1.0
176
     1
 90
       12
176
     1
 62
     7
176
     1
 40
1.0
176
     1
 90
        1
176
     1
 90
        6
176
     1
 90
        2
176
     1
 62
     7
176
     1
 90
        5
176
     1
 90
        0
176
     1
 90
        0
176
     1
290
     0
176
     1
 90
        1
176
     1
 40
0.0
176
     1
 90
        0
176
     1
290
     0
176
     1
290
     1
176
     1
290
     1
176
     1
290
     0
176
     1
290
     0
176
     1
290
     0
176
     1
290
     0
176
     1
290
     0
176
     1
290
     0
176
     1
 90
       50
176
     1
 40
0.0
176
     1
 40
1.0
176
     1
 90
        0
176
     1
 62
    18
420
        0
176
     1
 90
       50
176
     1
 90
        3
176
     1
 62
     5
420
      255
176
     1
290
     0
176
     1
 90
       50
176
     1
 90
       50
176
     1
 90
       50
176
     1
290
     0
176
     1
 90
       50
176
     1
 62
   256
176
     0
 40
1.0
176
     0
 90
        2
176
     1
  1
strokes_ogs.tif
176
     1
290
     0
176
     1
 40
1.0
176
     1
 40
1.0
176
     1
  0
VISUALSTYLE
  5
30
102
{ACAD_REACTORS
330
2A
102
}
330
2A
100
AcDbVisualStyle
  2
Wireframe
 70
     5
177
     3
291
     0
 70
    58
 90
        0
176
     1
 90
        2
176
     1
 90
        0
176
     1
 90
        0
176
     1
 40
0.6
176
     1
 40
30.0
176
     1
 62
     7
420
 16777215
176
     1
 90
        1
176
     1
 90
        4
176
     1
 62
     7
176
     1
 62
   257
176
     1
 90
        1
176
     1
 90
        1
176
     1
 40
1.0
176
     1
 90
        0
176
     1
 62
   257
176
     1
 40
1.0
176
     1
 90
        1
176
     1
 90
        6
176
     1
 90
        2
176
     1
 62
     7
176
     1
 90
        3
176
     1
 90
        0
176
     1
 90
        0
176
     1
290
     0
176
     1
 90
        1
176
     1
 40
0.0
176
     1
 90
        0
176
     1
290
     0
176
     1
290
     1
176
     1
290
     1
176
     1
290
     0
176
     1
290
     0
176
     1
290
     0
176
     1
290
     0
176
     1
290
     0
176
     1
290
     0
176
     1
 90
       50
176
     1
 40
0.0
176
     1
 40
1.0
176
     1
 90
        0
176
     1
 62
    18
420
        0
176
     1
 90
       50
176
     1
 90
        3
176
     1
 62
     5
420
      255
176
     1
290
     0
176
     1
 90
       50
176
     1
 90
       50
176
     1
 90
       50
176
     1
290
     0
176
     1
 90
       50
176
     1
 62
   256
176
     0
 40
1.0
176
     0
 90
        2
176
     1
  1
strokes_ogs.tif
176
     1
290
     0
176
     1
 40
1.0
176
     1
 40
1.0
176
     1
  0
VISUALSTYLE
  5
40
102
{ACAD_REACTORS
330
2A
102
}
330
2A
100
AcDbVisualStyle
  2
X-Ray
 70
    25
177
     3
291
     0
 70
    58
 90
        2
176
     1
 90
        2
176
     1
 90
        1
176
     1
 90
        1
176
     1
 40
0.5
176
     1
 40
30.0
176
     1
 62
     7
420
 16777215
176
     1
 90
        1
176
     1
 90
        0
176
     1
 62
     7
176
     1
 62
   257
176
     1
 90
        1
176
     1
 90
        1
176
     1
 40
1.0
176
     1
 90
        8
176
     1
 62
     7
176
     1
 40
1.0
176
     1
 90
        1
176
     1
 90
        6
176
     1
 90
        2
176
     1
 62
     7
176
     1
 90
        3
176
     1
 90
        0
176
     1
 90
        0
176
     1
290
     0
176
     1
 90
       13
176
     1
 40
0.0
176
     1
 90
        0
176
     1
290
     0
176
     1
290
     1
176
     1
290
     1
176
     1
290
     0
176
     1
290
     0
176
     1
290
     0
176
     1
290
     0
176
     1
290
     0
176
     1
290
     0
176
     1
 90
       50
176
     1
 40
0.0
176
     1
 40
1.0
176
     1
 90
        0
176
     1
 62
    18
420
        0
176
     1
 90
       50
176
     1
 90
        3
176
     1
 62
     5
420
      255
176
     1
290
     0
176
     1
 90
       50
176
     1
 90
       50
176
     1
 90
       50
176
     1
290
     0
176
     1
 90
       50
176
     1
 62
   256
176
     0
 40
1.0
176
     0
 90
        2
176
     1
  1
strokes_ogs.tif
176
     1
290
     0
176
     1
 40
1.0
176
     1
 40
1.0
176
     1
  0
DICTIONARYVAR
  5
5DF
102
{ACAD_REACTORS
330
5DE
102
}
330
5DE
100
DictionaryVariables
280
     0
  1
1:1
  0
DICTIONARYVAR
  5
5E4
102
{ACAD_REACTORS
330
5DE
102
}
330
5DE
100
DictionaryVariables
280
     0
  1
Standard
  0
DICTIONARYVAR
  5
5E3
102
{ACAD_REACTORS
330
5DE
102
}
330
5DE
100
DictionaryVariables
280
     0
  1
Standard
  0
DICTIONARY
  5
5E0
330
6A
100
AcDbDictionary
280
     1
281
     1
  3
ACAD_ROUNDTRIP_2008_TABLESTYLE_CELLSTYLEMAP
360
5E1
  0
CELLSTYLEMAP
  5
5E1
102
{ACAD_REACTORS
330
5E0
102
}
330
5E0
100
AcDbCellStyleMap
 90
        3
300
CELLSTYLE
  1
TABLEFORMAT_BEGIN
 90
        5
170
     1
 91
        0
 92
    32768
 62
   257
 93
        1
300
CONTENTFORMAT
  1
CONTENTFORMAT_BEGIN
 90
        0
 91
        0
 92
        4
 93
        0
300

 40
0.0
140
1.0
 94
        5
 62
     0
340
11
144
0.25
309
CONTENTFORMAT_END
171
     1
301
MARGIN
  1
CELLMARGIN_BEGIN
 40
0.06
 40
0.06
 40
0.06
 40
0.06
 40
0.06
 40
0.06
309
CELLMARGIN_END
 94
        6
 95
        1
302
GRIDFORMAT
  1
GRIDFORMAT_BEGIN
 90
        0
 91
        1
 62
     0
 92
       -2
340
14
 93
        0
 40
0.045
309
GRIDFORMAT_END
 95
        2
302
GRIDFORMAT
  1
GRIDFORMAT_BEGIN
 90
        0
 91
        1
 62
     0
 92
       -2
340
14
 93
        0
 40
0.045
309
GRIDFORMAT_END
 95
        4
302
GRIDFORMAT
  1
GRIDFORMAT_BEGIN
 90
        0
 91
        1
 62
     0
 92
       -2
340
14
 93
        0
 40
0.045
309
GRIDFORMAT_END
 95
        8
302
GRIDFORMAT
  1
GRIDFORMAT_BEGIN
 90
        0
 91
        1
 62
     0
 92
       -2
340
14
 93
        0
 40
0.045
309
GRIDFORMAT_END
 95
       16
302
GRIDFORMAT
  1
GRIDFORMAT_BEGIN
 90
        0
 91
        1
 62
     0
 92
       -2
340
14
 93
        0
 40
0.045
309
GRIDFORMAT_END
 95
       32
302
GRIDFORMAT
  1
GRIDFORMAT_BEGIN
 90
        0
 91
        1
 62
     0
 92
       -2
340
14
 93
        0
 40
0.045
309
GRIDFORMAT_END
309
TABLEFORMAT_END
  1
CELLSTYLE_BEGIN
 90
        1
 91
        1
300
_TITLE
309
CELLSTYLE_END
300
CELLSTYLE
  1
TABLEFORMAT_BEGIN
 90
        5
170
     1
 91
        0
 92
        0
 62
   257
 93
        1
300
CONTENTFORMAT
  1
CONTENTFORMAT_BEGIN
 90
        0
 91
        0
 92
        4
 93
        0
300

 40
0.0
140
1.0
 94
        5
 62
     0
340
11
144
0.18
309
CONTENTFORMAT_END
171
     1
301
MARGIN
  1
CELLMARGIN_BEGIN
 40
0.06
 40
0.06
 40
0.06
 40
0.06
 40
0.06
 40
0.06
309
CELLMARGIN_END
 94
        6
 95
        1
302
GRIDFORMAT
  1
GRIDFORMAT_BEGIN
 90
        0
 91
        1
 62
     0
 92
       -2
340
14
 93
        0
 40
0.045
309
GRIDFORMAT_END
 95
        2
302
GRIDFORMAT
  1
GRIDFORMAT_BEGIN
 90
        0
 91
        1
 62
     0
 92
       -2
340
14
 93
        0
 40
0.045
309
GRIDFORMAT_END
 95
        4
302
GRIDFORMAT
  1
GRIDFORMAT_BEGIN
 90
        0
 91
        1
 62
     0
 92
       -2
340
14
 93
        0
 40
0.045
309
GRIDFORMAT_END
 95
        8
302
GRIDFORMAT
  1
GRIDFORMAT_BEGIN
 90
        0
 91
        1
 62
     0
 92
       -2
340
14
 93
        0
 40
0.045
309
GRIDFORMAT_END
 95
       16
302
GRIDFORMAT
  1
GRIDFORMAT_BEGIN
 90
        0
 91
        1
 62
     0
 92
       -2
340
14
 93
        0
 40
0.045
309
GRIDFORMAT_END
 95
       32
302
GRIDFORMAT
  1
GRIDFORMAT_BEGIN
 90
        0
 91
        1
 62
     0
 92
       -2
340
14
 93
        0
 40
0.045
309
GRIDFORMAT_END
309
TABLEFORMAT_END
  1
CELLSTYLE_BEGIN
 90
        2
 91
        1
300
_HEADER
309
CELLSTYLE_END
300
CELLSTYLE
  1
TABLEFORMAT_BEGIN
 90
        5
170
     1
 91
        0
 92
        0
 62
   257
 93
        1
300
CONTENTFORMAT
  1
CONTENTFORMAT_BEGIN
 90
        0
 91
        0
 92
        4
 93
        0
300

 40
0.0
140
1.0
 94
        2
 62
     0
340
11
144
0.18
309
CONTENTFORMAT_END
171
     1
301
MARGIN
  1
CELLMARGIN_BEGIN
 40
0.06
 40
0.06
 40
0.06
 40
0.06
 40
0.06
 40
0.06
309
CELLMARGIN_END
 94
        6
 95
        1
302
GRIDFORMAT
  1
GRIDFORMAT_BEGIN
 90
        0
 91
        1
 62
     0
 92
       -2
340
14
 93
        0
 40
0.045
309
GRIDFORMAT_END
 95
        2
302
GRIDFORMAT
  1
GRIDFORMAT_BEGIN
 90
        0
 91
        1
 62
     0
 92
       -2
340
14
 93
        0
 40
0.045
309
GRIDFORMAT_END
 95
        4
302
GRIDFORMAT
  1
GRIDFORMAT_BEGIN
 90
        0
 91
        1
 62
     0
 92
       -2
340
14
 93
        0
 40
0.045
309
GRIDFORMAT_END
 95
        8
302
GRIDFORMAT
  1
GRIDFORMAT_BEGIN
 90
        0
 91
        1
 62
     0
 92
       -2
340
14
 93
        0
 40
0.045
309
GRIDFORMAT_END
 95
       16
302
GRIDFORMAT
  1
GRIDFORMAT_BEGIN
 90
        0
 91
        1
 62
     0
 92
       -2
340
14
 93
        0
 40
0.045
309
GRIDFORMAT_END
 95
       32
302
GRIDFORMAT
  1
GRIDFORMAT_BEGIN
 90
        0
 91
        1
 62
     0
 92
       -2
340
14
 93
        0
 40
0.045
309
GRIDFORMAT_END
309
TABLEFORMAT_END
  1
CELLSTYLE_BEGIN
 90
        3
 91
        2
300
_DATA
309
CELLSTYLE_END
  0
ENDSEC
  0
EOF
