  0
SECTION
  2
HEADER
  9
$ACADVER
  1
AC1032
  9
$ACADMAINTVER
 90
       55
  9
$DWGCODEPAGE
  3
ANSI_932
  9
$LASTSAVEDBY
  1
irikuras
  9
$REQUIREDVERSIONS
160
                 0
  9
$INSBASE
 10
0.0
 20
0.0
 30
0.0
  9
$EXTMIN
 10
-2561.120760679875
 20
0.0
 30
0.0
  9
$EXTMAX
 10
31995.00000000001
 20
14377.5
 30
0.0
  9
$LIMMIN
 10
0.0
 20
0.0
  9
$LIMMAX
 10
420.0
 20
297.0
  9
$ORTHOMODE
 70
     0
  9
$REGENMODE
 70
     1
  9
$FILLMODE
 70
     1
  9
$QTEXTMODE
 70
     0
  9
$MIRRTEXT
 70
     1
  9
$LTSCALE
 40
0.25
  9
$ATTMODE
 70
     1
  9
$TEXTSIZE
 40
5.0
  9
$TRACEWID
 40
0.05
  9
$TEXTSTYLE
  7
Standard
  9
$CLAYER
  8
0
  9
$CELTYPE
  6
ByLayer
  9
$CECOLOR
 62
   256
  9
$CELTSCALE
 40
1.0
  9
$DISPSILH
 70
     0
  9
$DIMSCALE
 40
1.0
  9
$DIMASZ
 40
4.0
  9
$DIMEXO
 40
2.0
  9
$DIMDLI
 40
10.0
  9
$DIMRND
 40
0.0
  9
$DIMDLE
 40
0.0
  9
$DIMEXE
 40
2.0
  9
$DIMTP
 40
0.0
  9
$DIMTM
 40
0.0
  9
$DIMTXT
 40
3.5
  9
$DIMCEN
 40
0.09
  9
$DIMTSZ
 40
0.0
  9
$DIMTOL
 70
     0
  9
$DIMLIM
 70
     0
  9
$DIMTIH
 70
     0
  9
$DIMTOH
 70
     0
  9
$DIMSE1
 70
     0
  9
$DIMSE2
 70
     0
  9
$DIMTAD
 70
     3
  9
$DIMZIN
 70
     8
  9
$DIMBLK
  1

  9
$DIMASO
 70
     1
  9
$DIMSHO
 70
     1
  9
$DIMPOST
  1

  9
$DIMAPOST
  1

  9
$DIMALT
 70
     0
  9
$DIMALTD
 70
     2
  9
$DIMALTF
 40
25.4
  9
$DIMLFAC
 40
1.0
  9
$DIMTOFL
 70
     1
  9
$DIMTVP
 40
0.7
  9
$DIMTIX
 70
     0
  9
$DIMSOXD
 70
     0
  9
$DIMSAH
 70
     0
  9
$DIMBLK1
  1

  9
$DIMBLK2
  1

  9
$DIMSTYLE
  2
Standard
  9
$DIMCLRD
 70
     0
  9
$DIMCLRE
 70
     0
  9
$DIMCLRT
 70
     0
  9
$DIMTFAC
 40
0.5
  9
$DIMGAP
 40
0.09
  9
$DIMJUST
 70
     0
  9
$DIMSD1
 70
     0
  9
$DIMSD2
 70
     0
  9
$DIMTOLJ
 70
     1
  9
$DIMTZIN
 70
     8
  9
$DIMALTZ
 70
     0
  9
$DIMALTTZ
 70
     0
  9
$DIMUPT
 70
     1
  9
$DIMDEC
 70
     2
  9
$DIMTDEC
 70
     4
  9
$DIMALTU
 70
     2
  9
$DIMALTTD
 70
     2
  9
$DIMTXSTY
  7
Standard
  9
$DIMAUNIT
 70
     0
  9
$DIMADEC
 70
     0
  9
$DIMALTRND
 40
0.0
  9
$DIMAZIN
 70
     0
  9
$DIMDSEP
 70
    46
  9
$DIMATFIT
 70
     2
  9
$DIMFRAC
 70
     0
  9
$DIMLDRBLK
  1

  9
$DIMLUNIT
 70
     2
  9
$DIMLWD
 70
    -2
  9
$DIMLWE
 70
    -2
  9
$DIMTMOVE
 70
     2
  9
$DIMFXL
 40
1.0
  9
$DIMFXLON
 70
     0
  9
$DIMJOGANG
 40
0.7853981633974483
  9
$DIMTFILL
 70
     0
  9
$DIMTFILLCLR
 70
     0
  9
$DIMARCSYM
 70
     0
  9
$DIMLTYPE
  6

  9
$DIMLTEX1
  6

  9
$DIMLTEX2
  6

  9
$DIMTXTDIRECTION
 70
     0
  9
$LUNITS
 70
     2
  9
$LUPREC
 70
     4
  9
$SKETCHINC
 40
0.1
  9
$FILLETRAD
 40
0.5
  9
$AUNITS
 70
     0
  9
$AUPREC
 70
     0
  9
$MENU
  1
.
  9
$ELEVATION
 40
0.0
  9
$PELEVATION
 40
0.0
  9
$THICKNESS
 40
0.0
  9
$LIMCHECK
 70
     0
  9
$CHAMFERA
 40
0.0
  9
$CHAMFERB
 40
0.0
  9
$CHAMFERC
 40
0.0
  9
$CHAMFERD
 40
0.0
  9
$SKPOLY
 70
     0
  9
$TDCREATE
 40
2460391.801793981
  9
$TDUCREATE
 40
2460391.426793981
  9
$TDUPDATE
 40
2460391.426804908
  9
$TDUUPDATE
 40
2460391.051804908
  9
$TDINDWG
 40
0.0000000116
  9
$TDUSRTIMER
 40
0.0000000116
  9
$USRTIMER
 70
     1
  9
$ANGBASE
 50
0.0
  9
$ANGDIR
 70
     0
  9
$PDMODE
 70
     0
  9
$PDSIZE
 40
0.0
  9
$PLINEWID
 40
0.0
  9
$SPLFRAME
 70
     0
  9
$SPLINETYPE
 70
     6
  9
$SPLINESEGS
 70
     8
  9
$HANDSEED
  5
504
  9
$SURFTAB1
 70
     6
  9
$SURFTAB2
 70
     6
  9
$SURFTYPE
 70
     6
  9
$SURFU
 70
     6
  9
$SURFV
 70
     6
  9
$UCSBASE
  2

  9
$UCSNAME
  2

  9
$UCSORG
 10
0.0
 20
0.0
 30
0.0
  9
$UCSXDIR
 10
1.0
 20
0.0
 30
0.0
  9
$UCSYDIR
 10
0.0
 20
1.0
 30
0.0
  9
$UCSORTHOREF
  2

  9
$UCSORTHOVIEW
 70
     0
  9
$UCSORGTOP
 10
0.0
 20
0.0
 30
0.0
  9
$UCSORGBOTTOM
 10
0.0
 20
0.0
 30
0.0
  9
$UCSORGLEFT
 10
0.0
 20
0.0
 30
0.0
  9
$UCSORGRIGHT
 10
0.0
 20
0.0
 30
0.0
  9
$UCSORGFRONT
 10
0.0
 20
0.0
 30
0.0
  9
$UCSORGBACK
 10
0.0
 20
0.0
 30
0.0
  9
$PUCSBASE
  2

  9
$PUCSNAME
  2

  9
$PUCSORG
 10
0.0
 20
0.0
 30
0.0
  9
$PUCSXDIR
 10
1.0
 20
0.0
 30
0.0
  9
$PUCSYDIR
 10
0.0
 20
1.0
 30
0.0
  9
$PUCSORTHOREF
  2

  9
$PUCSORTHOVIEW
 70
     0
  9
$PUCSORGTOP
 10
0.0
 20
0.0
 30
0.0
  9
$PUCSORGBOTTOM
 10
0.0
 20
0.0
 30
0.0
  9
$PUCSORGLEFT
 10
0.0
 20
0.0
 30
0.0
  9
$PUCSORGRIGHT
 10
0.0
 20
0.0
 30
0.0
  9
$PUCSORGFRONT
 10
0.0
 20
0.0
 30
0.0
  9
$PUCSORGBACK
 10
0.0
 20
0.0
 30
0.0
  9
$USERI1
 70
     0
  9
$USERI2
 70
     0
  9
$USERI3
 70
     0
  9
$USERI4
 70
     0
  9
$USERI5
 70
     0
  9
$USERR1
 40
0.0
  9
$USERR2
 40
0.0
  9
$USERR3
 40
0.0
  9
$USERR4
 40
0.0
  9
$USERR5
 40
0.0
  9
$WORLDVIEW
 70
     1
  9
$SHADEDGE
 70
     3
  9
$SHADEDIF
 70
    70
  9
$TILEMODE
 70
     1
  9
$MAXACTVP
 70
    64
  9
$PINSBASE
 10
0.0
 20
0.0
 30
0.0
  9
$PLIMCHECK
 70
     0
  9
$PEXTMIN
 10
0.0
 20
0.0
 30
0.0
  9
$PEXTMAX
 10
420.0
 20
297.0
 30
0.0
  9
$PLIMMIN
 10
0.0
 20
0.0
  9
$PLIMMAX
 10
420.0
 20
297.0
  9
$UNITMODE
 70
     0
  9
$VISRETAIN
 70
     1
  9
$PLINEGEN
 70
     0
  9
$PSLTSCALE
 70
     1
  9
$TREEDEPTH
 70
  3020
  9
$CMLSTYLE
  2
Standard
  9
$CMLJUST
 70
     0
  9
$CMLSCALE
 40
1.0
  9
$PROXYGRAPHICS
 70
     1
  9
$MEASUREMENT
 70
     1
  9
$CELWEIGHT
370
    -1
  9
$ENDCAPS
280
     0
  9
$JOINSTYLE
280
     0
  9
$LWDISPLAY
290
     0
  9
$INSUNITS
 70
     4
  9
$HYPERLINKBASE
  1

  9
$STYLESHEET
  1

  9
$XEDIT
290
     1
  9
$CEPSNTYPE
380
     0
  9
$PSTYLEMODE
290
     1
  9
$FINGERPRINTGUID
  2
{35513471-d591-4af6-a941-97ebc0a320f6}
  9
$VERSIONGUID
  2
{FAEB1C32-E019-11D5-929B-00C0DF256EC4}
  9
$EXTNAMES
290
     1
  9
$PSVPSCALE
 40
0.0
  9
$OLESTARTUP
290
     0
  9
$SORTENTS
280
   127
  9
$INDEXCTL
280
     0
  9
$HIDETEXT
280
     1
  9
$XCLIPFRAME
280
     2
  9
$HALOGAP
280
     0
  9
$OBSCOLOR
 70
   257
  9
$OBSLTYPE
280
     0
  9
$INTERSECTIONDISPLAY
280
     0
  9
$INTERSECTIONCOLOR
 70
   257
  9
$DIMASSOC
280
     1
  9
$PROJECTNAME
  1

  9
$CAMERADISPLAY
290
     0
  9
$LENSLENGTH
 40
50.0
  9
$CAMERAHEIGHT
 40
0.0
  9
$STEPSPERSEC
 40
2.0
  9
$STEPSIZE
 40
6.0
  9
$3DDWFPREC
 40
2.0
  9
$PSOLWIDTH
 40
0.25
  9
$PSOLHEIGHT
 40
4.0
  9
$LOFTANG1
 40
1.570796326794897
  9
$LOFTANG2
 40
1.570796326794897
  9
$LOFTMAG1
 40
0.0
  9
$LOFTMAG2
 40
0.0
  9
$LOFTPARAM
 70
     7
  9
$LOFTNORMALS
280
     1
  9
$LATITUDE
 40
37.795
  9
$LONGITUDE
 40
-122.394
  9
$NORTHDIRECTION
 40
0.0
  9
$TIMEZONE
 70
 -8000
  9
$LIGHTGLYPHDISPLAY
280
     1
  9
$TILEMODELIGHTSYNCH
280
     1
  9
$CMATERIAL
347
44
  9
$SOLIDHIST
280
     0
  9
$SHOWHIST
280
     1
  9
$DWFFRAME
280
     2
  9
$DGNFRAME
280
     2
  9
$REALWORLDSCALE
290
     1
  9
$INTERFERECOLOR
 62
   256
  9
$CSHADOW
280
     0
  9
$SHADOWPLANELOCATION
 40
0.0
  0
ENDSEC
  0
SECTION
  2
CLASSES
  0
CLASS
  1
ACDBDICTIONARYWDFLT
  2
AcDbDictionaryWithDefault
  3
ObjectDBX Classes
 90
        0
 91
        3
280
     0
281
     0
  0
CLASS
  1
VISUALSTYLE
  2
AcDbVisualStyle
  3
ObjectDBX Classes
 90
     4095
 91
        3
280
     0
281
     0
  0
CLASS
  1
MATERIAL
  2
AcDbMaterial
  3
ObjectDBX Classes
 90
     1153
 91
        3
280
     0
281
     0
  0
CLASS
  1
SCALE
  2
AcDbScale
  3
ObjectDBX Classes
 90
     1153
 91
        3
280
     0
281
     0
  0
CLASS
  1
TABLESTYLE
  2
AcDbTableStyle
  3
ObjectDBX Classes
 90
     4095
 91
        3
280
     0
281
     0
  0
CLASS
  1
MLEADERSTYLE
  2
AcDbMLeaderStyle
  3
ACDB_MLEADERSTYLE_CLASS
 90
     4095
 91
        3
280
     0
281
     0
  0
CLASS
  1
SUN
  2
AcDbSun
  3
SCENEOE
 90
     1153
 91
        3
280
     0
281
     0
  0
CLASS
  1
DICTIONARYVAR
  2
AcDbDictionaryVar
  3
ObjectDBX Classes
 90
        0
 91
        3
280
     0
281
     0
  0
CLASS
  1
CELLSTYLEMAP
  2
AcDbCellStyleMap
  3
ObjectDBX Classes
 90
     1152
 91
        3
280
     0
281
     0
  0
ENDSEC
  0
SECTION
  2
TABLES
  0
TABLE
  2
VPORT
  5
8
330
0
100
AcDbSymbolTable
 70
     1
  0
VPORT
  5
29
330
8
100
AcDbSymbolTableRecord
100
AcDbViewportTableRecord
  2
*Active
 70
     0
 10
0.0
 20
0.0
 11
1.0
 21
1.0
 12
10.42990654205607
 22
4.5
 13
0.0
 23
0.0
 14
0.5
 24
0.5
 15
0.5
 25
0.5
 16
0.0
 26
0.0
 36
1.0
 17
0.0
 27
0.0
 37
0.0
 40
9.0
 41
1.972972972850329
 42
50.0
 43
0.0
 44
0.0
 50
0.0
 51
0.0
 71
     0
 72
   100
 73
     1
 74
     3
 75
     0
 76
     0
 77
     0
 78
     0
281
     0
 65
     1
110
0.0
120
0.0
130
0.0
111
1.0
121
0.0
131
0.0
112
0.0
122
1.0
132
0.0
 79
     0
146
0.0
348
2F
 60
     3
 61
     5
292
     1
282
     1
141
0.0
142
0.0
 63
   250
361
6D
  0
ENDTAB
  0
TABLE
  2
LTYPE
  5
5
330
0
100
AcDbSymbolTable
 70
     9
  0
LTYPE
  5
14
330
5
100
AcDbSymbolTableRecord
100
AcDbLinetypeTableRecord
  2
ByBlock
 70
     0
  3

 72
    65
 73
     0
 40
0.0
  0
LTYPE
  5
15
330
5
100
AcDbSymbolTableRecord
100
AcDbLinetypeTableRecord
  2
ByLayer
 70
     0
  3

 72
    65
 73
     0
 40
0.0
  0
LTYPE
  5
16
330
5
100
AcDbSymbolTableRecord
100
AcDbLinetypeTableRecord
  2
Continuous
 70
     0
  3
Solid line
 72
    65
 73
     0
 40
0.0
  0
LTYPE
  5
BC
330
5
100
AcDbSymbolTableRecord
100
AcDbLinetypeTableRecord
  2
DOT
 70
     0
  3
DOT
 72
    65
 73
     2
 40
4.0
 49
6.0
 74
     0
 49
-2.0
 74
     0
  0
LTYPE
  5
BD
330
5
100
AcDbSymbolTableRecord
100
AcDbLinetypeTableRecord
  2
HIDDEN
 70
     0
  3
HIDDEN
 72
    65
 73
     2
 40
4.2
 49
8.4
 74
     0
 49
-4.2
 74
     0
  0
LTYPE
  5
BE
330
5
100
AcDbSymbolTableRecord
100
AcDbLinetypeTableRecord
  2
DASHDOT
 70
     0
  3
DASHDOT
 72
    65
 73
     4
 40
14.5
 49
30.0
 74
     0
 49
-9.0
 74
     0
 49
2.5
 74
     0
 49
-9.0
 74
     0
  0
LTYPE
  5
BF
330
5
100
AcDbSymbolTableRecord
100
AcDbLinetypeTableRecord
  2
PHANTOM
 70
     0
  3
PHANTOM
 72
    65
 73
     6
 40
12.0
 49
30.0
 74
     0
 49
-9.0
 74
     0
 49
2.5
 74
     0
 49
-5.0
 74
     0
 49
2.5
 74
     0
 49
-9.0
 74
     0
  0
LTYPE
  5
C0
330
5
100
AcDbSymbolTableRecord
100
AcDbLinetypeTableRecord
  2
ACAD_ISO14W100
 70
     0
  3
ACAD_ISO14W100
 72
    65
 73
     8
 40
1.5
 49
12.0
 74
     0
 49
-3.0
 74
     0
 49
0.5
 74
     0
 49
-3.0
 74
     0
 49
0.5
 74
     0
 49
-3.0
 74
     0
 49
0.5
 74
     0
 49
-3.0
 74
     0
  0
LTYPE
  5
C1
330
5
100
AcDbSymbolTableRecord
100
AcDbLinetypeTableRecord
  2
ACAD_ISO06W100
 70
     0
  3
ACAD_ISO06W100
 72
    65
 73
     8
 40
13.5
 49
24.0
 74
     0
 49
-3.0
 74
     0
 49
0.5
 74
     0
 49
-3.0
 74
     0
 49
0.5
 74
     0
 49
-3.0
 74
     0
 49
0.5
 74
     0
 49
-3.0
 74
     0
  0
LTYPE
  5
C2
330
5
100
AcDbSymbolTableRecord
100
AcDbLinetypeTableRecord
  2
ACAD_ISO11W100
 70
     0
  3
ACAD_ISO11W100
 72
    65
 73
     6
 40
15.5
 49
12.0
 74
     0
 49
-3.0
 74
     0
 49
12.0
 74
     0
 49
-3.0
 74
     0
 49
0.5
 74
     0
 49
-3.0
 74
     0
  0
LTYPE
  5
C3
330
5
100
AcDbSymbolTableRecord
100
AcDbLinetypeTableRecord
  2
ACAD_ISO13W100
 70
     0
  3
ACAD_ISO13W100
 72
    65
 73
     8
 40
13.0
 49
12.0
 74
     0
 49
-3.0
 74
     0
 49
12.0
 74
     0
 49
-3.0
 74
     0
 49
0.5
 74
     0
 49
-3.0
 74
     0
 49
0.5
 74
     0
 49
-3.0
 74
     0
  0
ENDTAB
  0
TABLE
  2
LAYER
  5
2
330
0
100
AcDbSymbolTable
 70
    66
  0
LAYER
  5
10
330
2
100
AcDbSymbolTableRecord
100
AcDbLayerTableRecord
  2
0
 70
     0
 62
     7
  6
Continuous
370
    -3
390
F
347
46
348
0
  0
LAYER
  5
C4
330
2
100
AcDbSymbolTableRecord
100
AcDbLayerTableRecord
  2
1
 70
     0
 62
     7
  6
Continuous
370
    30
390
F
347
46
348
0
  0
LAYER
  5
C5
330
2
100
AcDbSymbolTableRecord
100
AcDbLayerTableRecord
  2
2
 70
     0
 62
   136
420
    32896
  6
Continuous
370
     9
390
F
347
46
348
0
  0
LAYER
  5
C6
330
2
100
AcDbSymbolTableRecord
100
AcDbLayerTableRecord
  2
3
 70
     0
 62
   216
420
  8388736
  6
Continuous
370
     9
390
F
347
46
348
0
  0
LAYER
  5
C7
330
2
100
AcDbSymbolTableRecord
100
AcDbLayerTableRecord
  2
4
 70
     0
 62
    56
420
  8421376
  6
Continuous
370
     9
390
F
347
46
348
0
  0
LAYER
  5
C8
330
2
100
AcDbSymbolTableRecord
100
AcDbLayerTableRecord
  2
5
 70
     0
 62
    96
420
    32768
  6
Continuous
370
    30
390
F
347
46
348
0
  0
LAYER
  5
C9
330
2
100
AcDbSymbolTableRecord
100
AcDbLayerTableRecord
  2
6
 70
     0
 62
    16
420
  8388608
  6
Continuous
370
     9
390
F
347
46
348
0
  0
LAYER
  5
CA
330
2
100
AcDbSymbolTableRecord
100
AcDbLayerTableRecord
  2
7
 70
     0
 62
     4
  6
Continuous
370
     9
390
F
347
46
348
0
  0
LAYER
  5
CB
330
2
100
AcDbSymbolTableRecord
100
AcDbLayerTableRecord
  2
8
 70
     0
 62
     6
  6
Continuous
370
     9
390
F
347
46
348
0
  0
LAYER
  5
CC
330
2
100
AcDbSymbolTableRecord
100
AcDbLayerTableRecord
  2
9
 70
     0
 62
     2
  6
Continuous
370
    30
390
F
347
46
348
0
  0
LAYER
  5
CD
330
2
100
AcDbSymbolTableRecord
100
AcDbLayerTableRecord
  2
10
 70
     0
 62
     3
  6
Continuous
370
     9
390
F
347
46
348
0
  0
LAYER
  5
CE
330
2
100
AcDbSymbolTableRecord
100
AcDbLayerTableRecord
  2
11
 70
     0
 62
     8
420
  8421504
  6
Continuous
370
     9
390
F
347
46
348
0
  0
LAYER
  5
CF
330
2
100
AcDbSymbolTableRecord
100
AcDbLayerTableRecord
  2
12
 70
     0
 62
   138
420
    20560
  6
Continuous
370
     9
390
F
347
46
348
0
  0
LAYER
  5
D0
330
2
100
AcDbSymbolTableRecord
100
AcDbLayerTableRecord
  2
13
 70
     0
 62
   218
420
  5242960
  6
Continuous
370
     9
390
F
347
46
348
0
  0
LAYER
  5
D1
330
2
100
AcDbSymbolTableRecord
100
AcDbLayerTableRecord
  2
14
 70
     0
 62
    58
420
  5263360
  6
Continuous
370
     9
390
F
347
46
348
0
  0
LAYER
  5
D2
330
2
100
AcDbSymbolTableRecord
100
AcDbLayerTableRecord
  2
15
 70
     0
 62
    98
420
    20480
  6
Continuous
370
     9
390
F
347
46
348
0
  0
LAYER
  5
D3
330
2
100
AcDbSymbolTableRecord
100
AcDbLayerTableRecord
  2
16
 70
     0
 62
    18
420
  5242880
  6
Continuous
370
     9
390
F
347
46
348
0
  0
LAYER
  5
D4
330
2
100
AcDbSymbolTableRecord
100
AcDbLayerTableRecord
  2
17
 70
     0
 62
   132
420
    49344
  6
Continuous
370
     9
390
F
347
46
348
0
  0
LAYER
  5
D5
330
2
100
AcDbSymbolTableRecord
100
AcDbLayerTableRecord
  2
18
 70
     0
 62
   212
420
 12583104
  6
Continuous
370
     9
390
F
347
46
348
0
  0
LAYER
  5
D6
330
2
100
AcDbSymbolTableRecord
100
AcDbLayerTableRecord
  2
19
 70
     0
 62
    52
420
 12632064
  6
Continuous
370
     9
390
F
347
46
348
0
  0
LAYER
  5
D7
330
2
100
AcDbSymbolTableRecord
100
AcDbLayerTableRecord
  2
20
 70
     0
 62
   251
420
  5263440
  6
Continuous
370
     9
390
F
347
46
348
0
  0
LAYER
  5
D8
330
2
100
AcDbSymbolTableRecord
100
AcDbLayerTableRecord
  2
21
 70
     0
 62
     7
  6
Continuous
370
     9
390
F
347
46
348
0
  0
LAYER
  5
D9
330
2
100
AcDbSymbolTableRecord
100
AcDbLayerTableRecord
  2
22
 70
     0
 62
     7
  6
Continuous
370
     9
390
F
347
46
348
0
  0
LAYER
  5
DA
330
2
100
AcDbSymbolTableRecord
100
AcDbLayerTableRecord
  2
23
 70
     0
 62
    11
420
 16744512
  6
Continuous
370
     9
390
F
347
46
348
0
  0
LAYER
  5
DB
330
2
100
AcDbSymbolTableRecord
100
AcDbLayerTableRecord
  2
24
 70
     0
 62
   216
420
  8388736
  6
Continuous
370
     9
390
F
347
46
348
0
  0
LAYER
  5
DC
330
2
100
AcDbSymbolTableRecord
100
AcDbLayerTableRecord
  2
25
 70
     0
 62
     8
420
  8421504
  6
Continuous
370
     9
390
F
347
46
348
0
  0
LAYER
  5
DD
330
2
100
AcDbSymbolTableRecord
100
AcDbLayerTableRecord
  2
26
 70
     0
 62
     5
  6
Continuous
370
     9
390
F
347
46
348
0
  0
LAYER
  5
DE
330
2
100
AcDbSymbolTableRecord
100
AcDbLayerTableRecord
  2
27
 70
     0
 62
     3
  6
Continuous
370
     9
390
F
347
46
348
0
  0
LAYER
  5
DF
330
2
100
AcDbSymbolTableRecord
100
AcDbLayerTableRecord
  2
28
 70
     0
 62
     1
  6
Continuous
370
     9
390
F
347
46
348
0
  0
LAYER
  5
E0
330
2
100
AcDbSymbolTableRecord
100
AcDbLayerTableRecord
  2
29
 70
     0
 62
     4
  6
Continuous
370
     9
390
F
347
46
348
0
  0
LAYER
  5
E1
330
2
100
AcDbSymbolTableRecord
100
AcDbLayerTableRecord
  2
30
 70
     0
 62
     6
  6
Continuous
370
     9
390
F
347
46
348
0
  0
LAYER
  5
E2
330
2
100
AcDbSymbolTableRecord
100
AcDbLayerTableRecord
  2
31
 70
     0
 62
     2
  6
Continuous
370
     9
390
F
347
46
348
0
  0
LAYER
  5
E3
330
2
100
AcDbSymbolTableRecord
100
AcDbLayerTableRecord
  2
32
 70
     0
 62
     7
  6
Continuous
370
     9
390
F
347
46
348
0
  0
LAYER
  5
E4
330
2
100
AcDbSymbolTableRecord
100
AcDbLayerTableRecord
  2
33
 70
     0
 62
     7
  6
Continuous
370
     9
390
F
347
46
348
0
  0
LAYER
  5
E5
330
2
100
AcDbSymbolTableRecord
100
AcDbLayerTableRecord
  2
34
 70
     0
 62
     9
420
 12632256
  6
Continuous
370
     9
390
F
347
46
348
0
  0
LAYER
  5
E6
330
2
100
AcDbSymbolTableRecord
100
AcDbLayerTableRecord
  2
35
 70
     0
 62
     7
  6
Continuous
370
     9
390
F
347
46
348
0
  0
LAYER
  5
E7
330
2
100
AcDbSymbolTableRecord
100
AcDbLayerTableRecord
  2
36
 70
     0
 62
    96
420
    32768
  6
Continuous
370
     9
390
F
347
46
348
0
  0
LAYER
  5
E8
330
2
100
AcDbSymbolTableRecord
100
AcDbLayerTableRecord
  2
37
 70
     0
 62
    16
420
  8388608
  6
Continuous
370
     9
390
F
347
46
348
0
  0
LAYER
  5
E9
330
2
100
AcDbSymbolTableRecord
100
AcDbLayerTableRecord
  2
38
 70
     0
 62
   136
420
    32896
  6
Continuous
370
     9
390
F
347
46
348
0
  0
LAYER
  5
EA
330
2
100
AcDbSymbolTableRecord
100
AcDbLayerTableRecord
  2
39
 70
     0
 62
    56
420
  8421376
  6
Continuous
370
     9
390
F
347
46
348
0
  0
LAYER
  5
EB
330
2
100
AcDbSymbolTableRecord
100
AcDbLayerTableRecord
  2
40
 70
     0
 62
   216
420
  8388736
  6
Continuous
370
     9
390
F
347
46
348
0
  0
LAYER
  5
EC
330
2
100
AcDbSymbolTableRecord
100
AcDbLayerTableRecord
  2
41
 70
     0
 62
     7
  6
Continuous
370
     9
390
F
347
46
348
0
  0
LAYER
  5
ED
330
2
100
AcDbSymbolTableRecord
100
AcDbLayerTableRecord
  2
42
 70
     0
 62
     5
  6
Continuous
370
     9
390
F
347
46
348
0
  0
LAYER
  5
EE
330
2
100
AcDbSymbolTableRecord
100
AcDbLayerTableRecord
  2
43
 70
     0
 62
     3
  6
Continuous
370
     9
390
F
347
46
348
0
  0
LAYER
  5
EF
330
2
100
AcDbSymbolTableRecord
100
AcDbLayerTableRecord
  2
44
 70
     0
 62
     1
  6
Continuous
370
     9
390
F
347
46
348
0
  0
LAYER
  5
F0
330
2
100
AcDbSymbolTableRecord
100
AcDbLayerTableRecord
  2
45
 70
     0
 62
     4
  6
Continuous
370
     9
390
F
347
46
348
0
  0
LAYER
  5
F1
330
2
100
AcDbSymbolTableRecord
100
AcDbLayerTableRecord
  2
46
 70
     0
 62
     6
  6
Continuous
370
     9
390
F
347
46
348
0
  0
LAYER
  5
F2
330
2
100
AcDbSymbolTableRecord
100
AcDbLayerTableRecord
  2
47
 70
     0
 62
     2
  6
Continuous
370
     9
390
F
347
46
348
0
  0
LAYER
  5
F3
330
2
100
AcDbSymbolTableRecord
100
AcDbLayerTableRecord
  2
48
 70
     0
 62
     7
  6
Continuous
370
     9
390
F
347
46
348
0
  0
LAYER
  5
F4
330
2
100
AcDbSymbolTableRecord
100
AcDbLayerTableRecord
  2
49
 70
     0
 62
     7
  6
Continuous
370
     9
390
F
347
46
348
0
  0
LAYER
  5
F5
330
2
100
AcDbSymbolTableRecord
100
AcDbLayerTableRecord
  2
50
 70
     0
 62
     9
420
 12632256
  6
Continuous
370
     9
390
F
347
46
348
0
  0
LAYER
  5
F6
330
2
100
AcDbSymbolTableRecord
100
AcDbLayerTableRecord
  2
51
 70
     0
 62
   176
420
      128
  6
Continuous
370
     9
390
F
347
46
348
0
  0
LAYER
  5
F7
330
2
100
AcDbSymbolTableRecord
100
AcDbLayerTableRecord
  2
52
 70
     0
 62
    96
420
    32768
  6
Continuous
370
     9
390
F
347
46
348
0
  0
LAYER
  5
F8
330
2
100
AcDbSymbolTableRecord
100
AcDbLayerTableRecord
  2
53
 70
     0
 62
    16
420
  8388608
  6
Continuous
370
     9
390
F
347
46
348
0
  0
LAYER
  5
F9
330
2
100
AcDbSymbolTableRecord
100
AcDbLayerTableRecord
  2
54
 70
     0
 62
   136
420
    32896
  6
Continuous
370
     9
390
F
347
46
348
0
  0
LAYER
  5
FA
330
2
100
AcDbSymbolTableRecord
100
AcDbLayerTableRecord
  2
55
 70
     0
 62
    56
420
  8421376
  6
Continuous
370
     9
390
F
347
46
348
0
  0
LAYER
  5
FB
330
2
100
AcDbSymbolTableRecord
100
AcDbLayerTableRecord
  2
56
 70
     0
 62
   216
420
  8388736
  6
Continuous
370
     9
390
F
347
46
348
0
  0
LAYER
  5
FC
330
2
100
AcDbSymbolTableRecord
100
AcDbLayerTableRecord
  2
57
 70
     0
 62
     8
420
  8421504
  6
Continuous
370
     9
390
F
347
46
348
0
  0
LAYER
  5
FD
330
2
100
AcDbSymbolTableRecord
100
AcDbLayerTableRecord
  2
58
 70
     0
 62
     5
  6
Continuous
370
     9
390
F
347
46
348
0
  0
LAYER
  5
FE
330
2
100
AcDbSymbolTableRecord
100
AcDbLayerTableRecord
  2
59
 70
     0
 62
     3
  6
Continuous
370
     9
390
F
347
46
348
0
  0
LAYER
  5
FF
330
2
100
AcDbSymbolTableRecord
100
AcDbLayerTableRecord
  2
60
 70
     0
 62
     1
  6
Continuous
370
     9
390
F
347
46
348
0
  0
LAYER
  5
100
330
2
100
AcDbSymbolTableRecord
100
AcDbLayerTableRecord
  2
61
 70
     0
 62
     4
  6
Continuous
370
     9
390
F
347
46
348
0
  0
LAYER
  5
101
330
2
100
AcDbSymbolTableRecord
100
AcDbLayerTableRecord
  2
62
 70
     0
 62
     6
  6
Continuous
370
     9
390
F
347
46
348
0
  0
LAYER
  5
102
330
2
100
AcDbSymbolTableRecord
100
AcDbLayerTableRecord
  2
63
 70
     0
 62
     2
  6
Continuous
370
     9
390
F
347
46
348
0
  0
LAYER
  5
103
330
2
100
AcDbSymbolTableRecord
100
AcDbLayerTableRecord
  2
64
 70
     0
 62
     7
  6
Continuous
370
     9
390
F
347
46
348
0
  0
LAYER
  5
104
330
2
100
AcDbSymbolTableRecord
100
AcDbLayerTableRecord
  2
128
 70
     0
 62
     7
  6
Continuous
370
     9
390
F
347
46
348
0
  0
ENDTAB
  0
TABLE
  2
STYLE
  5
3
330
0
100
AcDbSymbolTable
 70
     3
  0
STYLE
  5
11
330
3
100
AcDbSymbolTableRecord
100
AcDbTextStyleTableRecord
  2
Standard
 70
     0
 40
0.0
 41
1.0
 50
0.0
 71
     0
 42
5.0
  3
txt
  4
bigfont
  0
STYLE
  5
6F
330
3
100
AcDbSymbolTableRecord
100
AcDbTextStyleTableRecord
  2
T_STANDARD
 70
     4
 40
10.0
 41
1.0
 50
0.0
 71
     0
 42
5.0
  3
txt
  4
bigfont
1001
ACAD
1000

1071
      256
  0
STYLE
  5
289
330
3
100
AcDbSymbolTableRecord
100
AcDbTextStyleTableRecord
  2
ＭＳ ゴシック
 70
     0
 40
0.0
 41
1.0
 50
0.0
 71
     0
 42
5.0
  3

  4

1001
ACAD
1000
ＭＳ ゴシック
1071
      256
  0
ENDTAB
  0
TABLE
  2
VIEW
  5
6
330
0
100
AcDbSymbolTable
 70
     0
  0
ENDTAB
  0
TABLE
  2
UCS
  5
7
330
0
100
AcDbSymbolTable
 70
     0
  0
ENDTAB
  0
TABLE
  2
APPID
  5
9
330
0
100
AcDbSymbolTable
 70
     2
  0
APPID
  5
12
330
9
100
AcDbSymbolTableRecord
100
AcDbRegAppTableRecord
  2
ACAD
 70
     0
  0
APPID
  5
6E
330
9
100
AcDbSymbolTableRecord
100
AcDbRegAppTableRecord
  2
ODA
 70
     0
  0
ENDTAB
  0
TABLE
  2
DIMSTYLE
  5
A
330
0
100
AcDbSymbolTable
 70
     1
100
AcDbDimStyleTable
  0
DIMSTYLE
105
27
102
{ACAD_REACTORS
330
293
330
29D
330
3F1
330
4A7
102
}
330
A
100
AcDbSymbolTableRecord
100
AcDbDimStyleTableRecord
  2
Standard
 70
     0
178
     0
340
11
  0
ENDTAB
  0
TABLE
  2
BLOCK_RECORD
  5
1
330
0
100
AcDbSymbolTable
 70
    29
  0
BLOCK_RECORD
  5
1F
330
1
100
AcDbSymbolTableRecord
100
AcDbBlockTableRecord
  2
*Model_Space
340
22
 70
     0
280
     1
281
     0
  0
BLOCK_RECORD
  5
1B
330
1
100
AcDbSymbolTableRecord
100
AcDbBlockTableRecord
  2
*Paper_Space
340
1E
 70
     0
280
     1
281
     0
  0
BLOCK_RECORD
  5
23
330
1
100
AcDbSymbolTableRecord
100
AcDbBlockTableRecord
  2
*Paper_Space0
340
26
 70
     0
280
     1
281
     0
  0
BLOCK_RECORD
  5
70
330
1
100
AcDbSymbolTableRecord
100
AcDbBlockTableRecord
  2
_ORIGIN
340
0
 70
     0
280
     1
281
     0
  0
BLOCK_RECORD
  5
75
330
1
100
AcDbSymbolTableRecord
100
AcDbBlockTableRecord
  2
_DOTBLANK
340
0
 70
     0
280
     1
281
     0
  0
BLOCK_RECORD
  5
7A
330
1
100
AcDbSymbolTableRecord
100
AcDbBlockTableRecord
  2
_DOT
340
0
 70
     0
280
     1
281
     0
  0
BLOCK_RECORD
  5
7F
330
1
100
AcDbSymbolTableRecord
100
AcDbBlockTableRecord
  2
_OPEN
340
0
102
{BLKREFS
331
291
331
292
331
29B
331
29C
331
3EF
331
3F0
331
4A5
331
4A6
102
}
 70
     0
280
     1
281
     0
  0
BLOCK_RECORD
  5
85
330
1
100
AcDbSymbolTableRecord
100
AcDbBlockTableRecord
  2
_CLOSED
340
0
 70
     0
280
     1
281
     0
  0
BLOCK_RECORD
  5
8C
330
1
100
AcDbSymbolTableRecord
100
AcDbBlockTableRecord
  2
_CLOSEDBLANK
340
0
 70
     0
280
     1
281
     0
  0
BLOCK_RECORD
  5
92
330
1
100
AcDbSymbolTableRecord
100
AcDbBlockTableRecord
  2
_ARROWFILLED
340
0
 70
     0
280
     1
281
     0
  0
BLOCK_RECORD
  5
96
330
1
100
AcDbSymbolTableRecord
100
AcDbBlockTableRecord
  2
_BOXBLANK
340
0
 70
     0
280
     1
281
     0
  0
BLOCK_RECORD
  5
9E
330
1
100
AcDbSymbolTableRecord
100
AcDbBlockTableRecord
  2
_BOXFILLED
340
0
 70
     0
280
     1
281
     0
  0
BLOCK_RECORD
  5
A3
330
1
100
AcDbSymbolTableRecord
100
AcDbBlockTableRecord
  2
_INTEGRAL
340
0
 70
     0
280
     1
281
     0
  0
BLOCK_RECORD
  5
A8
330
1
100
AcDbSymbolTableRecord
100
AcDbBlockTableRecord
  2
_OBLIQUE
340
0
 70
     0
280
     1
281
     0
  0
BLOCK_RECORD
  5
AC
330
1
100
AcDbSymbolTableRecord
100
AcDbBlockTableRecord
  2
_NONE
340
0
 70
     0
280
     1
281
     0
  0
BLOCK_RECORD
  5
AF
330
1
100
AcDbSymbolTableRecord
100
AcDbBlockTableRecord
  2
MARK_OPEN
340
0
 70
     0
280
     1
281
     0
  0
BLOCK_RECORD
  5
B4
330
1
100
AcDbSymbolTableRecord
100
AcDbBlockTableRecord
  2
MARK_ORIGIN
340
0
 70
     0
280
     1
281
     0
  0
BLOCK_RECORD
  5
B8
330
1
100
AcDbSymbolTableRecord
100
AcDbBlockTableRecord
  2
MARK_DOT
340
0
 70
     0
280
     1
281
     0
  0
BLOCK_RECORD
  5
113
330
1
100
AcDbSymbolTableRecord
100
AcDbBlockTableRecord
  2
G1
340
0
102
{BLKREFS
331
117
102
}
 70
     0
280
     1
281
     0
  0
BLOCK_RECORD
  5
1BF
330
1
100
AcDbSymbolTableRecord
100
AcDbBlockTableRecord
  2
G2
340
0
102
{BLKREFS
331
1C8
102
}
 70
     0
280
     1
281
     0
  0
BLOCK_RECORD
  5
1C9
330
1
100
AcDbSymbolTableRecord
100
AcDbBlockTableRecord
  2
G3
340
0
102
{BLKREFS
331
1D2
102
}
 70
     0
280
     1
281
     0
  0
BLOCK_RECORD
  5
27D
330
1
100
AcDbSymbolTableRecord
100
AcDbBlockTableRecord
  2
G4
340
0
102
{BLKREFS
331
288
102
}
 70
     0
280
     1
281
     0
  0
BLOCK_RECORD
  5
28A
330
1
100
AcDbSymbolTableRecord
100
AcDbBlockTableRecord
  2
Dim1
340
0
 70
     0
280
     1
281
     0
  0
BLOCK_RECORD
  5
294
330
1
100
AcDbSymbolTableRecord
100
AcDbBlockTableRecord
  2
Dim2
340
0
 70
     0
280
     1
281
     0
  0
BLOCK_RECORD
  5
388
330
1
100
AcDbSymbolTableRecord
100
AcDbBlockTableRecord
  2
G5
340
0
102
{BLKREFS
331
393
102
}
 70
     0
280
     1
281
     0
  0
BLOCK_RECORD
  5
3C2
330
1
100
AcDbSymbolTableRecord
100
AcDbBlockTableRecord
  2
G6
340
0
102
{BLKREFS
331
3CB
102
}
 70
     0
280
     1
281
     0
  0
BLOCK_RECORD
  5
3CC
330
1
100
AcDbSymbolTableRecord
100
AcDbBlockTableRecord
  2
G7
340
0
102
{BLKREFS
331
3D5
102
}
 70
     0
280
     1
281
     0
  0
BLOCK_RECORD
  5
3DC
330
1
100
AcDbSymbolTableRecord
100
AcDbBlockTableRecord
  2
G8
340
0
102
{BLKREFS
331
3E7
102
}
 70
     0
280
     1
281
     0
  0
BLOCK_RECORD
  5
3E8
330
1
100
AcDbSymbolTableRecord
100
AcDbBlockTableRecord
  2
Dim3
340
0
 70
     0
280
     1
281
     0
  0
BLOCK_RECORD
  5
3F2
330
1
100
AcDbSymbolTableRecord
100
AcDbBlockTableRecord
  2
G9
340
0
102
{BLKREFS
331
3FD
102
}
 70
     0
280
     1
281
     0
  0
BLOCK_RECORD
  5
49E
330
1
100
AcDbSymbolTableRecord
100
AcDbBlockTableRecord
  2
Dim4
340
0
 70
     0
280
     1
281
     0
  0
ENDTAB
  0
ENDSEC
  0
SECTION
  2
BLOCKS
  0
BLOCK
  5
20
330
1F
100
AcDbEntity
  8
0
100
AcDbBlockBegin
  2
*Model_Space
 70
     0
 10
0.0
 20
0.0
 30
0.0
  3
*Model_Space
  1

  0
ENDBLK
  5
21
330
1F
100
AcDbEntity
  8
0
100
AcDbBlockEnd
  0
BLOCK
  5
1C
330
1B
100
AcDbEntity
 67
     1
  8
0
100
AcDbBlockBegin
  2
*Paper_Space
 70
     0
 10
0.0
 20
0.0
 30
0.0
  3
*Paper_Space
  1

  0
ENDBLK
  5
1D
330
1B
100
AcDbEntity
 67
     1
  8
0
100
AcDbBlockEnd
  0
BLOCK
  5
24
330
23
100
AcDbEntity
  8
0
100
AcDbBlockBegin
  2
*Paper_Space0
 70
     0
 10
0.0
 20
0.0
 30
0.0
  3
*Paper_Space0
  1

  0
ENDBLK
  5
25
330
23
100
AcDbEntity
  8
0
100
AcDbBlockEnd
  0
BLOCK
  5
73
330
70
100
AcDbEntity
  8
0
100
AcDbBlockBegin
  2
_ORIGIN
 70
     0
 10
0.0
 20
0.0
 30
0.0
  3
_ORIGIN
  1

  0
CIRCLE
  5
71
330
70
100
AcDbEntity
  8
0
 62
     0
100
AcDbCircle
 10
0.0
 20
0.0
 30
0.0
 40
0.5
  0
LINE
  5
72
330
70
100
AcDbEntity
  8
0
 62
     0
100
AcDbLine
 10
0.0
 20
0.0
 30
0.0
 11
-1.0
 21
0.0
 31
0.0
  0
ENDBLK
  5
74
330
70
100
AcDbEntity
  8
0
100
AcDbBlockEnd
  0
BLOCK
  5
78
330
75
100
AcDbEntity
  8
0
100
AcDbBlockBegin
  2
_DOTBLANK
 70
     0
 10
0.0
 20
0.0
 30
0.0
  3
_DOTBLANK
  1

  0
CIRCLE
  5
76
330
75
100
AcDbEntity
  8
0
 62
     0
100
AcDbCircle
 10
0.0
 20
0.0
 30
0.0
 40
0.5
  0
LINE
  5
77
330
75
100
AcDbEntity
  8
0
 62
     0
100
AcDbLine
 10
-0.5
 20
0.0
 30
0.0
 11
-1.0
 21
0.0
 31
0.0
  0
ENDBLK
  5
79
330
75
100
AcDbEntity
  8
0
100
AcDbBlockEnd
  0
BLOCK
  5
7D
330
7A
100
AcDbEntity
  8
0
100
AcDbBlockBegin
  2
_DOT
 70
     0
 10
0.0
 20
0.0
 30
0.0
  3
_DOT
  1

  0
LWPOLYLINE
  5
7B
330
7A
100
AcDbEntity
  8
0
 62
     0
100
AcDbPolyline
 90
        2
 70
     1
 43
0.5
 10
-0.25
 20
0.0
 42
1.0
 10
0.25
 20
0.0
 42
1.0
  0
LINE
  5
7C
330
7A
100
AcDbEntity
  8
0
 62
     0
100
AcDbLine
 10
-0.5
 20
0.0
 30
0.0
 11
-1.0
 21
0.0
 31
0.0
  0
ENDBLK
  5
7E
330
7A
100
AcDbEntity
  8
0
100
AcDbBlockEnd
  0
BLOCK
  5
83
330
7F
100
AcDbEntity
  8
0
100
AcDbBlockBegin
  2
_OPEN
 70
     0
 10
0.0
 20
0.0
 30
0.0
  3
_OPEN
  1

  0
LINE
  5
80
330
7F
100
AcDbEntity
  8
0
 62
     0
100
AcDbLine
 10
0.0
 20
0.0
 30
0.0
 11
-1.0
 21
0.1666666666666667
 31
0.0
  0
LINE
  5
81
330
7F
100
AcDbEntity
  8
0
 62
     0
100
AcDbLine
 10
0.0
 20
0.0
 30
0.0
 11
-1.0
 21
-0.1666666666666667
 31
0.0
  0
LINE
  5
82
330
7F
100
AcDbEntity
  8
0
 62
     0
100
AcDbLine
 10
0.0
 20
0.0
 30
0.0
 11
-1.0
 21
0.0
 31
0.0
  0
ENDBLK
  5
84
330
7F
100
AcDbEntity
  8
0
100
AcDbBlockEnd
  0
BLOCK
  5
8A
330
85
100
AcDbEntity
  8
0
100
AcDbBlockBegin
  2
_CLOSED
 70
     0
 10
0.0
 20
0.0
 30
0.0
  3
_CLOSED
  1

  0
LINE
  5
86
330
85
100
AcDbEntity
  8
0
 62
     0
100
AcDbLine
 10
0.0
 20
0.0
 30
0.0
 11
-1.0
 21
0.1666666666666667
 31
0.0
  0
LINE
  5
87
330
85
100
AcDbEntity
  8
0
 62
     0
100
AcDbLine
 10
0.0
 20
0.0
 30
0.0
 11
-1.0
 21
-0.1666666666666667
 31
0.0
  0
LINE
  5
88
330
85
100
AcDbEntity
  8
0
 62
     0
100
AcDbLine
 10
-1.0
 20
0.1666666666666667
 30
0.0
 11
-1.0
 21
-0.1666666666666667
 31
0.0
  0
LINE
  5
89
330
85
100
AcDbEntity
  8
0
 62
     0
100
AcDbLine
 10
0.0
 20
0.0
 30
0.0
 11
-1.0
 21
0.0
 31
0.0
  0
ENDBLK
  5
8B
330
85
100
AcDbEntity
  8
0
100
AcDbBlockEnd
  0
BLOCK
  5
90
330
8C
100
AcDbEntity
  8
0
100
AcDbBlockBegin
  2
_CLOSEDBLANK
 70
     0
 10
0.0
 20
0.0
 30
0.0
  3
_CLOSEDBLANK
  1

  0
LINE
  5
8D
330
8C
100
AcDbEntity
  8
0
 62
     0
100
AcDbLine
 10
0.0
 20
0.0
 30
0.0
 11
-1.0
 21
0.1666666666666667
 31
0.0
  0
LINE
  5
8E
330
8C
100
AcDbEntity
  8
0
 62
     0
100
AcDbLine
 10
0.0
 20
0.0
 30
0.0
 11
-1.0
 21
-0.1666666666666667
 31
0.0
  0
LINE
  5
8F
330
8C
100
AcDbEntity
  8
0
 62
     0
100
AcDbLine
 10
-1.0
 20
0.1666666666666667
 30
0.0
 11
-1.0
 21
-0.1666666666666667
 31
0.0
  0
ENDBLK
  5
91
330
8C
100
AcDbEntity
  8
0
100
AcDbBlockEnd
  0
BLOCK
  5
94
330
92
100
AcDbEntity
  8
0
100
AcDbBlockBegin
  2
_ARROWFILLED
 70
     0
 10
0.0
 20
0.0
 30
0.0
  3
_ARROWFILLED
  1

  0
SOLID
  5
93
330
92
100
AcDbEntity
  8
0
 62
     0
100
AcDbTrace
 10
0.0
 20
0.0
 30
0.0
 11
-1.0
 21
-0.1666666666666667
 31
0.0
 12
-1.0
 22
0.1666666666666667
 32
0.0
 13
0.0
 23
0.0
 33
0.0
  0
ENDBLK
  5
95
330
92
100
AcDbEntity
  8
0
100
AcDbBlockEnd
  0
BLOCK
  5
9C
330
96
100
AcDbEntity
  8
0
100
AcDbBlockBegin
  2
_BOXBLANK
 70
     0
 10
0.0
 20
0.0
 30
0.0
  3
_BOXBLANK
  1

  0
LINE
  5
97
330
96
100
AcDbEntity
  8
0
 62
     0
100
AcDbLine
 10
-0.5
 20
-0.5
 30
0.0
 11
0.5
 21
-0.5
 31
0.0
  0
LINE
  5
98
330
96
100
AcDbEntity
  8
0
 62
     0
100
AcDbLine
 10
0.5
 20
-0.5
 30
0.0
 11
0.5
 21
0.5
 31
0.0
  0
LINE
  5
99
330
96
100
AcDbEntity
  8
0
 62
     0
100
AcDbLine
 10
0.5
 20
0.5
 30
0.0
 11
-0.5
 21
0.5
 31
0.0
  0
LINE
  5
9A
330
96
100
AcDbEntity
  8
0
 62
     0
100
AcDbLine
 10
-0.5
 20
0.5
 30
0.0
 11
-0.5
 21
-0.5
 31
0.0
  0
LINE
  5
9B
330
96
100
AcDbEntity
  8
0
 62
     0
100
AcDbLine
 10
-0.5
 20
0.0
 30
0.0
 11
-1.0
 21
0.0
 31
0.0
  0
ENDBLK
  5
9D
330
96
100
AcDbEntity
  8
0
100
AcDbBlockEnd
  0
BLOCK
  5
A1
330
9E
100
AcDbEntity
  8
0
100
AcDbBlockBegin
  2
_BOXFILLED
 70
     0
 10
0.0
 20
0.0
 30
0.0
  3
_BOXFILLED
  1

  0
SOLID
  5
9F
330
9E
100
AcDbEntity
  8
0
 62
     0
100
AcDbTrace
 10
-0.5
 20
0.5
 30
0.0
 11
0.5
 21
0.5
 31
0.0
 12
-0.5
 22
-0.5
 32
0.0
 13
0.5
 23
-0.5
 33
0.0
  0
LINE
  5
A0
330
9E
100
AcDbEntity
  8
0
 62
     0
100
AcDbLine
 10
-0.5
 20
0.0
 30
0.0
 11
-1.0
 21
0.0
 31
0.0
  0
ENDBLK
  5
A2
330
9E
100
AcDbEntity
  8
0
100
AcDbBlockEnd
  0
BLOCK
  5
A6
330
A3
100
AcDbEntity
  8
0
100
AcDbBlockBegin
  2
_INTEGRAL
 70
     0
 10
0.0
 20
0.0
 30
0.0
  3
_INTEGRAL
  1

  0
ARC
  5
A4
330
A3
100
AcDbEntity
  8
0
 62
     0
100
AcDbCircle
 10
0.444888
 20
-0.0913346
 30
0.0
 40
0.4541666
100
AcDbArc
 50
101.9999999999999
 51
167.9999999999998
  0
ARC
  5
A5
330
A3
100
AcDbEntity
  8
0
 62
     0
100
AcDbCircle
 10
-0.444888
 20
0.0913346
 30
0.0
 40
0.4541666
100
AcDbArc
 50
281.9999999999997
 51
347.9999999999997
  0
ENDBLK
  5
A7
330
A3
100
AcDbEntity
  8
0
100
AcDbBlockEnd
  0
BLOCK
  5
AA
330
A8
100
AcDbEntity
  8
0
100
AcDbBlockBegin
  2
_OBLIQUE
 70
     0
 10
0.0
 20
0.0
 30
0.0
  3
_OBLIQUE
  1

  0
LINE
  5
A9
330
A8
100
AcDbEntity
  8
0
 62
     0
100
AcDbLine
 10
-0.5
 20
-0.5
 30
0.0
 11
0.5
 21
0.5
 31
0.0
  0
ENDBLK
  5
AB
330
A8
100
AcDbEntity
  8
0
100
AcDbBlockEnd
  0
BLOCK
  5
AD
330
AC
100
AcDbEntity
  8
0
100
AcDbBlockBegin
  2
_NONE
 70
     0
 10
0.0
 20
0.0
 30
0.0
  3
_NONE
  1

  0
ENDBLK
  5
AE
330
AC
100
AcDbEntity
  8
0
100
AcDbBlockEnd
  0
BLOCK
  5
B2
330
AF
100
AcDbEntity
  8
0
100
AcDbBlockBegin
  2
MARK_OPEN
 70
     0
 10
0.0
 20
0.0
 30
0.0
  3
MARK_OPEN
  1

  0
LINE
  5
B0
330
AF
100
AcDbEntity
  8
0
 62
     0
100
AcDbLine
 10
0.0
 20
0.0
 30
0.0
 11
-1.0
 21
0.1666666666666667
 31
0.0
  0
LINE
  5
B1
330
AF
100
AcDbEntity
  8
0
 62
     0
100
AcDbLine
 10
0.0
 20
0.0
 30
0.0
 11
-1.0
 21
-0.1666666666666667
 31
0.0
  0
ENDBLK
  5
B3
330
AF
100
AcDbEntity
  8
0
100
AcDbBlockEnd
  0
BLOCK
  5
B6
330
B4
100
AcDbEntity
  8
0
100
AcDbBlockBegin
  2
MARK_ORIGIN
 70
     0
 10
0.0
 20
0.0
 30
0.0
  3
MARK_ORIGIN
  1

  0
CIRCLE
  5
B5
330
B4
100
AcDbEntity
  8
0
 62
     0
100
AcDbCircle
 10
0.0
 20
0.0
 30
0.0
 40
0.5
  0
ENDBLK
  5
B7
330
B4
100
AcDbEntity
  8
0
100
AcDbBlockEnd
  0
BLOCK
  5
BA
330
B8
100
AcDbEntity
  8
0
100
AcDbBlockBegin
  2
MARK_DOT
 70
     0
 10
0.0
 20
0.0
 30
0.0
  3
MARK_DOT
  1

  0
LWPOLYLINE
  5
B9
330
B8
100
AcDbEntity
  8
0
 62
     0
100
AcDbPolyline
 90
        2
 70
     1
 43
0.5
 10
-0.25
 20
0.0
 42
1.0
 10
0.25
 20
0.0
 42
1.0
  0
ENDBLK
  5
BB
330
B8
100
AcDbEntity
  8
0
100
AcDbBlockEnd
  0
BLOCK
  5
114
330
113
100
AcDbEntity
  8
0
100
AcDbBlockBegin
  2
G1
 70
     0
 10
0.0
 20
0.0
 30
0.0
  3
G1
  1

  0
LINE
  5
116
330
113
100
AcDbEntity
  8
15
  6
Continuous
 62
    98
420
    20480
370
     9
100
AcDbLine
 10
320.0046747756101
 20
28.68585124761804
 30
0.0
 11
320.2628349117595
 21
28.68585126723716
 31
0.0
  0
ENDBLK
  5
115
330
113
100
AcDbEntity
  8
0
100
AcDbBlockEnd
  0
BLOCK
  5
1C0
330
1BF
100
AcDbEntity
  8
0
100
AcDbBlockBegin
  2
G2
 70
     0
 10
0.0
 20
0.0
 30
0.0
  3
G2
  1

  0
LINE
  5
1C2
330
1BF
100
AcDbEntity
  8
1
  6
Continuous
 62
     7
370
     9
100
AcDbLine
 10
101.7590574995584
 20
180.6178747588601
 30
0.0
 11
101.7590574995584
 21
182.6178747588601
 31
0.0
  0
LINE
  5
1C3
330
1BF
100
AcDbEntity
  8
1
  6
Continuous
 62
     7
370
     9
100
AcDbLine
 10
101.7590574995584
 20
182.6178747588601
 30
0.0
 11
102.8590574995584
 21
182.6178747588601
 31
0.0
  0
ARC
  5
1C4
330
1BF
100
AcDbEntity
  8
1
  6
Continuous
 62
     7
370
     9
100
AcDbCircle
 10
102.8590574995584
 20
181.8178747588601
 30
0.0
 40
0.8
100
AcDbArc
 50
359.9999999999976
 51
89.99999999999991
  0
LINE
  5
1C5
330
1BF
100
AcDbEntity
  8
1
  6
Continuous
 62
     7
370
     9
100
AcDbLine
 10
103.6590574995584
 20
181.81787475886
 30
0.0
 11
103.6590574995584
 21
181.4178747588601
 31
0.0
  0
LINE
  5
1C6
330
1BF
100
AcDbEntity
  8
1
  6
Continuous
 62
     7
370
     9
100
AcDbLine
 10
102.8590574995584
 20
180.6178747588601
 30
0.0
 11
101.7590574995584
 21
180.6178747588601
 31
0.0
  0
ARC
  5
1C7
330
1BF
100
AcDbEntity
  8
1
  6
Continuous
 62
     7
370
     9
100
AcDbCircle
 10
102.8590574995584
 20
181.4178747588601
 30
0.0
 40
0.8
100
AcDbArc
 50
269.9999999999998
 51
359.9999999999976
  0
ENDBLK
  5
1C1
330
1BF
100
AcDbEntity
  8
0
100
AcDbBlockEnd
  0
BLOCK
  5
1CA
330
1C9
100
AcDbEntity
  8
0
100
AcDbBlockBegin
  2
G3
 70
     0
 10
0.0
 20
0.0
 30
0.0
  3
G3
  1

  0
LINE
  5
1CC
330
1C9
100
AcDbEntity
  8
1
  6
Continuous
 62
     7
370
     9
100
AcDbLine
 10
102.2590574995584
 20
181.1178747588596
 30
0.0
 11
102.2590574995584
 21
182.1178747588604
 31
0.0
  0
LINE
  5
1CD
330
1C9
100
AcDbEntity
  8
1
  6
Continuous
 62
     7
370
     9
100
AcDbLine
 10
102.7590574995584
 20
181.1178747588596
 30
0.0
 11
102.2590574995584
 21
181.1178747588596
 31
0.0
  0
ARC
  5
1CE
330
1C9
100
AcDbEntity
  8
1
  6
Continuous
 62
     7
370
     9
100
AcDbCircle
 10
102.7590574995584
 20
181.5178747588596
 30
0.0
 40
0.4
100
AcDbArc
 50
270.0000000000037
 51
0.0000000000040711
  0
LINE
  5
1CF
330
1C9
100
AcDbEntity
  8
1
  6
Continuous
 62
     7
370
     9
100
AcDbLine
 10
103.1590574995584
 20
181.7178747588605
 30
0.0
 11
103.1590574995584
 21
181.5178747588596
 31
0.0
  0
LINE
  5
1D0
330
1C9
100
AcDbEntity
  8
1
  6
Continuous
 62
     7
370
     9
100
AcDbLine
 10
102.2590574995584
 20
182.1178747588604
 30
0.0
 11
102.7590574995584
 21
182.1178747588604
 31
0.0
  0
ARC
  5
1D1
330
1C9
100
AcDbEntity
  8
1
  6
Continuous
 62
     7
370
     9
100
AcDbCircle
 10
102.7590574995584
 20
181.7178747588604
 30
0.0
 40
0.4
100
AcDbArc
 50
0.0000000000040711
 51
89.99999999999594
  0
ENDBLK
  5
1CB
330
1C9
100
AcDbEntity
  8
0
100
AcDbBlockEnd
  0
BLOCK
  5
27E
330
27D
100
AcDbEntity
  8
0
100
AcDbBlockBegin
  2
G4
 70
     0
 10
0.0
 20
0.0
 30
0.0
  3
G4
  1

  0
ARC
  5
280
330
27D
100
AcDbEntity
  8
1
  6
Continuous
 62
     7
370
     9
100
AcDbCircle
 10
92.40905749955812
 20
150.3678747588599
 30
0.0
 40
0.5
100
AcDbArc
 50
89.99999999999991
 51
179.9999999999998
  0
LINE
  5
281
330
27D
100
AcDbEntity
  8
1
  6
Continuous
 62
     7
370
     9
100
AcDbLine
 10
106.4090574995581
 20
150.8678747588599
 30
0.0
 11
92.40905749955812
 21
150.8678747588599
 31
0.0
  0
ARC
  5
282
330
27D
100
AcDbEntity
  8
1
  6
Continuous
 62
     7
370
     9
100
AcDbCircle
 10
106.4090574995581
 20
150.3678747588599
 30
0.0
 40
0.5
100
AcDbArc
 50
0.0
 51
89.99999999999991
  0
LINE
  5
283
330
27D
100
AcDbEntity
  8
1
  6
Continuous
 62
     7
370
     9
100
AcDbLine
 10
106.9090574995581
 20
147.8678747588599
 30
0.0
 11
106.9090574995581
 21
150.3678747588599
 31
0.0
  0
ARC
  5
284
330
27D
100
AcDbEntity
  8
1
  6
Continuous
 62
     7
370
     9
100
AcDbCircle
 10
106.4090574995581
 20
147.8678747588599
 30
0.0
 40
0.5
100
AcDbArc
 50
269.9999999999998
 51
0.0
  0
LINE
  5
285
330
27D
100
AcDbEntity
  8
1
  6
Continuous
 62
     7
370
     9
100
AcDbLine
 10
92.40905749955812
 20
147.3678747588599
 30
0.0
 11
106.4090574995581
 21
147.3678747588599
 31
0.0
  0
LINE
  5
286
330
27D
100
AcDbEntity
  8
1
  6
Continuous
 62
     7
370
     9
100
AcDbLine
 10
91.90905749955812
 20
150.3678747588599
 30
0.0
 11
91.90905749955812
 21
147.8678747588599
 31
0.0
  0
ARC
  5
287
330
27D
100
AcDbEntity
  8
1
  6
Continuous
 62
     7
370
     9
100
AcDbCircle
 10
92.40905749955812
 20
147.8678747588599
 30
0.0
 40
0.5
100
AcDbArc
 50
179.9999999999998
 51
269.9999999999998
  0
ENDBLK
  5
27F
330
27D
100
AcDbEntity
  8
0
100
AcDbBlockEnd
  0
BLOCK
  5
28B
330
28A
100
AcDbEntity
  8
0
100
AcDbBlockBegin
  2
Dim1
 70
     0
 10
0.0
 20
0.0
 30
0.0
  3
Dim1
  1

  0
LINE
  5
28D
330
28A
100
AcDbEntity
  8
1
  6
Continuous
 62
     7
370
     9
100
AcDbLine
 10
80.90905749955812
 20
202.3678747588602
 30
0.0
 11
80.90905749955817
 21
237.3678747588599
 31
0.0
  0
LINE
  5
28E
330
28A
100
AcDbEntity
  8
1
  6
Continuous
 62
     7
370
     9
100
AcDbLine
 10
117.9090574995581
 20
202.3678747588602
 30
0.0
 11
117.9090574995582
 21
237.3678747588599
 31
0.0
  0
LINE
  5
28F
330
28A
100
AcDbEntity
  8
1
  6
Continuous
 62
     7
370
     9
100
AcDbLine
 10
80.90905749955817
 20
235.3678747588599
 30
0.0
 11
117.9090574995582
 21
235.3678747588599
 31
0.0
  0
MTEXT
  5
290
330
28A
100
AcDbEntity
  8
1
  6
Continuous
 62
     7
370
     9
100
AcDbMText
 10
99.40905749955817
 20
235.8678747588599
 30
0.0
 40
3.0
 41
24.28571428571428
 46
3.0
 71
     8
 72
     1
  1
37
  7
ＭＳ ゴシック
 73
     1
 44
1.0
  0
INSERT
  5
291
330
28A
100
AcDbEntity
  8
1
  6
Continuous
 62
     7
370
     9
100
AcDbBlockReference
  2
_OPEN
 10
80.90905749955817
 20
235.3678747588599
 30
0.0
 41
2.4
 42
2.4
 43
2.4
 50
179.9999999999998
  0
INSERT
  5
292
330
28A
100
AcDbEntity
  8
1
  6
Continuous
 62
     7
370
     9
100
AcDbBlockReference
  2
_OPEN
 10
117.9090574995582
 20
235.3678747588599
 30
0.0
 41
2.4
 42
2.4
 43
2.4
 50
359.9999999999997
  0
ENDBLK
  5
28C
330
28A
100
AcDbEntity
  8
0
100
AcDbBlockEnd
  0
BLOCK
  5
295
330
294
100
AcDbEntity
  8
0
100
AcDbBlockBegin
  2
Dim2
 70
     0
 10
0.0
 20
0.0
 30
0.0
  3
Dim2
  1

  0
LINE
  5
297
330
294
100
AcDbEntity
  8
1
  6
Continuous
 62
     7
370
     9
100
AcDbLine
 10
101.4090574995581
 20
144.3678747588599
 30
0.0
 11
139.9090574995581
 21
144.3678747588599
 31
0.0
  0
LINE
  5
298
330
294
100
AcDbEntity
  8
1
  6
Continuous
 62
     7
370
     9
100
AcDbLine
 10
101.4090574995581
 20
215.3678747588599
 30
0.0
 11
139.9090574995581
 21
215.3678747588599
 31
0.0
  0
LINE
  5
299
330
294
100
AcDbEntity
  8
1
  6
Continuous
 62
     7
370
     9
100
AcDbLine
 10
137.9090574995581
 20
144.3678747588599
 30
0.0
 11
137.9090574995581
 21
215.3678747588599
 31
0.0
  0
MTEXT
  5
29A
330
294
100
AcDbEntity
  8
1
  6
Continuous
 62
     7
370
     9
100
AcDbMText
 10
137.4090574995581
 20
179.8678747588599
 30
0.0
 40
3.0
 41
20.0
 46
3.0
 71
     8
 72
     1
  1
71
  7
ＭＳ ゴシック
 11
1.615544574432587E-15
 21
1.0
 31
0.0
 73
     1
 44
1.0
  0
INSERT
  5
29B
330
294
100
AcDbEntity
  8
1
  6
Continuous
 62
     7
370
     9
100
AcDbBlockReference
  2
_OPEN
 10
137.9090574995581
 20
144.3678747588599
 30
0.0
 41
2.4
 42
2.4
 43
2.4
 50
269.9999999999998
  0
INSERT
  5
29C
330
294
100
AcDbEntity
  8
1
  6
Continuous
 62
     7
370
     9
100
AcDbBlockReference
  2
_OPEN
 10
137.9090574995581
 20
215.3678747588599
 30
0.0
 41
2.4
 42
2.4
 43
2.4
 50
89.99999999999991
  0
ENDBLK
  5
296
330
294
100
AcDbEntity
  8
0
100
AcDbBlockEnd
  0
BLOCK
  5
389
330
388
100
AcDbEntity
  8
0
100
AcDbBlockBegin
  2
G5
 70
     0
 10
0.0
 20
0.0
 30
0.0
  3
G5
  1

  0
ARC
  5
38B
330
388
100
AcDbEntity
  8
1
  6
Continuous
 62
     7
370
     9
100
AcDbCircle
 10
224.4090574995581
 20
150.3678747588599
 30
0.0
 40
0.5
100
AcDbArc
 50
89.99999999999991
 51
179.9999999999998
  0
LINE
  5
38C
330
388
100
AcDbEntity
  8
1
  6
Continuous
 62
     7
370
     9
100
AcDbLine
 10
238.4090574995581
 20
150.8678747588599
 30
0.0
 11
224.4090574995581
 21
150.8678747588599
 31
0.0
  0
ARC
  5
38D
330
388
100
AcDbEntity
  8
1
  6
Continuous
 62
     7
370
     9
100
AcDbCircle
 10
238.4090574995581
 20
150.3678747588599
 30
0.0
 40
0.5
100
AcDbArc
 50
0.0
 51
89.99999999999991
  0
LINE
  5
38E
330
388
100
AcDbEntity
  8
1
  6
Continuous
 62
     7
370
     9
100
AcDbLine
 10
238.9090574995581
 20
147.8678747588599
 30
0.0
 11
238.9090574995581
 21
150.3678747588599
 31
0.0
  0
ARC
  5
38F
330
388
100
AcDbEntity
  8
1
  6
Continuous
 62
     7
370
     9
100
AcDbCircle
 10
238.4090574995581
 20
147.8678747588599
 30
0.0
 40
0.5
100
AcDbArc
 50
269.9999999999998
 51
0.0
  0
LINE
  5
390
330
388
100
AcDbEntity
  8
1
  6
Continuous
 62
     7
370
     9
100
AcDbLine
 10
224.4090574995581
 20
147.3678747588599
 30
0.0
 11
238.4090574995581
 21
147.3678747588599
 31
0.0
  0
LINE
  5
391
330
388
100
AcDbEntity
  8
1
  6
Continuous
 62
     7
370
     9
100
AcDbLine
 10
223.9090574995581
 20
150.3678747588599
 30
0.0
 11
223.9090574995581
 21
147.8678747588599
 31
0.0
  0
ARC
  5
392
330
388
100
AcDbEntity
  8
1
  6
Continuous
 62
     7
370
     9
100
AcDbCircle
 10
224.4090574995581
 20
147.8678747588599
 30
0.0
 40
0.5
100
AcDbArc
 50
179.9999999999998
 51
269.9999999999998
  0
ENDBLK
  5
38A
330
388
100
AcDbEntity
  8
0
100
AcDbBlockEnd
  0
BLOCK
  5
3C3
330
3C2
100
AcDbEntity
  8
0
100
AcDbBlockBegin
  2
G6
 70
     0
 10
0.0
 20
0.0
 30
0.0
  3
G6
  1

  0
ARC
  5
3C5
330
3C2
100
AcDbEntity
  8
1
  6
Continuous
 62
     7
370
     9
100
AcDbCircle
 10
233.4090574995581
 20
189.8678747588598
 30
0.0
 40
0.5
100
AcDbArc
 50
0.0
 51
89.99999999999991
  0
ARC
  5
3C6
330
3C2
100
AcDbEntity
  8
1
  6
Continuous
 62
     7
370
     9
100
AcDbCircle
 10
233.4090574995581
 20
189.8678747588598
 30
0.0
 40
0.5
100
AcDbArc
 50
89.99999999999991
 51
179.9999999999998
  0
LINE
  5
3C7
330
3C2
100
AcDbEntity
  8
1
  6
Continuous
 62
     7
370
     9
100
AcDbLine
 10
233.9090574995581
 20
189.8678747588598
 30
0.0
 11
233.9090574995581
 21
185.8678747588598
 31
0.0
  0
ARC
  5
3C8
330
3C2
100
AcDbEntity
  8
1
  6
Continuous
 62
     7
370
     9
100
AcDbCircle
 10
233.4090574995581
 20
185.8678747588598
 30
0.0
 40
0.5
100
AcDbArc
 50
269.9999999999998
 51
0.0
  0
LINE
  5
3C9
330
3C2
100
AcDbEntity
  8
1
  6
Continuous
 62
     7
370
     9
100
AcDbLine
 10
232.9090574995581
 20
185.8678747588598
 30
0.0
 11
232.9090574995581
 21
189.8678747588598
 31
0.0
  0
ARC
  5
3CA
330
3C2
100
AcDbEntity
  8
1
  6
Continuous
 62
     7
370
     9
100
AcDbCircle
 10
233.4090574995581
 20
185.8678747588598
 30
0.0
 40
0.5
100
AcDbArc
 50
179.9999999999998
 51
269.9999999999998
  0
ENDBLK
  5
3C4
330
3C2
100
AcDbEntity
  8
0
100
AcDbBlockEnd
  0
BLOCK
  5
3CD
330
3CC
100
AcDbEntity
  8
0
100
AcDbBlockBegin
  2
G7
 70
     0
 10
0.0
 20
0.0
 30
0.0
  3
G7
  1

  0
ARC
  5
3CF
330
3CC
100
AcDbEntity
  8
1
  6
Continuous
 62
     7
370
     9
100
AcDbCircle
 10
231.4090574995581
 20
185.8678747588598
 30
0.0
 40
0.5
100
AcDbArc
 50
269.9999999999998
 51
0.0
  0
ARC
  5
3D0
330
3CC
100
AcDbEntity
  8
1
  6
Continuous
 62
     7
370
     9
100
AcDbCircle
 10
231.4090574995581
 20
185.8678747588598
 30
0.0
 40
0.5
100
AcDbArc
 50
179.9999999999998
 51
269.9999999999998
  0
LINE
  5
3D1
330
3CC
100
AcDbEntity
  8
1
  6
Continuous
 62
     7
370
     9
100
AcDbLine
 10
230.9090574995581
 20
185.8678747588598
 30
0.0
 11
230.9090574995581
 21
189.8678747588598
 31
0.0
  0
ARC
  5
3D2
330
3CC
100
AcDbEntity
  8
1
  6
Continuous
 62
     7
370
     9
100
AcDbCircle
 10
231.4090574995581
 20
189.8678747588598
 30
0.0
 40
0.5
100
AcDbArc
 50
89.99999999999991
 51
179.9999999999998
  0
LINE
  5
3D3
330
3CC
100
AcDbEntity
  8
1
  6
Continuous
 62
     7
370
     9
100
AcDbLine
 10
231.9090574995581
 20
189.8678747588598
 30
0.0
 11
231.9090574995581
 21
185.8678747588598
 31
0.0
  0
ARC
  5
3D4
330
3CC
100
AcDbEntity
  8
1
  6
Continuous
 62
     7
370
     9
100
AcDbCircle
 10
231.4090574995581
 20
189.8678747588598
 30
0.0
 40
0.5
100
AcDbArc
 50
0.0
 51
89.99999999999991
  0
ENDBLK
  5
3CE
330
3CC
100
AcDbEntity
  8
0
100
AcDbBlockEnd
  0
BLOCK
  5
3DD
330
3DC
100
AcDbEntity
  8
0
100
AcDbBlockBegin
  2
G8
 70
     0
 10
0.0
 20
0.0
 30
0.0
  3
G8
  1

  0
ARC
  5
3DF
330
3DC
100
AcDbEntity
  8
1
  6
Continuous
 62
     7
370
     9
100
AcDbCircle
 10
237.4090574995581
 20
190.8678747588598
 30
0.0
 40
0.5
100
AcDbArc
 50
89.99999999999991
 51
180.0000000000029
  0
LINE
  5
3E0
330
3DC
100
AcDbEntity
  8
1
  6
Continuous
 62
     7
370
     9
100
AcDbLine
 10
237.4090574995581
 20
191.3678747588598
 30
0.0
 11
243.4090574995581
 21
191.3678747588598
 31
0.0
  0
ARC
  5
3E1
330
3DC
100
AcDbEntity
  8
1
  6
Continuous
 62
     7
370
     9
100
AcDbCircle
 10
243.4090574995581
 20
190.8678747588598
 30
0.0
 40
0.5
100
AcDbArc
 50
359.9999999999964
 51
89.99999999999991
  0
LINE
  5
3E2
330
3DC
100
AcDbEntity
  8
1
  6
Continuous
 62
     7
370
     9
100
AcDbLine
 10
243.9090574995581
 20
190.8678747588598
 30
0.0
 11
243.9090574995581
 21
171.8678747588598
 31
0.0
  0
ARC
  5
3E3
330
3DC
100
AcDbEntity
  8
1
  6
Continuous
 62
     7
370
     9
100
AcDbCircle
 10
243.4090574995581
 20
171.8678747588598
 30
0.0
 40
0.5
100
AcDbArc
 50
269.9999999999998
 51
0.0
  0
LINE
  5
3E4
330
3DC
100
AcDbEntity
  8
1
  6
Continuous
 62
     7
370
     9
100
AcDbLine
 10
243.4090574995581
 20
171.3678747588598
 30
0.0
 11
237.4090574995581
 21
171.3678747588598
 31
0.0
  0
LINE
  5
3E5
330
3DC
100
AcDbEntity
  8
1
  6
Continuous
 62
     7
370
     9
100
AcDbLine
 10
236.9090574995581
 20
171.8678747588598
 30
0.0
 11
236.9090574995581
 21
190.8678747588598
 31
0.0
  0
ARC
  5
3E6
330
3DC
100
AcDbEntity
  8
1
  6
Continuous
 62
     7
370
     9
100
AcDbCircle
 10
237.4090574995581
 20
171.8678747588598
 30
0.0
 40
0.5
100
AcDbArc
 50
179.9999999999998
 51
269.9999999999998
  0
ENDBLK
  5
3DE
330
3DC
100
AcDbEntity
  8
0
100
AcDbBlockEnd
  0
BLOCK
  5
3E9
330
3E8
100
AcDbEntity
  8
0
100
AcDbBlockBegin
  2
Dim3
 70
     0
 10
0.0
 20
0.0
 30
0.0
  3
Dim3
  1

  0
LINE
  5
3EB
330
3E8
100
AcDbEntity
  8
1
  6
Continuous
 62
     7
370
     9
100
AcDbLine
 10
167.9090574995581
 20
193.3678747588598
 30
0.0
 11
167.9090574995582
 21
237.3678747588599
 31
0.0
  0
LINE
  5
3EC
330
3E8
100
AcDbEntity
  8
1
  6
Continuous
 62
     7
370
     9
100
AcDbLine
 10
182.9090574995581
 20
193.3678747588599
 30
0.0
 11
182.9090574995582
 21
237.3678747588599
 31
0.0
  0
LINE
  5
3ED
330
3E8
100
AcDbEntity
  8
1
  6
Continuous
 62
     7
370
     9
100
AcDbLine
 10
167.9090574995582
 20
235.3678747588599
 30
0.0
 11
182.9090574995582
 21
235.3678747588599
 31
0.0
  0
MTEXT
  5
3EE
330
3E8
100
AcDbEntity
  8
1
  6
Continuous
 62
     7
370
     9
100
AcDbMText
 10
175.4090574995582
 20
235.8678747588599
 30
0.0
 40
3.0
 41
22.14285714285714
 46
3.0
 71
     8
 72
     1
  1
15
  7
ＭＳ ゴシック
 73
     1
 44
1.0
  0
INSERT
  5
3EF
330
3E8
100
AcDbEntity
  8
1
  6
Continuous
 62
     7
370
     9
100
AcDbBlockReference
  2
_OPEN
 10
167.9090574995582
 20
235.3678747588599
 30
0.0
 41
2.4
 42
2.4
 43
2.4
 50
179.9999999999998
  0
INSERT
  5
3F0
330
3E8
100
AcDbEntity
  8
1
  6
Continuous
 62
     7
370
     9
100
AcDbBlockReference
  2
_OPEN
 10
182.9090574995582
 20
235.3678747588599
 30
0.0
 41
2.4
 42
2.4
 43
2.4
 50
359.9999999999997
  0
ENDBLK
  5
3EA
330
3E8
100
AcDbEntity
  8
0
100
AcDbBlockEnd
  0
BLOCK
  5
3F3
330
3F2
100
AcDbEntity
  8
0
100
AcDbBlockBegin
  2
G9
 70
     0
 10
0.0
 20
0.0
 30
0.0
  3
G9
  1

  0
ARC
  5
3F5
330
3F2
100
AcDbEntity
  8
1
  6
Continuous
 62
     7
370
     9
100
AcDbCircle
 10
85.40905749955817
 20
119.8678747588604
 30
0.0
 40
4.5
100
AcDbArc
 50
89.99999999999991
 51
179.9999999999998
  0
LINE
  5
3F6
330
3F2
100
AcDbEntity
  8
1
  6
Continuous
 62
     7
370
     9
100
AcDbLine
 10
80.90905749955817
 20
113.8678747588604
 30
0.0
 11
80.90905749955817
 21
119.8678747588604
 31
0.0
  0
ARC
  5
3F7
330
3F2
100
AcDbEntity
  8
1
  6
Continuous
 62
     7
370
     9
100
AcDbCircle
 10
85.40905749955817
 20
113.8678747588604
 30
0.0
 40
4.5
100
AcDbArc
 50
179.9999999999998
 51
269.9999999999998
  0
LINE
  5
3F8
330
3F2
100
AcDbEntity
  8
1
  6
Continuous
 62
     7
370
     9
100
AcDbLine
 10
113.4090574995581
 20
109.3678747588604
 30
0.0
 11
85.40905749955817
 21
109.3678747588604
 31
0.0
  0
ARC
  5
3F9
330
3F2
100
AcDbEntity
  8
1
  6
Continuous
 62
     7
370
     9
100
AcDbCircle
 10
113.4090574995581
 20
113.8678747588604
 30
0.0
 40
4.5
100
AcDbArc
 50
269.9999999999998
 51
0.0
  0
LINE
  5
3FA
330
3F2
100
AcDbEntity
  8
1
  6
Continuous
 62
     7
370
     9
100
AcDbLine
 10
117.9090574995581
 20
119.8678747588604
 30
0.0
 11
117.9090574995581
 21
113.8678747588604
 31
0.0
  0
LINE
  5
3FB
330
3F2
100
AcDbEntity
  8
1
  6
Continuous
 62
     7
370
     9
100
AcDbLine
 10
85.40905749955817
 20
124.3678747588604
 30
0.0
 11
113.4090574995581
 21
124.3678747588604
 31
0.0
  0
ARC
  5
3FC
330
3F2
100
AcDbEntity
  8
1
  6
Continuous
 62
     7
370
     9
100
AcDbCircle
 10
113.4090574995581
 20
119.8678747588604
 30
0.0
 40
4.5
100
AcDbArc
 50
0.0
 51
89.99999999999991
  0
ENDBLK
  5
3F4
330
3F2
100
AcDbEntity
  8
0
100
AcDbBlockEnd
  0
BLOCK
  5
49F
330
49E
100
AcDbEntity
  8
0
100
AcDbBlockBegin
  2
Dim4
 70
     0
 10
0.0
 20
0.0
 30
0.0
  3
Dim4
  1

  0
LINE
  5
4A1
330
49E
100
AcDbEntity
  8
1
  6
Continuous
 62
     7
370
     9
100
AcDbLine
 10
109.9090574995581
 20
118.8678747588604
 30
0.0
 11
139.9090574995581
 21
118.8678747588604
 31
0.0
  0
LINE
  5
4A2
330
49E
100
AcDbEntity
  8
1
  6
Continuous
 62
     7
370
     9
100
AcDbLine
 10
109.9090574995581
 20
114.8678747588604
 30
0.0
 11
139.9090574995581
 21
114.8678747588604
 31
0.0
  0
LINE
  5
4A3
330
49E
100
AcDbEntity
  8
1
  6
Continuous
 62
     7
370
     9
100
AcDbLine
 10
137.9090574995581
 20
121.2678747588604
 30
0.0
 11
137.9090574995581
 21
112.4678747588604
 31
0.0
  0
MTEXT
  5
4A4
330
49E
100
AcDbEntity
  8
1
  6
Continuous
 62
     7
370
     9
100
AcDbMText
 10
137.4090574995581
 20
116.8678747588604
 30
0.0
 40
3.0
 41
10.71428571428571
 46
3.0
 71
     8
 72
     1
  1
4
  7
ＭＳ ゴシック
 11
1.615544574432587E-15
 21
1.0
 31
0.0
 73
     1
 44
1.0
  0
INSERT
  5
4A5
330
49E
100
AcDbEntity
  8
1
  6
Continuous
 62
     7
370
     9
100
AcDbBlockReference
  2
_OPEN
 10
137.9090574995581
 20
118.8678747588604
 30
0.0
 41
2.4
 42
2.4
 43
2.4
 50
269.9999999999998
  0
INSERT
  5
4A6
330
49E
100
AcDbEntity
  8
1
  6
Continuous
 62
     7
370
     9
100
AcDbBlockReference
  2
_OPEN
 10
137.9090574995581
 20
114.8678747588604
 30
0.0
 41
2.4
 42
2.4
 43
2.4
 50
89.99999999999959
  0
ENDBLK
  5
4A0
330
49E
100
AcDbEntity
  8
0
100
AcDbBlockEnd
  0
ENDSEC
  0
SECTION
  2
ENTITIES
  0
LINE
  5
105
330
1F
100
AcDbEntity
  8
15
  6
Continuous
 62
    98
420
    20480
370
     9
100
AcDbLine
 10
31995.00000000001
 20
14377.5
 30
0.0
 11
24705.00000000001
 21
14377.5
 31
0.0
  0
MTEXT
  5
106
330
1F
100
AcDbEntity
  8
15
  6
Continuous
 62
    98
420
    20480
370
     9
100
AcDbMText
 10
-2561.120760679875
 20
455.5402402808934
 30
0.0
 40
22.49999865889549
 41
87.33218906399622
 46
22.49999865889549
 71
     7
 72
     1
  1
{\fＭＳ ゴシック;\W0.714286;\T1.080000;型　式}
 73
     1
 44
1.0
  0
LINE
  5
107
330
1F
100
AcDbEntity
  8
15
  6
Continuous
 62
    98
420
    20480
370
    50
100
AcDbLine
 10
20.51596467391376
 20
267.1682892483032
 30
0.0
 11
20.51596467391376
 21
18.28252377717462
 31
0.0
  0
LINE
  5
108
330
1F
100
AcDbEntity
  8
15
  6
Continuous
 62
    98
420
    20480
370
    50
100
AcDbLine
 10
20.51596467391376
 20
18.28252377717462
 30
0.0
 11
393.3603993291064
 21
18.28252377717463
 31
0.0
  0
LINE
  5
109
330
1F
100
AcDbEntity
  8
15
  6
Continuous
 62
    98
420
    20480
370
    50
100
AcDbLine
 10
20.51596467391376
 20
267.1682892483032
 30
0.0
 11
393.3603993291064
 21
267.1682892483032
 31
0.0
  0
LINE
  5
10A
330
1F
100
AcDbEntity
  8
15
  6
Continuous
 62
    98
420
    20480
370
     9
100
AcDbLine
 10
306.2019600590614
 20
53.1459061088786
 30
0.0
 11
393.3603993291064
 21
53.1459061088786
 31
0.0
  0
LINE
  5
10B
330
1F
100
AcDbEntity
  8
15
  6
Continuous
 62
    98
420
    20480
370
     9
100
AcDbLine
 10
306.2019600590612
 20
53.14589948519263
 30
0.0
 11
393.3603993291064
 21
53.1459061088786
 31
0.0
  0
LINE
  5
10C
330
1F
100
AcDbEntity
  8
15
  6
Continuous
 62
    98
420
    20480
370
     9
100
AcDbLine
 10
393.3603993291063
 20
29.90365563686661
 30
0.0
 11
306.2019600590612
 21
29.90364901318061
 31
0.0
  0
LINE
  5
10D
330
1F
100
AcDbEntity
  8
15
  6
Continuous
 62
    98
420
    20480
370
     9
100
AcDbLine
 10
306.2019600590613
 20
44.4300555581881
 30
0.0
 11
393.0684738323852
 21
44.4300555581881
 31
0.0
  0
LINE
  5
10E
330
1F
100
AcDbEntity
  8
15
  6
Continuous
 62
    98
420
    20480
370
     9
100
AcDbLine
 10
393.0684738323851
 20
35.71421825486959
 30
0.0
 11
306.2019600590613
 21
35.71421163118362
 31
0.0
  0
LINE
  5
10F
330
1F
100
AcDbEntity
  8
15
  6
Continuous
 62
    98
420
    20480
370
     9
100
AcDbLine
 10
320.7283666040688
 20
44.4300555581881
 30
0.0
 11
320.7283666040688
 21
35.71421275731642
 31
0.0
  0
LINE
  5
110
330
1F
100
AcDbEntity
  8
15
  6
Continuous
 62
    98
420
    20480
370
     9
100
AcDbLine
 10
344.9390441790814
 20
44.4300555581881
 30
0.0
 11
344.9390441790814
 21
35.7142145972292
 31
0.0
  0
LINE
  5
111
330
1F
100
AcDbEntity
  8
15
  6
Continuous
 62
    98
420
    20480
370
     9
100
AcDbLine
 10
369.1497217540939
 20
44.4300555581881
 30
0.0
 11
369.1497217540939
 21
35.71421643714196
 31
0.0
  0
MTEXT
  5
112
330
1F
100
AcDbEntity
  8
15
  6
Continuous
 62
    98
420
    20480
370
     9
100
AcDbMText
 10
360.9266330932317
 20
18.65719125040017
 30
0.0
 40
9.684271030005002
 41
35.06437036691013
 46
9.684271030005002
 71
     7
 72
     1
  1
{\fＭＳ ゴシック|b1;\W0.714286;アート}
 11
0.9999999999999971
 21
7.599592331552029E-8
 31
0.0
 73
     1
 44
1.0
  0
INSERT
  5
117
330
1F
100
AcDbEntity
  8
0
100
AcDbBlockReference
  2
G1
 10
0.0
 20
0.0
 30
0.0
  0
HATCH
  5
118
330
1F
100
AcDbEntity
  8
15
  6
Continuous
 62
    98
420
    20480
370
     9
100
AcDbHatch
 10
0.0
 20
0.0
 30
0.0
210
0.0
220
0.0
230
1.0
  2
SOLID
 70
     1
 71
     0
 91
        1
 92
        0
 93
        8
 72
     1
 10
310.35664354811
 20
19.1333463019043
 11
313.4235089574605
 21
19.13334653497357
 72
     1
 10
313.4235089574605
 20
19.13334653497357
 11
318.2031354504267
 21
23.86565008617118
 72
     1
 10
318.2031354504267
 20
23.86565008617118
 11
318.2031356535335
 21
21.19304890777416
 72
     1
 10
318.2031356535335
 20
21.19304890777416
 11
316.0453519724847
 21
21.1930487437914
 72
     1
 10
316.0453519724847
 20
21.1930487437914
 11
316.0453521290136
 21
19.13334673422296
 72
     1
 10
316.0453521290136
 20
19.13334673422296
 11
320.2628356377109
 21
19.13334705473452
 72
     1
 10
320.2628356377109
 20
19.13334705473452
 11
320.2628348923346
 21
28.94145529093496
 72
     1
 10
320.2628348923346
 20
28.94145529093496
 11
310.35664354811
 21
19.1333463019043
 97
        0
 75
     0
 76
     1
 98
        0
  0
LINE
  5
119
330
1F
100
AcDbEntity
  8
15
  6
Continuous
 62
    98
420
    20480
370
     9
100
AcDbLine
 10
320.2628348923346
 20
28.94145529093496
 30
0.0
 11
310.35664354811
 21
19.1333463019043
 31
0.0
  0
LINE
  5
11A
330
1F
100
AcDbEntity
  8
15
  6
Continuous
 62
    98
420
    20480
370
     9
100
AcDbLine
 10
320.2628356377109
 20
19.13334705473452
 30
0.0
 11
320.2628348923346
 21
28.94145529093496
 31
0.0
  0
LINE
  5
11B
330
1F
100
AcDbEntity
  8
15
  6
Continuous
 62
    98
420
    20480
370
    30
100
AcDbLine
 10
325.7553805924107
 20
22.86042916920093
 30
0.0
 11
325.7553808756538
 21
19.13334747214556
 31
0.0
  0
LINE
  5
11C
330
1F
100
AcDbEntity
  8
15
  6
Continuous
 62
    98
420
    20480
370
    30
100
AcDbLine
 10
324.4803232270053
 20
22.86042907230177
 30
0.0
 11
325.7553805924107
 21
22.86042916920093
 31
0.0
  0
LINE
  5
11D
330
1F
100
AcDbEntity
  8
15
  6
Continuous
 62
    98
420
    20480
370
    30
100
AcDbLine
 10
324.4803231375603
 20
24.03740040238657
 30
0.0
 11
324.4803232270053
 21
22.86042907230177
 31
0.0
  0
LINE
  5
11E
330
1F
100
AcDbEntity
  8
15
  6
Continuous
 62
    98
420
    20480
370
    30
100
AcDbLine
 10
328.4035659956566
 20
24.03740070053703
 30
0.0
 11
324.4803231375603
 21
24.03740040238657
 31
0.0
  0
LINE
  5
11F
330
1F
100
AcDbEntity
  8
15
  6
Continuous
 62
    98
420
    20480
370
    30
100
AcDbLine
 10
323.2052725682526
 20
20.74331192082359
 30
0.0
 11
324.9302332490274
 21
19.13334740943771
 31
0.0
  0
ARC
  5
120
330
1F
100
AcDbEntity
  8
15
  6
Continuous
 62
    98
420
    20480
370
    30
100
AcDbCircle
 10
322.8026209128843
 20
22.37002276932121
 30
0.0
 40
1.677702351390078
100
AcDbArc
 50
283.9448509848726
 51
83.64030041852497
  0
LINE
  5
121
330
1F
100
AcDbEntity
  8
15
  6
Continuous
 62
    98
420
    20480
370
    30
100
AcDbLine
 10
320.6551619509445
 20
24.03740011168991
 30
0.0
 11
322.9884614652279
 21
24.03740028901116
 31
0.0
  0
LINE
  5
122
330
1F
100
AcDbEntity
  8
15
  6
Continuous
 62
    98
420
    20480
370
    30
100
AcDbLine
 10
320.6551619509445
 20
24.03740011168991
 30
0.0
 11
320.6551620403896
 21
22.86042878160511
 31
0.0
  0
LINE
  5
123
330
1F
100
AcDbEntity
  8
15
  6
Continuous
 62
    98
420
    20480
370
    30
100
AcDbLine
 10
320.6551620403896
 20
22.86042878160511
 30
0.0
 11
322.6167845603977
 21
22.86042893068043
 31
0.0
  0
LINE
  5
124
330
1F
100
AcDbEntity
  8
15
  6
Continuous
 62
    98
420
    20480
370
    30
100
AcDbLine
 10
320.2628354290055
 20
21.87961640082576
 30
0.0
 11
322.6167846349354
 21
21.87961657971631
 31
0.0
  0
ARC
  5
125
330
1F
100
AcDbEntity
  8
15
  6
Continuous
 62
    98
420
    20480
370
    30
100
AcDbCircle
 10
322.6167845976666
 20
22.3700227551984
 30
0.0
 40
0.4904061754820551
100
AcDbArc
 50
270.0000044491355
 51
90.00000425936346
  0
LINE
  5
126
330
1F
100
AcDbEntity
  8
15
  6
Continuous
 62
    98
420
    20480
370
    30
100
AcDbLine
 10
320.2628354290055
 20
21.87961640082576
 30
0.0
 11
323.2052726906033
 21
19.13334727834773
 31
0.0
  0
LINE
  5
127
330
1F
100
AcDbEntity
  8
15
  6
Continuous
 62
    98
420
    20480
370
    30
100
AcDbLine
 10
318.2031356535335
 20
21.19304890777416
 30
0.0
 11
316.0453519724847
 21
21.1930487437914
 31
0.0
  0
LINE
  5
128
330
1F
100
AcDbEntity
  8
15
  6
Continuous
 62
    98
420
    20480
370
    30
100
AcDbLine
 10
318.2031354504267
 20
23.86565008617118
 30
0.0
 11
318.2031356535335
 21
21.19304890777416
 31
0.0
  0
LINE
  5
129
330
1F
100
AcDbEntity
  8
15
  6
Continuous
 62
    98
420
    20480
370
    30
100
AcDbLine
 10
313.4235089574605
 20
19.13334653497357
 30
0.0
 11
318.2031354504267
 21
23.86565008617118
 31
0.0
  0
HATCH
  5
12A
330
1F
100
AcDbEntity
  8
15
  6
Continuous
 62
    98
420
    20480
370
     9
100
AcDbHatch
 10
0.0
 20
0.0
 30
0.0
210
0.0
220
0.0
230
1.0
  2
SOLID
 70
     1
 71
     0
 91
        1
 92
        0
 93
        8
 72
     1
 10
324.4803231375603
 20
24.03740040238657
 11
328.4035659956566
 21
24.03740070053703
 72
     1
 10
328.4035659956566
 20
24.03740070053703
 11
328.4035660851016
 21
22.86042937045224
 72
     1
 10
328.4035660851016
 20
22.86042937045224
 11
327.1285174473766
 21
22.86042927355373
 72
     1
 10
327.1285174473766
 20
22.86042927355373
 11
327.1285177306196
 21
19.13334757649837
 72
     1
 10
327.1285177306196
 20
19.13334757649837
 11
325.7553808756538
 21
19.13334747214556
 72
     1
 10
325.7553808756538
 20
19.13334747214556
 11
325.7553805924107
 21
22.86042916920093
 72
     1
 10
325.7553805924107
 20
22.86042916920093
 11
324.4803232270053
 21
22.86042907230177
 72
     1
 10
324.4803232270053
 20
22.86042907230177
 11
324.4803231375603
 21
24.03740040238657
 97
        0
 75
     0
 76
     1
 98
        0
  0
HATCH
  5
12B
330
1F
100
AcDbEntity
  8
15
  6
Continuous
 62
    98
420
    20480
370
     9
100
AcDbHatch
 10
0.0
 20
0.0
 30
0.0
210
0.0
220
0.0
230
1.0
  2
SOLID
 70
     1
 71
     0
 91
        1
 92
        0
 93
        9
 72
     1
 10
323.2069289408628
 20
20.74176597189279
 11
324.9302332490274
 21
19.13334740943771
 72
     1
 10
324.9302332490274
 20
19.13334740943771
 11
323.2052726906033
 21
19.13334727834773
 72
     1
 10
323.2052726906033
 20
19.13334727834773
 11
320.2628354290055
 21
21.87961640082576
 72
     1
 10
320.2628354290055
 20
21.87961640082576
 11
322.6167846349354
 21
21.87961657971631
 72
     2
 10
322.6167845976666
 20
22.3700227551984
 40
0.4904061754820551
 50
270.0000043542397
 51
450.0000043542463
 73
     1
 72
     1
 10
322.6167845603977
 20
22.86042893068043
 11
320.6551620403896
 21
22.86042878160511
 72
     1
 10
320.6551620403896
 20
22.86042878160511
 11
320.6551619509445
 21
24.03740011168991
 72
     1
 10
320.6551619509445
 20
24.03740011168991
 11
322.6167782889059
 21
24.03740026076476
 72
     2
 10
322.8026209128843
 20
22.37002276932121
 40
1.677702351390078
 50
263.640173957834
 51
436.0550731150826
 73
     0
 97
        0
 75
     0
 76
     1
 98
        0
  0
LINE
  5
12C
330
1F
100
AcDbEntity
  8
15
  6
Continuous
 62
    98
420
    20480
370
    30
100
AcDbLine
 10
316.0453519724847
 20
21.1930487437914
 30
0.0
 11
316.0453521290136
 21
19.13334673422296
 31
0.0
  0
LINE
  5
12D
330
1F
100
AcDbEntity
  8
15
  6
Continuous
 62
    98
420
    20480
370
    30
100
AcDbLine
 10
316.0453521290136
 20
19.13334673422296
 30
0.0
 11
320.2628356377109
 21
19.13334705473452
 31
0.0
  0
LINE
  5
12E
330
1F
100
AcDbEntity
  8
15
  6
Continuous
 62
    98
420
    20480
370
    30
100
AcDbLine
 10
324.9302332490274
 20
19.13334740943771
 30
0.0
 11
323.2052726906033
 21
19.13334727834773
 31
0.0
  0
LINE
  5
12F
330
1F
100
AcDbEntity
  8
15
  6
Continuous
 62
    98
420
    20480
370
    30
100
AcDbLine
 10
325.7553808756538
 20
19.13334747214556
 30
0.0
 11
327.1285177306196
 21
19.13334757649837
 31
0.0
  0
LINE
  5
130
330
1F
100
AcDbEntity
  8
15
  6
Continuous
 62
    98
420
    20480
370
    30
100
AcDbLine
 10
327.1285177306196
 20
19.13334757649837
 30
0.0
 11
327.1285174473766
 21
22.86042927355373
 31
0.0
  0
LINE
  5
131
330
1F
100
AcDbEntity
  8
15
  6
Continuous
 62
    98
420
    20480
370
    30
100
AcDbLine
 10
327.1285174473766
 20
22.86042927355373
 30
0.0
 11
328.4035660851016
 21
22.86042937045224
 31
0.0
  0
LINE
  5
132
330
1F
100
AcDbEntity
  8
15
  6
Continuous
 62
    98
420
    20480
370
    30
100
AcDbLine
 10
328.4035660851016
 20
22.86042937045224
 30
0.0
 11
328.4035659956566
 21
24.03740070053703
 31
0.0
  0
LINE
  5
133
330
1F
100
AcDbEntity
  8
15
  6
Continuous
 62
    98
420
    20480
370
    30
100
AcDbLine
 10
310.35664354811
 20
19.1333463019043
 30
0.0
 11
313.4235089574605
 21
19.13334653497357
 31
0.0
  0
MTEXT
  5
134
330
1F
100
AcDbEntity
  8
15
  6
Continuous
 62
    98
420
    20480
370
     9
100
AcDbMText
 10
329.619625880976
 20
19.06605920630536
 30
0.0
 40
3.486337570801802
 41
37.83807007905209
 46
3.486337570801802
 71
     7
 72
     1
  1
{\fＭＳ ゴシック;\W1.488095;\T1.026667;株式会社}
 11
0.9999999999999971
 21
7.599592331552029E-8
 31
0.0
 73
     1
 44
1.0
  0
MTEXT
  5
135
330
1F
100
AcDbEntity
  8
15
  6
Continuous
 62
    98
420
    20480
370
     9
100
AcDbMText
 10
329.5512955036425
 20
22.82421424621745
 30
0.0
 40
1.743168785400901
 41
22.00915234123299
 46
1.743168785400901
 71
     7
 72
     1
  1
{\fＭＳ ゴシック;\W0.873016;出入管理システム}
 11
0.9999999999999971
 21
7.599592331552029E-8
 31
0.0
 73
     1
 44
1.0
  0
LINE
  5
136
330
1F
100
AcDbEntity
  8
15
  6
Continuous
 62
    98
420
    20480
370
     9
100
AcDbLine
 10
358.8228815032862
 20
23.80265505733958
 30
0.0
 11
346.7537011865454
 21
23.80265414013108
 31
0.0
  0
LINE
  5
137
330
1F
100
AcDbEntity
  8
15
  6
Continuous
 62
    98
420
    20480
370
    50
100
AcDbLine
 10
393.3603993291064
 20
18.28252377717462
 30
0.0
 11
393.3603993291064
 21
267.1682892483032
 31
0.0
  0
LINE
  5
138
330
1F
100
AcDbEntity
  8
15
  6
Continuous
 62
    98
420
    20480
370
     9
100
AcDbLine
 10
349.8979806457056
 20
35.67662851193376
 30
0.0
 11
349.8979806457056
 21
29.83573446465566
 31
0.0
  0
LINE
  5
139
330
1F
100
AcDbEntity
  8
15
  6
Continuous
 62
    98
420
    20480
370
     9
100
AcDbLine
 10
356.7123570341968
 20
35.67663331733239
 30
0.0
 11
356.7123570341968
 21
29.83573924775335
 31
0.0
  0
LINE
  5
13A
330
1F
100
AcDbEntity
  8
15
  6
Continuous
 62
    98
420
    20480
370
     9
100
AcDbLine
 10
382.016121898906
 20
35.6766309529703
 30
0.0
 11
382.016121898906
 21
29.83573690524595
 31
0.0
  0
LINE
  5
13B
330
1F
100
AcDbEntity
  8
15
  6
Continuous
 62
    98
420
    20480
370
     9
100
AcDbLine
 10
384.9859140875584
 20
34.93678437342526
 30
0.0
 11
384.9859140875584
 21
30.57558348479098
 31
0.0
  0
CIRCLE
  5
13C
330
1F
100
AcDbEntity
  8
15
  6
Continuous
 62
    98
420
    20480
370
     9
100
AcDbCircle
 10
384.9859140875584
 20
32.75618392910813
 30
0.0
 40
0.9345430475644728
  0
CIRCLE
  5
13D
330
1F
100
AcDbEntity
  8
15
  6
Continuous
 62
    98
420
    20480
370
     9
100
AcDbCircle
 10
384.9859140875584
 20
32.75618392910813
 30
0.0
 40
1.557571745940843
  0
LINE
  5
13E
330
1F
100
AcDbEntity
  8
15
  6
Continuous
 62
    98
420
    20480
370
     9
100
AcDbLine
 10
387.5551980508485
 20
33.69072697667262
 30
0.0
 11
387.5551980508485
 21
31.82164088154364
 31
0.0
  0
LINE
  5
13F
330
1F
100
AcDbEntity
  8
15
  6
Continuous
 62
    98
420
    20480
370
     9
100
AcDbLine
 10
392.5394276378591
 20
34.31375567504895
 30
0.0
 11
392.5394276378591
 21
31.1986121831673
 31
0.0
  0
LINE
  5
140
330
1F
100
AcDbEntity
  8
15
  6
Continuous
 62
    98
420
    20480
370
     9
100
AcDbLine
 10
387.5551980508485
 20
33.69072697667262
 30
0.0
 11
392.5394276378591
 21
34.31375567504895
 31
0.0
  0
LINE
  5
141
330
1F
100
AcDbEntity
  8
15
  6
Continuous
 62
    98
420
    20480
370
     9
100
AcDbLine
 10
387.5551980508485
 20
31.82164088154364
 30
0.0
 11
392.5394276378591
 21
31.1986121831673
 31
0.0
  0
LINE
  5
142
330
1F
100
AcDbEntity
  8
15
  6
Continuous
 62
    98
420
    20480
370
     9
100
AcDbLine
 10
382.8053136432412
 20
32.75618392910813
 30
0.0
 11
393.0709489961615
 21
32.75618392910813
 31
0.0
  0
LINE
  5
143
330
1F
100
AcDbEntity
  8
15
  6
Continuous
 62
    98
420
    20480
370
     9
100
AcDbLine
 10
320.7283666040688
 20
35.71421275731642
 30
0.0
 11
320.7283666040688
 21
29.90365011712827
 31
0.0
  0
LINE
  5
144
330
1F
100
AcDbEntity
  8
15
  6
Continuous
 62
    98
420
    20480
370
     9
100
AcDbLine
 10
20.51596467391368
 20
61.86175003588311
 30
0.0
 11
393.3603993291064
 21
61.86175003588311
 31
0.0
  0
LINE
  5
145
330
1F
100
AcDbEntity
  8
15
  6
Continuous
 62
    98
420
    20480
370
    30
100
AcDbLine
 10
20.51596467391377
 20
61.86175003588311
 30
0.0
 11
393.3603993291064
 21
61.86175003588311
 31
0.0
  0
LINE
  5
146
330
1F
100
AcDbEntity
  8
15
  6
Continuous
 62
    98
420
    20480
370
    30
100
AcDbLine
 10
306.2019600590614
 20
267.1682892483032
 30
0.0
 11
306.2019600590614
 21
18.28252377717463
 31
0.0
  0
LINE
  5
147
330
1F
100
AcDbEntity
  8
15
  6
Continuous
 62
    98
420
    20480
370
    30
100
AcDbLine
 10
273.9210566257114
 20
61.86175003588311
 30
0.0
 11
273.9210566257114
 21
18.28252377717463
 31
0.0
  0
LINE
  5
148
330
1F
100
AcDbEntity
  8
15
  6
Continuous
 62
    98
420
    20480
370
    30
100
AcDbLine
 10
273.9210566257114
 20
57.0196145208806
 30
0.0
 11
306.2019600590614
 21
57.0196145208806
 31
0.0
  0
LINE
  5
149
330
1F
100
AcDbEntity
  8
15
  6
Continuous
 62
    98
420
    20480
370
     9
100
AcDbLine
 10
273.9210566257114
 20
52.1774790058781
 30
0.0
 11
306.2019600590614
 21
52.17747900587808
 31
0.0
  0
LINE
  5
14A
330
1F
100
AcDbEntity
  8
15
  6
Continuous
 62
    98
420
    20480
370
     9
100
AcDbLine
 10
273.9210566257114
 20
47.33534349087557
 30
0.0
 11
306.2019600590614
 21
47.33534349087556
 31
0.0
  0
LINE
  5
14B
330
1F
100
AcDbEntity
  8
15
  6
Continuous
 62
    98
420
    20480
370
     9
100
AcDbLine
 10
273.9210566257114
 20
42.49320797587309
 30
0.0
 11
306.2019600590614
 21
42.49320797587308
 31
0.0
  0
LINE
  5
14C
330
1F
100
AcDbEntity
  8
15
  6
Continuous
 62
    98
420
    20480
370
     9
100
AcDbLine
 10
273.9210566257114
 20
37.65107246087058
 30
0.0
 11
306.2019600590614
 21
37.65107246087057
 31
0.0
  0
LINE
  5
14D
330
1F
100
AcDbEntity
  8
15
  6
Continuous
 62
    98
420
    20480
370
     9
100
AcDbLine
 10
273.9210566257114
 20
32.80893694586809
 30
0.0
 11
306.2019600590614
 21
32.80893694586807
 31
0.0
  0
LINE
  5
14E
330
1F
100
AcDbEntity
  8
15
  6
Continuous
 62
    98
420
    20480
370
     9
100
AcDbLine
 10
273.9210566257114
 20
27.96680143086559
 30
0.0
 11
306.2019600590614
 21
27.96680143086557
 31
0.0
  0
LINE
  5
14F
330
1F
100
AcDbEntity
  8
15
  6
Continuous
 62
    98
420
    20480
370
     9
100
AcDbLine
 10
273.9210566257114
 20
23.12466591586309
 30
0.0
 11
306.2019600590614
 21
23.12466591586307
 31
0.0
  0
LINE
  5
150
330
1F
100
AcDbEntity
  8
15
  6
Continuous
 62
    98
420
    20480
370
     9
100
AcDbLine
 10
278.7631921407139
 20
57.0196145208806
 30
0.0
 11
278.7631921407139
 21
18.28252377717462
 31
0.0
  0
MTEXT
  5
151
330
1F
100
AcDbEntity
  8
15
  6
Continuous
 62
    98
420
    20480
370
     9
100
AcDbMText
 10
20.93338250687324
 20
61.48946270324
 30
0.0
 40
4.8421355150025
 41
32.02928839332952
 46
4.8421355150025
 71
     1
 72
     1
  1
{\fＭＳ ゴシック;\W0.714286;\T1.080000;※特記事項}
 73
     1
 44
1.0
  0
MTEXT
  5
152
330
1F
100
AcDbEntity
  8
15
  6
Continuous
 62
    98
420
    20480
370
     9
100
AcDbMText
 10
290.0615083423864
 20
59.19857550263172
 30
0.0
 40
3.0
 41
16.01415786112066
 46
3.0
 71
     5
 72
     1
  1
{\fＭＳ ゴシック;\W0.714286;\T1.133333;図面履歴}
 73
     1
 44
1.0
  0
MTEXT
  5
153
330
1F
100
AcDbEntity
  8
15
  6
Continuous
 62
    98
420
    20480
370
     9
100
AcDbMText
 10
294.5871726404295
 20
66.21114984087896
 30
0.0
 40
3.0
 41
122.8510875234447
 46
3.0
 71
     6
 72
     1
  1
{\fＭＳ ゴシック;\W0.714286;\T1.133333;＊　記載されている会社名、製品名は、登録商標または商品です。}
 73
     1
 44
1.0
  0
MTEXT
  5
154
330
1F
100
AcDbEntity
  8
15
  6
Continuous
 62
    98
420
    20480
370
     9
100
AcDbMText
 10
292.4825760998877
 20
49.5143044726267
 30
0.0
 40
3.0
 41
1.762475918909591
 46
3.0
 71
     5
 72
     1
  1
{\fＭＳ ゴシック;\W0.714286;-}
 73
     1
 44
1.0
  0
MTEXT
  5
155
330
1F
100
AcDbEntity
  8
15
  6
Continuous
 62
    98
420
    20480
370
     9
100
AcDbMText
 10
292.4825760998877
 20
44.67216895762419
 30
0.0
 40
3.0
 41
1.762475918909591
 46
3.0
 71
     5
 72
     1
  1
{\fＭＳ ゴシック;\W0.714286;-}
 73
     1
 44
1.0
  0
MTEXT
  5
156
330
1F
100
AcDbEntity
  8
15
  6
Continuous
 62
    98
420
    20480
370
     9
100
AcDbMText
 10
292.4825760998877
 20
40.31424699412197
 30
0.0
 40
3.0
 41
1.762475918909591
 46
3.0
 71
     5
 72
     1
  1
{\fＭＳ ゴシック;\W0.714286;-}
 73
     1
 44
1.0
  0
MTEXT
  5
157
330
1F
100
AcDbEntity
  8
15
  6
Continuous
 62
    98
420
    20480
370
     9
100
AcDbMText
 10
292.4825760998877
 20
35.47211147911945
 30
0.0
 40
3.0
 41
1.762475918909591
 46
3.0
 71
     5
 72
     1
  1
{\fＭＳ ゴシック;\W0.714286;-}
 73
     1
 44
1.0
  0
MTEXT
  5
158
330
1F
100
AcDbEntity
  8
15
  6
Continuous
 62
    98
420
    20480
370
     9
100
AcDbMText
 10
292.4825760998877
 20
30.62997596411696
 30
0.0
 40
3.0
 41
1.762475918909591
 46
3.0
 71
     5
 72
     1
  1
{\fＭＳ ゴシック;\W0.714286;-}
 73
     1
 44
1.0
  0
MTEXT
  5
159
330
1F
100
AcDbEntity
  8
15
  6
Continuous
 62
    98
420
    20480
370
     9
100
AcDbMText
 10
292.4825760998877
 20
25.78784044911446
 30
0.0
 40
3.0
 41
1.762475918909591
 46
3.0
 71
     5
 72
     1
  1
{\fＭＳ ゴシック;\W0.714286;-}
 73
     1
 44
1.0
  0
MTEXT
  5
15A
330
1F
100
AcDbEntity
  8
15
  6
Continuous
 62
    98
420
    20480
370
     9
100
AcDbMText
 10
306.6193778920209
 20
59.06839509004563
 30
0.0
 40
2.5
 41
9.967187528915966
 46
2.5
 71
     7
 72
     1
  1
{\fＭＳ ゴシック;\W0.714286;\T1.160000;型　式}
 73
     1
 44
1.0
  0
MTEXT
  5
15B
330
1F
100
AcDbEntity
  8
15
  6
Continuous
 62
    98
420
    20480
370
     9
100
AcDbMText
 10
306.6193778920209
 20
50.19667604077367
 30
0.0
 40
2.5
 41
9.671150615453106
 46
2.5
 71
     7
 72
     1
  1
{\fＭＳ ゴシック;\W0.714286;\T1.160000;製品名}
 73
     1
 44
1.0
  0
MTEXT
  5
15C
330
1F
100
AcDbEntity
  8
15
  6
Continuous
 62
    98
420
    20480
370
     9
100
AcDbMText
 10
306.924185645817
 20
41.60362706276553
 30
0.0
 40
2.5
 41
17.41504820916125
 46
2.5
 71
     7
 72
     1
  1
{\fＭＳ ゴシック;\W0.714286;縮尺（Ａ３）}
 73
     1
 44
1.0
  0
MTEXT
  5
15D
330
1F
100
AcDbEntity
  8
15
  6
Continuous
 62
    98
420
    20480
370
     9
100
AcDbMText
 10
370.170096944348
 20
41.37838329994046
 30
0.0
 40
2.5
 41
6.35442422222027
 46
2.5
 71
     7
 72
     1
  1
{\fＭＳ ゴシック;\W0.714286;\T1.160000;作図}
 73
     1
 44
1.0
  0
MTEXT
  5
15E
330
1F
100
AcDbEntity
  8
15
  6
Continuous
 62
    98
420
    20480
370
     9
100
AcDbMText
 10
321.4168695831377
 20
41.69506136169783
 30
0.0
 40
2.5
 41
6.585815774074091
 46
2.5
 71
     7
 72
     1
  1
{\fＭＳ ゴシック;\W0.714286;\T1.160000;承認}
 73
     1
 44
1.0
  0
MTEXT
  5
15F
330
1F
100
AcDbEntity
  8
15
  6
Continuous
 62
    98
420
    20480
370
     9
100
AcDbMText
 10
345.6275471581502
 20
41.69506136169783
 30
0.0
 40
2.5
 41
6.380187241868263
 46
2.5
 71
     7
 72
     1
  1
{\fＭＳ ゴシック;\W0.714286;\T1.160000;検図}
 73
     1
 44
1.0
  0
MTEXT
  5
160
330
1F
100
AcDbEntity
  8
15
  6
Continuous
 62
    98
420
    20480
370
     9
100
AcDbMText
 10
308.9465114304984
 20
37.17600841253579
 30
0.0
 40
3.0
 41
9.043723583903963
 46
3.0
 71
     7
 72
     1
  1
{\fＭＳ ゴシック;\W0.714286;１：１}
 73
     1
 44
1.0
  0
MTEXT
  5
161
330
1F
100
AcDbEntity
  8
15
  6
Continuous
 62
    98
420
    20480
370
     9
100
AcDbMText
 10
313.4651633315651
 20
32.80893032218212
 30
0.0
 40
3.0
 41
15.99874761182968
 46
3.0
 71
     5
 72
     1
  1
{\fＭＳ ゴシック;\W0.714286;\T1.133333;図面番号}
 73
     1
 44
1.0
  0
MTEXT
  5
162
330
1F
100
AcDbEntity
  8
15
  6
Continuous
 62
    98
420
    20480
370
     9
100
AcDbMText
 10
350.191461852217
 20
31.41076779810096
 30
0.0
 40
3.0
 41
7.170968598542242
 46
3.0
 71
     7
 72
     1
  1
{\fＭＳ ゴシック;\W0.714286;\T1.133333;日付}
 73
     1
 44
1.0
  0
SPLINE
  5
163
330
1F
100
AcDbEntity
  8
1
  6
Continuous
 62
     7
370
     9
100
AcDbSpline
210
0.0
220
0.0
230
1.0
 70
  1288
 71
     3
 72
     9
 73
     5
 74
     3
 42
0.0000000001
 43
0.0000000001
 40
0.0
 40
0.0
 40
0.0
 40
0.0
 40
1.0
 40
2.0
 40
2.0
 40
2.0
 40
2.0
 10
82.40905749955903
 20
211.36787475886
 30
0.0
 10
88.07572416623725
 20
212.11787475886
 30
0.0
 10
99.40905749959373
 20
213.6178745588599
 30
0.0
 10
110.7423908329025
 20
212.11787475886
 30
0.0
 10
116.4090574995568
 20
211.36787475886
 30
0.0
  0
SPLINE
  5
164
330
1F
100
AcDbEntity
  8
1
  6
Continuous
 62
     7
370
     9
100
AcDbSpline
210
0.0
220
0.0
230
1.0
 70
  1288
 71
     3
 72
     9
 73
     5
 74
     3
 42
0.0000000001
 43
0.0000000001
 40
0.0
 40
0.0
 40
0.0
 40
0.0
 40
1.0
 40
2.0
 40
2.0
 40
2.0
 40
2.0
 10
82.40905749955903
 20
210.36787475886
 30
0.0
 10
88.07572416623725
 20
211.1178747588599
 30
0.0
 10
99.40905749959373
 20
212.61787455886
 30
0.0
 10
110.7423908329025
 20
211.1178747588599
 30
0.0
 10
116.4090574995568
 20
210.36787475886
 30
0.0
  0
LINE
  5
165
330
1F
100
AcDbEntity
  8
1
  6
Continuous
 62
     7
370
     9
100
AcDbLine
 10
115.9090574995584
 20
211.4340258782064
 30
0.0
 11
115.9090574995584
 21
210.4560762513219
 31
0.0
  0
LINE
  5
166
330
1F
100
AcDbEntity
  8
1
  6
Continuous
 62
     7
370
     9
100
AcDbLine
 10
82.9090574995603
 20
211.4340258782064
 30
0.0
 11
82.9090574995603
 21
210.4340258782064
 31
0.0
  0
SPLINE
  5
167
330
1F
100
AcDbEntity
  8
1
  6
Continuous
 62
     7
370
     9
100
AcDbSpline
210
0.0
220
0.0
230
1.0
 70
  1288
 71
     3
 72
     9
 73
     5
 74
     3
 42
0.0000000001
 43
0.0000000001
 40
0.0
 40
0.0
 40
0.0
 40
0.0
 40
1.0
 40
2.0
 40
2.0
 40
2.0
 40
2.0
 10
94.6590574995584
 20
177.5796875384766
 30
0.0
 10
95.15905749955826
 20
176.8384513225106
 30
0.0
 10
96.15905729961457
 20
175.3559788953356
 30
0.0
 10
95.15905749955824
 20
173.9210899317722
 30
0.0
 10
94.65905749955837
 20
173.2036454523691
 30
0.0
  0
SPLINE
  5
168
330
1F
100
AcDbEntity
  8
1
  6
Continuous
 62
     7
370
     9
100
AcDbSpline
210
0.0
220
0.0
230
1.0
 70
  1288
 71
     3
 72
     9
 73
     5
 74
     3
 42
0.0000000001
 43
0.0000000001
 40
0.0
 40
0.0
 40
0.0
 40
0.0
 40
1.0
 40
2.0
 40
2.0
 40
2.0
 40
2.0
 10
104.1590574995585
 20
177.5796875384773
 30
0.0
 10
103.6590574995583
 20
176.8384513225111
 30
0.0
 10
102.6590576995013
 20
175.3559788953356
 30
0.0
 10
103.6590574995583
 20
173.9210899317718
 30
0.0
 10
104.1590574995584
 20
173.2036454523684
 30
0.0
  0
CIRCLE
  5
169
330
1F
100
AcDbEntity
  8
1
  6
Continuous
 62
     7
370
     9
100
AcDbCircle
 10
99.40905749955812
 20
195.3678747588599
 30
0.0
 40
6.0
  0
CIRCLE
  5
16A
330
1F
100
AcDbEntity
  8
1
  6
Continuous
 62
     7
370
     9
100
AcDbCircle
 10
99.40905749955812
 20
181.61787475886
 30
0.0
 40
4.75
  0
CIRCLE
  5
16B
330
1F
100
AcDbEntity
  8
1
  6
Continuous
 62
     7
370
     9
100
AcDbCircle
 10
99.40905749955812
 20
169.1178747588601
 30
0.0
 40
4.75
  0
ARC
  5
16C
330
1F
100
AcDbEntity
  8
1
  6
Continuous
 62
     7
370
     9
100
AcDbCircle
 10
99.40905749955812
 20
195.3678747588599
 30
0.0
 40
7.500000000000313
100
AcDbArc
 50
317.1881585426509
 51
222.8118414573517
  0
POLYLINE
  5
16D
330
1F
100
AcDbEntity
  8
1
  6
Continuous
 62
     7
370
     9
100
AcDb2dPolyline
 66
     1
 10
0.0
 20
0.0
 30
0.0
  0
VERTEX
  5
16E
330
16D
100
AcDbEntity
  8
1
  6
Continuous
 62
     7
370
     9
100
AcDbVertex
100
AcDb2dVertex
 10
94.6590574995584
 20
185.6560619792435
 30
0.0
  0
VERTEX
  5
16F
330
16D
100
AcDbEntity
  8
1
  6
Continuous
 62
     7
370
     9
100
AcDbVertex
100
AcDb2dVertex
 10
94.6688600947152
 20
185.6698014326522
 30
0.0
  0
VERTEX
  5
170
330
16D
100
AcDbEntity
  8
1
  6
Continuous
 62
     7
370
     9
100
AcDbVertex
100
AcDb2dVertex
 10
94.69798768716379
 20
185.7106486861419
 30
0.0
  0
VERTEX
  5
171
330
16D
100
AcDbEntity
  8
1
  6
Continuous
 62
     7
370
     9
100
AcDbVertex
100
AcDb2dVertex
 10
94.74553527859982
 20
185.777521196322
 30
0.0
  0
VERTEX
  5
172
330
16D
100
AcDbEntity
  8
1
  6
Continuous
 62
     7
370
     9
100
AcDbVertex
100
AcDb2dVertex
 10
94.80980707918744
 20
185.8687091613555
 30
0.0
  0
VERTEX
  5
173
330
16D
100
AcDbEntity
  8
1
  6
Continuous
 62
     7
370
     9
100
AcDbVertex
100
AcDb2dVertex
 10
94.88812299205412
 20
185.9819908818621
 30
0.0
  0
VERTEX
  5
174
330
16D
100
AcDbEntity
  8
1
  6
Continuous
 62
     7
370
     9
100
AcDbVertex
100
AcDb2dVertex
 10
94.97669704563427
 20
186.1147491592074
 30
0.0
  0
VERTEX
  5
175
330
16D
100
AcDbEntity
  8
1
  6
Continuous
 62
     7
370
     9
100
AcDbVertex
100
AcDb2dVertex
 10
95.07068332546481
 20
186.2640591201751
 30
0.0
  0
VERTEX
  5
176
330
16D
100
AcDbEntity
  8
1
  6
Continuous
 62
     7
370
     9
100
AcDbVertex
100
AcDb2dVertex
 10
95.16445128159398
 20
186.4267269787537
 30
0.0
  0
VERTEX
  5
177
330
16D
100
AcDbEntity
  8
1
  6
Continuous
 62
     7
370
     9
100
AcDbVertex
100
AcDb2dVertex
 10
95.25209636388499
 20
186.5992748193378
 30
0.0
  0
VERTEX
  5
178
330
16D
100
AcDbEntity
  8
1
  6
Continuous
 62
     7
370
     9
100
AcDbVertex
100
AcDb2dVertex
 10
95.3281274087656
 20
186.7778846130402
 30
0.0
  0
VERTEX
  5
179
330
16D
100
AcDbEntity
  8
1
  6
Continuous
 62
     7
370
     9
100
AcDbVertex
100
AcDb2dVertex
 10
95.38821554400602
 20
186.9583306476236
 30
0.0
  0
VERTEX
  5
17A
330
16D
100
AcDbEntity
  8
1
  6
Continuous
 62
     7
370
     9
100
AcDbVertex
100
AcDb2dVertex
 10
95.42985582883702
 20
187.1359390023279
 30
0.0
  0
VERTEX
  5
17B
330
16D
100
AcDbEntity
  8
1
  6
Continuous
 62
     7
370
     9
100
AcDbVertex
100
AcDb2dVertex
 10
95.45279255515115
 20
187.3056127269667
 30
0.0
  0
VERTEX
  5
17C
330
16D
100
AcDbEntity
  8
1
  6
Continuous
 62
     7
370
     9
100
AcDbVertex
100
AcDb2dVertex
 10
95.4590944945675
 20
187.4619513057584
 30
0.0
  0
VERTEX
  5
17D
330
16D
100
AcDbEntity
  8
1
  6
Continuous
 62
     7
370
     9
100
AcDbVertex
100
AcDb2dVertex
 10
95.4528311927761
 20
187.5994745739391
 30
0.0
  0
VERTEX
  5
17E
330
16D
100
AcDbEntity
  8
1
  6
Continuous
 62
     7
370
     9
100
AcDbVertex
100
AcDb2dVertex
 10
95.43938214850127
 20
187.7129383850373
 30
0.0
  0
VERTEX
  5
17F
330
16D
100
AcDbEntity
  8
1
  6
Continuous
 62
     7
370
     9
100
AcDbVertex
100
AcDb2dVertex
 10
95.42448952437448
 20
187.7977071061063
 30
0.0
  0
VERTEX
  5
180
330
16D
100
AcDbEntity
  8
1
  6
Continuous
 62
     7
370
     9
100
AcDbVertex
100
AcDb2dVertex
 10
95.41322389677586
 20
187.850131603171
 30
0.0
  0
VERTEX
  5
181
330
16D
100
AcDbEntity
  8
1
  6
Continuous
 62
     7
370
     9
100
AcDbVertex
100
AcDb2dVertex
 10
95.4090574995586
 20
187.86787475886
 30
0.0
  0
VERTEX
  5
182
330
16D
100
AcDbEntity
  8
1
  6
Continuous
 62
     7
370
     9
100
AcDbVertex
100
AcDb2dVertex
 10
95.40469971140257
 20
187.8856727697825
 30
0.0
  0
VERTEX
  5
183
330
16D
100
AcDbEntity
  8
1
  6
Continuous
 62
     7
370
     9
100
AcDbVertex
100
AcDb2dVertex
 10
95.39062530043736
 20
187.938902302176
 30
0.0
  0
VERTEX
  5
184
330
16D
100
AcDbEntity
  8
1
  6
Continuous
 62
     7
370
     9
100
AcDbVertex
100
AcDb2dVertex
 10
95.36405324300532
 20
188.0270185069078
 30
0.0
  0
VERTEX
  5
185
330
16D
100
AcDbEntity
  8
1
  6
Continuous
 62
     7
370
     9
100
AcDbVertex
100
AcDb2dVertex
 10
95.32104401114887
 20
188.1489546678547
 30
0.0
  0
VERTEX
  5
186
330
16D
100
AcDbEntity
  8
1
  6
Continuous
 62
     7
370
     9
100
AcDbVertex
100
AcDb2dVertex
 10
95.25739547683361
 20
188.3029253203677
 30
0.0
  0
VERTEX
  5
187
330
16D
100
AcDbEntity
  8
1
  6
Continuous
 62
     7
370
     9
100
AcDbVertex
100
AcDb2dVertex
 10
95.16963515397765
 20
188.4862234166297
 30
0.0
  0
VERTEX
  5
188
330
16D
100
AcDbEntity
  8
1
  6
Continuous
 62
     7
370
     9
100
AcDbVertex
100
AcDb2dVertex
 10
95.05591546924515
 20
188.695064718276
 30
0.0
  0
VERTEX
  5
189
330
16D
100
AcDbEntity
  8
1
  6
Continuous
 62
     7
370
     9
100
AcDbVertex
100
AcDb2dVertex
 10
94.91664397346904
 20
188.9245248378862
 30
0.0
  0
VERTEX
  5
18A
330
16D
100
AcDbEntity
  8
1
  6
Continuous
 62
     7
370
     9
100
AcDbVertex
100
AcDb2dVertex
 10
94.75473949968583
 20
189.1685969588157
 30
0.0
  0
VERTEX
  5
18B
330
16D
100
AcDbEntity
  8
1
  6
Continuous
 62
     7
370
     9
100
AcDbVertex
100
AcDb2dVertex
 10
94.57548427296481
 20
189.4203752531783
 30
0.0
  0
VERTEX
  5
18C
330
16D
100
AcDbEntity
  8
1
  6
Continuous
 62
     7
370
     9
100
AcDbVertex
100
AcDb2dVertex
 10
94.38602285213099
 20
189.6723455681071
 30
0.0
  0
VERTEX
  5
18D
330
16D
100
AcDbEntity
  8
1
  6
Continuous
 62
     7
370
     9
100
AcDbVertex
100
AcDb2dVertex
 10
94.19462368505671
 20
189.9167461838429
 30
0.0
  0
VERTEX
  5
18E
330
16D
100
AcDbEntity
  8
1
  6
Continuous
 62
     7
370
     9
100
AcDbVertex
100
AcDb2dVertex
 10
94.0098544468078
 20
190.1459512491603
 30
0.0
  0
VERTEX
  5
18F
330
16D
100
AcDbEntity
  8
1
  6
Continuous
 62
     7
370
     9
100
AcDbVertex
100
AcDb2dVertex
 10
93.90713679664262
 20
190.2709277727873
 30
0.0
  0
SEQEND
  5
190
330
16D
100
AcDbEntity
  8
1
  6
Continuous
 62
     7
370
     9
  0
POLYLINE
  5
191
330
1F
100
AcDbEntity
  8
1
  6
Continuous
 62
     7
370
     9
100
AcDb2dPolyline
 66
     1
 10
0.0
 20
0.0
 30
0.0
  0
VERTEX
  5
192
330
191
100
AcDbEntity
  8
1
  6
Continuous
 62
     7
370
     9
100
AcDbVertex
100
AcDb2dVertex
 10
104.1590574995585
 20
185.6560619792427
 30
0.0
  0
VERTEX
  5
193
330
191
100
AcDbEntity
  8
1
  6
Continuous
 62
     7
370
     9
100
AcDbVertex
100
AcDb2dVertex
 10
104.1492549044017
 20
185.6698014326515
 30
0.0
  0
VERTEX
  5
194
330
191
100
AcDbEntity
  8
1
  6
Continuous
 62
     7
370
     9
100
AcDbVertex
100
AcDb2dVertex
 10
104.1201273119531
 20
185.7106486861412
 30
0.0
  0
VERTEX
  5
195
330
191
100
AcDbEntity
  8
1
  6
Continuous
 62
     7
370
     9
100
AcDbVertex
100
AcDb2dVertex
 10
104.072579720517
 20
185.7775211963213
 30
0.0
  0
VERTEX
  5
196
330
191
100
AcDbEntity
  8
1
  6
Continuous
 62
     7
370
     9
100
AcDbVertex
100
AcDb2dVertex
 10
104.0083079199294
 20
185.8687091613548
 30
0.0
  0
VERTEX
  5
197
330
191
100
AcDbEntity
  8
1
  6
Continuous
 62
     7
370
     9
100
AcDbVertex
100
AcDb2dVertex
 10
103.9299920070627
 20
185.9819908818615
 30
0.0
  0
VERTEX
  5
198
330
191
100
AcDbEntity
  8
1
  6
Continuous
 62
     7
370
     9
100
AcDbVertex
100
AcDb2dVertex
 10
103.8414179534825
 20
186.1147491592068
 30
0.0
  0
VERTEX
  5
199
330
191
100
AcDbEntity
  8
1
  6
Continuous
 62
     7
370
     9
100
AcDbVertex
100
AcDb2dVertex
 10
103.747431673652
 20
186.2640591201746
 30
0.0
  0
VERTEX
  5
19A
330
191
100
AcDbEntity
  8
1
  6
Continuous
 62
     7
370
     9
100
AcDbVertex
100
AcDb2dVertex
 10
103.6536637175228
 20
186.4267269787533
 30
0.0
  0
VERTEX
  5
19B
330
191
100
AcDbEntity
  8
1
  6
Continuous
 62
     7
370
     9
100
AcDbVertex
100
AcDb2dVertex
 10
103.5660186352318
 20
186.5992748193374
 30
0.0
  0
VERTEX
  5
19C
330
191
100
AcDbEntity
  8
1
  6
Continuous
 62
     7
370
     9
100
AcDbVertex
100
AcDb2dVertex
 10
103.4899875903511
 20
186.7778846130399
 30
0.0
  0
VERTEX
  5
19D
330
191
100
AcDbEntity
  8
1
  6
Continuous
 62
     7
370
     9
100
AcDbVertex
100
AcDb2dVertex
 10
103.4298994551108
 20
186.9583306476233
 30
0.0
  0
VERTEX
  5
19E
330
191
100
AcDbEntity
  8
1
  6
Continuous
 62
     7
370
     9
100
AcDbVertex
100
AcDb2dVertex
 10
103.3882591702797
 20
187.1359390023276
 30
0.0
  0
VERTEX
  5
19F
330
191
100
AcDbEntity
  8
1
  6
Continuous
 62
     7
370
     9
100
AcDbVertex
100
AcDb2dVertex
 10
103.3653224439656
 20
187.3056127269665
 30
0.0
  0
VERTEX
  5
1A0
330
191
100
AcDbEntity
  8
1
  6
Continuous
 62
     7
370
     9
100
AcDbVertex
100
AcDb2dVertex
 10
103.3590205045492
 20
187.4619513057583
 30
0.0
  0
VERTEX
  5
1A1
330
191
100
AcDbEntity
  8
1
  6
Continuous
 62
     7
370
     9
100
AcDbVertex
100
AcDb2dVertex
 10
103.3652838063406
 20
187.599474573939
 30
0.0
  0
VERTEX
  5
1A2
330
191
100
AcDbEntity
  8
1
  6
Continuous
 62
     7
370
     9
100
AcDbVertex
100
AcDb2dVertex
 10
103.3787328506154
 20
187.7129383850372
 30
0.0
  0
VERTEX
  5
1A3
330
191
100
AcDbEntity
  8
1
  6
Continuous
 62
     7
370
     9
100
AcDbVertex
100
AcDb2dVertex
 10
103.3936254747423
 20
187.7977071061063
 30
0.0
  0
VERTEX
  5
1A4
330
191
100
AcDbEntity
  8
1
  6
Continuous
 62
     7
370
     9
100
AcDbVertex
100
AcDb2dVertex
 10
103.4048911023409
 20
187.850131603171
 30
0.0
  0
VERTEX
  5
1A5
330
191
100
AcDbEntity
  8
1
  6
Continuous
 62
     7
370
     9
100
AcDbVertex
100
AcDb2dVertex
 10
103.4090574995581
 20
187.86787475886
 30
0.0
  0
VERTEX
  5
1A6
330
191
100
AcDbEntity
  8
1
  6
Continuous
 62
     7
370
     9
100
AcDbVertex
100
AcDb2dVertex
 10
103.4134152877141
 20
187.8856727697825
 30
0.0
  0
VERTEX
  5
1A7
330
191
100
AcDbEntity
  8
1
  6
Continuous
 62
     7
370
     9
100
AcDbVertex
100
AcDb2dVertex
 10
103.4274896986794
 20
187.9389023021761
 30
0.0
  0
VERTEX
  5
1A8
330
191
100
AcDbEntity
  8
1
  6
Continuous
 62
     7
370
     9
100
AcDbVertex
100
AcDb2dVertex
 10
103.4540617561114
 20
188.0270185069079
 30
0.0
  0
VERTEX
  5
1A9
330
191
100
AcDbEntity
  8
1
  6
Continuous
 62
     7
370
     9
100
AcDbVertex
100
AcDb2dVertex
 10
103.4970709879679
 20
188.1489546678548
 30
0.0
  0
VERTEX
  5
1AA
330
191
100
AcDbEntity
  8
1
  6
Continuous
 62
     7
370
     9
100
AcDbVertex
100
AcDb2dVertex
 10
103.5607195222831
 20
188.3029253203678
 30
0.0
  0
VERTEX
  5
1AB
330
191
100
AcDbEntity
  8
1
  6
Continuous
 62
     7
370
     9
100
AcDbVertex
100
AcDb2dVertex
 10
103.6484798451391
 20
188.4862234166299
 30
0.0
  0
VERTEX
  5
1AC
330
191
100
AcDbEntity
  8
1
  6
Continuous
 62
     7
370
     9
100
AcDbVertex
100
AcDb2dVertex
 10
103.7621995298716
 20
188.6950647182763
 30
0.0
  0
VERTEX
  5
1AD
330
191
100
AcDbEntity
  8
1
  6
Continuous
 62
     7
370
     9
100
AcDbVertex
100
AcDb2dVertex
 10
103.9014710256477
 20
188.9245248378865
 30
0.0
  0
VERTEX
  5
1AE
330
191
100
AcDbEntity
  8
1
  6
Continuous
 62
     7
370
     9
100
AcDbVertex
100
AcDb2dVertex
 10
104.0633754994309
 20
189.1685969588161
 30
0.0
  0
VERTEX
  5
1AF
330
191
100
AcDbEntity
  8
1
  6
Continuous
 62
     7
370
     9
100
AcDbVertex
100
AcDb2dVertex
 10
104.242630726152
 20
189.4203752531787
 30
0.0
  0
VERTEX
  5
1B0
330
191
100
AcDbEntity
  8
1
  6
Continuous
 62
     7
370
     9
100
AcDbVertex
100
AcDb2dVertex
 10
104.4320921469858
 20
189.6723455681076
 30
0.0
  0
VERTEX
  5
1B1
330
191
100
AcDbEntity
  8
1
  6
Continuous
 62
     7
370
     9
100
AcDbVertex
100
AcDb2dVertex
 10
104.6234913140601
 20
189.9167461838435
 30
0.0
  0
VERTEX
  5
1B2
330
191
100
AcDbEntity
  8
1
  6
Continuous
 62
     7
370
     9
100
AcDbVertex
100
AcDb2dVertex
 10
104.808260552309
 20
190.1459512491609
 30
0.0
  0
VERTEX
  5
1B3
330
191
100
AcDbEntity
  8
1
  6
Continuous
 62
     7
370
     9
100
AcDbVertex
100
AcDb2dVertex
 10
104.910978202474
 20
190.2709277727877
 30
0.0
  0
SEQEND
  5
1B4
330
191
100
AcDbEntity
  8
1
  6
Continuous
 62
     7
370
     9
  0
ARC
  5
1B5
330
1F
100
AcDbEntity
  8
1
  6
Continuous
 62
     7
370
     9
100
AcDbCircle
 10
99.40905749955812
 20
181.61787475886
 30
0.0
 40
6.234537354677245
100
AcDbArc
 50
139.630651324962
 51
220.36934867504
  0
ARC
  5
1B6
330
1F
100
AcDbEntity
  8
1
  6
Continuous
 62
     7
370
     9
100
AcDbCircle
 10
99.40905749955812
 20
181.61787475886
 30
0.0
 40
6.234537354677245
100
AcDbArc
 50
319.6306513249704
 51
40.36934867502854
  0
ARC
  5
1B7
330
1F
100
AcDbEntity
  8
1
  6
Continuous
 62
     7
370
     9
100
AcDbCircle
 10
99.40905749955812
 20
169.1178747588601
 30
0.0
 40
6.265462645322745
100
AcDbArc
 50
139.2991254521888
 51
40.70087454780713
  0
CIRCLE
  5
1B8
330
1F
100
AcDbEntity
  8
1
  6
Continuous
 62
     7
370
     9
100
AcDbCircle
 10
84.40905749955814
 20
201.8678747588598
 30
0.0
 40
1.499999999999972
  0
LINE
  5
1B9
330
1F
100
AcDbEntity
  8
1
  6
Continuous
 62
     7
370
     9
100
AcDbLine
 10
99.75905749955845
 20
182.6178747588601
 30
0.0
 11
99.75905749955845
 21
180.6178747588601
 31
0.0
  0
LINE
  5
1BA
330
1F
100
AcDbEntity
  8
1
  6
Continuous
 62
     7
370
     9
100
AcDbLine
 10
100.2590574995583
 20
181.1178747588596
 30
0.0
 11
100.2590574995583
 21
182.6178747588601
 31
0.0
  0
LINE
  5
1BB
330
1F
100
AcDbEntity
  8
1
  6
Continuous
 62
     7
370
     9
100
AcDbLine
 10
99.75905749955845
 20
182.6178747588601
 30
0.0
 11
100.2590574995583
 21
182.6178747588601
 31
0.0
  0
LINE
  5
1BC
330
1F
100
AcDbEntity
  8
1
  6
Continuous
 62
     7
370
     9
100
AcDbLine
 10
99.75905749955845
 20
180.6178747588601
 30
0.0
 11
101.2590574995584
 21
180.6178747588601
 31
0.0
  0
LINE
  5
1BD
330
1F
100
AcDbEntity
  8
1
  6
Continuous
 62
     7
370
     9
100
AcDbLine
 10
101.2590574995584
 20
180.6178747588601
 30
0.0
 11
101.2590574995584
 21
181.1178747588596
 31
0.0
  0
LINE
  5
1BE
330
1F
100
AcDbEntity
  8
1
  6
Continuous
 62
     7
370
     9
100
AcDbLine
 10
101.2590574995584
 20
181.1178747588596
 30
0.0
 11
100.2590574995583
 21
181.1178747588596
 31
0.0
  0
INSERT
  5
1C8
330
1F
100
AcDbEntity
  8
0
100
AcDbBlockReference
  2
G2
 10
0.0
 20
0.0
 30
0.0
  0
INSERT
  5
1D2
330
1F
100
AcDbEntity
  8
0
100
AcDbBlockReference
  2
G3
 10
0.0
 20
0.0
 30
0.0
  0
ELLIPSE
  5
1D3
330
1F
100
AcDbEntity
  8
1
  6
Continuous
 62
     7
370
     9
100
AcDbEllipse
 10
98.30905749955855
 20
181.6178747588601
 30
0.0
 11
1.615544574432587E-15
 21
1.0
 31
0.0
210
0.0
220
0.0
230
1.0
 40
0.9499999999999957
 41
0.0
 42
6.283185307179586
  0
ELLIPSE
  5
1D4
330
1F
100
AcDbEntity
  8
1
  6
Continuous
 62
     7
370
     9
100
AcDbEllipse
 10
98.30905749955872
 20
181.61787475886
 30
0.0
 11
-6.236391781400828E-14
 21
0.5000000000004263
 31
0.0
210
0.0
220
0.0
230
1.0
 40
0.8999999999995794
 41
0.0
 42
6.283185307179586
  0
LINE
  5
1D5
330
1F
100
AcDbEntity
  8
1
  6
Continuous
 62
     7
370
     9
100
AcDbLine
 10
96.35905749955862
 20
181.3678747588606
 30
0.0
 11
96.35905749955862
 21
180.61787475886
 31
0.0
  0
LINE
  5
1D6
330
1F
100
AcDbEntity
  8
1
  6
Continuous
 62
     7
370
     9
100
AcDbLine
 10
96.35905749955862
 20
180.61787475886
 30
0.0
 11
96.85905749955856
 21
180.61787475886
 31
0.0
  0
LINE
  5
1D7
330
1F
100
AcDbEntity
  8
1
  6
Continuous
 62
     7
370
     9
100
AcDbLine
 10
96.85905749955856
 20
180.61787475886
 30
0.0
 11
96.85905749955859
 21
182.61787475886
 31
0.0
  0
LINE
  5
1D8
330
1F
100
AcDbEntity
  8
1
  6
Continuous
 62
     7
370
     9
100
AcDbLine
 10
96.85905749955856
 20
182.61787475886
 30
0.0
 11
96.35905749955862
 21
182.61787475886
 31
0.0
  0
LINE
  5
1D9
330
1F
100
AcDbEntity
  8
1
  6
Continuous
 62
     7
370
     9
100
AcDbLine
 10
96.35905749955862
 20
182.61787475886
 30
0.0
 11
96.35905749955862
 21
181.86787475886
 31
0.0
  0
LINE
  5
1DA
330
1F
100
AcDbEntity
  8
1
  6
Continuous
 62
     7
370
     9
100
AcDbLine
 10
95.1590574995586
 20
182.61787475886
 30
0.0
 11
95.1590574995586
 21
180.61787475886
 31
0.0
  0
LINE
  5
1DB
330
1F
100
AcDbEntity
  8
1
  6
Continuous
 62
     7
370
     9
100
AcDbLine
 10
95.1590574995586
 20
180.61787475886
 30
0.0
 11
95.65905749955812
 21
180.6178747588601
 31
0.0
  0
LINE
  5
1DC
330
1F
100
AcDbEntity
  8
1
  6
Continuous
 62
     7
370
     9
100
AcDbLine
 10
95.65905749955812
 20
180.6178747588601
 30
0.0
 11
95.65905749955857
 21
181.3678747588606
 31
0.0
  0
LINE
  5
1DD
330
1F
100
AcDbEntity
  8
1
  6
Continuous
 62
     7
370
     9
100
AcDbLine
 10
95.65905749955857
 20
181.3678747588606
 30
0.0
 11
96.35905749955862
 21
181.3678747588606
 31
0.0
  0
LINE
  5
1DE
330
1F
100
AcDbEntity
  8
1
  6
Continuous
 62
     7
370
     9
100
AcDbLine
 10
96.35905749955862
 20
181.86787475886
 30
0.0
 11
95.65905749955812
 21
181.86787475886
 31
0.0
  0
LINE
  5
1DF
330
1F
100
AcDbEntity
  8
1
  6
Continuous
 62
     7
370
     9
100
AcDbLine
 10
95.65905749955812
 20
181.86787475886
 30
0.0
 11
95.65905749955812
 21
182.61787475886
 31
0.0
  0
LINE
  5
1E0
330
1F
100
AcDbEntity
  8
1
  6
Continuous
 62
     7
370
     9
100
AcDbLine
 10
95.65905749955812
 20
182.61787475886
 30
0.0
 11
95.1590574995586
 21
182.61787475886
 31
0.0
  0
LINE
  5
1E1
330
1F
100
AcDbEntity
  8
1
  6
Continuous
 62
     7
370
     9
100
AcDbLine
 10
95.1590574995586
 20
170.1178747588601
 30
0.0
 11
95.1590574995586
 21
168.1178747588601
 31
0.0
  0
LINE
  5
1E2
330
1F
100
AcDbEntity
  8
1
  6
Continuous
 62
     7
370
     9
100
AcDbLine
 10
95.65905749955843
 20
168.6178747588596
 30
0.0
 11
95.65905749955843
 21
170.1178747588601
 31
0.0
  0
LINE
  5
1E3
330
1F
100
AcDbEntity
  8
1
  6
Continuous
 62
     7
370
     9
100
AcDbLine
 10
95.1590574995586
 20
170.1178747588601
 30
0.0
 11
95.65905749955843
 21
170.1178747588601
 31
0.0
  0
LINE
  5
1E4
330
1F
100
AcDbEntity
  8
1
  6
Continuous
 62
     7
370
     9
100
AcDbLine
 10
95.1590574995586
 20
168.1178747588601
 30
0.0
 11
96.65905749955854
 21
168.1178747588601
 31
0.0
  0
LINE
  5
1E5
330
1F
100
AcDbEntity
  8
1
  6
Continuous
 62
     7
370
     9
100
AcDbLine
 10
96.65905749955854
 20
168.1178747588601
 30
0.0
 11
96.65905749955854
 21
168.6178747588596
 31
0.0
  0
LINE
  5
1E6
330
1F
100
AcDbEntity
  8
1
  6
Continuous
 62
     7
370
     9
100
AcDbLine
 10
96.65905749955854
 20
168.6178747588596
 30
0.0
 11
95.65905749955843
 21
168.6178747588596
 31
0.0
  0
ELLIPSE
  5
1E7
330
1F
100
AcDbEntity
  8
1
  6
Continuous
 62
     7
370
     9
100
AcDbEllipse
 10
98.10905749955853
 20
169.1178747588601
 30
0.0
 11
1.615544574432587E-15
 21
1.0
 31
0.0
210
0.0
220
0.0
230
1.0
 40
0.9499999999999957
 41
0.0
 42
6.283185307179586
  0
ELLIPSE
  5
1E8
330
1F
100
AcDbEntity
  8
1
  6
Continuous
 62
     7
370
     9
100
AcDbEllipse
 10
98.1090574995587
 20
169.11787475886
 30
0.0
 11
-6.236391781400828E-14
 21
0.5000000000004263
 31
0.0
210
0.0
220
0.0
230
1.0
 40
0.8999999999995794
 41
0.0
 42
6.283185307179586
  0
ELLIPSE
  5
1E9
330
1F
100
AcDbEntity
  8
1
  6
Continuous
 62
     7
370
     9
100
AcDbEllipse
 10
100.5090574995585
 20
169.1178747588601
 30
0.0
 11
1.615544574432587E-15
 21
1.0
 31
0.0
210
0.0
220
0.0
230
1.0
 40
0.9499999999999957
 41
0.0
 42
6.283185307179586
  0
ELLIPSE
  5
1EA
330
1F
100
AcDbEntity
  8
1
  6
Continuous
 62
     7
370
     9
100
AcDbEllipse
 10
100.5090574995587
 20
169.11787475886
 30
0.0
 11
-6.236391781400828E-14
 21
0.5000000000004263
 31
0.0
210
0.0
220
0.0
230
1.0
 40
0.8999999999995794
 41
0.0
 42
6.283185307179586
  0
LINE
  5
1EB
330
1F
100
AcDbEntity
  8
1
  6
Continuous
 62
     7
370
     9
100
AcDbLine
 10
101.9590574995584
 20
170.11787475886
 30
0.0
 11
101.9590574995584
 21
168.1178747588601
 31
0.0
  0
LINE
  5
1EC
330
1F
100
AcDbEntity
  8
1
  6
Continuous
 62
     7
370
     9
100
AcDbLine
 10
101.9590574995584
 20
168.1178747319127
 30
0.0
 11
102.4590574995584
 21
168.1178747588601
 31
0.0
  0
LINE
  5
1ED
330
1F
100
AcDbEntity
  8
1
  6
Continuous
 62
     7
370
     9
100
AcDbLine
 10
102.4590574995584
 20
170.11787475886
 30
0.0
 11
101.9590574995584
 21
170.117874882866
 31
0.0
  0
LINE
  5
1EE
330
1F
100
AcDbEntity
  8
1
  6
Continuous
 62
     7
370
     9
100
AcDbLine
 10
103.6590573867195
 20
168.1178748289713
 30
0.0
 11
102.8090573532608
 21
169.1178749839756
 31
0.0
  0
LINE
  5
1EF
330
1F
100
AcDbEntity
  8
1
  6
Continuous
 62
     7
370
     9
100
AcDbLine
 10
102.8090574454654
 20
169.1178748869182
 30
0.0
 11
103.6590573867195
 21
170.11787475886
 31
0.0
  0
LINE
  5
1F0
330
1F
100
AcDbEntity
  8
1
  6
Continuous
 62
     7
370
     9
100
AcDbLine
 10
102.4590574995584
 20
168.1178747588601
 30
0.0
 11
102.4590574995584
 21
168.7061106979
 31
0.0
  0
LINE
  5
1F1
330
1F
100
AcDbEntity
  8
1
  6
Continuous
 62
     7
370
     9
100
AcDbLine
 10
102.4590574995584
 20
168.7061103394771
 30
0.0
 11
102.4809473967676
 21
168.7318630952454
 31
0.0
  0
LINE
  5
1F2
330
1F
100
AcDbEntity
  8
1
  6
Continuous
 62
     7
370
     9
100
AcDbLine
 10
102.4590574995584
 20
169.4781338817095
 30
0.0
 11
102.4590574995584
 21
170.11787475886
 31
0.0
  0
LINE
  5
1F3
330
1F
100
AcDbEntity
  8
1
  6
Continuous
 62
     7
370
     9
100
AcDbLine
 10
103.6590573867195
 20
170.11787475886
 30
0.0
 11
103.0028371660752
 21
170.11787475886
 31
0.0
  0
LINE
  5
1F4
330
1F
100
AcDbEntity
  8
1
  6
Continuous
 62
     7
370
     9
100
AcDbLine
 10
103.0028372580362
 20
170.11787475886
 30
0.0
 11
102.4590574995584
 21
169.4781338817095
 31
0.0
  0
LINE
  5
1F5
330
1F
100
AcDbEntity
  8
1
  6
Continuous
 62
     7
370
     9
100
AcDbLine
 10
103.0028372580362
 20
168.1178747588601
 30
0.0
 11
103.6590573867195
 21
168.1178747588601
 31
0.0
  0
LINE
  5
1F6
330
1F
100
AcDbEntity
  8
1
  6
Continuous
 62
     7
370
     9
100
AcDbLine
 10
102.4809473139765
 20
168.7318630080966
 30
0.0
 11
103.0028372580362
 21
168.1178747588601
 31
0.0
  0
ELLIPSE
  5
1F7
330
1F
100
AcDbEntity
  8
1
  6
Continuous
 62
     7
370
     9
100
AcDbEllipse
 10
96.10905749955859
 20
195.3678747588599
 30
0.0
 11
1.615544574432587E-15
 21
1.0
 31
0.0
210
0.0
220
0.0
230
1.0
 40
0.9499999999999957
 41
0.0
 42
6.283185307179586
  0
ELLIPSE
  5
1F8
330
1F
100
AcDbEntity
  8
1
  6
Continuous
 62
     7
370
     9
100
AcDbEllipse
 10
96.10905749955876
 20
195.3678747588598
 30
0.0
 11
-6.236391781400828E-14
 21
0.5000000000004263
 31
0.0
210
0.0
220
0.0
230
1.0
 40
0.8999999999995794
 41
0.0
 42
6.283185307179586
  0
LINE
  5
1F9
330
1F
100
AcDbEntity
  8
1
  6
Continuous
 62
     7
370
     9
100
AcDbLine
 10
99.75905749955845
 20
196.3678747588599
 30
0.0
 11
99.75905749955845
 21
194.3678747588599
 31
0.0
  0
LINE
  5
1FA
330
1F
100
AcDbEntity
  8
1
  6
Continuous
 62
     7
370
     9
100
AcDbLine
 10
99.75905749955845
 20
194.3678747588599
 30
0.0
 11
101.2590574995584
 21
194.3678747588599
 31
0.0
  0
LINE
  5
1FB
330
1F
100
AcDbEntity
  8
1
  6
Continuous
 62
     7
370
     9
100
AcDbLine
 10
101.2590574995584
 20
194.3678747588599
 30
0.0
 11
101.2590574995584
 21
194.8678747588594
 31
0.0
  0
LINE
  5
1FC
330
1F
100
AcDbEntity
  8
1
  6
Continuous
 62
     7
370
     9
100
AcDbLine
 10
101.2590574995584
 20
194.8678747588594
 30
0.0
 11
100.2590574995583
 21
194.8678747588595
 31
0.0
  0
LINE
  5
1FD
330
1F
100
AcDbEntity
  8
1
  6
Continuous
 62
     7
370
     9
100
AcDbLine
 10
97.55905749955855
 20
196.3678747588599
 30
0.0
 11
97.55905749955855
 21
194.3678747588599
 31
0.0
  0
LINE
  5
1FE
330
1F
100
AcDbEntity
  8
1
  6
Continuous
 62
     7
370
     9
100
AcDbLine
 10
97.55905749955855
 20
194.3678747588599
 30
0.0
 11
98.05905749955852
 21
194.3678747588599
 31
0.0
  0
LINE
  5
1FF
330
1F
100
AcDbEntity
  8
1
  6
Continuous
 62
     7
370
     9
100
AcDbLine
 10
98.05905749955852
 20
194.3678747588599
 30
0.0
 11
98.05905749955852
 21
195.1178747588604
 31
0.0
  0
LINE
  5
200
330
1F
100
AcDbEntity
  8
1
  6
Continuous
 62
     7
370
     9
100
AcDbLine
 10
98.05905749955852
 20
195.8678747588603
 30
0.0
 11
98.05905749955852
 21
195.6178747588599
 31
0.0
  0
LINE
  5
201
330
1F
100
AcDbEntity
  8
1
  6
Continuous
 62
     7
370
     9
100
AcDbLine
 10
100.2590574995583
 20
195.1178747588605
 30
0.0
 11
101.2590574995584
 21
195.1178747588604
 31
0.0
  0
LINE
  5
202
330
1F
100
AcDbEntity
  8
1
  6
Continuous
 62
     7
370
     9
100
AcDbLine
 10
101.2590574995584
 20
195.1178747588604
 30
0.0
 11
101.2590574995584
 21
195.6178747588599
 31
0.0
  0
LINE
  5
203
330
1F
100
AcDbEntity
  8
1
  6
Continuous
 62
     7
370
     9
100
AcDbLine
 10
101.2590574995584
 20
195.6178747588599
 30
0.0
 11
100.2590574995583
 21
195.6178747588599
 31
0.0
  0
LINE
  5
204
330
1F
100
AcDbEntity
  8
1
  6
Continuous
 62
     7
370
     9
100
AcDbLine
 10
100.2590574995583
 20
195.8678747588603
 30
0.0
 11
101.2590574995584
 21
195.8678747588603
 31
0.0
  0
LINE
  5
205
330
1F
100
AcDbEntity
  8
1
  6
Continuous
 62
     7
370
     9
100
AcDbLine
 10
101.2590574995584
 20
195.8678747588603
 30
0.0
 11
101.2590574995584
 21
196.3678747588599
 31
0.0
  0
LINE
  5
206
330
1F
100
AcDbEntity
  8
1
  6
Continuous
 62
     7
370
     9
100
AcDbLine
 10
100.2590574995583
 20
195.8678747588603
 30
0.0
 11
100.2590574995583
 21
195.6178747588599
 31
0.0
  0
LINE
  5
207
330
1F
100
AcDbEntity
  8
1
  6
Continuous
 62
     7
370
     9
100
AcDbLine
 10
100.2590574995583
 20
195.1178747588604
 30
0.0
 11
100.2590574995583
 21
194.8678747588594
 31
0.0
  0
LINE
  5
208
330
1F
100
AcDbEntity
  8
1
  6
Continuous
 62
     7
370
     9
100
AcDbLine
 10
99.75905749955845
 20
196.3678747588599
 30
0.0
 11
101.2590574995584
 21
196.3678747588599
 31
0.0
  0
LINE
  5
209
330
1F
100
AcDbEntity
  8
1
  6
Continuous
 62
     7
370
     9
100
AcDbLine
 10
101.7590574995584
 20
196.3678747588599
 30
0.0
 11
101.7590574995584
 21
194.3678747588599
 31
0.0
  0
LINE
  5
20A
330
1F
100
AcDbEntity
  8
1
  6
Continuous
 62
     7
370
     9
100
AcDbLine
 10
103.6590574995584
 20
196.3678747588599
 30
0.0
 11
103.6590574995584
 21
194.3678747588599
 31
0.0
  0
LINE
  5
20B
330
1F
100
AcDbEntity
  8
1
  6
Continuous
 62
     7
370
     9
100
AcDbLine
 10
103.6590574995584
 20
194.3678747588599
 30
0.0
 11
103.1590573668362
 21
194.3678747588599
 31
0.0
  0
LINE
  5
20C
330
1F
100
AcDbEntity
  8
1
  6
Continuous
 62
     7
370
     9
100
AcDbLine
 10
103.1590574995584
 20
196.3678747588599
 30
0.0
 11
103.6590574995584
 21
196.3678747588599
 31
0.0
  0
LINE
  5
20D
330
1F
100
AcDbEntity
  8
1
  6
Continuous
 62
     7
370
     9
100
AcDbLine
 10
101.7590574995584
 20
194.3678747588599
 30
0.0
 11
102.2590574995582
 21
194.3678747588599
 31
0.0
  0
LINE
  5
20E
330
1F
100
AcDbEntity
  8
1
  6
Continuous
 62
     7
370
     9
100
AcDbLine
 10
102.2590574995582
 20
196.3678750389928
 30
0.0
 11
101.7590574995584
 21
196.3678747588599
 31
0.0
  0
LINE
  5
20F
330
1F
100
AcDbEntity
  8
1
  6
Continuous
 62
     7
370
     9
100
AcDbLine
 10
102.2590574995582
 20
195.5447739978959
 30
0.0
 11
103.1590573668362
 21
194.3678747588599
 31
0.0
  0
LINE
  5
210
330
1F
100
AcDbEntity
  8
1
  6
Continuous
 62
     7
370
     9
100
AcDbLine
 10
103.1590574995584
 20
195.1909770311461
 30
0.0
 11
102.2590585444362
 21
196.3678747588599
 31
0.0
  0
LINE
  5
211
330
1F
100
AcDbEntity
  8
1
  6
Continuous
 62
     7
370
     9
100
AcDbLine
 10
102.2590574995582
 20
194.3678747588599
 30
0.0
 11
102.2590574995582
 21
195.5447739978959
 31
0.0
  0
LINE
  5
212
330
1F
100
AcDbEntity
  8
1
  6
Continuous
 62
     7
370
     9
100
AcDbLine
 10
102.2590574995582
 20
196.3678747588599
 30
0.0
 11
102.2590574995582
 21
196.3678750346826
 31
0.0
  0
LINE
  5
213
330
1F
100
AcDbEntity
  8
1
  6
Continuous
 62
     7
370
     9
100
AcDbLine
 10
103.1590574995584
 20
196.3678747588599
 30
0.0
 11
103.1590574214582
 21
195.1909770311461
 31
0.0
  0
LINE
  5
214
330
1F
100
AcDbEntity
  8
1
  6
Continuous
 62
     7
370
     9
100
AcDbLine
 10
103.1590573668362
 20
194.3678745853036
 30
0.0
 11
103.1590573668362
 21
194.3678747588599
 31
0.0
  0
LINE
  5
215
330
1F
100
AcDbEntity
  8
1
  6
Continuous
 62
     7
370
     9
100
AcDbLine
 10
98.75905749955854
 20
196.3678747588599
 30
0.0
 11
97.55905749955855
 21
196.3678747588599
 31
0.0
  0
ARC
  5
216
330
1F
100
AcDbEntity
  8
1
  6
Continuous
 62
     7
370
     9
100
AcDbCircle
 10
98.75905749955854
 20
195.8678747588599
 30
0.0
 40
0.5
100
AcDbArc
 50
0.0
 51
89.99999999999991
  0
LINE
  5
217
330
1F
100
AcDbEntity
  8
1
  6
Continuous
 62
     7
370
     9
100
AcDbLine
 10
99.25905749955854
 20
195.6178747588604
 30
0.0
 11
99.25905749955854
 21
195.8678747588599
 31
0.0
  0
LINE
  5
218
330
1F
100
AcDbEntity
  8
1
  6
Continuous
 62
     7
370
     9
100
AcDbLine
 10
98.05905749955852
 20
195.1178747588605
 30
0.0
 11
98.75905749955851
 21
195.1178747588604
 31
0.0
  0
ARC
  5
219
330
1F
100
AcDbEntity
  8
1
  6
Continuous
 62
     7
370
     9
100
AcDbCircle
 10
98.75905749955854
 20
195.6178747588604
 30
0.0
 40
0.5
100
AcDbArc
 50
269.9999999999964
 51
359.9999999999964
  0
LINE
  5
21A
330
1F
100
AcDbEntity
  8
1
  6
Continuous
 62
     7
370
     9
100
AcDbLine
 10
98.05905749955852
 20
195.8678747588603
 30
0.0
 11
98.65905749955854
 21
195.8678747588603
 31
0.0
  0
ARC
  5
21B
330
1F
100
AcDbEntity
  8
1
  6
Continuous
 62
     7
370
     9
100
AcDbCircle
 10
98.65905749955857
 20
195.7678747588603
 30
0.0
 40
0.1
100
AcDbArc
 50
359.9999999999834
 51
90.00000000001629
  0
LINE
  5
21C
330
1F
100
AcDbEntity
  8
1
  6
Continuous
 62
     7
370
     9
100
AcDbLine
 10
98.75905749955857
 20
195.7678747588602
 30
0.0
 11
98.75905749955857
 21
195.7178747588598
 31
0.0
  0
LINE
  5
21D
330
1F
100
AcDbEntity
  8
1
  6
Continuous
 62
     7
370
     9
100
AcDbLine
 10
98.6590574995586
 20
195.6178747588599
 30
0.0
 11
98.05905749955852
 21
195.6178747588599
 31
0.0
  0
ARC
  5
21E
330
1F
100
AcDbEntity
  8
1
  6
Continuous
 62
     7
370
     9
100
AcDbCircle
 10
98.65905749955857
 20
195.7178747588599
 30
0.0
 40
0.1
100
AcDbArc
 50
270.000000000016
 51
359.9999999999834
  0
POLYLINE
  5
21F
330
1F
100
AcDbEntity
  8
1
  6
Continuous
 62
     7
370
     9
100
AcDb2dPolyline
 66
     1
 10
0.0
 20
0.0
 30
0.0
  0
VERTEX
  5
220
330
21F
100
AcDbEntity
  8
1
  6
Continuous
 62
     7
370
     9
100
AcDbVertex
100
AcDb2dVertex
 10
108.8651968625077
 20
215.1178747588599
 30
0.0
  0
VERTEX
  5
221
330
21F
100
AcDbEntity
  8
1
  6
Continuous
 62
     7
370
     9
100
AcDbVertex
100
AcDb2dVertex
 10
108.4388272813289
 20
215.1373946015159
 30
0.0
  0
VERTEX
  5
222
330
21F
100
AcDbEntity
  8
1
  6
Continuous
 62
     7
370
     9
100
AcDbVertex
100
AcDb2dVertex
 10
107.2577577542325
 20
215.187777602084
 30
0.0
  0
VERTEX
  5
223
330
21F
100
AcDbEntity
  8
1
  6
Continuous
 62
     7
370
     9
100
AcDbVertex
100
AcDb2dVertex
 10
106.0603572448837
 20
215.2341932878298
 30
0.0
  0
VERTEX
  5
224
330
21F
100
AcDbEntity
  8
1
  6
Continuous
 62
     7
370
     9
100
AcDbVertex
100
AcDb2dVertex
 10
104.8792877177873
 20
215.2745555803795
 30
0.0
  0
VERTEX
  5
225
330
21F
100
AcDbEntity
  8
1
  6
Continuous
 62
     7
370
     9
100
AcDbVertex
100
AcDb2dVertex
 10
103.7467656708241
 20
215.307448631399
 30
0.0
  0
VERTEX
  5
226
330
21F
100
AcDbEntity
  8
1
  6
Continuous
 62
     7
370
     9
100
AcDbVertex
100
AcDb2dVertex
 10
102.6936833531705
 20
215.3322952515893
 30
0.0
  0
VERTEX
  5
227
330
21F
100
AcDbEntity
  8
1
  6
Continuous
 62
     7
370
     9
100
AcDbVertex
100
AcDb2dVertex
 10
101.7487661052715
 20
215.3493974810933
 30
0.0
  0
VERTEX
  5
228
330
21F
100
AcDbEntity
  8
1
  6
Continuous
 62
     7
370
     9
100
AcDbVertex
100
AcDb2dVertex
 10
100.9377888064343
 20
215.359831159734
 30
0.0
  0
VERTEX
  5
229
330
21F
100
AcDbEntity
  8
1
  6
Continuous
 62
     7
370
     9
100
AcDbVertex
100
AcDb2dVertex
 10
100.2828728033111
 20
215.3652057392943
 30
0.0
  0
VERTEX
  5
22A
330
21F
100
AcDbEntity
  8
1
  6
Continuous
 62
     7
370
     9
100
AcDbVertex
100
AcDb2dVertex
 10
99.80188249722852
 20
215.3673292726226
 30
0.0
  0
VERTEX
  5
22B
330
21F
100
AcDbEntity
  8
1
  6
Continuous
 62
     7
370
     9
100
AcDbVertex
100
AcDb2dVertex
 10
99.5079380498884
 20
215.3678399605074
 30
0.0
  0
VERTEX
  5
22C
330
21F
100
AcDbEntity
  8
1
  6
Continuous
 62
     7
370
     9
100
AcDbVertex
100
AcDb2dVertex
 10
99.40905749955812
 20
215.3678747588599
 30
0.0
  0
VERTEX
  5
22D
330
21F
100
AcDbEntity
  8
1
  6
Continuous
 62
     7
370
     9
100
AcDbVertex
100
AcDb2dVertex
 10
99.31017694922784
 20
215.3678399605074
 30
0.0
  0
VERTEX
  5
22E
330
21F
100
AcDbEntity
  8
1
  6
Continuous
 62
     7
370
     9
100
AcDbVertex
100
AcDb2dVertex
 10
99.01623250188771
 20
215.3673292726226
 30
0.0
  0
VERTEX
  5
22F
330
21F
100
AcDbEntity
  8
1
  6
Continuous
 62
     7
370
     9
100
AcDbVertex
100
AcDb2dVertex
 10
98.53524219580518
 20
215.3652057392943
 30
0.0
  0
VERTEX
  5
230
330
21F
100
AcDbEntity
  8
1
  6
Continuous
 62
     7
370
     9
100
AcDbVertex
100
AcDb2dVertex
 10
97.88032619268196
 20
215.359831159734
 30
0.0
  0
VERTEX
  5
231
330
21F
100
AcDbEntity
  8
1
  6
Continuous
 62
     7
370
     9
100
AcDbVertex
100
AcDb2dVertex
 10
97.06934889384473
 20
215.3493974810933
 30
0.0
  0
VERTEX
  5
232
330
21F
100
AcDbEntity
  8
1
  6
Continuous
 62
     7
370
     9
100
AcDbVertex
100
AcDb2dVertex
 10
96.12443164594569
 20
215.3322952515893
 30
0.0
  0
VERTEX
  5
233
330
21F
100
AcDbEntity
  8
1
  6
Continuous
 62
     7
370
     9
100
AcDbVertex
100
AcDb2dVertex
 10
95.07134932829214
 20
215.307448631399
 30
0.0
  0
VERTEX
  5
234
330
21F
100
AcDbEntity
  8
1
  6
Continuous
 62
     7
370
     9
100
AcDbVertex
100
AcDb2dVertex
 10
93.93882728132891
 20
215.2745555803795
 30
0.0
  0
VERTEX
  5
235
330
21F
100
AcDbEntity
  8
1
  6
Continuous
 62
     7
370
     9
100
AcDbVertex
100
AcDb2dVertex
 10
92.75775775423253
 20
215.2341932878298
 30
0.0
  0
VERTEX
  5
236
330
21F
100
AcDbEntity
  8
1
  6
Continuous
 62
     7
370
     9
100
AcDbVertex
100
AcDb2dVertex
 10
91.5603572448837
 20
215.187777602084
 30
0.0
  0
VERTEX
  5
237
330
21F
100
AcDbEntity
  8
1
  6
Continuous
 62
     7
370
     9
100
AcDbVertex
100
AcDb2dVertex
 10
90.37928771778732
 20
215.1373946015159
 30
0.0
  0
VERTEX
  5
238
330
21F
100
AcDbEntity
  8
1
  6
Continuous
 62
     7
370
     9
100
AcDbVertex
100
AcDb2dVertex
 10
89.9529181366083
 20
215.1178747588599
 30
0.0
  0
SEQEND
  5
239
330
21F
100
AcDbEntity
  8
1
  6
Continuous
 62
     7
370
     9
  0
LINE
  5
23A
330
1F
100
AcDbEntity
  8
1
  6
Continuous
 62
     7
370
     9
100
AcDbLine
 10
108.8651968625077
 20
215.1178747588599
 30
0.0
 11
113.4710746502639
 21
214.8895834697468
 31
0.0
  0
ARC
  5
23B
330
1F
100
AcDbEntity
  8
1
  6
Continuous
 62
     7
370
     9
100
AcDbCircle
 10
113.4215702142959
 20
213.8908095659931
 30
0.0
 40
1.0
100
AcDbArc
 50
39.80557109225143
 51
87.16244495183837
  0
LINE
  5
23C
330
1F
100
AcDbEntity
  8
1
  6
Continuous
 62
     7
370
     9
100
AcDbLine
 10
85.3470403488528
 20
214.8895834697468
 30
0.0
 11
89.9529181366083
 21
215.1178747588599
 31
0.0
  0
ARC
  5
23D
330
1F
100
AcDbEntity
  8
1
  6
Continuous
 62
     7
370
     9
100
AcDbCircle
 10
85.3965447848208
 20
213.8908095659931
 30
0.0
 40
1.0
100
AcDbArc
 50
92.83755504816163
 51
140.1944289077369
  0
LINE
  5
23E
330
1F
100
AcDbEntity
  8
1
  6
Continuous
 62
     7
370
     9
100
AcDbLine
 10
84.62832350522339
 20
214.5309939656576
 30
0.0
 11
82.52494685976032
 21
212.0069419911016
 31
0.0
  0
LINE
  5
23F
330
1F
100
AcDbEntity
  8
1
  6
Continuous
 62
     7
370
     9
100
AcDbLine
 10
82.40905749955903
 20
211.6868497912694
 30
0.0
 11
82.40905749955903
 21
211.36787475886
 31
0.0
  0
ARC
  5
240
330
1F
100
AcDbEntity
  8
1
  6
Continuous
 62
     7
370
     9
100
AcDbCircle
 10
82.90905749955903
 20
211.6868497912693
 30
0.0
 40
0.5
100
AcDbArc
 50
140.1944289077369
 51
179.9999999999967
  0
LINE
  5
241
330
1F
100
AcDbEntity
  8
1
  6
Continuous
 62
     7
370
     9
100
AcDbLine
 10
114.1897914938934
 20
214.5309939656574
 30
0.0
 11
116.2931681393556
 21
212.0069419911015
 31
0.0
  0
LINE
  5
242
330
1F
100
AcDbEntity
  8
1
  6
Continuous
 62
     7
370
     9
100
AcDbLine
 10
116.4090574995568
 20
211.36787475886
 30
0.0
 11
116.4090574995568
 21
211.6868497912694
 31
0.0
  0
ARC
  5
243
330
1F
100
AcDbEntity
  8
1
  6
Continuous
 62
     7
370
     9
100
AcDbCircle
 10
115.9090574995568
 20
211.6868497912694
 30
0.0
 40
0.5
100
AcDbArc
 50
359.9999999999964
 51
39.80557109225143
  0
SPLINE
  5
244
330
1F
100
AcDbEntity
  8
1
  6
Continuous
 62
     7
370
     9
100
AcDbSpline
210
0.0
220
0.0
230
1.0
 70
  1288
 71
     3
 72
    10
 73
     6
 74
     4
 42
0.0000000001
 43
0.0000000001
 40
0.0
 40
0.0
 40
0.0
 40
0.0
 40
1.0
 40
2.0
 40
3.0
 40
3.0
 40
3.0
 40
3.0
 10
82.40905749955797
 20
210.3678747588598
 30
0.0
 10
81.98409282696235
 20
208.7845414255265
 30
0.0
 10
81.13416350573485
 20
205.6178746274501
 30
0.0
 10
80.70507128786755
 20
199.3678746253649
 30
0.0
 10
81.35524649126504
 20
179.2012080921934
 30
0.0
 10
81.68033409530281
 20
169.1178747588601
 30
0.0
  0
SPLINE
  5
245
330
1F
100
AcDbEntity
  8
1
  6
Continuous
 62
     7
370
     9
100
AcDbSpline
210
0.0
220
0.0
230
1.0
 70
  1288
 71
     3
 72
    10
 73
     6
 74
     4
 42
0.0000000001
 43
0.0000000001
 40
0.0
 40
0.0
 40
0.0
 40
0.0
 40
1.0
 40
2.0
 40
3.0
 40
3.0
 40
3.0
 40
3.0
 10
116.4090574995583
 20
210.3678747588598
 30
0.0
 10
116.8340221721539
 20
208.7845414255265
 30
0.0
 10
117.6839514933814
 20
205.6178746274501
 30
0.0
 10
118.1130437112487
 20
199.3678746253649
 30
0.0
 10
117.4628685078512
 20
179.2012080921934
 30
0.0
 10
117.1377809038135
 20
169.1178747588601
 30
0.0
  0
POLYLINE
  5
246
330
1F
100
AcDbEntity
  8
1
  6
Continuous
 62
     7
370
     9
100
AcDb2dPolyline
 66
     1
 10
0.0
 20
0.0
 30
0.0
  0
VERTEX
  5
247
330
246
100
AcDbEntity
  8
1
  6
Continuous
 62
     7
370
     9
100
AcDbVertex
100
AcDb2dVertex
 10
89.9529181366083
 20
144.8678747588599
 30
0.0
  0
VERTEX
  5
248
330
246
100
AcDbEntity
  8
1
  6
Continuous
 62
     7
370
     9
100
AcDbVertex
100
AcDb2dVertex
 10
90.37928771778732
 20
144.8288350735479
 30
0.0
  0
VERTEX
  5
249
330
246
100
AcDbEntity
  8
1
  6
Continuous
 62
     7
370
     9
100
AcDbVertex
100
AcDb2dVertex
 10
91.5603572448837
 20
144.7280690724116
 30
0.0
  0
VERTEX
  5
24A
330
246
100
AcDbEntity
  8
1
  6
Continuous
 62
     7
370
     9
100
AcDbVertex
100
AcDb2dVertex
 10
92.75775775423253
 20
144.6352377009202
 30
0.0
  0
VERTEX
  5
24B
330
246
100
AcDbEntity
  8
1
  6
Continuous
 62
     7
370
     9
100
AcDbVertex
100
AcDb2dVertex
 10
93.93882728132891
 20
144.5545131158206
 30
0.0
  0
VERTEX
  5
24C
330
246
100
AcDbEntity
  8
1
  6
Continuous
 62
     7
370
     9
100
AcDbVertex
100
AcDb2dVertex
 10
95.07134932829214
 20
144.4887270137817
 30
0.0
  0
VERTEX
  5
24D
330
246
100
AcDbEntity
  8
1
  6
Continuous
 62
     7
370
     9
100
AcDbVertex
100
AcDb2dVertex
 10
96.12443164594569
 20
144.4390337734011
 30
0.0
  0
VERTEX
  5
24E
330
246
100
AcDbEntity
  8
1
  6
Continuous
 62
     7
370
     9
100
AcDbVertex
100
AcDb2dVertex
 10
97.06934889384473
 20
144.404829314393
 30
0.0
  0
VERTEX
  5
24F
330
246
100
AcDbEntity
  8
1
  6
Continuous
 62
     7
370
     9
100
AcDbVertex
100
AcDb2dVertex
 10
97.88032619268196
 20
144.3839619571116
 30
0.0
  0
VERTEX
  5
250
330
246
100
AcDbEntity
  8
1
  6
Continuous
 62
     7
370
     9
100
AcDbVertex
100
AcDb2dVertex
 10
98.53524219580515
 20
144.373212797991
 30
0.0
  0
VERTEX
  5
251
330
246
100
AcDbEntity
  8
1
  6
Continuous
 62
     7
370
     9
100
AcDbVertex
100
AcDb2dVertex
 10
99.01623250188771
 20
144.3689657313346
 30
0.0
  0
VERTEX
  5
252
330
246
100
AcDbEntity
  8
1
  6
Continuous
 62
     7
370
     9
100
AcDbVertex
100
AcDb2dVertex
 10
99.31017694922784
 20
144.3679443555649
 30
0.0
  0
VERTEX
  5
253
330
246
100
AcDbEntity
  8
1
  6
Continuous
 62
     7
370
     9
100
AcDbVertex
100
AcDb2dVertex
 10
99.40905749955812
 20
144.3678747588599
 30
0.0
  0
VERTEX
  5
254
330
246
100
AcDbEntity
  8
1
  6
Continuous
 62
     7
370
     9
100
AcDbVertex
100
AcDb2dVertex
 10
99.5079380498884
 20
144.3679443555649
 30
0.0
  0
VERTEX
  5
255
330
246
100
AcDbEntity
  8
1
  6
Continuous
 62
     7
370
     9
100
AcDbVertex
100
AcDb2dVertex
 10
99.80188249722852
 20
144.3689657313346
 30
0.0
  0
VERTEX
  5
256
330
246
100
AcDbEntity
  8
1
  6
Continuous
 62
     7
370
     9
100
AcDbVertex
100
AcDb2dVertex
 10
100.2828728033111
 20
144.373212797991
 30
0.0
  0
VERTEX
  5
257
330
246
100
AcDbEntity
  8
1
  6
Continuous
 62
     7
370
     9
100
AcDbVertex
100
AcDb2dVertex
 10
100.9377888064343
 20
144.3839619571116
 30
0.0
  0
VERTEX
  5
258
330
246
100
AcDbEntity
  8
1
  6
Continuous
 62
     7
370
     9
100
AcDbVertex
100
AcDb2dVertex
 10
101.7487661052715
 20
144.404829314393
 30
0.0
  0
VERTEX
  5
259
330
246
100
AcDbEntity
  8
1
  6
Continuous
 62
     7
370
     9
100
AcDbVertex
100
AcDb2dVertex
 10
102.6936833531705
 20
144.4390337734011
 30
0.0
  0
VERTEX
  5
25A
330
246
100
AcDbEntity
  8
1
  6
Continuous
 62
     7
370
     9
100
AcDbVertex
100
AcDb2dVertex
 10
103.7467656708241
 20
144.4887270137817
 30
0.0
  0
VERTEX
  5
25B
330
246
100
AcDbEntity
  8
1
  6
Continuous
 62
     7
370
     9
100
AcDbVertex
100
AcDb2dVertex
 10
104.8792877177873
 20
144.5545131158207
 30
0.0
  0
VERTEX
  5
25C
330
246
100
AcDbEntity
  8
1
  6
Continuous
 62
     7
370
     9
100
AcDbVertex
100
AcDb2dVertex
 10
106.0603572448837
 20
144.6352377009201
 30
0.0
  0
VERTEX
  5
25D
330
246
100
AcDbEntity
  8
1
  6
Continuous
 62
     7
370
     9
100
AcDbVertex
100
AcDb2dVertex
 10
107.2577577542325
 20
144.7280690724116
 30
0.0
  0
VERTEX
  5
25E
330
246
100
AcDbEntity
  8
1
  6
Continuous
 62
     7
370
     9
100
AcDbVertex
100
AcDb2dVertex
 10
108.4388272813289
 20
144.8288350735479
 30
0.0
  0
VERTEX
  5
25F
330
246
100
AcDbEntity
  8
1
  6
Continuous
 62
     7
370
     9
100
AcDbVertex
100
AcDb2dVertex
 10
108.8651968625077
 20
144.8678747588598
 30
0.0
  0
SEQEND
  5
260
330
246
100
AcDbEntity
  8
1
  6
Continuous
 62
     7
370
     9
  0
LINE
  5
261
330
1F
100
AcDbEntity
  8
1
  6
Continuous
 62
     7
370
     9
100
AcDbLine
 10
81.84324728965669
 20
161.460954624227
 30
0.0
 11
81.68033409530281
 21
169.1178747588601
 31
0.0
  0
ARC
  5
262
330
1F
100
AcDbEntity
  8
1
  6
Continuous
 62
     7
370
     9
100
AcDbCircle
 10
111.8364591913686
 20
162.0991080689443
 30
0.0
 40
30.0
100
AcDbArc
 50
181.218875235131
 51
192.9946167919162
  0
LINE
  5
263
330
1F
100
AcDbEntity
  8
1
  6
Continuous
 62
     7
370
     9
100
AcDbLine
 10
116.9748677094596
 20
161.4609546242272
 30
0.0
 11
117.1377809038135
 21
169.1178747588601
 31
0.0
  0
ARC
  5
264
330
1F
100
AcDbEntity
  8
1
  6
Continuous
 62
     7
370
     9
100
AcDbCircle
 10
86.98165580774761
 20
162.0991080689444
 30
0.0
 40
30.0
100
AcDbArc
 50
347.005383208083
 51
358.7811247648684
  0
LINE
  5
265
330
1F
100
AcDbEntity
  8
1
  6
Continuous
 62
     7
370
     9
100
AcDbLine
 10
84.42482225364967
 20
147.4662274911298
 30
0.0
 11
82.60472332053004
 21
155.3533228679815
 31
0.0
  0
LINE
  5
266
330
1F
100
AcDbEntity
  8
1
  6
Continuous
 62
     7
370
     9
100
AcDbLine
 10
87.05205512076637
 20
145.1554385145407
 30
0.0
 11
89.9529181366083
 21
144.8678747588599
 31
0.0
  0
ARC
  5
267
330
1F
100
AcDbEntity
  8
1
  6
Continuous
 62
     7
370
     9
100
AcDbCircle
 10
87.34799584073355
 20
148.1408060112261
 30
0.0
 40
3.0
100
AcDbArc
 50
192.9946167919161
 51
264.3387413250564
  0
LINE
  5
268
330
1F
100
AcDbEntity
  8
1
  6
Continuous
 62
     7
370
     9
100
AcDbLine
 10
108.8651968625077
 20
144.8678747588598
 30
0.0
 11
111.7660598783499
 21
145.1554385145407
 31
0.0
  0
LINE
  5
269
330
1F
100
AcDbEntity
  8
1
  6
Continuous
 62
     7
370
     9
100
AcDbLine
 10
116.2133916785862
 20
155.3533228679816
 30
0.0
 11
114.3932927454665
 21
147.4662274911298
 31
0.0
  0
ARC
  5
26A
330
1F
100
AcDbEntity
  8
1
  6
Continuous
 62
     7
370
     9
100
AcDbCircle
 10
111.4701191583827
 20
148.1408060112261
 30
0.0
 40
3.0
100
AcDbArc
 50
275.6612586749429
 51
347.0053832080831
  0
ARC
  5
26B
330
1F
100
AcDbEntity
  8
1
  6
Continuous
 62
     7
370
     9
100
AcDbCircle
 10
92.98854471291386
 20
151.3186452530714
 30
0.0
 40
3.0
100
AcDbArc
 50
153.434948822914
 51
186.3401917459074
  0
ARC
  5
26C
330
1F
100
AcDbEntity
  8
1
  6
Continuous
 62
     7
370
     9
100
AcDbCircle
 10
105.8338976697661
 20
151.3575917051439
 30
0.0
 40
3.0
100
AcDbArc
 50
353.6598082540897
 51
27.50863044140085
  0
LINE
  5
26D
330
1F
100
AcDbEntity
  8
1
  6
Continuous
 62
     7
370
     9
100
AcDbLine
 10
90.35627109505802
 20
152.7623019498591
 30
0.0
 11
90.3052631399143
 21
152.6602860395717
 31
0.0
  0
ARC
  5
26E
330
1F
100
AcDbEntity
  8
1
  6
Continuous
 62
     7
370
     9
100
AcDbCircle
 10
92.14512547705775
 20
151.8678747588589
 30
0.0
 40
2.0
100
AcDbArc
 50
89.99999999999991
 51
153.434948822914
  0
LINE
  5
26F
330
1F
100
AcDbEntity
  8
1
  6
Continuous
 62
     7
370
     9
100
AcDbLine
 10
92.14512547705775
 20
153.8678747588589
 30
0.0
 11
106.6956337926176
 21
153.867874758859
 31
0.0
  0
LINE
  5
270
330
1F
100
AcDbEntity
  8
1
  6
Continuous
 62
     7
370
     9
100
AcDbLine
 10
108.4695163328142
 20
152.7916391950579
 30
0.0
 11
108.4947214800609
 21
152.7432383594422
 31
0.0
  0
ARC
  5
271
330
1F
100
AcDbEntity
  8
1
  6
Continuous
 62
     7
370
     9
100
AcDbCircle
 10
106.6956337926176
 20
151.867874758859
 30
0.0
 40
2.0
100
AcDbArc
 50
27.50863044140207
 51
89.99999999999991
  0
LINE
  5
272
330
1F
100
AcDbEntity
  8
1
  6
Continuous
 62
     7
370
     9
100
AcDbLine
 10
90.006893508893
 20
150.987350674847
 30
0.0
 11
90.33477917786144
 21
148.0363796541302
 31
0.0
  0
LINE
  5
273
330
1F
100
AcDbEntity
  8
1
  6
Continuous
 62
     7
370
     9
100
AcDbLine
 10
90.57219152314437
 20
146.7153386645149
 30
0.0
 11
90.90905749955814
 21
145.3678747588599
 31
0.0
  0
ARC
  5
274
330
1F
100
AcDbEntity
  8
1
  6
Continuous
 62
     7
370
     9
100
AcDbCircle
 10
100.2736165245977
 20
149.1406949148784
 30
0.0
 40
10.0
100
AcDbArc
 50
186.340191745908
 51
194.0362434679269
  0
LINE
  5
275
330
1F
100
AcDbEntity
  8
1
  6
Continuous
 62
     7
370
     9
100
AcDbLine
 10
108.2459234759719
 20
146.715338664515
 30
0.0
 11
107.9090574995581
 21
145.3678747588599
 31
0.0
  0
LINE
  5
276
330
1F
100
AcDbEntity
  8
1
  6
Continuous
 62
     7
370
     9
100
AcDbLine
 10
108.8155488737869
 20
151.0262971269194
 30
0.0
 11
108.4833358212548
 21
148.0363796541301
 31
0.0
  0
ARC
  5
277
330
1F
100
AcDbEntity
  8
1
  6
Continuous
 62
     7
370
     9
100
AcDbCircle
 10
98.5444984745186
 20
149.1406949148785
 30
0.0
 40
10.0
100
AcDbArc
 50
345.963756532072
 51
353.65980825409
  0
LINE
  5
278
330
1F
100
AcDbEntity
  8
1
  6
Continuous
 62
     7
370
     9
100
AcDbLine
 10
90.9090574995582
 20
145.3678747588599
 30
0.0
 11
90.9090574995582
 21
150.8678747588599
 31
0.0
  0
ARC
  5
279
330
1F
100
AcDbEntity
  8
1
  6
Continuous
 62
     7
370
     9
100
AcDbCircle
 10
91.9090574995582
 20
150.8678747588599
 30
0.0
 40
1.0
100
AcDbArc
 50
89.99999999999991
 51
179.9999999999998
  0
LINE
  5
27A
330
1F
100
AcDbEntity
  8
1
  6
Continuous
 62
     7
370
     9
100
AcDbLine
 10
91.9090574995582
 20
151.8678747588599
 30
0.0
 11
106.9090574995581
 21
151.8678747588599
 31
0.0
  0
LINE
  5
27B
330
1F
100
AcDbEntity
  8
1
  6
Continuous
 62
     7
370
     9
100
AcDbLine
 10
107.9090574995581
 20
150.8678747588599
 30
0.0
 11
107.9090574995581
 21
145.3678747588599
 31
0.0
  0
ARC
  5
27C
330
1F
100
AcDbEntity
  8
1
  6
Continuous
 62
     7
370
     9
100
AcDbCircle
 10
106.9090574995581
 20
150.8678747588599
 30
0.0
 40
1.0
100
AcDbArc
 50
0.0
 51
89.99999999999991
  0
INSERT
  5
288
330
1F
100
AcDbEntity
  8
0
100
AcDbBlockReference
  2
G4
 10
0.0
 20
0.0
 30
0.0
  0
DIMENSION
  5
293
330
1F
100
AcDbEntity
  8
1
  6
Continuous
 62
     7
370
     9
100
AcDbDimension
280
     0
  2
Dim1
 10
117.9090574995582
 20
235.3678747588599
 30
0.0
 11
99.40905749955817
 21
237.3678747588599
 31
0.0
 70
   160
  1
<>
 71
     5
 42
-1.0
 73
     0
 74
     0
 75
     0
  3
Standard
100
AcDbAlignedDimension
 13
80.90905749955812
 23
200.3678747588602
 33
0.0
 14
117.9090574995581
 24
200.3678747588602
 34
0.0
100
AcDbRotatedDimension
1001
ACAD
1000
DSTYLE
1002
{
1070
   279
1070
     2
1070
   340
1005
289
1070
   140
1040
3.0
1070
    40
1040
1.0
1070
   147
1040
0.0
1070
    76
1070
     0
1070
    75
1070
     0
1070
   344
1005
7F
1070
   343
1005
7F
1070
   173
1070
     1
1070
   289
1070
     2
1070
   288
1070
     1
1070
    77
1070
     1
1070
   172
1070
     1
1070
   174
1070
     0
1070
    74
1070
     0
1070
    73
1070
     0
1070
   284
1070
     8
1070
    78
1070
     8
1070
    42
1040
2.0
1070
    44
1040
2.0
1070
    43
1040
10.0
1070
   271
1070
     2
1070
    41
1040
2.4
1002
}
  0
DIMENSION
  5
29D
330
1F
100
AcDbEntity
  8
1
  6
Continuous
 62
     7
370
     9
100
AcDbDimension
280
     0
  2
Dim2
 10
137.9090574995581
 20
215.3678747588599
 30
0.0
 11
135.9090574995581
 21
179.8678747588599
 31
0.0
 70
   160
  1
<>
 71
     5
 42
-1.0
 73
     0
 74
     0
 75
     0
  3
Standard
100
AcDbAlignedDimension
 13
99.40905749955812
 23
144.3678747588599
 33
0.0
 14
99.40905749955812
 24
215.3678747588599
 34
0.0
 50
89.99999999999991
100
AcDbRotatedDimension
1001
ACAD
1000
DSTYLE
1002
{
1070
   279
1070
     2
1070
   340
1005
289
1070
   140
1040
3.0
1070
    40
1040
1.0
1070
   147
1040
0.0
1070
    76
1070
     0
1070
    75
1070
     0
1070
   344
1005
7F
1070
   343
1005
7F
1070
   173
1070
     1
1070
   289
1070
     2
1070
   288
1070
     1
1070
    77
1070
     1
1070
   172
1070
     1
1070
   174
1070
     0
1070
    74
1070
     0
1070
    73
1070
     0
1070
   284
1070
     8
1070
    78
1070
     8
1070
    42
1040
2.0
1070
    44
1040
2.0
1070
    43
1040
10.0
1070
   271
1070
     2
1070
    41
1040
2.4
1002
}
  0
POLYLINE
  5
29E
330
1F
100
AcDbEntity
  8
1
  6
Continuous
 62
     7
370
     9
100
AcDb2dPolyline
 66
     1
 10
0.0
 20
0.0
 30
0.0
  0
VERTEX
  5
29F
330
29E
100
AcDbEntity
  8
1
  6
Continuous
 62
     7
370
     9
100
AcDbVertex
100
AcDb2dVertex
 10
116.373269350405
 20
211.8726113522342
 30
0.0
  0
VERTEX
  5
2A0
330
29E
100
AcDbEntity
  8
1
  6
Continuous
 62
     7
370
     9
100
AcDbVertex
100
AcDb2dVertex
 10
116.2931285784813
 20
211.8832180546877
 30
0.0
  0
VERTEX
  5
2A1
330
29E
100
AcDbEntity
  8
1
  6
Continuous
 62
     7
370
     9
100
AcDbVertex
100
AcDb2dVertex
 10
115.9485040540135
 20
211.9288154493028
 30
0.0
  0
VERTEX
  5
2A2
330
29E
100
AcDbEntity
  8
1
  6
Continuous
 62
     7
370
     9
100
AcDbVertex
100
AcDb2dVertex
 10
115.3845843848133
 20
212.0033026480833
 30
0.0
  0
VERTEX
  5
2A3
330
29E
100
AcDbEntity
  8
1
  6
Continuous
 62
     7
370
     9
100
AcDbVertex
100
AcDb2dVertex
 10
114.6167518294274
 20
212.1042127629779
 30
0.0
  0
VERTEX
  5
2A4
330
29E
100
AcDbEntity
  8
1
  6
Continuous
 62
     7
370
     9
100
AcDbVertex
100
AcDb2dVertex
 10
113.6659508583769
 20
212.2277820330725
 30
0.0
  0
VERTEX
  5
2A5
330
29E
100
AcDbEntity
  8
1
  6
Continuous
 62
     7
370
     9
100
AcDbVertex
100
AcDb2dVertex
 10
112.5581168435988
 20
212.3688401188544
 30
0.0
  0
VERTEX
  5
2A6
330
29E
100
AcDbEntity
  8
1
  6
Continuous
 62
     7
370
     9
100
AcDbVertex
100
AcDb2dVertex
 10
111.3234686091083
 20
212.5208885832615
 30
0.0
  0
VERTEX
  5
2A7
330
29E
100
AcDbEntity
  8
1
  6
Continuous
 62
     7
370
     9
100
AcDbVertex
100
AcDb2dVertex
 10
109.9956841402549
 20
212.6764342868271
 30
0.0
  0
VERTEX
  5
2A8
330
29E
100
AcDbEntity
  8
1
  6
Continuous
 62
     7
370
     9
100
AcDbVertex
100
AcDb2dVertex
 10
108.6109819360729
 20
212.8275832885317
 30
0.0
  0
VERTEX
  5
2A9
330
29E
100
AcDbEntity
  8
1
  6
Continuous
 62
     7
370
     9
100
AcDbVertex
100
AcDb2dVertex
 10
107.2071330630433
 20
212.9668303457691
 30
0.0
  0
VERTEX
  5
2AA
330
29E
100
AcDbEntity
  8
1
  6
Continuous
 62
     7
370
     9
100
AcDbVertex
100
AcDb2dVertex
 10
105.8224308588613
 20
213.0879172234184
 30
0.0
  0
VERTEX
  5
2AB
330
29E
100
AcDbEntity
  8
1
  6
Continuous
 62
     7
370
     9
100
AcDbVertex
100
AcDb2dVertex
 10
104.4946463900079
 20
213.1865963764769
 30
0.0
  0
VERTEX
  5
2AC
330
29E
100
AcDbEntity
  8
1
  6
Continuous
 62
     7
370
     9
100
AcDbVertex
100
AcDb2dVertex
 10
103.2599981555175
 20
213.2611362370479
 30
0.0
  0
VERTEX
  5
2AD
330
29E
100
AcDbEntity
  8
1
  6
Continuous
 62
     7
370
     9
100
AcDbVertex
100
AcDb2dVertex
 10
102.1521641407393
 20
213.3124429255601
 30
0.0
  0
VERTEX
  5
2AE
330
29E
100
AcDbEntity
  8
1
  6
Continuous
 62
     7
370
     9
100
AcDbVertex
100
AcDb2dVertex
 10
101.2013631696888
 20
213.3437439614823
 30
0.0
  0
VERTEX
  5
2AF
330
29E
100
AcDbEntity
  8
1
  6
Continuous
 62
     7
370
     9
100
AcDbVertex
100
AcDb2dVertex
 10
100.433530614303
 20
213.3598677001632
 30
0.0
  0
VERTEX
  5
2B0
330
29E
100
AcDbEntity
  8
1
  6
Continuous
 62
     7
370
     9
100
AcDbVertex
100
AcDb2dVertex
 10
99.86961094510272
 20
213.3662383001479
 30
0.0
  0
VERTEX
  5
2B1
330
29E
100
AcDbEntity
  8
1
  6
Continuous
 62
     7
370
     9
100
AcDbVertex
100
AcDb2dVertex
 10
99.52498642063497
 20
213.3677703638024
 30
0.0
  0
VERTEX
  5
2B2
330
29E
100
AcDbEntity
  8
1
  6
Continuous
 62
     7
370
     9
100
AcDbVertex
100
AcDb2dVertex
 10
99.40905749955812
 20
213.3678747588599
 30
0.0
  0
VERTEX
  5
2B3
330
29E
100
AcDbEntity
  8
1
  6
Continuous
 62
     7
370
     9
100
AcDbVertex
100
AcDb2dVertex
 10
99.29312857848126
 20
213.3677703638024
 30
0.0
  0
VERTEX
  5
2B4
330
29E
100
AcDbEntity
  8
1
  6
Continuous
 62
     7
370
     9
100
AcDbVertex
100
AcDb2dVertex
 10
98.94850405401351
 20
213.3662383001479
 30
0.0
  0
VERTEX
  5
2B5
330
29E
100
AcDbEntity
  8
1
  6
Continuous
 62
     7
370
     9
100
AcDbVertex
100
AcDb2dVertex
 10
98.38458438481328
 20
213.3598677001632
 30
0.0
  0
VERTEX
  5
2B6
330
29E
100
AcDbEntity
  8
1
  6
Continuous
 62
     7
370
     9
100
AcDbVertex
100
AcDb2dVertex
 10
97.61675182942747
 20
213.3437439614823
 30
0.0
  0
VERTEX
  5
2B7
330
29E
100
AcDbEntity
  8
1
  6
Continuous
 62
     7
370
     9
100
AcDbVertex
100
AcDb2dVertex
 10
96.66595085837693
 20
213.3124429255602
 30
0.0
  0
VERTEX
  5
2B8
330
29E
100
AcDbEntity
  8
1
  6
Continuous
 62
     7
370
     9
100
AcDbVertex
100
AcDb2dVertex
 10
95.55811684359875
 20
213.261136237048
 30
0.0
  0
VERTEX
  5
2B9
330
29E
100
AcDbEntity
  8
1
  6
Continuous
 62
     7
370
     9
100
AcDbVertex
100
AcDb2dVertex
 10
94.32346860910835
 20
213.1865963764771
 30
0.0
  0
VERTEX
  5
2BA
330
29E
100
AcDbEntity
  8
1
  6
Continuous
 62
     7
370
     9
100
AcDbVertex
100
AcDb2dVertex
 10
92.99568414025492
 20
213.0879172234186
 30
0.0
  0
VERTEX
  5
2BB
330
29E
100
AcDbEntity
  8
1
  6
Continuous
 62
     7
370
     9
100
AcDbVertex
100
AcDb2dVertex
 10
91.61098193607296
 20
212.9668303457693
 30
0.0
  0
VERTEX
  5
2BC
330
29E
100
AcDbEntity
  8
1
  6
Continuous
 62
     7
370
     9
100
AcDbVertex
100
AcDb2dVertex
 10
90.2071330630433
 20
212.827583288532
 30
0.0
  0
VERTEX
  5
2BD
330
29E
100
AcDbEntity
  8
1
  6
Continuous
 62
     7
370
     9
100
AcDbVertex
100
AcDb2dVertex
 10
88.82243085886134
 20
212.6764342868275
 30
0.0
  0
VERTEX
  5
2BE
330
29E
100
AcDbEntity
  8
1
  6
Continuous
 62
     7
370
     9
100
AcDbVertex
100
AcDb2dVertex
 10
87.49464639000792
 20
212.5208885832619
 30
0.0
  0
VERTEX
  5
2BF
330
29E
100
AcDbEntity
  8
1
  6
Continuous
 62
     7
370
     9
100
AcDbVertex
100
AcDb2dVertex
 10
86.25999815551754
 20
212.3688401188548
 30
0.0
  0
VERTEX
  5
2C0
330
29E
100
AcDbEntity
  8
1
  6
Continuous
 62
     7
370
     9
100
AcDbVertex
100
AcDb2dVertex
 10
85.15216414073936
 20
212.227782033073
 30
0.0
  0
VERTEX
  5
2C1
330
29E
100
AcDbEntity
  8
1
  6
Continuous
 62
     7
370
     9
100
AcDbVertex
100
AcDb2dVertex
 10
84.20136316968882
 20
212.1042127629784
 30
0.0
  0
VERTEX
  5
2C2
330
29E
100
AcDbEntity
  8
1
  6
Continuous
 62
     7
370
     9
100
AcDbVertex
100
AcDb2dVertex
 10
83.43353061430301
 20
212.0033026480838
 30
0.0
  0
VERTEX
  5
2C3
330
29E
100
AcDbEntity
  8
1
  6
Continuous
 62
     7
370
     9
100
AcDbVertex
100
AcDb2dVertex
 10
82.86961094510278
 20
211.9288154493033
 30
0.0
  0
VERTEX
  5
2C4
330
29E
100
AcDbEntity
  8
1
  6
Continuous
 62
     7
370
     9
100
AcDbVertex
100
AcDb2dVertex
 10
82.52498642063503
 20
211.8832180546882
 30
0.0
  0
VERTEX
  5
2C5
330
29E
100
AcDbEntity
  8
1
  6
Continuous
 62
     7
370
     9
100
AcDbVertex
100
AcDb2dVertex
 10
82.44484564870706
 20
211.8726113522342
 30
0.0
  0
SEQEND
  5
2C6
330
29E
100
AcDbEntity
  8
1
  6
Continuous
 62
     7
370
     9
  0
LINE
  5
2C7
330
1F
100
AcDbEntity
  8
1
  6
Continuous
 62
     7
370
     9
100
AcDbLine
 10
168.4090574995581
 20
210.3678747588598
 30
0.0
 11
182.4090574995581
 21
210.3678747588598
 31
0.0
  0
LINE
  5
2C8
330
1F
100
AcDbEntity
  8
1
  6
Continuous
 62
     7
370
     9
100
AcDbLine
 10
168.4090574995581
 20
211.8726113522341
 30
0.0
 11
168.4090574995581
 21
211.3678747588599
 31
0.0
  0
LINE
  5
2C9
330
1F
100
AcDbEntity
  8
1
  6
Continuous
 62
     7
370
     9
100
AcDbLine
 10
182.4090574995581
 20
211.3678747588599
 30
0.0
 11
182.4090574995581
 21
211.8726113522342
 31
0.0
  0
LINE
  5
2CA
330
1F
100
AcDbEntity
  8
1
  6
Continuous
 62
     7
370
     9
100
AcDbLine
 10
168.4090574995581
 20
211.3678747588598
 30
0.0
 11
182.4090574995581
 21
211.3678747588599
 31
0.0
  0
LINE
  5
2CB
330
1F
100
AcDbEntity
  8
1
  6
Continuous
 62
     7
370
     9
100
AcDbLine
 10
182.4090574995581
 20
211.8726113522342
 30
0.0
 11
168.4090574995581
 21
211.8726113522342
 31
0.0
  0
LINE
  5
2CC
330
1F
100
AcDbEntity
  8
1
  6
Continuous
 62
     7
370
     9
100
AcDbLine
 10
169.9090574995581
 20
214.8678747588599
 30
0.0
 11
180.9090574995581
 21
214.8678747588599
 31
0.0
  0
LINE
  5
2CD
330
1F
100
AcDbEntity
  8
1
  6
Continuous
 62
     7
370
     9
100
AcDbLine
 10
169.9090574995581
 20
214.8678747588599
 30
0.0
 11
168.4090574995581
 21
211.8726113522341
 31
0.0
  0
LINE
  5
2CE
330
1F
100
AcDbEntity
  8
1
  6
Continuous
 62
     7
370
     9
100
AcDbLine
 10
180.9090574995581
 20
214.8678747588599
 30
0.0
 11
182.4090574995581
 21
211.8726113522342
 31
0.0
  0
SPLINE
  5
2CF
330
1F
100
AcDbEntity
  8
1
  6
Continuous
 62
     7
370
     9
100
AcDbSpline
210
0.0
220
0.0
230
1.0
 70
  1288
 71
     3
 72
     9
 73
     5
 74
     3
 42
0.0000000001
 43
0.0000000001
 40
0.0
 40
0.0
 40
0.0
 40
0.0
 40
1.0
 40
2.0
 40
2.0
 40
2.0
 40
2.0
 10
169.9090574995581
 20
214.8678747588599
 30
0.0
 10
171.7423908328915
 20
215.1178747588599
 30
0.0
 10
175.4090574995581
 20
215.6178745588599
 30
0.0
 10
179.0757241662247
 20
215.11787475886
 30
0.0
 10
180.9090574995581
 20
214.8678747588599
 30
0.0
  0
POLYLINE
  5
2D0
330
1F
100
AcDbEntity
  8
1
  6
Continuous
 62
     7
370
     9
100
AcDb2dPolyline
 66
     1
 10
0.0
 20
0.0
 30
0.0
  0
VERTEX
  5
2D1
330
2D0
100
AcDbEntity
  8
1
  6
Continuous
 62
     7
370
     9
100
AcDbVertex
100
AcDb2dVertex
 10
168.4090574995581
 20
210.3678747588598
 30
0.0
  0
VERTEX
  5
2D2
330
2D0
100
AcDbEntity
  8
1
  6
Continuous
 62
     7
370
     9
100
AcDbVertex
100
AcDb2dVertex
 10
168.403943067615
 20
210.1905717030952
 30
0.0
  0
VERTEX
  5
2D3
330
2D0
100
AcDbEntity
  8
1
  6
Continuous
 62
     7
370
     9
100
AcDbVertex
100
AcDb2dVertex
 10
168.3887439360767
 20
209.6634989009681
 30
0.0
  0
VERTEX
  5
2D4
330
2D0
100
AcDbEntity
  8
1
  6
Continuous
 62
     7
370
     9
100
AcDbVertex
100
AcDb2dVertex
 10
168.3639148698165
 20
208.8010335245442
 30
0.0
  0
VERTEX
  5
2D5
330
2D0
100
AcDbEntity
  8
1
  6
Continuous
 62
     7
370
     9
100
AcDbVertex
100
AcDb2dVertex
 10
168.3302781648517
 20
207.626701381013
 30
0.0
  0
VERTEX
  5
2D6
330
2D0
100
AcDbEntity
  8
1
  6
Continuous
 62
     7
370
     9
100
AcDbVertex
100
AcDb2dVertex
 10
168.2890884081535
 20
206.1725351899945
 30
0.0
  0
VERTEX
  5
2D7
330
2D0
100
AcDbEntity
  8
1
  6
Continuous
 62
     7
370
     9
100
AcDbVertex
100
AcDb2dVertex
 10
168.2420690462263
 20
204.4782008144514
 30
0.0
  0
VERTEX
  5
2D8
330
2D0
100
AcDbEntity
  8
1
  6
Continuous
 62
     7
370
     9
100
AcDbVertex
100
AcDb2dVertex
 10
168.1913862247573
 20
202.5899152793484
 30
0.0
  0
VERTEX
  5
2D9
330
2D0
100
AcDbEntity
  8
1
  6
Continuous
 62
     7
370
     9
100
AcDbVertex
100
AcDb2dVertex
 10
168.1395376569021
 20
200.5591860916903
 30
0.0
  0
VERTEX
  5
2DA
330
2D0
100
AcDbEntity
  8
1
  6
Continuous
 62
     7
370
     9
100
AcDbVertex
100
AcDb2dVertex
 10
168.089154656334
 20
198.4414062500002
 30
0.0
  0
VERTEX
  5
2DB
330
2D0
100
AcDbEntity
  8
1
  6
Continuous
 62
     7
370
     9
100
AcDbVertex
100
AcDb2dVertex
 10
168.0427389705882
 20
196.2943432677196
 30
0.0
  0
VERTEX
  5
2DC
330
2D0
100
AcDbEntity
  8
1
  6
Continuous
 62
     7
370
     9
100
AcDbVertex
100
AcDb2dVertex
 10
168.0023766780385
 20
194.1765634260295
 30
0.0
  0
VERTEX
  5
2DD
330
2D0
100
AcDbEntity
  8
1
  6
Continuous
 62
     7
370
     9
100
AcDbVertex
100
AcDb2dVertex
 10
167.969483627019
 20
192.1458342383713
 30
0.0
  0
VERTEX
  5
2DE
330
2D0
100
AcDbEntity
  8
1
  6
Continuous
 62
     7
370
     9
100
AcDbVertex
100
AcDb2dVertex
 10
167.9446370068287
 20
190.2575487032684
 30
0.0
  0
VERTEX
  5
2DF
330
2D0
100
AcDbEntity
  8
1
  6
Continuous
 62
     7
370
     9
100
AcDbVertex
100
AcDb2dVertex
 10
167.9275347773247
 20
188.5632143277253
 30
0.0
  0
VERTEX
  5
2E0
330
2D0
100
AcDbEntity
  8
1
  6
Continuous
 62
     7
370
     9
100
AcDbVertex
100
AcDb2dVertex
 10
167.917101098684
 20
187.1090481367068
 30
0.0
  0
VERTEX
  5
2E1
330
2D0
100
AcDbEntity
  8
1
  6
Continuous
 62
     7
370
     9
100
AcDbVertex
100
AcDb2dVertex
 10
167.9117265191237
 20
185.9347159931756
 30
0.0
  0
VERTEX
  5
2E2
330
2D0
100
AcDbEntity
  8
1
  6
Continuous
 62
     7
370
     9
100
AcDbVertex
100
AcDb2dVertex
 10
167.9096029857955
 20
185.0722506167517
 30
0.0
  0
VERTEX
  5
2E3
330
2D0
100
AcDbEntity
  8
1
  6
Continuous
 62
     7
370
     9
100
AcDbVertex
100
AcDb2dVertex
 10
167.9090922979106
 20
184.5451778146245
 30
0.0
  0
VERTEX
  5
2E4
330
2D0
100
AcDbEntity
  8
1
  6
Continuous
 62
     7
370
     9
100
AcDbVertex
100
AcDb2dVertex
 10
167.9090574995581
 20
184.3678747588599
 30
0.0
  0
VERTEX
  5
2E5
330
2D0
100
AcDbEntity
  8
1
  6
Continuous
 62
     7
370
     9
100
AcDbVertex
100
AcDb2dVertex
 10
167.9090922979106
 20
184.1905717030953
 30
0.0
  0
VERTEX
  5
2E6
330
2D0
100
AcDbEntity
  8
1
  6
Continuous
 62
     7
370
     9
100
AcDbVertex
100
AcDb2dVertex
 10
167.9096029857955
 20
183.6634989009681
 30
0.0
  0
VERTEX
  5
2E7
330
2D0
100
AcDbEntity
  8
1
  6
Continuous
 62
     7
370
     9
100
AcDbVertex
100
AcDb2dVertex
 10
167.9117265191237
 20
182.8010335245443
 30
0.0
  0
VERTEX
  5
2E8
330
2D0
100
AcDbEntity
  8
1
  6
Continuous
 62
     7
370
     9
100
AcDbVertex
100
AcDb2dVertex
 10
167.917101098684
 20
181.626701381013
 30
0.0
  0
VERTEX
  5
2E9
330
2D0
100
AcDbEntity
  8
1
  6
Continuous
 62
     7
370
     9
100
AcDbVertex
100
AcDb2dVertex
 10
167.9275347773247
 20
180.1725351899945
 30
0.0
  0
VERTEX
  5
2EA
330
2D0
100
AcDbEntity
  8
1
  6
Continuous
 62
     7
370
     9
100
AcDbVertex
100
AcDb2dVertex
 10
167.9446370068287
 20
178.4782008144514
 30
0.0
  0
VERTEX
  5
2EB
330
2D0
100
AcDbEntity
  8
1
  6
Continuous
 62
     7
370
     9
100
AcDbVertex
100
AcDb2dVertex
 10
167.969483627019
 20
176.5899152793485
 30
0.0
  0
VERTEX
  5
2EC
330
2D0
100
AcDbEntity
  8
1
  6
Continuous
 62
     7
370
     9
100
AcDbVertex
100
AcDb2dVertex
 10
168.0023766780385
 20
174.5591860916903
 30
0.0
  0
VERTEX
  5
2ED
330
2D0
100
AcDbEntity
  8
1
  6
Continuous
 62
     7
370
     9
100
AcDbVertex
100
AcDb2dVertex
 10
168.0427389705882
 20
172.4414062500002
 30
0.0
  0
VERTEX
  5
2EE
330
2D0
100
AcDbEntity
  8
1
  6
Continuous
 62
     7
370
     9
100
AcDbVertex
100
AcDb2dVertex
 10
168.089154656334
 20
170.2943432677196
 30
0.0
  0
VERTEX
  5
2EF
330
2D0
100
AcDbEntity
  8
1
  6
Continuous
 62
     7
370
     9
100
AcDbVertex
100
AcDb2dVertex
 10
168.1395376569021
 20
168.1765634260295
 30
0.0
  0
VERTEX
  5
2F0
330
2D0
100
AcDbEntity
  8
1
  6
Continuous
 62
     7
370
     9
100
AcDbVertex
100
AcDb2dVertex
 10
168.1913862247573
 20
166.1458342383713
 30
0.0
  0
VERTEX
  5
2F1
330
2D0
100
AcDbEntity
  8
1
  6
Continuous
 62
     7
370
     9
100
AcDbVertex
100
AcDb2dVertex
 10
168.2420690462262
 20
164.2575487032684
 30
0.0
  0
VERTEX
  5
2F2
330
2D0
100
AcDbEntity
  8
1
  6
Continuous
 62
     7
370
     9
100
AcDbVertex
100
AcDb2dVertex
 10
168.2667583294003
 20
163.3678747588599
 30
0.0
  0
SEQEND
  5
2F3
330
2D0
100
AcDbEntity
  8
1
  6
Continuous
 62
     7
370
     9
  0
POLYLINE
  5
2F4
330
1F
100
AcDbEntity
  8
1
  6
Continuous
 62
     7
370
     9
100
AcDb2dPolyline
 66
     1
 10
0.0
 20
0.0
 30
0.0
  0
VERTEX
  5
2F5
330
2F4
100
AcDbEntity
  8
1
  6
Continuous
 62
     7
370
     9
100
AcDbVertex
100
AcDb2dVertex
 10
182.4090574995581
 20
210.3678747588598
 30
0.0
  0
VERTEX
  5
2F6
330
2F4
100
AcDbEntity
  8
1
  6
Continuous
 62
     7
370
     9
100
AcDbVertex
100
AcDb2dVertex
 10
182.4141719315012
 20
210.1905717030952
 30
0.0
  0
VERTEX
  5
2F7
330
2F4
100
AcDbEntity
  8
1
  6
Continuous
 62
     7
370
     9
100
AcDbVertex
100
AcDb2dVertex
 10
182.4293710630395
 20
209.6634989009681
 30
0.0
  0
VERTEX
  5
2F8
330
2F4
100
AcDbEntity
  8
1
  6
Continuous
 62
     7
370
     9
100
AcDbVertex
100
AcDb2dVertex
 10
182.4542001292997
 20
208.8010335245442
 30
0.0
  0
VERTEX
  5
2F9
330
2F4
100
AcDbEntity
  8
1
  6
Continuous
 62
     7
370
     9
100
AcDbVertex
100
AcDb2dVertex
 10
182.4878368342645
 20
207.626701381013
 30
0.0
  0
VERTEX
  5
2FA
330
2F4
100
AcDbEntity
  8
1
  6
Continuous
 62
     7
370
     9
100
AcDbVertex
100
AcDb2dVertex
 10
182.5290265909627
 20
206.1725351899945
 30
0.0
  0
VERTEX
  5
2FB
330
2F4
100
AcDbEntity
  8
1
  6
Continuous
 62
     7
370
     9
100
AcDbVertex
100
AcDb2dVertex
 10
182.5760459528899
 20
204.4782008144514
 30
0.0
  0
VERTEX
  5
2FC
330
2F4
100
AcDbEntity
  8
1
  6
Continuous
 62
     7
370
     9
100
AcDbVertex
100
AcDb2dVertex
 10
182.6267287743589
 20
202.5899152793484
 30
0.0
  0
VERTEX
  5
2FD
330
2F4
100
AcDbEntity
  8
1
  6
Continuous
 62
     7
370
     9
100
AcDbVertex
100
AcDb2dVertex
 10
182.6785773422141
 20
200.5591860916902
 30
0.0
  0
VERTEX
  5
2FE
330
2F4
100
AcDbEntity
  8
1
  6
Continuous
 62
     7
370
     9
100
AcDbVertex
100
AcDb2dVertex
 10
182.7289603427822
 20
198.4414062500002
 30
0.0
  0
VERTEX
  5
2FF
330
2F4
100
AcDbEntity
  8
1
  6
Continuous
 62
     7
370
     9
100
AcDbVertex
100
AcDb2dVertex
 10
182.775376028528
 20
196.2943432677195
 30
0.0
  0
VERTEX
  5
300
330
2F4
100
AcDbEntity
  8
1
  6
Continuous
 62
     7
370
     9
100
AcDbVertex
100
AcDb2dVertex
 10
182.8157383210777
 20
194.1765634260295
 30
0.0
  0
VERTEX
  5
301
330
2F4
100
AcDbEntity
  8
1
  6
Continuous
 62
     7
370
     9
100
AcDbVertex
100
AcDb2dVertex
 10
182.8486313720972
 20
192.1458342383713
 30
0.0
  0
VERTEX
  5
302
330
2F4
100
AcDbEntity
  8
1
  6
Continuous
 62
     7
370
     9
100
AcDbVertex
100
AcDb2dVertex
 10
182.8734779922875
 20
190.2575487032683
 30
0.0
  0
VERTEX
  5
303
330
2F4
100
AcDbEntity
  8
1
  6
Continuous
 62
     7
370
     9
100
AcDbVertex
100
AcDb2dVertex
 10
182.8905802217916
 20
188.5632143277252
 30
0.0
  0
VERTEX
  5
304
330
2F4
100
AcDbEntity
  8
1
  6
Continuous
 62
     7
370
     9
100
AcDbVertex
100
AcDb2dVertex
 10
182.9010139004322
 20
187.1090481367067
 30
0.0
  0
VERTEX
  5
305
330
2F4
100
AcDbEntity
  8
1
  6
Continuous
 62
     7
370
     9
100
AcDbVertex
100
AcDb2dVertex
 10
182.9063884799926
 20
185.9347159931755
 30
0.0
  0
VERTEX
  5
306
330
2F4
100
AcDbEntity
  8
1
  6
Continuous
 62
     7
370
     9
100
AcDbVertex
100
AcDb2dVertex
 10
182.9085120133208
 20
185.0722506167516
 30
0.0
  0
VERTEX
  5
307
330
2F4
100
AcDbEntity
  8
1
  6
Continuous
 62
     7
370
     9
100
AcDbVertex
100
AcDb2dVertex
 10
182.9090227012056
 20
184.5451778146245
 30
0.0
  0
VERTEX
  5
308
330
2F4
100
AcDbEntity
  8
1
  6
Continuous
 62
     7
370
     9
100
AcDbVertex
100
AcDb2dVertex
 10
182.9090574995581
 20
184.3678747588599
 30
0.0
  0
VERTEX
  5
309
330
2F4
100
AcDbEntity
  8
1
  6
Continuous
 62
     7
370
     9
100
AcDbVertex
100
AcDb2dVertex
 10
182.9090227012056
 20
184.1905717030953
 30
0.0
  0
VERTEX
  5
30A
330
2F4
100
AcDbEntity
  8
1
  6
Continuous
 62
     7
370
     9
100
AcDbVertex
100
AcDb2dVertex
 10
182.9085120133208
 20
183.6634989009681
 30
0.0
  0
VERTEX
  5
30B
330
2F4
100
AcDbEntity
  8
1
  6
Continuous
 62
     7
370
     9
100
AcDbVertex
100
AcDb2dVertex
 10
182.9063884799926
 20
182.8010335245442
 30
0.0
  0
VERTEX
  5
30C
330
2F4
100
AcDbEntity
  8
1
  6
Continuous
 62
     7
370
     9
100
AcDbVertex
100
AcDb2dVertex
 10
182.9010139004322
 20
181.626701381013
 30
0.0
  0
VERTEX
  5
30D
330
2F4
100
AcDbEntity
  8
1
  6
Continuous
 62
     7
370
     9
100
AcDbVertex
100
AcDb2dVertex
 10
182.8905802217915
 20
180.1725351899945
 30
0.0
  0
VERTEX
  5
30E
330
2F4
100
AcDbEntity
  8
1
  6
Continuous
 62
     7
370
     9
100
AcDbVertex
100
AcDb2dVertex
 10
182.8734779922875
 20
178.4782008144514
 30
0.0
  0
VERTEX
  5
30F
330
2F4
100
AcDbEntity
  8
1
  6
Continuous
 62
     7
370
     9
100
AcDbVertex
100
AcDb2dVertex
 10
182.8486313720972
 20
176.5899152793485
 30
0.0
  0
VERTEX
  5
310
330
2F4
100
AcDbEntity
  8
1
  6
Continuous
 62
     7
370
     9
100
AcDbVertex
100
AcDb2dVertex
 10
182.8157383210777
 20
174.5591860916903
 30
0.0
  0
VERTEX
  5
311
330
2F4
100
AcDbEntity
  8
1
  6
Continuous
 62
     7
370
     9
100
AcDbVertex
100
AcDb2dVertex
 10
182.775376028528
 20
172.4414062500002
 30
0.0
  0
VERTEX
  5
312
330
2F4
100
AcDbEntity
  8
1
  6
Continuous
 62
     7
370
     9
100
AcDbVertex
100
AcDb2dVertex
 10
182.7289603427822
 20
170.2943432677196
 30
0.0
  0
VERTEX
  5
313
330
2F4
100
AcDbEntity
  8
1
  6
Continuous
 62
     7
370
     9
100
AcDbVertex
100
AcDb2dVertex
 10
182.6785773422141
 20
168.1765634260295
 30
0.0
  0
VERTEX
  5
314
330
2F4
100
AcDbEntity
  8
1
  6
Continuous
 62
     7
370
     9
100
AcDbVertex
100
AcDb2dVertex
 10
182.6267287743589
 20
166.1458342383713
 30
0.0
  0
VERTEX
  5
315
330
2F4
100
AcDbEntity
  8
1
  6
Continuous
 62
     7
370
     9
100
AcDbVertex
100
AcDb2dVertex
 10
182.5760459528899
 20
164.2575487032684
 30
0.0
  0
VERTEX
  5
316
330
2F4
100
AcDbEntity
  8
1
  6
Continuous
 62
     7
370
     9
100
AcDbVertex
100
AcDb2dVertex
 10
182.5513566697158
 20
163.3678747588599
 30
0.0
  0
SEQEND
  5
317
330
2F4
100
AcDbEntity
  8
1
  6
Continuous
 62
     7
370
     9
  0
LINE
  5
318
330
1F
100
AcDbEntity
  8
1
  6
Continuous
 62
     7
370
     9
100
AcDbLine
 10
168.2667583294003
 20
163.3678747588599
 30
0.0
 11
168.3733327634702
 21
159.6231433612078
 31
0.0
  0
ARC
  5
319
330
1F
100
AcDbEntity
  8
1
  6
Continuous
 62
     7
370
     9
100
AcDbCircle
 10
178.3692854111905
 20
159.9076265145492
 30
0.0
 40
10.0
100
AcDbArc
 50
181.6301883403879
 51
195.9453959009224
  0
LINE
  5
31A
330
1F
100
AcDbEntity
  8
1
  6
Continuous
 62
     7
370
     9
100
AcDbLine
 10
182.5513566697158
 20
163.3678747588599
 30
0.0
 11
182.4447822356459
 21
159.6231433612078
 31
0.0
  0
ARC
  5
31B
330
1F
100
AcDbEntity
  8
1
  6
Continuous
 62
     7
370
     9
100
AcDbCircle
 10
172.4488295879257
 20
159.9076265145491
 30
0.0
 40
10.0
100
AcDbArc
 50
344.054604099077
 51
358.3698116596121
  0
LINE
  5
31C
330
1F
100
AcDbEntity
  8
1
  6
Continuous
 62
     7
370
     9
100
AcDbLine
 10
168.7540459347822
 20
157.1604152355754
 30
0.0
 11
171.9946124297851
 21
145.8184325030651
 31
0.0
  0
ARC
  5
31D
330
1F
100
AcDbEntity
  8
1
  6
Continuous
 62
     7
370
     9
100
AcDbCircle
 10
173.9176603250668
 20
146.3678747588599
 30
0.0
 40
2.0
100
AcDbArc
 50
195.9453959009225
 51
269.9999999999989
  0
LINE
  5
31E
330
1F
100
AcDbEntity
  8
1
  6
Continuous
 62
     7
370
     9
100
AcDbLine
 10
173.9176603250668
 20
144.3678747588599
 30
0.0
 11
176.9004546740493
 21
144.3678747588599
 31
0.0
  0
LINE
  5
31F
330
1F
100
AcDbEntity
  8
1
  6
Continuous
 62
     7
370
     9
100
AcDbLine
 10
178.823502569331
 20
145.8184325030651
 30
0.0
 11
182.0640690643339
 21
157.1604152355753
 31
0.0
  0
ARC
  5
320
330
1F
100
AcDbEntity
  8
1
  6
Continuous
 62
     7
370
     9
100
AcDbCircle
 10
176.9004546740494
 20
146.3678747588599
 30
0.0
 40
2.0
100
AcDbArc
 50
269.9999999999989
 51
344.0546040990768
  0
LINE
  5
321
330
1F
100
AcDbEntity
  8
1
  6
Continuous
 62
     7
370
     9
100
AcDbLine
 10
168.9090574995581
 20
211.3678747588599
 30
0.0
 11
168.9090574995581
 21
210.3678747588598
 31
0.0
  0
LINE
  5
322
330
1F
100
AcDbEntity
  8
1
  6
Continuous
 62
     7
370
     9
100
AcDbLine
 10
181.9090574995581
 20
211.3678747588599
 30
0.0
 11
181.9090574995581
 21
210.3678747588598
 31
0.0
  0
LINE
  5
323
330
1F
100
AcDbEntity
  8
1
  6
Continuous
 62
     7
370
     9
100
AcDbLine
 10
177.4090574995581
 20
206.3678747588598
 30
0.0
 11
177.4090574995581
 21
157.3678747588599
 31
0.0
  0
LINE
  5
324
330
1F
100
AcDbEntity
  8
1
  6
Continuous
 62
     7
370
     9
100
AcDbLine
 10
177.4090574995581
 20
157.3678747588599
 30
0.0
 11
182.1209369601313
 21
157.3678747588599
 31
0.0
  0
LINE
  5
325
330
1F
100
AcDbEntity
  8
1
  6
Continuous
 62
     7
370
     9
100
AcDbLine
 10
177.4090574995581
 20
206.3678747588598
 30
0.0
 11
182.5234935305981
 21
206.3678747588598
 31
0.0
  0
SPLINE
  5
326
330
1F
100
AcDbEntity
  8
1
  6
Continuous
 62
     7
370
     9
100
AcDbSpline
210
0.0
220
0.0
230
1.0
 70
  1288
 71
     3
 72
     9
 73
     5
 74
     3
 42
0.0000000001
 43
0.0000000001
 40
0.0
 40
0.0
 40
0.0
 40
0.0
 40
1.0
 40
2.0
 40
2.0
 40
2.0
 40
2.0
 10
214.409057499559
 20
211.36787475886
 30
0.0
 10
220.0757241662372
 20
212.11787475886
 30
0.0
 10
231.4090574995937
 20
213.6178745588599
 30
0.0
 10
242.7423908329024
 20
212.11787475886
 30
0.0
 10
248.4090574995567
 20
211.36787475886
 30
0.0
  0
SPLINE
  5
327
330
1F
100
AcDbEntity
  8
1
  6
Continuous
 62
     7
370
     9
100
AcDbSpline
210
0.0
220
0.0
230
1.0
 70
  1288
 71
     3
 72
     9
 73
     5
 74
     3
 42
0.0000000001
 43
0.0000000001
 40
0.0
 40
0.0
 40
0.0
 40
0.0
 40
1.0
 40
2.0
 40
2.0
 40
2.0
 40
2.0
 10
214.409057499559
 20
210.36787475886
 30
0.0
 10
220.0757241662372
 20
211.1178747588599
 30
0.0
 10
231.4090574995937
 20
212.61787455886
 30
0.0
 10
242.7423908329024
 20
211.1178747588599
 30
0.0
 10
248.4090574995567
 20
210.36787475886
 30
0.0
  0
LINE
  5
328
330
1F
100
AcDbEntity
  8
1
  6
Continuous
 62
     7
370
     9
100
AcDbLine
 10
247.9090574995583
 20
211.4340258782064
 30
0.0
 11
247.9090574995583
 21
210.4560762513219
 31
0.0
  0
LINE
  5
329
330
1F
100
AcDbEntity
  8
1
  6
Continuous
 62
     7
370
     9
100
AcDbLine
 10
214.9090574995602
 20
211.4340258782064
 30
0.0
 11
214.9090574995602
 21
210.4340258782064
 31
0.0
  0
POLYLINE
  5
32A
330
1F
100
AcDbEntity
  8
1
  6
Continuous
 62
     7
370
     9
100
AcDb2dPolyline
 66
     1
 10
0.0
 20
0.0
 30
0.0
  0
VERTEX
  5
32B
330
32A
100
AcDbEntity
  8
1
  6
Continuous
 62
     7
370
     9
100
AcDbVertex
100
AcDb2dVertex
 10
240.8651968625076
 20
215.1178747588599
 30
0.0
  0
VERTEX
  5
32C
330
32A
100
AcDbEntity
  8
1
  6
Continuous
 62
     7
370
     9
100
AcDbVertex
100
AcDb2dVertex
 10
240.4388272813289
 20
215.1373946015159
 30
0.0
  0
VERTEX
  5
32D
330
32A
100
AcDbEntity
  8
1
  6
Continuous
 62
     7
370
     9
100
AcDbVertex
100
AcDb2dVertex
 10
239.2577577542325
 20
215.187777602084
 30
0.0
  0
VERTEX
  5
32E
330
32A
100
AcDbEntity
  8
1
  6
Continuous
 62
     7
370
     9
100
AcDbVertex
100
AcDb2dVertex
 10
238.0603572448836
 20
215.2341932878298
 30
0.0
  0
VERTEX
  5
32F
330
32A
100
AcDbEntity
  8
1
  6
Continuous
 62
     7
370
     9
100
AcDbVertex
100
AcDb2dVertex
 10
236.8792877177873
 20
215.2745555803795
 30
0.0
  0
VERTEX
  5
330
330
32A
100
AcDbEntity
  8
1
  6
Continuous
 62
     7
370
     9
100
AcDbVertex
100
AcDb2dVertex
 10
235.746765670824
 20
215.307448631399
 30
0.0
  0
VERTEX
  5
331
330
32A
100
AcDbEntity
  8
1
  6
Continuous
 62
     7
370
     9
100
AcDbVertex
100
AcDb2dVertex
 10
234.6936833531705
 20
215.3322952515893
 30
0.0
  0
VERTEX
  5
332
330
32A
100
AcDbEntity
  8
1
  6
Continuous
 62
     7
370
     9
100
AcDbVertex
100
AcDb2dVertex
 10
233.7487661052714
 20
215.3493974810933
 30
0.0
  0
VERTEX
  5
333
330
32A
100
AcDbEntity
  8
1
  6
Continuous
 62
     7
370
     9
100
AcDbVertex
100
AcDb2dVertex
 10
232.9377888064342
 20
215.359831159734
 30
0.0
  0
VERTEX
  5
334
330
32A
100
AcDbEntity
  8
1
  6
Continuous
 62
     7
370
     9
100
AcDbVertex
100
AcDb2dVertex
 10
232.2828728033111
 20
215.3652057392943
 30
0.0
  0
VERTEX
  5
335
330
32A
100
AcDbEntity
  8
1
  6
Continuous
 62
     7
370
     9
100
AcDbVertex
100
AcDb2dVertex
 10
231.8018824972284
 20
215.3673292726226
 30
0.0
  0
VERTEX
  5
336
330
32A
100
AcDbEntity
  8
1
  6
Continuous
 62
     7
370
     9
100
AcDbVertex
100
AcDb2dVertex
 10
231.5079380498883
 20
215.3678399605074
 30
0.0
  0
VERTEX
  5
337
330
32A
100
AcDbEntity
  8
1
  6
Continuous
 62
     7
370
     9
100
AcDbVertex
100
AcDb2dVertex
 10
231.4090574995581
 20
215.3678747588599
 30
0.0
  0
VERTEX
  5
338
330
32A
100
AcDbEntity
  8
1
  6
Continuous
 62
     7
370
     9
100
AcDbVertex
100
AcDb2dVertex
 10
231.3101769492278
 20
215.3678399605074
 30
0.0
  0
VERTEX
  5
339
330
32A
100
AcDbEntity
  8
1
  6
Continuous
 62
     7
370
     9
100
AcDbVertex
100
AcDb2dVertex
 10
231.0162325018876
 20
215.3673292726226
 30
0.0
  0
VERTEX
  5
33A
330
32A
100
AcDbEntity
  8
1
  6
Continuous
 62
     7
370
     9
100
AcDbVertex
100
AcDb2dVertex
 10
230.5352421958051
 20
215.3652057392943
 30
0.0
  0
VERTEX
  5
33B
330
32A
100
AcDbEntity
  8
1
  6
Continuous
 62
     7
370
     9
100
AcDbVertex
100
AcDb2dVertex
 10
229.8803261926819
 20
215.359831159734
 30
0.0
  0
VERTEX
  5
33C
330
32A
100
AcDbEntity
  8
1
  6
Continuous
 62
     7
370
     9
100
AcDbVertex
100
AcDb2dVertex
 10
229.0693488938446
 20
215.3493974810933
 30
0.0
  0
VERTEX
  5
33D
330
32A
100
AcDbEntity
  8
1
  6
Continuous
 62
     7
370
     9
100
AcDbVertex
100
AcDb2dVertex
 10
228.1244316459456
 20
215.3322952515893
 30
0.0
  0
VERTEX
  5
33E
330
32A
100
AcDbEntity
  8
1
  6
Continuous
 62
     7
370
     9
100
AcDbVertex
100
AcDb2dVertex
 10
227.0713493282921
 20
215.307448631399
 30
0.0
  0
VERTEX
  5
33F
330
32A
100
AcDbEntity
  8
1
  6
Continuous
 62
     7
370
     9
100
AcDbVertex
100
AcDb2dVertex
 10
225.9388272813289
 20
215.2745555803795
 30
0.0
  0
VERTEX
  5
340
330
32A
100
AcDbEntity
  8
1
  6
Continuous
 62
     7
370
     9
100
AcDbVertex
100
AcDb2dVertex
 10
224.7577577542325
 20
215.2341932878298
 30
0.0
  0
VERTEX
  5
341
330
32A
100
AcDbEntity
  8
1
  6
Continuous
 62
     7
370
     9
100
AcDbVertex
100
AcDb2dVertex
 10
223.5603572448836
 20
215.187777602084
 30
0.0
  0
VERTEX
  5
342
330
32A
100
AcDbEntity
  8
1
  6
Continuous
 62
     7
370
     9
100
AcDbVertex
100
AcDb2dVertex
 10
222.3792877177873
 20
215.1373946015159
 30
0.0
  0
VERTEX
  5
343
330
32A
100
AcDbEntity
  8
1
  6
Continuous
 62
     7
370
     9
100
AcDbVertex
100
AcDb2dVertex
 10
221.9529181366082
 20
215.1178747588599
 30
0.0
  0
SEQEND
  5
344
330
32A
100
AcDbEntity
  8
1
  6
Continuous
 62
     7
370
     9
  0
LINE
  5
345
330
1F
100
AcDbEntity
  8
1
  6
Continuous
 62
     7
370
     9
100
AcDbLine
 10
240.8651968625076
 20
215.1178747588599
 30
0.0
 11
245.4710746502638
 21
214.8895834697468
 31
0.0
  0
ARC
  5
346
330
1F
100
AcDbEntity
  8
1
  6
Continuous
 62
     7
370
     9
100
AcDbCircle
 10
245.4215702142958
 20
213.8908095659931
 30
0.0
 40
1.0
100
AcDbArc
 50
39.80557109225143
 51
87.16244495183837
  0
LINE
  5
347
330
1F
100
AcDbEntity
  8
1
  6
Continuous
 62
     7
370
     9
100
AcDbLine
 10
217.3470403488527
 20
214.8895834697468
 30
0.0
 11
221.9529181366082
 21
215.1178747588599
 31
0.0
  0
ARC
  5
348
330
1F
100
AcDbEntity
  8
1
  6
Continuous
 62
     7
370
     9
100
AcDbCircle
 10
217.3965447848207
 20
213.8908095659931
 30
0.0
 40
1.0
100
AcDbArc
 50
92.83755504816163
 51
140.1944289077369
  0
LINE
  5
349
330
1F
100
AcDbEntity
  8
1
  6
Continuous
 62
     7
370
     9
100
AcDbLine
 10
216.6283235052233
 20
214.5309939656576
 30
0.0
 11
214.5249468597603
 21
212.0069419911016
 31
0.0
  0
LINE
  5
34A
330
1F
100
AcDbEntity
  8
1
  6
Continuous
 62
     7
370
     9
100
AcDbLine
 10
214.409057499559
 20
211.6868497912694
 30
0.0
 11
214.409057499559
 21
211.36787475886
 31
0.0
  0
ARC
  5
34B
330
1F
100
AcDbEntity
  8
1
  6
Continuous
 62
     7
370
     9
100
AcDbCircle
 10
214.909057499559
 20
211.6868497912693
 30
0.0
 40
0.5
100
AcDbArc
 50
140.194428907739
 51
179.9999999999967
  0
LINE
  5
34C
330
1F
100
AcDbEntity
  8
1
  6
Continuous
 62
     7
370
     9
100
AcDbLine
 10
246.1897914938934
 20
214.5309939656574
 30
0.0
 11
248.2931681393555
 21
212.0069419911015
 31
0.0
  0
LINE
  5
34D
330
1F
100
AcDbEntity
  8
1
  6
Continuous
 62
     7
370
     9
100
AcDbLine
 10
248.4090574995567
 20
211.36787475886
 30
0.0
 11
248.4090574995567
 21
211.6868497912694
 31
0.0
  0
ARC
  5
34E
330
1F
100
AcDbEntity
  8
1
  6
Continuous
 62
     7
370
     9
100
AcDbCircle
 10
247.9090574995567
 20
211.6868497912694
 30
0.0
 40
0.5
100
AcDbArc
 50
359.9999999999964
 51
39.80557109224934
  0
SPLINE
  5
34F
330
1F
100
AcDbEntity
  8
1
  6
Continuous
 62
     7
370
     9
100
AcDbSpline
210
0.0
220
0.0
230
1.0
 70
  1288
 71
     3
 72
    10
 73
     6
 74
     4
 42
0.0000000001
 43
0.0000000001
 40
0.0
 40
0.0
 40
0.0
 40
0.0
 40
1.0
 40
2.0
 40
3.0
 40
3.0
 40
3.0
 40
3.0
 10
214.4090574995579
 20
210.3678747588598
 30
0.0
 10
213.9840928269624
 20
208.7845414255265
 30
0.0
 10
213.1341635057348
 20
205.6178746274501
 30
0.0
 10
212.7050712878675
 20
199.3678746253649
 30
0.0
 10
213.3552464912649
 20
179.2012080921934
 30
0.0
 10
213.6803340953028
 20
169.1178747588601
 30
0.0
  0
SPLINE
  5
350
330
1F
100
AcDbEntity
  8
1
  6
Continuous
 62
     7
370
     9
100
AcDbSpline
210
0.0
220
0.0
230
1.0
 70
  1288
 71
     3
 72
    10
 73
     6
 74
     4
 42
0.0000000001
 43
0.0000000001
 40
0.0
 40
0.0
 40
0.0
 40
0.0
 40
1.0
 40
2.0
 40
3.0
 40
3.0
 40
3.0
 40
3.0
 10
248.4090574995583
 20
210.3678747588598
 30
0.0
 10
248.8340221721539
 20
208.7845414255265
 30
0.0
 10
249.6839514933813
 20
205.6178746274501
 30
0.0
 10
250.1130437112487
 20
199.3678746253649
 30
0.0
 10
249.4628685078512
 20
179.2012080921934
 30
0.0
 10
249.1377809038134
 20
169.1178747588601
 30
0.0
  0
POLYLINE
  5
351
330
1F
100
AcDbEntity
  8
1
  6
Continuous
 62
     7
370
     9
100
AcDb2dPolyline
 66
     1
 10
0.0
 20
0.0
 30
0.0
  0
VERTEX
  5
352
330
351
100
AcDbEntity
  8
1
  6
Continuous
 62
     7
370
     9
100
AcDbVertex
100
AcDb2dVertex
 10
221.9529181366082
 20
144.8678747588599
 30
0.0
  0
VERTEX
  5
353
330
351
100
AcDbEntity
  8
1
  6
Continuous
 62
     7
370
     9
100
AcDbVertex
100
AcDb2dVertex
 10
222.3792877177873
 20
144.8288350735479
 30
0.0
  0
VERTEX
  5
354
330
351
100
AcDbEntity
  8
1
  6
Continuous
 62
     7
370
     9
100
AcDbVertex
100
AcDb2dVertex
 10
223.5603572448836
 20
144.7280690724116
 30
0.0
  0
VERTEX
  5
355
330
351
100
AcDbEntity
  8
1
  6
Continuous
 62
     7
370
     9
100
AcDbVertex
100
AcDb2dVertex
 10
224.7577577542325
 20
144.6352377009202
 30
0.0
  0
VERTEX
  5
356
330
351
100
AcDbEntity
  8
1
  6
Continuous
 62
     7
370
     9
100
AcDbVertex
100
AcDb2dVertex
 10
225.9388272813289
 20
144.5545131158206
 30
0.0
  0
VERTEX
  5
357
330
351
100
AcDbEntity
  8
1
  6
Continuous
 62
     7
370
     9
100
AcDbVertex
100
AcDb2dVertex
 10
227.0713493282921
 20
144.4887270137817
 30
0.0
  0
VERTEX
  5
358
330
351
100
AcDbEntity
  8
1
  6
Continuous
 62
     7
370
     9
100
AcDbVertex
100
AcDb2dVertex
 10
228.1244316459456
 20
144.4390337734011
 30
0.0
  0
VERTEX
  5
359
330
351
100
AcDbEntity
  8
1
  6
Continuous
 62
     7
370
     9
100
AcDbVertex
100
AcDb2dVertex
 10
229.0693488938446
 20
144.404829314393
 30
0.0
  0
VERTEX
  5
35A
330
351
100
AcDbEntity
  8
1
  6
Continuous
 62
     7
370
     9
100
AcDbVertex
100
AcDb2dVertex
 10
229.8803261926819
 20
144.3839619571116
 30
0.0
  0
VERTEX
  5
35B
330
351
100
AcDbEntity
  8
1
  6
Continuous
 62
     7
370
     9
100
AcDbVertex
100
AcDb2dVertex
 10
230.5352421958051
 20
144.373212797991
 30
0.0
  0
VERTEX
  5
35C
330
351
100
AcDbEntity
  8
1
  6
Continuous
 62
     7
370
     9
100
AcDbVertex
100
AcDb2dVertex
 10
231.0162325018876
 20
144.3689657313346
 30
0.0
  0
VERTEX
  5
35D
330
351
100
AcDbEntity
  8
1
  6
Continuous
 62
     7
370
     9
100
AcDbVertex
100
AcDb2dVertex
 10
231.3101769492278
 20
144.3679443555649
 30
0.0
  0
VERTEX
  5
35E
330
351
100
AcDbEntity
  8
1
  6
Continuous
 62
     7
370
     9
100
AcDbVertex
100
AcDb2dVertex
 10
231.4090574995581
 20
144.3678747588599
 30
0.0
  0
VERTEX
  5
35F
330
351
100
AcDbEntity
  8
1
  6
Continuous
 62
     7
370
     9
100
AcDbVertex
100
AcDb2dVertex
 10
231.5079380498883
 20
144.3679443555649
 30
0.0
  0
VERTEX
  5
360
330
351
100
AcDbEntity
  8
1
  6
Continuous
 62
     7
370
     9
100
AcDbVertex
100
AcDb2dVertex
 10
231.8018824972284
 20
144.3689657313346
 30
0.0
  0
VERTEX
  5
361
330
351
100
AcDbEntity
  8
1
  6
Continuous
 62
     7
370
     9
100
AcDbVertex
100
AcDb2dVertex
 10
232.2828728033111
 20
144.373212797991
 30
0.0
  0
VERTEX
  5
362
330
351
100
AcDbEntity
  8
1
  6
Continuous
 62
     7
370
     9
100
AcDbVertex
100
AcDb2dVertex
 10
232.9377888064342
 20
144.3839619571116
 30
0.0
  0
VERTEX
  5
363
330
351
100
AcDbEntity
  8
1
  6
Continuous
 62
     7
370
     9
100
AcDbVertex
100
AcDb2dVertex
 10
233.7487661052714
 20
144.404829314393
 30
0.0
  0
VERTEX
  5
364
330
351
100
AcDbEntity
  8
1
  6
Continuous
 62
     7
370
     9
100
AcDbVertex
100
AcDb2dVertex
 10
234.6936833531705
 20
144.4390337734011
 30
0.0
  0
VERTEX
  5
365
330
351
100
AcDbEntity
  8
1
  6
Continuous
 62
     7
370
     9
100
AcDbVertex
100
AcDb2dVertex
 10
235.746765670824
 20
144.4887270137817
 30
0.0
  0
VERTEX
  5
366
330
351
100
AcDbEntity
  8
1
  6
Continuous
 62
     7
370
     9
100
AcDbVertex
100
AcDb2dVertex
 10
236.8792877177873
 20
144.5545131158207
 30
0.0
  0
VERTEX
  5
367
330
351
100
AcDbEntity
  8
1
  6
Continuous
 62
     7
370
     9
100
AcDbVertex
100
AcDb2dVertex
 10
238.0603572448836
 20
144.6352377009201
 30
0.0
  0
VERTEX
  5
368
330
351
100
AcDbEntity
  8
1
  6
Continuous
 62
     7
370
     9
100
AcDbVertex
100
AcDb2dVertex
 10
239.2577577542325
 20
144.7280690724116
 30
0.0
  0
VERTEX
  5
369
330
351
100
AcDbEntity
  8
1
  6
Continuous
 62
     7
370
     9
100
AcDbVertex
100
AcDb2dVertex
 10
240.4388272813289
 20
144.8288350735479
 30
0.0
  0
VERTEX
  5
36A
330
351
100
AcDbEntity
  8
1
  6
Continuous
 62
     7
370
     9
100
AcDbVertex
100
AcDb2dVertex
 10
240.8651968625076
 20
144.8678747588598
 30
0.0
  0
SEQEND
  5
36B
330
351
100
AcDbEntity
  8
1
  6
Continuous
 62
     7
370
     9
  0
LINE
  5
36C
330
1F
100
AcDbEntity
  8
1
  6
Continuous
 62
     7
370
     9
100
AcDbLine
 10
213.8432472896567
 20
161.460954624227
 30
0.0
 11
213.6803340953028
 21
169.1178747588601
 31
0.0
  0
ARC
  5
36D
330
1F
100
AcDbEntity
  8
1
  6
Continuous
 62
     7
370
     9
100
AcDbCircle
 10
243.8364591913686
 20
162.0991080689443
 30
0.0
 40
30.0
100
AcDbArc
 50
181.218875235131
 51
192.9946167919162
  0
LINE
  5
36E
330
1F
100
AcDbEntity
  8
1
  6
Continuous
 62
     7
370
     9
100
AcDbLine
 10
248.9748677094595
 20
161.4609546242272
 30
0.0
 11
249.1377809038134
 21
169.1178747588601
 31
0.0
  0
ARC
  5
36F
330
1F
100
AcDbEntity
  8
1
  6
Continuous
 62
     7
370
     9
100
AcDbCircle
 10
218.9816558077476
 20
162.0991080689444
 30
0.0
 40
30.0
100
AcDbArc
 50
347.005383208083
 51
358.7811247648684
  0
LINE
  5
370
330
1F
100
AcDbEntity
  8
1
  6
Continuous
 62
     7
370
     9
100
AcDbLine
 10
216.4248222536496
 20
147.4662274911298
 30
0.0
 11
214.60472332053
 21
155.3533228679815
 31
0.0
  0
LINE
  5
371
330
1F
100
AcDbEntity
  8
1
  6
Continuous
 62
     7
370
     9
100
AcDbLine
 10
219.0520551207663
 20
145.1554385145407
 30
0.0
 11
221.9529181366082
 21
144.8678747588599
 31
0.0
  0
ARC
  5
372
330
1F
100
AcDbEntity
  8
1
  6
Continuous
 62
     7
370
     9
100
AcDbCircle
 10
219.3479958407335
 20
148.1408060112261
 30
0.0
 40
3.0
100
AcDbArc
 50
192.9946167919159
 51
264.3387413250564
  0
LINE
  5
373
330
1F
100
AcDbEntity
  8
1
  6
Continuous
 62
     7
370
     9
100
AcDbLine
 10
240.8651968625076
 20
144.8678747588598
 30
0.0
 11
243.7660598783498
 21
145.1554385145407
 31
0.0
  0
LINE
  5
374
330
1F
100
AcDbEntity
  8
1
  6
Continuous
 62
     7
370
     9
100
AcDbLine
 10
248.2133916785861
 20
155.3533228679816
 30
0.0
 11
246.3932927454665
 21
147.4662274911298
 31
0.0
  0
ARC
  5
375
330
1F
100
AcDbEntity
  8
1
  6
Continuous
 62
     7
370
     9
100
AcDbCircle
 10
243.4701191583826
 20
148.1408060112261
 30
0.0
 40
3.0
100
AcDbArc
 50
275.6612586749429
 51
347.0053832080831
  0
ARC
  5
376
330
1F
100
AcDbEntity
  8
1
  6
Continuous
 62
     7
370
     9
100
AcDbCircle
 10
224.9885447129138
 20
151.3186452530714
 30
0.0
 40
3.0
100
AcDbArc
 50
153.4349488229142
 51
186.3401917459074
  0
ARC
  5
377
330
1F
100
AcDbEntity
  8
1
  6
Continuous
 62
     7
370
     9
100
AcDbCircle
 10
237.833897669766
 20
151.3575917051439
 30
0.0
 40
3.0
100
AcDbArc
 50
353.6598082540897
 51
27.50863044140085
  0
LINE
  5
378
330
1F
100
AcDbEntity
  8
1
  6
Continuous
 62
     7
370
     9
100
AcDbLine
 10
222.356271095058
 20
152.7623019498591
 30
0.0
 11
222.3052631399142
 21
152.6602860395717
 31
0.0
  0
ARC
  5
379
330
1F
100
AcDbEntity
  8
1
  6
Continuous
 62
     7
370
     9
100
AcDbCircle
 10
224.1451254770577
 20
151.8678747588589
 30
0.0
 40
2.0
100
AcDbArc
 50
89.99999999999991
 51
153.434948822914
  0
LINE
  5
37A
330
1F
100
AcDbEntity
  8
1
  6
Continuous
 62
     7
370
     9
100
AcDbLine
 10
224.1451254770577
 20
153.8678747588589
 30
0.0
 11
238.6956337926175
 21
153.867874758859
 31
0.0
  0
LINE
  5
37B
330
1F
100
AcDbEntity
  8
1
  6
Continuous
 62
     7
370
     9
100
AcDbLine
 10
240.4695163328141
 20
152.7916391950579
 30
0.0
 11
240.4947214800609
 21
152.7432383594422
 31
0.0
  0
ARC
  5
37C
330
1F
100
AcDbEntity
  8
1
  6
Continuous
 62
     7
370
     9
100
AcDbCircle
 10
238.6956337926175
 20
151.867874758859
 30
0.0
 40
2.0
100
AcDbArc
 50
27.50863044140207
 51
89.99999999999991
  0
LINE
  5
37D
330
1F
100
AcDbEntity
  8
1
  6
Continuous
 62
     7
370
     9
100
AcDbLine
 10
222.0068935088929
 20
150.987350674847
 30
0.0
 11
222.3347791778613
 21
148.0363796541302
 31
0.0
  0
LINE
  5
37E
330
1F
100
AcDbEntity
  8
1
  6
Continuous
 62
     7
370
     9
100
AcDbLine
 10
222.5721915231443
 20
146.7153386645149
 30
0.0
 11
222.9090574995581
 21
145.3678747588599
 31
0.0
  0
ARC
  5
37F
330
1F
100
AcDbEntity
  8
1
  6
Continuous
 62
     7
370
     9
100
AcDbCircle
 10
232.2736165245976
 20
149.1406949148784
 30
0.0
 40
10.0
100
AcDbArc
 50
186.340191745908
 51
194.0362434679269
  0
LINE
  5
380
330
1F
100
AcDbEntity
  8
1
  6
Continuous
 62
     7
370
     9
100
AcDbLine
 10
240.2459234759718
 20
146.715338664515
 30
0.0
 11
239.909057499558
 21
145.3678747588599
 31
0.0
  0
LINE
  5
381
330
1F
100
AcDbEntity
  8
1
  6
Continuous
 62
     7
370
     9
100
AcDbLine
 10
240.8155488737869
 20
151.0262971269194
 30
0.0
 11
240.4833358212547
 21
148.0363796541301
 31
0.0
  0
ARC
  5
382
330
1F
100
AcDbEntity
  8
1
  6
Continuous
 62
     7
370
     9
100
AcDbCircle
 10
230.5444984745186
 20
149.1406949148785
 30
0.0
 40
10.0
100
AcDbArc
 50
345.9637565320719
 51
353.6598082540899
  0
LINE
  5
383
330
1F
100
AcDbEntity
  8
1
  6
Continuous
 62
     7
370
     9
100
AcDbLine
 10
222.9090574995581
 20
145.3678747588599
 30
0.0
 11
222.9090574995581
 21
150.8678747588599
 31
0.0
  0
ARC
  5
384
330
1F
100
AcDbEntity
  8
1
  6
Continuous
 62
     7
370
     9
100
AcDbCircle
 10
223.9090574995581
 20
150.8678747588599
 30
0.0
 40
1.0
100
AcDbArc
 50
89.99999999999991
 51
179.9999999999998
  0
LINE
  5
385
330
1F
100
AcDbEntity
  8
1
  6
Continuous
 62
     7
370
     9
100
AcDbLine
 10
223.9090574995581
 20
151.8678747588599
 30
0.0
 11
238.909057499558
 21
151.8678747588599
 31
0.0
  0
LINE
  5
386
330
1F
100
AcDbEntity
  8
1
  6
Continuous
 62
     7
370
     9
100
AcDbLine
 10
239.909057499558
 20
150.8678747588599
 30
0.0
 11
239.909057499558
 21
145.3678747588599
 31
0.0
  0
ARC
  5
387
330
1F
100
AcDbEntity
  8
1
  6
Continuous
 62
     7
370
     9
100
AcDbCircle
 10
238.909057499558
 20
150.8678747588599
 30
0.0
 40
1.0
100
AcDbArc
 50
0.0
 51
89.99999999999991
  0
INSERT
  5
393
330
1F
100
AcDbEntity
  8
0
100
AcDbBlockReference
  2
G5
 10
0.0
 20
0.0
 30
0.0
  0
POLYLINE
  5
394
330
1F
100
AcDbEntity
  8
1
  6
Continuous
 62
     7
370
     9
100
AcDb2dPolyline
 66
     1
 10
0.0
 20
0.0
 30
0.0
  0
VERTEX
  5
395
330
394
100
AcDbEntity
  8
1
  6
Continuous
 62
     7
370
     9
100
AcDbVertex
100
AcDb2dVertex
 10
248.373269350405
 20
211.8726113522342
 30
0.0
  0
VERTEX
  5
396
330
394
100
AcDbEntity
  8
1
  6
Continuous
 62
     7
370
     9
100
AcDbVertex
100
AcDb2dVertex
 10
248.2931285784812
 20
211.8832180546877
 30
0.0
  0
VERTEX
  5
397
330
394
100
AcDbEntity
  8
1
  6
Continuous
 62
     7
370
     9
100
AcDbVertex
100
AcDb2dVertex
 10
247.9485040540135
 20
211.9288154493028
 30
0.0
  0
VERTEX
  5
398
330
394
100
AcDbEntity
  8
1
  6
Continuous
 62
     7
370
     9
100
AcDbVertex
100
AcDb2dVertex
 10
247.3845843848132
 20
212.0033026480833
 30
0.0
  0
VERTEX
  5
399
330
394
100
AcDbEntity
  8
1
  6
Continuous
 62
     7
370
     9
100
AcDbVertex
100
AcDb2dVertex
 10
246.6167518294274
 20
212.1042127629779
 30
0.0
  0
VERTEX
  5
39A
330
394
100
AcDbEntity
  8
1
  6
Continuous
 62
     7
370
     9
100
AcDbVertex
100
AcDb2dVertex
 10
245.6659508583769
 20
212.2277820330725
 30
0.0
  0
VERTEX
  5
39B
330
394
100
AcDbEntity
  8
1
  6
Continuous
 62
     7
370
     9
100
AcDbVertex
100
AcDb2dVertex
 10
244.5581168435987
 20
212.3688401188544
 30
0.0
  0
VERTEX
  5
39C
330
394
100
AcDbEntity
  8
1
  6
Continuous
 62
     7
370
     9
100
AcDbVertex
100
AcDb2dVertex
 10
243.3234686091083
 20
212.5208885832615
 30
0.0
  0
VERTEX
  5
39D
330
394
100
AcDbEntity
  8
1
  6
Continuous
 62
     7
370
     9
100
AcDbVertex
100
AcDb2dVertex
 10
241.9956841402548
 20
212.6764342868271
 30
0.0
  0
VERTEX
  5
39E
330
394
100
AcDbEntity
  8
1
  6
Continuous
 62
     7
370
     9
100
AcDbVertex
100
AcDb2dVertex
 10
240.6109819360729
 20
212.8275832885317
 30
0.0
  0
VERTEX
  5
39F
330
394
100
AcDbEntity
  8
1
  6
Continuous
 62
     7
370
     9
100
AcDbVertex
100
AcDb2dVertex
 10
239.2071330630432
 20
212.9668303457691
 30
0.0
  0
VERTEX
  5
3A0
330
394
100
AcDbEntity
  8
1
  6
Continuous
 62
     7
370
     9
100
AcDbVertex
100
AcDb2dVertex
 10
237.8224308588612
 20
213.0879172234184
 30
0.0
  0
VERTEX
  5
3A1
330
394
100
AcDbEntity
  8
1
  6
Continuous
 62
     7
370
     9
100
AcDbVertex
100
AcDb2dVertex
 10
236.4946463900078
 20
213.1865963764769
 30
0.0
  0
VERTEX
  5
3A2
330
394
100
AcDbEntity
  8
1
  6
Continuous
 62
     7
370
     9
100
AcDbVertex
100
AcDb2dVertex
 10
235.2599981555174
 20
213.2611362370479
 30
0.0
  0
VERTEX
  5
3A3
330
394
100
AcDbEntity
  8
1
  6
Continuous
 62
     7
370
     9
100
AcDbVertex
100
AcDb2dVertex
 10
234.1521641407392
 20
213.3124429255601
 30
0.0
  0
VERTEX
  5
3A4
330
394
100
AcDbEntity
  8
1
  6
Continuous
 62
     7
370
     9
100
AcDbVertex
100
AcDb2dVertex
 10
233.2013631696887
 20
213.3437439614823
 30
0.0
  0
VERTEX
  5
3A5
330
394
100
AcDbEntity
  8
1
  6
Continuous
 62
     7
370
     9
100
AcDbVertex
100
AcDb2dVertex
 10
232.4335306143029
 20
213.3598677001632
 30
0.0
  0
VERTEX
  5
3A6
330
394
100
AcDbEntity
  8
1
  6
Continuous
 62
     7
370
     9
100
AcDbVertex
100
AcDb2dVertex
 10
231.8696109451027
 20
213.3662383001479
 30
0.0
  0
VERTEX
  5
3A7
330
394
100
AcDbEntity
  8
1
  6
Continuous
 62
     7
370
     9
100
AcDbVertex
100
AcDb2dVertex
 10
231.5249864206349
 20
213.3677703638024
 30
0.0
  0
VERTEX
  5
3A8
330
394
100
AcDbEntity
  8
1
  6
Continuous
 62
     7
370
     9
100
AcDbVertex
100
AcDb2dVertex
 10
231.4090574995581
 20
213.3678747588599
 30
0.0
  0
VERTEX
  5
3A9
330
394
100
AcDbEntity
  8
1
  6
Continuous
 62
     7
370
     9
100
AcDbVertex
100
AcDb2dVertex
 10
231.2931285784812
 20
213.3677703638024
 30
0.0
  0
VERTEX
  5
3AA
330
394
100
AcDbEntity
  8
1
  6
Continuous
 62
     7
370
     9
100
AcDbVertex
100
AcDb2dVertex
 10
230.9485040540135
 20
213.3662383001479
 30
0.0
  0
VERTEX
  5
3AB
330
394
100
AcDbEntity
  8
1
  6
Continuous
 62
     7
370
     9
100
AcDbVertex
100
AcDb2dVertex
 10
230.3845843848132
 20
213.3598677001632
 30
0.0
  0
VERTEX
  5
3AC
330
394
100
AcDbEntity
  8
1
  6
Continuous
 62
     7
370
     9
100
AcDbVertex
100
AcDb2dVertex
 10
229.6167518294274
 20
213.3437439614823
 30
0.0
  0
VERTEX
  5
3AD
330
394
100
AcDbEntity
  8
1
  6
Continuous
 62
     7
370
     9
100
AcDbVertex
100
AcDb2dVertex
 10
228.6659508583769
 20
213.3124429255602
 30
0.0
  0
VERTEX
  5
3AE
330
394
100
AcDbEntity
  8
1
  6
Continuous
 62
     7
370
     9
100
AcDbVertex
100
AcDb2dVertex
 10
227.5581168435987
 20
213.261136237048
 30
0.0
  0
VERTEX
  5
3AF
330
394
100
AcDbEntity
  8
1
  6
Continuous
 62
     7
370
     9
100
AcDbVertex
100
AcDb2dVertex
 10
226.3234686091083
 20
213.1865963764771
 30
0.0
  0
VERTEX
  5
3B0
330
394
100
AcDbEntity
  8
1
  6
Continuous
 62
     7
370
     9
100
AcDbVertex
100
AcDb2dVertex
 10
224.9956841402548
 20
213.0879172234186
 30
0.0
  0
VERTEX
  5
3B1
330
394
100
AcDbEntity
  8
1
  6
Continuous
 62
     7
370
     9
100
AcDbVertex
100
AcDb2dVertex
 10
223.6109819360729
 20
212.9668303457693
 30
0.0
  0
VERTEX
  5
3B2
330
394
100
AcDbEntity
  8
1
  6
Continuous
 62
     7
370
     9
100
AcDbVertex
100
AcDb2dVertex
 10
222.2071330630432
 20
212.827583288532
 30
0.0
  0
VERTEX
  5
3B3
330
394
100
AcDbEntity
  8
1
  6
Continuous
 62
     7
370
     9
100
AcDbVertex
100
AcDb2dVertex
 10
220.8224308588613
 20
212.6764342868275
 30
0.0
  0
VERTEX
  5
3B4
330
394
100
AcDbEntity
  8
1
  6
Continuous
 62
     7
370
     9
100
AcDbVertex
100
AcDb2dVertex
 10
219.4946463900079
 20
212.5208885832619
 30
0.0
  0
VERTEX
  5
3B5
330
394
100
AcDbEntity
  8
1
  6
Continuous
 62
     7
370
     9
100
AcDbVertex
100
AcDb2dVertex
 10
218.2599981555175
 20
212.3688401188548
 30
0.0
  0
VERTEX
  5
3B6
330
394
100
AcDbEntity
  8
1
  6
Continuous
 62
     7
370
     9
100
AcDbVertex
100
AcDb2dVertex
 10
217.1521641407393
 20
212.227782033073
 30
0.0
  0
VERTEX
  5
3B7
330
394
100
AcDbEntity
  8
1
  6
Continuous
 62
     7
370
     9
100
AcDbVertex
100
AcDb2dVertex
 10
216.2013631696887
 20
212.1042127629784
 30
0.0
  0
VERTEX
  5
3B8
330
394
100
AcDbEntity
  8
1
  6
Continuous
 62
     7
370
     9
100
AcDbVertex
100
AcDb2dVertex
 10
215.433530614303
 20
212.0033026480838
 30
0.0
  0
VERTEX
  5
3B9
330
394
100
AcDbEntity
  8
1
  6
Continuous
 62
     7
370
     9
100
AcDbVertex
100
AcDb2dVertex
 10
214.8696109451027
 20
211.9288154493033
 30
0.0
  0
VERTEX
  5
3BA
330
394
100
AcDbEntity
  8
1
  6
Continuous
 62
     7
370
     9
100
AcDbVertex
100
AcDb2dVertex
 10
214.524986420635
 20
211.8832180546882
 30
0.0
  0
VERTEX
  5
3BB
330
394
100
AcDbEntity
  8
1
  6
Continuous
 62
     7
370
     9
100
AcDbVertex
100
AcDb2dVertex
 10
214.444845648707
 20
211.8726113522342
 30
0.0
  0
SEQEND
  5
3BC
330
394
100
AcDbEntity
  8
1
  6
Continuous
 62
     7
370
     9
  0
LINE
  5
3BD
330
1F
100
AcDbEntity
  8
1
  6
Continuous
 62
     7
370
     9
100
AcDbLine
 10
213.4480374150807
 20
206.3678747588598
 30
0.0
 11
234.4090574995582
 21
206.3678747588598
 31
0.0
  0
ARC
  5
3BE
330
1F
100
AcDbEntity
  8
1
  6
Continuous
 62
     7
370
     9
100
AcDbCircle
 10
234.4090574995581
 20
204.8678747588598
 30
0.0
 40
1.5
100
AcDbArc
 50
0.0000000000010856
 51
89.99999999999784
  0
LINE
  5
3BF
330
1F
100
AcDbEntity
  8
1
  6
Continuous
 62
     7
370
     9
100
AcDbLine
 10
235.9090574995581
 20
158.8678747588599
 30
0.0
 11
235.9090574995581
 21
204.8678747588599
 31
0.0
  0
LINE
  5
3C0
330
1F
100
AcDbEntity
  8
1
  6
Continuous
 62
     7
370
     9
100
AcDbLine
 10
214.2118844034405
 20
157.3678747588599
 30
0.0
 11
234.4090574995581
 21
157.3678747588599
 31
0.0
  0
ARC
  5
3C1
330
1F
100
AcDbEntity
  8
1
  6
Continuous
 62
     7
370
     9
100
AcDbCircle
 10
234.4090574995581
 20
158.8678747588599
 30
0.0
 40
1.5
100
AcDbArc
 50
270.0000000000018
 51
0.0
  0
INSERT
  5
3CB
330
1F
100
AcDbEntity
  8
0
100
AcDbBlockReference
  2
G6
 10
0.0
 20
0.0
 30
0.0
  0
INSERT
  5
3D5
330
1F
100
AcDbEntity
  8
0
100
AcDbBlockReference
  2
G7
 10
0.0
 20
0.0
 30
0.0
  0
ARC
  5
3D6
330
1F
100
AcDbEntity
  8
1
  6
Continuous
 62
     7
370
     9
100
AcDbCircle
 10
229.7090574995578
 20
185.3178747588599
 30
0.0
 40
0.2
100
AcDbArc
 50
213.6900675259817
 51
0.0
  0
ARC
  5
3D7
330
1F
100
AcDbEntity
  8
1
  6
Continuous
 62
     7
370
     9
100
AcDbCircle
 10
229.7090574995578
 20
190.4178747588599
 30
0.0
 40
0.2
100
AcDbArc
 50
0.0
 51
146.309932474018
  0
LINE
  5
3D8
330
1F
100
AcDbEntity
  8
1
  6
Continuous
 62
     7
370
     9
100
AcDbLine
 10
229.9090574995578
 20
185.3178747588599
 30
0.0
 11
229.9090574995578
 21
190.4178747588599
 31
0.0
  0
ARC
  5
3D9
330
1F
100
AcDbEntity
  8
1
  6
Continuous
 62
     7
370
     9
100
AcDbCircle
 10
228.1090574995581
 20
187.8678747588598
 30
0.0
 40
0.2
100
AcDbArc
 50
146.3099324740112
 51
213.6900675259884
  0
LINE
  5
3DA
330
1F
100
AcDbEntity
  8
1
  6
Continuous
 62
     7
370
     9
100
AcDbLine
 10
227.9426474406906
 20
187.7569347196147
 30
0.0
 11
229.5426474406903
 21
185.2069347196148
 31
0.0
  0
LINE
  5
3DB
330
1F
100
AcDbEntity
  8
1
  6
Continuous
 62
     7
370
     9
100
AcDbLine
 10
229.5426474406903
 20
190.5288147981049
 30
0.0
 11
227.9426474406906
 21
187.9788147981049
 31
0.0
  0
INSERT
  5
3E7
330
1F
100
AcDbEntity
  8
0
100
AcDbBlockReference
  2
G8
 10
0.0
 20
0.0
 30
0.0
  0
DIMENSION
  5
3F1
330
1F
100
AcDbEntity
  8
1
  6
Continuous
 62
     7
370
     9
100
AcDbDimension
280
     0
  2
Dim3
 10
182.9090574995582
 20
235.3678747588599
 30
0.0
 11
175.4090574995582
 21
237.3678747588599
 31
0.0
 70
   160
  1
<>
 71
     5
 42
-1.0
 73
     0
 74
     0
 75
     0
  3
Standard
100
AcDbAlignedDimension
 13
167.9090574995581
 23
191.3678747588598
 33
0.0
 14
182.9090574995581
 24
191.3678747588599
 34
0.0
100
AcDbRotatedDimension
1001
ACAD
1000
DSTYLE
1002
{
1070
   279
1070
     2
1070
   340
1005
289
1070
   140
1040
3.0
1070
    40
1040
1.0
1070
   147
1040
0.0
1070
    76
1070
     0
1070
    75
1070
     0
1070
   344
1005
7F
1070
   343
1005
7F
1070
   173
1070
     1
1070
   289
1070
     2
1070
   288
1070
     1
1070
    77
1070
     1
1070
   172
1070
     1
1070
   174
1070
     0
1070
    74
1070
     0
1070
    73
1070
     0
1070
   284
1070
     8
1070
    78
1070
     8
1070
    42
1040
2.0
1070
    44
1040
2.0
1070
    43
1040
10.0
1070
   271
1070
     2
1070
    41
1040
2.4
1002
}
  0
INSERT
  5
3FD
330
1F
100
AcDbEntity
  8
0
100
AcDbBlockReference
  2
G9
 10
0.0
 20
0.0
 30
0.0
  0
ARC
  5
3FE
330
1F
100
AcDbEntity
  8
1
  6
Continuous
 62
     7
370
     9
100
AcDbCircle
 10
92.30407288237427
 20
118.3678747588602
 30
0.0
 40
5.0
100
AcDbArc
 50
89.99999999999991
 51
94.46715906138814
  0
LINE
  5
3FF
330
1F
100
AcDbEntity
  8
1
  6
Continuous
 62
     7
370
     9
100
AcDbLine
 10
90.46567493142751
 20
122.9928747588602
 30
0.0
 11
90.48921021091579
 21
123.0078038468124
 31
0.0
  0
LINE
  5
400
330
1F
100
AcDbEntity
  8
1
  6
Continuous
 62
     7
370
     9
100
AcDbLine
 10
91.40473778624985
 20
123.3128497812581
 30
0.0
 11
91.91463454590982
 21
123.3526854656065
 31
0.0
  0
ARC
  5
401
330
1F
100
AcDbEntity
  8
1
  6
Continuous
 62
     7
370
     9
100
AcDbCircle
 10
91.56051312083562
 20
121.3189254985596
 30
0.0
 40
2.0
100
AcDbArc
 50
94.46715906138783
 51
122.3881022752766
  0
LINE
  5
402
330
1F
100
AcDbEntity
  8
1
  6
Continuous
 62
     7
370
     9
100
AcDbLine
 10
108.3639766561283
 20
122.9928747588603
 30
0.0
 11
108.3215335404422
 21
123.0191148635345
 31
0.0
  0
ARC
  5
403
330
1F
100
AcDbEntity
  8
1
  6
Continuous
 62
     7
370
     9
100
AcDbCircle
 10
107.2698156243403
 20
121.3179712996487
 30
0.0
 40
2.0
100
AcDbArc
 50
58.27391409660225
 51
85.53284093861136
  0
LINE
  5
404
330
1F
100
AcDbEntity
  8
1
  6
Continuous
 62
     7
370
     9
100
AcDbLine
 10
107.4255909589261
 20
123.3118955823471
 30
0.0
 11
106.9034804532064
 21
123.3526854656065
 31
0.0
  0
LINE
  5
405
330
1F
100
AcDbEntity
  8
1
  6
Continuous
 62
     7
370
     9
100
AcDbLine
 10
92.30407288237427
 20
123.3678747588602
 30
0.0
 11
106.5140421167421
 21
123.3678747588602
 31
0.0
  0
ARC
  5
406
330
1F
100
AcDbEntity
  8
1
  6
Continuous
 62
     7
370
     9
100
AcDbCircle
 10
106.5140421167421
 20
118.3678747588602
 30
0.0
 40
5.0
100
AcDbArc
 50
85.53284093861411
 51
90.00000000000034
  0
POLYLINE
  5
407
330
1F
100
AcDbEntity
  8
1
  6
Continuous
 62
     7
370
     9
100
AcDb2dPolyline
 66
     1
 10
0.0
 20
0.0
 30
0.0
  0
VERTEX
  5
408
330
407
100
AcDbEntity
  8
1
  6
Continuous
 62
     7
370
     9
100
AcDbVertex
100
AcDb2dVertex
 10
108.3639766561283
 20
122.9928747588602
 30
0.0
  0
VERTEX
  5
409
330
407
100
AcDbEntity
  8
1
  6
Continuous
 62
     7
370
     9
100
AcDbVertex
100
AcDb2dVertex
 10
108.3694054892377
 20
122.9883994128876
 30
0.0
  0
VERTEX
  5
40A
330
407
100
AcDbEntity
  8
1
  6
Continuous
 62
     7
370
     9
100
AcDbVertex
100
AcDb2dVertex
 10
108.3855375499495
 20
122.9750867208917
 30
0.0
  0
VERTEX
  5
40B
330
407
100
AcDbEntity
  8
1
  6
Continuous
 62
     7
370
     9
100
AcDbVertex
100
AcDb2dVertex
 10
108.4118779724091
 20
122.9532244955575
 30
0.0
  0
VERTEX
  5
40C
330
407
100
AcDbEntity
  8
1
  6
Continuous
 62
     7
370
     9
100
AcDbVertex
100
AcDb2dVertex
 10
108.4475103362227
 20
122.9231371617498
 30
0.0
  0
VERTEX
  5
40D
330
407
100
AcDbEntity
  8
1
  6
Continuous
 62
     7
370
     9
100
AcDbVertex
100
AcDb2dVertex
 10
108.4910026709457
 20
122.8850134259829
 30
0.0
  0
VERTEX
  5
40E
330
407
100
AcDbEntity
  8
1
  6
Continuous
 62
     7
370
     9
100
AcDbVertex
100
AcDb2dVertex
 10
108.540349904721
 20
122.8387683969212
 30
0.0
  0
VERTEX
  5
40F
330
407
100
AcDbEntity
  8
1
  6
Continuous
 62
     7
370
     9
100
AcDbVertex
100
AcDb2dVertex
 10
108.5930001011569
 20
122.7840068057852
 30
0.0
  0
VERTEX
  5
410
330
407
100
AcDbEntity
  8
1
  6
Continuous
 62
     7
370
     9
100
AcDbVertex
100
AcDb2dVertex
 10
108.6459950981759
 20
122.7201313724543
 30
0.0
  0
VERTEX
  5
411
330
407
100
AcDbEntity
  8
1
  6
Continuous
 62
     7
370
     9
100
AcDbVertex
100
AcDb2dVertex
 10
108.6962283934057
 20
122.6466025399239
 30
0.0
  0
VERTEX
  5
412
330
407
100
AcDbEntity
  8
1
  6
Continuous
 62
     7
370
     9
100
AcDbVertex
100
AcDb2dVertex
 10
108.7407910841427
 20
122.5633120506605
 30
0.0
  0
VERTEX
  5
413
330
407
100
AcDbEntity
  8
1
  6
Continuous
 62
     7
370
     9
100
AcDbVertex
100
AcDb2dVertex
 10
108.7773485432527
 20
122.4709943905957
 30
0.0
  0
VERTEX
  5
414
330
407
100
AcDbEntity
  8
1
  6
Continuous
 62
     7
370
     9
100
AcDbVertex
100
AcDb2dVertex
 10
108.8044738570778
 20
122.3715773631978
 30
0.0
  0
VERTEX
  5
415
330
407
100
AcDbEntity
  8
1
  6
Continuous
 62
     7
370
     9
100
AcDbVertex
100
AcDb2dVertex
 10
108.8218639048297
 20
122.2683728946642
 30
0.0
  0
VERTEX
  5
416
330
407
100
AcDbEntity
  8
1
  6
Continuous
 62
     7
370
     9
100
AcDbVertex
100
AcDb2dVertex
 10
108.8303815086581
 20
122.1660332423091
 30
0.0
  0
VERTEX
  5
417
330
407
100
AcDbEntity
  8
1
  6
Continuous
 62
     7
370
     9
100
AcDbVertex
100
AcDb2dVertex
 10
108.8318992561132
 20
122.0702418601844
 30
0.0
  0
VERTEX
  5
418
330
407
100
AcDbEntity
  8
1
  6
Continuous
 62
     7
370
     9
100
AcDbVertex
100
AcDb2dVertex
 10
108.8289606731711
 20
121.9871630412433
 30
0.0
  0
VERTEX
  5
419
330
407
100
AcDbEntity
  8
1
  6
Continuous
 62
     7
370
     9
100
AcDbVertex
100
AcDb2dVertex
 10
108.824313549958
 20
121.9227279416616
 30
0.0
  0
VERTEX
  5
41A
330
407
100
AcDbEntity
  8
1
  6
Continuous
 62
     7
370
     9
100
AcDbVertex
100
AcDb2dVertex
 10
108.8203994474752
 20
121.8818744178154
 30
0.0
  0
VERTEX
  5
41B
330
407
100
AcDbEntity
  8
1
  6
Continuous
 62
     7
370
     9
100
AcDbVertex
100
AcDb2dVertex
 10
108.8188958126985
 20
121.8678747588604
 30
0.0
  0
VERTEX
  5
41C
330
407
100
AcDbEntity
  8
1
  6
Continuous
 62
     7
370
     9
100
AcDbVertex
100
AcDb2dVertex
 10
108.8172971952988
 20
121.8537446060835
 30
0.0
  0
VERTEX
  5
41D
330
407
100
AcDbEntity
  8
1
  6
Continuous
 62
     7
370
     9
100
AcDbVertex
100
AcDb2dVertex
 10
108.811989162605
 20
121.8109760026692
 30
0.0
  0
VERTEX
  5
41E
330
407
100
AcDbEntity
  8
1
  6
Continuous
 62
     7
370
     9
100
AcDbVertex
100
AcDb2dVertex
 10
108.8015458234482
 20
121.7385776531067
 30
0.0
  0
VERTEX
  5
41F
330
407
100
AcDbEntity
  8
1
  6
Continuous
 62
     7
370
     9
100
AcDbVertex
100
AcDb2dVertex
 10
108.7839372453031
 20
121.6353441608144
 30
0.0
  0
VERTEX
  5
420
330
407
100
AcDbEntity
  8
1
  6
Continuous
 62
     7
370
     9
100
AcDbVertex
100
AcDb2dVertex
 10
108.7569761110353
 20
121.5004264837872
 30
0.0
  0
VERTEX
  5
421
330
407
100
AcDbEntity
  8
1
  6
Continuous
 62
     7
370
     9
100
AcDbVertex
100
AcDb2dVertex
 10
108.718812923935
 20
121.3339534707918
 30
0.0
  0
VERTEX
  5
422
330
407
100
AcDbEntity
  8
1
  6
Continuous
 62
     7
370
     9
100
AcDbVertex
100
AcDb2dVertex
 10
108.6683837506833
 20
121.1375741765446
 30
0.0
  0
VERTEX
  5
423
330
407
100
AcDbEntity
  8
1
  6
Continuous
 62
     7
370
     9
100
AcDbVertex
100
AcDb2dVertex
 10
108.6057269903477
 20
120.9148082078237
 30
0.0
  0
VERTEX
  5
424
330
407
100
AcDbEntity
  8
1
  6
Continuous
 62
     7
370
     9
100
AcDbVertex
100
AcDb2dVertex
 10
108.5321149689538
 20
120.6711319506973
 30
0.0
  0
VERTEX
  5
425
330
407
100
AcDbEntity
  8
1
  6
Continuous
 62
     7
370
     9
100
AcDbVertex
100
AcDb2dVertex
 10
108.4499853520244
 20
120.4137826398873
 30
0.0
  0
VERTEX
  5
426
330
407
100
AcDbEntity
  8
1
  6
Continuous
 62
     7
370
     9
100
AcDbVertex
100
AcDb2dVertex
 10
108.3639766561283
 20
120.1551638549508
 30
0.0
  0
SEQEND
  5
427
330
407
100
AcDbEntity
  8
1
  6
Continuous
 62
     7
370
     9
  0
POLYLINE
  5
428
330
1F
100
AcDbEntity
  8
1
  6
Continuous
 62
     7
370
     9
100
AcDb2dPolyline
 66
     1
 10
0.0
 20
0.0
 30
0.0
  0
VERTEX
  5
429
330
428
100
AcDbEntity
  8
1
  6
Continuous
 62
     7
370
     9
100
AcDbVertex
100
AcDb2dVertex
 10
90.46567493142751
 20
122.9928747588602
 30
0.0
  0
VERTEX
  5
42A
330
428
100
AcDbEntity
  8
1
  6
Continuous
 62
     7
370
     9
100
AcDbVertex
100
AcDb2dVertex
 10
90.46038377159996
 20
122.9883994128876
 30
0.0
  0
VERTEX
  5
42B
330
428
100
AcDbEntity
  8
1
  6
Continuous
 62
     7
370
     9
100
AcDbVertex
100
AcDb2dVertex
 10
90.44466081422544
 20
122.9750867208917
 30
0.0
  0
VERTEX
  5
42C
330
428
100
AcDbEntity
  8
1
  6
Continuous
 62
     7
370
     9
100
AcDbVertex
100
AcDb2dVertex
 10
90.4189883755358
 20
122.9532244955575
 30
0.0
  0
VERTEX
  5
42D
330
428
100
AcDbEntity
  8
1
  6
Continuous
 62
     7
370
     9
100
AcDbVertex
100
AcDb2dVertex
 10
90.38425963582887
 20
122.9231371617498
 30
0.0
  0
VERTEX
  5
42E
330
428
100
AcDbEntity
  8
1
  6
Continuous
 62
     7
370
     9
100
AcDbVertex
100
AcDb2dVertex
 10
90.3418702512866
 20
122.8850134259829
 30
0.0
  0
VERTEX
  5
42F
330
428
100
AcDbEntity
  8
1
  6
Continuous
 62
     7
370
     9
100
AcDbVertex
100
AcDb2dVertex
 10
90.29377444585518
 20
122.8387683969212
 30
0.0
  0
VERTEX
  5
430
330
428
100
AcDbEntity
  8
1
  6
Continuous
 62
     7
370
     9
100
AcDbVertex
100
AcDb2dVertex
 10
90.24245943972451
 20
122.7840068057852
 30
0.0
  0
VERTEX
  5
431
330
428
100
AcDbEntity
  8
1
  6
Continuous
 62
     7
370
     9
100
AcDbVertex
100
AcDb2dVertex
 10
90.19080837703135
 20
122.7201313724543
 30
0.0
  0
VERTEX
  5
432
330
428
100
AcDbEntity
  8
1
  6
Continuous
 62
     7
370
     9
100
AcDbVertex
100
AcDb2dVertex
 10
90.14184898034958
 20
122.6466025399239
 30
0.0
  0
VERTEX
  5
433
330
428
100
AcDbEntity
  8
1
  6
Continuous
 62
     7
370
     9
100
AcDbVertex
100
AcDb2dVertex
 10
90.0984163836421
 20
122.5633120506605
 30
0.0
  0
VERTEX
  5
434
330
428
100
AcDbEntity
  8
1
  6
Continuous
 62
     7
370
     9
100
AcDbVertex
100
AcDb2dVertex
 10
90.06278600872739
 20
122.4709943905957
 30
0.0
  0
VERTEX
  5
435
330
428
100
AcDbEntity
  8
1
  6
Continuous
 62
     7
370
     9
100
AcDbVertex
100
AcDb2dVertex
 10
90.0363485832388
 20
122.3715773631978
 30
0.0
  0
VERTEX
  5
436
330
428
100
AcDbEntity
  8
1
  6
Continuous
 62
     7
370
     9
100
AcDbVertex
100
AcDb2dVertex
 10
90.01939954092921
 20
122.2683728946642
 30
0.0
  0
VERTEX
  5
437
330
428
100
AcDbEntity
  8
1
  6
Continuous
 62
     7
370
     9
100
AcDbVertex
100
AcDb2dVertex
 10
90.01109794051249
 20
122.1660332423091
 30
0.0
  0
VERTEX
  5
438
330
428
100
AcDbEntity
  8
1
  6
Continuous
 62
     7
370
     9
100
AcDbVertex
100
AcDb2dVertex
 10
90.00961868259449
 20
122.0702418601844
 30
0.0
  0
VERTEX
  5
439
330
428
100
AcDbEntity
  8
1
  6
Continuous
 62
     7
370
     9
100
AcDbVertex
100
AcDb2dVertex
 10
90.0124827441156
 20
121.9871630412433
 30
0.0
  0
VERTEX
  5
43A
330
428
100
AcDbEntity
  8
1
  6
Continuous
 62
     7
370
     9
100
AcDbVertex
100
AcDb2dVertex
 10
90.01701201793239
 20
121.9227279416616
 30
0.0
  0
VERTEX
  5
43B
330
428
100
AcDbEntity
  8
1
  6
Continuous
 62
     7
370
     9
100
AcDbVertex
100
AcDb2dVertex
 10
90.0208268601647
 20
121.8818744178154
 30
0.0
  0
VERTEX
  5
43C
330
428
100
AcDbEntity
  8
1
  6
Continuous
 62
     7
370
     9
100
AcDbVertex
100
AcDb2dVertex
 10
90.0222923632968
 20
121.8678747588604
 30
0.0
  0
VERTEX
  5
43D
330
428
100
AcDbEntity
  8
1
  6
Continuous
 62
     7
370
     9
100
AcDbVertex
100
AcDb2dVertex
 10
90.0238504403263
 20
121.8537446060835
 30
0.0
  0
VERTEX
  5
43E
330
428
100
AcDbEntity
  8
1
  6
Continuous
 62
     7
370
     9
100
AcDbVertex
100
AcDb2dVertex
 10
90.02902386319397
 20
121.8109760026692
 30
0.0
  0
VERTEX
  5
43F
330
428
100
AcDbEntity
  8
1
  6
Continuous
 62
     7
370
     9
100
AcDbVertex
100
AcDb2dVertex
 10
90.03920236297424
 20
121.7385776531067
 30
0.0
  0
VERTEX
  5
440
330
428
100
AcDbEntity
  8
1
  6
Continuous
 62
     7
370
     9
100
AcDbVertex
100
AcDb2dVertex
 10
90.05636439382377
 20
121.6353441608144
 30
0.0
  0
VERTEX
  5
441
330
428
100
AcDbEntity
  8
1
  6
Continuous
 62
     7
370
     9
100
AcDbVertex
100
AcDb2dVertex
 10
90.08264180329033
 20
121.5004264837872
 30
0.0
  0
VERTEX
  5
442
330
428
100
AcDbEntity
  8
1
  6
Continuous
 62
     7
370
     9
100
AcDbVertex
100
AcDb2dVertex
 10
90.11983718550323
 20
121.3339534707918
 30
0.0
  0
VERTEX
  5
443
330
428
100
AcDbEntity
  8
1
  6
Continuous
 62
     7
370
     9
100
AcDbVertex
100
AcDb2dVertex
 10
90.16898749280966
 20
121.1375741765446
 30
0.0
  0
VERTEX
  5
444
330
428
100
AcDbEntity
  8
1
  6
Continuous
 62
     7
370
     9
100
AcDbVertex
100
AcDb2dVertex
 10
90.23005529992909
 20
120.9148082078237
 30
0.0
  0
VERTEX
  5
445
330
428
100
AcDbEntity
  8
1
  6
Continuous
 62
     7
370
     9
100
AcDbVertex
100
AcDb2dVertex
 10
90.30180054657242
 20
120.6711319506973
 30
0.0
  0
VERTEX
  5
446
330
428
100
AcDbEntity
  8
1
  6
Continuous
 62
     7
370
     9
100
AcDbVertex
100
AcDb2dVertex
 10
90.38184738554995
 20
120.4137826398873
 30
0.0
  0
VERTEX
  5
447
330
428
100
AcDbEntity
  8
1
  6
Continuous
 62
     7
370
     9
100
AcDbVertex
100
AcDb2dVertex
 10
90.46567493142751
 20
120.1551638549508
 30
0.0
  0
SEQEND
  5
448
330
428
100
AcDbEntity
  8
1
  6
Continuous
 62
     7
370
     9
  0
LINE
  5
449
330
1F
100
AcDbEntity
  8
1
  6
Continuous
 62
     7
370
     9
100
AcDbLine
 10
90.46567493142751
 20
120.1551638549508
 30
0.0
 11
90.7929248874336
 21
119.2050468897332
 31
0.0
  0
ARC
  5
44A
330
1F
100
AcDbEntity
  8
1
  6
Continuous
 62
     7
370
     9
100
AcDbCircle
 10
91.26566909420458
 20
119.3678747588604
 30
0.0
 40
0.5
100
AcDbArc
 50
199.005307417642
 51
269.9999999999964
  0
LINE
  5
44B
330
1F
100
AcDbEntity
  8
1
  6
Continuous
 62
     7
370
     9
100
AcDbLine
 10
107.5554506921108
 20
118.8678747588604
 30
0.0
 11
91.26566909420455
 21
118.8678747588604
 31
0.0
  0
LINE
  5
44C
330
1F
100
AcDbEntity
  8
1
  6
Continuous
 62
     7
370
     9
100
AcDbLine
 10
108.0268789477481
 20
119.2012752396932
 30
0.0
 11
108.3639766561283
 21
120.1551638549508
 31
0.0
  0
ARC
  5
44D
330
1F
100
AcDbEntity
  8
1
  6
Continuous
 62
     7
370
     9
100
AcDbCircle
 10
107.5554506921107
 20
119.3678747588604
 30
0.0
 40
0.5
100
AcDbArc
 50
270.0000000000029
 51
340.5369404486013
  0
ARC
  5
44E
330
1F
100
AcDbEntity
  8
1
  6
Continuous
 62
     7
370
     9
100
AcDbCircle
 10
92.30407288237427
 20
115.3678747588606
 30
0.0
 40
5.0
100
AcDbArc
 50
265.5328409386115
 51
269.9999999999998
  0
LINE
  5
44F
330
1F
100
AcDbEntity
  8
1
  6
Continuous
 62
     7
370
     9
100
AcDbLine
 10
90.46567493142751
 20
110.7428747588606
 30
0.0
 11
90.48921021091579
 21
110.7279456709084
 31
0.0
  0
LINE
  5
450
330
1F
100
AcDbEntity
  8
1
  6
Continuous
 62
     7
370
     9
100
AcDbLine
 10
91.40473778624985
 20
110.4228997364628
 30
0.0
 11
91.91463454590982
 21
110.3830640521143
 31
0.0
  0
ARC
  5
451
330
1F
100
AcDbEntity
  8
1
  6
Continuous
 62
     7
370
     9
100
AcDbCircle
 10
91.56051312083562
 20
112.4168240191613
 30
0.0
 40
2.0
100
AcDbArc
 50
237.6118977247231
 51
265.5328409386118
  0
LINE
  5
452
330
1F
100
AcDbEntity
  8
1
  6
Continuous
 62
     7
370
     9
100
AcDbLine
 10
108.3639766561283
 20
110.7428747588606
 30
0.0
 11
108.3215335404422
 21
110.7166346541864
 31
0.0
  0
ARC
  5
453
330
1F
100
AcDbEntity
  8
1
  6
Continuous
 62
     7
370
     9
100
AcDbCircle
 10
107.2698156243403
 20
112.4177782180722
 30
0.0
 40
2.0
100
AcDbArc
 50
274.4671590613883
 51
301.7260859033974
  0
LINE
  5
454
330
1F
100
AcDbEntity
  8
1
  6
Continuous
 62
     7
370
     9
100
AcDbLine
 10
107.4255909589261
 20
110.4238539353737
 30
0.0
 11
106.9034804532064
 21
110.3830640521143
 31
0.0
  0
LINE
  5
455
330
1F
100
AcDbEntity
  8
1
  6
Continuous
 62
     7
370
     9
100
AcDbLine
 10
92.30407288237427
 20
110.3678747588606
 30
0.0
 11
106.5140421167421
 21
110.3678747588606
 31
0.0
  0
ARC
  5
456
330
1F
100
AcDbEntity
  8
1
  6
Continuous
 62
     7
370
     9
100
AcDbCircle
 10
106.5140421167421
 20
115.3678747588606
 30
0.0
 40
5.0
100
AcDbArc
 50
269.9999999999993
 51
274.4671590613855
  0
POLYLINE
  5
457
330
1F
100
AcDbEntity
  8
1
  6
Continuous
 62
     7
370
     9
100
AcDb2dPolyline
 66
     1
 10
0.0
 20
0.0
 30
0.0
  0
VERTEX
  5
458
330
457
100
AcDbEntity
  8
1
  6
Continuous
 62
     7
370
     9
100
AcDbVertex
100
AcDb2dVertex
 10
108.3639766561283
 20
110.7428747588606
 30
0.0
  0
VERTEX
  5
459
330
457
100
AcDbEntity
  8
1
  6
Continuous
 62
     7
370
     9
100
AcDbVertex
100
AcDb2dVertex
 10
108.3694054892377
 20
110.7473501048332
 30
0.0
  0
VERTEX
  5
45A
330
457
100
AcDbEntity
  8
1
  6
Continuous
 62
     7
370
     9
100
AcDbVertex
100
AcDb2dVertex
 10
108.3855375499495
 20
110.7606627968291
 30
0.0
  0
VERTEX
  5
45B
330
457
100
AcDbEntity
  8
1
  6
Continuous
 62
     7
370
     9
100
AcDbVertex
100
AcDb2dVertex
 10
108.4118779724091
 20
110.7825250221634
 30
0.0
  0
VERTEX
  5
45C
330
457
100
AcDbEntity
  8
1
  6
Continuous
 62
     7
370
     9
100
AcDbVertex
100
AcDb2dVertex
 10
108.4475103362227
 20
110.812612355971
 30
0.0
  0
VERTEX
  5
45D
330
457
100
AcDbEntity
  8
1
  6
Continuous
 62
     7
370
     9
100
AcDbVertex
100
AcDb2dVertex
 10
108.4910026709457
 20
110.8507360917379
 30
0.0
  0
VERTEX
  5
45E
330
457
100
AcDbEntity
  8
1
  6
Continuous
 62
     7
370
     9
100
AcDbVertex
100
AcDb2dVertex
 10
108.540349904721
 20
110.8969811207996
 30
0.0
  0
VERTEX
  5
45F
330
457
100
AcDbEntity
  8
1
  6
Continuous
 62
     7
370
     9
100
AcDbVertex
100
AcDb2dVertex
 10
108.5930001011569
 20
110.9517427119356
 30
0.0
  0
VERTEX
  5
460
330
457
100
AcDbEntity
  8
1
  6
Continuous
 62
     7
370
     9
100
AcDbVertex
100
AcDb2dVertex
 10
108.6459950981759
 20
111.0156181452666
 30
0.0
  0
VERTEX
  5
461
330
457
100
AcDbEntity
  8
1
  6
Continuous
 62
     7
370
     9
100
AcDbVertex
100
AcDb2dVertex
 10
108.6962283934057
 20
111.0891469777969
 30
0.0
  0
VERTEX
  5
462
330
457
100
AcDbEntity
  8
1
  6
Continuous
 62
     7
370
     9
100
AcDbVertex
100
AcDb2dVertex
 10
108.7407910841427
 20
111.1724374670603
 30
0.0
  0
VERTEX
  5
463
330
457
100
AcDbEntity
  8
1
  6
Continuous
 62
     7
370
     9
100
AcDbVertex
100
AcDb2dVertex
 10
108.7773485432527
 20
111.2647551271251
 30
0.0
  0
VERTEX
  5
464
330
457
100
AcDbEntity
  8
1
  6
Continuous
 62
     7
370
     9
100
AcDbVertex
100
AcDb2dVertex
 10
108.8044738570778
 20
111.364172154523
 30
0.0
  0
VERTEX
  5
465
330
457
100
AcDbEntity
  8
1
  6
Continuous
 62
     7
370
     9
100
AcDbVertex
100
AcDb2dVertex
 10
108.8218639048297
 20
111.4673766230566
 30
0.0
  0
VERTEX
  5
466
330
457
100
AcDbEntity
  8
1
  6
Continuous
 62
     7
370
     9
100
AcDbVertex
100
AcDb2dVertex
 10
108.8303815086581
 20
111.5697162754118
 30
0.0
  0
VERTEX
  5
467
330
457
100
AcDbEntity
  8
1
  6
Continuous
 62
     7
370
     9
100
AcDbVertex
100
AcDb2dVertex
 10
108.8318992561132
 20
111.6655076575365
 30
0.0
  0
VERTEX
  5
468
330
457
100
AcDbEntity
  8
1
  6
Continuous
 62
     7
370
     9
100
AcDbVertex
100
AcDb2dVertex
 10
108.8289606731711
 20
111.7485864764775
 30
0.0
  0
VERTEX
  5
469
330
457
100
AcDbEntity
  8
1
  6
Continuous
 62
     7
370
     9
100
AcDbVertex
100
AcDb2dVertex
 10
108.824313549958
 20
111.8130215760592
 30
0.0
  0
VERTEX
  5
46A
330
457
100
AcDbEntity
  8
1
  6
Continuous
 62
     7
370
     9
100
AcDbVertex
100
AcDb2dVertex
 10
108.8203994474752
 20
111.8538750999054
 30
0.0
  0
VERTEX
  5
46B
330
457
100
AcDbEntity
  8
1
  6
Continuous
 62
     7
370
     9
100
AcDbVertex
100
AcDb2dVertex
 10
108.8188958126985
 20
111.8678747588604
 30
0.0
  0
VERTEX
  5
46C
330
457
100
AcDbEntity
  8
1
  6
Continuous
 62
     7
370
     9
100
AcDbVertex
100
AcDb2dVertex
 10
108.8172971952988
 20
111.8820049116373
 30
0.0
  0
VERTEX
  5
46D
330
457
100
AcDbEntity
  8
1
  6
Continuous
 62
     7
370
     9
100
AcDbVertex
100
AcDb2dVertex
 10
108.811989162605
 20
111.9247735150516
 30
0.0
  0
VERTEX
  5
46E
330
457
100
AcDbEntity
  8
1
  6
Continuous
 62
     7
370
     9
100
AcDbVertex
100
AcDb2dVertex
 10
108.8015458234482
 20
111.9971718646142
 30
0.0
  0
VERTEX
  5
46F
330
457
100
AcDbEntity
  8
1
  6
Continuous
 62
     7
370
     9
100
AcDbVertex
100
AcDb2dVertex
 10
108.7839372453031
 20
112.1004053569064
 30
0.0
  0
VERTEX
  5
470
330
457
100
AcDbEntity
  8
1
  6
Continuous
 62
     7
370
     9
100
AcDbVertex
100
AcDb2dVertex
 10
108.7569761110353
 20
112.2353230339337
 30
0.0
  0
VERTEX
  5
471
330
457
100
AcDbEntity
  8
1
  6
Continuous
 62
     7
370
     9
100
AcDbVertex
100
AcDb2dVertex
 10
108.718812923935
 20
112.4017960469291
 30
0.0
  0
VERTEX
  5
472
330
457
100
AcDbEntity
  8
1
  6
Continuous
 62
     7
370
     9
100
AcDbVertex
100
AcDb2dVertex
 10
108.6683837506833
 20
112.5981753411762
 30
0.0
  0
VERTEX
  5
473
330
457
100
AcDbEntity
  8
1
  6
Continuous
 62
     7
370
     9
100
AcDbVertex
100
AcDb2dVertex
 10
108.6057269903477
 20
112.8209413098972
 30
0.0
  0
VERTEX
  5
474
330
457
100
AcDbEntity
  8
1
  6
Continuous
 62
     7
370
     9
100
AcDbVertex
100
AcDb2dVertex
 10
108.5321149689538
 20
113.0646175670235
 30
0.0
  0
VERTEX
  5
475
330
457
100
AcDbEntity
  8
1
  6
Continuous
 62
     7
370
     9
100
AcDbVertex
100
AcDb2dVertex
 10
108.4499853520244
 20
113.3219668778335
 30
0.0
  0
VERTEX
  5
476
330
457
100
AcDbEntity
  8
1
  6
Continuous
 62
     7
370
     9
100
AcDbVertex
100
AcDb2dVertex
 10
108.3639766561283
 20
113.58058566277
 30
0.0
  0
SEQEND
  5
477
330
457
100
AcDbEntity
  8
1
  6
Continuous
 62
     7
370
     9
  0
POLYLINE
  5
478
330
1F
100
AcDbEntity
  8
1
  6
Continuous
 62
     7
370
     9
100
AcDb2dPolyline
 66
     1
 10
0.0
 20
0.0
 30
0.0
  0
VERTEX
  5
479
330
478
100
AcDbEntity
  8
1
  6
Continuous
 62
     7
370
     9
100
AcDbVertex
100
AcDb2dVertex
 10
90.46567493142751
 20
110.7428747588606
 30
0.0
  0
VERTEX
  5
47A
330
478
100
AcDbEntity
  8
1
  6
Continuous
 62
     7
370
     9
100
AcDbVertex
100
AcDb2dVertex
 10
90.46038377159996
 20
110.7473501048332
 30
0.0
  0
VERTEX
  5
47B
330
478
100
AcDbEntity
  8
1
  6
Continuous
 62
     7
370
     9
100
AcDbVertex
100
AcDb2dVertex
 10
90.44466081422544
 20
110.7606627968291
 30
0.0
  0
VERTEX
  5
47C
330
478
100
AcDbEntity
  8
1
  6
Continuous
 62
     7
370
     9
100
AcDbVertex
100
AcDb2dVertex
 10
90.4189883755358
 20
110.7825250221634
 30
0.0
  0
VERTEX
  5
47D
330
478
100
AcDbEntity
  8
1
  6
Continuous
 62
     7
370
     9
100
AcDbVertex
100
AcDb2dVertex
 10
90.38425963582887
 20
110.812612355971
 30
0.0
  0
VERTEX
  5
47E
330
478
100
AcDbEntity
  8
1
  6
Continuous
 62
     7
370
     9
100
AcDbVertex
100
AcDb2dVertex
 10
90.3418702512866
 20
110.8507360917379
 30
0.0
  0
VERTEX
  5
47F
330
478
100
AcDbEntity
  8
1
  6
Continuous
 62
     7
370
     9
100
AcDbVertex
100
AcDb2dVertex
 10
90.29377444585518
 20
110.8969811207996
 30
0.0
  0
VERTEX
  5
480
330
478
100
AcDbEntity
  8
1
  6
Continuous
 62
     7
370
     9
100
AcDbVertex
100
AcDb2dVertex
 10
90.24245943972451
 20
110.9517427119356
 30
0.0
  0
VERTEX
  5
481
330
478
100
AcDbEntity
  8
1
  6
Continuous
 62
     7
370
     9
100
AcDbVertex
100
AcDb2dVertex
 10
90.19080837703135
 20
111.0156181452666
 30
0.0
  0
VERTEX
  5
482
330
478
100
AcDbEntity
  8
1
  6
Continuous
 62
     7
370
     9
100
AcDbVertex
100
AcDb2dVertex
 10
90.14184898034958
 20
111.0891469777969
 30
0.0
  0
VERTEX
  5
483
330
478
100
AcDbEntity
  8
1
  6
Continuous
 62
     7
370
     9
100
AcDbVertex
100
AcDb2dVertex
 10
90.0984163836421
 20
111.1724374670603
 30
0.0
  0
VERTEX
  5
484
330
478
100
AcDbEntity
  8
1
  6
Continuous
 62
     7
370
     9
100
AcDbVertex
100
AcDb2dVertex
 10
90.06278600872739
 20
111.2647551271251
 30
0.0
  0
VERTEX
  5
485
330
478
100
AcDbEntity
  8
1
  6
Continuous
 62
     7
370
     9
100
AcDbVertex
100
AcDb2dVertex
 10
90.0363485832388
 20
111.364172154523
 30
0.0
  0
VERTEX
  5
486
330
478
100
AcDbEntity
  8
1
  6
Continuous
 62
     7
370
     9
100
AcDbVertex
100
AcDb2dVertex
 10
90.01939954092921
 20
111.4673766230566
 30
0.0
  0
VERTEX
  5
487
330
478
100
AcDbEntity
  8
1
  6
Continuous
 62
     7
370
     9
100
AcDbVertex
100
AcDb2dVertex
 10
90.01109794051249
 20
111.5697162754118
 30
0.0
  0
VERTEX
  5
488
330
478
100
AcDbEntity
  8
1
  6
Continuous
 62
     7
370
     9
100
AcDbVertex
100
AcDb2dVertex
 10
90.00961868259449
 20
111.6655076575365
 30
0.0
  0
VERTEX
  5
489
330
478
100
AcDbEntity
  8
1
  6
Continuous
 62
     7
370
     9
100
AcDbVertex
100
AcDb2dVertex
 10
90.0124827441156
 20
111.7485864764775
 30
0.0
  0
VERTEX
  5
48A
330
478
100
AcDbEntity
  8
1
  6
Continuous
 62
     7
370
     9
100
AcDbVertex
100
AcDb2dVertex
 10
90.01701201793239
 20
111.8130215760592
 30
0.0
  0
VERTEX
  5
48B
330
478
100
AcDbEntity
  8
1
  6
Continuous
 62
     7
370
     9
100
AcDbVertex
100
AcDb2dVertex
 10
90.0208268601647
 20
111.8538750999054
 30
0.0
  0
VERTEX
  5
48C
330
478
100
AcDbEntity
  8
1
  6
Continuous
 62
     7
370
     9
100
AcDbVertex
100
AcDb2dVertex
 10
90.0222923632968
 20
111.8678747588604
 30
0.0
  0
VERTEX
  5
48D
330
478
100
AcDbEntity
  8
1
  6
Continuous
 62
     7
370
     9
100
AcDbVertex
100
AcDb2dVertex
 10
90.0238504403263
 20
111.8820049116373
 30
0.0
  0
VERTEX
  5
48E
330
478
100
AcDbEntity
  8
1
  6
Continuous
 62
     7
370
     9
100
AcDbVertex
100
AcDb2dVertex
 10
90.02902386319397
 20
111.9247735150516
 30
0.0
  0
VERTEX
  5
48F
330
478
100
AcDbEntity
  8
1
  6
Continuous
 62
     7
370
     9
100
AcDbVertex
100
AcDb2dVertex
 10
90.03920236297424
 20
111.9971718646142
 30
0.0
  0
VERTEX
  5
490
330
478
100
AcDbEntity
  8
1
  6
Continuous
 62
     7
370
     9
100
AcDbVertex
100
AcDb2dVertex
 10
90.05636439382377
 20
112.1004053569064
 30
0.0
  0
VERTEX
  5
491
330
478
100
AcDbEntity
  8
1
  6
Continuous
 62
     7
370
     9
100
AcDbVertex
100
AcDb2dVertex
 10
90.08264180329033
 20
112.2353230339337
 30
0.0
  0
VERTEX
  5
492
330
478
100
AcDbEntity
  8
1
  6
Continuous
 62
     7
370
     9
100
AcDbVertex
100
AcDb2dVertex
 10
90.11983718550323
 20
112.4017960469291
 30
0.0
  0
VERTEX
  5
493
330
478
100
AcDbEntity
  8
1
  6
Continuous
 62
     7
370
     9
100
AcDbVertex
100
AcDb2dVertex
 10
90.16898749280966
 20
112.5981753411762
 30
0.0
  0
VERTEX
  5
494
330
478
100
AcDbEntity
  8
1
  6
Continuous
 62
     7
370
     9
100
AcDbVertex
100
AcDb2dVertex
 10
90.23005529992909
 20
112.8209413098972
 30
0.0
  0
VERTEX
  5
495
330
478
100
AcDbEntity
  8
1
  6
Continuous
 62
     7
370
     9
100
AcDbVertex
100
AcDb2dVertex
 10
90.30180054657242
 20
113.0646175670235
 30
0.0
  0
VERTEX
  5
496
330
478
100
AcDbEntity
  8
1
  6
Continuous
 62
     7
370
     9
100
AcDbVertex
100
AcDb2dVertex
 10
90.38184738554995
 20
113.3219668778335
 30
0.0
  0
VERTEX
  5
497
330
478
100
AcDbEntity
  8
1
  6
Continuous
 62
     7
370
     9
100
AcDbVertex
100
AcDb2dVertex
 10
90.46567493142751
 20
113.58058566277
 30
0.0
  0
SEQEND
  5
498
330
478
100
AcDbEntity
  8
1
  6
Continuous
 62
     7
370
     9
  0
LINE
  5
499
330
1F
100
AcDbEntity
  8
1
  6
Continuous
 62
     7
370
     9
100
AcDbLine
 10
90.46567493142751
 20
113.58058566277
 30
0.0
 11
90.7929248874336
 21
114.5307026279876
 31
0.0
  0
ARC
  5
49A
330
1F
100
AcDbEntity
  8
1
  6
Continuous
 62
     7
370
     9
100
AcDbCircle
 10
91.26566909420458
 20
114.3678747588604
 30
0.0
 40
0.5
100
AcDbArc
 50
90.00000000000325
 51
160.9946925823577
  0
LINE
  5
49B
330
1F
100
AcDbEntity
  8
1
  6
Continuous
 62
     7
370
     9
100
AcDbLine
 10
107.5554506921108
 20
114.8678747588604
 30
0.0
 11
91.26566909420455
 21
114.8678747588604
 31
0.0
  0
LINE
  5
49C
330
1F
100
AcDbEntity
  8
1
  6
Continuous
 62
     7
370
     9
100
AcDbLine
 10
108.0268789477481
 20
114.5344742780277
 30
0.0
 11
108.3639766561283
 21
113.58058566277
 31
0.0
  0
ARC
  5
49D
330
1F
100
AcDbEntity
  8
1
  6
Continuous
 62
     7
370
     9
100
AcDbCircle
 10
107.5554506921107
 20
114.3678747588604
 30
0.0
 40
0.5
100
AcDbArc
 50
19.46305955139831
 51
89.99999999999675
  0
DIMENSION
  5
4A7
330
1F
100
AcDbEntity
  8
1
  6
Continuous
 62
     7
370
     9
100
AcDbDimension
280
     0
  2
Dim4
 10
137.9090574995581
 20
114.8678747588604
 30
0.0
 11
135.9090574995581
 21
116.8678747588604
 31
0.0
 70
   160
  1
<>
 71
     5
 42
-1.0
 73
     0
 74
     0
 75
     0
 53
89.99999999999991
  3
Standard
100
AcDbAlignedDimension
 13
107.9090574995581
 23
118.8678747588604
 33
0.0
 14
107.9090574995581
 24
114.8678747588604
 34
0.0
 50
-89.99999999999991
100
AcDbRotatedDimension
1001
ACAD
1000
DSTYLE
1002
{
1070
   279
1070
     2
1070
   340
1005
289
1070
   140
1040
3.0
1070
    40
1040
1.0
1070
   147
1040
0.0
1070
    76
1070
     0
1070
    75
1070
     0
1070
   344
1005
7F
1070
   343
1005
7F
1070
   173
1070
     1
1070
   289
1070
     2
1070
   288
1070
     1
1070
    77
1070
     1
1070
   172
1070
     1
1070
   174
1070
     0
1070
    74
1070
     0
1070
    73
1070
     0
1070
   284
1070
     8
1070
    78
1070
     8
1070
    42
1040
2.0
1070
    44
1040
2.0
1070
    43
1040
10.0
1070
   271
1070
     2
1070
    41
1040
2.4
1002
}
  0
LINE
  5
4A8
330
1F
100
AcDbEntity
  8
1
  6
Continuous
 62
     7
370
     9
100
AcDbLine
 10
175.4090574995581
 20
215.3678747588599
 30
0.0
 11
175.4090574995581
 21
144.3678747588599
 31
0.0
  0
LINE
  5
4A9
330
1F
100
AcDbEntity
  8
1
  6
Continuous
 62
     7
370
     9
100
AcDbLine
 10
80.90905749955817
 20
116.8678747588604
 30
0.0
 11
117.9090574995581
 21
116.8678747588604
 31
0.0
  0
LINE
  5
4AA
330
1F
100
AcDbEntity
  8
15
  6
Continuous
 62
    98
420
    20480
370
     9
100
AcDbLine
 10
331.0676182992048
 20
267.1686120838837
 30
0.0
 11
331.0676182992048
 21
261.6669900746343
 31
0.0
  0
MTEXT
  5
4AB
330
1F
100
AcDbEntity
  8
15
  6
PHANTOM
 62
    98
420
    20480
370
     9
100
AcDbMText
 10
318.7056464437192
 20
264.4178010792589
 30
0.0
 40
3.0
 41
20.35858233971042
 46
3.0
 71
     5
 72
     1
  1
{\fＭＳ ゴシック;\W0.714286;\T1.133333;商品コード}
 73
     1
 44
1.0
  0
MTEXT
  5
4AC
330
1F
100
AcDbEntity
  8
15
  6
PHANTOM
 62
    98
420
    20480
370
     9
100
AcDbMText
 10
351.215231043831
 20
258.9161790700093
 30
0.0
 40
3.0
 41
28.83106949434461
 46
3.0
 71
     5
 72
     1
  1
{\fＭＳ ゴシック;\W0.714286;\T1.133333;定　　　　　格}
 73
     1
 44
1.0
  0
MTEXT
  5
4AD
330
1F
100
AcDbEntity
  8
15
  6
PHANTOM
 62
    98
420
    20480
370
     9
100
AcDbMText
 10
318.7056464437192
 20
253.4145570607596
 30
0.0
 40
3.0
 41
11.99415718010437
 46
3.0
 71
     5
 72
     1
  1
{\fＭＳ ゴシック;\W0.714286;\T1.133333;材　質}
 73
     1
 44
1.0
  0
LINE
  5
4AE
330
1F
100
AcDbEntity
  8
15
  6
Continuous
 62
    98
420
    20480
370
     9
100
AcDbLine
 10
331.0676182992048
 20
256.1788430486742
 30
0.0
 11
331.0676182992048
 21
212.152569397134
 31
0.0
  0
MTEXT
  5
4AF
330
1F
100
AcDbEntity
  8
15
  6
PHANTOM
 62
    98
420
    20480
370
     9
100
AcDbMText
 10
324.8990464437192
 20
247.76888505151
 30
0.0
 40
3.0
 41
12.02473986619728
 46
3.0
 71
     5
 72
     1
  1
{\fＭＳ ゴシック;\W0.714286;\T1.133333;本　体}
 73
     1
 44
1.0
  0
MTEXT
  5
4B0
330
1F
100
AcDbEntity
  8
15
  6
Continuous
 62
    98
420
    20480
370
     9
100
AcDbMText
 10
318.7258113811259
 20
214.9774920245594
 30
0.0
 40
3.0
 41
16.23042453867037
 46
3.0
 71
     5
 72
     1
  1
{\fＭＳ ゴシック;\W0.714286;\T1.133333;送信距離}
 73
     1
 44
1.0
  0
MTEXT
  5
4B1
330
1F
100
AcDbEntity
  8
15
  6
Continuous
 62
    98
420
    20480
370
     9
100
AcDbMText
 10
318.7056464437194
 20
220.4048250052618
 30
0.0
 40
3.0
 41
20.46669189723637
 46
3.0
 71
     5
 72
     1
  1
{\fＭＳ ゴシック;\W0.714286;\T1.133333;送信周波数}
 73
     1
 44
1.0
  0
MTEXT
  5
4B2
330
1F
100
AcDbEntity
  8
15
  6
PHANTOM
 62
    98
420
    20480
370
     9
100
AcDbMText
 10
312.368688479603
 20
245.0964953953432
 30
0.0
 40
3.0
 41
11.88604762257842
 46
3.0
 71
     5
 72
     1
  1
{\fＭＳ ゴシック;\W0.714286;\T1.133333;彩　色}
 73
     1
 44
1.0
  0
LINE
  5
4B3
330
1F
100
AcDbEntity
  8
15
  6
Continuous
 62
    98
420
    20480
370
     9
100
AcDbLine
 10
318.6347891791331
 20
250.6637460561348
 30
0.0
 11
318.6347891791331
 21
239.6605020376356
 31
0.0
  0
MTEXT
  5
4B4
330
1F
100
AcDbEntity
  8
15
  6
Continuous
 62
    98
420
    20480
370
     9
100
AcDbMText
 10
318.7056464437194
 20
231.4080690237611
 30
0.0
 40
3.0
 41
16.16921160398674
 46
3.0
 71
     5
 72
     1
  1
{\fＭＳ ゴシック;\W0.714286;\T1.133333;入力電源}
 73
     1
 44
1.0
  0
MTEXT
  5
4B5
330
1F
100
AcDbEntity
  8
15
  6
PHANTOM
 62
    98
420
    20480
370
     9
100
AcDbMText
 10
318.7056464437192
 20
236.9096910330107
 30
0.0
 40
3.0
 41
11.90150543436721
 46
3.0
 71
     5
 72
     1
  1
{\fＭＳ ゴシック;\W0.714286;\T1.133333;重　量}
 73
     1
 44
1.0
  0
MTEXT
  5
4B6
330
1F
100
AcDbEntity
  8
15
  6
PHANTOM
 62
    98
420
    20480
370
     9
100
AcDbMText
 10
324.9710964437192
 20
242.4113130422603
 30
0.0
 40
3.0
 41
11.79339587684127
 46
3.0
 71
     5
 72
     1
  1
{\fＭＳ ゴシック;\W0.714286;\T1.133333;ボタン}
 73
     1
 44
1.0
  0
MTEXT
  5
4B7
330
1F
100
AcDbEntity
  8
15
  6
Continuous
 62
    98
420
    20480
370
     9
100
AcDbMText
 10
318.7056464437194
 20
225.9064470145114
 30
0.0
 40
3.0
 41
16.18409866580179
 46
3.0
 71
     5
 72
     1
  1
{\fＭＳ ゴシック;\W0.714286;\T1.133333;消費電流}
 73
     1
 44
1.0
  0
LINE
  5
4B8
330
1F
100
AcDbEntity
  8
15
  6
Continuous
 62
    98
420
    20480
370
     9
100
AcDbLine
 10
331.0676182992048
 20
267.1686120838837
 30
0.0
 11
331.0676182992048
 21
261.6669900746343
 31
0.0
  0
MTEXT
  5
4B9
330
1F
100
AcDbEntity
  8
15
  6
PHANTOM
 62
    98
420
    20480
370
     9
100
AcDbMText
 10
318.7056464437192
 20
264.4178010792589
 30
0.0
 40
3.0
 41
20.35858233971042
 46
3.0
 71
     5
 72
     1
  1
{\fＭＳ ゴシック;\W0.714286;\T1.133333;商品コード}
 73
     1
 44
1.0
  0
MTEXT
  5
4BA
330
1F
100
AcDbEntity
  8
15
  6
PHANTOM
 62
    98
420
    20480
370
     9
100
AcDbMText
 10
351.215231043831
 20
258.9161790700093
 30
0.0
 40
3.0
 41
28.83106949434461
 46
3.0
 71
     5
 72
     1
  1
{\fＭＳ ゴシック;\W0.714286;\T1.133333;定　　　　　格}
 73
     1
 44
1.0
  0
MTEXT
  5
4BB
330
1F
100
AcDbEntity
  8
15
  6
PHANTOM
 62
    98
420
    20480
370
     9
100
AcDbMText
 10
318.7056464437192
 20
253.4145570607596
 30
0.0
 40
3.0
 41
11.99415718010437
 46
3.0
 71
     5
 72
     1
  1
{\fＭＳ ゴシック;\W0.714286;\T1.133333;材　質}
 73
     1
 44
1.0
  0
LINE
  5
4BC
330
1F
100
AcDbEntity
  8
15
  6
Continuous
 62
    98
420
    20480
370
     9
100
AcDbLine
 10
331.0676182992048
 20
256.1788430486742
 30
0.0
 11
331.0676182992048
 21
212.152569397134
 31
0.0
  0
MTEXT
  5
4BD
330
1F
100
AcDbEntity
  8
15
  6
PHANTOM
 62
    98
420
    20480
370
     9
100
AcDbMText
 10
324.8990464437192
 20
247.76888505151
 30
0.0
 40
3.0
 41
12.02473986619728
 46
3.0
 71
     5
 72
     1
  1
{\fＭＳ ゴシック;\W0.714286;\T1.133333;本　体}
 73
     1
 44
1.0
  0
MTEXT
  5
4BE
330
1F
100
AcDbEntity
  8
15
  6
Continuous
 62
    98
420
    20480
370
     9
100
AcDbMText
 10
318.7258113811259
 20
214.9774920245594
 30
0.0
 40
3.0
 41
16.23042453867037
 46
3.0
 71
     5
 72
     1
  1
{\fＭＳ ゴシック;\W0.714286;\T1.133333;送信距離}
 73
     1
 44
1.0
  0
MTEXT
  5
4BF
330
1F
100
AcDbEntity
  8
15
  6
Continuous
 62
    98
420
    20480
370
     9
100
AcDbMText
 10
318.7056464437194
 20
220.4048250052618
 30
0.0
 40
3.0
 41
20.46669189723637
 46
3.0
 71
     5
 72
     1
  1
{\fＭＳ ゴシック;\W0.714286;\T1.133333;送信周波数}
 73
     1
 44
1.0
  0
MTEXT
  5
4C0
330
1F
100
AcDbEntity
  8
15
  6
PHANTOM
 62
    98
420
    20480
370
     9
100
AcDbMText
 10
312.368688479603
 20
245.0964953953432
 30
0.0
 40
3.0
 41
11.88604762257842
 46
3.0
 71
     5
 72
     1
  1
{\fＭＳ ゴシック;\W0.714286;\T1.133333;彩　色}
 73
     1
 44
1.0
  0
LINE
  5
4C1
330
1F
100
AcDbEntity
  8
15
  6
Continuous
 62
    98
420
    20480
370
     9
100
AcDbLine
 10
318.6347891791331
 20
250.6637460561348
 30
0.0
 11
318.6347891791331
 21
239.6605020376356
 31
0.0
  0
MTEXT
  5
4C2
330
1F
100
AcDbEntity
  8
15
  6
Continuous
 62
    98
420
    20480
370
     9
100
AcDbMText
 10
318.7056464437194
 20
231.4080690237611
 30
0.0
 40
3.0
 41
16.16921160398674
 46
3.0
 71
     5
 72
     1
  1
{\fＭＳ ゴシック;\W0.714286;\T1.133333;入力電源}
 73
     1
 44
1.0
  0
MTEXT
  5
4C3
330
1F
100
AcDbEntity
  8
15
  6
PHANTOM
 62
    98
420
    20480
370
     9
100
AcDbMText
 10
318.7056464437192
 20
236.9096910330107
 30
0.0
 40
3.0
 41
11.90150543436721
 46
3.0
 71
     5
 72
     1
  1
{\fＭＳ ゴシック;\W0.714286;\T1.133333;重　量}
 73
     1
 44
1.0
  0
MTEXT
  5
4C4
330
1F
100
AcDbEntity
  8
15
  6
PHANTOM
 62
    98
420
    20480
370
     9
100
AcDbMText
 10
324.9710964437192
 20
242.4113130422603
 30
0.0
 40
3.0
 41
11.79339587684127
 46
3.0
 71
     5
 72
     1
  1
{\fＭＳ ゴシック;\W0.714286;\T1.133333;ボタン}
 73
     1
 44
1.0
  0
MTEXT
  5
4C5
330
1F
100
AcDbEntity
  8
15
  6
Continuous
 62
    98
420
    20480
370
     9
100
AcDbMText
 10
318.7056464437194
 20
225.9064470145114
 30
0.0
 40
3.0
 41
16.18409866580179
 46
3.0
 71
     5
 72
     1
  1
{\fＭＳ ゴシック;\W0.714286;\T1.133333;消費電流}
 73
     1
 44
1.0
  0
LINE
  5
4C6
330
1F
100
AcDbEntity
  8
15
  6
Continuous
 62
    98
420
    20480
370
    30
100
AcDbLine
 10
306.2019600590614
 20
212.1523919913874
 30
0.0
 11
393.3603993291064
 21
212.1523919913874
 31
0.0
  0
LINE
  5
4C7
330
1F
100
AcDbEntity
  8
15
  6
Continuous
 62
    98
420
    20480
370
    30
100
AcDbLine
 10
306.2019600590614
 20
261.6669900746342
 30
0.0
 11
393.3603993291064
 21
261.6669900746342
 31
0.0
  0
LINE
  5
4C8
330
1F
100
AcDbEntity
  8
15
  6
Continuous
 62
    98
420
    20480
370
    30
100
AcDbLine
 10
306.2019600590614
 20
256.1653680653845
 30
0.0
 11
393.3603993291064
 21
256.1653680653845
 31
0.0
  0
LINE
  5
4C9
330
1F
100
AcDbEntity
  8
15
  6
Continuous
 62
    98
420
    20480
370
     9
100
AcDbLine
 10
393.3603993291064
 20
250.6637460561348
 30
0.0
 11
306.2019600590614
 21
250.6637460561348
 31
0.0
  0
LINE
  5
4CA
330
1F
100
AcDbEntity
  8
15
  6
Continuous
 62
    98
420
    20480
370
     9
100
AcDbLine
 10
318.6347891791331
 20
245.1621240468852
 30
0.0
 11
393.3603993291064
 21
245.1621240468852
 31
0.0
  0
LINE
  5
4CB
330
1F
100
AcDbEntity
  8
15
  6
Continuous
 62
    98
420
    20480
370
    30
100
AcDbLine
 10
306.2019600590614
 20
256.1653680653845
 30
0.0
 11
393.3603993291064
 21
256.1653680653845
 31
0.0
  0
LINE
  5
4CC
330
1F
100
AcDbEntity
  8
15
  6
Continuous
 62
    98
420
    20480
370
     9
100
AcDbLine
 10
393.3603993291064
 20
250.6637460561348
 30
0.0
 11
306.2019600590614
 21
250.6637460561348
 31
0.0
  0
LINE
  5
4CD
330
1F
100
AcDbEntity
  8
15
  6
Continuous
 62
    98
420
    20480
370
     9
100
AcDbLine
 10
318.6347891791331
 20
245.1621240468852
 30
0.0
 11
393.3603993291064
 21
245.1621240468852
 31
0.0
  0
LINE
  5
4CE
330
1F
100
AcDbEntity
  8
15
  6
Continuous
 62
    98
420
    20480
370
     9
100
AcDbLine
 10
306.2019600590614
 20
239.6605020376356
 30
0.0
 11
393.3603993291064
 21
239.6605020376356
 31
0.0
  0
LINE
  5
4CF
330
1F
100
AcDbEntity
  8
15
  6
Continuous
 62
    98
420
    20480
370
     9
100
AcDbLine
 10
306.2019600590614
 20
234.1588800283859
 30
0.0
 11
393.3603993291064
 21
234.1588800283859
 31
0.0
  0
LINE
  5
4D0
330
1F
100
AcDbEntity
  8
15
  6
Continuous
 62
    98
420
    20480
370
     9
100
AcDbLine
 10
306.2019600590614
 20
228.6572580191363
 30
0.0
 11
393.3603993291064
 21
228.6572580191363
 31
0.0
  0
LINE
  5
4D1
330
1F
100
AcDbEntity
  8
15
  6
Continuous
 62
    98
420
    20480
370
     9
100
AcDbLine
 10
306.2019600590614
 20
223.1556360098866
 30
0.0
 11
393.3603993291064
 21
223.1556360098866
 31
0.0
  0
LINE
  5
4D2
330
1F
100
AcDbEntity
  8
15
  6
Continuous
 62
    98
420
    20480
370
     9
100
AcDbLine
 10
306.2019600590614
 20
217.654014000637
 30
0.0
 11
393.3603993291064
 21
217.654014000637
 31
0.0
  0
LINE
  5
4D3
330
1F
100
AcDbEntity
  8
15
  6
Continuous
 62
    98
420
    20480
370
    30
100
AcDbLine
 10
306.2019600590614
 20
261.6669900746342
 30
0.0
 11
393.3603993291064
 21
261.6669900746342
 31
0.0
  0
LINE
  5
4D4
330
1F
100
AcDbEntity
  8
15
  6
Continuous
 62
    98
420
    20480
370
     9
100
AcDbLine
 10
306.2019600590614
 20
239.6605020376356
 30
0.0
 11
393.3603993291064
 21
239.6605020376356
 31
0.0
  0
LINE
  5
4D5
330
1F
100
AcDbEntity
  8
15
  6
Continuous
 62
    98
420
    20480
370
     9
100
AcDbLine
 10
306.2019600590614
 20
234.1588800283859
 30
0.0
 11
393.3603993291064
 21
234.1588800283859
 31
0.0
  0
LINE
  5
4D6
330
1F
100
AcDbEntity
  8
15
  6
Continuous
 62
    98
420
    20480
370
     9
100
AcDbLine
 10
306.2019600590614
 20
228.6572580191363
 30
0.0
 11
393.3603993291064
 21
228.6572580191363
 31
0.0
  0
LINE
  5
4D7
330
1F
100
AcDbEntity
  8
15
  6
Continuous
 62
    98
420
    20480
370
     9
100
AcDbLine
 10
306.2019600590614
 20
223.1556360098866
 30
0.0
 11
393.3603993291064
 21
223.1556360098866
 31
0.0
  0
LINE
  5
4D8
330
1F
100
AcDbEntity
  8
15
  6
Continuous
 62
    98
420
    20480
370
     9
100
AcDbLine
 10
306.2019600590614
 20
217.654014000637
 30
0.0
 11
393.3603993291064
 21
217.654014000637
 31
0.0
  0
LINE
  5
4D9
330
1F
100
AcDbEntity
  8
15
  6
Continuous
 62
    98
420
    20480
370
    30
100
AcDbLine
 10
306.2019600590614
 20
212.1523919913874
 30
0.0
 11
393.3603993291064
 21
212.1523919913874
 31
0.0
  0
MTEXT
  5
4DA
330
1F
100
AcDbEntity
  8
15
  6
PHANTOM
 62
    98
420
    20480
370
     9
100
AcDbMText
 10
362.6731657945025
 20
253.4145570607596
 30
0.0
 40
3.0
 41
7.835131317984533
 46
3.0
 71
     5
 72
     1
  1
{\fＭＳ ゴシック;\W0.714286;\T1.133333;樹脂}
 73
     1
 44
1.0
  0
MTEXT
  5
4DB
330
1F
100
AcDbEntity
  8
15
  6
PHANTOM
 62
    98
420
    20480
370
     9
100
AcDbMText
 10
362.6731657945025
 20
264.4178010792589
 30
0.0
 40
3.0
 41
27.48728624367124
 46
3.0
 71
     5
 72
     1
  1
{\fＭＳ ゴシック;\W0.714286;\T1.133333;０１１５００６}
 73
     1
 44
1.0
  0
MTEXT
  5
4DC
330
1F
100
AcDbEntity
  8
15
  6
PHANTOM
 62
    98
420
    20480
370
     9
100
AcDbMText
 10
362.727109747139
 20
247.9500420245594
 30
0.0
 40
3.0
 41
15.25838977089308
 46
3.0
 71
     5
 72
     1
  1
{\fＭＳ ゴシック;\W0.714286;\T1.133333;ブラック}
 73
     1
 44
1.0
  0
MTEXT
  5
4DD
330
1F
100
AcDbEntity
  8
15
  6
Continuous
 62
    98
420
    20480
370
     9
100
AcDbMText
 10
362.6851097471389
 20
214.9669920245594
 30
0.0
 40
3.0
 41
16.27781515246395
 46
3.0
 71
     5
 72
     1
  1
{\fＭＳ ゴシック;\W0.714286;\T1.133333;最大15ｍ}
 73
     1
 44
1.0
  0
MTEXT
  5
4DE
330
1F
100
AcDbEntity
  8
15
  6
Continuous
 62
    98
420
    20480
370
     9
100
AcDbMText
 10
362.6731657945025
 20
220.4048250052618
 30
0.0
 40
3.0
 41
12.72391611945062
 46
3.0
 71
     5
 72
     1
  1
{\fＭＳ ゴシック;\W0.714286;\T1.133333;2.4GHz}
 73
     1
 44
1.0
  0
MTEXT
  5
4DF
330
1F
100
AcDbEntity
  8
15
  6
PHANTOM
 62
    98
420
    20480
370
     9
100
AcDbMText
 10
362.668059747139
 20
242.382364033809
 30
0.0
 40
3.0
 41
15.81420512032036
 46
3.0
 71
     5
 72
     1
  1
{\fＭＳ ゴシック;\W0.714286;\T1.133333;シルバー}
 73
     1
 44
1.0
  0
MTEXT
  5
4E0
330
1F
100
AcDbEntity
  8
15
  6
PHANTOM
 62
    98
420
    20480
370
     9
100
AcDbMText
 10
362.7053097471389
 20
236.9097140338091
 30
0.0
 40
3.0
 41
11.50095244377041
 46
3.0
 71
     5
 72
     1
  1
{\fＭＳ ゴシック;\W0.714286;\T1.133333;約20ｇ}
 73
     1
 44
1.0
  0
MTEXT
  5
4E1
330
1F
100
AcDbEntity
  8
15
  6
Continuous
 62
    98
420
    20480
370
     9
100
AcDbMText
 10
362.6731657945025
 20
231.4080690237611
 30
0.0
 40
3.0
 41
37.1027953457157
 46
3.0
 71
     5
 72
     1
  1
{\fＭＳ ゴシック;\W0.714286;\T1.133333;単４形乾電池　１個}
 73
     1
 44
1.0
  0
MTEXT
  5
4E2
330
1F
100
AcDbEntity
  8
15
  6
Continuous
 62
    98
420
    20480
370
     9
100
AcDbMText
 10
362.6731657945025
 20
225.9064470145115
 30
0.0
 40
3.0
 41
10.49754479341056
 46
3.0
 71
     5
 72
     1
  1
{\fＭＳ ゴシック;\W0.714286;\T1.133333;100mA}
 73
     1
 44
1.0
  0
MTEXT
  5
4E3
330
1F
100
AcDbEntity
  8
15
  6
PHANTOM
 62
    98
420
    20480
370
     9
100
AcDbMText
 10
362.6731657945025
 20
253.4145570607596
 30
0.0
 40
3.0
 41
7.835131317984533
 46
3.0
 71
     5
 72
     1
  1
{\fＭＳ ゴシック;\W0.714286;\T1.133333;樹脂}
 73
     1
 44
1.0
  0
MTEXT
  5
4E4
330
1F
100
AcDbEntity
  8
15
  6
PHANTOM
 62
    98
420
    20480
370
     9
100
AcDbMText
 10
362.6731657945025
 20
264.4178010792589
 30
0.0
 40
3.0
 41
27.48728624367124
 46
3.0
 71
     5
 72
     1
  1
{\fＭＳ ゴシック;\W0.714286;\T1.133333;０１１５００６}
 73
     1
 44
1.0
  0
MTEXT
  5
4E5
330
1F
100
AcDbEntity
  8
15
  6
PHANTOM
 62
    98
420
    20480
370
     9
100
AcDbMText
 10
362.727109747139
 20
247.9500420245594
 30
0.0
 40
3.0
 41
15.25838977089308
 46
3.0
 71
     5
 72
     1
  1
{\fＭＳ ゴシック;\W0.714286;\T1.133333;ブラック}
 73
     1
 44
1.0
  0
MTEXT
  5
4E6
330
1F
100
AcDbEntity
  8
15
  6
Continuous
 62
    98
420
    20480
370
     9
100
AcDbMText
 10
362.6851097471389
 20
214.9669920245594
 30
0.0
 40
3.0
 41
16.27781515246395
 46
3.0
 71
     5
 72
     1
  1
{\fＭＳ ゴシック;\W0.714286;\T1.133333;最大15ｍ}
 73
     1
 44
1.0
  0
MTEXT
  5
4E7
330
1F
100
AcDbEntity
  8
15
  6
Continuous
 62
    98
420
    20480
370
     9
100
AcDbMText
 10
362.6731657945025
 20
220.4048250052618
 30
0.0
 40
3.0
 41
12.72391611945062
 46
3.0
 71
     5
 72
     1
  1
{\fＭＳ ゴシック;\W0.714286;\T1.133333;2.4GHz}
 73
     1
 44
1.0
  0
MTEXT
  5
4E8
330
1F
100
AcDbEntity
  8
15
  6
PHANTOM
 62
    98
420
    20480
370
     9
100
AcDbMText
 10
362.668059747139
 20
242.382364033809
 30
0.0
 40
3.0
 41
15.81420512032036
 46
3.0
 71
     5
 72
     1
  1
{\fＭＳ ゴシック;\W0.714286;\T1.133333;シルバー}
 73
     1
 44
1.0
  0
MTEXT
  5
4E9
330
1F
100
AcDbEntity
  8
15
  6
PHANTOM
 62
    98
420
    20480
370
     9
100
AcDbMText
 10
362.7053097471389
 20
236.9097140338091
 30
0.0
 40
3.0
 41
11.50095244377041
 46
3.0
 71
     5
 72
     1
  1
{\fＭＳ ゴシック;\W0.714286;\T1.133333;約20ｇ}
 73
     1
 44
1.0
  0
MTEXT
  5
4EA
330
1F
100
AcDbEntity
  8
15
  6
Continuous
 62
    98
420
    20480
370
     9
100
AcDbMText
 10
362.6731657945025
 20
231.4080690237611
 30
0.0
 40
3.0
 41
37.1027953457157
 46
3.0
 71
     5
 72
     1
  1
{\fＭＳ ゴシック;\W0.714286;\T1.133333;単４形乾電池　１個}
 73
     1
 44
1.0
  0
MTEXT
  5
4EB
330
1F
100
AcDbEntity
  8
15
  6
Continuous
 62
    98
420
    20480
370
     9
100
AcDbMText
 10
362.6731657945025
 20
225.9064470145115
 30
0.0
 40
3.0
 41
10.49754479341056
 46
3.0
 71
     5
 72
     1
  1
{\fＭＳ ゴシック;\W0.714286;\T1.133333;100mA}
 73
     1
 44
1.0
  0
MTEXT
  5
4EC
330
1F
100
AcDbEntity
  8
15
  6
Continuous
 62
    98
420
    20480
370
     9
100
AcDbMText
 10
349.8523794934641
 20
57.59333677529735
 30
0.0
 40
5.0
 41
68.0670838016096
 46
5.0
 71
     5
 72
     1
  1
{\fＭＳ ゴシック;\W0.714286;\T1.080000;Ｗｉ－１１３０－ＳＷ}
 73
     1
 44
1.0
  0
MTEXT
  5
4ED
330
1F
100
AcDbEntity
  8
15
  6
Continuous
 62
    98
420
    20480
370
     9
100
AcDbMText
 10
349.9133816721134
 20
48.79159385590736
 30
0.0
 40
5.0
 41
87.19801412140752
 46
5.0
 71
     5
 72
     1
  1
{\fＭＳ ゴシック;\W0.714286;\T1.080000;ワイヤレスリモコンスイッチ}
 73
     1
 44
1.0
  0
MTEXT
  5
4EE
330
1F
100
AcDbEntity
  8
15
  6
Continuous
 62
    98
420
    20480
370
     9
100
AcDbMText
 10
332.8366448045268
 20
40.07715828744134
 30
0.0
 40
5.0
 41
13.45025529582736
 46
5.0
 71
     5
 72
     1
  1
{\fHG正楷書体-PRO;\W0.714286;\T1.080000;太田}
 73
     1
 44
1.0
  0
MTEXT
  5
4EF
330
1F
100
AcDbEntity
  8
15
  6
Continuous
 62
    98
420
    20480
370
     9
100
AcDbMText
 10
357.0374750223021
 20
40.04705766313435
 30
0.0
 40
5.0
 41
13.45025529582736
 46
5.0
 71
     5
 72
     1
  1
{\fHG正楷書体-PRO;\W0.714286;\T1.080000;太田}
 73
     1
 44
1.0
  0
MTEXT
  5
4F0
330
1F
100
AcDbEntity
  8
15
  6
Continuous
 62
    98
420
    20480
370
     9
100
AcDbMText
 10
381.2627634915995
 20
40.06513238273413
 30
0.0
 40
5.0
 41
13.56358246845561
 46
5.0
 71
     5
 72
     1
  1
{\fHG正楷書体-PRO;\W0.714286;\T1.080000;宮村}
 73
     1
 44
1.0
  0
MTEXT
  5
4F1
330
1F
100
AcDbEntity
  8
15
  6
Continuous
 62
    98
420
    20480
370
     9
100
AcDbMText
 10
335.5672902405701
 20
32.76423671582528
 30
0.0
 40
3.5
 41
34.13541442945104
 46
3.5
 71
     5
 72
     1
  1
{\fＭＳ ゴシック;\W0.714286;G94002-01-23Z07}
 73
     1
 44
1.0
  0
MTEXT
  5
4F2
330
1F
100
AcDbEntity
  8
15
  6
Continuous
 62
    98
420
    20480
370
     9
100
AcDbMText
 10
358.9367848236869
 20
31.23795300575362
 30
0.0
 40
3.0
 41
29.39090599498289
 46
3.0
 71
     7
 72
     1
  1
{\fＭＳ ゴシック;\W0.714286;\T1.133333;2023年12月07日}
 73
     1
 44
1.0
  0
MTEXT
  5
4F3
330
1F
100
AcDbEntity
  8
15
  6
Continuous
 62
    98
420
    20480
370
     9
100
AcDbMText
 10
276.3421243832126
 20
54.35643998762919
 30
0.0
 40
3.0
 41
3.324066213035803
 46
3.0
 71
     5
 72
     1
  1
{\fＭＳ ゴシック;\W0.714286;\T1.133333;01}
 73
     1
 44
1.0
  0
MTEXT
  5
4F4
330
1F
100
AcDbEntity
  8
15
  6
Continuous
 62
    98
420
    20480
370
     9
100
AcDbMText
 10
276.3421243832126
 20
49.51430447262669
 30
0.0
 40
3.0
 41
3.878074187546244
 46
3.0
 71
     5
 72
     1
  1
{\fＭＳ ゴシック;\W0.714286;\T1.133333;02}
 73
     1
 44
1.0
  0
MTEXT
  5
4F5
330
1F
100
AcDbEntity
  8
15
  6
Continuous
 62
    98
420
    20480
370
     9
100
AcDbMText
 10
276.3421243832126
 20
45.15638250912446
 30
0.0
 40
3.0
 41
3.862854188246507
 46
3.0
 71
     5
 72
     1
  1
{\fＭＳ ゴシック;\W0.714286;\T1.133333;03}
 73
     1
 44
1.0
  0
MTEXT
  5
4F6
330
1F
100
AcDbEntity
  8
15
  6
Continuous
 62
    98
420
    20480
370
     9
100
AcDbMText
 10
276.3421243832126
 20
40.31424699412195
 30
0.0
 40
3.0
 41
3.956694996428951
 46
3.0
 71
     5
 72
     1
  1
{\fＭＳ ゴシック;\W0.714286;\T1.133333;04}
 73
     1
 44
1.0
  0
MTEXT
  5
4F7
330
1F
100
AcDbEntity
  8
15
  6
Continuous
 62
    98
420
    20480
370
     9
100
AcDbMText
 10
276.3421243832126
 20
35.47211147911946
 30
0.0
 40
3.0
 41
3.862854188246507
 46
3.0
 71
     5
 72
     1
  1
{\fＭＳ ゴシック;\W0.714286;\T1.133333;05}
 73
     1
 44
1.0
  0
MTEXT
  5
4F8
330
1F
100
AcDbEntity
  8
15
  6
Continuous
 62
    98
420
    20480
370
     9
100
AcDbMText
 10
276.3421243832126
 20
30.14576241261669
 30
0.0
 40
3.0
 41
3.879501062480595
 46
3.0
 71
     5
 72
     1
  1
{\fＭＳ ゴシック;\W0.714286;\T1.133333;06}
 73
     1
 44
1.0
  0
MTEXT
  5
4F9
330
1F
100
AcDbEntity
  8
15
  6
Continuous
 62
    98
420
    20480
370
     9
100
AcDbMText
 10
292.4825760998877
 20
54.35643998762922
 30
0.0
 40
3.0
 41
1.762475918909591
 46
3.0
 71
     5
 72
     1
  1
{\fＭＳ ゴシック;\W0.714286;-}
 73
     1
 44
1.0
  0
MTEXT
  5
4FA
330
1F
100
AcDbEntity
  8
15
  6
Continuous
 62
    98
420
    20480
370
     9
100
AcDbMText
 10
292.4825760998877
 20
54.35643998762922
 30
0.0
 40
3.0
 41
1.762475918909591
 46
3.0
 71
     5
 72
     1
  1
{\fＭＳ ゴシック;\W0.714286;-}
 73
     1
 44
1.0
  0
ENDSEC
  0
SECTION
  2
OBJECTS
  0
DICTIONARY
  5
C
330
0
100
AcDbDictionary
281
     1
  3
ACAD_DETAILVIEWSTYLE
350
502
  3
ACAD_GROUP
350
D
  3
ACAD_LAYOUT
350
1A
  3
ACAD_MATERIAL
350
43
  3
ACAD_MLEADERSTYLE
350
6B
  3
ACAD_MLINESTYLE
350
17
  3
ACAD_PLOTSETTINGS
350
19
  3
ACAD_PLOTSTYLENAME
350
E
  3
ACAD_SCALELIST
350
47
  3
ACAD_SECTIONVIEWSTYLE
350
503
  3
ACAD_TABLESTYLE
350
69
  3
ACAD_VISUALSTYLE
350
2A
  3
ACDB_RECOMPOSE_DATA
350
4FF
  3
AcDbVariableDictionary
350
4FB
  0
SUN
  5
6D
330
29
100
AcDbSun
 90
        1
290
     0
 63
     7
421
 16777215
 40
1.0
291
     1
 91
  2455826
 92
 54000000
292
     0
 70
     2
 71
   256
280
     1
  0
DICTIONARY
  5
502
102
{ACAD_REACTORS
330
C
102
}
330
C
100
AcDbDictionary
281
     1
  0
DICTIONARY
  5
D
102
{ACAD_REACTORS
330
C
102
}
330
C
100
AcDbDictionary
281
     1
  0
DICTIONARY
  5
1A
102
{ACAD_REACTORS
330
C
102
}
330
C
100
AcDbDictionary
281
     1
  3
Layout1
350
1E
  3
Layout2
350
26
  3
Model
350
22
  0
DICTIONARY
  5
43
102
{ACAD_REACTORS
330
C
102
}
330
C
100
AcDbDictionary
281
     1
  3
ByBlock
350
45
  3
ByLayer
350
44
  3
Global
350
46
  0
DICTIONARY
  5
6B
102
{ACAD_REACTORS
330
C
102
}
330
C
100
AcDbDictionary
281
     1
  3
Standard
350
6C
  0
DICTIONARY
  5
17
102
{ACAD_REACTORS
330
C
102
}
330
C
100
AcDbDictionary
281
     1
  3
Standard
350
18
  0
DICTIONARY
  5
19
102
{ACAD_REACTORS
330
C
102
}
330
C
100
AcDbDictionary
281
     1
  0
ACDBDICTIONARYWDFLT
  5
E
102
{ACAD_REACTORS
330
C
102
}
330
C
100
AcDbDictionary
281
     1
  3
Normal
350
F
100
AcDbDictionaryWithDefault
340
F
  0
DICTIONARY
  5
47
102
{ACAD_REACTORS
330
C
102
}
330
C
100
AcDbDictionary
281
     1
  3
A0
350
48
  3
A1
350
49
  3
A2
350
4A
  3
A3
350
4B
  3
A4
350
4C
  3
A5
350
4D
  3
A6
350
4E
  3
A7
350
4F
  3
A8
350
50
  3
A9
350
51
  3
B0
350
52
  3
B1
350
53
  3
B2
350
54
  3
B3
350
55
  3
B4
350
56
  3
B5
350
57
  3
B6
350
58
  3
B7
350
59
  3
B8
350
5A
  3
B9
350
5B
  3
C0
350
5C
  3
C1
350
5D
  3
C2
350
5E
  3
C3
350
5F
  3
C4
350
60
  3
C5
350
61
  3
C6
350
62
  3
C7
350
63
  3
C8
350
64
  3
C9
350
65
  3
D0
350
66
  3
D1
350
67
  3
D2
350
68
  0
DICTIONARY
  5
503
102
{ACAD_REACTORS
330
C
102
}
330
C
100
AcDbDictionary
281
     1
  0
DICTIONARY
  5
69
102
{ACAD_REACTORS
330
C
102
}
330
C
100
AcDbDictionary
281
     1
  3
Standard
350
6A
  0
DICTIONARY
  5
2A
102
{ACAD_REACTORS
330
C
102
}
330
C
100
AcDbDictionary
281
     1
  3
2dWireframe
350
2F
  3
Basic
350
32
  3
Brighten
350
36
  3
ColorChange
350
3A
  3
Conceptual
350
34
  3
Dim
350
35
  3
EdgeColorOff
350
3D
  3
Facepattern
350
39
  3
Flat
350
2B
  3
FlatWithEdges
350
2C
  3
Gouraud
350
2D
  3
GouraudWithEdges
350
2E
  3
Hidden
350
31
  3
JitterOff
350
3B
  3
Linepattern
350
38
  3
OverhangOff
350
3C
  3
Realistic
350
33
  3
Shaded
350
42
  3
Shaded with edges
350
41
  3
Shades of Gray
350
3E
  3
Sketchy
350
3F
  3
Thicken
350
37
  3
Wireframe
350
30
  3
X-Ray
350
40
  0
XRECORD
  5
4FF
102
{ACAD_REACTORS
330
C
102
}
330
C
100
AcDbXrecord
280
     1
 90
        1
330
6A
  0
DICTIONARY
  5
4FB
102
{ACAD_REACTORS
330
C
102
}
330
C
100
AcDbDictionary
281
     1
  3
CANNOSCALE
350
4FC
  3
CMLEADERSTYLE
350
501
  3
CTABLESTYLE
350
500
  0
LAYOUT
  5
1E
102
{ACAD_REACTORS
330
1A
102
}
330
1A
100
AcDbPlotSettings
  1

  2
none_device
  4

  6

 40
0.0
 41
0.0
 42
0.0
 43
0.0
 44
0.0
 45
0.0
 46
0.0
 47
0.0
 48
0.0
 49
0.0
140
0.0
141
0.0
142
1.0
143
1.0
 70
   688
 72
     0
 73
     0
 74
     5
  7

 75
    16
 76
     0
 77
     2
 78
   300
147
1.0
148
0.0
149
0.0
100
AcDbLayout
  1
Layout1
 70
     1
 71
     1
 10
0.0
 20
0.0
 11
420.0
 21
297.0
 12
0.0
 22
0.0
 32
0.0
 14
0.0
 24
0.0
 34
0.0
 15
420.0
 25
297.0
 35
0.0
146
0.0
 13
0.0
 23
0.0
 33
0.0
 16
1.0
 26
0.0
 36
0.0
 17
0.0
 27
1.0
 37
0.0
 76
     0
330
1B
  0
LAYOUT
  5
26
102
{ACAD_REACTORS
330
1A
102
}
330
1A
100
AcDbPlotSettings
  1

  2
none_device
  4

  6

 40
0.0
 41
0.0
 42
0.0
 43
0.0
 44
0.0
 45
0.0
 46
0.0
 47
0.0
 48
0.0
 49
0.0
140
0.0
141
0.0
142
1.0
143
1.0
 70
   688
 72
     0
 73
     0
 74
     5
  7

 75
    16
 76
     0
 77
     2
 78
   300
147
1.0
148
0.0
149
0.0
100
AcDbLayout
  1
Layout2
 70
     1
 71
     2
 10
0.0
 20
0.0
 11
0.0
 21
0.0
 12
0.0
 22
0.0
 32
0.0
 14
0.0
 24
0.0
 34
0.0
 15
0.0
 25
0.0
 35
0.0
146
0.0
 13
0.0
 23
0.0
 33
0.0
 16
1.0
 26
0.0
 36
0.0
 17
0.0
 27
1.0
 37
0.0
 76
     0
330
23
  0
LAYOUT
  5
22
102
{ACAD_REACTORS
330
1A
102
}
330
1A
100
AcDbPlotSettings
  1

  2
none_device
  4
Letter_(8.50_x_11.00_Inches)
  6

 40
6.35
 41
6.35
 42
6.35000508
 43
6.35000508
 44
215.9
 45
279.4
 46
0.0
 47
0.0
 48
0.0
 49
0.0
140
0.0
141
0.0
142
1.0
143
1.0
 70
  1712
 72
     0
 73
     0
 74
     0
  7

 75
     0
 76
     0
 77
     2
 78
   300
147
1.0
148
0.0
149
0.0
100
AcDbLayout
  1
Model
 70
     1
 71
     0
 10
0.0
 20
0.0
 11
420.0
 21
297.0
 12
0.0
 22
0.0
 32
0.0
 14
-2561.120760679875
 24
0.0
 34
0.0
 15
31995.00000000001
 25
14377.5
 35
0.0
146
0.0
 13
0.0
 23
0.0
 33
0.0
 16
1.0
 26
0.0
 36
0.0
 17
0.0
 27
1.0
 37
0.0
 76
     0
330
1F
331
29
  0
MATERIAL
  5
45
102
{ACAD_REACTORS
330
43
102
}
330
43
100
AcDbMaterial
  1
ByBlock
 72
     1
 94
      127
  0
MATERIAL
  5
44
102
{ACAD_REACTORS
330
43
102
}
330
43
100
AcDbMaterial
  1
ByLayer
 72
     1
 94
      127
  0
MATERIAL
  5
46
102
{ACAD_REACTORS
330
43
102
}
330
43
100
AcDbMaterial
  1
Global
 72
     1
 94
      127
  0
MLEADERSTYLE
  5
6C
102
{ACAD_REACTORS
330
6B
102
}
330
6B
100
AcDbMLeaderStyle
179
     2
170
     2
171
     1
172
     0
 90
        2
 40
0.0
 41
0.0
173
     1
 91
-1056964608
340
14
 92
       -2
290
     1
 42
0.09
291
     1
 43
0.36
  3
Standard
341
0
 44
0.18
300

342
11
174
     1
178
     6
175
     1
176
     0
 93
-1056964608
 45
0.18
292
     0
297
     0
 46
0.18
343
0
 94
-1056964608
 47
1.0
 49
1.0
140
1.0
293
     1
141
0.0
294
     1
177
     0
142
1.0
295
     0
296
     0
143
0.125
271
     0
272
     9
273
     9
298
     0
  0
MLINESTYLE
  5
18
102
{ACAD_REACTORS
330
17
102
}
330
17
100
AcDbMlineStyle
  2
Standard
 70
     0
  3

 62
   256
 51
90.0
 52
90.0
 71
     2
 49
0.5
 62
   256
  6
BYLAYER
 49
-0.5
 62
   256
  6
BYLAYER
  0
ACDBPLACEHOLDER
  5
F
102
{ACAD_REACTORS
330
E
102
}
330
E
  0
SCALE
  5
48
102
{ACAD_REACTORS
330
47
102
}
330
47
100
AcDbScale
 70
     0
300
1:1
140
1.0
141
1.0
290
     1
  0
SCALE
  5
49
102
{ACAD_REACTORS
330
47
102
}
330
47
100
AcDbScale
 70
     0
300
1:2
140
1.0
141
2.0
290
     0
  0
SCALE
  5
4A
102
{ACAD_REACTORS
330
47
102
}
330
47
100
AcDbScale
 70
     0
300
1:4
140
1.0
141
4.0
290
     0
  0
SCALE
  5
4B
102
{ACAD_REACTORS
330
47
102
}
330
47
100
AcDbScale
 70
     0
300
1:5
140
1.0
141
5.0
290
     0
  0
SCALE
  5
4C
102
{ACAD_REACTORS
330
47
102
}
330
47
100
AcDbScale
 70
     0
300
1:8
140
1.0
141
8.0
290
     0
  0
SCALE
  5
4D
102
{ACAD_REACTORS
330
47
102
}
330
47
100
AcDbScale
 70
     0
300
1:10
140
1.0
141
10.0
290
     0
  0
SCALE
  5
4E
102
{ACAD_REACTORS
330
47
102
}
330
47
100
AcDbScale
 70
     0
300
1:16
140
1.0
141
16.0
290
     0
  0
SCALE
  5
4F
102
{ACAD_REACTORS
330
47
102
}
330
47
100
AcDbScale
 70
     0
300
1:20
140
1.0
141
20.0
290
     0
  0
SCALE
  5
50
102
{ACAD_REACTORS
330
47
102
}
330
47
100
AcDbScale
 70
     0
300
1:30
140
1.0
141
30.0
290
     0
  0
SCALE
  5
51
102
{ACAD_REACTORS
330
47
102
}
330
47
100
AcDbScale
 70
     0
300
1:40
140
1.0
141
40.0
290
     0
  0
SCALE
  5
52
102
{ACAD_REACTORS
330
47
102
}
330
47
100
AcDbScale
 70
     0
300
1:50
140
1.0
141
50.0
290
     0
  0
SCALE
  5
53
102
{ACAD_REACTORS
330
47
102
}
330
47
100
AcDbScale
 70
     0
300
1:100
140
1.0
141
100.0
290
     0
  0
SCALE
  5
54
102
{ACAD_REACTORS
330
47
102
}
330
47
100
AcDbScale
 70
     0
300
2:1
140
2.0
141
1.0
290
     0
  0
SCALE
  5
55
102
{ACAD_REACTORS
330
47
102
}
330
47
100
AcDbScale
 70
     0
300
4:1
140
4.0
141
1.0
290
     0
  0
SCALE
  5
56
102
{ACAD_REACTORS
330
47
102
}
330
47
100
AcDbScale
 70
     0
300
8:1
140
8.0
141
1.0
290
     0
  0
SCALE
  5
57
102
{ACAD_REACTORS
330
47
102
}
330
47
100
AcDbScale
 70
     0
300
10:1
140
10.0
141
1.0
290
     0
  0
SCALE
  5
58
102
{ACAD_REACTORS
330
47
102
}
330
47
100
AcDbScale
 70
     0
300
100:1
140
100.0
141
1.0
290
     0
  0
SCALE
  5
59
102
{ACAD_REACTORS
330
47
102
}
330
47
100
AcDbScale
 70
     0
300
1/128" = 1'-0"
140
0.0078125
141
12.0
290
     0
  0
SCALE
  5
5A
102
{ACAD_REACTORS
330
47
102
}
330
47
100
AcDbScale
 70
     0
300
1/64" = 1'-0"
140
0.015625
141
12.0
290
     0
  0
SCALE
  5
5B
102
{ACAD_REACTORS
330
47
102
}
330
47
100
AcDbScale
 70
     0
300
1/32" = 1'-0"
140
0.03125
141
12.0
290
     0
  0
SCALE
  5
5C
102
{ACAD_REACTORS
330
47
102
}
330
47
100
AcDbScale
 70
     0
300
1/16" = 1'-0"
140
0.0625
141
12.0
290
     0
  0
SCALE
  5
5D
102
{ACAD_REACTORS
330
47
102
}
330
47
100
AcDbScale
 70
     0
300
3/32" = 1'-0"
140
0.09375
141
12.0
290
     0
  0
SCALE
  5
5E
102
{ACAD_REACTORS
330
47
102
}
330
47
100
AcDbScale
 70
     0
300
1/8" = 1'-0"
140
0.125
141
12.0
290
     0
  0
SCALE
  5
5F
102
{ACAD_REACTORS
330
47
102
}
330
47
100
AcDbScale
 70
     0
300
3/16" = 1'-0"
140
0.1875
141
12.0
290
     0
  0
SCALE
  5
60
102
{ACAD_REACTORS
330
47
102
}
330
47
100
AcDbScale
 70
     0
300
1/4" = 1'-0"
140
0.25
141
12.0
290
     0
  0
SCALE
  5
61
102
{ACAD_REACTORS
330
47
102
}
330
47
100
AcDbScale
 70
     0
300
3/8" = 1'-0"
140
0.375
141
12.0
290
     0
  0
SCALE
  5
62
102
{ACAD_REACTORS
330
47
102
}
330
47
100
AcDbScale
 70
     0
300
1/2" = 1'-0"
140
0.5
141
12.0
290
     0
  0
SCALE
  5
63
102
{ACAD_REACTORS
330
47
102
}
330
47
100
AcDbScale
 70
     0
300
3/4" = 1'-0"
140
0.75
141
12.0
290
     0
  0
SCALE
  5
64
102
{ACAD_REACTORS
330
47
102
}
330
47
100
AcDbScale
 70
     0
300
1" = 1'-0"
140
1.0
141
12.0
290
     0
  0
SCALE
  5
65
102
{ACAD_REACTORS
330
47
102
}
330
47
100
AcDbScale
 70
     0
300
1-1/2" = 1'-0"
140
1.5
141
12.0
290
     0
  0
SCALE
  5
66
102
{ACAD_REACTORS
330
47
102
}
330
47
100
AcDbScale
 70
     0
300
3" = 1'-0"
140
3.0
141
12.0
290
     0
  0
SCALE
  5
67
102
{ACAD_REACTORS
330
47
102
}
330
47
100
AcDbScale
 70
     0
300
6" = 1'-0"
140
6.0
141
12.0
290
     0
  0
SCALE
  5
68
102
{ACAD_REACTORS
330
47
102
}
330
47
100
AcDbScale
 70
     0
300
1'-0" = 1'-0"
140
12.0
141
12.0
290
     0
  0
TABLESTYLE
  5
6A
102
{ACAD_REACTORS
330
69
102
}
102
{ACAD_XDICTIONARY
360
4FD
102
}
330
69
100
AcDbTableStyle
  3
Standard
 70
     0
 71
     0
 40
0.06
 41
0.06
280
     0
281
     0
  7
Standard
140
0.18
170
     2
 62
     0
 63
   257
283
     0
 90
        4
 91
        0
  1

274
    -2
284
     1
 64
     0
275
    -2
285
     1
 65
     0
276
    -2
286
     1
 66
     0
277
    -2
287
     1
 67
     0
278
    -2
288
     1
 68
     0
279
    -2
289
     1
 69
     0
  7
Standard
140
0.25
170
     5
 62
     0
 63
   257
283
     0
 90
        4
 91
        0
  1

274
    -2
284
     1
 64
     0
275
    -2
285
     1
 65
     0
276
    -2
286
     1
 66
     0
277
    -2
287
     1
 67
     0
278
    -2
288
     1
 68
     0
279
    -2
289
     1
 69
     0
  7
Standard
140
0.18
170
     5
 62
     0
 63
   257
283
     0
 90
        4
 91
        0
  1

274
    -2
284
     1
 64
     0
275
    -2
285
     1
 65
     0
276
    -2
286
     1
 66
     0
277
    -2
287
     1
 67
     0
278
    -2
288
     1
 68
     0
279
    -2
289
     1
 69
     0
  0
VISUALSTYLE
  5
2F
102
{ACAD_REACTORS
330
2A
102
}
330
2A
100
AcDbVisualStyle
  2
2dWireframe
 70
     4
177
     3
291
     0
 70
    58
 90
        0
176
     1
 90
        2
176
     1
 90
        0
176
     1
 90
        0
176
     1
 40
0.6
176
     1
 40
30.0
176
     1
 62
     7
420
 16777215
176
     1
 90
        1
176
     1
 90
        4
176
     1
 62
     7
176
     1
 62
   257
176
     1
 90
        1
176
     1
 90
        1
176
     1
 40
1.0
176
     1
 90
        0
176
     1
 62
   257
176
     1
 40
1.0
176
     1
 90
        1
176
     1
 90
        6
176
     1
 90
        2
176
     1
 62
     7
176
     1
 90
        5
176
     1
 90
        0
176
     1
 90
        0
176
     1
290
     0
176
     1
 90
        1
176
     1
 40
0.0
176
     1
 90
        0
176
     1
290
     1
176
     1
290
     1
176
     1
290
     0
176
     1
290
     0
176
     1
290
     0
176
     1
290
     0
176
     1
290
     0
176
     1
290
     0
176
     1
290
     0
176
     1
 90
       50
176
     1
 40
0.0
176
     1
 40
1.0
176
     1
 90
        0
176
     1
 62
    18
420
        0
176
     1
 90
       50
176
     1
 90
        3
176
     1
 62
     5
420
      255
176
     1
290
     0
176
     1
 90
       50
176
     1
 90
       50
176
     1
 90
       50
176
     1
290
     0
176
     1
 90
       50
176
     1
 62
   256
176
     0
 40
1.0
176
     0
 90
        2
176
     1
  1
strokes_ogs.tif
176
     1
290
     0
176
     1
 40
1.0
176
     1
 40
1.0
176
     1
  0
VISUALSTYLE
  5
32
102
{ACAD_REACTORS
330
2A
102
}
330
2A
100
AcDbVisualStyle
  2
Basic
 70
     7
177
     3
291
     1
 70
    58
 90
        1
176
     1
 90
        0
176
     1
 90
        1
176
     1
 90
        0
176
     1
 40
0.6
176
     1
 40
30.0
176
     1
 62
     7
420
 16777215
176
     1
 90
        0
176
     1
 90
        4
176
     1
 62
     7
176
     1
 62
   257
176
     1
 90
        1
176
     1
 90
        1
176
     1
 40
1.0
176
     1
 90
        8
176
     1
 62
     7
176
     1
 40
1.0
176
     1
 90
        1
176
     1
 90
        6
176
     1
 90
        2
176
     1
 62
     7
176
     1
 90
        5
176
     1
 90
        0
176
     1
 90
        0
176
     1
290
     0
176
     1
 90
        1
176
     1
 40
0.0
176
     1
 90
        0
176
     1
290
     0
176
     1
290
     1
176
     1
290
     1
176
     1
290
     0
176
     1
290
     0
176
     1
290
     0
176
     1
290
     0
176
     1
290
     0
176
     1
290
     0
176
     1
 90
       50
176
     1
 40
0.0
176
     1
 40
1.0
176
     1
 90
        0
176
     1
 62
    18
420
        0
176
     1
 90
       50
176
     1
 90
        3
176
     1
 62
     5
420
      255
176
     1
290
     0
176
     1
 90
       50
176
     1
 90
       50
176
     1
 90
       50
176
     1
290
     0
176
     1
 90
       50
176
     1
 62
   256
176
     0
 40
1.0
176
     0
 90
        2
176
     1
  1
strokes_ogs.tif
176
     1
290
     0
176
     1
 40
1.0
176
     1
 40
1.0
176
     1
  0
VISUALSTYLE
  5
36
102
{ACAD_REACTORS
330
2A
102
}
330
2A
100
AcDbVisualStyle
  2
Brighten
 70
    12
177
     3
291
     1
 70
    58
 90
        2
176
     1
 90
        2
176
     1
 90
        0
176
     1
 90
        0
176
     1
 40
0.6
176
     1
 40
30.0
176
     1
 62
     7
420
 16777215
176
     1
 90
        1
176
     1
 90
        4
176
     1
 62
     7
176
     1
 62
   257
176
     1
 90
        1
176
     1
 90
        1
176
     1
 40
1.0
176
     1
 90
        8
176
     1
 62
     7
176
     1
 40
1.0
176
     1
 90
        1
176
     1
 90
        6
176
     1
 90
        2
176
     1
 62
     7
176
     1
 90
        5
176
     1
 90
        0
176
     1
 90
        0
176
     1
290
     0
176
     1
 90
        1
176
     1
 40
50.0
176
     1
 90
        0
176
     1
290
     0
176
     1
290
     1
176
     1
290
     1
176
     1
290
     0
176
     1
290
     0
176
     1
290
     0
176
     1
290
     0
176
     1
290
     0
176
     1
290
     0
176
     1
 90
       50
176
     1
 40
0.0
176
     1
 40
1.0
176
     1
 90
        0
176
     1
 62
    18
420
        0
176
     1
 90
       50
176
     1
 90
        3
176
     1
 62
     5
420
      255
176
     1
290
     0
176
     1
 90
       50
176
     1
 90
       50
176
     1
 90
       50
176
     1
290
     0
176
     1
 90
       50
176
     1
 62
   256
176
     0
 40
1.0
176
     0
 90
        2
176
     1
  1
strokes_ogs.tif
176
     1
290
     0
176
     1
 40
1.0
176
     1
 40
1.0
176
     1
  0
VISUALSTYLE
  5
3A
102
{ACAD_REACTORS
330
2A
102
}
330
2A
100
AcDbVisualStyle
  2
ColorChange
 70
    16
177
     3
291
     1
 70
    58
 90
        2
176
     1
 90
        2
176
     1
 90
        3
176
     1
 90
        0
176
     1
 40
0.6
176
     1
 40
30.0
176
     1
 62
     8
420
  8421504
176
     1
 90
        1
176
     1
 90
        4
176
     1
 62
     7
176
     1
 62
   257
176
     1
 90
        1
176
     1
 90
        1
176
     1
 40
1.0
176
     1
 90
        8
176
     1
 62
     8
420
  8421504
176
     1
 40
1.0
176
     1
 90
        1
176
     1
 90
        6
176
     1
 90
        2
176
     1
 62
     7
176
     1
 90
        5
176
     1
 90
        0
176
     1
 90
        0
176
     1
290
     0
176
     1
 90
        1
176
     1
 40
0.0
176
     1
 90
        0
176
     1
290
     0
176
     1
290
     1
176
     1
290
     1
176
     1
290
     0
176
     1
290
     0
176
     1
290
     0
176
     1
290
     0
176
     1
290
     0
176
     1
290
     0
176
     1
 90
       50
176
     1
 40
0.0
176
     1
 40
1.0
176
     1
 90
        0
176
     1
 62
    18
420
        0
176
     1
 90
       50
176
     1
 90
        3
176
     1
 62
     5
420
      255
176
     1
290
     0
176
     1
 90
       50
176
     1
 90
       50
176
     1
 90
       50
176
     1
290
     0
176
     1
 90
       50
176
     1
 62
   256
176
     0
 40
1.0
176
     0
 90
        2
176
     1
  1
strokes_ogs.tif
176
     1
290
     0
176
     1
 40
1.0
176
     1
 40
1.0
176
     1
  0
VISUALSTYLE
  5
34
102
{ACAD_REACTORS
330
2A
102
}
330
2A
100
AcDbVisualStyle
  2
Conceptual
 70
     9
177
     3
291
     0
 70
    58
 90
        3
176
     1
 90
        2
176
     1
 90
        0
176
     1
 90
        0
176
     1
 40
0.6
176
     1
 40
30.0
176
     1
 62
     7
420
 16777215
176
     1
 90
        2
176
     1
 90
        2
176
     1
 62
     7
176
     1
 62
   257
176
     1
 90
        1
176
     1
 90
        1
176
     1
 40
179.0
176
     1
 90
        8
176
     1
 62
     7
176
     1
 40
1.0
176
     1
 90
        1
176
     1
 90
        6
176
     1
 90
        2
176
     1
 62
     7
176
     1
 90
        3
176
     1
 90
        0
176
     1
 90
        0
176
     1
290
     0
176
     1
 90
        1
176
     1
 40
0.0
176
     1
 90
        0
176
     1
290
     0
176
     1
290
     1
176
     1
290
     1
176
     1
290
     0
176
     1
290
     0
176
     1
290
     0
176
     1
290
     0
176
     1
290
     0
176
     1
290
     0
176
     1
 90
       50
176
     1
 40
0.0
176
     1
 40
1.0
176
     1
 90
        0
176
     1
 62
    18
420
        0
176
     1
 90
       50
176
     1
 90
        3
176
     1
 62
     5
420
      255
176
     1
290
     0
176
     1
 90
       50
176
     1
 90
       50
176
     1
 90
       50
176
     1
290
     0
176
     1
 90
       50
176
     1
 62
   256
176
     0
 40
1.0
176
     0
 90
        2
176
     1
  1
strokes_ogs.tif
176
     1
290
     0
176
     1
 40
1.0
176
     1
 40
1.0
176
     1
  0
VISUALSTYLE
  5
35
102
{ACAD_REACTORS
330
2A
102
}
330
2A
100
AcDbVisualStyle
  2
Dim
 70
    11
177
     3
291
     1
 70
    58
 90
        2
176
     1
 90
        2
176
     1
 90
        0
176
     1
 90
        0
176
     1
 40
0.6
176
     1
 40
30.0
176
     1
 62
     7
420
 16777215
176
     1
 90
        1
176
     1
 90
        4
176
     1
 62
     7
176
     1
 62
   257
176
     1
 90
        1
176
     1
 90
        1
176
     1
 40
1.0
176
     1
 90
        8
176
     1
 62
     7
176
     1
 40
1.0
176
     1
 90
        1
176
     1
 90
        6
176
     1
 90
        2
176
     1
 62
     7
176
     1
 90
        5
176
     1
 90
        0
176
     1
 90
        0
176
     1
290
     0
176
     1
 90
        1
176
     1
 40
-50.0
176
     1
 90
        0
176
     1
290
     0
176
     1
290
     1
176
     1
290
     1
176
     1
290
     0
176
     1
290
     0
176
     1
290
     0
176
     1
290
     0
176
     1
290
     0
176
     1
290
     0
176
     1
 90
       50
176
     1
 40
0.0
176
     1
 40
1.0
176
     1
 90
        0
176
     1
 62
    18
420
        0
176
     1
 90
       50
176
     1
 90
        3
176
     1
 62
     5
420
      255
176
     1
290
     0
176
     1
 90
       50
176
     1
 90
       50
176
     1
 90
       50
176
     1
290
     0
176
     1
 90
       50
176
     1
 62
   256
176
     0
 40
1.0
176
     0
 90
        2
176
     1
  1
strokes_ogs.tif
176
     1
290
     0
176
     1
 40
1.0
176
     1
 40
1.0
176
     1
  0
VISUALSTYLE
  5
3D
102
{ACAD_REACTORS
330
2A
102
}
330
2A
100
AcDbVisualStyle
  2
EdgeColorOff
 70
    22
177
     3
291
     1
 70
    58
 90
        2
176
     0
 90
        2
176
     0
 90
        0
176
     0
 90
        0
176
     0
 40
0.6
176
     0
 40
30.0
176
     0
 62
     7
420
 16777215
176
     0
 90
        1
176
     0
 90
        4
176
     0
 62
     7
176
     0
 62
   257
176
     0
 90
        1
176
     0
 90
        1
176
     0
 40
1.0
176
     0
 90
        8
176
     2
 62
     7
176
     0
 40
1.0
176
     0
 90
        1
176
     0
 90
        6
176
     0
 90
        2
176
     0
 62
     7
176
     0
 90
        5
176
     0
 90
        0
176
     0
 90
        0
176
     0
290
     0
176
     0
 90
        1
176
     0
 40
0.0
176
     0
 90
        0
176
     0
290
     0
176
     0
290
     1
176
     0
290
     1
176
     0
290
     0
176
     0
290
     0
176
     0
290
     0
176
     0
290
     0
176
     0
290
     0
176
     0
290
     0
176
     0
 90
       50
176
     0
 40
0.0
176
     0
 40
1.0
176
     0
 90
        0
176
     0
 62
    18
420
        0
176
     0
 90
       50
176
     0
 90
        3
176
     0
 62
     5
420
      255
176
     0
290
     0
176
     0
 90
       50
176
     0
 90
       50
176
     0
 90
       50
176
     0
290
     0
176
     0
 90
       50
176
     0
 62
   256
176
     0
 40
1.0
176
     0
 90
        2
176
     0
  1
strokes_ogs.tif
176
     0
290
     0
176
     0
 40
1.0
176
     0
 40
1.0
176
     0
  0
VISUALSTYLE
  5
39
102
{ACAD_REACTORS
330
2A
102
}
330
2A
100
AcDbVisualStyle
  2
Facepattern
 70
    15
177
     3
291
     1
 70
    58
 90
        2
176
     1
 90
        2
176
     1
 90
        0
176
     1
 90
        0
176
     1
 40
0.6
176
     1
 40
30.0
176
     1
 62
     7
420
 16777215
176
     1
 90
        1
176
     1
 90
        4
176
     1
 62
     7
176
     1
 62
   257
176
     1
 90
        1
176
     1
 90
        1
176
     1
 40
1.0
176
     1
 90
        8
176
     1
 62
     7
176
     1
 40
1.0
176
     1
 90
        1
176
     1
 90
        6
176
     1
 90
        2
176
     1
 62
     7
176
     1
 90
        5
176
     1
 90
        0
176
     1
 90
        0
176
     1
290
     0
176
     1
 90
        1
176
     1
 40
0.0
176
     1
 90
        0
176
     1
290
     0
176
     1
290
     1
176
     1
290
     1
176
     1
290
     0
176
     1
290
     0
176
     1
290
     0
176
     1
290
     0
176
     1
290
     0
176
     1
290
     0
176
     1
 90
       50
176
     1
 40
0.0
176
     1
 40
1.0
176
     1
 90
        0
176
     1
 62
    18
420
        0
176
     1
 90
       50
176
     1
 90
        3
176
     1
 62
     5
420
      255
176
     1
290
     0
176
     1
 90
       50
176
     1
 90
       50
176
     1
 90
       50
176
     1
290
     0
176
     1
 90
       50
176
     1
 62
   256
176
     0
 40
1.0
176
     0
 90
        2
176
     1
  1
strokes_ogs.tif
176
     1
290
     0
176
     1
 40
1.0
176
     1
 40
1.0
176
     1
  0
VISUALSTYLE
  5
2B
102
{ACAD_REACTORS
330
2A
102
}
330
2A
100
AcDbVisualStyle
  2
Flat
 70
     0
177
     3
291
     1
 70
    58
 90
        2
176
     1
 90
        1
176
     1
 90
        1
176
     1
 90
        2
176
     1
 40
0.6
176
     1
 40
30.0
176
     1
 62
     7
420
 16777215
176
     1
 90
        0
176
     1
 90
        0
176
     1
 62
     7
176
     1
 62
   257
176
     1
 90
        1
176
     1
 90
        1
176
     1
 40
1.0
176
     1
 90
        8
176
     1
 62
     7
176
     1
 40
1.0
176
     1
 90
        1
176
     1
 90
        6
176
     1
 90
        2
176
     1
 62
     7
176
     1
 90
        5
176
     1
 90
        0
176
     1
 90
        0
176
     1
290
     0
176
     1
 90
       13
176
     1
 40
0.0
176
     1
 90
        0
176
     1
290
     0
176
     1
290
     1
176
     1
290
     1
176
     1
290
     0
176
     1
290
     0
176
     1
290
     0
176
     1
290
     0
176
     1
290
     0
176
     1
290
     0
176
     1
 90
       50
176
     1
 40
0.0
176
     1
 40
1.0
176
     1
 90
        0
176
     1
 62
    18
420
        0
176
     1
 90
       50
176
     1
 90
        3
176
     1
 62
     5
420
      255
176
     1
290
     0
176
     1
 90
       50
176
     1
 90
       50
176
     1
 90
       50
176
     1
290
     0
176
     1
 90
       50
176
     1
 62
   256
176
     0
 40
1.0
176
     0
 90
        2
176
     1
  1
strokes_ogs.tif
176
     1
290
     0
176
     1
 40
1.0
176
     1
 40
1.0
176
     1
  0
VISUALSTYLE
  5
2C
102
{ACAD_REACTORS
330
2A
102
}
330
2A
100
AcDbVisualStyle
  2
FlatWithEdges
 70
     1
177
     3
291
     1
 70
    58
 90
        2
176
     1
 90
        1
176
     1
 90
        1
176
     1
 90
        2
176
     1
 40
0.6
176
     1
 40
30.0
176
     1
 62
     7
420
 16777215
176
     1
 90
        1
176
     1
 90
        0
176
     1
 62
     7
176
     1
 62
   257
176
     1
 90
        1
176
     1
 90
        1
176
     1
 40
1.0
176
     1
 90
        0
176
     1
 62
   257
176
     1
 40
1.0
176
     1
 90
        1
176
     1
 90
        6
176
     1
 90
        2
176
     1
 62
     7
176
     1
 90
        5
176
     1
 90
        0
176
     1
 90
        0
176
     1
290
     0
176
     1
 90
       13
176
     1
 40
0.0
176
     1
 90
        0
176
     1
290
     0
176
     1
290
     1
176
     1
290
     1
176
     1
290
     0
176
     1
290
     0
176
     1
290
     0
176
     1
290
     0
176
     1
290
     0
176
     1
290
     0
176
     1
 90
       50
176
     1
 40
0.0
176
     1
 40
1.0
176
     1
 90
        0
176
     1
 62
    18
420
        0
176
     1
 90
       50
176
     1
 90
        3
176
     1
 62
     5
420
      255
176
     1
290
     0
176
     1
 90
       50
176
     1
 90
       50
176
     1
 90
       50
176
     1
290
     0
176
     1
 90
       50
176
     1
 62
   256
176
     0
 40
1.0
176
     0
 90
        2
176
     1
  1
strokes_ogs.tif
176
     1
290
     0
176
     1
 40
1.0
176
     1
 40
1.0
176
     1
  0
VISUALSTYLE
  5
2D
102
{ACAD_REACTORS
330
2A
102
}
330
2A
100
AcDbVisualStyle
  2
Gouraud
 70
     2
177
     3
291
     1
 70
    58
 90
        2
176
     1
 90
        2
176
     1
 90
        1
176
     1
 90
        2
176
     1
 40
0.6
176
     1
 40
30.0
176
     1
 62
     7
420
 16777215
176
     1
 90
        0
176
     1
 90
        0
176
     1
 62
     7
176
     1
 62
   257
176
     1
 90
        1
176
     1
 90
        1
176
     1
 40
1.0
176
     1
 90
        0
176
     1
 62
     7
176
     1
 40
1.0
176
     1
 90
        1
176
     1
 90
        6
176
     1
 90
        2
176
     1
 62
     7
176
     1
 90
        5
176
     1
 90
        0
176
     1
 90
        0
176
     1
290
     0
176
     1
 90
       13
176
     1
 40
0.0
176
     1
 90
        0
176
     1
290
     0
176
     1
290
     1
176
     1
290
     1
176
     1
290
     0
176
     1
290
     0
176
     1
290
     0
176
     1
290
     0
176
     1
290
     0
176
     1
290
     0
176
     1
 90
       50
176
     1
 40
0.0
176
     1
 40
1.0
176
     1
 90
        0
176
     1
 62
    18
420
        0
176
     1
 90
       50
176
     1
 90
        3
176
     1
 62
     5
420
      255
176
     1
290
     0
176
     1
 90
       50
176
     1
 90
       50
176
     1
 90
       50
176
     1
290
     0
176
     1
 90
       50
176
     1
 62
   256
176
     0
 40
1.0
176
     0
 90
        2
176
     1
  1
strokes_ogs.tif
176
     1
290
     0
176
     1
 40
1.0
176
     1
 40
1.0
176
     1
  0
VISUALSTYLE
  5
2E
102
{ACAD_REACTORS
330
2A
102
}
330
2A
100
AcDbVisualStyle
  2
GouraudWithEdges
 70
     3
177
     3
291
     1
 70
    58
 90
        2
176
     1
 90
        2
176
     1
 90
        1
176
     1
 90
        2
176
     1
 40
0.6
176
     1
 40
30.0
176
     1
 62
     7
420
 16777215
176
     1
 90
        1
176
     1
 90
        0
176
     1
 62
     7
176
     1
 62
   257
176
     1
 90
        1
176
     1
 90
        1
176
     1
 40
1.0
176
     1
 90
        0
176
     1
 62
   257
176
     1
 40
1.0
176
     1
 90
        1
176
     1
 90
        6
176
     1
 90
        2
176
     1
 62
     7
176
     1
 90
        5
176
     1
 90
        0
176
     1
 90
        0
176
     1
290
     0
176
     1
 90
       13
176
     1
 40
0.0
176
     1
 90
        0
176
     1
290
     0
176
     1
290
     1
176
     1
290
     1
176
     1
290
     0
176
     1
290
     0
176
     1
290
     0
176
     1
290
     0
176
     1
290
     0
176
     1
290
     0
176
     1
 90
       50
176
     1
 40
0.0
176
     1
 40
1.0
176
     1
 90
        0
176
     1
 62
    18
420
        0
176
     1
 90
       50
176
     1
 90
        3
176
     1
 62
     5
420
      255
176
     1
290
     0
176
     1
 90
       50
176
     1
 90
       50
176
     1
 90
       50
176
     1
290
     0
176
     1
 90
       50
176
     1
 62
   256
176
     0
 40
1.0
176
     0
 90
        2
176
     1
  1
strokes_ogs.tif
176
     1
290
     0
176
     1
 40
1.0
176
     1
 40
1.0
176
     1
  0
VISUALSTYLE
  5
31
102
{ACAD_REACTORS
330
2A
102
}
330
2A
100
AcDbVisualStyle
  2
Hidden
 70
     6
177
     3
291
     0
 70
    58
 90
        1
176
     1
 90
        2
176
     1
 90
        2
176
     1
 90
        0
176
     1
 40
0.6
176
     1
 40
30.0
176
     1
 62
     7
420
 16777215
176
     1
 90
        2
176
     1
 90
        2
176
     1
 62
     7
176
     1
 62
   257
176
     1
 90
        2
176
     1
 90
        1
176
     1
 40
40.0
176
     1
 90
        0
176
     1
 62
   257
176
     1
 40
1.0
176
     1
 90
        1
176
     1
 90
        6
176
     1
 90
        2
176
     1
 62
     7
176
     1
 90
        3
176
     1
 90
        0
176
     1
 90
        0
176
     1
290
     0
176
     1
 90
        1
176
     1
 40
0.0
176
     1
 90
        0
176
     1
290
     0
176
     1
290
     1
176
     1
290
     1
176
     1
290
     0
176
     1
290
     0
176
     1
290
     0
176
     1
290
     0
176
     1
290
     0
176
     1
290
     0
176
     1
 90
       50
176
     1
 40
0.0
176
     1
 40
1.0
176
     1
 90
        0
176
     1
 62
    18
420
        0
176
     1
 90
       50
176
     1
 90
        3
176
     1
 62
     5
420
      255
176
     1
290
     0
176
     1
 90
       50
176
     1
 90
       50
176
     1
 90
       50
176
     1
290
     0
176
     1
 90
       50
176
     1
 62
   256
176
     0
 40
1.0
176
     0
 90
        2
176
     1
  1
strokes_ogs.tif
176
     1
290
     0
176
     1
 40
1.0
176
     1
 40
1.0
176
     1
  0
VISUALSTYLE
  5
3B
102
{ACAD_REACTORS
330
2A
102
}
330
2A
100
AcDbVisualStyle
  2
JitterOff
 70
    20
177
     3
291
     1
 70
    58
 90
        2
176
     0
 90
        2
176
     0
 90
        0
176
     0
 90
        0
176
     0
 40
0.6
176
     0
 40
30.0
176
     0
 62
     7
420
 16777215
176
     0
 90
        1
176
     0
 90
        4
176
     0
 62
     7
176
     0
 62
   257
176
     0
 90
        1
176
     0
 90
        1
176
     0
 40
1.0
176
     0
 90
       10
176
     2
 62
     7
176
     0
 40
1.0
176
     0
 90
        1
176
     0
 90
        6
176
     0
 90
        2
176
     0
 62
     7
176
     0
 90
        5
176
     0
 90
        0
176
     0
 90
        0
176
     0
290
     0
176
     0
 90
        1
176
     0
 40
0.0
176
     0
 90
        0
176
     0
290
     0
176
     0
290
     1
176
     0
290
     1
176
     0
290
     0
176
     0
290
     0
176
     0
290
     0
176
     0
290
     0
176
     0
290
     0
176
     0
290
     0
176
     0
 90
       50
176
     0
 40
0.0
176
     0
 40
1.0
176
     0
 90
        0
176
     0
 62
    18
420
        0
176
     0
 90
       50
176
     0
 90
        3
176
     0
 62
     5
420
      255
176
     0
290
     0
176
     0
 90
       50
176
     0
 90
       50
176
     0
 90
       50
176
     0
290
     0
176
     0
 90
       50
176
     0
 62
   256
176
     0
 40
1.0
176
     0
 90
        2
176
     0
  1
strokes_ogs.tif
176
     0
290
     0
176
     0
 40
1.0
176
     0
 40
1.0
176
     0
  0
VISUALSTYLE
  5
38
102
{ACAD_REACTORS
330
2A
102
}
330
2A
100
AcDbVisualStyle
  2
Linepattern
 70
    14
177
     3
291
     1
 70
    58
 90
        2
176
     1
 90
        2
176
     1
 90
        0
176
     1
 90
        0
176
     1
 40
0.6
176
     1
 40
30.0
176
     1
 62
     7
420
 16777215
176
     1
 90
        1
176
     1
 90
        4
176
     1
 62
     7
176
     1
 62
   257
176
     1
 90
        7
176
     1
 90
        7
176
     1
 40
1.0
176
     1
 90
        8
176
     1
 62
     7
176
     1
 40
1.0
176
     1
 90
        1
176
     1
 90
        6
176
     1
 90
        2
176
     1
 62
     7
176
     1
 90
        5
176
     1
 90
        0
176
     1
 90
        0
176
     1
290
     0
176
     1
 90
        1
176
     1
 40
0.0
176
     1
 90
        0
176
     1
290
     0
176
     1
290
     1
176
     1
290
     1
176
     1
290
     0
176
     1
290
     0
176
     1
290
     0
176
     1
290
     0
176
     1
290
     0
176
     1
290
     0
176
     1
 90
       50
176
     1
 40
0.0
176
     1
 40
1.0
176
     1
 90
        0
176
     1
 62
    18
420
        0
176
     1
 90
       50
176
     1
 90
        3
176
     1
 62
     5
420
      255
176
     1
290
     0
176
     1
 90
       50
176
     1
 90
       50
176
     1
 90
       50
176
     1
290
     0
176
     1
 90
       50
176
     1
 62
   256
176
     0
 40
1.0
176
     0
 90
        2
176
     1
  1
strokes_ogs.tif
176
     1
290
     0
176
     1
 40
1.0
176
     1
 40
1.0
176
     1
  0
VISUALSTYLE
  5
3C
102
{ACAD_REACTORS
330
2A
102
}
330
2A
100
AcDbVisualStyle
  2
OverhangOff
 70
    21
177
     3
291
     1
 70
    58
 90
        2
176
     0
 90
        2
176
     0
 90
        0
176
     0
 90
        0
176
     0
 40
0.6
176
     0
 40
30.0
176
     0
 62
     7
420
 16777215
176
     0
 90
        1
176
     0
 90
        4
176
     0
 62
     7
176
     0
 62
   257
176
     0
 90
        1
176
     0
 90
        1
176
     0
 40
1.0
176
     0
 90
        9
176
     2
 62
     7
176
     0
 40
1.0
176
     0
 90
        1
176
     0
 90
        6
176
     0
 90
        2
176
     0
 62
     7
176
     0
 90
        5
176
     0
 90
        0
176
     0
 90
        0
176
     0
290
     0
176
     0
 90
        1
176
     0
 40
0.0
176
     0
 90
        0
176
     0
290
     0
176
     0
290
     1
176
     0
290
     1
176
     0
290
     0
176
     0
290
     0
176
     0
290
     0
176
     0
290
     0
176
     0
290
     0
176
     0
290
     0
176
     0
 90
       50
176
     0
 40
0.0
176
     0
 40
1.0
176
     0
 90
        0
176
     0
 62
    18
420
        0
176
     0
 90
       50
176
     0
 90
        3
176
     0
 62
     5
420
      255
176
     0
290
     0
176
     0
 90
       50
176
     0
 90
       50
176
     0
 90
       50
176
     0
290
     0
176
     0
 90
       50
176
     0
 62
   256
176
     0
 40
1.0
176
     0
 90
        2
176
     0
  1
strokes_ogs.tif
176
     0
290
     0
176
     0
 40
1.0
176
     0
 40
1.0
176
     0
  0
VISUALSTYLE
  5
33
102
{ACAD_REACTORS
330
2A
102
}
330
2A
100
AcDbVisualStyle
  2
Realistic
 70
     8
177
     3
291
     0
 70
    58
 90
        2
176
     1
 90
        3
176
     1
 90
        0
176
     1
 90
        2
176
     1
 40
0.6
176
     1
 40
30.0
176
     1
 62
     7
420
 16777215
176
     1
 90
        0
176
     1
 90
        0
176
     1
 62
     7
176
     1
 62
   257
176
     1
 90
        1
176
     1
 90
        1
176
     1
 40
1.0
176
     1
 90
        8
176
     1
 62
   257
176
     1
 40
1.0
176
     1
 90
        1
176
     1
 90
        6
176
     1
 90
        2
176
     1
 62
     7
176
     1
 90
        3
176
     1
 90
        0
176
     1
 90
        0
176
     1
290
     0
176
     1
 90
       13
176
     1
 40
0.0
176
     1
 90
        0
176
     1
290
     0
176
     1
290
     1
176
     1
290
     1
176
     1
290
     0
176
     1
290
     0
176
     1
290
     0
176
     1
290
     0
176
     1
290
     0
176
     1
290
     0
176
     1
 90
       50
176
     1
 40
0.0
176
     1
 40
1.0
176
     1
 90
        0
176
     1
 62
    18
420
        0
176
     1
 90
       50
176
     1
 90
        3
176
     1
 62
     5
420
      255
176
     1
290
     0
176
     1
 90
       50
176
     1
 90
       50
176
     1
 90
       50
176
     1
290
     0
176
     1
 90
       50
176
     1
 62
   256
176
     0
 40
1.0
176
     0
 90
        2
176
     1
  1
strokes_ogs.tif
176
     1
290
     0
176
     1
 40
1.0
176
     1
 40
1.0
176
     1
  0
VISUALSTYLE
  5
42
102
{ACAD_REACTORS
330
2A
102
}
330
2A
100
AcDbVisualStyle
  2
Shaded
 70
    27
177
     3
291
     0
 70
    58
 90
        2
176
     1
 90
        2
176
     1
 90
        1
176
     1
 90
        2
176
     1
 40
0.6
176
     1
 40
30.0
176
     1
 62
     7
420
 16777215
176
     1
 90
        0
176
     1
 90
        4
176
     1
 62
     7
176
     1
 62
   257
176
     1
 90
        1
176
     1
 90
        1
176
     1
 40
1.0
176
     1
 90
        8
176
     1
 62
   257
176
     1
 40
1.0
176
     1
 90
        1
176
     1
 90
        6
176
     1
 90
        2
176
     1
 62
     8
420
  7895160
176
     1
 90
        3
176
     1
 90
        0
176
     1
 90
        0
176
     1
290
     0
176
     1
 90
        5
176
     1
 40
0.0
176
     1
 90
        0
176
     1
290
     0
176
     1
290
     1
176
     1
290
     1
176
     1
290
     0
176
     1
290
     0
176
     1
290
     0
176
     1
290
     0
176
     1
290
     0
176
     1
290
     0
176
     1
 90
       50
176
     1
 40
0.0
176
     1
 40
1.0
176
     1
 90
        0
176
     1
 62
    18
420
        0
176
     1
 90
       50
176
     1
 90
        3
176
     1
 62
     5
420
      255
176
     1
290
     0
176
     1
 90
       50
176
     1
 90
       50
176
     1
 90
       50
176
     1
290
     0
176
     1
 90
       50
176
     1
 62
   256
176
     0
 40
1.0
176
     0
 90
        2
176
     1
  1
strokes_ogs.tif
176
     1
290
     0
176
     1
 40
1.0
176
     1
 40
1.0
176
     1
  0
VISUALSTYLE
  5
41
102
{ACAD_REACTORS
330
2A
102
}
330
2A
100
AcDbVisualStyle
  2
Shaded with edges
 70
    26
177
     3
291
     0
 70
    58
 90
        2
176
     1
 90
        2
176
     1
 90
        1
176
     1
 90
        2
176
     1
 40
0.6
176
     1
 40
30.0
176
     1
 62
     7
420
 16777215
176
     1
 90
        1
176
     1
 90
       10
176
     1
 62
     7
176
     1
 62
   257
176
     1
 90
        2
176
     1
 90
        1
176
     1
 40
1.0
176
     1
 90
        8
176
     1
 62
   257
176
     1
 40
1.0
176
     1
 90
        1
176
     1
 90
        6
176
     1
 90
        2
176
     1
 62
     7
176
     1
 90
        3
176
     1
 90
        0
176
     1
 90
        0
176
     1
290
     0
176
     1
 90
        5
176
     1
 40
0.0
176
     1
 90
        0
176
     1
290
     0
176
     1
290
     1
176
     1
290
     1
176
     1
290
     0
176
     1
290
     0
176
     1
290
     0
176
     1
290
     0
176
     1
290
     0
176
     1
290
     0
176
     1
 90
       50
176
     1
 40
0.0
176
     1
 40
1.0
176
     1
 90
        0
176
     1
 62
    18
420
        0
176
     1
 90
       50
176
     1
 90
        3
176
     1
 62
     5
420
      255
176
     1
290
     0
176
     1
 90
       50
176
     1
 90
       50
176
     1
 90
       50
176
     1
290
     0
176
     1
 90
       50
176
     1
 62
   256
176
     0
 40
1.0
176
     0
 90
        2
176
     1
  1
strokes_ogs.tif
176
     1
290
     0
176
     1
 40
1.0
176
     1
 40
1.0
176
     1
  0
VISUALSTYLE
  5
3E
102
{ACAD_REACTORS
330
2A
102
}
330
2A
100
AcDbVisualStyle
  2
Shades of Gray
 70
    23
177
     3
291
     0
 70
    58
 90
        2
176
     1
 90
        2
176
     1
 90
        3
176
     1
 90
        0
176
     1
 40
0.6
176
     1
 40
30.0
176
     1
 62
     7
420
 16777215
176
     1
 90
        2
176
     1
 90
        2
176
     1
 62
     7
176
     1
 62
     7
176
     1
 90
        1
176
     1
 90
        1
176
     1
 40
40.0
176
     1
 90
        8
176
     1
 62
     7
176
     1
 40
1.0
176
     1
 90
        1
176
     1
 90
        6
176
     1
 90
        2
176
     1
 62
     7
176
     1
 90
        3
176
     1
 90
        0
176
     1
 90
        0
176
     1
290
     0
176
     1
 90
        1
176
     1
 40
0.0
176
     1
 90
        0
176
     1
290
     0
176
     1
290
     1
176
     1
290
     1
176
     1
290
     0
176
     1
290
     0
176
     1
290
     0
176
     1
290
     0
176
     1
290
     0
176
     1
290
     0
176
     1
 90
       50
176
     1
 40
0.0
176
     1
 40
1.0
176
     1
 90
        0
176
     1
 62
    18
420
        0
176
     1
 90
       50
176
     1
 90
        3
176
     1
 62
     5
420
      255
176
     1
290
     0
176
     1
 90
       50
176
     1
 90
       50
176
     1
 90
       50
176
     1
290
     0
176
     1
 90
       50
176
     1
 62
   256
176
     0
 40
1.0
176
     0
 90
        2
176
     1
  1
strokes_ogs.tif
176
     1
290
     0
176
     1
 40
1.0
176
     1
 40
1.0
176
     1
  0
VISUALSTYLE
  5
3F
102
{ACAD_REACTORS
330
2A
102
}
330
2A
100
AcDbVisualStyle
  2
Sketchy
 70
    24
177
     3
291
     0
 70
    58
 90
        1
176
     1
 90
        2
176
     1
 90
        2
176
     1
 90
        0
176
     1
 40
0.6
176
     1
 40
30.0
176
     1
 62
     7
420
 16777215
176
     1
 90
        2
176
     1
 90
        2
176
     1
 62
     7
176
     1
 62
     7
176
     1
 90
        1
176
     1
 90
        1
176
     1
 40
40.0
176
     1
 90
       11
176
     1
 62
     7
176
     1
 40
1.0
176
     1
 90
        1
176
     1
 90
        6
176
     1
 90
        2
176
     1
 62
     7
176
     1
 90
        6
176
     1
 90
        0
176
     1
 90
        0
176
     1
290
     0
176
     1
 90
        1
176
     1
 40
0.0
176
     1
 90
        0
176
     1
290
     0
176
     1
290
     1
176
     1
290
     1
176
     1
290
     0
176
     1
290
     0
176
     1
290
     0
176
     1
290
     0
176
     1
290
     0
176
     1
290
     0
176
     1
 90
       50
176
     1
 40
0.0
176
     1
 40
1.0
176
     1
 90
        0
176
     1
 62
    18
420
        0
176
     1
 90
       50
176
     1
 90
        3
176
     1
 62
     5
420
      255
176
     1
290
     0
176
     1
 90
       50
176
     1
 90
       50
176
     1
 90
       50
176
     1
290
     0
176
     1
 90
       50
176
     1
 62
   256
176
     0
 40
1.0
176
     0
 90
        2
176
     1
  1
strokes_ogs.tif
176
     1
290
     0
176
     1
 40
1.0
176
     1
 40
1.0
176
     1
  0
VISUALSTYLE
  5
37
102
{ACAD_REACTORS
330
2A
102
}
330
2A
100
AcDbVisualStyle
  2
Thicken
 70
    13
177
     3
291
     1
 70
    58
 90
        2
176
     1
 90
        2
176
     1
 90
        0
176
     1
 90
        0
176
     1
 40
0.6
176
     1
 40
30.0
176
     1
 62
     7
420
 16777215
176
     1
 90
        1
176
     1
 90
        4
176
     1
 62
     7
176
     1
 62
   257
176
     1
 90
        1
176
     1
 90
        1
176
     1
 40
1.0
176
     1
 90
       12
176
     1
 62
     7
176
     1
 40
1.0
176
     1
 90
        1
176
     1
 90
        6
176
     1
 90
        2
176
     1
 62
     7
176
     1
 90
        5
176
     1
 90
        0
176
     1
 90
        0
176
     1
290
     0
176
     1
 90
        1
176
     1
 40
0.0
176
     1
 90
        0
176
     1
290
     0
176
     1
290
     1
176
     1
290
     1
176
     1
290
     0
176
     1
290
     0
176
     1
290
     0
176
     1
290
     0
176
     1
290
     0
176
     1
290
     0
176
     1
 90
       50
176
     1
 40
0.0
176
     1
 40
1.0
176
     1
 90
        0
176
     1
 62
    18
420
        0
176
     1
 90
       50
176
     1
 90
        3
176
     1
 62
     5
420
      255
176
     1
290
     0
176
     1
 90
       50
176
     1
 90
       50
176
     1
 90
       50
176
     1
290
     0
176
     1
 90
       50
176
     1
 62
   256
176
     0
 40
1.0
176
     0
 90
        2
176
     1
  1
strokes_ogs.tif
176
     1
290
     0
176
     1
 40
1.0
176
     1
 40
1.0
176
     1
  0
VISUALSTYLE
  5
30
102
{ACAD_REACTORS
330
2A
102
}
330
2A
100
AcDbVisualStyle
  2
Wireframe
 70
     5
177
     3
291
     0
 70
    58
 90
        0
176
     1
 90
        2
176
     1
 90
        0
176
     1
 90
        0
176
     1
 40
0.6
176
     1
 40
30.0
176
     1
 62
     7
420
 16777215
176
     1
 90
        1
176
     1
 90
        4
176
     1
 62
     7
176
     1
 62
   257
176
     1
 90
        1
176
     1
 90
        1
176
     1
 40
1.0
176
     1
 90
        0
176
     1
 62
   257
176
     1
 40
1.0
176
     1
 90
        1
176
     1
 90
        6
176
     1
 90
        2
176
     1
 62
     7
176
     1
 90
        3
176
     1
 90
        0
176
     1
 90
        0
176
     1
290
     0
176
     1
 90
        1
176
     1
 40
0.0
176
     1
 90
        0
176
     1
290
     0
176
     1
290
     1
176
     1
290
     1
176
     1
290
     0
176
     1
290
     0
176
     1
290
     0
176
     1
290
     0
176
     1
290
     0
176
     1
290
     0
176
     1
 90
       50
176
     1
 40
0.0
176
     1
 40
1.0
176
     1
 90
        0
176
     1
 62
    18
420
        0
176
     1
 90
       50
176
     1
 90
        3
176
     1
 62
     5
420
      255
176
     1
290
     0
176
     1
 90
       50
176
     1
 90
       50
176
     1
 90
       50
176
     1
290
     0
176
     1
 90
       50
176
     1
 62
   256
176
     0
 40
1.0
176
     0
 90
        2
176
     1
  1
strokes_ogs.tif
176
     1
290
     0
176
     1
 40
1.0
176
     1
 40
1.0
176
     1
  0
VISUALSTYLE
  5
40
102
{ACAD_REACTORS
330
2A
102
}
330
2A
100
AcDbVisualStyle
  2
X-Ray
 70
    25
177
     3
291
     0
 70
    58
 90
        2
176
     1
 90
        2
176
     1
 90
        1
176
     1
 90
        1
176
     1
 40
0.5
176
     1
 40
30.0
176
     1
 62
     7
420
 16777215
176
     1
 90
        1
176
     1
 90
        0
176
     1
 62
     7
176
     1
 62
   257
176
     1
 90
        1
176
     1
 90
        1
176
     1
 40
1.0
176
     1
 90
        8
176
     1
 62
     7
176
     1
 40
1.0
176
     1
 90
        1
176
     1
 90
        6
176
     1
 90
        2
176
     1
 62
     7
176
     1
 90
        3
176
     1
 90
        0
176
     1
 90
        0
176
     1
290
     0
176
     1
 90
       13
176
     1
 40
0.0
176
     1
 90
        0
176
     1
290
     0
176
     1
290
     1
176
     1
290
     1
176
     1
290
     0
176
     1
290
     0
176
     1
290
     0
176
     1
290
     0
176
     1
290
     0
176
     1
290
     0
176
     1
 90
       50
176
     1
 40
0.0
176
     1
 40
1.0
176
     1
 90
        0
176
     1
 62
    18
420
        0
176
     1
 90
       50
176
     1
 90
        3
176
     1
 62
     5
420
      255
176
     1
290
     0
176
     1
 90
       50
176
     1
 90
       50
176
     1
 90
       50
176
     1
290
     0
176
     1
 90
       50
176
     1
 62
   256
176
     0
 40
1.0
176
     0
 90
        2
176
     1
  1
strokes_ogs.tif
176
     1
290
     0
176
     1
 40
1.0
176
     1
 40
1.0
176
     1
  0
DICTIONARYVAR
  5
4FC
102
{ACAD_REACTORS
330
4FB
102
}
330
4FB
100
DictionaryVariables
280
     0
  1
1:1
  0
DICTIONARYVAR
  5
501
102
{ACAD_REACTORS
330
4FB
102
}
330
4FB
100
DictionaryVariables
280
     0
  1
Standard
  0
DICTIONARYVAR
  5
500
102
{ACAD_REACTORS
330
4FB
102
}
330
4FB
100
DictionaryVariables
280
     0
  1
Standard
  0
DICTIONARY
  5
4FD
330
6A
100
AcDbDictionary
280
     1
281
     1
  3
ACAD_ROUNDTRIP_2008_TABLESTYLE_CELLSTYLEMAP
360
4FE
  0
CELLSTYLEMAP
  5
4FE
102
{ACAD_REACTORS
330
4FD
102
}
330
4FD
100
AcDbCellStyleMap
 90
        3
300
CELLSTYLE
  1
TABLEFORMAT_BEGIN
 90
        5
170
     1
 91
        0
 92
    32768
 62
   257
 93
        1
300
CONTENTFORMAT
  1
CONTENTFORMAT_BEGIN
 90
        0
 91
        0
 92
        4
 93
        0
300

 40
0.0
140
1.0
 94
        5
 62
     0
340
11
144
0.25
309
CONTENTFORMAT_END
171
     1
301
MARGIN
  1
CELLMARGIN_BEGIN
 40
0.06
 40
0.06
 40
0.06
 40
0.06
 40
0.06
 40
0.06
309
CELLMARGIN_END
 94
        6
 95
        1
302
GRIDFORMAT
  1
GRIDFORMAT_BEGIN
 90
        0
 91
        1
 62
     0
 92
       -2
340
14
 93
        0
 40
0.045
309
GRIDFORMAT_END
 95
        2
302
GRIDFORMAT
  1
GRIDFORMAT_BEGIN
 90
        0
 91
        1
 62
     0
 92
       -2
340
14
 93
        0
 40
0.045
309
GRIDFORMAT_END
 95
        4
302
GRIDFORMAT
  1
GRIDFORMAT_BEGIN
 90
        0
 91
        1
 62
     0
 92
       -2
340
14
 93
        0
 40
0.045
309
GRIDFORMAT_END
 95
        8
302
GRIDFORMAT
  1
GRIDFORMAT_BEGIN
 90
        0
 91
        1
 62
     0
 92
       -2
340
14
 93
        0
 40
0.045
309
GRIDFORMAT_END
 95
       16
302
GRIDFORMAT
  1
GRIDFORMAT_BEGIN
 90
        0
 91
        1
 62
     0
 92
       -2
340
14
 93
        0
 40
0.045
309
GRIDFORMAT_END
 95
       32
302
GRIDFORMAT
  1
GRIDFORMAT_BEGIN
 90
        0
 91
        1
 62
     0
 92
       -2
340
14
 93
        0
 40
0.045
309
GRIDFORMAT_END
309
TABLEFORMAT_END
  1
CELLSTYLE_BEGIN
 90
        1
 91
        1
300
_TITLE
309
CELLSTYLE_END
300
CELLSTYLE
  1
TABLEFORMAT_BEGIN
 90
        5
170
     1
 91
        0
 92
        0
 62
   257
 93
        1
300
CONTENTFORMAT
  1
CONTENTFORMAT_BEGIN
 90
        0
 91
        0
 92
        4
 93
        0
300

 40
0.0
140
1.0
 94
        5
 62
     0
340
11
144
0.18
309
CONTENTFORMAT_END
171
     1
301
MARGIN
  1
CELLMARGIN_BEGIN
 40
0.06
 40
0.06
 40
0.06
 40
0.06
 40
0.06
 40
0.06
309
CELLMARGIN_END
 94
        6
 95
        1
302
GRIDFORMAT
  1
GRIDFORMAT_BEGIN
 90
        0
 91
        1
 62
     0
 92
       -2
340
14
 93
        0
 40
0.045
309
GRIDFORMAT_END
 95
        2
302
GRIDFORMAT
  1
GRIDFORMAT_BEGIN
 90
        0
 91
        1
 62
     0
 92
       -2
340
14
 93
        0
 40
0.045
309
GRIDFORMAT_END
 95
        4
302
GRIDFORMAT
  1
GRIDFORMAT_BEGIN
 90
        0
 91
        1
 62
     0
 92
       -2
340
14
 93
        0
 40
0.045
309
GRIDFORMAT_END
 95
        8
302
GRIDFORMAT
  1
GRIDFORMAT_BEGIN
 90
        0
 91
        1
 62
     0
 92
       -2
340
14
 93
        0
 40
0.045
309
GRIDFORMAT_END
 95
       16
302
GRIDFORMAT
  1
GRIDFORMAT_BEGIN
 90
        0
 91
        1
 62
     0
 92
       -2
340
14
 93
        0
 40
0.045
309
GRIDFORMAT_END
 95
       32
302
GRIDFORMAT
  1
GRIDFORMAT_BEGIN
 90
        0
 91
        1
 62
     0
 92
       -2
340
14
 93
        0
 40
0.045
309
GRIDFORMAT_END
309
TABLEFORMAT_END
  1
CELLSTYLE_BEGIN
 90
        2
 91
        1
300
_HEADER
309
CELLSTYLE_END
300
CELLSTYLE
  1
TABLEFORMAT_BEGIN
 90
        5
170
     1
 91
        0
 92
        0
 62
   257
 93
        1
300
CONTENTFORMAT
  1
CONTENTFORMAT_BEGIN
 90
        0
 91
        0
 92
        4
 93
        0
300

 40
0.0
140
1.0
 94
        2
 62
     0
340
11
144
0.18
309
CONTENTFORMAT_END
171
     1
301
MARGIN
  1
CELLMARGIN_BEGIN
 40
0.06
 40
0.06
 40
0.06
 40
0.06
 40
0.06
 40
0.06
309
CELLMARGIN_END
 94
        6
 95
        1
302
GRIDFORMAT
  1
GRIDFORMAT_BEGIN
 90
        0
 91
        1
 62
     0
 92
       -2
340
14
 93
        0
 40
0.045
309
GRIDFORMAT_END
 95
        2
302
GRIDFORMAT
  1
GRIDFORMAT_BEGIN
 90
        0
 91
        1
 62
     0
 92
       -2
340
14
 93
        0
 40
0.045
309
GRIDFORMAT_END
 95
        4
302
GRIDFORMAT
  1
GRIDFORMAT_BEGIN
 90
        0
 91
        1
 62
     0
 92
       -2
340
14
 93
        0
 40
0.045
309
GRIDFORMAT_END
 95
        8
302
GRIDFORMAT
  1
GRIDFORMAT_BEGIN
 90
        0
 91
        1
 62
     0
 92
       -2
340
14
 93
        0
 40
0.045
309
GRIDFORMAT_END
 95
       16
302
GRIDFORMAT
  1
GRIDFORMAT_BEGIN
 90
        0
 91
        1
 62
     0
 92
       -2
340
14
 93
        0
 40
0.045
309
GRIDFORMAT_END
 95
       32
302
GRIDFORMAT
  1
GRIDFORMAT_BEGIN
 90
        0
 91
        1
 62
     0
 92
       -2
340
14
 93
        0
 40
0.045
309
GRIDFORMAT_END
309
TABLEFORMAT_END
  1
CELLSTYLE_BEGIN
 90
        3
 91
        2
300
_DATA
309
CELLSTYLE_END
  0
ENDSEC
  0
EOF
