  0
SECTION
  2
HEADER
  9
$ACADVER
  1
AC1003
  9
$INSBASE
 10
0.000000
 20
0.000000
  9
$EXTMIN
 10
0.000000
 20
0.000000
  9
$EXTMAX
 10
3780.000000
 20
2673.000000
  9
$LIMMIN
 10
0.000000
 20
0.000000
  9
$LIMMAX
 10
3780.000000
 20
2673.000000
  9
$VIEWCTR
 10
1890.000000
 20
1336.500000
  9
$VIEWSIZE
 40
2673.000000
  9
$PEXTMIN
 10
0.000000
 20
0.000000
 30
0.000000
  9
$PEXTMAX
 10
420.000000
 20
297.000000
 30
0.000000
  9
$SNAPMODE
 70
     0
  9
$SNAPUNIT
 10
1.000000
 20
1.000000
  9
$SNAPBASE
 10
0.000000
 20
0.000000
  9
$SNAPANG
 50
0.000000
  9
$SNAPISOPAIR
 70
     0
  9
$SNAPSTYLE
 70
     0
  9
$GRIDMODE
 70
     0
  9
$GRIDUNIT
 10
0.000000
 20
0.000000
  9
$ORTHOMODE
 70
     0
  9
$REGENMODE
 70
     1
  9
$FILLMODE
 70
     1
  9
$QTEXTMODE
 70
     0
  9
$DRAGMODE
 70
     2
  9
$LTSCALE
 40
2.250000
  9
$OSMODE
 70
     0
  9
$ATTMODE
 70
     1
  9
$TEXTSIZE
 40
0.200000
  9
$TRACEWID
 40
0.050000
  9
$TEXTSTYLE
  7
STANDARD
  9
$CLAYER
  8
0
  9
$CELTYPE
  6
BYLAYER
  9
$CECOLOR
 62
   256
  9
$DIMSCALE
 40
1.000000
  9
$DIMASZ
 40
1.000000
  9
$DIMEXO
 40
0.000000
  9
$DIMDLI
 40
0.500000
  9
$DIMRND
 40
0.000000
  9
$DIMDLE
 40
0.000000
  9
$DIMEXE
 40
0.000000
  9
$DIMTP
 40
0.000000
  9
$DIMTM
 40
0.000000
  9
$DIMTXT
 40
0.180000
  9
$DIMCEN
 40
0.000000
  9
$DIMTSZ
 40
0.000000
  9
$DIMTOL
 70
     0
  9
$DIMLIM
 70
     0
  9
$DIMTIH
 70
     1
  9
$DIMTOH
 70
     1
  9
$DIMSE1
 70
     0
  9
$DIMSE2
 70
     0
  9
$DIMTAD
 70
     0
  9
$DIMZIN
 70
     0
  9
$DIMBLK
  1

  9
$DIMASO
 70
     0
  9
$DIMSHO
 70
     0
  9
$DIMPOST
  1

  9
$DIMAPOST
  1

  9
$DIMALT
 70
     0
  9
$DIMALTD
 70
     0
  9
$DIMALTF
 40
25.400000
  9
$DIMLFAC
 40
1.000000
  9
$DIMTOFL
 70
     0
  9
$DIMTVP
 40
0.000000
  9
$DIMTIX
 70
     0
  9
$DIMSOXD
 70
     0
  9
$DIMSAH
 70
     0
  9
$DIMBLKL
  1

  9
$DIMBLKR
  1

  9
$LUNITS
 70
     2
  9
$LUPREC
 70
     2
  9
$AXISMODE
 70
     0
  9
$AXISUNIT
 10
1.000000
 20
1.000000
  9
$SKETCHINC
 40
0.000000
  9
$FILLETRAD
 40
0.000000
  9
$AUNITS
 70
     1
  9
$AUPREC
 70
     2
  9
$MENU
  1
ACAD
  9
$ELEVATION
 40
0.000000
  9
$THICKNESS
 40
0.000000
  9
$VIEWDIR
 10
0.000000
 20
0.000000
 30
1.000000
  9
$LIMCHECK
 70
     1
  9
$BLIPMODE
 70
     1
  9
$CHAMFERA
 40
0.000000
  9
$CHAMFERB
 40
0.000000
  9
$FASTZOOM
 70
     1
  9
$SKPOLY
 70
     0
  9
$TDCREATE
 40
0.000000
  9
$TDUPDATE
 40
0.000000
  9
$TDINDWG
 40
0.000000
  9
$TDUSRTIMER
 40
0.000000
  9
$USRTIMER
 70
     1
  9
$ANGBASE
 50
0.000000
  9
$ANGDIR
 70
     0
  9
$PDMODE
 70
     0
  9
$PDSIZE
 40
0.000000
  9
$PLINEWID
 40
0.000000
  9
$COORDS
 70
     2
  9
$USERI1
 70
     0
  9
$USERI2
 70
     0
  9
$USERI3
 70
     0
  9
$USERI4
 70
     0
  9
$USERI5
 70
     0
  9
$USERR1
 40
0.000000
  9
$USERR2
 40
0.000000
  9
$USERR3
 40
0.000000
  9
$USERR4
 40
0.000000
  9
$USERR5
 40
0.000000
  0
ENDSEC
  0
SECTION
  2
TABLES
  0
TABLE
  2
LTYPE
 70
     5
  0
LTYPE
  2
CONTINUOUS
 70
    64
  3
Solid line
 72
    65
 73
     0
 40
0.0
  0
LTYPE
  2
HIDDEN
 70
    64
  3
------------------------
 72
    65
 73
     2
 40
12.6
 49
8.4
 49
-4.2
  0
LTYPE
  2
DOT
 70
    64
  3
････････････････････････
 72
    65
 73
     2
 40
8.0
 49
6.0
 49
-2.0
  0
LTYPE
  2
DASHDOT
 70
    64
  3
--･--･--･--･--･--･--･--
 72
    65
 73
     4
 40
50.5
 49
30.0
 49
-9.0
 49
2.5
 49
-9.0
  0
LTYPE
  2
DIVIDE
 70
    64
  3
--･･--･･--･･--･･--･･--
 72
    65
 73
     6
 40
58.0
 49
30.0
 49
-9.0
 49
2.5
 49
-5.0
 49
2.5
 49
-9.0
  0
ENDTAB
  0
TABLE
  2
LAYER
 70
2
  0
LAYER
  2
1
 70
64
 62
7
  6
CONTINUOUS
  0
LAYER
  2
15
 70
64
 62
96
  6
CONTINUOUS
  0
ENDTAB
  0
TABLE
  2
STYLE
 70
     2
  0
STYLE
  2
STANDARD
 70
    64
 40
0.0
 41
1.0
 50
0.0
 71
     0
 42
0.2
  3
TXT
  4

  0
STYLE
  2
KANJI
 70
    64
 40
0.0
 41
1.0
 50
0.0
 71
     0
 42
0.2
  3
TXT
  4
BIGFONT
  0
ENDTAB
  0
TABLE
  2
VIEW
 70
     0
  0
ENDTAB
  0
ENDSEC
  0
SECTION
  2
BLOCKS
  0
BLOCK
  8
1
 62
7
  6
CONTINUOUS
  2
*D1
 70
    65
 10
0.0
 20
0.0
  0
LINE
  8
1
 62
7
  6
CONTINUOUS
 10
450.023230
 20
1789.599599
 11
1150.022924
 21
1789.599599
  0
LINE
  8
1
 62
7
  6
CONTINUOUS
 10
450.023230
 20
1807.599599
 11
450.023230
 21
1647.599599
  0
LINE
  8
1
 62
7
  6
CONTINUOUS
 10
1150.022924
 20
1807.599599
 11
1150.022924
 21
1647.599599
  0
LINE
  8
1
 62
7
  6
CONTINUOUS
 10
450.023230
 20
1789.599599
 11
470.887227
 21
1795.190091
  0
LINE
  8
1
 62
7
  6
CONTINUOUS
 10
450.023230
 20
1789.599599
 11
470.887227
 21
1784.009108
  0
LINE
  8
1
 62
7
  6
CONTINUOUS
 10
1150.022924
 20
1789.599599
 11
1129.158926
 21
1784.009108
  0
LINE
  8
1
 62
7
  6
CONTINUOUS
 10
1150.022924
 20
1789.599599
 11
1129.158926
 21
1795.190091
  0
TEXT
  8
1
 62
7
  6
CONTINUOUS
 10
777.973077
 20
1794.099599
 40
27.000000
 41
0.566667
  1
700
  7
KANJI
 50
0.000000
 51
0.000000
  0
ENDBLK
  0
BLOCK
  8
1
 62
7
  6
CONTINUOUS
  2
*D2
 70
    65
 10
0.0
 20
0.0
  0
LINE
  8
1
 62
7
  6
CONTINUOUS
 10
1310.022924
 20
1629.599599
 11
1310.022924
 21
729.600000
  0
LINE
  8
1
 62
7
  6
CONTINUOUS
 10
1328.022924
 20
1629.599599
 11
1168.022924
 21
1629.599599
  0
LINE
  8
1
 62
7
  6
CONTINUOUS
 10
1328.022924
 20
729.600000
 11
1168.022924
 21
729.600000
  0
LINE
  8
1
 62
7
  6
CONTINUOUS
 10
1310.022924
 20
1629.599599
 11
1315.613416
 21
1608.735602
  0
LINE
  8
1
 62
7
  6
CONTINUOUS
 10
1310.022924
 20
1629.599599
 11
1304.432433
 21
1608.735602
  0
LINE
  8
1
 62
7
  6
CONTINUOUS
 10
1310.022924
 20
729.600000
 11
1304.432433
 21
750.463998
  0
LINE
  8
1
 62
7
  6
CONTINUOUS
 10
1310.022924
 20
729.600000
 11
1315.613416
 21
750.463998
  0
TEXT
  8
1
 62
7
  6
CONTINUOUS
 10
1305.522924
 20
1157.549800
 40
27.000000
 41
0.566667
  1
900
  7
KANJI
 50
90.000000
 51
0.000000
  0
ENDBLK
  0
BLOCK
  8
1
 62
7
  6
CONTINUOUS
  2
*D3
 70
    65
 10
0.0
 20
0.0
  0
LINE
  8
1
 62
7
  6
CONTINUOUS
 10
1400.022924
 20
1789.599599
 11
1600.022924
 21
1789.599599
  0
LINE
  8
1
 62
7
  6
CONTINUOUS
 10
1400.022924
 20
1807.599599
 11
1400.022924
 21
1647.599599
  0
LINE
  8
1
 62
7
  6
CONTINUOUS
 10
1600.022924
 20
1807.599599
 11
1600.022924
 21
1647.599599
  0
LINE
  8
1
 62
7
  6
CONTINUOUS
 10
1400.022924
 20
1789.599599
 11
1420.886922
 21
1795.190091
  0
LINE
  8
1
 62
7
  6
CONTINUOUS
 10
1400.022924
 20
1789.599599
 11
1420.886922
 21
1784.009108
  0
LINE
  8
1
 62
7
  6
CONTINUOUS
 10
1600.022924
 20
1789.599599
 11
1579.158926
 21
1784.009108
  0
LINE
  8
1
 62
7
  6
CONTINUOUS
 10
1600.022924
 20
1789.599599
 11
1579.158926
 21
1795.190091
  0
TEXT
  8
1
 62
7
  6
CONTINUOUS
 10
1477.972924
 20
1794.099599
 40
27.000000
 41
0.566667
  1
200
  7
KANJI
 50
0.000000
 51
0.000000
  0
ENDBLK
  0
BLOCK
  8
1
 62
7
  6
CONTINUOUS
  2
*D4
 70
    65
 10
0.0
 20
0.0
  0
LINE
  8
1
 62
7
  6
CONTINUOUS
 10
1777.700000
 20
1789.599599
 11
2437.700000
 21
1789.599599
  0
LINE
  8
1
 62
7
  6
CONTINUOUS
 10
1777.700000
 20
1807.599599
 11
1777.700000
 21
1602.882847
  0
LINE
  8
1
 62
7
  6
CONTINUOUS
 10
2437.700000
 20
1807.599599
 11
2437.700000
 21
1602.882847
  0
LINE
  8
1
 62
7
  6
CONTINUOUS
 10
1777.700000
 20
1789.599599
 11
1798.563998
 21
1795.190091
  0
LINE
  8
1
 62
7
  6
CONTINUOUS
 10
1777.700000
 20
1789.599599
 11
1798.563998
 21
1784.009108
  0
LINE
  8
1
 62
7
  6
CONTINUOUS
 10
2437.700000
 20
1789.599599
 11
2416.836002
 21
1784.009108
  0
LINE
  8
1
 62
7
  6
CONTINUOUS
 10
2437.700000
 20
1789.599599
 11
2416.836002
 21
1795.190091
  0
TEXT
  8
1
 62
7
  6
CONTINUOUS
 10
2085.650000
 20
1794.099599
 40
27.000000
 41
0.566667
  1
660
  7
KANJI
 50
0.000000
 51
0.000000
  0
ENDBLK
  0
BLOCK
  8
1
 62
7
  6
CONTINUOUS
  2
*D5
 70
    65
 10
0.0
 20
0.0
  0
LINE
  8
1
 62
7
  6
CONTINUOUS
 10
2623.100000
 20
1569.599599
 11
2623.100000
 21
789.599599
  0
LINE
  8
1
 62
7
  6
CONTINUOUS
 10
2641.100000
 20
1569.599599
 11
2470.690420
 21
1569.599599
  0
LINE
  8
1
 62
7
  6
CONTINUOUS
 10
2641.100000
 20
789.599599
 11
2470.690420
 21
789.599599
  0
LINE
  8
1
 62
7
  6
CONTINUOUS
 10
2623.100000
 20
1569.599599
 11
2628.690491
 21
1548.735602
  0
LINE
  8
1
 62
7
  6
CONTINUOUS
 10
2623.100000
 20
1569.599599
 11
2617.509509
 21
1548.735602
  0
LINE
  8
1
 62
7
  6
CONTINUOUS
 10
2623.100000
 20
789.599599
 11
2617.509509
 21
810.463597
  0
LINE
  8
1
 62
7
  6
CONTINUOUS
 10
2623.100000
 20
789.599599
 11
2628.690491
 21
810.463597
  0
TEXT
  8
1
 62
7
  6
CONTINUOUS
 10
2618.600000
 20
1157.549599
 40
27.000000
 41
0.566667
  1
780
  7
KANJI
 50
90.000000
 51
0.000000
  0
ENDBLK
  0
ENDSEC
  0
SECTION
  2
ENTITIES
  0
LINE
  8
15
 62
96
  6
CONTINUOUS
 10
90.000000
 20
2389.500000
 11
90.000000
 21
76.500000
  0
LINE
  8
15
 62
96
  6
CONTINUOUS
 10
90.000000
 20
76.500000
 11
3555.000000
 21
76.500000
  0
LINE
  8
15
 62
96
  6
CONTINUOUS
 10
90.000000
 20
2389.500000
 11
3555.000000
 21
2389.500000
  0
LINE
  8
15
 62
96
  6
CONTINUOUS
 10
3555.000000
 20
2389.500000
 11
3555.000000
 21
76.500000
  0
LINE
  8
15
 62
96
  6
CONTINUOUS
 10
3234.028330
 20
127.800862
 11
3121.864366
 21
127.800862
  0
TEXT
  8
15
 62
96
  6
CONTINUOUS
 10
2961.995181
 20
118.707821
 40
16.200000
 41
1.222222
  1
出入管理システム
  7
KANJI
 50
0.000000
 51
0.000000
  0
TEXT
  8
15
 62
96
  6
CONTINUOUS
 10
2962.630201
 20
83.781707
 40
32.400000
 41
2.138889
  1
株式会社
  7
KANJI
 50
0.000000
 51
0.000000
  0
LINE
  8
15
 62
96
  6
CONTINUOUS
 10
2783.611212
 20
84.407048
 11
2812.112881
 21
84.407048
  0
LINE
  8
15
 62
96
  6
CONTINUOUS
 10
2951.328849
 20
119.044385
 11
2951.328849
 21
129.982474
  0
LINE
  8
15
 62
96
  6
CONTINUOUS
 10
2939.479286
 20
119.044385
 11
2951.328849
 21
119.044385
  0
LINE
  8
15
 62
96
  6
CONTINUOUS
 10
2939.479286
 20
84.407048
 11
2939.479286
 21
119.044385
  0
LINE
  8
15
 62
96
  6
CONTINUOUS
 10
2926.718148
 20
84.407048
 11
2939.479286
 21
84.407048
  0
LINE
  8
15
 62
96
  6
CONTINUOUS
 10
2919.049705
 20
84.407048
 11
2903.018921
 21
84.407048
  0
LINE
  8
15
 62
96
  6
CONTINUOUS
 10
2836.478771
 20
84.407048
 11
2875.673618
 21
84.407048
  0
LINE
  8
15
 62
96
  6
CONTINUOUS
 10
2836.478771
 20
103.548725
 11
2836.478771
 21
84.407048
  0
LINE
  8
15
 62
96
  6
CONTINUOUS
 10
2812.112881
 20
84.407048
 11
2856.531962
 21
128.386330
  0
LINE
  8
15
 62
96
  6
CONTINUOUS
 10
2856.531962
 20
128.386330
 11
2856.531962
 21
103.548725
  0
LINE
  8
15
 62
96
  6
CONTINUOUS
 10
2856.531962
 20
103.548725
 11
2836.478771
 21
103.548725
  0
LINE
  8
15
 62
96
  6
CONTINUOUS
 10
2875.673618
 20
109.929283
 11
2903.018921
 21
84.407048
  0
ARC
  8
15
 62
96
  6
CONTINUOUS
 10
2897.549857
 20
114.486834
 40
4.557551
 50
-90.000000
 51
90.000000
  0
LINE
  8
15
 62
96
  6
CONTINUOUS
 10
2875.673618
 20
109.929283
 11
2897.549857
 21
109.929283
  0
LINE
  8
15
 62
96
  6
CONTINUOUS
 10
2879.319674
 20
119.044385
 11
2897.549857
 21
119.044385
  0
LINE
  8
15
 62
96
  6
CONTINUOUS
 10
2879.319674
 20
129.982474
 11
2879.319674
 21
119.044385
  0
LINE
  8
15
 62
96
  6
CONTINUOUS
 10
2879.319674
 20
129.982474
 11
2901.004007
 21
129.982474
  0
ARC
  8
15
 62
96
  6
CONTINUOUS
 10
2899.276912
 20
114.486834
 40
15.591593
 50
-76.055153
 51
83.640296
  0
LINE
  8
15
 62
96
  6
CONTINUOUS
 10
2903.018921
 20
99.369126
 11
2919.049705
 21
84.407048
  0
LINE
  8
15
 62
96
  6
CONTINUOUS
 10
2951.328849
 20
129.982474
 11
2914.868504
 21
129.982474
  0
LINE
  8
15
 62
96
  6
CONTINUOUS
 10
2914.868504
 20
129.982474
 11
2914.868504
 21
119.044385
  0
LINE
  8
15
 62
96
  6
CONTINUOUS
 10
2914.868504
 20
119.044385
 11
2926.718148
 21
119.044385
  0
LINE
  8
15
 62
96
  6
CONTINUOUS
 10
2926.718148
 20
119.044385
 11
2926.718148
 21
84.407048
  0
TEXT
  8
15
 62
96
  6
CONTINUOUS
 10
2748.879239
 20
455.540240
 40
22.499999
 41
1.080000
  1
型　式
  7
KANJI
 50
0.000000
 51
0.000000
  0
TEXT
  8
15
 62
96
  6
CONTINUOUS
 10
2748.879239
 20
373.091627
 40
22.499999
 41
1.080000
  1
製品名
  7
KANJI
 50
0.000000
 51
0.000000
  0
LINE
  8
15
 62
96
  6
CONTINUOUS
 10
2745.000000
 20
76.500000
 11
2745.000000
 21
481.500062
  0
LINE
  8
15
 62
96
  6
CONTINUOUS
 10
2745.000000
 20
400.500062
 11
3555.000000
 21
400.500062
  0
LINE
  8
15
 62
96
  6
CONTINUOUS
 10
2745.000000
 20
400.500000
 11
3555.000000
 21
400.500062
  0
LINE
  8
15
 62
96
  6
CONTINUOUS
 10
3555.000000
 20
184.500062
 11
2745.000000
 21
184.500000
  0
LINE
  8
15
 62
96
  6
CONTINUOUS
 10
2745.000000
 20
319.500000
 11
3552.287014
 21
319.500000
  0
LINE
  8
15
 62
96
  6
CONTINUOUS
 10
2745.000000
 20
481.500062
 11
3555.000000
 21
481.500062
  0
LINE
  8
15
 62
96
  6
CONTINUOUS
 10
2875.673618
 20
84.407048
 11
2875.673618
 21
175.557919
  0
LINE
  8
15
 62
96
  6
CONTINUOUS
 10
2875.673618
 20
175.557919
 11
2783.611212
 21
84.407048
  0
LINE
  8
15
 62
96
  6
CONTINUOUS
 10
2873.274427
 20
173.182484
 11
2875.673618
 21
173.182484
  0
TEXT
  8
15
 62
96
  6
CONTINUOUS
 10
3253.579374
 20
79.981904
 40
90.000000
 41
1.000000
  1
アート
  7
KANJI
 50
0.000000
 51
0.000000
  0
LINE
  8
15
 62
96
  6
CONTINUOUS
 10
2970.000000
 20
2389.500000
 11
2970.000000
 21
2340.000000
  0
LINE
  8
15
 62
96
  6
CONTINUOUS
 10
2745.000000
 20
2340.000000
 11
3555.000000
 21
2340.000000
  0
LINE
  8
15
 62
96
  6
CONTINUOUS
 10
2745.000000
 20
2290.500000
 11
3555.000000
 21
2290.500000
  0
LINE
  8
15
 62
96
  6
CONTINUOUS
 10
2745.000000
 20
2389.500000
 11
2745.000000
 21
594.000062
  0
LINE
  8
15
 62
96
  6
CONTINUOUS
 10
2745.000000
 20
481.500062
 11
2745.000000
 21
594.000062
  0
LINE
  8
15
 62
96
  6
CONTINUOUS
 10
2745.000000
 20
2191.500000
 11
3555.000000
 21
2191.500000
  0
LINE
  8
15
 62
96
  6
CONTINUOUS
 10
3555.000000
 20
2142.000000
 11
2745.000000
 21
2142.000000
  0
LINE
  8
15
 62
96
  6
CONTINUOUS
 10
3555.000000
 20
2241.000000
 11
2745.000000
 21
2241.000000
  0
TEXT
  8
15
 62
96
  6
DIVIDE
 10
2790.000000
 20
2351.250000
 40
27.000000
 41
1.000000
  1
商品コード
  7
KANJI
 50
0.000000
 51
0.000000
  0
TEXT
  8
15
 62
96
  6
DIVIDE
 10
3055.500000
 20
2301.750000
 40
27.000000
 41
1.000000
  1
定　　　　　格
  7
KANJI
 50
0.000000
 51
0.000000
  0
TEXT
  8
15
 62
96
  6
DIVIDE
 10
2817.000000
 20
2202.750000
 40
27.000000
 41
1.000000
  1
材　質
  7
KANJI
 50
0.000000
 51
0.000000
  0
TEXT
  8
15
 62
96
  6
DIVIDE
 10
2817.000000
 20
2153.250000
 40
27.000000
 41
1.000000
  1
仕　上
  7
KANJI
 50
0.000000
 51
0.000000
  0
TEXT
  8
15
 62
96
  6
DIVIDE
 10
2817.000000
 20
2252.250000
 40
27.000000
 41
1.000000
  1
筐　体
  7
KANJI
 50
0.000000
 51
0.000000
  0
TEXT
  8
15
 62
96
  6
DIVIDE
 10
3208.500000
 20
2153.250000
 40
27.000000
 41
1.000000
  1
粉体塗装
  7
KANJI
 50
0.000000
 51
0.000000
  0
LINE
  8
15
 62
96
  6
CONTINUOUS
 10
3555.000000
 20
593.938892
 11
3555.000000
 21
903.821817
  0
LINE
  8
15
 62
96
  6
CONTINUOUS
 10
3555.000000
 20
594.000062
 11
3555.000000
 21
906.106221
  0
LINE
  8
15
 62
96
  6
CONTINUOUS
 10
3555.000000
 20
720.000185
 11
3555.000000
 21
807.300144
  0
LINE
  8
15
 62
96
  6
CONTINUOUS
 10
3554.968677
 20
975.567071
 11
3554.968677
 21
994.749995
  0
LINE
  8
15
 62
96
  6
CONTINUOUS
 10
3554.968677
 20
893.778267
 11
3554.968677
 21
1208.534400
  0
LINE
  8
15
 62
96
  6
CONTINUOUS
 10
3554.937355
 20
995.655328
 11
3554.937355
 21
1691.529830
  0
LINE
  8
15
 62
96
  6
CONTINUOUS
 10
2745.000000
 20
481.500062
 11
3555.000000
 21
481.500062
  0
LINE
  8
15
 62
96
  6
CONTINUOUS
 10
2744.754099
 20
526.635616
 11
3554.992976
 21
526.635616
  0
TEXT
  8
15
 62
96
  6
CONTINUOUS
 10
2800.570555
 20
488.374335
 40
27.007963
 41
1.133333
  1
図面履歴
  7
KANJI
 50
-0.000000
 51
0.000000
  0
LINE
  8
15
 62
96
  6
CONTINUOUS
 10
2744.754099
 20
526.635616
 11
3554.992976
 21
526.635616
  0
TEXT
  8
15
 62
96
  6
CONTINUOUS
 10
2800.570555
 20
488.374335
 40
27.007963
 41
1.133333
  1
図面履歴
  7
KANJI
 50
-0.000000
 51
0.000000
  0
LINE
  8
15
 62
96
  6
CONTINUOUS
 10
2969.820453
 20
526.635616
 11
2969.820453
 21
481.477500
  0
LINE
  8
15
 62
96
  6
CONTINUOUS
 10
2969.820453
 20
526.635616
 11
2969.820453
 21
481.477500
  0
LINE
  8
15
 62
96
  6
CONTINUOUS
 10
3552.287014
 20
238.500062
 11
2745.000000
 21
238.500000
  0
TEXT
  8
15
 62
96
  6
CONTINUOUS
 10
2751.711946
 20
293.232812
 40
22.499999
 41
1.080000
  1
縮尺（Ａ３）
  7
KANJI
 50
0.000000
 51
0.000000
  0
TEXT
  8
15
 62
96
  6
CONTINUOUS
 10
3339.482775
 20
291.139527
 40
22.499999
 41
1.080000
  1
作図
  7
KANJI
 50
0.000000
 51
0.000000
  0
LINE
  8
15
 62
96
  6
CONTINUOUS
 10
3105.000000
 20
319.500000
 11
3105.000000
 21
238.500028
  0
LINE
  8
15
 62
96
  6
CONTINUOUS
 10
3330.000000
 20
319.500000
 11
3330.000000
 21
238.500045
  0
TEXT
  8
15
 62
96
  6
CONTINUOUS
 10
3111.398547
 20
294.082550
 40
22.499999
 41
1.080000
  1
検図
  7
KANJI
 50
0.000000
 51
0.000000
  0
TEXT
  8
15
 62
96
  6
CONTINUOUS
 10
2891.211959
 20
293.232812
 40
22.499999
 41
1.080000
  1
承認
  7
KANJI
 50
0.000000
 51
0.000000
  0
TEXT
  8
15
 62
96
  6
CONTINUOUS
 10
2944.755000
 20
251.127000
 40
45.000000
 41
1.080000
  1
仲代
  7
KANJI
 50
0.000000
 51
0.000000
  0
TEXT
  8
15
 62
96
  6
CONTINUOUS
 10
2764.002917
 20
198.123355
 40
22.506634
 41
1.080000
  1
図面番号
  7
KANJI
 50
0.000000
 51
0.000000
  0
LINE
  8
15
 62
96
  6
CONTINUOUS
 10
3150.060311
 20
238.534787
 11
3150.060311
 21
184.534787
  0
LINE
  8
15
 62
96
  6
CONTINUOUS
 10
3213.060311
 20
238.534831
 11
3213.060311
 21
184.534831
  0
TEXT
  8
15
 62
96
  6
CONTINUOUS
 10
3159.165307
 20
199.096222
 40
22.499999
 41
1.080000
  1
日付
  7
KANJI
 50
0.000000
 51
0.000000
  0
LINE
  8
15
 62
96
  6
CONTINUOUS
 10
3446.997666
 20
238.534809
 11
3446.997666
 21
184.534809
  0
TEXT
  8
15
 62
96
  6
CONTINUOUS
 10
2764.002917
 20
198.123355
 40
22.506634
 41
1.080000
  1
図面番号
  7
KANJI
 50
0.000000
 51
0.000000
  0
LINE
  8
15
 62
96
  6
CONTINUOUS
 10
3150.060311
 20
238.534787
 11
3150.060311
 21
184.534787
  0
LINE
  8
15
 62
96
  6
CONTINUOUS
 10
3213.060311
 20
238.534831
 11
3213.060311
 21
184.534831
  0
TEXT
  8
15
 62
96
  6
CONTINUOUS
 10
3159.165307
 20
199.096222
 40
22.499999
 41
1.080000
  1
日付
  7
KANJI
 50
0.000000
 51
0.000000
  0
LINE
  8
15
 62
96
  6
CONTINUOUS
 10
3446.997666
 20
238.534809
 11
3446.997666
 21
184.534809
  0
LINE
  8
15
 62
96
  6
CONTINUOUS
 10
3474.456204
 20
231.660053
 11
3474.456204
 21
191.340053
  0
CIRCLE
  8
15
 62
96
  6
CONTINUOUS
 10
3474.456204
 20
211.500053
 40
8.640000
  0
CIRCLE
  8
15
 62
96
  6
CONTINUOUS
 10
3474.456204
 20
211.500053
 40
14.400000
  0
LINE
  8
15
 62
96
  6
CONTINUOUS
 10
3498.209645
 20
220.140053
 11
3498.209645
 21
202.860053
  0
LINE
  8
15
 62
96
  6
CONTINUOUS
 10
3544.289645
 20
225.900053
 11
3544.289645
 21
197.100053
  0
LINE
  8
15
 62
96
  6
CONTINUOUS
 10
3498.209645
 20
220.140053
 11
3544.289645
 21
225.900053
  0
LINE
  8
15
 62
96
  6
CONTINUOUS
 10
3498.209645
 20
202.860053
 11
3544.289645
 21
197.100053
  0
LINE
  8
15
 62
96
  6
CONTINUOUS
 10
3454.296204
 20
211.500053
 11
3549.203645
 21
211.500053
  0
LINE
  8
15
 62
96
  6
CONTINUOUS
 10
2880.000000
 20
319.500000
 11
2880.000000
 21
184.499963
  0
TEXT
  8
15
 62
96
  6
CONTINUOUS
 10
2770.506269
 20
252.085092
 40
27.000000
 41
1.000000
  1
１：９
  7
KANJI
 50
0.000000
 51
0.000000
  0
LINE
  8
1
 62
7
  6
CONTINUOUS
 10
470.023230
 20
749.599905
 11
470.023230
 21
1609.599599
  0
LINE
  8
1
 62
7
  6
CONTINUOUS
 10
1130.023077
 20
749.599905
 11
470.023230
 21
749.599905
  0
LINE
  8
1
 62
7
  6
CONTINUOUS
 10
1130.023077
 20
1609.599599
 11
1130.023077
 21
749.599905
  0
LINE
  8
1
 62
7
  6
CONTINUOUS
 10
470.023230
 20
1609.599599
 11
1130.023077
 21
1609.599599
  0
LINE
  8
1
 62
7
  6
CONTINUOUS
 10
450.023230
 20
729.600000
 11
450.023230
 21
1629.599599
  0
LINE
  8
1
 62
7
  6
CONTINUOUS
 10
1150.022924
 20
729.600000
 11
450.023230
 21
729.600000
  0
LINE
  8
1
 62
7
  6
CONTINUOUS
 10
1150.022924
 20
1629.599599
 11
1150.022924
 21
729.600000
  0
LINE
  8
1
 62
7
  6
CONTINUOUS
 10
450.023230
 20
1629.599599
 11
1150.022924
 21
1629.599599
  0
LINE
  8
1
 62
7
  6
CONTINUOUS
 10
1415.022924
 20
1629.599599
 11
1415.022924
 21
729.600000
  0
LINE
  8
1
 62
7
  6
CONTINUOUS
 10
1600.022924
 20
729.600000
 11
1400.022924
 21
729.600000
  0
LINE
  8
1
 62
7
  6
CONTINUOUS
 10
1600.022924
 20
1629.599599
 11
1600.022924
 21
729.600000
  0
LINE
  8
1
 62
7
  6
CONTINUOUS
 10
1400.022924
 20
1629.599599
 11
1600.022924
 21
1629.599599
  0
LINE
  8
1
 62
7
  6
CONTINUOUS
 10
486.023153
 20
1179.599800
 11
404.161468
 21
1259.599800
  0
LINE
  8
1
 62
7
  6
CONTINUOUS
 10
404.161468
 20
1259.599800
 11
116.947384
 21
1259.599800
  0
TEXT
  8
1
 62
7
  6
CONTINUOUS
 10
116.947384
 20
1259.599800
 40
27.000000
 41
1.133333
  1
平面ハンドル（鍵付）
  7
KANJI
 50
0.000000
 51
0.000000
  0
LINE
  8
1
 62
7
  6
CONTINUOUS
 10
486.023153
 20
1179.599800
 11
467.194031
 21
1190.183947
  0
LINE
  8
1
 62
7
  6
CONTINUOUS
 10
486.023153
 20
1179.599800
 11
475.008729
 21
1198.180501
  0
LINE
  8
1
 62
7
  6
CONTINUOUS
 10
880.023076
 20
1572.099602
 11
880.023076
 21
1547.099603
  0
LINE
  8
1
 62
7
  6
CONTINUOUS
 10
720.023076
 20
1547.099603
 11
720.023076
 21
1572.099602
  0
LINE
  8
1
 62
7
  6
CONTINUOUS
 10
720.023076
 20
1572.099602
 11
880.023076
 21
1572.099602
  0
LINE
  8
1
 62
7
  6
CONTINUOUS
 10
880.023076
 20
1547.099603
 11
720.023076
 21
1547.099603
  0
TEXT
  8
1
 62
7
  6
CONTINUOUS
 10
725.423077
 20
1551.799800
 40
16.200000
 41
1.777778
  1
センサー監視盤
  7
KANJI
 50
0.000000
 51
0.000000
  0
DIMENSION
  8
1
 62
7
  6
CONTINUOUS
  2
*D1
 10
450.023230
 20
1789.599599
 11
800.023077
 21
1794.099599
 70
     0
  1
700
 13
450.023230
 23
1647.599599
 14
1150.022924
 24
1647.599599
 50
0.000000
  0
DIMENSION
  8
1
 62
7
  6
CONTINUOUS
  2
*D2
 10
1310.022924
 20
1629.599599
 11
1305.522924
 21
1179.599800
 70
     0
  1
900
 13
1168.022924
 23
1629.599599
 14
1168.022924
 24
729.600000
 50
-90.000000
  0
DIMENSION
  8
1
 62
7
  6
CONTINUOUS
  2
*D3
 10
1400.022924
 20
1789.599599
 11
1500.022924
 21
1794.099599
 70
     0
  1
200
 13
1400.022924
 23
1647.599599
 14
1600.022924
 24
1647.599599
 50
0.000000
  0
LINE
  8
1
 62
7
  6
CONTINUOUS
 10
1400.022924
 20
1137.599800
 11
1400.022924
 21
1221.599800
  0
LINE
  8
1
 62
7
  6
CONTINUOUS
 10
1400.022924
 20
729.600000
 11
1400.022924
 21
1629.599599
  0
TEXT
  8
15
 62
96
  6
CONTINUOUS
 10
1743.027000
 20
103.500007
 40
27.000000
 41
1.078495
  1
*  記載されている会社名、製品名は、登録商標または商品です。
  7
KANJI
 50
0.000000
 51
0.000000
  0
TEXT
  8
15
 62
96
  6
DIVIDE
 10
3188.250000
 20
2202.750000
 40
27.000000
 41
0.611111
  1
SPCC　ｔ1.6
  7
KANJI
 50
0.000000
 51
0.000000
  0
TEXT
  8
15
 62
96
  6
CONTINUOUS
 10
3011.400000
 20
337.500000
 40
45.000000
 41
1.080000
  1
センサ監視盤
  7
KANJI
 50
0.000000
 51
0.000000
  0
ARC
  8
1
 62
7
  6
CONTINUOUS
 10
495.523260
 20
1155.599813
 40
4.999998
 50
-179.999964
 51
-89.997141
  0
ARC
  8
1
 62
7
  6
CONTINUOUS
 10
504.523199
 20
1155.599813
 40
4.999998
 50
-89.999982
 51
0.000000
  0
CIRCLE
  8
1
 62
7
  6
CONTINUOUS
 10
500.023230
 20
1196.099691
 40
5.999998
  0
ARC
  8
1
 62
7
  6
CONTINUOUS
 10
500.523260
 20
1197.079458
 40
6.499997
 50
0.000000
 51
62.963307
  0
ARC
  8
1
 62
7
  6
CONTINUOUS
 10
499.523199
 20
1197.079458
 40
6.499770
 50
117.034800
 51
-179.999981
  0
ARC
  8
1
 62
7
  6
CONTINUOUS
 10
500.023230
 20
1196.099691
 40
7.599828
 50
62.963252
 51
117.035128
  0
ARC
  8
1
 62
7
  6
CONTINUOUS
 10
504.523199
 20
1157.199697
 40
1.499999
 50
-89.999982
 51
0.000000
  0
ARC
  8
1
 62
7
  6
CONTINUOUS
 10
504.523199
 20
1160.699606
 40
1.499999
 50
0.000000
 51
89.999982
  0
ARC
  8
1
 62
7
  6
CONTINUOUS
 10
495.523260
 20
1157.199697
 40
1.499999
 50
-179.999964
 51
-89.990638
  0
ARC
  8
1
 62
7
  6
CONTINUOUS
 10
495.523260
 20
1160.699606
 40
1.499999
 50
89.990638
 51
-179.999981
  0
CIRCLE
  8
1
 62
7
  6
CONTINUOUS
 10
500.023230
 20
1169.099722
 40
4.249998
  0
ARC
  8
1
 62
7
  6
CONTINUOUS
 10
504.523199
 20
1155.599813
 40
2.499999
 50
-89.999982
 51
0.000000
  0
ARC
  8
1
 62
7
  6
CONTINUOUS
 10
495.523260
 20
1155.599813
 40
2.499999
 50
-179.999964
 51
-89.994354
  0
ARC
  8
1
 62
7
  6
CONTINUOUS
 10
500.023230
 20
1198.799734
 40
9.200191
 50
0.000000
 51
-179.999981
  0
ARC
  8
1
 62
7
  6
CONTINUOUS
 10
504.723394
 20
1155.599813
 40
4.499998
 50
-89.999982
 51
0.000000
  0
ARC
  8
1
 62
7
  6
CONTINUOUS
 10
495.323217
 20
1155.599813
 40
4.499998
 50
-179.999964
 51
-89.999982
  0
ARC
  8
1
 62
7
  6
CONTINUOUS
 10
500.023230
 20
1199.099722
 40
9.499996
 50
0.000000
 51
-179.999981
  0
ARC
  8
1
 62
7
  6
CONTINUOUS
 10
511.023291
 20
1140.599813
 40
2.999999
 50
-89.999982
 51
0.000000
  0
ARC
  8
1
 62
7
  6
CONTINUOUS
 10
489.023168
 20
1218.599691
 40
2.999999
 50
89.995283
 51
-179.999981
  0
ARC
  8
1
 62
7
  6
CONTINUOUS
 10
489.023168
 20
1140.599813
 40
0.500000
 50
-179.999964
 51
-89.972006
  0
ARC
  8
1
 62
7
  6
CONTINUOUS
 10
511.023291
 20
1140.599813
 40
0.500000
 50
-89.999982
 51
0.000000
  0
ARC
  8
1
 62
7
  6
CONTINUOUS
 10
511.023291
 20
1218.599691
 40
0.500000
 50
0.000000
 51
89.999982
  0
ARC
  8
1
 62
7
  6
CONTINUOUS
 10
489.023168
 20
1218.599691
 40
0.500000
 50
89.972006
 51
-179.999981
  0
ARC
  8
1
 62
7
  6
CONTINUOUS
 10
511.023291
 20
1218.599691
 40
2.999999
 50
0.000000
 51
89.999982
  0
ARC
  8
1
 62
7
  6
CONTINUOUS
 10
489.023168
 20
1140.599813
 40
2.999999
 50
-179.999964
 51
-89.995283
  0
LINE
  8
1
 62
7
  6
CONTINUOUS
 10
486.023291
 20
1218.599691
 11
486.023291
 21
1140.599813
  0
LINE
  8
1
 62
7
  6
CONTINUOUS
 10
494.023168
 20
1160.699606
 11
494.023168
 21
1157.199697
  0
LINE
  8
1
 62
7
  6
CONTINUOUS
 10
509.223364
 20
1198.799734
 11
509.223364
 21
1155.599813
  0
LINE
  8
1
 62
7
  6
CONTINUOUS
 10
490.823248
 20
1198.799734
 11
490.823248
 21
1155.599813
  0
LINE
  8
1
 62
7
  6
CONTINUOUS
 10
489.023168
 20
1137.599783
 11
511.023291
 21
1137.599783
  0
LINE
  8
1
 62
7
  6
CONTINUOUS
 10
489.023168
 20
1221.599722
 11
511.023291
 21
1221.599722
  0
LINE
  8
1
 62
7
  6
CONTINUOUS
 10
514.023168
 20
1218.599691
 11
514.023168
 21
1140.599813
  0
LINE
  8
1
 62
7
  6
CONTINUOUS
 10
506.023291
 20
1160.699606
 11
506.023291
 21
1157.199697
  0
LINE
  8
1
 62
7
  6
CONTINUOUS
 10
490.523260
 20
1199.099722
 11
490.523260
 21
1155.599813
  0
LINE
  8
1
 62
7
  6
CONTINUOUS
 10
511.523168
 20
1218.599691
 11
511.523168
 21
1140.599813
  0
LINE
  8
1
 62
7
  6
CONTINUOUS
 10
488.523291
 20
1218.599691
 11
488.523291
 21
1140.599813
  0
LINE
  8
1
 62
7
  6
CONTINUOUS
 10
489.023168
 20
1219.099722
 11
511.023291
 21
1219.099722
  0
LINE
  8
1
 62
7
  6
CONTINUOUS
 10
489.023168
 20
1140.099783
 11
511.023291
 21
1140.099783
  0
LINE
  8
1
 62
7
  6
CONTINUOUS
 10
509.523199
 20
1199.099722
 11
509.523199
 21
1155.599813
  0
LINE
  8
1
 62
7
  6
CONTINUOUS
 10
495.523260
 20
1150.599813
 11
504.523199
 21
1150.599813
  0
LINE
  8
1
 62
7
  6
CONTINUOUS
 10
495.323217
 20
1151.099844
 11
504.723394
 21
1151.099844
  0
LINE
  8
1
 62
7
  6
CONTINUOUS
 10
493.023260
 20
1197.079458
 11
493.023260
 21
1155.599813
  0
LINE
  8
1
 62
7
  6
CONTINUOUS
 10
507.023199
 20
1197.079458
 11
507.023199
 21
1155.599813
  0
LINE
  8
1
 62
7
  6
CONTINUOUS
 10
495.523260
 20
1153.099813
 11
504.523199
 21
1153.099813
  0
LINE
  8
1
 62
7
  6
CONTINUOUS
 10
495.523260
 20
1155.699606
 11
504.523199
 21
1155.699606
  0
LINE
  8
1
 62
7
  6
CONTINUOUS
 10
495.523260
 20
1162.199697
 11
504.523199
 21
1162.199697
  0
LINE
  8
1
 62
7
  6
CONTINUOUS
 10
1394.022924
 20
1199.099800
 11
1394.022924
 21
1152.599800
  0
LINE
  8
1
 62
7
  6
CONTINUOUS
 10
1395.522924
 20
1140.099800
 11
1395.522924
 21
1219.099800
  0
LINE
  8
1
 62
7
  6
CONTINUOUS
 10
1398.022924
 20
1137.599800
 11
1398.022924
 21
1221.599800
  0
LINE
  8
1
 62
7
  6
CONTINUOUS
 10
1394.022924
 20
1152.599800
 11
1395.522924
 21
1151.099800
  0
LINE
  8
1
 62
7
  6
CONTINUOUS
 10
1398.022924
 20
1137.599800
 11
1395.522924
 21
1140.099800
  0
LINE
  8
1
 62
7
  6
CONTINUOUS
 10
1400.022924
 20
1137.599800
 11
1398.022924
 21
1137.599800
  0
LINE
  8
1
 62
7
  6
CONTINUOUS
 10
1391.822924
 20
1204.771369
 11
1394.022924
 21
1199.099800
  0
LINE
  8
1
 62
7
  6
CONTINUOUS
 10
1395.522924
 20
1209.099800
 11
1391.822924
 21
1204.771369
  0
LINE
  8
1
 62
7
  6
CONTINUOUS
 10
1395.522924
 20
1219.099800
 11
1398.022924
 21
1221.599800
  0
LINE
  8
1
 62
7
  6
CONTINUOUS
 10
1398.022924
 20
1221.599800
 11
1400.022924
 21
1221.599800
  0
LINE
  8
15
 62
96
  6
CONTINUOUS
 10
2745.000000
 20
2142.000000
 11
3555.000000
 21
2142.000000
  0
LINE
  8
15
 62
96
  6
CONTINUOUS
 10
2745.000000
 20
2043.000000
 11
3555.000000
 21
2043.000000
  0
LINE
  8
15
 62
96
  6
CONTINUOUS
 10
2745.000000
 20
1993.500000
 11
3555.000000
 21
1993.500000
  0
TEXT
  8
15
 62
96
  6
DIVIDE
 10
2817.000000
 20
2004.750000
 40
27.000000
 41
1.000000
  1
重　量
  7
KANJI
 50
0.000000
 51
0.000000
  0
TEXT
  8
15
 62
96
  6
CONTINUOUS
 10
2803.500000
 20
1955.250000
 40
27.000000
 41
1.000000
  1
入力電源
  7
KANJI
 50
0.000000
 51
0.000000
  0
TEXT
  8
15
 62
96
  6
CONTINUOUS
 10
2803.500000
 20
1905.750000
 40
27.000000
 41
1.000000
  1
消費電力
  7
KANJI
 50
0.000000
 51
0.000000
  0
LINE
  8
15
 62
96
  6
CONTINUOUS
 10
2745.000000
 20
1894.500000
 11
3555.000000
 21
1894.500000
  0
LINE
  8
15
 62
96
  6
CONTINUOUS
 10
2745.000000
 20
1845.000000
 11
3555.000000
 21
1845.000000
  0
LINE
  8
15
 62
96
  6
CONTINUOUS
 10
2745.000000
 20
1795.500000
 11
3555.000000
 21
1795.500000
  0
LINE
  8
15
 62
96
  6
CONTINUOUS
 10
2745.000000
 20
1696.500000
 11
3555.000000
 21
1696.500000
  0
LINE
  8
15
 62
96
  6
CONTINUOUS
 10
2745.000000
 20
1746.000000
 11
3554.937355
 21
1746.000000
  0
LINE
  8
15
 62
96
  6
CONTINUOUS
 10
2745.000000
 20
1944.000000
 11
3555.000000
 21
1944.000000
  0
LINE
  8
15
 62
96
  6
CONTINUOUS
 10
2970.000000
 20
1845.000000
 11
2970.000000
 21
1647.000000
  0
LINE
  8
15
 62
96
  6
CONTINUOUS
 10
2745.000000
 20
1647.000000
 11
3555.000000
 21
1647.000000
  0
TEXT
  8
15
 62
96
  6
CONTINUOUS
 10
2763.000000
 20
1805.400000
 40
27.000000
 41
1.000000
  1
個別ループ入力
  7
KANJI
 50
0.000000
 51
0.000000
  0
TEXT
  8
15
 62
96
  6
CONTINUOUS
 10
2763.000000
 20
1755.900000
 40
27.000000
 41
1.000000
  1
警戒セット入力
  7
KANJI
 50
0.000000
 51
0.000000
  0
TEXT
  8
15
 62
96
  6
CONTINUOUS
 10
2756.250000
 20
1708.650000
 40
22.500000
 41
1.000000
  1
グループセット入力
  7
KANJI
 50
0.000000
 51
0.000000
  0
TEXT
  8
15
 62
96
  6
CONTINUOUS
 10
2776.500000
 20
1656.900000
 40
27.000000
 41
1.000000
  1
強制解除入力
  7
KANJI
 50
0.000000
 51
0.000000
  0
LINE
  8
15
 62
96
  6
CONTINUOUS
 10
2745.000000
 20
1597.500000
 11
3554.937355
 21
1597.500000
  0
LINE
  8
15
 62
96
  6
CONTINUOUS
 10
2745.000000
 20
1548.000000
 11
3554.937355
 21
1548.000000
  0
LINE
  8
15
 62
96
  6
CONTINUOUS
 10
2744.937355
 20
1498.500000
 11
3554.874709
 21
1498.500000
  0
TEXT
  8
15
 62
96
  6
CONTINUOUS
 10
2776.500000
 20
1557.900000
 40
27.000000
 41
1.000000
  1
個別発報出力
  7
KANJI
 50
0.000000
 51
0.000000
  0
TEXT
  8
15
 62
96
  6
CONTINUOUS
 10
2776.500000
 20
1509.300000
 40
27.000000
 41
1.000000
  1
代表発報出力
  7
KANJI
 50
0.000000
 51
0.000000
  0
TEXT
  8
15
 62
96
  6
CONTINUOUS
 10
2758.050000
 20
1462.050000
 40
22.500000
 41
1.000000
  1
グループセット出力
  7
KANJI
 50
0.000000
 51
0.000000
  0
TEXT
  8
15
 62
96
  6
CONTINUOUS
 10
3182.400000
 20
1557.900000
 40
27.000000
 41
1.000000
  1
発報時メイク
  7
KANJI
 50
0.000000
 51
0.000000
  0
TEXT
  8
15
 62
96
  6
CONTINUOUS
 10
3182.400000
 20
1511.100000
 40
27.000000
 41
1.000000
  1
発報時メイク
  7
KANJI
 50
0.000000
 51
0.000000
  0
TEXT
  8
15
 62
96
  6
CONTINUOUS
 10
3114.900000
 20
1460.700000
 40
27.000000
 41
1.000000
  1
グループセット時メイク
  7
KANJI
 50
0.000000
 51
0.000000
  0
LINE
  8
15
 62
96
  6
CONTINUOUS
 10
2745.000000
 20
1449.000000
 11
3554.937355
 21
1449.000000
  0
LINE
  8
15
 62
96
  6
CONTINUOUS
 10
2970.000000
 20
1597.500000
 11
2970.000000
 21
1449.000000
  0
TEXT
  8
15
 62
96
  6
CONTINUOUS
 10
3105.000000
 20
1807.200000
 40
27.000000
 41
1.000000
  1
メイク時ループ正常
  7
KANJI
 50
0.000000
 51
0.000000
  0
TEXT
  8
15
 62
96
  6
CONTINUOUS
 10
3104.100000
 20
1755.900000
 40
27.000000
 41
1.000000
  1
メイク時警戒セット
  7
KANJI
 50
0.000000
 51
0.000000
  0
TEXT
  8
15
 62
96
  6
CONTINUOUS
 10
3050.100000
 20
1706.400000
 40
27.000000
 41
1.000000
  1
メイク時グループ警戒セット
  7
KANJI
 50
0.000000
 51
0.000000
  0
TEXT
  8
15
 62
96
  6
CONTINUOUS
 10
3091.500000
 20
1657.800000
 40
27.000000
 41
1.000000
  1
メイク時強制警戒解除
  7
KANJI
 50
0.000000
 51
0.000000
  0
TEXT
  8
15
 62
96
  6
DIVIDE
 10
3222.000000
 20
2004.750000
 40
27.000000
 41
0.600000
  1
約60kg
  7
KANJI
 50
0.000000
 51
0.000000
  0
TEXT
  8
15
 62
96
  6
CONTINUOUS
 10
3174.750000
 20
1955.250000
 40
27.000000
 41
0.650000
  1
AC100Ｖ±10％
  7
KANJI
 50
0.000000
 51
0.000000
  0
TEXT
  8
15
 62
96
  6
CONTINUOUS
 10
3234.600000
 20
1906.200000
 40
27.000000
 41
0.666667
  1
32Ｗ
  7
KANJI
 50
0.000000
 51
0.000000
  0
TEXT
  8
15
 62
96
  6
CONTINUOUS
 10
2819.250000
 20
1608.750000
 40
27.000000
 41
0.875000
  1
外部出力　：接点容量　DC24Ｖ　0.3Ａ以下（信号用）
  7
KANJI
 50
0.000000
 51
0.000000
  0
LINE
  8
15
 62
96
  6
CONTINUOUS
 10
2744.941366
 20
1399.500000
 11
3554.941366
 21
1399.500000
  0
LINE
  8
15
 62
96
  6
CONTINUOUS
 10
2744.929492
 20
1399.500000
 11
3554.929492
 21
1399.500000
  0
LINE
  8
15
 62
96
  6
CONTINUOUS
 10
2744.929492
 20
1350.000000
 11
3554.929492
 21
1350.000000
  0
LINE
  8
15
 62
96
  6
CONTINUOUS
 10
2744.936927
 20
1304.169300
 11
3554.937355
 21
1304.169300
  0
TEXT
  8
15
 62
96
  6
CONTINUOUS
 10
2859.691366
 20
1410.750000
 40
27.000000
 41
0.895833
  1
履歴データ保存可能件数は6,000件となります。
  7
KANJI
 50
0.000000
 51
0.000000
  0
TEXT
  8
15
 62
96
  6
CONTINUOUS
 10
2900.273460
 20
1361.250000
 40
27.000000
 41
0.770833
  1
通信方式はLAN（Ethernet）を用います。
  7
KANJI
 50
0.000000
 51
0.000000
  0
TEXT
  8
15
 62
96
  6
CONTINUOUS
 10
2910.489934
 20
1313.296875
 40
27.000000
 41
1.133333
  1
センサ電源は別途ご用意ください
  7
KANJI
 50
0.000000
 51
0.000000
  0
LINE
  8
1
 62
7
  6
CONTINUOUS
 10
2858.000000
 20
2142.000000
 11
2858.000000
 21
2043.000000
  0
LINE
  8
1
 62
7
  6
CONTINUOUS
 10
2858.000000
 20
2091.500000
 11
3555.000000
 21
2091.500000
  0
TEXT
  8
15
 62
96
  6
DIVIDE
 10
2876.200000
 20
2101.900000
 40
27.000000
 41
1.000000
  1
本　体
  7
KANJI
 50
0.000000
 51
0.000000
  0
TEXT
  8
15
 62
96
  6
DIVIDE
 10
2764.800000
 20
2075.200000
 40
27.000000
 41
1.000000
  1
彩　色
  7
KANJI
 50
0.000000
 51
0.000000
  0
LINE
  8
15
 62
96
  6
CONTINUOUS
 10
2970.000000
 20
2290.500000
 11
2970.000000
 21
1894.500000
  0
TEXT
  8
15
 62
96
  6
DIVIDE
 10
3042.600000
 20
2100.800000
 40
27.000000
 41
0.800000
  1
マンセル 2.5Ｙ 9/1　近似色　半艶
  7
KANJI
 50
0.000000
 51
0.000000
  0
TEXT
  8
15
 62
96
  6
CONTINUOUS
 10
3043.600000
 20
2053.700000
 40
27.000000
 41
0.894737
  1
マンセル　Ｎ-1.0　近似色（文字部）
  7
KANJI
 50
0.000000
 51
0.000000
  0
TEXT
  8
15
 62
96
  6
DIVIDE
 10
2877.300000
 20
2053.300000
 40
27.000000
 41
1.000000
  1
銘　板
  7
KANJI
 50
0.000000
 51
0.000000
  0
TEXT
  8
15
 62
96
  6
DIVIDE
 10
3066.750000
 20
2252.250000
 40
27.000000
 41
0.763158
  1
S20-79-1C（日東工業（株）製）
  7
KANJI
 50
0.000000
 51
0.000000
  0
TEXT
  8
15
 62
96
  6
CONTINUOUS
 10
3492.500000
 20
1559.080397
 40
27.000000
 41
0.666667
  1
24点
  7
KANJI
 50
0.000000
 51
0.000000
  0
TEXT
  8
15
 62
96
  6
CONTINUOUS
 10
3492.500000
 20
1509.580397
 40
27.000000
 41
1.000000
  1
１点
  7
KANJI
 50
0.000000
 51
0.000000
  0
TEXT
  8
15
 62
96
  6
CONTINUOUS
 10
3491.600000
 20
1460.080397
 40
27.000000
 41
0.666667
  1
12点
  7
KANJI
 50
0.000000
 51
0.000000
  0
TEXT
  8
15
 62
96
  6
CONTINUOUS
 10
3491.900000
 20
1807.195150
 40
27.000000
 41
0.666667
  1
24点
  7
KANJI
 50
0.000000
 51
0.000000
  0
TEXT
  8
15
 62
96
  6
CONTINUOUS
 10
3491.900000
 20
1757.695150
 40
27.000000
 41
0.666667
  1
24点
  7
KANJI
 50
0.000000
 51
0.000000
  0
TEXT
  8
15
 62
96
  6
CONTINUOUS
 10
3491.900000
 20
1657.795150
 40
27.000000
 41
1.000000
  1
１点
  7
KANJI
 50
0.000000
 51
0.000000
  0
LINE
  8
15
 62
96
  6
CONTINUOUS
 10
3482.900000
 20
1844.995150
 11
3482.900000
 21
1647.000000
  0
LINE
  8
1
 62
7
  6
CONTINUOUS
 10
3482.500000
 20
1597.500000
 11
3482.500000
 21
1449.000000
  0
TEXT
  8
15
 62
96
  6
CONTINUOUS
 10
2961.900000
 20
418.500000
 40
45.000000
 41
1.080000
  1
ＷＳＥＮＳ－２４
  7
KANJI
 50
0.000000
 51
0.000000
  0
TEXT
  8
15
 62
96
  6
CONTINUOUS
 10
3168.000000
 20
2351.250000
 40
27.000000
 41
1.000000
  1
０１０２４１７
  7
KANJI
 50
0.000000
 51
0.000000
  0
DIMENSION
  8
1
 62
7
  6
CONTINUOUS
  2
*D4
 10
1777.700000
 20
1789.599599
 11
2107.700000
 21
1794.099599
 70
     0
  1
660
 13
1777.700000
 23
1602.882847
 14
2437.700000
 24
1602.882847
 50
0.000000
  0
TEXT
  8
15
 62
96
  6
CONTINUOUS
 10
3408.541301
 20
252.583563
 40
45.000000
 41
1.080000
  1
江辺
  7
KANJI
 50
0.000000
 51
0.000000
  0
LINE
  8
1
 62
7
  6
CONTINUOUS
 10
1757.700000
 20
729.599599
 11
1757.700000
 21
1629.599599
  0
LINE
  8
1
 62
7
  6
CONTINUOUS
 10
1757.700000
 20
1629.599599
 11
2457.700000
 21
1629.599599
  0
LINE
  8
1
 62
7
  6
CONTINUOUS
 10
2457.700000
 20
1629.599599
 11
2457.700000
 21
729.599599
  0
LINE
  8
1
 62
7
  6
CONTINUOUS
 10
2457.700000
 20
729.599599
 11
1757.700000
 21
729.599599
  0
LINE
  8
1
 62
7
  6
DASHDOT
 10
2422.709580
 20
789.599599
 11
2452.690420
 21
789.599599
  0
LINE
  8
1
 62
7
  6
DASHDOT
 10
2437.700000
 20
804.590019
 11
2437.700000
 21
774.609180
  0
CIRCLE
  8
1
 62
7
  6
CONTINUOUS
 10
2437.700000
 20
789.599599
 40
4.996807
  0
LINE
  8
1
 62
7
  6
DASHDOT
 10
1762.709580
 20
789.599599
 11
1792.690420
 21
789.599599
  0
LINE
  8
1
 62
7
  6
DASHDOT
 10
1777.700000
 20
804.590019
 11
1777.700000
 21
774.609180
  0
CIRCLE
  8
1
 62
7
  6
CONTINUOUS
 10
1777.700000
 20
789.599599
 40
4.996807
  0
LINE
  8
1
 62
7
  6
DASHDOT
 10
2422.709580
 20
1569.599599
 11
2452.690420
 21
1569.599599
  0
LINE
  8
1
 62
7
  6
DASHDOT
 10
2437.700000
 20
1584.590019
 11
2437.700000
 21
1554.609180
  0
CIRCLE
  8
1
 62
7
  6
CONTINUOUS
 10
2437.700000
 20
1569.599599
 40
4.996807
  0
LINE
  8
1
 62
7
  6
DASHDOT
 10
1762.709580
 20
1569.599599
 11
1792.690420
 21
1569.599599
  0
LINE
  8
1
 62
7
  6
DASHDOT
 10
1777.700000
 20
1584.590019
 11
1777.700000
 21
1554.609180
  0
CIRCLE
  8
1
 62
7
  6
CONTINUOUS
 10
1777.700000
 20
1569.599599
 40
4.996807
  0
DIMENSION
  8
1
 62
7
  6
CONTINUOUS
  2
*D5
 10
2623.100000
 20
1569.599599
 11
2618.600000
 21
1179.599599
 70
     0
  1
780
 13
2470.690420
 23
1569.599599
 14
2470.690420
 24
789.599599
 50
-90.000000
  0
LINE
  8
1
 62
7
  6
DASHDOT
 10
2107.700000
 20
1679.599599
 11
2107.700000
 21
679.599599
  0
LINE
  8
1
 62
7
  6
DASHDOT
 10
1707.700000
 20
1179.599599
 11
2507.701605
 21
1179.599599
  0
TEXT
  8
15
 62
96
  6
CONTINUOUS
 10
3491.900000
 20
1707.295150
 40
27.000000
 41
0.666667
  1
12点
  7
KANJI
 50
0.000000
 51
0.000000
  0
TEXT
  8
15
 62
96
  6
CONTINUOUS
 10
3148.403700
 20
488.374335
 40
27.007963
 41
0.566667
  1
G06027-01-10723
  7
KANJI
 50
0.000000
 51
0.000000
  0
TEXT
  8
15
 62
96
  6
CONTINUOUS
 10
3233.625502
 20
197.498522
 40
27.000000
 41
0.636364
  1
2013年07月25日
  7
KANJI
 50
0.000000
 51
0.000000
  0
TEXT
  8
15
 62
96
  6
CONTINUOUS
 10
2899.534865
 20
195.872876
 40
31.500000
 41
0.500000
  1
G06027-01-13725
  7
KANJI
 50
0.000000
 51
0.000000
  0
TEXT
  8
15
 62
96
  6
CONTINUOUS
 10
3176.863396
 20
250.680600
 40
45.000000
 41
1.080000
  1
片山
  7
KANJI
 50
0.000000
 51
0.000000
  0
TEXT
  8
15
 62
96
  6
CONTINUOUS
 10
2819.250000
 20
1855.800000
 40
27.000000
 41
0.875000
  1
外部入力　：接点容量　DC24Ｖ　0.1Ａ以上（信号用）
  7
KANJI
 50
0.000000
 51
0.000000
  0
ENDSEC
  0
EOF
