  0
SECTION
  2
HEADER
  9
$ACADVER
  1
AC1015
  9
$ACADMAINTVER
 70
    13
  9
$DWGCODEPAGE
  3
ANSI_932
  9
$INSBASE
 10
0.0
 20
0.0
 30
0.0
  9
$EXTMIN
 10
39.9389688018
 20
33.95270055946048
 30
-0.0015258207003583
  9
$EXTMAX
 10
1580.075687388977
 20
1062.050539728778
 30
0.0000000349246037
  9
$LIMMIN
 10
0.0
 20
0.0
  9
$LIMMAX
 10
1680.0
 20
1188.0
  9
$ORTHOMODE
 70
     0
  9
$REGENMODE
 70
     1
  9
$FILLMODE
 70
     1
  9
$QTEXTMODE
 70
     0
  9
$MIRRTEXT
 70
     1
  9
$LTSCALE
 40
1.0
  9
$ATTMODE
 70
     1
  9
$TEXTSIZE
 40
0.2
  9
$TRACEWID
 40
0.05
  9
$TEXTSTYLE
  7
STANDARD
  9
$CLAYER
  8
0
  9
$CELTYPE
  6
ByLayer
  9
$CECOLOR
 62
   256
  9
$CELTSCALE
 40
1.0
  9
$DISPSILH
 70
     0
  9
$DIMSCALE
 40
1.0
  9
$DIMASZ
 40
1.0
  9
$DIMEXO
 40
0.0
  9
$DIMDLI
 40
0.5
  9
$DIMRND
 40
0.0
  9
$DIMDLE
 40
0.0
  9
$DIMEXE
 40
0.0
  9
$DIMTP
 40
0.0
  9
$DIMTM
 40
0.0
  9
$DIMTXT
 40
0.18
  9
$DIMCEN
 40
0.0
  9
$DIMTSZ
 40
0.0
  9
$DIMTOL
 70
     0
  9
$DIMLIM
 70
     0
  9
$DIMTIH
 70
     1
  9
$DIMTOH
 70
     1
  9
$DIMSE1
 70
     0
  9
$DIMSE2
 70
     0
  9
$DIMTAD
 70
     0
  9
$DIMZIN
 70
     0
  9
$DIMBLK
  1

  9
$DIMASO
 70
     0
  9
$DIMSHO
 70
     0
  9
$DIMPOST
  1

  9
$DIMAPOST
  1

  9
$DIMALT
 70
     0
  9
$DIMALTD
 70
     0
  9
$DIMALTF
 40
25.4
  9
$DIMLFAC
 40
1.0
  9
$DIMTOFL
 70
     0
  9
$DIMTVP
 40
0.0
  9
$DIMTIX
 70
     0
  9
$DIMSOXD
 70
     0
  9
$DIMSAH
 70
     0
  9
$DIMBLK1
  1

  9
$DIMBLK2
  1

  9
$DIMSTYLE
  2
Standard
  9
$DIMCLRD
 70
     0
  9
$DIMCLRE
 70
     0
  9
$DIMCLRT
 70
     0
  9
$DIMTFAC
 40
1.0
  9
$DIMGAP
 40
0.09
  9
$DIMJUST
 70
     0
  9
$DIMSD1
 70
     0
  9
$DIMSD2
 70
     0
  9
$DIMTOLJ
 70
     1
  9
$DIMTZIN
 70
     0
  9
$DIMALTZ
 70
     0
  9
$DIMALTTZ
 70
     0
  9
$DIMUPT
 70
     0
  9
$DIMDEC
 70
     4
  9
$DIMTDEC
 70
     4
  9
$DIMALTU
 70
     2
  9
$DIMALTTD
 70
     2
  9
$DIMTXSTY
  7
STANDARD
  9
$DIMAUNIT
 70
     0
  9
$DIMADEC
 70
     0
  9
$DIMALTRND
 40
0.0
  9
$DIMAZIN
 70
     0
  9
$DIMDSEP
 70
    46
  9
$DIMATFIT
 70
     3
  9
$DIMFRAC
 70
     0
  9
$DIMLDRBLK
  1

  9
$DIMLUNIT
 70
     2
  9
$DIMLWD
 70
    -2
  9
$DIMLWE
 70
    -2
  9
$DIMTMOVE
 70
     0
  9
$LUNITS
 70
     2
  9
$LUPREC
 70
     2
  9
$SKETCHINC
 40
0.0
  9
$FILLETRAD
 40
0.0
  9
$AUNITS
 70
     1
  9
$AUPREC
 70
     2
  9
$MENU
  1
ACAD
  9
$ELEVATION
 40
0.0
  9
$PELEVATION
 40
0.0
  9
$THICKNESS
 40
0.0
  9
$LIMCHECK
 70
     1
  9
$CHAMFERA
 40
0.0
  9
$CHAMFERB
 40
0.0
  9
$CHAMFERC
 40
0.0
  9
$CHAMFERD
 40
0.0
  9
$SKPOLY
 70
     0
  9
$TDCREATE
 40
2312268.699577384
  9
$TDUCREATE
 40
2312268.324577384
  9
$TDUPDATE
 40
2455875.447734803
  9
$TDUUPDATE
 40
2455875.072734803
  9
$TDINDWG
 40
0.0007979167
  9
$TDUSRTIMER
 40
0.0007970139
  9
$USRTIMER
 70
     1
  9
$ANGBASE
 50
0.0
  9
$ANGDIR
 70
     0
  9
$PDMODE
 70
     0
  9
$PDSIZE
 40
0.0
  9
$PLINEWID
 40
0.0
  9
$SPLFRAME
 70
     0
  9
$SPLINETYPE
 70
     6
  9
$SPLINESEGS
 70
     8
  9
$HANDSEED
  5
1A4
  9
$SURFTAB1
 70
     6
  9
$SURFTAB2
 70
     6
  9
$SURFTYPE
 70
     6
  9
$SURFU
 70
     6
  9
$SURFV
 70
     6
  9
$UCSBASE
  2

  9
$UCSNAME
  2

  9
$UCSORG
 10
0.0
 20
0.0
 30
0.0
  9
$UCSXDIR
 10
1.0
 20
0.0
 30
0.0
  9
$UCSYDIR
 10
0.0
 20
1.0
 30
0.0
  9
$UCSORTHOREF
  2

  9
$UCSORTHOVIEW
 70
     0
  9
$UCSORGTOP
 10
0.0
 20
0.0
 30
0.0
  9
$UCSORGBOTTOM
 10
0.0
 20
0.0
 30
0.0
  9
$UCSORGLEFT
 10
0.0
 20
0.0
 30
0.0
  9
$UCSORGRIGHT
 10
0.0
 20
0.0
 30
0.0
  9
$UCSORGFRONT
 10
0.0
 20
0.0
 30
0.0
  9
$UCSORGBACK
 10
0.0
 20
0.0
 30
0.0
  9
$PUCSBASE
  2

  9
$PUCSNAME
  2

  9
$PUCSORG
 10
0.0
 20
0.0
 30
0.0
  9
$PUCSXDIR
 10
1.0
 20
0.0
 30
0.0
  9
$PUCSYDIR
 10
0.0
 20
1.0
 30
0.0
  9
$PUCSORTHOREF
  2

  9
$PUCSORTHOVIEW
 70
     0
  9
$PUCSORGTOP
 10
0.0
 20
0.0
 30
0.0
  9
$PUCSORGBOTTOM
 10
0.0
 20
0.0
 30
0.0
  9
$PUCSORGLEFT
 10
0.0
 20
0.0
 30
0.0
  9
$PUCSORGRIGHT
 10
0.0
 20
0.0
 30
0.0
  9
$PUCSORGFRONT
 10
0.0
 20
0.0
 30
0.0
  9
$PUCSORGBACK
 10
0.0
 20
0.0
 30
0.0
  9
$USERI1
 70
     0
  9
$USERI2
 70
     0
  9
$USERI3
 70
     0
  9
$USERI4
 70
     0
  9
$USERI5
 70
     0
  9
$USERR1
 40
0.0
  9
$USERR2
 40
0.0
  9
$USERR3
 40
0.0
  9
$USERR4
 40
0.0
  9
$USERR5
 40
0.0
  9
$WORLDVIEW
 70
     1
  9
$SHADEDGE
 70
     3
  9
$SHADEDIF
 70
    70
  9
$TILEMODE
 70
     1
  9
$MAXACTVP
 70
    64
  9
$PINSBASE
 10
0.0
 20
0.0
 30
0.0
  9
$PLIMCHECK
 70
     0
  9
$PEXTMIN
 10
0.0
 20
0.0
 30
0.0
  9
$PEXTMAX
 10
420.0
 20
297.0
 30
0.0
  9
$PLIMMIN
 10
0.0
 20
0.0
  9
$PLIMMAX
 10
12.0
 20
9.0
  9
$UNITMODE
 70
     0
  9
$VISRETAIN
 70
     1
  9
$PLINEGEN
 70
     0
  9
$PSLTSCALE
 70
     1
  9
$TREEDEPTH
 70
  3020
  9
$CMLSTYLE
  2
Standard
  9
$CMLJUST
 70
     0
  9
$CMLSCALE
 40
1.0
  9
$PROXYGRAPHICS
 70
     1
  9
$MEASUREMENT
 70
     0
  9
$CELWEIGHT
370
    -1
  9
$ENDCAPS
280
     0
  9
$JOINSTYLE
280
     0
  9
$LWDISPLAY
290
     0
  9
$INSUNITS
 70
     0
  9
$HYPERLINKBASE
  1

  9
$STYLESHEET
  1

  9
$XEDIT
290
     1
  9
$CEPSNTYPE
380
     0
  9
$PSTYLEMODE
290
     1
  9
$FINGERPRINTGUID
  2
{DB1428D0-7345-4627-9C76-8DB7E4CD75BD}
  9
$VERSIONGUID
  2
{9F20CF7C-7070-44AE-95C1-B2DCB5D583F9}
  9
$EXTNAMES
290
     1
  9
$PSVPSCALE
 40
0.0
  9
$OLESTARTUP
290
     0
  0
ENDSEC
  0
SECTION
  2
CLASSES
  0
CLASS
  1
ACDBDICTIONARYWDFLT
  2
AcDbDictionaryWithDefault
  3
AutoCAD 2000
 90
        0
280
     0
281
     0
  0
CLASS
  1
ACDBPLACEHOLDER
  2
AcDbPlaceHolder
  3
AutoCAD 2000
 90
        0
280
     0
281
     0
  0
CLASS
  1
LAYOUT
  2
AcDbLayout
  3
AutoCAD 2000
 90
        0
280
     0
281
     0
  0
CLASS
  1
DICTIONARYVAR
  2
AcDbDictionaryVar
  3
AutoCAD 2000
 90
        0
280
     0
281
     0
  0
ENDSEC
  0
SECTION
  2
TABLES
  0
TABLE
  2
VPORT
  5
8
330
0
100
AcDbSymbolTable
 70
     5
  0
VPORT
  5
1A3
330
8
100
AcDbSymbolTableRecord
100
AcDbViewportTableRecord
  2
*Active
 70
     0
 10
0.0
 20
0.0
 11
1.0
 21
1.0
 12
974.3979235989902
 22
537.1816085504197
 13
0.0
 23
0.0
 14
1.0
 24
1.0
 15
0.0
 25
0.0
 16
0.0
 26
0.0
 36
1.0
 17
0.0
 27
0.0
 37
0.0
 40
1863.525385729526
 41
1.732217573221757
 42
50.0
 43
0.0
 44
0.0
 50
0.0
 51
0.0
 71
     0
 72
   100
 73
     1
 74
     1
 75
     0
 76
     0
 77
     0
 78
     0
281
     0
 65
     1
110
0.0
120
0.0
130
0.0
111
1.0
121
0.0
131
0.0
112
0.0
122
1.0
132
0.0
 79
     0
146
0.0
  0
ENDTAB
  0
TABLE
  2
LTYPE
  5
5
330
0
100
AcDbSymbolTable
 70
     5
  0
LTYPE
  5
13
330
5
100
AcDbSymbolTableRecord
100
AcDbLinetypeTableRecord
  2
ByBlock
 70
     0
  3

 72
    65
 73
     0
 40
0.0
  0
LTYPE
  5
14
330
5
100
AcDbSymbolTableRecord
100
AcDbLinetypeTableRecord
  2
ByLayer
 70
     0
  3

 72
    65
 73
     0
 40
0.0
  0
LTYPE
  5
15
330
5
100
AcDbSymbolTableRecord
100
AcDbLinetypeTableRecord
  2
CONTINUOUS
 70
     0
  3
Solid line
 72
    65
 73
     0
 40
0.0
  0
LTYPE
  5
22
330
5
100
AcDbSymbolTableRecord
100
AcDbLinetypeTableRecord
  2
HIDDEN
 70
     0
  3
------------------------
 72
    65
 73
     2
 40
12.6
 49
8.4
 74
     0
 49
-4.2
 74
     0
  0
LTYPE
  5
23
330
5
100
AcDbSymbolTableRecord
100
AcDbLinetypeTableRecord
  2
DOT
 70
     0
  3
････････････････････････
 72
    65
 73
     2
 40
8.0
 49
6.0
 74
     0
 49
-2.0
 74
     0
  0
LTYPE
  5
24
330
5
100
AcDbSymbolTableRecord
100
AcDbLinetypeTableRecord
  2
DASHDOT
 70
     0
  3
--･--･--･--･--･--･--･--
 72
    65
 73
     4
 40
50.5
 49
30.0
 74
     0
 49
-9.0
 74
     0
 49
2.5
 74
     0
 49
-9.0
 74
     0
  0
LTYPE
  5
25
330
5
100
AcDbSymbolTableRecord
100
AcDbLinetypeTableRecord
  2
DIVIDE
 70
     0
  3
--･･--･･--･･--･･--･･--
 72
    65
 73
     6
 40
58.0
 49
30.0
 74
     0
 49
-9.0
 74
     0
 49
2.5
 74
     0
 49
-5.0
 74
     0
 49
2.5
 74
     0
 49
-9.0
 74
     0
  0
ENDTAB
  0
TABLE
  2
LAYER
  5
2
330
0
100
AcDbSymbolTable
 70
     3
  0
LAYER
  5
10
330
2
100
AcDbSymbolTableRecord
100
AcDbLayerTableRecord
  2
0
 70
     0
 62
     7
  6
CONTINUOUS
370
    -3
390
F
  0
LAYER
  5
26
330
2
100
AcDbSymbolTableRecord
100
AcDbLayerTableRecord
  2
1
 70
     0
 62
     7
  6
CONTINUOUS
370
    -3
390
F
  0
LAYER
  5
27
330
2
100
AcDbSymbolTableRecord
100
AcDbLayerTableRecord
  2
15
 70
     0
 62
    96
  6
CONTINUOUS
370
    -3
390
F
  0
ENDTAB
  0
TABLE
  2
STYLE
  5
3
330
0
100
AcDbSymbolTable
 70
     2
  0
STYLE
  5
11
330
3
100
AcDbSymbolTableRecord
100
AcDbTextStyleTableRecord
  2
STANDARD
 70
     0
 40
0.0
 41
1.0
 50
0.0
 71
     0
 42
0.2
  3
TXT
  4

  0
STYLE
  5
28
330
3
100
AcDbSymbolTableRecord
100
AcDbTextStyleTableRecord
  2
KANJI
 70
     0
 40
0.0
 41
1.0
 50
0.0
 71
     0
 42
0.2
  3
TXT
  4
BIGFONT
  0
ENDTAB
  0
TABLE
  2
VIEW
  5
6
330
0
100
AcDbSymbolTable
 70
     0
  0
ENDTAB
  0
TABLE
  2
UCS
  5
7
330
0
100
AcDbSymbolTable
 70
     0
  0
ENDTAB
  0
TABLE
  2
APPID
  5
9
330
0
100
AcDbSymbolTable
 70
     1
  0
APPID
  5
12
330
9
100
AcDbSymbolTableRecord
100
AcDbRegAppTableRecord
  2
ACAD
 70
     0
  0
ENDTAB
  0
TABLE
  2
DIMSTYLE
  5
A
330
0
100
AcDbSymbolTable
 70
     1
100
AcDbDimStyleTable
 71
     0
  0
DIMSTYLE
105
19C
330
A
100
AcDbSymbolTableRecord
100
AcDbDimStyleTableRecord
  2
Standard
 70
     0
340
11
  0
ENDTAB
  0
TABLE
  2
BLOCK_RECORD
  5
1
330
0
100
AcDbSymbolTable
 70
    10
  0
BLOCK_RECORD
  5
1E
330
1
100
AcDbSymbolTableRecord
100
AcDbBlockTableRecord
  2
*Model_Space
340
21
  0
BLOCK_RECORD
  5
1A
330
1
100
AcDbSymbolTableRecord
100
AcDbBlockTableRecord
  2
*Paper_Space
340
1D
  0
BLOCK_RECORD
  5
2C
330
1
100
AcDbSymbolTableRecord
100
AcDbBlockTableRecord
  2
*D0
340
0
  0
BLOCK_RECORD
  5
37
330
1
100
AcDbSymbolTableRecord
100
AcDbBlockTableRecord
  2
*D1
340
0
  0
BLOCK_RECORD
  5
42
330
1
100
AcDbSymbolTableRecord
100
AcDbBlockTableRecord
  2
*D2
340
0
  0
BLOCK_RECORD
  5
4D
330
1
100
AcDbSymbolTableRecord
100
AcDbBlockTableRecord
  2
*D3
340
0
  0
BLOCK_RECORD
  5
58
330
1
100
AcDbSymbolTableRecord
100
AcDbBlockTableRecord
  2
*D4
340
0
  0
BLOCK_RECORD
  5
63
330
1
100
AcDbSymbolTableRecord
100
AcDbBlockTableRecord
  2
*D5
340
0
  0
BLOCK_RECORD
  5
6E
330
1
100
AcDbSymbolTableRecord
100
AcDbBlockTableRecord
  2
*D6
340
0
  0
BLOCK_RECORD
  5
79
330
1
100
AcDbSymbolTableRecord
100
AcDbBlockTableRecord
  2
*D7
340
0
  0
BLOCK_RECORD
  5
84
330
1
100
AcDbSymbolTableRecord
100
AcDbBlockTableRecord
  2
*D8
340
0
  0
BLOCK_RECORD
  5
8F
330
1
100
AcDbSymbolTableRecord
100
AcDbBlockTableRecord
  2
*D9
340
0
  0
ENDTAB
  0
ENDSEC
  0
SECTION
  2
BLOCKS
  0
BLOCK
  5
1F
330
1E
100
AcDbEntity
  8
0
100
AcDbBlockBegin
  2
*Model_Space
 70
     0
 10
0.0
 20
0.0
 30
0.0
  3
*Model_Space
  1

  0
ENDBLK
  5
20
330
1E
100
AcDbEntity
  8
0
100
AcDbBlockEnd
  0
BLOCK
  5
1B
330
1A
100
AcDbEntity
 67
     1
  8
0
100
AcDbBlockBegin
  2
*Paper_Space
 70
     0
 10
0.0
 20
0.0
 30
0.0
  3
*Paper_Space
  1

  0
ENDBLK
  5
1C
330
1A
100
AcDbEntity
 67
     1
  8
0
100
AcDbBlockEnd
  0
BLOCK
  5
2D
330
2C
100
AcDbEntity
  8
1
  6
Continuous
 62
     7
100
AcDbBlockBegin
  2
*D0
 70
     1
 10
0.0
 20
0.0
 30
0.0
  3
*D0
  1

  0
LINE
  5
2E
330
2C
100
AcDbEntity
  8
1
  6
Continuous
 62
     7
100
AcDbLine
 10
641.5782
 20
778.7503
 30
0.0
 11
721.5782
 21
778.7503
 31
0.0
  0
LINE
  5
2F
330
2C
100
AcDbEntity
  8
1
  6
Continuous
 62
     7
100
AcDbLine
 10
641.5782
 20
786.7503
 30
0.0
 11
641.5782
 21
731.9403999999999
 31
0.0
  0
LINE
  5
30
330
2C
100
AcDbEntity
  8
1
  6
Continuous
 62
     7
100
AcDbLine
 10
721.5782
 20
786.7503
 30
0.0
 11
721.5782
 21
731.9403999999999
 31
0.0
  0
LINE
  5
31
330
2C
100
AcDbEntity
  8
1
  6
Continuous
 62
     7
100
AcDbLine
 10
641.5782
 20
778.7503
 30
0.0
 11
650.851088
 21
781.2349629999999
 31
0.0
  0
LINE
  5
32
330
2C
100
AcDbEntity
  8
1
  6
Continuous
 62
     7
100
AcDbLine
 10
641.5782
 20
778.7503
 30
0.0
 11
650.851088
 21
776.265637
 31
0.0
  0
LINE
  5
33
330
2C
100
AcDbEntity
  8
1
  6
Continuous
 62
     7
100
AcDbLine
 10
721.5782
 20
778.7503
 30
0.0
 11
712.3053119999999
 21
776.265637
 31
0.0
  0
LINE
  5
34
330
2C
100
AcDbEntity
  8
1
  6
Continuous
 62
     7
100
AcDbLine
 10
721.5782
 20
778.7503
 30
0.0
 11
712.3053119999999
 21
781.2349629999999
 31
0.0
  0
TEXT
  5
35
330
2C
100
AcDbEntity
  8
1
  6
Continuous
 62
     7
100
AcDbText
 10
673.264636
 20
780.7503
 30
0.0
 40
12.0
  1
80
 41
0.566667
  7
KANJI
100
AcDbText
  0
ENDBLK
  5
36
330
2C
100
AcDbEntity
  8
0
100
AcDbBlockEnd
  0
BLOCK
  5
38
330
37
100
AcDbEntity
  8
1
  6
Continuous
 62
     7
100
AcDbBlockBegin
  2
*D1
 70
     1
 10
0.0
 20
0.0
 30
0.0
  3
*D1
  1

  0
LINE
  5
39
330
37
100
AcDbEntity
  8
1
  6
Continuous
 62
     7
100
AcDbLine
 10
201.5782
 20
776.7503
 30
0.0
 11
501.5781999999999
 21
776.7503
 31
0.0
  0
LINE
  5
3A
330
37
100
AcDbEntity
  8
1
  6
Continuous
 62
     7
100
AcDbLine
 10
201.5782
 20
784.7503
 30
0.0
 11
201.5782
 21
731.9403999999999
 31
0.0
  0
LINE
  5
3B
330
37
100
AcDbEntity
  8
1
  6
Continuous
 62
     7
100
AcDbLine
 10
501.5781999999999
 20
784.7503
 30
0.0
 11
501.5781999999999
 21
731.9403999999999
 31
0.0
  0
LINE
  5
3C
330
37
100
AcDbEntity
  8
1
  6
Continuous
 62
     7
100
AcDbLine
 10
201.5782
 20
776.7503
 30
0.0
 11
210.8510879999999
 21
779.234963
 31
0.0
  0
LINE
  5
3D
330
37
100
AcDbEntity
  8
1
  6
Continuous
 62
     7
100
AcDbLine
 10
201.5782
 20
776.7503
 30
0.0
 11
210.8510879999999
 21
774.2656369999999
 31
0.0
  0
LINE
  5
3E
330
37
100
AcDbEntity
  8
1
  6
Continuous
 62
     7
100
AcDbLine
 10
501.5781999999999
 20
776.7503
 30
0.0
 11
492.305312
 21
774.2656369999999
 31
0.0
  0
LINE
  5
3F
330
37
100
AcDbEntity
  8
1
  6
Continuous
 62
     7
100
AcDbLine
 10
501.5781999999999
 20
776.7503
 30
0.0
 11
492.305312
 21
779.234963
 31
0.0
  0
TEXT
  5
40
330
37
100
AcDbEntity
  8
1
  6
Continuous
 62
     7
100
AcDbText
 10
337.9539359999999
 20
778.7503
 30
0.0
 40
12.0
  1
300
 41
0.566667
  7
KANJI
100
AcDbText
  0
ENDBLK
  5
41
330
37
100
AcDbEntity
  8
0
100
AcDbBlockEnd
  0
BLOCK
  5
43
330
42
100
AcDbEntity
  8
1
  6
Continuous
 62
     7
100
AcDbBlockBegin
  2
*D2
 70
     1
 10
0.0
 20
0.0
 30
0.0
  3
*D2
  1

  0
LINE
  5
44
330
42
100
AcDbEntity
  8
1
  6
Continuous
 62
     7
100
AcDbLine
 10
555.744036
 20
723.9403999999999
 30
0.0
 11
555.744036
 21
323.9404
 31
0.0
  0
LINE
  5
45
330
42
100
AcDbEntity
  8
1
  6
Continuous
 62
     7
100
AcDbLine
 10
563.744036
 20
723.9403999999999
 30
0.0
 11
509.5781999999999
 21
723.9403999999999
 31
0.0
  0
LINE
  5
46
330
42
100
AcDbEntity
  8
1
  6
Continuous
 62
     7
100
AcDbLine
 10
563.744036
 20
323.9404
 30
0.0
 11
509.5781999999999
 21
323.9404
 31
0.0
  0
LINE
  5
47
330
42
100
AcDbEntity
  8
1
  6
Continuous
 62
     7
100
AcDbLine
 10
555.744036
 20
723.9403999999999
 30
0.0
 11
558.228699
 21
714.667512
 31
0.0
  0
LINE
  5
48
330
42
100
AcDbEntity
  8
1
  6
Continuous
 62
     7
100
AcDbLine
 10
555.744036
 20
723.9403999999999
 30
0.0
 11
553.2593730000001
 21
714.667512
 31
0.0
  0
LINE
  5
49
330
42
100
AcDbEntity
  8
1
  6
Continuous
 62
     7
100
AcDbLine
 10
555.744036
 20
323.9404
 30
0.0
 11
553.2593730000001
 21
333.2132879999999
 31
0.0
  0
LINE
  5
4A
330
42
100
AcDbEntity
  8
1
  6
Continuous
 62
     7
100
AcDbLine
 10
555.744036
 20
323.9404
 30
0.0
 11
558.228699
 21
333.2132879999999
 31
0.0
  0
TEXT
  5
4B
330
42
100
AcDbEntity
  8
1
  6
Continuous
 62
     7
100
AcDbText
 10
553.744036
 20
514.8511
 30
0.0
 40
12.0
  1
400
 50
90.0
 41
0.566667
  7
KANJI
100
AcDbText
  0
ENDBLK
  5
4C
330
42
100
AcDbEntity
  8
0
100
AcDbBlockEnd
  0
BLOCK
  5
4E
330
4D
100
AcDbEntity
  8
1
  6
Continuous
 62
     7
100
AcDbBlockBegin
  2
*D3
 70
     1
 10
0.0
 20
0.0
 30
0.0
  3
*D3
  1

  0
LINE
  5
4F
330
4D
100
AcDbEntity
  8
1
  6
Continuous
 62
     7
100
AcDbLine
 10
801.5781999999999
 20
241.4986999999999
 30
0.0
 11
1061.5782
 21
241.4986999999999
 31
0.0
  0
LINE
  5
50
330
4D
100
AcDbEntity
  8
1
  6
Continuous
 62
     7
100
AcDbLine
 10
801.5781999999999
 20
233.4987
 30
0.0
 11
801.5781999999999
 21
335.9404
 31
0.0
  0
LINE
  5
51
330
4D
100
AcDbEntity
  8
1
  6
Continuous
 62
     7
100
AcDbLine
 10
1061.5782
 20
233.4987
 30
0.0
 11
1061.5782
 21
335.9404
 31
0.0
  0
LINE
  5
52
330
4D
100
AcDbEntity
  8
1
  6
Continuous
 62
     7
100
AcDbLine
 10
801.5781999999999
 20
241.4986999999999
 30
0.0
 11
810.851088
 21
243.9833629999999
 31
0.0
  0
LINE
  5
53
330
4D
100
AcDbEntity
  8
1
  6
Continuous
 62
     7
100
AcDbLine
 10
801.5781999999999
 20
241.4986999999999
 30
0.0
 11
810.851088
 21
239.014037
 31
0.0
  0
LINE
  5
54
330
4D
100
AcDbEntity
  8
1
  6
Continuous
 62
     7
100
AcDbLine
 10
1061.5782
 20
241.4986999999999
 30
0.0
 11
1052.305312
 21
239.014037
 31
0.0
  0
LINE
  5
55
330
4D
100
AcDbEntity
  8
1
  6
Continuous
 62
     7
100
AcDbLine
 10
1061.5782
 20
241.4986999999999
 30
0.0
 11
1052.305312
 21
243.9833629999999
 31
0.0
  0
TEXT
  5
56
330
4D
100
AcDbEntity
  8
1
  6
Continuous
 62
     7
100
AcDbText
 10
919.7306359999998
 20
240.6252999999999
 30
0.0
 40
12.0
  1
260
 41
0.566667
  7
KANJI
100
AcDbText
  0
ENDBLK
  5
57
330
4D
100
AcDbEntity
  8
0
100
AcDbBlockEnd
  0
BLOCK
  5
59
330
58
100
AcDbEntity
  8
1
  6
Continuous
 62
     7
100
AcDbBlockBegin
  2
*D4
 70
     1
 10
0.0
 20
0.0
 30
0.0
  3
*D4
  1

  0
LINE
  5
5A
330
58
100
AcDbEntity
  8
1
  6
Continuous
 62
     7
100
AcDbLine
 10
992.0111810000001
 20
503.7533289999999
 30
0.0
 11
992.0111810000001
 21
388.753329
 31
0.0
  0
LINE
  5
5B
330
58
100
AcDbEntity
  8
1
  6
Continuous
 62
     7
100
AcDbLine
 10
984.0111810000001
 20
503.7533289999999
 30
0.0
 11
1022.210644999999
 21
503.7533289999999
 31
0.0
  0
LINE
  5
5C
330
58
100
AcDbEntity
  8
1
  6
Continuous
 62
     7
100
AcDbLine
 10
984.0111810000001
 20
388.753329
 30
0.0
 11
1022.210644999999
 21
388.753329
 31
0.0
  0
LINE
  5
5D
330
58
100
AcDbEntity
  8
1
  6
Continuous
 62
     7
100
AcDbLine
 10
992.0111810000001
 20
503.7533289999999
 30
0.0
 11
994.4958439999998
 21
494.480441
 31
0.0
  0
LINE
  5
5E
330
58
100
AcDbEntity
  8
1
  6
Continuous
 62
     7
100
AcDbLine
 10
992.0111810000001
 20
503.7533289999999
 30
0.0
 11
989.526518
 21
494.480441
 31
0.0
  0
LINE
  5
5F
330
58
100
AcDbEntity
  8
1
  6
Continuous
 62
     7
100
AcDbLine
 10
992.0111810000001
 20
388.753329
 30
0.0
 11
989.526518
 21
398.0262169999999
 31
0.0
  0
LINE
  5
60
330
58
100
AcDbEntity
  8
1
  6
Continuous
 62
     7
100
AcDbLine
 10
992.0111810000001
 20
388.753329
 30
0.0
 11
994.4958439999998
 21
398.0262169999999
 31
0.0
  0
TEXT
  5
61
330
58
100
AcDbEntity
  8
1
  6
Continuous
 62
     7
100
AcDbText
 10
992.0111810000001
 20
434.576029
 30
0.0
 40
12.0
  1
115
 50
90.0
 41
0.566667
  7
KANJI
100
AcDbText
  0
ENDBLK
  5
62
330
58
100
AcDbEntity
  8
0
100
AcDbBlockEnd
  0
BLOCK
  5
64
330
63
100
AcDbEntity
  8
1
  6
Continuous
 62
     7
100
AcDbBlockBegin
  2
*D5
 70
     1
 10
0.0
 20
0.0
 30
0.0
  3
*D5
  1

  0
LINE
  5
65
330
63
100
AcDbEntity
  8
1
  6
Continuous
 62
     7
100
AcDbLine
 10
1075.210645
 20
543.5973999999999
 30
0.0
 11
1034.984899999999
 21
543.5973999999999
 31
0.0
  0
LINE
  5
66
330
63
100
AcDbEntity
  8
1
  6
Continuous
 62
     7
100
AcDbLine
 10
1075.210645
 20
551.5973999999999
 30
0.0
 11
1075.210645
 21
511.7533289999999
 31
0.0
  0
LINE
  5
67
330
63
100
AcDbEntity
  8
1
  6
Continuous
 62
     7
100
AcDbLine
 10
1034.984899999999
 20
551.5973999999999
 30
0.0
 11
1034.984899999999
 21
511.7533059999999
 31
0.0
  0
LINE
  5
68
330
63
100
AcDbEntity
  8
1
  6
Continuous
 62
     7
100
AcDbLine
 10
1075.210645
 20
543.5973999999999
 30
0.0
 11
1065.937757
 21
541.112737
 31
0.0
  0
LINE
  5
69
330
63
100
AcDbEntity
  8
1
  6
Continuous
 62
     7
100
AcDbLine
 10
1075.210645
 20
543.5973999999999
 30
0.0
 11
1065.937757
 21
546.0820629999999
 31
0.0
  0
LINE
  5
6A
330
63
100
AcDbEntity
  8
1
  6
Continuous
 62
     7
100
AcDbLine
 10
1034.984899999999
 20
543.5973999999999
 30
0.0
 11
1044.257788
 21
546.0820629999999
 31
0.0
  0
LINE
  5
6B
330
63
100
AcDbEntity
  8
1
  6
Continuous
 62
     7
100
AcDbLine
 10
1034.984899999999
 20
543.5973999999999
 30
0.0
 11
1044.257788
 21
541.112737
 31
0.0
  0
TEXT
  5
6C
330
63
100
AcDbEntity
  8
1
  6
Continuous
 62
     7
100
AcDbText
 10
1049.1211
 20
543.3386
 30
0.0
 40
12.0
  1
40
 41
0.566667
  7
KANJI
100
AcDbText
  0
ENDBLK
  5
6D
330
63
100
AcDbEntity
  8
0
100
AcDbBlockEnd
  0
BLOCK
  5
6F
330
6E
100
AcDbEntity
  8
1
  6
Continuous
 62
     7
100
AcDbBlockBegin
  2
*D6
 70
     1
 10
0.0
 20
0.0
 30
0.0
  3
*D6
  1

  0
LINE
  5
70
330
6E
100
AcDbEntity
  8
1
  6
Continuous
 62
     7
100
AcDbLine
 10
933.0614640000002
 20
280.2559
 30
0.0
 11
1054.665426
 21
280.2559
 31
0.0
  0
LINE
  5
71
330
6E
100
AcDbEntity
  8
1
  6
Continuous
 62
     7
100
AcDbLine
 10
933.0614640000002
 20
272.2558999999999
 30
0.0
 11
933.0614640000002
 21
302.72942
 31
0.0
  0
LINE
  5
72
330
6E
100
AcDbEntity
  8
1
  6
Continuous
 62
     7
100
AcDbLine
 10
1054.665426
 20
272.2558999999999
 30
0.0
 11
1054.665426
 21
370.753277
 31
0.0
  0
LINE
  5
73
330
6E
100
AcDbEntity
  8
1
  6
Continuous
 62
     7
100
AcDbLine
 10
933.0614640000002
 20
280.2559
 30
0.0
 11
942.3343519999999
 21
282.740563
 31
0.0
  0
LINE
  5
74
330
6E
100
AcDbEntity
  8
1
  6
Continuous
 62
     7
100
AcDbLine
 10
933.0614640000002
 20
280.2559
 30
0.0
 11
942.3343519999999
 21
277.7712369999999
 31
0.0
  0
LINE
  5
75
330
6E
100
AcDbEntity
  8
1
  6
Continuous
 62
     7
100
AcDbLine
 10
1054.665426
 20
280.2559
 30
0.0
 11
1045.392538
 21
277.7712369999999
 31
0.0
  0
LINE
  5
76
330
6E
100
AcDbEntity
  8
1
  6
Continuous
 62
     7
100
AcDbLine
 10
1054.665426
 20
280.2559
 30
0.0
 11
1045.392538
 21
282.740563
 31
0.0
  0
TEXT
  5
77
330
6E
100
AcDbEntity
  8
1
  6
Continuous
 62
     7
100
AcDbText
 10
984.0634449999999
 20
282.2559
 30
0.0
 40
12.0
  1
120
 41
0.566667
  7
KANJI
100
AcDbText
  0
ENDBLK
  5
78
330
6E
100
AcDbEntity
  8
0
100
AcDbBlockEnd
  0
BLOCK
  5
7A
330
79
100
AcDbEntity
  8
1
  6
Continuous
 62
     7
100
AcDbBlockBegin
  2
*D7
 70
     1
 10
0.0
 20
0.0
 30
0.0
  3
*D7
  1

  0
LINE
  5
7B
330
79
100
AcDbEntity
  8
1
  6
Continuous
 62
     7
100
AcDbLine
 10
1125.701
 20
446.253329
 30
0.0
 11
1125.701
 21
323.9404
 31
0.0
  0
LINE
  5
7C
330
79
100
AcDbEntity
  8
1
  6
Continuous
 62
     7
100
AcDbLine
 10
1133.701
 20
446.253329
 30
0.0
 11
1091.010644999999
 21
446.253329
 31
0.0
  0
LINE
  5
7D
330
79
100
AcDbEntity
  8
1
  6
Continuous
 62
     7
100
AcDbLine
 10
1133.701
 20
323.9404
 30
0.0
 11
1091.061464
 21
323.9404
 31
0.0
  0
LINE
  5
7E
330
79
100
AcDbEntity
  8
1
  6
Continuous
 62
     7
100
AcDbLine
 10
1125.701
 20
446.253329
 30
0.0
 11
1128.185663
 21
436.980441
 31
0.0
  0
LINE
  5
7F
330
79
100
AcDbEntity
  8
1
  6
Continuous
 62
     7
100
AcDbLine
 10
1125.701
 20
446.253329
 30
0.0
 11
1123.216336999999
 21
436.980441
 31
0.0
  0
LINE
  5
80
330
79
100
AcDbEntity
  8
1
  6
Continuous
 62
     7
100
AcDbLine
 10
1125.701
 20
323.9404
 30
0.0
 11
1123.216336999999
 21
333.2132879999999
 31
0.0
  0
LINE
  5
81
330
79
100
AcDbEntity
  8
1
  6
Continuous
 62
     7
100
AcDbLine
 10
1125.701
 20
323.9404
 30
0.0
 11
1128.185663
 21
333.2132879999999
 31
0.0
  0
TEXT
  5
82
330
79
100
AcDbEntity
  8
1
  6
Continuous
 62
     7
100
AcDbText
 10
1123.701
 20
368.496865
 30
0.0
 40
12.0
  1
122.5
 50
90.0
 41
0.566667
  7
KANJI
100
AcDbText
  0
ENDBLK
  5
83
330
79
100
AcDbEntity
  8
0
100
AcDbBlockEnd
  0
BLOCK
  5
85
330
84
100
AcDbEntity
  8
1
  6
Continuous
 62
     7
100
AcDbBlockBegin
  2
*D8
 70
     1
 10
0.0
 20
0.0
 30
0.0
  3
*D8
  1

  0
LINE
  5
86
330
84
100
AcDbEntity
  8
1
  6
Continuous
 62
     7
100
AcDbLine
 10
1170.020199999999
 20
344.3084569999999
 30
0.0
 11
1170.020199999999
 21
323.9404
 31
0.0
  0
LINE
  5
87
330
84
100
AcDbEntity
  8
1
  6
Continuous
 62
     7
100
AcDbLine
 10
1178.020199999999
 20
344.3084569999999
 30
0.0
 11
1073.663675
 21
344.3084569999999
 31
0.0
  0
LINE
  5
88
330
84
100
AcDbEntity
  8
1
  6
Continuous
 62
     7
100
AcDbLine
 10
1178.020199999999
 20
323.9404
 30
0.0
 11
1091.061464
 21
323.9404
 31
0.0
  0
LINE
  5
89
330
84
100
AcDbEntity
  8
1
  6
Continuous
 62
     7
100
AcDbLine
 10
1170.020199999999
 20
344.3084569999999
 30
0.0
 11
1172.504863
 21
335.035569
 31
0.0
  0
LINE
  5
8A
330
84
100
AcDbEntity
  8
1
  6
Continuous
 62
     7
100
AcDbLine
 10
1170.020199999999
 20
344.3084569999999
 30
0.0
 11
1167.535537
 21
335.035569
 31
0.0
  0
LINE
  5
8B
330
84
100
AcDbEntity
  8
1
  6
Continuous
 62
     7
100
AcDbLine
 10
1170.020199999999
 20
323.9404
 30
0.0
 11
1167.535537
 21
333.2132879999999
 31
0.0
  0
LINE
  5
8C
330
84
100
AcDbEntity
  8
1
  6
Continuous
 62
     7
100
AcDbLine
 10
1170.020199999999
 20
323.9404
 30
0.0
 11
1172.504863
 21
333.2132879999999
 31
0.0
  0
TEXT
  5
8D
330
84
100
AcDbEntity
  8
1
  6
Continuous
 62
     7
100
AcDbText
 10
1168.020199999999
 20
327.724429
 30
0.0
 40
12.0
  1
20
 50
90.0
 41
0.566667
  7
KANJI
100
AcDbText
  0
ENDBLK
  5
8E
330
84
100
AcDbEntity
  8
0
100
AcDbBlockEnd
  0
BLOCK
  5
90
330
8F
100
AcDbEntity
  8
1
  6
Continuous
 62
     7
100
AcDbBlockBegin
  2
*D9
 70
     1
 10
0.0
 20
0.0
 30
0.0
  3
*D9
  1

  0
LINE
  5
91
330
8F
100
AcDbEntity
  8
1
  6
Continuous
 62
     7
100
AcDbLine
 10
1170.020199999999
 20
710.3073000000001
 30
0.0
 11
1170.020199999999
 21
344.3084569999999
 31
0.0
  0
LINE
  5
92
330
8F
100
AcDbEntity
  8
1
  6
Continuous
 62
     7
100
AcDbLine
 10
1178.020199999999
 20
710.3073000000001
 30
0.0
 11
965.9181720000001
 21
710.3073000000001
 31
0.0
  0
LINE
  5
93
330
8F
100
AcDbEntity
  8
1
  6
Continuous
 62
     7
100
AcDbLine
 10
1178.020199999999
 20
344.3084569999999
 30
0.0
 11
1073.663675
 21
344.3084569999999
 31
0.0
  0
LINE
  5
94
330
8F
100
AcDbEntity
  8
1
  6
Continuous
 62
     7
100
AcDbLine
 10
1170.020199999999
 20
710.3073000000001
 30
0.0
 11
1172.504863
 21
701.034412
 31
0.0
  0
LINE
  5
95
330
8F
100
AcDbEntity
  8
1
  6
Continuous
 62
     7
100
AcDbLine
 10
1170.020199999999
 20
710.3073000000001
 30
0.0
 11
1167.535537
 21
701.034412
 31
0.0
  0
LINE
  5
96
330
8F
100
AcDbEntity
  8
1
  6
Continuous
 62
     7
100
AcDbLine
 10
1170.020199999999
 20
344.3084569999999
 30
0.0
 11
1167.535537
 21
353.581345
 31
0.0
  0
LINE
  5
97
330
8F
100
AcDbEntity
  8
1
  6
Continuous
 62
     7
100
AcDbLine
 10
1170.020199999999
 20
344.3084569999999
 30
0.0
 11
1172.504863
 21
353.581345
 31
0.0
  0
TEXT
  5
98
330
8F
100
AcDbEntity
  8
1
  6
Continuous
 62
     7
100
AcDbText
 10
1168.020199999999
 20
517.5078789999999
 30
0.0
 40
12.0
  1
366
 50
90.0
 41
0.566667
  7
KANJI
100
AcDbText
  0
ENDBLK
  5
99
330
8F
100
AcDbEntity
  8
0
100
AcDbBlockEnd
  0
ENDSEC
  0
SECTION
  2
ENTITIES
  0
TEXT
  5
9A
330
1E
100
AcDbEntity
  8
15
  6
DIVIDE
 62
    96
100
AcDbText
 10
1390.0
 20
979.0
 30
0.0
 40
12.0
  1
メラミン樹脂焼付塗装
  7
KANJI
100
AcDbText
  0
TEXT
  5
9B
330
1E
100
AcDbEntity
  8
15
  6
DIVIDE
 62
    96
100
AcDbText
 10
1252.0
 20
979.0
 30
0.0
 40
12.0
  1
仕　上
  7
KANJI
100
AcDbText
  0
TEXT
  5
9C
330
1E
100
AcDbEntity
  8
15
  6
DIVIDE
 62
    96
100
AcDbText
 10
1252.0
 20
1001.0
 30
0.0
 40
12.0
  1
材　質
  7
KANJI
100
AcDbText
  0
TEXT
  5
9D
330
1E
100
AcDbEntity
  8
15
  6
DIVIDE
 62
    96
100
AcDbText
 10
1358.0
 20
1023.0
 30
0.0
 40
12.0
  1
定　　　　　格
  7
KANJI
100
AcDbText
  0
TEXT
  5
9E
330
1E
100
AcDbEntity
  8
15
  6
DIVIDE
 62
    96
100
AcDbText
 10
1240.0
 20
1045.0
 30
0.0
 40
12.0
  1
商品コード
  7
KANJI
100
AcDbText
  0
LINE
  5
9F
330
1E
100
AcDbEntity
  8
15
  6
Continuous
 62
    96
100
AcDbLine
 10
1220.0
 20
214.0000269999999
 30
0.0
 11
1220.0
 21
264.0000269999999
 31
0.0
  0
LINE
  5
A0
330
1E
100
AcDbEntity
  8
15
  6
Continuous
 62
    96
100
AcDbLine
 10
1220.0
 20
1062.0
 30
0.0
 11
1220.0
 21
264.0000269999999
 31
0.0
  0
LINE
  5
A1
330
1E
100
AcDbEntity
  8
15
  6
Continuous
 62
    96
100
AcDbLine
 10
1580.0
 20
974.0
 30
0.0
 11
1220.0
 21
974.0
 31
0.0
  0
LINE
  5
A2
330
1E
100
AcDbEntity
  8
15
  6
Continuous
 62
    96
100
AcDbLine
 10
1220.0
 20
996.0
 30
0.0
 11
1580.0
 21
996.0
 31
0.0
  0
LINE
  5
A3
330
1E
100
AcDbEntity
  8
15
  6
Continuous
 62
    96
100
AcDbLine
 10
1220.0
 20
1018.0
 30
0.0
 11
1580.0
 21
1018.0
 31
0.0
  0
LINE
  5
A4
330
1E
100
AcDbEntity
  8
15
  6
Continuous
 62
    96
100
AcDbLine
 10
1220.0
 20
1040.0
 30
0.0
 11
1580.0
 21
1040.0
 31
0.0
  0
LINE
  5
A5
330
1E
100
AcDbEntity
  8
15
  6
Continuous
 62
    96
100
AcDbLine
 10
1320.0
 20
1062.0
 30
0.0
 11
1320.0
 21
1040.0
 31
0.0
  0
TEXT
  5
A6
330
1E
100
AcDbEntity
  8
15
  6
Continuous
 62
    96
100
AcDbText
 10
1446.035277
 20
35.547513
 30
0.0
 40
40.0
  1
アート
  7
KANJI
100
AcDbText
  0
LINE
  5
A7
330
1E
100
AcDbEntity
  8
15
  6
Continuous
 62
    96
100
AcDbLine
 10
1277.010856
 20
76.969993
 30
0.0
 11
1278.077163
 21
76.969993
 31
0.0
  0
LINE
  5
A8
330
1E
100
AcDbEntity
  8
15
  6
Continuous
 62
    96
100
AcDbLine
 10
1278.077163
 20
78.02574200000001
 30
0.0
 11
1237.160539
 21
37.51424399999999
 31
0.0
  0
LINE
  5
A9
330
1E
100
AcDbEntity
  8
15
  6
Continuous
 62
    96
100
AcDbLine
 10
1278.077163
 20
37.51424399999999
 30
0.0
 11
1278.077163
 21
78.02574200000001
 31
0.0
  0
LINE
  5
AA
330
1E
100
AcDbEntity
  8
15
  6
Continuous
 62
    96
100
AcDbLine
 10
1220.0
 20
214.0000269999999
 30
0.0
 11
1580.0
 21
214.0000269999999
 31
0.0
  0
LINE
  5
AB
330
1E
100
AcDbEntity
  8
15
  6
Continuous
 62
    96
100
AcDbLine
 10
1580.0
 20
82.000027
 30
0.0
 11
1220.0
 21
82.0
 31
0.0
  0
LINE
  5
AC
330
1E
100
AcDbEntity
  8
15
  6
Continuous
 62
    96
100
AcDbLine
 10
1220.0
 20
178.0
 30
0.0
 11
1580.0
 21
178.0000269999999
 31
0.0
  0
LINE
  5
AD
330
1E
100
AcDbEntity
  8
15
  6
Continuous
 62
    96
100
AcDbLine
 10
1220.0
 20
178.0000269999999
 30
0.0
 11
1580.0
 21
178.0000269999999
 31
0.0
  0
LINE
  5
AE
330
1E
100
AcDbEntity
  8
15
  6
Continuous
 62
    96
100
AcDbLine
 10
1220.0
 20
34.0
 30
0.0
 11
1220.0
 21
214.0000269999999
 31
0.0
  0
TEXT
  5
AF
330
1E
100
AcDbEntity
  8
15
  6
Continuous
 62
    96
100
AcDbText
 10
1221.724106
 20
165.8185009999999
 30
0.0
 40
9.999999
  1
製品名
 41
1.08
  7
KANJI
100
AcDbText
  0
TEXT
  5
B0
330
1E
100
AcDbEntity
  8
15
  6
Continuous
 62
    96
100
AcDbText
 10
1221.724106
 20
202.462329
 30
0.0
 40
9.999999
  1
型　式
 41
1.08
  7
KANJI
100
AcDbText
  0
LINE
  5
B1
330
1E
100
AcDbEntity
  8
15
  6
Continuous
 62
    96
100
AcDbLine
 10
1300.763621
 20
52.908615
 30
0.0
 11
1300.763621
 21
37.51424399999999
 31
0.0
  0
LINE
  5
B2
330
1E
100
AcDbEntity
  8
15
  6
Continuous
 62
    96
100
AcDbLine
 10
1295.497113
 20
52.908615
 30
0.0
 11
1300.763621
 21
52.908615
 31
0.0
  0
LINE
  5
B3
330
1E
100
AcDbEntity
  8
15
  6
Continuous
 62
    96
100
AcDbLine
 10
1295.497113
 20
57.769988
 30
0.0
 11
1295.497113
 21
52.908615
 31
0.0
  0
LINE
  5
B4
330
1E
100
AcDbEntity
  8
15
  6
Continuous
 62
    96
100
AcDbLine
 10
1311.701710999999
 20
57.769988
 30
0.0
 11
1295.497113
 21
57.769988
 31
0.0
  0
LINE
  5
B5
330
1E
100
AcDbEntity
  8
15
  6
Continuous
 62
    96
100
AcDbLine
 10
1290.230632
 20
44.164056
 30
0.0
 11
1297.355424
 21
37.51424399999999
 31
0.0
  0
ARC
  5
B6
330
1E
100
AcDbEntity
  8
15
  6
Continuous
 62
    96
100
AcDbCircle
 10
1288.567516
 20
50.883037
 30
0.0
 40
6.929597
100
AcDbArc
 50
283.9448469999999
 51
83.640296
  0
LINE
  5
B7
330
1E
100
AcDbEntity
  8
15
  6
Continuous
 62
    96
100
AcDbLine
 10
1279.697633
 20
57.769988
 30
0.0
 11
1289.335114
 21
57.769988
 31
0.0
  0
LINE
  5
B8
330
1E
100
AcDbEntity
  8
15
  6
Continuous
 62
    96
100
AcDbLine
 10
1279.697633
 20
57.769988
 30
0.0
 11
1279.697633
 21
52.908615
 31
0.0
  0
LINE
  5
B9
330
1E
100
AcDbEntity
  8
15
  6
Continuous
 62
    96
100
AcDbLine
 10
1279.697633
 20
52.908615
 30
0.0
 11
1287.799935999999
 21
52.908615
 31
0.0
  0
LINE
  5
BA
330
1E
100
AcDbEntity
  8
15
  6
Continuous
 62
    96
100
AcDbLine
 10
1278.077163
 20
48.857459
 30
0.0
 11
1287.799935999999
 21
48.857459
 31
0.0
  0
ARC
  5
BB
330
1E
100
AcDbEntity
  8
15
  6
Continuous
 62
    96
100
AcDbCircle
 10
1287.799935999999
 20
50.883037
 30
0.0
 40
2.025577999999999
100
AcDbArc
 50
270.0
 51
90.0
  0
LINE
  5
BC
330
1E
100
AcDbEntity
  8
15
  6
Continuous
 62
    96
100
AcDbLine
 10
1278.077163
 20
48.857459
 30
0.0
 11
1290.230632
 21
37.51424399999999
 31
0.0
  0
LINE
  5
BD
330
1E
100
AcDbEntity
  8
15
  6
Continuous
 62
    96
100
AcDbLine
 10
1269.569761
 20
46.02165499999999
 30
0.0
 11
1260.657232
 21
46.02165499999999
 31
0.0
  0
LINE
  5
BE
330
1E
100
AcDbEntity
  8
15
  6
Continuous
 62
    96
100
AcDbLine
 10
1269.569761
 20
57.060591
 30
0.0
 11
1269.569761
 21
46.02165499999999
 31
0.0
  0
LINE
  5
BF
330
1E
100
AcDbEntity
  8
15
  6
Continuous
 62
    96
100
AcDbLine
 10
1249.827946999999
 20
37.51424399999999
 30
0.0
 11
1269.569761
 21
57.060591
 31
0.0
  0
LINE
  5
C0
330
1E
100
AcDbEntity
  8
15
  6
Continuous
 62
    96
100
AcDbLine
 10
1260.657232
 20
46.02165499999999
 30
0.0
 11
1260.657232
 21
37.51424399999999
 31
0.0
  0
LINE
  5
C1
330
1E
100
AcDbEntity
  8
15
  6
Continuous
 62
    96
100
AcDbLine
 10
1260.657232
 20
37.51424399999999
 30
0.0
 11
1278.077163
 21
37.51424399999999
 31
0.0
  0
LINE
  5
C2
330
1E
100
AcDbEntity
  8
15
  6
Continuous
 62
    96
100
AcDbLine
 10
1297.355424
 20
37.51424399999999
 30
0.0
 11
1290.230632
 21
37.51424399999999
 31
0.0
  0
LINE
  5
C3
330
1E
100
AcDbEntity
  8
15
  6
Continuous
 62
    96
100
AcDbLine
 10
1300.763621
 20
37.51424399999999
 30
0.0
 11
1306.435238
 21
37.51424399999999
 31
0.0
  0
LINE
  5
C4
330
1E
100
AcDbEntity
  8
15
  6
Continuous
 62
    96
100
AcDbLine
 10
1306.435238
 20
37.51424399999999
 30
0.0
 11
1306.435238
 21
52.908615
 31
0.0
  0
LINE
  5
C5
330
1E
100
AcDbEntity
  8
15
  6
Continuous
 62
    96
100
AcDbLine
 10
1306.435238
 20
52.908615
 30
0.0
 11
1311.701710999999
 21
52.908615
 31
0.0
  0
LINE
  5
C6
330
1E
100
AcDbEntity
  8
15
  6
Continuous
 62
    96
100
AcDbLine
 10
1311.701710999999
 20
52.908615
 30
0.0
 11
1311.701710999999
 21
57.769988
 31
0.0
  0
LINE
  5
C7
330
1E
100
AcDbEntity
  8
15
  6
Continuous
 62
    96
100
AcDbLine
 10
1237.160539
 20
37.51424399999999
 30
0.0
 11
1249.827946999999
 21
37.51424399999999
 31
0.0
  0
TEXT
  5
C8
330
1E
100
AcDbEntity
  8
15
  6
Continuous
 62
    96
100
AcDbText
 10
1316.724534
 20
37.236314
 30
0.0
 40
14.4
  1
株式会社
 41
2.138888999999999
  7
KANJI
100
AcDbText
  0
TEXT
  5
C9
330
1E
100
AcDbEntity
  8
15
  6
Continuous
 62
    96
100
AcDbText
 10
1316.442303
 20
52.759032
 30
0.0
 40
7.2
  1
出入管理システム
 41
1.222221999999999
  7
KANJI
100
AcDbText
  0
LINE
  5
CA
330
1E
100
AcDbEntity
  8
15
  6
Continuous
 62
    96
100
AcDbLine
 10
1437.345924
 20
56.80038299999999
 30
0.0
 11
1387.495274
 21
56.80038299999999
 31
0.0
  0
LINE
  5
CB
330
1E
100
AcDbEntity
  8
15
  6
Continuous
 62
    96
100
AcDbLine
 10
40.0
 20
1062.0
 30
0.0
 11
1580.0
 21
1062.0
 31
0.0
  0
LINE
  5
CC
330
1E
100
AcDbEntity
  8
15
  6
Continuous
 62
    96
100
AcDbLine
 10
40.0
 20
34.0
 30
0.0
 11
1580.0
 21
34.0
 31
0.0
  0
LINE
  5
CD
330
1E
100
AcDbEntity
  8
15
  6
Continuous
 62
    96
100
AcDbLine
 10
40.0
 20
1062.0
 30
0.0
 11
40.0
 21
34.0
 31
0.0
  0
LINE
  5
CE
330
1E
100
AcDbEntity
  8
15
  6
Continuous
 62
    96
100
AcDbLine
 10
1220.0
 20
214.0000269999999
 30
0.0
 11
1580.0
 21
214.0000269999999
 31
0.0
  0
LINE
  5
CF
330
1E
100
AcDbEntity
  8
15
  6
Continuous
 62
    96
100
AcDbLine
 10
1220.0
 20
214.0000269999999
 30
0.0
 11
1580.0
 21
214.0000269999999
 31
0.0
  0
LINE
  5
D0
330
1E
100
AcDbEntity
  8
15
  6
Continuous
 62
    96
100
AcDbLine
 10
1220.0
 20
142.0
 30
0.0
 11
1580.0
 21
142.0
 31
0.0
  0
LINE
  5
D1
330
1E
100
AcDbEntity
  8
15
  6
Continuous
 62
    96
100
AcDbLine
 10
1580.0
 20
1062.0
 30
0.0
 11
1580.0
 21
34.0
 31
0.0
  0
LINE
  5
D2
330
1E
100
AcDbEntity
  8
15
  6
Continuous
 62
    96
100
AcDbLine
 10
1219.89071
 20
234.060274
 30
0.0
 11
1579.996878
 21
234.060274
 31
0.0
  0
TEXT
  5
D3
330
1E
100
AcDbEntity
  8
15
  6
Continuous
 62
    96
100
AcDbText
 10
1244.698024
 20
217.05526
 30
0.0
 40
12.003539
  1
図面履歴
 41
1.133332999999999
  7
KANJI
100
AcDbText
  0
LINE
  5
D4
330
1E
100
AcDbEntity
  8
15
  6
Continuous
 62
    96
100
AcDbLine
 10
1219.89071
 20
234.060274
 30
0.0
 11
1579.996878
 21
234.060274
 31
0.0
  0
TEXT
  5
D5
330
1E
100
AcDbEntity
  8
15
  6
Continuous
 62
    96
100
AcDbText
 10
1244.698024
 20
217.05526
 30
0.0
 40
12.003539
  1
図面履歴
 41
1.133332999999999
  7
KANJI
100
AcDbText
  0
LINE
  5
D6
330
1E
100
AcDbEntity
  8
15
  6
Continuous
 62
    96
100
AcDbLine
 10
1319.920202
 20
234.060274
 30
0.0
 11
1319.920202
 21
213.99
 31
0.0
  0
LINE
  5
D7
330
1E
100
AcDbEntity
  8
15
  6
Continuous
 62
    96
100
AcDbLine
 10
1319.920202
 20
234.060274
 30
0.0
 11
1319.920202
 21
213.99
 31
0.0
  0
LINE
  5
D8
330
1E
100
AcDbEntity
  8
15
  6
Continuous
 62
    96
100
AcDbLine
 10
1578.794228
 20
106.0000269999999
 30
0.0
 11
1220.0
 21
106.0
 31
0.0
  0
TEXT
  5
D9
330
1E
100
AcDbEntity
  8
15
  6
Continuous
 62
    96
100
AcDbText
 10
1222.983087
 20
130.325694
 30
0.0
 40
9.999999
  1
縮尺（Ａ３）
 41
1.08
  7
KANJI
100
AcDbText
  0
TEXT
  5
DA
330
1E
100
AcDbEntity
  8
15
  6
Continuous
 62
    96
100
AcDbText
 10
1484.214567
 20
129.3953459999999
 30
0.0
 40
9.999999
  1
作図
 41
1.08
  7
KANJI
100
AcDbText
  0
LINE
  5
DB
330
1E
100
AcDbEntity
  8
15
  6
Continuous
 62
    96
100
AcDbLine
 10
1380.0
 20
142.0
 30
0.0
 11
1380.0
 21
106.000012
 31
0.0
  0
LINE
  5
DC
330
1E
100
AcDbEntity
  8
15
  6
Continuous
 62
    96
100
AcDbLine
 10
1480.0
 20
142.0
 30
0.0
 11
1480.0
 21
106.0000199999999
 31
0.0
  0
TEXT
  5
DD
330
1E
100
AcDbEntity
  8
15
  6
Continuous
 62
    96
100
AcDbText
 10
1514.907244999999
 20
112.259361
 30
0.0
 40
20.0
  1
横溝
 41
1.08
  7
KANJI
100
AcDbText
  0
TEXT
  5
DE
330
1E
100
AcDbEntity
  8
15
  6
Continuous
 62
    96
100
AcDbText
 10
1382.843798999999
 20
130.703355
 30
0.0
 40
9.999999
  1
検図
 41
1.08
  7
KANJI
100
AcDbText
  0
TEXT
  5
DF
330
1E
100
AcDbEntity
  8
15
  6
Continuous
 62
    96
100
AcDbText
 10
1284.983093
 20
130.325694
 30
0.0
 40
9.999999
  1
承認
 41
1.08
  7
KANJI
100
AcDbText
  0
TEXT
  5
E0
330
1E
100
AcDbEntity
  8
15
  6
Continuous
 62
    96
100
AcDbText
 10
1308.78
 20
111.612
 30
0.0
 40
20.0
  1
仲代
 41
1.08
  7
KANJI
100
AcDbText
  0
TEXT
  5
E1
330
1E
100
AcDbEntity
  8
15
  6
Continuous
 62
    96
100
AcDbText
 10
1228.445741
 20
88.054824
 30
0.0
 40
10.002949
  1
図面番号
 41
1.08
  7
KANJI
100
AcDbText
  0
LINE
  5
E2
330
1E
100
AcDbEntity
  8
15
  6
Continuous
 62
    96
100
AcDbLine
 10
1400.026805
 20
106.015461
 30
0.0
 11
1400.026805
 21
82.01546099999999
 31
0.0
  0
LINE
  5
E3
330
1E
100
AcDbEntity
  8
15
  6
Continuous
 62
    96
100
AcDbLine
 10
1428.026805
 20
106.015481
 30
0.0
 11
1428.026805
 21
82.01548
 31
0.0
  0
TEXT
  5
E4
330
1E
100
AcDbEntity
  8
15
  6
Continuous
 62
    96
100
AcDbText
 10
1404.073469999999
 20
88.48721000000001
 30
0.0
 40
9.999999
  1
日付
 41
1.08
  7
KANJI
100
AcDbText
  0
LINE
  5
E5
330
1E
100
AcDbEntity
  8
15
  6
Continuous
 62
    96
100
AcDbLine
 10
1531.998963
 20
106.0154709999999
 30
0.0
 11
1531.998963
 21
82.01547099999999
 31
0.0
  0
TEXT
  5
E6
330
1E
100
AcDbEntity
  8
15
  6
Continuous
 62
    96
100
AcDbText
 10
1228.445741
 20
88.054824
 30
0.0
 40
10.002949
  1
図面番号
 41
1.08
  7
KANJI
100
AcDbText
  0
LINE
  5
E7
330
1E
100
AcDbEntity
  8
15
  6
Continuous
 62
    96
100
AcDbLine
 10
1400.026805
 20
106.015461
 30
0.0
 11
1400.026805
 21
82.01546099999999
 31
0.0
  0
LINE
  5
E8
330
1E
100
AcDbEntity
  8
15
  6
Continuous
 62
    96
100
AcDbLine
 10
1428.026805
 20
106.015481
 30
0.0
 11
1428.026805
 21
82.01548
 31
0.0
  0
TEXT
  5
E9
330
1E
100
AcDbEntity
  8
15
  6
Continuous
 62
    96
100
AcDbText
 10
1404.073469999999
 20
88.48721000000001
 30
0.0
 40
9.999999
  1
日付
 41
1.08
  7
KANJI
100
AcDbText
  0
LINE
  5
EA
330
1E
100
AcDbEntity
  8
15
  6
Continuous
 62
    96
100
AcDbLine
 10
1531.998963
 20
106.0154709999999
 30
0.0
 11
1531.998963
 21
82.01547099999999
 31
0.0
  0
LINE
  5
EB
330
1E
100
AcDbEntity
  8
15
  6
Continuous
 62
    96
100
AcDbLine
 10
1544.202757
 20
102.960024
 30
0.0
 11
1544.202757
 21
85.040024
 31
0.0
  0
CIRCLE
  5
EC
330
1E
100
AcDbEntity
  8
15
  6
Continuous
 62
    96
100
AcDbCircle
 10
1544.202757
 20
94.00002399999999
 30
0.0
 40
3.839999999999999
  0
CIRCLE
  5
ED
330
1E
100
AcDbEntity
  8
15
  6
Continuous
 62
    96
100
AcDbCircle
 10
1544.202757
 20
94.00002399999999
 30
0.0
 40
6.4
  0
LINE
  5
EE
330
1E
100
AcDbEntity
  8
15
  6
Continuous
 62
    96
100
AcDbLine
 10
1554.759842
 20
97.840024
 30
0.0
 11
1554.759842
 21
90.16002399999999
 31
0.0
  0
LINE
  5
EF
330
1E
100
AcDbEntity
  8
15
  6
Continuous
 62
    96
100
AcDbLine
 10
1575.239842
 20
100.400024
 30
0.0
 11
1575.239842
 21
87.60002400000001
 31
0.0
  0
LINE
  5
F0
330
1E
100
AcDbEntity
  8
15
  6
Continuous
 62
    96
100
AcDbLine
 10
1554.759842
 20
97.840024
 30
0.0
 11
1575.239842
 21
100.400024
 31
0.0
  0
LINE
  5
F1
330
1E
100
AcDbEntity
  8
15
  6
Continuous
 62
    96
100
AcDbLine
 10
1554.759842
 20
90.16002399999999
 30
0.0
 11
1575.239842
 21
87.60002400000001
 31
0.0
  0
LINE
  5
F2
330
1E
100
AcDbEntity
  8
15
  6
Continuous
 62
    96
100
AcDbLine
 10
1535.242756999999
 20
94.00002399999999
 30
0.0
 11
1577.423841999999
 21
94.00002399999999
 31
0.0
  0
TEXT
  5
F3
330
1E
100
AcDbEntity
  8
15
  6
Continuous
 62
    96
100
AcDbText
 10
1231.336119999999
 20
112.037819
 30
0.0
 40
12.0
  1
１：４
  7
KANJI
100
AcDbText
  0
LINE
  5
F4
330
1E
100
AcDbEntity
  8
15
  6
Continuous
 62
    96
100
AcDbLine
 10
1280.0
 20
142.0
 30
0.0
 11
1280.0
 21
81.999983
 31
0.0
  0
TEXT
  5
F5
330
1E
100
AcDbEntity
  8
15
  6
Continuous
 62
    96
100
AcDbText
 10
774.678667
 20
46.000003
 30
0.0
 40
12.0
  1
*  記載されている会社名、製品名は、登録商標または商品です。
 41
1.078494999999999
  7
KANJI
100
AcDbText
  0
CIRCLE
  5
F6
330
1E
100
AcDbEntity
  8
1
  6
Continuous
 62
     7
100
AcDbCircle
 10
429.5781999999999
 20
631.9403999999999
 30
0.0
 40
4.25
  0
LINE
  5
F7
330
1E
100
AcDbEntity
  8
1
  6
Continuous
 62
     7
100
AcDbLine
 10
409.5781999999999
 20
621.9403999999999
 30
0.0
 11
409.5781999999999
 21
641.9404
 31
0.0
  0
LINE
  5
F8
330
1E
100
AcDbEntity
  8
1
  6
Continuous
 62
     7
100
AcDbLine
 10
409.5781999999999
 20
641.9404
 30
0.0
 11
359.5781999999999
 21
641.9404
 31
0.0
  0
CIRCLE
  5
F9
330
1E
100
AcDbEntity
  8
1
  6
Continuous
 62
     7
100
AcDbCircle
 10
364.5782
 20
637.9404
 30
0.0
 40
3.5
  0
LINE
  5
FA
330
1E
100
AcDbEntity
  8
1
  6
Continuous
 62
     7
100
AcDbLine
 10
360.8782
 20
622.1403999999999
 30
0.0
 11
408.3782
 21
622.1403999999999
 31
0.0
  0
ARC
  5
FB
330
1E
100
AcDbEntity
  8
1
  6
Continuous
 62
     7
100
AcDbCircle
 10
408.3782
 20
623.1404
 30
0.0
 40
1.0
100
AcDbArc
 50
270.0
 51
0.0
  0
LINE
  5
FC
330
1E
100
AcDbEntity
  8
1
  6
Continuous
 62
     7
100
AcDbLine
 10
408.3782
 20
641.6403999999999
 30
0.0
 11
360.8782
 21
641.6403999999999
 31
0.0
  0
LINE
  5
FD
330
1E
100
AcDbEntity
  8
1
  6
Continuous
 62
     7
100
AcDbLine
 10
409.3782
 20
623.1404
 30
0.0
 11
409.3782
 21
640.6404
 31
0.0
  0
ARC
  5
FE
330
1E
100
AcDbEntity
  8
1
  6
Continuous
 62
     7
100
AcDbCircle
 10
408.3782
 20
640.6404
 30
0.0
 40
1.0
100
AcDbArc
 50
0.0
 51
90.0
  0
LINE
  5
FF
330
1E
100
AcDbEntity
  8
1
  6
Continuous
 62
     7
100
AcDbLine
 10
357.5781999999999
 20
641.9404
 30
0.0
 11
357.5781999999999
 21
621.9403999999999
 31
0.0
  0
LINE
  5
100
330
1E
100
AcDbEntity
  8
1
  6
Continuous
 62
     7
100
AcDbLine
 10
357.5781999999999
 20
621.9403999999999
 30
0.0
 11
407.5782
 21
621.9403999999999
 31
0.0
  0
ARC
  5
101
330
1E
100
AcDbEntity
  8
1
  6
Continuous
 62
     7
100
AcDbCircle
 10
358.8782
 20
640.6404
 30
0.0
 40
1.0
100
AcDbArc
 50
90.0
 51
180.0
  0
LINE
  5
102
330
1E
100
AcDbEntity
  8
1
  6
Continuous
 62
     7
100
AcDbLine
 10
357.8781999999999
 20
640.6404
 30
0.0
 11
357.8781999999999
 21
623.1404
 31
0.0
  0
ARC
  5
103
330
1E
100
AcDbEntity
  8
1
  6
Continuous
 62
     7
100
AcDbCircle
 10
358.8782
 20
623.1404
 30
0.0
 40
1.0
100
AcDbArc
 50
180.0
 51
270.0
  0
LINE
  5
104
330
1E
100
AcDbEntity
  8
1
  6
Continuous
 62
     7
100
AcDbLine
 10
357.5781999999999
 20
641.9404
 30
0.0
 11
360.1942
 21
641.9404
 31
0.0
  0
LINE
  5
105
330
1E
100
AcDbEntity
  8
1
  6
Continuous
 62
     7
100
AcDbLine
 10
358.8782
 20
641.6403999999999
 30
0.0
 11
360.8782
 21
641.6403999999999
 31
0.0
  0
LINE
  5
106
330
1E
100
AcDbEntity
  8
1
  6
Continuous
 62
     7
100
AcDbLine
 10
358.8782
 20
622.1403999999999
 30
0.0
 11
361.6622
 21
622.1403999999999
 31
0.0
  0
LINE
  5
107
330
1E
100
AcDbEntity
  8
1
  6
Continuous
 62
     7
100
AcDbLine
 10
407.5782
 20
621.9403999999999
 30
0.0
 11
409.5781999999999
 21
621.9403999999999
 31
0.0
  0
LINE
  5
108
330
1E
100
AcDbEntity
  8
1
  6
Continuous
 62
     7
100
AcDbLine
 10
656.0782
 20
723.9403999999999
 30
0.0
 11
641.5782
 21
723.9403999999999
 31
0.0
  0
LINE
  5
109
330
1E
100
AcDbEntity
  8
1
  6
Continuous
 62
     7
100
AcDbLine
 10
641.5782
 20
723.9403999999999
 30
0.0
 11
641.5782
 21
323.9404
 31
0.0
  0
LINE
  5
10A
330
1E
100
AcDbEntity
  8
1
  6
Continuous
 62
     7
100
AcDbLine
 10
641.5782
 20
323.9404
 30
0.0
 11
656.0782
 21
323.9404
 31
0.0
  0
LINE
  5
10B
330
1E
100
AcDbEntity
  8
1
  6
Continuous
 62
     7
100
AcDbLine
 10
656.0782
 20
323.9404
 30
0.0
 11
656.0782
 21
723.9403999999999
 31
0.0
  0
LINE
  5
10C
330
1E
100
AcDbEntity
  8
1
  6
Continuous
 62
     7
100
AcDbLine
 10
721.5782
 20
723.9403999999999
 30
0.0
 11
721.5782
 21
323.9404
 31
0.0
  0
LINE
  5
10D
330
1E
100
AcDbEntity
  8
1
  6
Continuous
 62
     7
100
AcDbLine
 10
721.5782
 20
323.9404
 30
0.0
 11
656.0782
 21
323.9404
 31
0.0
  0
LINE
  5
10E
330
1E
100
AcDbEntity
  8
1
  6
Continuous
 62
     7
100
AcDbLine
 10
656.0782
 20
323.9404
 30
0.0
 11
656.0782
 21
723.9403999999999
 31
0.0
  0
LINE
  5
10F
330
1E
100
AcDbEntity
  8
1
  6
Continuous
 62
     7
100
AcDbLine
 10
656.0782
 20
723.9403999999999
 30
0.0
 11
721.5782
 21
723.9403999999999
 31
0.0
  0
LINE
  5
110
330
1E
100
AcDbEntity
  8
1
  6
Continuous
 62
     7
100
AcDbLine
 10
657.0782
 20
723.9403999999999
 30
0.0
 11
657.0782
 21
323.9404
 31
0.0
  0
LINE
  5
111
330
1E
100
AcDbEntity
  8
1
  6
Continuous
 62
     7
100
AcDbLine
 10
641.5782
 20
641.4403999999999
 30
0.0
 11
635.5782
 21
641.4403999999999
 31
0.0
  0
LINE
  5
112
330
1E
100
AcDbEntity
  8
1
  6
Continuous
 62
     7
100
AcDbLine
 10
635.5782
 20
641.4403999999999
 30
0.0
 11
635.5782
 21
634.4403999999999
 31
0.0
  0
LINE
  5
113
330
1E
100
AcDbEntity
  8
1
  6
Continuous
 62
     7
100
AcDbLine
 10
635.5782
 20
634.4403999999999
 30
0.0
 11
641.5782
 21
634.4403999999999
 31
0.0
  0
LINE
  5
114
330
1E
100
AcDbEntity
  8
1
  6
Continuous
 62
     7
100
AcDbLine
 10
781.5782
 20
723.9403999999999
 30
0.0
 11
781.5782
 21
323.9404
 31
0.0
  0
CIRCLE
  5
115
330
1E
100
AcDbEntity
  8
1
  6
Continuous
 62
     7
100
AcDbCircle
 10
801.5781999999999
 20
343.9404
 30
0.0
 40
3.0
  0
LINE
  5
116
330
1E
100
AcDbEntity
  8
1
  6
Continuous
 62
     7
100
AcDbLine
 10
447.5781999999999
 20
676.4403999999999
 30
0.0
 11
369.5781999999999
 21
676.4403999999999
 31
0.0
  0
LINE
  5
117
330
1E
100
AcDbEntity
  8
1
  6
Continuous
 62
     7
100
AcDbLine
 10
447.5781999999999
 20
661.9403999999999
 30
0.0
 11
447.5781999999999
 21
676.4403999999999
 31
0.0
  0
LINE
  5
118
330
1E
100
AcDbEntity
  8
1
  6
Continuous
 62
     7
100
AcDbLine
 10
369.5781999999999
 20
661.9403999999999
 30
0.0
 11
447.5781999999999
 21
661.9403999999999
 31
0.0
  0
LINE
  5
119
330
1E
100
AcDbEntity
  8
1
  6
Continuous
 62
     7
100
AcDbLine
 10
369.5781999999999
 20
676.4403999999999
 30
0.0
 11
369.5781999999999
 21
661.9403999999999
 31
0.0
  0
LINE
  5
11A
330
1E
100
AcDbEntity
  8
1
  6
Continuous
 62
     7
100
AcDbLine
 10
461.5782
 20
683.9404
 30
0.0
 11
353.5781999999999
 21
683.9404
 31
0.0
  0
LINE
  5
11B
330
1E
100
AcDbEntity
  8
1
  6
Continuous
 62
     7
100
AcDbLine
 10
461.5782
 20
613.9403999999999
 30
0.0
 11
461.5782
 21
683.9404
 31
0.0
  0
LINE
  5
11C
330
1E
100
AcDbEntity
  8
1
  6
Continuous
 62
     7
100
AcDbLine
 10
353.5781999999999
 20
613.9403999999999
 30
0.0
 11
461.5782
 21
613.9403999999999
 31
0.0
  0
LINE
  5
11D
330
1E
100
AcDbEntity
  8
1
  6
Continuous
 62
     7
100
AcDbLine
 10
353.5781999999999
 20
683.9404
 30
0.0
 11
353.5781999999999
 21
613.9403999999999
 31
0.0
  0
LINE
  5
11E
330
1E
100
AcDbEntity
  8
1
  6
Continuous
 62
     7
100
AcDbLine
 10
501.5781999999999
 20
323.9404
 30
0.0
 11
501.5781999999999
 21
723.9403999999999
 31
0.0
  0
LINE
  5
11F
330
1E
100
AcDbEntity
  8
1
  6
Continuous
 62
     7
100
AcDbLine
 10
201.5782
 20
723.9403999999999
 30
0.0
 11
201.5782
 21
323.9404
 31
0.0
  0
LINE
  5
120
330
1E
100
AcDbEntity
  8
1
  6
Continuous
 62
     7
100
AcDbLine
 10
501.5781999999999
 20
723.9403999999999
 30
0.0
 11
201.5782
 21
723.9403999999999
 31
0.0
  0
LINE
  5
121
330
1E
100
AcDbEntity
  8
1
  6
Continuous
 62
     7
100
AcDbLine
 10
201.5782
 20
723.9403999999999
 30
0.0
 11
501.5781999999999
 21
723.9403999999999
 31
0.0
  0
LINE
  5
122
330
1E
100
AcDbEntity
  8
1
  6
Continuous
 62
     7
100
AcDbLine
 10
201.5782
 20
323.9404
 30
0.0
 11
201.5782
 21
723.9403999999999
 31
0.0
  0
LINE
  5
123
330
1E
100
AcDbEntity
  8
1
  6
Continuous
 62
     7
100
AcDbLine
 10
501.5781999999999
 20
723.9403999999999
 30
0.0
 11
501.5781999999999
 21
323.9404
 31
0.0
  0
LINE
  5
124
330
1E
100
AcDbEntity
  8
1
  6
Continuous
 62
     7
100
AcDbLine
 10
201.5782
 20
323.9404
 30
0.0
 11
501.5781999999999
 21
323.9404
 31
0.0
  0
LINE
  5
125
330
1E
100
AcDbEntity
  8
1
  6
Continuous
 62
     7
100
AcDbLine
 10
501.5781999999999
 20
323.9404
 30
0.0
 11
201.5782
 21
323.9404
 31
0.0
  0
LINE
  5
126
330
1E
100
AcDbEntity
  8
1
  6
Continuous
 62
     7
100
AcDbLine
 10
219.7071329999999
 20
531.0114679999998
 30
0.0
 11
180.757872
 21
568.9607269999998
 31
0.0
  0
LINE
  5
127
330
1E
100
AcDbEntity
  8
1
  6
Continuous
 62
     7
100
AcDbLine
 10
180.757872
 20
568.9607269999998
 30
0.0
 11
104.832435
 21
568.9607269999998
 31
0.0
  0
TEXT
  5
128
330
1E
100
AcDbEntity
  8
1
  6
Continuous
 62
     7
100
AcDbText
 10
104.832435
 20
569.003798
 30
0.0
 40
12.0
  1
シリンダー錠
 41
1.133332999999999
  7
KANJI
100
AcDbText
  0
LINE
  5
129
330
1E
100
AcDbEntity
  8
1
  6
Continuous
 62
     7
100
AcDbLine
 10
219.7071329999999
 20
531.0114679999998
 30
0.0
 11
211.331577
 21
535.702957
 31
0.0
  0
LINE
  5
12A
330
1E
100
AcDbEntity
  8
1
  6
Continuous
 62
     7
100
AcDbLine
 10
219.7071329999999
 20
531.0114679999998
 30
0.0
 11
214.7994329999999
 21
539.262194
 31
0.0
  0
DIMENSION
  5
12B
330
1E
100
AcDbEntity
  8
1
  6
Continuous
 62
     7
100
AcDbDimension
  2
*D0
 10
641.5782
 20
778.7503
 30
0.0
 11
679.6646360000001
 21
780.7503
 31
0.0
  1
80
 71
     5
 42
-1.0
100
AcDbAlignedDimension
 13
641.5782
 23
731.9403999999999
 33
0.0
 14
721.5782
 24
731.9403999999999
 34
0.0
100
AcDbRotatedDimension
  0
DIMENSION
  5
12C
330
1E
100
AcDbEntity
  8
1
  6
Continuous
 62
     7
100
AcDbDimension
  2
*D1
 10
201.5782
 20
776.7503
 30
0.0
 11
347.753936
 21
778.7503
 31
0.0
  1
300
 71
     5
 42
-1.0
100
AcDbAlignedDimension
 13
201.5782
 23
731.9403999999999
 33
0.0
 14
501.5781999999999
 24
731.9403999999999
 34
0.0
100
AcDbRotatedDimension
  0
DIMENSION
  5
12D
330
1E
100
AcDbEntity
  8
1
  6
Continuous
 62
     7
100
AcDbDimension
  2
*D2
 10
555.744036
 20
723.9403999999999
 30
0.0
 11
553.744036
 21
524.6511
 31
0.0
  1
400
 71
     5
 42
-1.0
100
AcDbAlignedDimension
 13
509.5781999999999
 23
723.9403999999999
 33
0.0
 14
509.5781999999999
 24
323.9404
 34
0.0
 50
270.0
100
AcDbRotatedDimension
  0
DIMENSION
  5
12E
330
1E
100
AcDbEntity
  8
1
  6
Continuous
 62
     7
100
AcDbDimension
  2
*D3
 10
801.5781999999999
 20
241.4986999999999
 30
0.0
 11
929.5306359999999
 21
240.6252999999999
 31
0.0
  1
260
 71
     5
 42
-1.0
100
AcDbAlignedDimension
 13
801.5781999999999
 23
335.9404
 33
0.0
 14
1061.5782
 24
335.9404
 34
0.0
100
AcDbRotatedDimension
  0
TEXT
  5
12F
330
1E
100
AcDbEntity
  8
15
  6
DIVIDE
 62
    96
100
AcDbText
 10
1417.0
 20
1001.0
 30
0.0
 40
12.0
  1
SPCC　ｔ1.2
 41
0.611111
  7
KANJI
100
AcDbText
  0
LINE
  5
130
330
1E
100
AcDbEntity
  8
1
  6
Continuous
 62
     7
100
AcDbLine
 10
1083.061464
 20
323.9380959999999
 30
0.0
 11
1083.061464
 21
723.9403999999999
 31
0.0
  0
LINE
  5
131
330
1E
100
AcDbEntity
  8
1
  6
Continuous
 62
     7
100
AcDbLine
 10
1083.061464
 20
723.9403999999999
 30
0.0
 11
781.5782
 21
723.9403999999999
 31
0.0
  0
LINE
  5
132
330
1E
100
AcDbEntity
  8
1
  6
Continuous
 62
     7
100
AcDbLine
 10
781.5782
 20
323.9404
 30
0.0
 11
1083.061464
 21
323.9404
 31
0.0
  0
CIRCLE
  5
133
330
1E
100
AcDbEntity
  8
1
  6
Continuous
 62
     7
100
AcDbCircle
 10
1061.5892
 20
344.3084569999999
 30
0.0
 40
3.0
  0
LINE
  5
134
330
1E
100
AcDbEntity
  8
1
  6
Continuous
 62
     7
100
AcDbLine
 10
1075.210645
 20
464.211329
 30
0.0
 11
1075.210645
 21
388.753329
 31
0.0
  0
LINE
  5
135
330
1E
100
AcDbEntity
  8
1
  6
Continuous
 62
     7
100
AcDbLine
 10
1075.210645
 20
503.7533289999999
 30
0.0
 11
1075.210645
 21
464.211329
 31
0.0
  0
LINE
  5
136
330
1E
100
AcDbEntity
  8
1
  6
DASHDOT
 62
     7
100
AcDbLine
 10
1083.010644999999
 20
446.253329
 30
0.0
 11
1020.210644999999
 21
446.253329
 31
0.0
  0
LINE
  5
137
330
1E
100
AcDbEntity
  8
1
  6
Continuous
 62
     7
100
AcDbLine
 10
1075.210645
 20
503.7533289999999
 30
0.0
 11
1093.009181
 21
529.141129
 31
0.0
  0
LINE
  5
138
330
1E
100
AcDbEntity
  8
1
  6
Continuous
 62
     7
100
AcDbLine
 10
1093.009181
 20
529.141129
 30
0.0
 11
1129.407581
 21
529.141129
 31
0.0
  0
TEXT
  5
139
330
1E
100
AcDbEntity
  8
1
  6
Continuous
 62
     7
100
AcDbText
 10
1091.807581
 20
531.1411289999999
 30
0.0
 40
12.0
  1
通線孔
 41
1.133332999999999
  7
KANJI
100
AcDbText
  0
LINE
  5
13A
330
1E
100
AcDbEntity
  8
1
  6
Continuous
 62
     7
100
AcDbLine
 10
1075.210645
 20
503.7533289999999
 30
0.0
 11
1078.499235999999
 21
512.7724849999999
 31
0.0
  0
LINE
  5
13B
330
1E
100
AcDbEntity
  8
1
  6
Continuous
 62
     7
100
AcDbLine
 10
1075.210645
 20
503.7533289999999
 30
0.0
 11
1082.568226
 21
509.9198519999999
 31
0.0
  0
DIMENSION
  5
13C
330
1E
100
AcDbEntity
  8
1
  6
Continuous
 62
     7
100
AcDbDimension
  2
*D4
 10
992.0111810000001
 20
503.7533289999999
 30
0.0
 11
992.0111810000001
 21
444.376029
 31
0.0
  1
115
 71
     5
 42
-1.0
100
AcDbAlignedDimension
 13
1022.210644999999
 23
503.7533289999999
 33
0.0
 14
1022.210644999999
 24
388.753329
 34
0.0
 50
270.0
100
AcDbRotatedDimension
  0
LINE
  5
13D
330
1E
100
AcDbEntity
  8
1
  6
Continuous
 62
     7
100
AcDbLine
 10
1034.984899999999
 20
388.7533059999999
 30
0.0
 11
1034.984899999999
 21
464.2113059999999
 31
0.0
  0
LINE
  5
13E
330
1E
100
AcDbEntity
  8
1
  6
Continuous
 62
     7
100
AcDbLine
 10
1034.984899999999
 20
464.2113059999999
 30
0.0
 11
1034.984899999999
 21
503.7533059999999
 31
0.0
  0
DIMENSION
  5
13F
330
1E
100
AcDbEntity
  8
1
  6
Continuous
 62
     7
100
AcDbDimension
  2
*D5
 10
1075.210645
 20
543.5973999999999
 30
0.0
 11
1055.521099999999
 21
543.3386
 31
0.0
  1
40
 71
     5
 42
-1.0
100
AcDbAlignedDimension
 13
1075.210645
 23
511.7533289999999
 33
0.0
 14
1034.984899999999
 24
511.7533059999999
 34
0.0
 50
180.0
100
AcDbRotatedDimension
  0
LINE
  5
140
330
1E
100
AcDbEntity
  8
1
  6
DASHDOT
 62
     7
100
AcDbLine
 10
1054.665426
 20
513.7532769999999
 30
0.0
 11
1054.665426
 21
378.753277
 31
0.0
  0
LINE
  5
141
330
1E
100
AcDbEntity
  8
1
  6
Continuous
 62
     7
100
AcDbLine
 10
1075.210645
 20
503.7533289999999
 30
0.0
 11
1034.984899999999
 21
503.7533289999999
 31
0.0
  0
LINE
  5
142
330
1E
100
AcDbEntity
  8
1
  6
Continuous
 62
     7
100
AcDbLine
 10
1075.210645
 20
388.753329
 30
0.0
 11
1034.984899999999
 21
388.753329
 31
0.0
  0
ARC
  5
143
330
1E
100
AcDbEntity
  8
1
  6
Continuous
 62
     7
100
AcDbCircle
 10
933.007588
 20
709.1175820000001
 30
0.0
 40
3.0
100
AcDbArc
 50
0.0
 51
180.0
  0
ARC
  5
144
330
1E
100
AcDbEntity
  8
1
  6
Continuous
 62
     7
100
AcDbCircle
 10
933.007588
 20
703.9462499999999
 30
0.0
 40
6.0
100
AcDbArc
 50
120.470701
 51
60.370063
  0
LINE
  5
145
330
1E
100
AcDbEntity
  8
1
  6
DASHDOT
 62
     7
100
AcDbLine
 10
912.4988169999999
 20
710.3073000000001
 30
0.0
 11
957.9181720000001
 21
710.3073000000001
 31
0.0
  0
CIRCLE
  5
146
330
1E
100
AcDbEntity
  8
1
  6
Continuous
 62
     7
100
AcDbCircle
 10
226.7781999999999
 20
523.9404009999999
 30
0.0
 40
9.999999
  0
CIRCLE
  5
147
330
1E
100
AcDbEntity
  8
1
  6
Continuous
 62
     7
100
AcDbCircle
 10
226.7781999999999
 20
523.9404009999999
 30
0.0
 40
8.999999
  0
CIRCLE
  5
148
330
1E
100
AcDbEntity
  8
1
  6
Continuous
 62
     7
100
AcDbCircle
 10
226.7781999999999
 20
520.9404009999999
 30
0.0
 40
5.0
  0
LINE
  5
149
330
1E
100
AcDbEntity
  8
1
  6
Continuous
 62
     7
100
AcDbLine
 10
225.7782
 20
516.0404009999999
 30
0.0
 11
225.7782
 21
524.4404009999999
 31
0.0
  0
LINE
  5
14A
330
1E
100
AcDbEntity
  8
1
  6
Continuous
 62
     7
100
AcDbLine
 10
225.7782
 20
524.4404009999999
 30
0.0
 11
227.778202
 21
524.4404009999999
 31
0.0
  0
LINE
  5
14B
330
1E
100
AcDbEntity
  8
1
  6
Continuous
 62
     7
100
AcDbLine
 10
227.778202
 20
524.4404009999999
 30
0.0
 11
227.778202
 21
516.0404009999999
 31
0.0
  0
ARC
  5
14C
330
1E
100
AcDbEntity
  8
1
  6
Continuous
 62
     7
100
AcDbCircle
 10
226.7781999999999
 20
518.4404009999999
 30
0.0
 40
2.5
100
AcDbArc
 50
113.5029389999999
 51
246.4864429999999
  0
ARC
  5
14D
330
1E
100
AcDbEntity
  8
1
  6
Continuous
 62
     7
100
AcDbCircle
 10
226.7781999999999
 20
518.4404009999999
 30
0.0
 40
2.5
100
AcDbArc
 50
293.526278
 51
66.509783
  0
TEXT
  5
14E
330
1E
100
AcDbEntity
  8
15
  6
Continuous
 62
    96
100
AcDbText
 10
1338.0
 20
150.0
 30
0.0
 40
20.0
  1
センサ監視盤
 41
1.08
  7
KANJI
100
AcDbText
  0
LINE
  5
14F
330
1E
100
AcDbEntity
  8
1
  6
DASHDOT
 62
     7
100
AcDbLine
 10
933.0614640000002
 20
751.602978
 30
0.0
 11
933.0614640000002
 21
310.72942
 31
0.0
  0
DIMENSION
  5
150
330
1E
100
AcDbEntity
  8
1
  6
Continuous
 62
     7
100
AcDbDimension
  2
*D6
 10
933.0614640000002
 20
280.2559
 30
0.0
 11
993.863445
 21
282.2559
 31
0.0
  1
120
 71
     5
 42
-1.0
100
AcDbAlignedDimension
 13
933.0614640000002
 23
302.72942
 33
0.0
 14
1054.665426
 24
370.753277
 34
0.0
100
AcDbRotatedDimension
  0
DIMENSION
  5
151
330
1E
100
AcDbEntity
  8
1
  6
Continuous
 62
     7
100
AcDbDimension
  2
*D7
 10
1125.701
 20
446.253329
 30
0.0
 11
1123.701
 21
385.096865
 31
0.0
  1
122.5
 71
     5
 42
-1.0
100
AcDbAlignedDimension
 13
1091.010644999999
 23
446.253329
 33
0.0
 14
1091.061464
 24
323.9404
 34
0.0
 50
270.0
100
AcDbRotatedDimension
  0
DIMENSION
  5
152
330
1E
100
AcDbEntity
  8
1
  6
Continuous
 62
     7
100
AcDbDimension
  2
*D8
 10
1170.020199999999
 20
344.3084569999999
 30
0.0
 11
1168.020199999999
 21
334.124429
 31
0.0
  1
20
 71
     5
 42
-1.0
100
AcDbAlignedDimension
 13
1073.663675
 23
344.3084569999999
 33
0.0
 14
1091.061464
 24
323.9404
 34
0.0
 50
270.0
100
AcDbRotatedDimension
  0
DIMENSION
  5
153
330
1E
100
AcDbEntity
  8
1
  6
Continuous
 62
     7
100
AcDbDimension
  2
*D9
 10
1170.020199999999
 20
710.3073000000001
 30
0.0
 11
1168.020199999999
 21
527.3078789999999
 31
0.0
  1
366
 71
     5
 42
-1.0
100
AcDbAlignedDimension
 13
965.9181720000001
 23
710.3073000000001
 33
0.0
 14
1073.663675
 24
344.3084569999999
 34
0.0
 50
270.0
100
AcDbRotatedDimension
  0
LINE
  5
154
330
1E
100
AcDbEntity
  8
15
  6
Continuous
 62
    96
100
AcDbLine
 10
1269.462338
 20
952.0
 30
0.0
 11
1580.0
 21
952.0
 31
0.0
  0
TEXT
  5
155
330
1E
100
AcDbEntity
  8
15
  6
DIVIDE
 62
    96
100
AcDbText
 10
1275.4719
 20
956.3135
 30
0.0
 40
12.0
  1
本　体
  7
KANJI
100
AcDbText
  0
TEXT
  5
156
330
1E
100
AcDbEntity
  8
15
  6
DIVIDE
 62
    96
100
AcDbText
 10
1276.2483
 20
933.7979
 30
0.0
 40
12.0
  1
パネル
  7
KANJI
100
AcDbText
  0
LINE
  5
157
330
1E
100
AcDbEntity
  8
1
  6
DASHDOT
 62
     7
100
AcDbLine
 10
1061.5892
 20
348.926602
 30
0.0
 11
1061.5892
 21
339.9624509999999
 31
0.0
  0
LINE
  5
158
330
1E
100
AcDbEntity
  8
1
  6
DASHDOT
 62
     7
100
AcDbLine
 10
1057.141557
 20
344.3084569999999
 30
0.0
 11
1065.663675
 21
344.3084569999999
 31
0.0
  0
LINE
  5
159
330
1E
100
AcDbEntity
  8
1
  6
DASHDOT
 62
     7
100
AcDbLine
 10
801.5781999999999
 20
348.5585439999999
 30
0.0
 11
801.5781999999999
 21
339.594393
 31
0.0
  0
LINE
  5
15A
330
1E
100
AcDbEntity
  8
1
  6
DASHDOT
 62
     7
100
AcDbLine
 10
797.1305570000001
 20
343.9404
 30
0.0
 11
805.6526749999999
 21
343.9404
 31
0.0
  0
TEXT
  5
15B
330
1E
100
AcDbEntity
  8
15
  6
Continuous
 62
    96
100
AcDbText
 10
1420.3288
 20
111.4136
 30
0.0
 40
20.0
  1
片山
 41
1.08
  7
KANJI
100
AcDbText
  0
TEXT
  5
15C
330
1E
100
AcDbEntity
  8
15
  6
Continuous
 62
    96
100
AcDbText
 10
1317.2
 20
186.000027
 30
0.0
 40
20.0
  1
ＷＳＥＮＳ－０６
 41
1.08
  7
KANJI
100
AcDbText
  0
TEXT
  5
15D
330
1E
100
AcDbEntity
  8
15
  6
Continuous
 62
    96
100
AcDbText
 10
1408.0
 20
1045.0
 30
0.0
 40
12.0
  1
０１０２４１６
  7
KANJI
100
AcDbText
  0
LINE
  5
15E
330
1E
100
AcDbEntity
  8
15
  6
Continuous
 62
    96
100
AcDbLine
 10
1269.4674
 20
974.0
 30
0.0
 11
1269.4674
 21
930.0
 31
0.0
  0
TEXT
  5
15F
330
1E
100
AcDbEntity
  8
15
  6
DIVIDE
 62
    96
100
AcDbText
 10
1225.8462
 20
945.3504999999999
 30
0.0
 40
12.0
  1
彩　色
  7
KANJI
100
AcDbText
  0
TEXT
  5
160
330
1E
100
AcDbEntity
  8
15
  6
Continuous
 62
    96
100
AcDbText
 10
1245.9289
 20
869.0
 30
0.0
 40
12.0
  1
消費電力
  7
KANJI
100
AcDbText
  0
TEXT
  5
161
330
1E
100
AcDbEntity
  8
15
  6
Continuous
 62
    96
100
AcDbText
 10
1245.9289
 20
891.0
 30
0.0
 40
12.0
  1
入力電源
  7
KANJI
100
AcDbText
  0
TEXT
  5
162
330
1E
100
AcDbEntity
  8
15
  6
DIVIDE
 62
    96
100
AcDbText
 10
1251.9289
 20
913.0
 30
0.0
 40
12.0
  1
重　量
  7
KANJI
100
AcDbText
  0
LINE
  5
163
330
1E
100
AcDbEntity
  8
15
  6
Continuous
 62
    96
100
AcDbLine
 10
1219.9289
 20
798.0
 30
0.0
 11
1579.901057999999
 21
798.0
 31
0.0
  0
LINE
  5
164
330
1E
100
AcDbEntity
  8
15
  6
Continuous
 62
    96
100
AcDbLine
 10
1219.9289
 20
776.0
 30
0.0
 11
1579.9289
 21
776.0
 31
0.0
  0
LINE
  5
165
330
1E
100
AcDbEntity
  8
15
  6
Continuous
 62
    96
100
AcDbLine
 10
1219.9289
 20
820.0
 30
0.0
 11
1579.9289
 21
820.0
 31
0.0
  0
LINE
  5
166
330
1E
100
AcDbEntity
  8
15
  6
Continuous
 62
    96
100
AcDbLine
 10
1219.9289
 20
842.0
 30
0.0
 11
1579.9289
 21
842.0
 31
0.0
  0
LINE
  5
167
330
1E
100
AcDbEntity
  8
15
  6
Continuous
 62
    96
100
AcDbLine
 10
1219.9289
 20
864.0
 30
0.0
 11
1579.9289
 21
864.0
 31
0.0
  0
LINE
  5
168
330
1E
100
AcDbEntity
  8
15
  6
Continuous
 62
    96
100
AcDbLine
 10
1219.9289
 20
754.0
 30
0.0
 11
1579.9289
 21
754.0
 31
0.0
  0
LINE
  5
169
330
1E
100
AcDbEntity
  8
15
  6
Continuous
 62
    96
100
AcDbLine
 10
1219.9289
 20
930.0
 30
0.0
 11
1579.9289
 21
930.0
 31
0.0
  0
LINE
  5
16A
330
1E
100
AcDbEntity
  8
15
  6
Continuous
 62
    96
100
AcDbLine
 10
1219.9289
 20
908.0
 30
0.0
 11
1579.9289
 21
908.0
 31
0.0
  0
LINE
  5
16B
330
1E
100
AcDbEntity
  8
15
  6
Continuous
 62
    96
100
AcDbLine
 10
1219.9289
 20
886.0
 30
0.0
 11
1579.9289
 21
886.0
 31
0.0
  0
TEXT
  5
16C
330
1E
100
AcDbEntity
  8
15
  6
Continuous
 62
    96
100
AcDbText
 10
1227.9289
 20
803.0
 30
0.0
 40
12.0
  1
警戒セット入力
  7
KANJI
100
AcDbText
  0
TEXT
  5
16D
330
1E
100
AcDbEntity
  8
15
  6
Continuous
 62
    96
100
AcDbText
 10
1230.9289
 20
781.0
 30
0.0
 40
12.0
  1
ｸﾞﾙｰﾌﾟｾｯﾄ入力
 41
0.590909
  7
KANJI
100
AcDbText
  0
TEXT
  5
16E
330
1E
100
AcDbEntity
  8
15
  6
Continuous
 62
    96
100
AcDbText
 10
1233.9289
 20
759.0
 30
0.0
 40
12.0
  1
強制解除入力
  7
KANJI
100
AcDbText
  0
LINE
  5
16F
330
1E
100
AcDbEntity
  8
15
  6
Continuous
 62
    96
100
AcDbLine
 10
1319.9289
 20
842.0
 30
0.0
 11
1319.9289
 21
754.0
 31
0.0
  0
LINE
  5
170
330
1E
100
AcDbEntity
  8
15
  6
Continuous
 62
    96
100
AcDbLine
 10
1547.9289
 20
842.0
 30
0.0
 11
1547.9289
 21
754.0
 31
0.0
  0
TEXT
  5
171
330
1E
100
AcDbEntity
  8
15
  6
Continuous
 62
    96
100
AcDbText
 10
1551.914979
 20
825.0
 30
0.0
 40
12.0
  1
６点
  7
KANJI
100
AcDbText
  0
TEXT
  5
172
330
1E
100
AcDbEntity
  8
15
  6
Continuous
 62
    96
100
AcDbText
 10
1551.914979
 20
803.0
 30
0.0
 40
12.0
  1
６点
  7
KANJI
100
AcDbText
  0
TEXT
  5
173
330
1E
100
AcDbEntity
  8
15
  6
Continuous
 62
    96
100
AcDbText
 10
1551.914979
 20
781.0
 30
0.0
 40
12.0
  1
２点
  7
KANJI
100
AcDbText
  0
TEXT
  5
174
330
1E
100
AcDbEntity
  8
15
  6
Continuous
 62
    96
100
AcDbText
 10
1551.914979
 20
759.0
 30
0.0
 40
12.0
  1
１点
  7
KANJI
100
AcDbText
  0
TEXT
  5
175
330
1E
100
AcDbEntity
  8
15
  6
Continuous
 62
    96
100
AcDbText
 10
1379.9289
 20
825.0
 30
0.0
 40
12.0
  1
メイク時ループ正常
  7
KANJI
100
AcDbText
  0
TEXT
  5
176
330
1E
100
AcDbEntity
  8
15
  6
Continuous
 62
    96
100
AcDbText
 10
1355.9289
 20
759.0
 30
0.0
 40
12.0
  1
連続入力　メイク時警戒解除
  7
KANJI
100
AcDbText
  0
TEXT
  5
177
330
1E
100
AcDbEntity
  8
15
  6
Continuous
 62
    96
100
AcDbText
 10
1227.9289
 20
825.0
 30
0.0
 40
12.0
  1
個別ループ入力
  7
KANJI
100
AcDbText
  0
TEXT
  5
178
330
1E
100
AcDbEntity
  8
15
  6
Continuous
 62
    96
100
AcDbText
 10
1349.9289
 20
803.0
 30
0.0
 40
12.0
  1
連続入力　メイク時警戒セット
  7
KANJI
100
AcDbText
  0
TEXT
  5
179
330
1E
100
AcDbEntity
  8
15
  6
Continuous
 62
    96
100
AcDbText
 10
1349.9289
 20
781.0
 30
0.0
 40
12.0
  1
連続入力　メイク時警戒セット
  7
KANJI
100
AcDbText
  0
TEXT
  5
17A
330
1E
100
AcDbEntity
  8
15
  6
Continuous
 62
    96
100
AcDbText
 10
1410.9289
 20
891.0
 30
0.0
 40
12.0
  1
AC100Ｖ±10％
 41
0.65
  7
KANJI
100
AcDbText
  0
TEXT
  5
17B
330
1E
100
AcDbEntity
  8
15
  6
Continuous
 62
    96
100
AcDbText
 10
1437.9289
 20
869.0
 30
0.0
 40
12.0
  1
12Ｗ
 41
0.666667
  7
KANJI
100
AcDbText
  0
TEXT
  5
17C
330
1E
100
AcDbEntity
  8
15
  6
Continuous
 62
    96
100
AcDbText
 10
1252.914979
 20
847.0
 30
0.0
 40
12.0
  1
外部入力　：接点容量　DC24Ｖ　0.3Ａ以下（信号用）
 41
0.875
  7
KANJI
100
AcDbText
  0
TEXT
  5
17D
330
1E
100
AcDbEntity
  8
15
  6
Continuous
 62
    96
100
AcDbText
 10
1551.912184999999
 20
671.0
 30
0.0
 40
12.0
  1
２点
  7
KANJI
100
AcDbText
  0
LINE
  5
17E
330
1E
100
AcDbEntity
  8
15
  6
Continuous
 62
    96
100
AcDbLine
 10
1219.898264
 20
688.0
 30
0.0
 11
1579.870421
 21
688.0
 31
0.0
  0
LINE
  5
17F
330
1E
100
AcDbEntity
  8
15
  6
Continuous
 62
    96
100
AcDbLine
 10
1219.926106
 20
710.0
 30
0.0
 11
1579.898264
 21
710.0
 31
0.0
  0
LINE
  5
180
330
1E
100
AcDbEntity
  8
15
  6
Continuous
 62
    96
100
AcDbLine
 10
1219.926106
 20
732.0
 30
0.0
 11
1579.898264
 21
732.0
 31
0.0
  0
LINE
  5
181
330
1E
100
AcDbEntity
  8
15
  6
Continuous
 62
    96
100
AcDbLine
 10
1219.926106
 20
754.0
 30
0.0
 11
1579.898264
 21
754.0
 31
0.0
  0
TEXT
  5
182
330
1E
100
AcDbEntity
  8
15
  6
Continuous
 62
    96
100
AcDbText
 10
1233.926106
 20
715.0
 30
0.0
 40
12.0
  1
個別発報出力
  7
KANJI
100
AcDbText
  0
TEXT
  5
183
330
1E
100
AcDbEntity
  8
15
  6
Continuous
 62
    96
100
AcDbText
 10
1233.898264
 20
693.0
 30
0.0
 40
12.0
  1
代表発報出力
  7
KANJI
100
AcDbText
  0
TEXT
  5
184
330
1E
100
AcDbEntity
  8
15
  6
Continuous
 62
    96
100
AcDbText
 10
1230.926106
 20
671.0
 30
0.0
 40
12.0
  1
ｸﾞﾙｰﾌﾟｾｯﾄ出力
 41
0.590909
  7
KANJI
100
AcDbText
  0
TEXT
  5
185
330
1E
100
AcDbEntity
  8
15
  6
Continuous
 62
    96
100
AcDbText
 10
1397.926106
 20
693.0
 30
0.0
 40
12.0
  1
発報時メイク
  7
KANJI
100
AcDbText
  0
TEXT
  5
186
330
1E
100
AcDbEntity
  8
15
  6
Continuous
 62
    96
100
AcDbText
 10
1397.926106
 20
715.0
 30
0.0
 40
12.0
  1
発報時メイク
  7
KANJI
100
AcDbText
  0
TEXT
  5
187
330
1E
100
AcDbEntity
  8
15
  6
Continuous
 62
    96
100
AcDbText
 10
1551.912184999999
 20
715.0
 30
0.0
 40
12.0
  1
６点
  7
KANJI
100
AcDbText
  0
TEXT
  5
188
330
1E
100
AcDbEntity
  8
15
  6
Continuous
 62
    96
100
AcDbText
 10
1551.884343
 20
693.0
 30
0.0
 40
12.0
  1
１点
  7
KANJI
100
AcDbText
  0
LINE
  5
189
330
1E
100
AcDbEntity
  8
15
  6
Continuous
 62
    96
100
AcDbLine
 10
1547.926106
 20
732.0
 30
0.0
 11
1547.926106
 21
666.0
 31
0.0
  0
LINE
  5
18A
330
1E
100
AcDbEntity
  8
15
  6
Continuous
 62
    96
100
AcDbLine
 10
1319.926106
 20
732.0
 30
0.0
 11
1319.926106
 21
666.0
 31
0.0
  0
LINE
  5
18B
330
1E
100
AcDbEntity
  8
15
  6
Continuous
 62
    96
100
AcDbLine
 10
1219.926106
 20
666.0
 30
0.0
 11
1579.898264
 21
666.0
 31
0.0
  0
TEXT
  5
18C
330
1E
100
AcDbEntity
  8
15
  6
Continuous
 62
    96
100
AcDbText
 10
1367.926106
 20
671.0
 30
0.0
 40
12.0
  1
グループセット時メイク
  7
KANJI
100
AcDbText
  0
TEXT
  5
18D
330
1E
100
AcDbEntity
  8
15
  6
Continuous
 62
    96
100
AcDbText
 10
1252.926106
 20
737.0
 30
0.0
 40
12.0
  1
外部出力　：接点容量　DC24Ｖ　0.3Ａ以下（信号用）
 41
0.875
  7
KANJI
100
AcDbText
  0
LINE
  5
18E
330
1E
100
AcDbEntity
  8
15
  6
Continuous
 62
    96
100
AcDbLine
 10
1219.930683
 20
644.0
 30
0.0
 11
1579.930683
 21
644.0
 31
0.0
  0
LINE
  5
18F
330
1E
100
AcDbEntity
  8
15
  6
Continuous
 62
    96
100
AcDbLine
 10
1219.930683
 20
666.0
 30
0.0
 11
1579.930683
 21
666.0
 31
0.0
  0
LINE
  5
190
330
1E
100
AcDbEntity
  8
15
  6
Continuous
 62
    96
100
AcDbLine
 10
1219.925405
 20
644.0
 30
0.0
 11
1579.925405
 21
644.0
 31
0.0
  0
LINE
  5
191
330
1E
100
AcDbEntity
  8
15
  6
Continuous
 62
    96
100
AcDbLine
 10
1219.925405
 20
622.0
 30
0.0
 11
1579.925405
 21
622.0
 31
0.0
  0
LINE
  5
192
330
1E
100
AcDbEntity
  8
15
  6
Continuous
 62
    96
100
AcDbLine
 10
1219.92871
 20
601.6308
 30
0.0
 11
1579.9289
 21
601.6308
 31
0.0
  0
TEXT
  5
193
330
1E
100
AcDbEntity
  8
15
  6
DIVIDE
 62
    96
100
AcDbText
 10
1431.9289
 20
913.0
 30
0.0
 40
12.0
  1
約８kg
 41
0.75
  7
KANJI
100
AcDbText
  0
TEXT
  5
194
330
1E
100
AcDbEntity
  8
15
  6
Continuous
 62
    96
100
AcDbText
 10
1270.930683
 20
649.0
 30
0.0
 40
12.0
  1
履歴データ保存可能件数は6,000件となります。
 41
0.895833
  7
KANJI
100
AcDbText
  0
TEXT
  5
195
330
1E
100
AcDbEntity
  8
15
  6
Continuous
 62
    96
100
AcDbText
 10
1288.967169
 20
627.0
 30
0.0
 40
12.0
  1
通信方式はLAN（Ethernet）を用います。
 41
0.7708330000000001
  7
KANJI
100
AcDbText
  0
TEXT
  5
196
330
1E
100
AcDbEntity
  8
15
  6
Continuous
 62
    96
100
AcDbText
 10
1293.507824
 20
605.6874999999999
 30
0.0
 40
12.0
  1
センサ電源は別途ご用意ください
 41
1.133332999999999
  7
KANJI
100
AcDbText
  0
LINE
  5
197
330
1E
100
AcDbEntity
  8
15
  6
Continuous
 62
    96
100
AcDbLine
 10
1320.0
 20
1018.0
 30
0.0
 11
1320.0
 21
864.0
 31
0.0
  0
TEXT
  5
198
330
1E
100
AcDbEntity
  8
15
  6
Continuous
 62
    96
100
AcDbText
 10
1437.16689
 20
87.777121
 30
0.0
 40
12.0
  1
2009年04月28日
 41
0.6363640000000001
  7
KANJI
100
AcDbText
  0
TEXT
  5
199
330
1E
100
AcDbEntity
  8
15
  6
Continuous
 62
    96
100
AcDbText
 10
1288.682161999999
 20
87.054612
 30
0.0
 40
14.0
  1
G06026-01-09428
 41
0.5
  7
KANJI
100
AcDbText
  0
TEXT
  5
19A
330
1E
100
AcDbEntity
  8
15
  6
DIVIDE
 62
    96
100
AcDbText
 10
1396.0
 20
957.0
 30
0.0
 40
12.0
  1
ライトグレー　半艶
  7
KANJI
100
AcDbText
  0
TEXT
  5
19B
330
1E
100
AcDbEntity
  8
15
  6
DIVIDE
 62
    96
100
AcDbText
 10
1432.0
 20
935.0
 30
0.0
 40
12.0
  1
黒　色
  7
KANJI
100
AcDbText
  0
ENDSEC
  0
SECTION
  2
OBJECTS
  0
DICTIONARY
  5
C
330
0
100
AcDbDictionary
281
     1
  3
ACAD_GROUP
350
D
  3
ACAD_LAYOUT
350
19
  3
ACAD_MLINESTYLE
350
16
  3
ACAD_PLOTSETTINGS
350
18
  3
ACAD_PLOTSTYLENAME
350
E
  3
AcDbVariableDictionary
350
19F
  0
DICTIONARY
  5
D
102
{ACAD_REACTORS
330
C
102
}
330
C
100
AcDbDictionary
281
     1
  0
DICTIONARY
  5
19
102
{ACAD_REACTORS
330
C
102
}
330
C
100
AcDbDictionary
281
     1
  3
Model
350
21
  3
ﾚｲｱｳﾄ1
350
1D
  0
DICTIONARY
  5
16
102
{ACAD_REACTORS
330
C
102
}
330
C
100
AcDbDictionary
281
     1
  3
Standard
350
17
  0
DICTIONARY
  5
18
102
{ACAD_REACTORS
330
C
102
}
330
C
100
AcDbDictionary
281
     1
  0
ACDBDICTIONARYWDFLT
  5
E
102
{ACAD_REACTORS
330
C
102
}
330
C
100
AcDbDictionary
281
     1
  3
Normal
350
F
100
AcDbDictionaryWithDefault
340
F
  0
DICTIONARY
  5
19F
102
{ACAD_REACTORS
330
C
102
}
330
C
100
AcDbDictionary
281
     1
  3
DIMASSOC
350
1A0
  0
LAYOUT
  5
21
102
{ACAD_REACTORS
330
19
102
}
330
19
100
AcDbPlotSettings
  1

  2
NEC MultiWriter2360/2360N
  4

  6

 40
0.0
 41
0.0
 42
0.0
 43
0.0
 44
0.0
 45
0.0
 46
0.0
 47
0.0
 48
0.0
 49
0.0
140
0.0
141
0.0
142
1.0
143
1.0
 70
  1712
 72
     0
 73
     0
 74
     0
  7

 75
     0
147
1.0
148
0.0
149
0.0
100
AcDbLayout
  1
Model
 70
     1
 71
     0
 10
0.0
 20
0.0
 11
12.0
 21
9.0
 12
0.0
 22
0.0
 32
0.0
 14
0.0
 24
0.0
 34
0.0
 15
0.0
 25
0.0
 35
0.0
146
0.0
 13
0.0
 23
0.0
 33
0.0
 16
1.0
 26
0.0
 36
0.0
 17
0.0
 27
1.0
 37
0.0
 76
     0
330
1E
  0
LAYOUT
  5
1D
102
{ACAD_REACTORS
330
19
102
}
330
19
100
AcDbPlotSettings
  1

  2
NEC MultiWriter2360/2360N
  4

  6

 40
0.0
 41
0.0
 42
0.0
 43
0.0
 44
0.0
 45
0.0
 46
0.0
 47
0.0
 48
0.0
 49
0.0
140
0.0
141
0.0
142
1.0
143
1.0
 70
   688
 72
     0
 73
     0
 74
     5
  7

 75
    16
147
1.0
148
0.0
149
0.0
100
AcDbLayout
  1
ﾚｲｱｳﾄ1
 70
     1
 71
     1
 10
0.0
 20
0.0
 11
12.0
 21
9.0
 12
0.0
 22
0.0
 32
0.0
 14
0.0
 24
0.0
 34
0.0
 15
420.0
 25
297.0
 35
0.0
146
0.0
 13
0.0
 23
0.0
 33
0.0
 16
1.0
 26
0.0
 36
0.0
 17
0.0
 27
1.0
 37
0.0
 76
     0
330
1A
  0
MLINESTYLE
  5
17
102
{ACAD_REACTORS
330
16
102
}
330
16
100
AcDbMlineStyle
  2
STANDARD
 70
     0
  3

 62
   256
 51
90.0
 52
90.0
 71
     2
 49
0.5
 62
   256
  6
BYLAYER
 49
-0.5
 62
   256
  6
BYLAYER
  0
ACDBPLACEHOLDER
  5
F
102
{ACAD_REACTORS
330
E
102
}
330
E
  0
DICTIONARYVAR
  5
1A0
102
{ACAD_REACTORS
330
19F
102
}
330
19F
100
DictionaryVariables
280
     0
  1
0
  0
ENDSEC
  0
EOF
