  0
SECTION
  2
HEADER
  9
$ACADVER
  1
AC1015
  9
$ACADMAINTVER
 70
     6
  9
$DWGCODEPAGE
  3
ANSI_932
  9
$INSBASE
 10
0.0
 20
0.0
 30
0.0
  9
$EXTMIN
 10
15.0
 20
14.99967714084742
 30
0.0
  9
$EXTMAX
 10
400.2589958481754
 20
272.0757920685739
 30
0.0
  9
$LIMMIN
 10
0.0
 20
0.0
  9
$LIMMAX
 10
420.0
 20
297.0
  9
$ORTHOMODE
 70
     0
  9
$REGENMODE
 70
     1
  9
$FILLMODE
 70
     1
  9
$QTEXTMODE
 70
     0
  9
$MIRRTEXT
 70
     1
  9
$LTSCALE
 40
0.25
  9
$ATTMODE
 70
     1
  9
$TEXTSIZE
 40
3.0
  9
$TRACEWID
 40
0.05
  9
$TEXTSTYLE
  7
Standard
  9
$CLAYER
  8
0
  9
$CELTYPE
  6
ByLayer
  9
$CECOLOR
 62
   256
  9
$CELTSCALE
 40
1.0
  9
$DISPSILH
 70
     0
  9
$DIMSCALE
 40
1.0
  9
$DIMASZ
 40
2.4
  9
$DIMEXO
 40
2.0
  9
$DIMDLI
 40
10.0
  9
$DIMRND
 40
0.0
  9
$DIMDLE
 40
0.0
  9
$DIMEXE
 40
2.0
  9
$DIMTP
 40
0.0
  9
$DIMTM
 40
0.0
  9
$DIMTXT
 40
3.0
  9
$DIMCEN
 40
0.09
  9
$DIMTSZ
 40
0.0
  9
$DIMTOL
 70
     0
  9
$DIMLIM
 70
     0
  9
$DIMTIH
 70
     0
  9
$DIMTOH
 70
     0
  9
$DIMSE1
 70
     0
  9
$DIMSE2
 70
     0
  9
$DIMTAD
 70
     3
  9
$DIMZIN
 70
     8
  9
$DIMBLK
  1

  9
$DIMASO
 70
     1
  9
$DIMSHO
 70
     1
  9
$DIMPOST
  1

  9
$DIMAPOST
  1

  9
$DIMALT
 70
     0
  9
$DIMALTD
 70
     2
  9
$DIMALTF
 40
25.4
  9
$DIMLFAC
 40
1.0
  9
$DIMTOFL
 70
     1
  9
$DIMTVP
 40
0.7
  9
$DIMTIX
 70
     0
  9
$DIMSOXD
 70
     0
  9
$DIMSAH
 70
     0
  9
$DIMBLK1
  1

  9
$DIMBLK2
  1

  9
$DIMSTYLE
  2
Standard
  9
$DIMCLRD
 70
     0
  9
$DIMCLRE
 70
     0
  9
$DIMCLRT
 70
     0
  9
$DIMTFAC
 40
0.5
  9
$DIMGAP
 40
0.09
  9
$DIMJUST
 70
     0
  9
$DIMSD1
 70
     0
  9
$DIMSD2
 70
     0
  9
$DIMTOLJ
 70
     1
  9
$DIMTZIN
 70
     8
  9
$DIMALTZ
 70
     0
  9
$DIMALTTZ
 70
     0
  9
$DIMUPT
 70
     1
  9
$DIMDEC
 70
     2
  9
$DIMTDEC
 70
     4
  9
$DIMALTU
 70
     2
  9
$DIMALTTD
 70
     2
  9
$DIMTXSTY
  7
Standard
  9
$DIMAUNIT
 70
     0
  9
$DIMADEC
 70
     0
  9
$DIMALTRND
 40
0.0
  9
$DIMAZIN
 70
     0
  9
$DIMDSEP
 70
    46
  9
$DIMATFIT
 70
     2
  9
$DIMFRAC
 70
     0
  9
$DIMLDRBLK
  1

  9
$DIMLUNIT
 70
     2
  9
$DIMLWD
 70
    -2
  9
$DIMLWE
 70
    -2
  9
$DIMTMOVE
 70
     2
  9
$LUNITS
 70
     2
  9
$LUPREC
 70
     4
  9
$SKETCHINC
 40
0.1
  9
$FILLETRAD
 40
0.5
  9
$AUNITS
 70
     0
  9
$AUPREC
 70
     0
  9
$MENU
  1
.
  9
$ELEVATION
 40
0.0
  9
$PELEVATION
 40
0.0
  9
$THICKNESS
 40
0.0
  9
$LIMCHECK
 70
     0
  9
$CHAMFERA
 40
0.0
  9
$CHAMFERB
 40
0.0
  9
$CHAMFERC
 40
0.0
  9
$CHAMFERD
 40
0.0
  9
$SKPOLY
 70
     0
  9
$TDCREATE
 40
2459137.105983796
  9
$TDUCREATE
 40
2459136.730983796
  9
$TDUPDATE
 40
2459136.73100257
  9
$TDUUPDATE
 40
2459136.35600257
  9
$TDINDWG
 40
0.0000000116
  9
$TDUSRTIMER
 40
0.0000000116
  9
$USRTIMER
 70
     1
  9
$ANGBASE
 50
0.0
  9
$ANGDIR
 70
     0
  9
$PDMODE
 70
     0
  9
$PDSIZE
 40
0.0
  9
$PLINEWID
 40
0.0
  9
$SPLFRAME
 70
     0
  9
$SPLINETYPE
 70
     6
  9
$SPLINESEGS
 70
     8
  9
$HANDSEED
  5
4C6
  9
$SURFTAB1
 70
     6
  9
$SURFTAB2
 70
     6
  9
$SURFTYPE
 70
     6
  9
$SURFU
 70
     6
  9
$SURFV
 70
     6
  9
$UCSBASE
  2

  9
$UCSNAME
  2

  9
$UCSORG
 10
0.0
 20
0.0
 30
0.0
  9
$UCSXDIR
 10
1.0
 20
0.0
 30
0.0
  9
$UCSYDIR
 10
0.0
 20
1.0
 30
0.0
  9
$UCSORTHOREF
  2

  9
$UCSORTHOVIEW
 70
     0
  9
$UCSORGTOP
 10
0.0
 20
0.0
 30
0.0
  9
$UCSORGBOTTOM
 10
0.0
 20
0.0
 30
0.0
  9
$UCSORGLEFT
 10
0.0
 20
0.0
 30
0.0
  9
$UCSORGRIGHT
 10
0.0
 20
0.0
 30
0.0
  9
$UCSORGFRONT
 10
0.0
 20
0.0
 30
0.0
  9
$UCSORGBACK
 10
0.0
 20
0.0
 30
0.0
  9
$PUCSBASE
  2

  9
$PUCSNAME
  2

  9
$PUCSORG
 10
0.0
 20
0.0
 30
0.0
  9
$PUCSXDIR
 10
1.0
 20
0.0
 30
0.0
  9
$PUCSYDIR
 10
0.0
 20
1.0
 30
0.0
  9
$PUCSORTHOREF
  2

  9
$PUCSORTHOVIEW
 70
     0
  9
$PUCSORGTOP
 10
0.0
 20
0.0
 30
0.0
  9
$PUCSORGBOTTOM
 10
0.0
 20
0.0
 30
0.0
  9
$PUCSORGLEFT
 10
0.0
 20
0.0
 30
0.0
  9
$PUCSORGRIGHT
 10
0.0
 20
0.0
 30
0.0
  9
$PUCSORGFRONT
 10
0.0
 20
0.0
 30
0.0
  9
$PUCSORGBACK
 10
0.0
 20
0.0
 30
0.0
  9
$USERI1
 70
     0
  9
$USERI2
 70
     0
  9
$USERI3
 70
     0
  9
$USERI4
 70
     0
  9
$USERI5
 70
     0
  9
$USERR1
 40
0.0
  9
$USERR2
 40
0.0
  9
$USERR3
 40
0.0
  9
$USERR4
 40
0.0
  9
$USERR5
 40
0.0
  9
$WORLDVIEW
 70
     1
  9
$SHADEDGE
 70
     3
  9
$SHADEDIF
 70
    70
  9
$TILEMODE
 70
     1
  9
$MAXACTVP
 70
    64
  9
$PINSBASE
 10
0.0
 20
0.0
 30
0.0
  9
$PLIMCHECK
 70
     0
  9
$PEXTMIN
 10
0.0
 20
0.0
 30
0.0
  9
$PEXTMAX
 10
420.0
 20
297.0
 30
0.0
  9
$PLIMMIN
 10
0.0
 20
0.0
  9
$PLIMMAX
 10
420.0
 20
297.0
  9
$UNITMODE
 70
     0
  9
$VISRETAIN
 70
     1
  9
$PLINEGEN
 70
     0
  9
$PSLTSCALE
 70
     1
  9
$TREEDEPTH
 70
  3020
  9
$CMLSTYLE
  2
Standard
  9
$CMLJUST
 70
     0
  9
$CMLSCALE
 40
1.0
  9
$PROXYGRAPHICS
 70
     1
  9
$MEASUREMENT
 70
     1
  9
$CELWEIGHT
370
    -1
  9
$ENDCAPS
280
     0
  9
$JOINSTYLE
280
     0
  9
$LWDISPLAY
290
     0
  9
$INSUNITS
 70
     4
  9
$HYPERLINKBASE
  1

  9
$STYLESHEET
  1

  9
$XEDIT
290
     1
  9
$CEPSNTYPE
380
     0
  9
$PSTYLEMODE
290
     1
  9
$FINGERPRINTGUID
  2
{0FB21457-FE48-40A0-9114-F37A932DF680}
  9
$VERSIONGUID
  2
{FAEB1C32-E019-11D5-929B-00C0DF256EC4}
  9
$EXTNAMES
290
     1
  9
$PSVPSCALE
 40
0.0
  9
$OLESTARTUP
290
     0
  0
ENDSEC
  0
SECTION
  2
CLASSES
  0
CLASS
  1
ACDBDICTIONARYWDFLT
  2
AcDbDictionaryWithDefault
  3
ObjectDBX Classes
 90
        0
280
     0
281
     0
  0
CLASS
  1
VISUALSTYLE
  2
AcDbVisualStyle
  3
ObjectDBX Classes
 90
     4095
280
     0
281
     0
  0
CLASS
  1
MATERIAL
  2
AcDbMaterial
  3
ObjectDBX Classes
 90
     1153
280
     0
281
     0
  0
CLASS
  1
SCALE
  2
AcDbScale
  3
ObjectDBX Classes
 90
     1153
280
     0
281
     0
  0
CLASS
  1
SUN
  2
AcDbSun
  3
SCENEOE
 90
     1153
280
     0
281
     0
  0
CLASS
  1
DICTIONARYVAR
  2
AcDbDictionaryVar
  3
ObjectDBX Classes
 90
        0
280
     0
281
     0
  0
CLASS
  1
ACDBPLACEHOLDER
  2
AcDbPlaceHolder
  3
ObjectDBX Classes
 90
        0
280
     0
281
     0
  0
CLASS
  1
LAYOUT
  2
AcDbLayout
  3
ObjectDBX Classes
 90
        0
280
     0
281
     0
  0
ENDSEC
  0
SECTION
  2
TABLES
  0
TABLE
  2
VPORT
  5
8
102
{ACAD_XDICTIONARY
360
48C
102
}
330
0
100
AcDbSymbolTable
 70
     1
  0
VPORT
  5
29
330
8
100
AcDbSymbolTableRecord
100
AcDbViewportTableRecord
  2
*Active
 70
     0
 10
0.0
 20
0.0
 11
1.0
 21
1.0
 12
10.42990654205607
 22
4.5
 13
0.0
 23
0.0
 14
0.5
 24
0.5
 15
0.5
 25
0.5
 16
0.0
 26
0.0
 36
1.0
 17
0.0
 27
0.0
 37
0.0
 40
9.0
 41
1.972972972850329
 42
50.0
 43
0.0
 44
0.0
 50
0.0
 51
0.0
 71
     0
 72
   100
 73
     1
 74
     3
 75
     0
 76
     0
 77
     0
 78
     0
281
     0
 65
     1
110
0.0
120
0.0
130
0.0
111
1.0
121
0.0
131
0.0
112
0.0
122
1.0
132
0.0
 79
     0
146
0.0
  0
ENDTAB
  0
TABLE
  2
LTYPE
  5
5
330
0
100
AcDbSymbolTable
 70
     9
  0
LTYPE
  5
14
330
5
100
AcDbSymbolTableRecord
100
AcDbLinetypeTableRecord
  2
ByBlock
 70
     0
  3

 72
    65
 73
     0
 40
0.0
  0
LTYPE
  5
15
330
5
100
AcDbSymbolTableRecord
100
AcDbLinetypeTableRecord
  2
ByLayer
 70
     0
  3

 72
    65
 73
     0
 40
0.0
  0
LTYPE
  5
16
330
5
100
AcDbSymbolTableRecord
100
AcDbLinetypeTableRecord
  2
Continuous
 70
     0
  3
Solid line
 72
    65
 73
     0
 40
0.0
  0
LTYPE
  5
B9
330
5
100
AcDbSymbolTableRecord
100
AcDbLinetypeTableRecord
  2
DOT
 70
     0
  3
DOT
 72
    65
 73
     2
 40
4.0
 49
6.0
 74
     0
 49
-2.0
 74
     0
  0
LTYPE
  5
BA
330
5
100
AcDbSymbolTableRecord
100
AcDbLinetypeTableRecord
  2
HIDDEN
 70
     0
  3
HIDDEN
 72
    65
 73
     2
 40
4.2
 49
8.4
 74
     0
 49
-4.2
 74
     0
  0
LTYPE
  5
BB
330
5
100
AcDbSymbolTableRecord
100
AcDbLinetypeTableRecord
  2
DASHDOT
 70
     0
  3
DASHDOT
 72
    65
 73
     4
 40
14.5
 49
30.0
 74
     0
 49
-9.0
 74
     0
 49
2.5
 74
     0
 49
-9.0
 74
     0
  0
LTYPE
  5
BC
330
5
100
AcDbSymbolTableRecord
100
AcDbLinetypeTableRecord
  2
PHANTOM
 70
     0
  3
PHANTOM
 72
    65
 73
     6
 40
12.0
 49
30.0
 74
     0
 49
-9.0
 74
     0
 49
2.5
 74
     0
 49
-5.0
 74
     0
 49
2.5
 74
     0
 49
-9.0
 74
     0
  0
LTYPE
  5
BD
330
5
100
AcDbSymbolTableRecord
100
AcDbLinetypeTableRecord
  2
ACAD_ISO14W100
 70
     0
  3
ACAD_ISO14W100
 72
    65
 73
     8
 40
1.5
 49
12.0
 74
     0
 49
-3.0
 74
     0
 49
0.5
 74
     0
 49
-3.0
 74
     0
 49
0.5
 74
     0
 49
-3.0
 74
     0
 49
0.5
 74
     0
 49
-3.0
 74
     0
  0
LTYPE
  5
BE
330
5
100
AcDbSymbolTableRecord
100
AcDbLinetypeTableRecord
  2
ACAD_ISO06W100
 70
     0
  3
ACAD_ISO06W100
 72
    65
 73
     8
 40
13.5
 49
24.0
 74
     0
 49
-3.0
 74
     0
 49
0.5
 74
     0
 49
-3.0
 74
     0
 49
0.5
 74
     0
 49
-3.0
 74
     0
 49
0.5
 74
     0
 49
-3.0
 74
     0
  0
LTYPE
  5
BF
330
5
100
AcDbSymbolTableRecord
100
AcDbLinetypeTableRecord
  2
ACAD_ISO11W100
 70
     0
  3
ACAD_ISO11W100
 72
    65
 73
     6
 40
15.5
 49
12.0
 74
     0
 49
-3.0
 74
     0
 49
12.0
 74
     0
 49
-3.0
 74
     0
 49
0.5
 74
     0
 49
-3.0
 74
     0
  0
LTYPE
  5
C0
330
5
100
AcDbSymbolTableRecord
100
AcDbLinetypeTableRecord
  2
ACAD_ISO13W100
 70
     0
  3
ACAD_ISO13W100
 72
    65
 73
     8
 40
13.0
 49
12.0
 74
     0
 49
-3.0
 74
     0
 49
12.0
 74
     0
 49
-3.0
 74
     0
 49
0.5
 74
     0
 49
-3.0
 74
     0
 49
0.5
 74
     0
 49
-3.0
 74
     0
  0
ENDTAB
  0
TABLE
  2
LAYER
  5
2
330
0
100
AcDbSymbolTable
 70
    31
  0
LAYER
  5
10
330
2
100
AcDbSymbolTableRecord
100
AcDbLayerTableRecord
  2
0
 70
     0
 62
     7
  6
Continuous
370
    -3
390
F
  0
LAYER
  5
C1
330
2
100
AcDbSymbolTableRecord
100
AcDbLayerTableRecord
  2
1
 70
     0
 62
     7
  6
Continuous
370
    30
390
F
  0
LAYER
  5
C2
330
2
100
AcDbSymbolTableRecord
100
AcDbLayerTableRecord
  2
2
 70
     0
 62
   214
  6
Continuous
370
     9
390
F
  0
LAYER
  5
C3
330
2
100
AcDbSymbolTableRecord
100
AcDbLayerTableRecord
  2
3
 70
     0
 62
   216
  6
Continuous
370
     9
390
F
  0
LAYER
  5
C4
330
2
100
AcDbSymbolTableRecord
100
AcDbLayerTableRecord
  2
4
 70
     0
 62
    54
  6
Continuous
370
     9
390
F
  0
LAYER
  5
C5
330
2
100
AcDbSymbolTableRecord
100
AcDbLayerTableRecord
  2
5
 70
     0
 62
    94
  6
Continuous
370
     9
390
F
  0
LAYER
  5
C6
330
2
100
AcDbSymbolTableRecord
100
AcDbLayerTableRecord
  2
6
 70
     0
 62
    14
  6
Continuous
370
     9
390
F
  0
LAYER
  5
C7
330
2
100
AcDbSymbolTableRecord
100
AcDbLayerTableRecord
  2
7
 70
     0
 62
     4
  6
Continuous
370
     9
390
F
  0
LAYER
  5
C8
330
2
100
AcDbSymbolTableRecord
100
AcDbLayerTableRecord
  2
8
 70
     0
 62
     6
  6
Continuous
370
     9
390
F
  0
LAYER
  5
C9
330
2
100
AcDbSymbolTableRecord
100
AcDbLayerTableRecord
  2
9
 70
     0
 62
     2
  6
Continuous
370
     9
390
F
  0
LAYER
  5
CA
330
2
100
AcDbSymbolTableRecord
100
AcDbLayerTableRecord
  2
10
 70
     0
 62
     3
  6
Continuous
370
     9
390
F
  0
LAYER
  5
CB
330
2
100
AcDbSymbolTableRecord
100
AcDbLayerTableRecord
  2
11
 70
     0
 62
   251
  6
Continuous
370
     9
390
F
  0
LAYER
  5
CC
330
2
100
AcDbSymbolTableRecord
100
AcDbLayerTableRecord
  2
12
 70
     0
 62
   136
  6
Continuous
370
     9
390
F
  0
LAYER
  5
CD
330
2
100
AcDbSymbolTableRecord
100
AcDbLayerTableRecord
  2
13
 70
     0
 62
     7
  6
Continuous
370
     9
390
F
  0
LAYER
  5
CE
330
2
100
AcDbSymbolTableRecord
100
AcDbLayerTableRecord
  2
14
 70
     0
 62
    56
  6
Continuous
370
     9
390
F
  0
LAYER
  5
CF
330
2
100
AcDbSymbolTableRecord
100
AcDbLayerTableRecord
  2
15
 70
     0
 62
    96
  6
Continuous
370
     9
390
F
  0
LAYER
  5
D0
330
2
100
AcDbSymbolTableRecord
100
AcDbLayerTableRecord
  2
16
 70
     0
 62
    16
  6
Continuous
370
     9
390
F
  0
LAYER
  5
D1
330
2
100
AcDbSymbolTableRecord
100
AcDbLayerTableRecord
  2
17
 70
     0
 62
   132
  6
Continuous
370
     9
390
F
  0
LAYER
  5
D2
330
2
100
AcDbSymbolTableRecord
100
AcDbLayerTableRecord
  2
18
 70
     0
 62
   212
  6
Continuous
370
     9
390
F
  0
LAYER
  5
D3
330
2
100
AcDbSymbolTableRecord
100
AcDbLayerTableRecord
  2
19
 70
     0
 62
    52
  6
Continuous
370
     9
390
F
  0
LAYER
  5
D4
330
2
100
AcDbSymbolTableRecord
100
AcDbLayerTableRecord
  2
20
 70
     0
 62
   250
  6
Continuous
370
     9
390
F
  0
LAYER
  5
D5
330
2
100
AcDbSymbolTableRecord
100
AcDbLayerTableRecord
  2
22
 70
     0
 62
     7
  6
Continuous
370
     9
390
F
  0
LAYER
  5
D6
330
2
100
AcDbSymbolTableRecord
100
AcDbLayerTableRecord
  2
24
 70
     0
 62
     7
  6
Continuous
370
     9
390
F
  0
LAYER
  5
D7
330
2
100
AcDbSymbolTableRecord
100
AcDbLayerTableRecord
  2
25
 70
     0
 62
     7
  6
Continuous
370
     9
390
F
  0
LAYER
  5
D8
330
2
100
AcDbSymbolTableRecord
100
AcDbLayerTableRecord
  2
128
 70
     0
 62
     7
  6
Continuous
370
     9
390
F
  0
LAYER
  5
D9
330
2
100
AcDbSymbolTableRecord
100
AcDbLayerTableRecord
  2
129
 70
     0
 62
     7
  6
Continuous
370
     9
390
F
  0
LAYER
  5
DA
330
2
100
AcDbSymbolTableRecord
100
AcDbLayerTableRecord
  2
130
 70
     0
 62
     7
  6
Continuous
370
     9
390
F
  0
LAYER
  5
DB
330
2
100
AcDbSymbolTableRecord
100
AcDbLayerTableRecord
  2
131
 70
     0
 62
     7
  6
Continuous
370
     9
390
F
  0
LAYER
  5
DC
330
2
100
AcDbSymbolTableRecord
100
AcDbLayerTableRecord
  2
258
 70
     0
 62
     7
  6
Continuous
370
     9
390
F
  0
LAYER
  5
DD
330
2
100
AcDbSymbolTableRecord
100
AcDbLayerTableRecord
  2
260
 70
     0
 62
     7
  6
Continuous
370
     9
390
F
  0
LAYER
  5
DE
330
2
100
AcDbSymbolTableRecord
100
AcDbLayerTableRecord
  2
261
 70
     0
 62
     5
  6
Continuous
370
     9
390
F
  0
ENDTAB
  0
TABLE
  2
STYLE
  5
3
330
0
100
AcDbSymbolTable
 70
     3
  0
STYLE
  5
11
330
3
100
AcDbSymbolTableRecord
100
AcDbTextStyleTableRecord
  2
Standard
 70
     0
 40
0.0
 41
1.0
 50
0.0
 71
     0
 42
3.0
  3
txt
  4
bigfont
  0
STYLE
  5
6C
330
3
100
AcDbSymbolTableRecord
100
AcDbTextStyleTableRecord
  2
T_STANDARD
 70
     4
 40
10.0
 41
1.0
 50
0.0
 71
     0
 42
3.0
  3
txt
  4
bigfont
1001
ACAD
1000

1071
      256
  0
STYLE
  5
13D
330
3
100
AcDbSymbolTableRecord
100
AcDbTextStyleTableRecord
  2
ＭＳ ゴシック
 70
     0
 40
0.0
 41
1.0
 50
0.0
 71
     0
 42
3.0
  3

  4

1001
ACAD
1000
ＭＳ ゴシック
1071
      256
  0
ENDTAB
  0
TABLE
  2
VIEW
  5
6
330
0
100
AcDbSymbolTable
 70
     0
  0
ENDTAB
  0
TABLE
  2
UCS
  5
7
330
0
100
AcDbSymbolTable
 70
     0
  0
ENDTAB
  0
TABLE
  2
APPID
  5
9
330
0
100
AcDbSymbolTable
 70
     2
  0
APPID
  5
12
330
9
100
AcDbSymbolTableRecord
100
AcDbRegAppTableRecord
  2
ACAD
 70
     0
  0
APPID
  5
6B
330
9
100
AcDbSymbolTableRecord
100
AcDbRegAppTableRecord
  2
ODA
 70
     0
  0
ENDTAB
  0
TABLE
  2
DIMSTYLE
  5
A
330
0
100
AcDbSymbolTable
 70
     1
100
AcDbDimStyleTable
  0
DIMSTYLE
105
27
102
{ACAD_REACTORS
330
147
330
151
330
15B
330
165
102
}
330
A
100
AcDbSymbolTableRecord
100
AcDbDimStyleTableRecord
  2
Standard
 70
     0
178
     0
340
11
  0
ENDTAB
  0
TABLE
  2
BLOCK_RECORD
  5
1
330
0
100
AcDbSymbolTable
 70
    45
  0
BLOCK_RECORD
  5
1F
330
1
100
AcDbSymbolTableRecord
100
AcDbBlockTableRecord
  2
*Model_Space
340
22
  0
BLOCK_RECORD
  5
1B
330
1
100
AcDbSymbolTableRecord
100
AcDbBlockTableRecord
  2
*Paper_Space
340
1E
  0
BLOCK_RECORD
  5
23
330
1
100
AcDbSymbolTableRecord
100
AcDbBlockTableRecord
  2
*Paper_Space0
340
26
  0
BLOCK_RECORD
  5
6D
330
1
100
AcDbSymbolTableRecord
100
AcDbBlockTableRecord
  2
_ORIGIN
340
0
  0
BLOCK_RECORD
  5
72
330
1
100
AcDbSymbolTableRecord
100
AcDbBlockTableRecord
  2
_DOTBLANK
340
0
  0
BLOCK_RECORD
  5
77
330
1
100
AcDbSymbolTableRecord
100
AcDbBlockTableRecord
  2
_DOT
340
0
  0
BLOCK_RECORD
  5
7C
330
1
100
AcDbSymbolTableRecord
100
AcDbBlockTableRecord
  2
_OPEN
340
0
102
{BLKREFS
331
145
331
146
331
14F
331
150
331
159
331
15A
331
163
331
164
331
215
331
21C
331
223
331
22A
102
}
  0
BLOCK_RECORD
  5
82
330
1
100
AcDbSymbolTableRecord
100
AcDbBlockTableRecord
  2
_CLOSED
340
0
  0
BLOCK_RECORD
  5
89
330
1
100
AcDbSymbolTableRecord
100
AcDbBlockTableRecord
  2
_CLOSEDBLANK
340
0
  0
BLOCK_RECORD
  5
8F
330
1
100
AcDbSymbolTableRecord
100
AcDbBlockTableRecord
  2
_ARROWFILLED
340
0
  0
BLOCK_RECORD
  5
93
330
1
100
AcDbSymbolTableRecord
100
AcDbBlockTableRecord
  2
_BOXBLANK
340
0
  0
BLOCK_RECORD
  5
9B
330
1
100
AcDbSymbolTableRecord
100
AcDbBlockTableRecord
  2
_BOXFILLED
340
0
  0
BLOCK_RECORD
  5
A0
330
1
100
AcDbSymbolTableRecord
100
AcDbBlockTableRecord
  2
_INTEGRAL
340
0
  0
BLOCK_RECORD
  5
A5
330
1
100
AcDbSymbolTableRecord
100
AcDbBlockTableRecord
  2
_OBLIQUE
340
0
  0
BLOCK_RECORD
  5
A9
330
1
100
AcDbSymbolTableRecord
100
AcDbBlockTableRecord
  2
_NONE
340
0
  0
BLOCK_RECORD
  5
AC
330
1
100
AcDbSymbolTableRecord
100
AcDbBlockTableRecord
  2
MARK_OPEN
340
0
  0
BLOCK_RECORD
  5
B1
330
1
100
AcDbSymbolTableRecord
100
AcDbBlockTableRecord
  2
MARK_ORIGIN
340
0
  0
BLOCK_RECORD
  5
B5
330
1
100
AcDbSymbolTableRecord
100
AcDbBlockTableRecord
  2
MARK_DOT
340
0
  0
BLOCK_RECORD
  5
104
330
1
100
AcDbSymbolTableRecord
100
AcDbBlockTableRecord
  2
*G16
340
0
102
{BLKREFS
331
108
102
}
  0
BLOCK_RECORD
  5
13E
330
1
100
AcDbSymbolTableRecord
100
AcDbBlockTableRecord
  2
Dim1
340
0
  0
BLOCK_RECORD
  5
148
330
1
100
AcDbSymbolTableRecord
100
AcDbBlockTableRecord
  2
Dim2
340
0
  0
BLOCK_RECORD
  5
152
330
1
100
AcDbSymbolTableRecord
100
AcDbBlockTableRecord
  2
Dim3
340
0
  0
BLOCK_RECORD
  5
15C
330
1
100
AcDbSymbolTableRecord
100
AcDbBlockTableRecord
  2
Dim4
340
0
  0
BLOCK_RECORD
  5
184
330
1
100
AcDbSymbolTableRecord
100
AcDbBlockTableRecord
  2
*G21
340
0
102
{BLKREFS
331
18F
102
}
  0
BLOCK_RECORD
  5
190
330
1
100
AcDbSymbolTableRecord
100
AcDbBlockTableRecord
  2
*G22
340
0
102
{BLKREFS
331
19B
102
}
  0
BLOCK_RECORD
  5
19C
330
1
100
AcDbSymbolTableRecord
100
AcDbBlockTableRecord
  2
*G23
340
0
102
{BLKREFS
331
1A7
102
}
  0
BLOCK_RECORD
  5
1A8
330
1
100
AcDbSymbolTableRecord
100
AcDbBlockTableRecord
  2
*G24
340
0
102
{BLKREFS
331
1B3
102
}
  0
BLOCK_RECORD
  5
1D1
330
1
100
AcDbSymbolTableRecord
100
AcDbBlockTableRecord
  2
*G25
340
0
102
{BLKREFS
331
1DD
102
}
  0
BLOCK_RECORD
  5
231
330
1
100
AcDbSymbolTableRecord
100
AcDbBlockTableRecord
  2
*G26
340
0
102
{BLKREFS
331
23C
102
}
  0
BLOCK_RECORD
  5
23D
330
1
100
AcDbSymbolTableRecord
100
AcDbBlockTableRecord
  2
*G27
340
0
102
{BLKREFS
331
248
102
}
  0
BLOCK_RECORD
  5
249
330
1
100
AcDbSymbolTableRecord
100
AcDbBlockTableRecord
  2
*G28
340
0
102
{BLKREFS
331
254
102
}
  0
BLOCK_RECORD
  5
265
330
1
100
AcDbSymbolTableRecord
100
AcDbBlockTableRecord
  2
*G29
340
0
102
{BLKREFS
331
271
102
}
  0
BLOCK_RECORD
  5
28B
330
1
100
AcDbSymbolTableRecord
100
AcDbBlockTableRecord
  2
*G30
340
0
102
{BLKREFS
331
296
102
}
  0
BLOCK_RECORD
  5
2C0
330
1
100
AcDbSymbolTableRecord
100
AcDbBlockTableRecord
  2
*G31
340
0
102
{BLKREFS
331
45A
102
}
  0
BLOCK_RECORD
  5
2C3
330
1
100
AcDbSymbolTableRecord
100
AcDbBlockTableRecord
  2
*G32
340
0
102
{BLKREFS
331
2ED
102
}
  0
BLOCK_RECORD
  5
2EE
330
1
100
AcDbSymbolTableRecord
100
AcDbBlockTableRecord
  2
*G33
340
0
102
{BLKREFS
331
30E
102
}
  0
BLOCK_RECORD
  5
30F
330
1
100
AcDbSymbolTableRecord
100
AcDbBlockTableRecord
  2
*G34
340
0
102
{BLKREFS
331
31E
102
}
  0
BLOCK_RECORD
  5
31F
330
1
100
AcDbSymbolTableRecord
100
AcDbBlockTableRecord
  2
*G35
340
0
102
{BLKREFS
331
33C
102
}
  0
BLOCK_RECORD
  5
33D
330
1
100
AcDbSymbolTableRecord
100
AcDbBlockTableRecord
  2
*G36
340
0
102
{BLKREFS
331
36E
102
}
  0
BLOCK_RECORD
  5
36F
330
1
100
AcDbSymbolTableRecord
100
AcDbBlockTableRecord
  2
*G37
340
0
102
{BLKREFS
331
37E
102
}
  0
BLOCK_RECORD
  5
37F
330
1
100
AcDbSymbolTableRecord
100
AcDbBlockTableRecord
  2
*G38
340
0
102
{BLKREFS
331
38E
102
}
  0
BLOCK_RECORD
  5
38F
330
1
100
AcDbSymbolTableRecord
100
AcDbBlockTableRecord
  2
*G39
340
0
102
{BLKREFS
331
3A5
102
}
  0
BLOCK_RECORD
  5
3A6
330
1
100
AcDbSymbolTableRecord
100
AcDbBlockTableRecord
  2
*G40
340
0
102
{BLKREFS
331
3C1
102
}
  0
BLOCK_RECORD
  5
3C2
330
1
100
AcDbSymbolTableRecord
100
AcDbBlockTableRecord
  2
*G41
340
0
102
{BLKREFS
331
3E0
102
}
  0
BLOCK_RECORD
  5
3E1
330
1
100
AcDbSymbolTableRecord
100
AcDbBlockTableRecord
  2
*G42
340
0
102
{BLKREFS
331
41C
102
}
  0
BLOCK_RECORD
  5
41D
330
1
100
AcDbSymbolTableRecord
100
AcDbBlockTableRecord
  2
*G43
340
0
102
{BLKREFS
331
433
102
}
  0
BLOCK_RECORD
  5
434
330
1
100
AcDbSymbolTableRecord
100
AcDbBlockTableRecord
  2
*G44
340
0
102
{BLKREFS
331
459
102
}
  0
ENDTAB
  0
ENDSEC
  0
SECTION
  2
BLOCKS
  0
BLOCK
  5
20
330
1F
100
AcDbEntity
  8
0
100
AcDbBlockBegin
  2
*Model_Space
 70
     0
 10
0.0
 20
0.0
 30
0.0
  3
*Model_Space
  1
*Model_Space
  0
ENDBLK
  5
21
330
1F
100
AcDbEntity
  8
0
100
AcDbBlockEnd
  0
BLOCK
  5
1C
330
1B
100
AcDbEntity
 67
     1
  8
0
100
AcDbBlockBegin
  2
*Paper_Space
 70
     0
 10
0.0
 20
0.0
 30
0.0
  3
*Paper_Space
  1
*Paper_Space
  0
ENDBLK
  5
1D
330
1B
100
AcDbEntity
 67
     1
  8
0
100
AcDbBlockEnd
  0
BLOCK
  5
24
330
23
100
AcDbEntity
  8
0
100
AcDbBlockBegin
  2
*Paper_Space0
 70
     0
 10
0.0
 20
0.0
 30
0.0
  3
*Paper_Space0
  1
*Paper_Space0
  0
ENDBLK
  5
25
330
23
100
AcDbEntity
  8
0
100
AcDbBlockEnd
  0
BLOCK
  5
70
330
6D
100
AcDbEntity
  8
0
100
AcDbBlockBegin
  2
_ORIGIN
 70
     0
 10
0.0
 20
0.0
 30
0.0
  3
_ORIGIN
  1
_ORIGIN
  0
CIRCLE
  5
6E
330
6D
100
AcDbEntity
  8
0
 62
     0
100
AcDbCircle
 10
0.0
 20
0.0
 30
0.0
 40
0.5
  0
LINE
  5
6F
330
6D
100
AcDbEntity
  8
0
 62
     0
100
AcDbLine
 10
0.0
 20
0.0
 30
0.0
 11
-1.0
 21
0.0
 31
0.0
  0
ENDBLK
  5
71
330
6D
100
AcDbEntity
  8
0
100
AcDbBlockEnd
  0
BLOCK
  5
75
330
72
100
AcDbEntity
  8
0
100
AcDbBlockBegin
  2
_DOTBLANK
 70
     0
 10
0.0
 20
0.0
 30
0.0
  3
_DOTBLANK
  1
_DOTBLANK
  0
CIRCLE
  5
73
330
72
100
AcDbEntity
  8
0
 62
     0
100
AcDbCircle
 10
0.0
 20
0.0
 30
0.0
 40
0.5
  0
LINE
  5
74
330
72
100
AcDbEntity
  8
0
 62
     0
100
AcDbLine
 10
-0.5
 20
0.0
 30
0.0
 11
-1.0
 21
0.0
 31
0.0
  0
ENDBLK
  5
76
330
72
100
AcDbEntity
  8
0
100
AcDbBlockEnd
  0
BLOCK
  5
7A
330
77
100
AcDbEntity
  8
0
100
AcDbBlockBegin
  2
_DOT
 70
     0
 10
0.0
 20
0.0
 30
0.0
  3
_DOT
  1
_DOT
  0
LWPOLYLINE
  5
78
330
77
100
AcDbEntity
  8
0
 62
     0
100
AcDbPolyline
 90
        2
 70
     1
 43
0.5
 10
-0.25
 20
0.0
 42
1.0
 10
0.25
 20
0.0
 42
1.0
  0
LINE
  5
79
330
77
100
AcDbEntity
  8
0
 62
     0
100
AcDbLine
 10
-0.5
 20
0.0
 30
0.0
 11
-1.0
 21
0.0
 31
0.0
  0
ENDBLK
  5
7B
330
77
100
AcDbEntity
  8
0
100
AcDbBlockEnd
  0
BLOCK
  5
80
330
7C
100
AcDbEntity
  8
0
100
AcDbBlockBegin
  2
_OPEN
 70
     0
 10
0.0
 20
0.0
 30
0.0
  3
_OPEN
  1
_OPEN
  0
LINE
  5
7D
330
7C
100
AcDbEntity
  8
0
 62
     0
100
AcDbLine
 10
0.0
 20
0.0
 30
0.0
 11
-1.0
 21
0.1666666666666667
 31
0.0
  0
LINE
  5
7E
330
7C
100
AcDbEntity
  8
0
 62
     0
100
AcDbLine
 10
0.0
 20
0.0
 30
0.0
 11
-1.0
 21
-0.1666666666666667
 31
0.0
  0
LINE
  5
7F
330
7C
100
AcDbEntity
  8
0
 62
     0
100
AcDbLine
 10
0.0
 20
0.0
 30
0.0
 11
-1.0
 21
0.0
 31
0.0
  0
ENDBLK
  5
81
330
7C
100
AcDbEntity
  8
0
100
AcDbBlockEnd
  0
BLOCK
  5
87
330
82
100
AcDbEntity
  8
0
100
AcDbBlockBegin
  2
_CLOSED
 70
     0
 10
0.0
 20
0.0
 30
0.0
  3
_CLOSED
  1
_CLOSED
  0
LINE
  5
83
330
82
100
AcDbEntity
  8
0
 62
     0
100
AcDbLine
 10
0.0
 20
0.0
 30
0.0
 11
-1.0
 21
0.1666666666666667
 31
0.0
  0
LINE
  5
84
330
82
100
AcDbEntity
  8
0
 62
     0
100
AcDbLine
 10
0.0
 20
0.0
 30
0.0
 11
-1.0
 21
-0.1666666666666667
 31
0.0
  0
LINE
  5
85
330
82
100
AcDbEntity
  8
0
 62
     0
100
AcDbLine
 10
-1.0
 20
0.1666666666666667
 30
0.0
 11
-1.0
 21
-0.1666666666666667
 31
0.0
  0
LINE
  5
86
330
82
100
AcDbEntity
  8
0
 62
     0
100
AcDbLine
 10
0.0
 20
0.0
 30
0.0
 11
-1.0
 21
0.0
 31
0.0
  0
ENDBLK
  5
88
330
82
100
AcDbEntity
  8
0
100
AcDbBlockEnd
  0
BLOCK
  5
8D
330
89
100
AcDbEntity
  8
0
100
AcDbBlockBegin
  2
_CLOSEDBLANK
 70
     0
 10
0.0
 20
0.0
 30
0.0
  3
_CLOSEDBLANK
  1
_CLOSEDBLANK
  0
LINE
  5
8A
330
89
100
AcDbEntity
  8
0
 62
     0
100
AcDbLine
 10
0.0
 20
0.0
 30
0.0
 11
-1.0
 21
0.1666666666666667
 31
0.0
  0
LINE
  5
8B
330
89
100
AcDbEntity
  8
0
 62
     0
100
AcDbLine
 10
0.0
 20
0.0
 30
0.0
 11
-1.0
 21
-0.1666666666666667
 31
0.0
  0
LINE
  5
8C
330
89
100
AcDbEntity
  8
0
 62
     0
100
AcDbLine
 10
-1.0
 20
0.1666666666666667
 30
0.0
 11
-1.0
 21
-0.1666666666666667
 31
0.0
  0
ENDBLK
  5
8E
330
89
100
AcDbEntity
  8
0
100
AcDbBlockEnd
  0
BLOCK
  5
91
330
8F
100
AcDbEntity
  8
0
100
AcDbBlockBegin
  2
_ARROWFILLED
 70
     0
 10
0.0
 20
0.0
 30
0.0
  3
_ARROWFILLED
  1
_ARROWFILLED
  0
SOLID
  5
90
330
8F
100
AcDbEntity
  8
0
 62
     0
100
AcDbTrace
 10
0.0
 20
0.0
 30
0.0
 11
-1.0
 21
-0.1666666666666667
 31
0.0
 12
-1.0
 22
0.1666666666666667
 32
0.0
 13
0.0
 23
0.0
 33
0.0
  0
ENDBLK
  5
92
330
8F
100
AcDbEntity
  8
0
100
AcDbBlockEnd
  0
BLOCK
  5
99
330
93
100
AcDbEntity
  8
0
100
AcDbBlockBegin
  2
_BOXBLANK
 70
     0
 10
0.0
 20
0.0
 30
0.0
  3
_BOXBLANK
  1
_BOXBLANK
  0
LINE
  5
94
330
93
100
AcDbEntity
  8
0
 62
     0
100
AcDbLine
 10
-0.5
 20
-0.5
 30
0.0
 11
0.5
 21
-0.5
 31
0.0
  0
LINE
  5
95
330
93
100
AcDbEntity
  8
0
 62
     0
100
AcDbLine
 10
0.5
 20
-0.5
 30
0.0
 11
0.5
 21
0.5
 31
0.0
  0
LINE
  5
96
330
93
100
AcDbEntity
  8
0
 62
     0
100
AcDbLine
 10
0.5
 20
0.5
 30
0.0
 11
-0.5
 21
0.5
 31
0.0
  0
LINE
  5
97
330
93
100
AcDbEntity
  8
0
 62
     0
100
AcDbLine
 10
-0.5
 20
0.5
 30
0.0
 11
-0.5
 21
-0.5
 31
0.0
  0
LINE
  5
98
330
93
100
AcDbEntity
  8
0
 62
     0
100
AcDbLine
 10
-0.5
 20
0.0
 30
0.0
 11
-1.0
 21
0.0
 31
0.0
  0
ENDBLK
  5
9A
330
93
100
AcDbEntity
  8
0
100
AcDbBlockEnd
  0
BLOCK
  5
9E
330
9B
100
AcDbEntity
  8
0
100
AcDbBlockBegin
  2
_BOXFILLED
 70
     0
 10
0.0
 20
0.0
 30
0.0
  3
_BOXFILLED
  1
_BOXFILLED
  0
SOLID
  5
9C
330
9B
100
AcDbEntity
  8
0
 62
     0
100
AcDbTrace
 10
-0.5
 20
0.5
 30
0.0
 11
0.5
 21
0.5
 31
0.0
 12
-0.5
 22
-0.5
 32
0.0
 13
0.5
 23
-0.5
 33
0.0
  0
LINE
  5
9D
330
9B
100
AcDbEntity
  8
0
 62
     0
100
AcDbLine
 10
-0.5
 20
0.0
 30
0.0
 11
-1.0
 21
0.0
 31
0.0
  0
ENDBLK
  5
9F
330
9B
100
AcDbEntity
  8
0
100
AcDbBlockEnd
  0
BLOCK
  5
A3
330
A0
100
AcDbEntity
  8
0
100
AcDbBlockBegin
  2
_INTEGRAL
 70
     0
 10
0.0
 20
0.0
 30
0.0
  3
_INTEGRAL
  1
_INTEGRAL
  0
ARC
  5
A1
330
A0
100
AcDbEntity
  8
0
 62
     0
100
AcDbCircle
 10
0.444888
 20
-0.0913346
 30
0.0
 40
0.4541666
100
AcDbArc
 50
101.9999999999999
 51
167.9999999999998
  0
ARC
  5
A2
330
A0
100
AcDbEntity
  8
0
 62
     0
100
AcDbCircle
 10
-0.444888
 20
0.0913346
 30
0.0
 40
0.4541666
100
AcDbArc
 50
281.9999999999997
 51
347.9999999999997
  0
ENDBLK
  5
A4
330
A0
100
AcDbEntity
  8
0
100
AcDbBlockEnd
  0
BLOCK
  5
A7
330
A5
100
AcDbEntity
  8
0
100
AcDbBlockBegin
  2
_OBLIQUE
 70
     0
 10
0.0
 20
0.0
 30
0.0
  3
_OBLIQUE
  1
_OBLIQUE
  0
LINE
  5
A6
330
A5
100
AcDbEntity
  8
0
 62
     0
100
AcDbLine
 10
-0.5
 20
-0.5
 30
0.0
 11
0.5
 21
0.5
 31
0.0
  0
ENDBLK
  5
A8
330
A5
100
AcDbEntity
  8
0
100
AcDbBlockEnd
  0
BLOCK
  5
AA
330
A9
100
AcDbEntity
  8
0
100
AcDbBlockBegin
  2
_NONE
 70
     0
 10
0.0
 20
0.0
 30
0.0
  3
_NONE
  1
_NONE
  0
ENDBLK
  5
AB
330
A9
100
AcDbEntity
  8
0
100
AcDbBlockEnd
  0
BLOCK
  5
AF
330
AC
100
AcDbEntity
  8
0
100
AcDbBlockBegin
  2
MARK_OPEN
 70
     0
 10
0.0
 20
0.0
 30
0.0
  3
MARK_OPEN
  1
MARK_OPEN
  0
LINE
  5
AD
330
AC
100
AcDbEntity
  8
0
 62
     0
100
AcDbLine
 10
0.0
 20
0.0
 30
0.0
 11
-1.0
 21
0.1666666666666667
 31
0.0
  0
LINE
  5
AE
330
AC
100
AcDbEntity
  8
0
 62
     0
100
AcDbLine
 10
0.0
 20
0.0
 30
0.0
 11
-1.0
 21
-0.1666666666666667
 31
0.0
  0
ENDBLK
  5
B0
330
AC
100
AcDbEntity
  8
0
100
AcDbBlockEnd
  0
BLOCK
  5
B3
330
B1
100
AcDbEntity
  8
0
100
AcDbBlockBegin
  2
MARK_ORIGIN
 70
     0
 10
0.0
 20
0.0
 30
0.0
  3
MARK_ORIGIN
  1
MARK_ORIGIN
  0
CIRCLE
  5
B2
330
B1
100
AcDbEntity
  8
0
 62
     0
100
AcDbCircle
 10
0.0
 20
0.0
 30
0.0
 40
0.5
  0
ENDBLK
  5
B4
330
B1
100
AcDbEntity
  8
0
100
AcDbBlockEnd
  0
BLOCK
  5
B7
330
B5
100
AcDbEntity
  8
0
100
AcDbBlockBegin
  2
MARK_DOT
 70
     0
 10
0.0
 20
0.0
 30
0.0
  3
MARK_DOT
  1
MARK_DOT
  0
LWPOLYLINE
  5
B6
330
B5
100
AcDbEntity
  8
0
 62
     0
100
AcDbPolyline
 90
        2
 70
     1
 43
0.5
 10
-0.25
 20
0.0
 42
1.0
 10
0.25
 20
0.0
 42
1.0
  0
ENDBLK
  5
B8
330
B5
100
AcDbEntity
  8
0
100
AcDbBlockEnd
  0
BLOCK
  5
105
330
104
100
AcDbEntity
  8
0
100
AcDbBlockBegin
  2
*G16
 70
     1
 10
0.0
 20
0.0
 30
0.0
  3
*G16
  1
*G16
  0
LINE
  5
107
330
104
100
AcDbEntity
  8
15
  6
Continuous
 62
    96
370
     9
100
AcDbLine
 10
324.3439160550486
 20
25.74566628947515
 30
0.0
 11
324.6105714073767
 21
25.74566628947515
 31
0.0
  0
ENDBLK
  5
106
330
104
100
AcDbEntity
  8
0
100
AcDbBlockEnd
  0
BLOCK
  5
13F
330
13E
100
AcDbEntity
  8
0
100
AcDbBlockBegin
  2
Dim1
 70
     0
 10
0.0
 20
0.0
 30
0.0
  3
Dim1
  1
Dim1
  0
LINE
  5
141
330
13E
100
AcDbEntity
  8
2
  6
Continuous
 62
   214
370
     9
100
AcDbLine
 10
53.90139475000021
 20
245.8509
 30
0.0
 11
39.84476180171188
 21
245.8509000000001
 31
0.0
  0
LINE
  5
142
330
13E
100
AcDbEntity
  8
2
  6
Continuous
 62
   214
370
     9
100
AcDbLine
 10
51.844761801712
 20
95.85089999999995
 30
0.0
 11
39.84476180171211
 21
95.85089999999998
 31
0.0
  0
LINE
  5
143
330
13E
100
AcDbEntity
  8
2
  6
Continuous
 62
   214
370
     9
100
AcDbLine
 10
41.84476180171188
 20
245.8509000000001
 30
0.0
 11
41.84476180171211
 21
95.85089999999998
 31
0.0
  0
MTEXT
  5
144
330
13E
100
AcDbEntity
  8
2
  6
Continuous
 62
   214
370
     9
100
AcDbMText
 10
41.344761801712
 20
170.8509
 30
0.0
 40
5.0
 41
54.65000000000001
 71
     8
 72
     1
  1
150
  7
ＭＳ ゴシック
 11
1.615544574432587E-15
 21
1.0
 31
0.0
 73
     1
 44
1.0
1001
ACAD
1000
ACAD_MTEXT_DEFINED_HEIGHT_BEGIN
1070
    46
1040
5.0
1000
ACAD_MTEXT_DEFINED_HEIGHT_END
  0
INSERT
  5
145
330
13E
100
AcDbEntity
  8
2
  6
Continuous
 62
   214
370
     9
100
AcDbBlockReference
  2
_OPEN
 10
41.84476180171188
 20
245.8509000000001
 30
0.0
 41
2.4
 42
2.4
 43
2.4
 50
89.99999999999991
  0
INSERT
  5
146
330
13E
100
AcDbEntity
  8
2
  6
Continuous
 62
   214
370
     9
100
AcDbBlockReference
  2
_OPEN
 10
41.84476180171211
 20
95.85089999999998
 30
0.0
 41
2.4
 42
2.4
 43
2.4
 50
269.9999999999999
  0
ENDBLK
  5
140
330
13E
100
AcDbEntity
  8
0
100
AcDbBlockEnd
  0
BLOCK
  5
149
330
148
100
AcDbEntity
  8
0
100
AcDbBlockBegin
  2
Dim2
 70
     0
 10
0.0
 20
0.0
 30
0.0
  3
Dim2
  1
Dim2
  0
LINE
  5
14B
330
148
100
AcDbEntity
  8
2
  6
Continuous
 62
   214
370
     9
100
AcDbLine
 10
51.844761801712
 20
239.9451790337463
 30
0.0
 11
51.84476180171206
 21
257.8509
 31
0.0
  0
LINE
  5
14C
330
148
100
AcDbEntity
  8
2
  6
Continuous
 62
   214
370
     9
100
AcDbLine
 10
161.844761801712
 20
242.6684452846833
 30
0.0
 11
161.8447618017121
 21
257.8509
 31
0.0
  0
LINE
  5
14D
330
148
100
AcDbEntity
  8
2
  6
Continuous
 62
   214
370
     9
100
AcDbLine
 10
51.84476180171205
 20
255.8509
 30
0.0
 11
161.8447618017121
 21
255.8509
 31
0.0
  0
MTEXT
  5
14E
330
148
100
AcDbEntity
  8
2
  6
Continuous
 62
   214
370
     9
100
AcDbMText
 10
106.8447618017121
 20
256.3509
 30
0.0
 40
5.0
 41
46.325
 71
     8
 72
     1
  1
110
  7
ＭＳ ゴシック
 73
     1
 44
1.0
1001
ACAD
1000
ACAD_MTEXT_DEFINED_HEIGHT_BEGIN
1070
    46
1040
5.0
1000
ACAD_MTEXT_DEFINED_HEIGHT_END
  0
INSERT
  5
14F
330
148
100
AcDbEntity
  8
2
  6
Continuous
 62
   214
370
     9
100
AcDbBlockReference
  2
_OPEN
 10
51.84476180171205
 20
255.8509
 30
0.0
 41
2.4
 42
2.4
 43
2.4
 50
179.9999999999998
  0
INSERT
  5
150
330
148
100
AcDbEntity
  8
2
  6
Continuous
 62
   214
370
     9
100
AcDbBlockReference
  2
_OPEN
 10
161.8447618017121
 20
255.8509
 30
0.0
 41
2.4
 42
2.4
 43
2.4
 50
359.9999999999997
  0
ENDBLK
  5
14A
330
148
100
AcDbEntity
  8
0
100
AcDbBlockEnd
  0
BLOCK
  5
153
330
152
100
AcDbEntity
  8
0
100
AcDbBlockBegin
  2
Dim3
 70
     0
 10
0.0
 20
0.0
 30
0.0
  3
Dim3
  1
Dim3
  0
LINE
  5
155
330
152
100
AcDbEntity
  8
2
  6
Continuous
 62
   214
370
     9
100
AcDbLine
 10
57.34476180171211
 20
32.35090000000027
 30
0.0
 11
29.844761801712
 21
32.35090000000037
 31
0.0
  0
LINE
  5
156
330
152
100
AcDbEntity
  8
2
  6
Continuous
 62
   214
370
     9
100
AcDbLine
 10
57.34476180171211
 20
76.35089999999998
 30
0.0
 11
29.844761801712
 21
76.35090000000007
 31
0.0
  0
LINE
  5
157
330
152
100
AcDbEntity
  8
2
  6
Continuous
 62
   214
370
     9
100
AcDbLine
 10
31.844761801712
 20
32.35090000000037
 30
0.0
 11
31.844761801712
 21
76.35090000000007
 31
0.0
  0
MTEXT
  5
158
330
152
100
AcDbEntity
  8
2
  6
Continuous
 62
   214
370
     9
100
AcDbMText
 10
31.344761801712
 20
54.35090000000021
 30
0.0
 40
5.0
 41
42.22499999999999
 71
     8
 72
     1
  1
44
  7
ＭＳ ゴシック
 11
1.615544574432587E-15
 21
1.0
 31
0.0
 73
     1
 44
1.0
1001
ACAD
1000
ACAD_MTEXT_DEFINED_HEIGHT_BEGIN
1070
    46
1040
5.0
1000
ACAD_MTEXT_DEFINED_HEIGHT_END
  0
INSERT
  5
159
330
152
100
AcDbEntity
  8
2
  6
Continuous
 62
   214
370
     9
100
AcDbBlockReference
  2
_OPEN
 10
31.844761801712
 20
32.35090000000037
 30
0.0
 41
2.4
 42
2.4
 43
2.4
 50
269.9999999999998
  0
INSERT
  5
15A
330
152
100
AcDbEntity
  8
2
  6
Continuous
 62
   214
370
     9
100
AcDbBlockReference
  2
_OPEN
 10
31.844761801712
 20
76.35090000000007
 30
0.0
 41
2.4
 42
2.4
 43
2.4
 50
89.99999999999991
  0
ENDBLK
  5
154
330
152
100
AcDbEntity
  8
0
100
AcDbBlockEnd
  0
BLOCK
  5
15D
330
15C
100
AcDbEntity
  8
0
100
AcDbBlockBegin
  2
Dim4
 70
     0
 10
0.0
 20
0.0
 30
0.0
  3
Dim4
  1
Dim4
  0
LINE
  5
15F
330
15C
100
AcDbEntity
  8
2
  6
Continuous
 62
   214
370
     9
100
AcDbLine
 10
49.84476180171239
 20
76.35090000000001
 30
0.0
 11
29.844761801712
 21
76.35090000000008
 31
0.0
  0
LINE
  5
160
330
15C
100
AcDbEntity
  8
2
  6
Continuous
 62
   214
370
     9
100
AcDbLine
 10
63.59510544536116
 20
86.3509
 30
0.0
 11
29.844761801712
 21
86.35090000000012
 31
0.0
  0
LINE
  5
161
330
15C
100
AcDbEntity
  8
2
  6
Continuous
 62
   214
370
     9
100
AcDbLine
 10
31.844761801712
 20
76.35090000000007
 30
0.0
 11
31.844761801712
 21
86.35090000000011
 31
0.0
  0
MTEXT
  5
162
330
15C
100
AcDbEntity
  8
2
  6
Continuous
 62
   214
370
     9
100
AcDbMText
 10
31.344761801712
 20
81.3509000000001
 30
0.0
 40
5.0
 41
29.65
 71
     8
 72
     1
  1
10
  7
ＭＳ ゴシック
 11
1.615544574432587E-15
 21
1.0
 31
0.0
 73
     1
 44
1.0
1001
ACAD
1000
ACAD_MTEXT_DEFINED_HEIGHT_BEGIN
1070
    46
1040
5.0
1000
ACAD_MTEXT_DEFINED_HEIGHT_END
  0
INSERT
  5
163
330
15C
100
AcDbEntity
  8
2
  6
Continuous
 62
   214
370
     9
100
AcDbBlockReference
  2
_OPEN
 10
31.844761801712
 20
76.35090000000007
 30
0.0
 41
2.4
 42
2.4
 43
2.4
 50
269.9999999999998
  0
INSERT
  5
164
330
15C
100
AcDbEntity
  8
2
  6
Continuous
 62
   214
370
     9
100
AcDbBlockReference
  2
_OPEN
 10
31.844761801712
 20
86.35090000000011
 30
0.0
 41
2.4
 42
2.4
 43
2.4
 50
89.99999999999991
  0
ENDBLK
  5
15E
330
15C
100
AcDbEntity
  8
0
100
AcDbBlockEnd
  0
BLOCK
  5
185
330
184
100
AcDbEntity
  8
0
100
AcDbBlockBegin
  2
*G21
 70
     1
 10
0.0
 20
0.0
 30
0.0
  3
*G21
  1
*G21
  0
ARC
  5
187
330
184
100
AcDbEntity
  8
1
  6
Continuous
 62
     7
370
    30
100
AcDbCircle
 10
80.44476180171196
 20
213.9509
 30
0.0
 40
0.5
100
AcDbArc
 50
89.99999999999991
 51
180.0000000000029
  0
LINE
  5
188
330
184
100
AcDbEntity
  8
1
  6
Continuous
 62
     7
370
    30
100
AcDbLine
 10
79.94476180171196
 20
212.7509
 30
0.0
 11
79.94476180171196
 21
213.9508999999999
 31
0.0
  0
ARC
  5
189
330
184
100
AcDbEntity
  8
1
  6
Continuous
 62
     7
370
    30
100
AcDbCircle
 10
80.44476180171196
 20
212.7509
 30
0.0
 40
0.5
100
AcDbArc
 50
179.9999999999967
 51
270.0000000000061
  0
LINE
  5
18A
330
184
100
AcDbEntity
  8
1
  6
Continuous
 62
     7
370
    30
100
AcDbLine
 10
85.24476180171203
 20
212.2509
 30
0.0
 11
80.44476180171202
 21
212.2509
 31
0.0
  0
ARC
  5
18B
330
184
100
AcDbEntity
  8
1
  6
Continuous
 62
     7
370
    30
100
AcDbCircle
 10
85.24476180171203
 20
212.7509
 30
0.0
 40
0.5
100
AcDbArc
 50
269.9999999999998
 51
0.0000000000032569
  0
LINE
  5
18C
330
184
100
AcDbEntity
  8
1
  6
Continuous
 62
     7
370
    30
100
AcDbLine
 10
80.44476180171196
 20
214.4509
 30
0.0
 11
85.24476180171203
 21
214.4509
 31
0.0
  0
LINE
  5
18D
330
184
100
AcDbEntity
  8
1
  6
Continuous
 62
     7
370
    30
100
AcDbLine
 10
85.74476180171203
 20
213.9509
 30
0.0
 11
85.74476180171203
 21
212.7509
 31
0.0
  0
ARC
  5
18E
330
184
100
AcDbEntity
  8
1
  6
Continuous
 62
     7
370
    30
100
AcDbCircle
 10
85.24476180171203
 20
213.9509
 30
0.0
 40
0.5
100
AcDbArc
 50
0.0000000000032569
 51
89.99999999999991
  0
ENDBLK
  5
186
330
184
100
AcDbEntity
  8
0
100
AcDbBlockEnd
  0
BLOCK
  5
191
330
190
100
AcDbEntity
  8
0
100
AcDbBlockBegin
  2
*G22
 70
     1
 10
0.0
 20
0.0
 30
0.0
  3
*G22
  1
*G22
  0
ARC
  5
193
330
190
100
AcDbEntity
  8
1
  6
Continuous
 62
     7
370
    30
100
AcDbCircle
 10
80.44476180171196
 20
203.9509
 30
0.0
 40
0.5
100
AcDbArc
 50
89.99999999999991
 51
180.0000000000029
  0
LINE
  5
194
330
190
100
AcDbEntity
  8
1
  6
Continuous
 62
     7
370
    30
100
AcDbLine
 10
79.94476180171196
 20
202.7509
 30
0.0
 11
79.94476180171196
 21
203.9508999999999
 31
0.0
  0
ARC
  5
195
330
190
100
AcDbEntity
  8
1
  6
Continuous
 62
     7
370
    30
100
AcDbCircle
 10
80.44476180171196
 20
202.7509
 30
0.0
 40
0.5
100
AcDbArc
 50
179.9999999999967
 51
270.0000000000061
  0
LINE
  5
196
330
190
100
AcDbEntity
  8
1
  6
Continuous
 62
     7
370
    30
100
AcDbLine
 10
85.24476180171203
 20
202.2509
 30
0.0
 11
80.44476180171202
 21
202.2509
 31
0.0
  0
ARC
  5
197
330
190
100
AcDbEntity
  8
1
  6
Continuous
 62
     7
370
    30
100
AcDbCircle
 10
85.24476180171203
 20
202.7509
 30
0.0
 40
0.5
100
AcDbArc
 50
269.9999999999998
 51
0.0000000000032569
  0
LINE
  5
198
330
190
100
AcDbEntity
  8
1
  6
Continuous
 62
     7
370
    30
100
AcDbLine
 10
80.44476180171196
 20
204.4509
 30
0.0
 11
85.24476180171203
 21
204.4509
 31
0.0
  0
LINE
  5
199
330
190
100
AcDbEntity
  8
1
  6
Continuous
 62
     7
370
    30
100
AcDbLine
 10
85.74476180171203
 20
203.9509
 30
0.0
 11
85.74476180171203
 21
202.7509
 31
0.0
  0
ARC
  5
19A
330
190
100
AcDbEntity
  8
1
  6
Continuous
 62
     7
370
    30
100
AcDbCircle
 10
85.24476180171203
 20
203.9509
 30
0.0
 40
0.5
100
AcDbArc
 50
0.0000000000032569
 51
89.99999999999991
  0
ENDBLK
  5
192
330
190
100
AcDbEntity
  8
0
100
AcDbBlockEnd
  0
BLOCK
  5
19D
330
19C
100
AcDbEntity
  8
0
100
AcDbBlockBegin
  2
*G23
 70
     1
 10
0.0
 20
0.0
 30
0.0
  3
*G23
  1
*G23
  0
ARC
  5
19F
330
19C
100
AcDbEntity
  8
1
  6
Continuous
 62
     7
370
    30
100
AcDbCircle
 10
80.44476180171196
 20
193.9509
 30
0.0
 40
0.5
100
AcDbArc
 50
89.99999999999991
 51
180.0000000000029
  0
LINE
  5
1A0
330
19C
100
AcDbEntity
  8
1
  6
Continuous
 62
     7
370
    30
100
AcDbLine
 10
79.94476180171196
 20
192.7509
 30
0.0
 11
79.94476180171196
 21
193.9508999999999
 31
0.0
  0
ARC
  5
1A1
330
19C
100
AcDbEntity
  8
1
  6
Continuous
 62
     7
370
    30
100
AcDbCircle
 10
80.44476180171196
 20
192.7509
 30
0.0
 40
0.5
100
AcDbArc
 50
179.9999999999967
 51
270.0000000000061
  0
LINE
  5
1A2
330
19C
100
AcDbEntity
  8
1
  6
Continuous
 62
     7
370
    30
100
AcDbLine
 10
85.24476180171203
 20
192.2509
 30
0.0
 11
80.44476180171202
 21
192.2509
 31
0.0
  0
ARC
  5
1A3
330
19C
100
AcDbEntity
  8
1
  6
Continuous
 62
     7
370
    30
100
AcDbCircle
 10
85.24476180171203
 20
192.7509
 30
0.0
 40
0.5
100
AcDbArc
 50
269.9999999999998
 51
0.0000000000032569
  0
LINE
  5
1A4
330
19C
100
AcDbEntity
  8
1
  6
Continuous
 62
     7
370
    30
100
AcDbLine
 10
80.44476180171196
 20
194.4509
 30
0.0
 11
85.24476180171203
 21
194.4509
 31
0.0
  0
LINE
  5
1A5
330
19C
100
AcDbEntity
  8
1
  6
Continuous
 62
     7
370
    30
100
AcDbLine
 10
85.74476180171203
 20
193.9509
 30
0.0
 11
85.74476180171203
 21
192.7509
 31
0.0
  0
ARC
  5
1A6
330
19C
100
AcDbEntity
  8
1
  6
Continuous
 62
     7
370
    30
100
AcDbCircle
 10
85.24476180171203
 20
193.9509
 30
0.0
 40
0.5
100
AcDbArc
 50
0.0000000000032569
 51
89.99999999999991
  0
ENDBLK
  5
19E
330
19C
100
AcDbEntity
  8
0
100
AcDbBlockEnd
  0
BLOCK
  5
1A9
330
1A8
100
AcDbEntity
  8
0
100
AcDbBlockBegin
  2
*G24
 70
     1
 10
0.0
 20
0.0
 30
0.0
  3
*G24
  1
*G24
  0
ARC
  5
1AB
330
1A8
100
AcDbEntity
  8
1
  6
Continuous
 62
     7
370
    30
100
AcDbCircle
 10
80.44476180171196
 20
183.9509
 30
0.0
 40
0.5
100
AcDbArc
 50
89.99999999999991
 51
180.0000000000029
  0
LINE
  5
1AC
330
1A8
100
AcDbEntity
  8
1
  6
Continuous
 62
     7
370
    30
100
AcDbLine
 10
79.94476180171196
 20
182.7509
 30
0.0
 11
79.94476180171196
 21
183.9508999999999
 31
0.0
  0
ARC
  5
1AD
330
1A8
100
AcDbEntity
  8
1
  6
Continuous
 62
     7
370
    30
100
AcDbCircle
 10
80.44476180171196
 20
182.7509
 30
0.0
 40
0.5
100
AcDbArc
 50
179.9999999999967
 51
270.0000000000061
  0
LINE
  5
1AE
330
1A8
100
AcDbEntity
  8
1
  6
Continuous
 62
     7
370
    30
100
AcDbLine
 10
85.24476180171203
 20
182.2509
 30
0.0
 11
80.44476180171202
 21
182.2509
 31
0.0
  0
ARC
  5
1AF
330
1A8
100
AcDbEntity
  8
1
  6
Continuous
 62
     7
370
    30
100
AcDbCircle
 10
85.24476180171203
 20
182.7509
 30
0.0
 40
0.5
100
AcDbArc
 50
269.9999999999998
 51
0.0000000000032569
  0
LINE
  5
1B0
330
1A8
100
AcDbEntity
  8
1
  6
Continuous
 62
     7
370
    30
100
AcDbLine
 10
80.44476180171196
 20
184.4509
 30
0.0
 11
85.24476180171203
 21
184.4509
 31
0.0
  0
LINE
  5
1B1
330
1A8
100
AcDbEntity
  8
1
  6
Continuous
 62
     7
370
    30
100
AcDbLine
 10
85.74476180171203
 20
183.9509
 30
0.0
 11
85.74476180171203
 21
182.7509
 31
0.0
  0
ARC
  5
1B2
330
1A8
100
AcDbEntity
  8
1
  6
Continuous
 62
     7
370
    30
100
AcDbCircle
 10
85.24476180171203
 20
183.9509
 30
0.0
 40
0.5
100
AcDbArc
 50
0.0000000000032569
 51
89.99999999999991
  0
ENDBLK
  5
1AA
330
1A8
100
AcDbEntity
  8
0
100
AcDbBlockEnd
  0
BLOCK
  5
1D2
330
1D1
100
AcDbEntity
  8
0
100
AcDbBlockBegin
  2
*G25
 70
     1
 10
0.0
 20
0.0
 30
0.0
  3
*G25
  1
*G25
  0
LINE
  5
1D4
330
1D1
100
AcDbEntity
  8
1
  6
Continuous
 62
     7
370
    30
100
AcDbLine
 10
70.25438895157978
 20
201.1489111292748
 30
0.0
 11
73.42504742326255
 21
201.1489111292748
 31
0.0
  0
ARC
  5
1D5
330
1D1
100
AcDbEntity
  8
1
  6
Continuous
 62
     7
370
    30
100
AcDbCircle
 10
70.25438895157978
 20
201.3550861610186
 30
0.0
 40
0.2061750317438645
100
AcDbArc
 50
179.9999999999998
 51
269.9999999999998
  0
LINE
  5
1D6
330
1D1
100
AcDbEntity
  8
1
  6
Continuous
 62
     7
370
    30
100
AcDbLine
 10
70.04821391983589
 20
201.3550861610186
 30
0.0
 11
70.04821391983589
 21
203.2891065417103
 31
0.0
  0
ARC
  5
1D7
330
1D1
100
AcDbEntity
  8
1
  6
Continuous
 62
     7
370
    30
100
AcDbCircle
 10
70.25438895157978
 20
203.2891065417103
 30
0.0
 40
0.2061750317438645
100
AcDbArc
 50
89.99999999999991
 51
179.9999999999998
  0
ARC
  5
1D8
330
1D1
100
AcDbEntity
  8
1
  6
Continuous
 62
     7
370
    30
100
AcDbCircle
 10
73.42504742326255
 20
201.3550861610186
 30
0.0
 40
0.2061750317438645
100
AcDbArc
 50
269.9999999999998
 51
0.0
  0
LINE
  5
1D9
330
1D1
100
AcDbEntity
  8
1
  6
Continuous
 62
     7
370
    30
100
AcDbLine
 10
73.63122245500645
 20
203.2891065417103
 30
0.0
 11
73.63122245500645
 21
201.3550861610186
 31
0.0
  0
ARC
  5
1DA
330
1D1
100
AcDbEntity
  8
1
  6
Continuous
 62
     7
370
    30
100
AcDbCircle
 10
73.42504742326255
 20
203.2891065417103
 30
0.0
 40
0.2061750317438645
100
AcDbArc
 50
0.0
 51
89.99999999999991
  0
LINE
  5
1DB
330
1D1
100
AcDbEntity
  8
1
  6
Continuous
 62
     7
370
    30
100
AcDbLine
 10
73.42504742326255
 20
203.495281573454
 30
0.0
 11
73.10271347520356
 21
203.495281573454
 31
0.0
  0
LINE
  5
1DC
330
1D1
100
AcDbEntity
  8
1
  6
Continuous
 62
     7
370
    30
100
AcDbLine
 10
72.67134422823423
 20
203.495281573454
 30
0.0
 11
70.25438895157978
 21
203.495281573454
 31
0.0
  0
ENDBLK
  5
1D3
330
1D1
100
AcDbEntity
  8
0
100
AcDbBlockEnd
  0
BLOCK
  5
232
330
231
100
AcDbEntity
  8
0
100
AcDbBlockBegin
  2
*G26
 70
     1
 10
0.0
 20
0.0
 30
0.0
  3
*G26
  1
*G26
  0
ARC
  5
234
330
231
100
AcDbEntity
  8
1
  6
Continuous
 62
     7
370
    30
100
AcDbCircle
 10
214.0882028598829
 20
81.74784340730054
 30
0.0
 40
0.5
100
AcDbArc
 50
89.99999999999991
 51
180.0000000000029
  0
LINE
  5
235
330
231
100
AcDbEntity
  8
1
  6
Continuous
 62
     7
370
    30
100
AcDbLine
 10
213.5882028598829
 20
80.54784340730058
 30
0.0
 11
213.5882028598829
 21
81.74784340730051
 31
0.0
  0
ARC
  5
236
330
231
100
AcDbEntity
  8
1
  6
Continuous
 62
     7
370
    30
100
AcDbCircle
 10
214.0882028598829
 20
80.54784340730055
 30
0.0
 40
0.5
100
AcDbArc
 50
179.9999999999967
 51
270.0000000000061
  0
LINE
  5
237
330
231
100
AcDbEntity
  8
1
  6
Continuous
 62
     7
370
    30
100
AcDbLine
 10
218.888202859883
 20
80.04784340730055
 30
0.0
 11
214.088202859883
 21
80.04784340730055
 31
0.0
  0
ARC
  5
238
330
231
100
AcDbEntity
  8
1
  6
Continuous
 62
     7
370
    30
100
AcDbCircle
 10
218.888202859883
 20
80.54784340730055
 30
0.0
 40
0.5
100
AcDbArc
 50
269.9999999999998
 51
0.0000000000032569
  0
LINE
  5
239
330
231
100
AcDbEntity
  8
1
  6
Continuous
 62
     7
370
    30
100
AcDbLine
 10
214.0882028598829
 20
82.24784340730054
 30
0.0
 11
218.888202859883
 21
82.24784340730054
 31
0.0
  0
LINE
  5
23A
330
231
100
AcDbEntity
  8
1
  6
Continuous
 62
     7
370
    30
100
AcDbLine
 10
219.388202859883
 20
81.74784340730056
 30
0.0
 11
219.388202859883
 21
80.54784340730058
 31
0.0
  0
ARC
  5
23B
330
231
100
AcDbEntity
  8
1
  6
Continuous
 62
     7
370
    30
100
AcDbCircle
 10
218.888202859883
 20
81.74784340730054
 30
0.0
 40
0.5
100
AcDbArc
 50
0.0000000000032569
 51
89.99999999999991
  0
ENDBLK
  5
233
330
231
100
AcDbEntity
  8
0
100
AcDbBlockEnd
  0
BLOCK
  5
23E
330
23D
100
AcDbEntity
  8
0
100
AcDbBlockBegin
  2
*G27
 70
     1
 10
0.0
 20
0.0
 30
0.0
  3
*G27
  1
*G27
  0
ARC
  5
240
330
23D
100
AcDbEntity
  8
1
  6
Continuous
 62
     7
370
    30
100
AcDbCircle
 10
214.0882028598829
 20
71.74784340730054
 30
0.0
 40
0.5
100
AcDbArc
 50
89.99999999999991
 51
180.0000000000029
  0
LINE
  5
241
330
23D
100
AcDbEntity
  8
1
  6
Continuous
 62
     7
370
    30
100
AcDbLine
 10
213.5882028598829
 20
70.54784340730058
 30
0.0
 11
213.5882028598829
 21
71.74784340730051
 31
0.0
  0
ARC
  5
242
330
23D
100
AcDbEntity
  8
1
  6
Continuous
 62
     7
370
    30
100
AcDbCircle
 10
214.0882028598829
 20
70.54784340730055
 30
0.0
 40
0.5
100
AcDbArc
 50
179.9999999999967
 51
270.0000000000061
  0
LINE
  5
243
330
23D
100
AcDbEntity
  8
1
  6
Continuous
 62
     7
370
    30
100
AcDbLine
 10
218.888202859883
 20
70.04784340730055
 30
0.0
 11
214.088202859883
 21
70.04784340730055
 31
0.0
  0
ARC
  5
244
330
23D
100
AcDbEntity
  8
1
  6
Continuous
 62
     7
370
    30
100
AcDbCircle
 10
218.888202859883
 20
70.54784340730055
 30
0.0
 40
0.5
100
AcDbArc
 50
269.9999999999998
 51
0.0000000000032569
  0
LINE
  5
245
330
23D
100
AcDbEntity
  8
1
  6
Continuous
 62
     7
370
    30
100
AcDbLine
 10
214.0882028598829
 20
72.24784340730054
 30
0.0
 11
218.888202859883
 21
72.24784340730054
 31
0.0
  0
LINE
  5
246
330
23D
100
AcDbEntity
  8
1
  6
Continuous
 62
     7
370
    30
100
AcDbLine
 10
219.388202859883
 20
71.74784340730056
 30
0.0
 11
219.388202859883
 21
70.54784340730058
 31
0.0
  0
ARC
  5
247
330
23D
100
AcDbEntity
  8
1
  6
Continuous
 62
     7
370
    30
100
AcDbCircle
 10
218.888202859883
 20
71.74784340730054
 30
0.0
 40
0.5
100
AcDbArc
 50
0.0000000000032569
 51
89.99999999999991
  0
ENDBLK
  5
23F
330
23D
100
AcDbEntity
  8
0
100
AcDbBlockEnd
  0
BLOCK
  5
24A
330
249
100
AcDbEntity
  8
0
100
AcDbBlockBegin
  2
*G28
 70
     1
 10
0.0
 20
0.0
 30
0.0
  3
*G28
  1
*G28
  0
ARC
  5
24C
330
249
100
AcDbEntity
  8
1
  6
Continuous
 62
     7
370
    30
100
AcDbCircle
 10
214.0882028598829
 20
61.74784340730054
 30
0.0
 40
0.5
100
AcDbArc
 50
89.99999999999991
 51
180.0000000000029
  0
LINE
  5
24D
330
249
100
AcDbEntity
  8
1
  6
Continuous
 62
     7
370
    30
100
AcDbLine
 10
213.5882028598829
 20
60.54784340730058
 30
0.0
 11
213.5882028598829
 21
61.74784340730051
 31
0.0
  0
ARC
  5
24E
330
249
100
AcDbEntity
  8
1
  6
Continuous
 62
     7
370
    30
100
AcDbCircle
 10
214.0882028598829
 20
60.54784340730055
 30
0.0
 40
0.5
100
AcDbArc
 50
179.9999999999967
 51
270.0000000000061
  0
LINE
  5
24F
330
249
100
AcDbEntity
  8
1
  6
Continuous
 62
     7
370
    30
100
AcDbLine
 10
218.888202859883
 20
60.04784340730055
 30
0.0
 11
214.088202859883
 21
60.04784340730055
 31
0.0
  0
ARC
  5
250
330
249
100
AcDbEntity
  8
1
  6
Continuous
 62
     7
370
    30
100
AcDbCircle
 10
218.888202859883
 20
60.54784340730055
 30
0.0
 40
0.5
100
AcDbArc
 50
269.9999999999998
 51
0.0000000000032569
  0
LINE
  5
251
330
249
100
AcDbEntity
  8
1
  6
Continuous
 62
     7
370
    30
100
AcDbLine
 10
214.0882028598829
 20
62.24784340730054
 30
0.0
 11
218.888202859883
 21
62.24784340730054
 31
0.0
  0
LINE
  5
252
330
249
100
AcDbEntity
  8
1
  6
Continuous
 62
     7
370
    30
100
AcDbLine
 10
219.388202859883
 20
61.74784340730056
 30
0.0
 11
219.388202859883
 21
60.54784340730058
 31
0.0
  0
ARC
  5
253
330
249
100
AcDbEntity
  8
1
  6
Continuous
 62
     7
370
    30
100
AcDbCircle
 10
218.888202859883
 20
61.74784340730054
 30
0.0
 40
0.5
100
AcDbArc
 50
0.0000000000032569
 51
89.99999999999991
  0
ENDBLK
  5
24B
330
249
100
AcDbEntity
  8
0
100
AcDbBlockEnd
  0
BLOCK
  5
266
330
265
100
AcDbEntity
  8
0
100
AcDbBlockBegin
  2
*G29
 70
     1
 10
0.0
 20
0.0
 30
0.0
  3
*G29
  1
*G29
  0
LINE
  5
268
330
265
100
AcDbEntity
  8
1
  6
Continuous
 62
     7
370
    30
100
AcDbLine
 10
203.8978300097507
 20
68.94585453657538
 30
0.0
 11
207.0684884814335
 21
68.94585453657538
 31
0.0
  0
ARC
  5
269
330
265
100
AcDbEntity
  8
1
  6
Continuous
 62
     7
370
    30
100
AcDbCircle
 10
203.8978300097507
 20
69.15202956831916
 30
0.0
 40
0.2061750317438645
100
AcDbArc
 50
179.9999999999998
 51
269.9999999999998
  0
LINE
  5
26A
330
265
100
AcDbEntity
  8
1
  6
Continuous
 62
     7
370
    30
100
AcDbLine
 10
203.6916549780069
 20
69.15202956831916
 30
0.0
 11
203.6916549780069
 21
71.08604994901083
 31
0.0
  0
ARC
  5
26B
330
265
100
AcDbEntity
  8
1
  6
Continuous
 62
     7
370
    30
100
AcDbCircle
 10
203.8978300097507
 20
71.08604994901083
 30
0.0
 40
0.2061750317438645
100
AcDbArc
 50
89.99999999999991
 51
179.9999999999998
  0
ARC
  5
26C
330
265
100
AcDbEntity
  8
1
  6
Continuous
 62
     7
370
    30
100
AcDbCircle
 10
207.0684884814335
 20
69.15202956831916
 30
0.0
 40
0.2061750317438645
100
AcDbArc
 50
269.9999999999998
 51
0.0
  0
LINE
  5
26D
330
265
100
AcDbEntity
  8
1
  6
Continuous
 62
     7
370
    30
100
AcDbLine
 10
207.2746635131774
 20
71.08604994901083
 30
0.0
 11
207.2746635131774
 21
69.15202956831916
 31
0.0
  0
ARC
  5
26E
330
265
100
AcDbEntity
  8
1
  6
Continuous
 62
     7
370
    30
100
AcDbCircle
 10
207.0684884814335
 20
71.08604994901083
 30
0.0
 40
0.2061750317438645
100
AcDbArc
 50
0.0
 51
89.99999999999991
  0
LINE
  5
26F
330
265
100
AcDbEntity
  8
1
  6
Continuous
 62
     7
370
    30
100
AcDbLine
 10
207.0684884814335
 20
71.29222498075461
 30
0.0
 11
206.7461545333745
 21
71.29222498075461
 31
0.0
  0
LINE
  5
270
330
265
100
AcDbEntity
  8
1
  6
Continuous
 62
     7
370
    30
100
AcDbLine
 10
206.3147852864052
 20
71.29222498075461
 30
0.0
 11
203.8978300097507
 21
71.29222498075461
 31
0.0
  0
ENDBLK
  5
267
330
265
100
AcDbEntity
  8
0
100
AcDbBlockEnd
  0
BLOCK
  5
28C
330
28B
100
AcDbEntity
  8
0
100
AcDbBlockBegin
  2
*G30
 70
     1
 10
0.0
 20
0.0
 30
0.0
  3
*G30
  1
*G30
  0
ARC
  5
28E
330
28B
100
AcDbEntity
  8
1
  6
Continuous
 62
     7
370
    30
100
AcDbCircle
 10
214.0882028598829
 20
51.74784340730054
 30
0.0
 40
0.5
100
AcDbArc
 50
89.99999999999991
 51
180.0000000000029
  0
LINE
  5
28F
330
28B
100
AcDbEntity
  8
1
  6
Continuous
 62
     7
370
    30
100
AcDbLine
 10
213.5882028598829
 20
50.54784340730058
 30
0.0
 11
213.5882028598829
 21
51.74784340730051
 31
0.0
  0
ARC
  5
290
330
28B
100
AcDbEntity
  8
1
  6
Continuous
 62
     7
370
    30
100
AcDbCircle
 10
214.0882028598829
 20
50.54784340730055
 30
0.0
 40
0.5
100
AcDbArc
 50
179.9999999999967
 51
270.0000000000061
  0
LINE
  5
291
330
28B
100
AcDbEntity
  8
1
  6
Continuous
 62
     7
370
    30
100
AcDbLine
 10
218.888202859883
 20
50.04784340730055
 30
0.0
 11
214.088202859883
 21
50.04784340730055
 31
0.0
  0
ARC
  5
292
330
28B
100
AcDbEntity
  8
1
  6
Continuous
 62
     7
370
    30
100
AcDbCircle
 10
218.888202859883
 20
50.54784340730055
 30
0.0
 40
0.5
100
AcDbArc
 50
269.9999999999998
 51
0.0000000000032569
  0
LINE
  5
293
330
28B
100
AcDbEntity
  8
1
  6
Continuous
 62
     7
370
    30
100
AcDbLine
 10
214.0882028598829
 20
52.24784340730054
 30
0.0
 11
218.888202859883
 21
52.24784340730054
 31
0.0
  0
LINE
  5
294
330
28B
100
AcDbEntity
  8
1
  6
Continuous
 62
     7
370
    30
100
AcDbLine
 10
219.388202859883
 20
51.74784340730056
 30
0.0
 11
219.388202859883
 21
50.54784340730058
 31
0.0
  0
ARC
  5
295
330
28B
100
AcDbEntity
  8
1
  6
Continuous
 62
     7
370
    30
100
AcDbCircle
 10
218.888202859883
 20
51.74784340730054
 30
0.0
 40
0.5
100
AcDbArc
 50
0.0000000000032569
 51
89.99999999999991
  0
ENDBLK
  5
28D
330
28B
100
AcDbEntity
  8
0
100
AcDbBlockEnd
  0
BLOCK
  5
2C1
330
2C0
100
AcDbEntity
  8
0
100
AcDbBlockBegin
  2
*G31
 70
     1
 10
0.0
 20
0.0
 30
0.0
  3
*G31
  1
*G31
  0
INSERT
  5
2ED
330
2C0
100
AcDbEntity
  8
0
100
AcDbBlockReference
  2
*G32
 10
0.0
 20
0.0
 30
0.0
  0
INSERT
  5
30E
330
2C0
100
AcDbEntity
  8
0
100
AcDbBlockReference
  2
*G33
 10
0.0
 20
0.0
 30
0.0
  0
INSERT
  5
31E
330
2C0
100
AcDbEntity
  8
0
100
AcDbBlockReference
  2
*G34
 10
0.0
 20
0.0
 30
0.0
  0
INSERT
  5
33C
330
2C0
100
AcDbEntity
  8
0
100
AcDbBlockReference
  2
*G35
 10
0.0
 20
0.0
 30
0.0
  0
INSERT
  5
36E
330
2C0
100
AcDbEntity
  8
0
100
AcDbBlockReference
  2
*G36
 10
0.0
 20
0.0
 30
0.0
  0
INSERT
  5
37E
330
2C0
100
AcDbEntity
  8
0
100
AcDbBlockReference
  2
*G37
 10
0.0
 20
0.0
 30
0.0
  0
INSERT
  5
38E
330
2C0
100
AcDbEntity
  8
0
100
AcDbBlockReference
  2
*G38
 10
0.0
 20
0.0
 30
0.0
  0
INSERT
  5
3A5
330
2C0
100
AcDbEntity
  8
0
100
AcDbBlockReference
  2
*G39
 10
0.0
 20
0.0
 30
0.0
  0
INSERT
  5
3C1
330
2C0
100
AcDbEntity
  8
0
100
AcDbBlockReference
  2
*G40
 10
0.0
 20
0.0
 30
0.0
  0
INSERT
  5
3E0
330
2C0
100
AcDbEntity
  8
0
100
AcDbBlockReference
  2
*G41
 10
0.0
 20
0.0
 30
0.0
  0
INSERT
  5
41C
330
2C0
100
AcDbEntity
  8
0
100
AcDbBlockReference
  2
*G42
 10
0.0
 20
0.0
 30
0.0
  0
INSERT
  5
433
330
2C0
100
AcDbEntity
  8
0
100
AcDbBlockReference
  2
*G43
 10
0.0
 20
0.0
 30
0.0
  0
INSERT
  5
459
330
2C0
100
AcDbEntity
  8
0
100
AcDbBlockReference
  2
*G44
 10
0.0
 20
0.0
 30
0.0
  0
ENDBLK
  5
2C2
330
2C0
100
AcDbEntity
  8
0
100
AcDbBlockEnd
  0
BLOCK
  5
2C4
330
2C3
100
AcDbEntity
  8
0
100
AcDbBlockBegin
  2
*G32
 70
     1
 10
0.0
 20
0.0
 30
0.0
  3
*G32
  1
*G32
  0
POLYLINE
  5
2C6
330
2C3
100
AcDbEntity
  8
1
  6
Continuous
 62
     7
370
    30
100
AcDb2dPolyline
 66
     1
 10
0.0
 20
0.0
 30
0.0
  0
VERTEX
  5
2C7
330
2C6
100
AcDbEntity
  8
1
  6
Continuous
 62
     7
370
    30
100
AcDbVertex
100
AcDb2dVertex
 10
119.0178975455012
 20
201.3834281706503
 30
0.0
  0
VERTEX
  5
2C8
330
2C6
100
AcDbEntity
  8
1
  6
Continuous
 62
     7
370
    30
100
AcDbVertex
100
AcDb2dVertex
 10
119.4958742656578
 20
201.3851760024726
 30
0.0
  0
VERTEX
  5
2C9
330
2C6
100
AcDbEntity
  8
1
  6
Continuous
 62
     7
370
    30
100
AcDbVertex
100
AcDb2dVertex
 10
119.6454909973673
 20
201.3920548907746
 30
0.0
  0
VERTEX
  5
2CA
330
2C6
100
AcDbEntity
  8
1
  6
Continuous
 62
     7
370
    30
100
AcDbVertex
100
AcDb2dVertex
 10
119.6988028086686
 20
201.3782970063074
 30
0.0
  0
VERTEX
  5
2CB
330
2C6
100
AcDbEntity
  8
1
  6
Continuous
 62
     7
370
    30
100
AcDbVertex
100
AcDb2dVertex
 10
119.8294040371066
 20
201.3559192967898
 30
0.0
  0
VERTEX
  5
2CC
330
2C6
100
AcDbEntity
  8
1
  6
Continuous
 62
     7
370
    30
100
AcDbVertex
100
AcDb2dVertex
 10
119.9790207688161
 20
201.3627981850918
 30
0.0
  0
VERTEX
  5
2CD
330
2C6
100
AcDbEntity
  8
1
  6
Continuous
 62
     7
370
    30
100
AcDbVertex
100
AcDb2dVertex
 10
120.0029989451464
 20
201.3679363667574
 30
0.0
  0
VERTEX
  5
2CE
330
2C6
100
AcDbEntity
  8
1
  6
Continuous
 62
     7
370
    30
100
AcDbVertex
100
AcDb2dVertex
 10
120.1234785772997
 20
201.3937534359322
 30
0.0
  0
VERTEX
  5
2CF
330
2C6
100
AcDbEntity
  8
1
  6
Continuous
 62
     7
370
    30
100
AcDbVertex
100
AcDb2dVertex
 10
120.2540797446133
 20
201.3713760116619
 30
0.0
  0
VERTEX
  5
2D0
330
2C6
100
AcDbEntity
  8
1
  6
Continuous
 62
     7
370
    30
100
AcDbVertex
100
AcDb2dVertex
 10
120.5687802589241
 20
201.3129542318132
 30
0.0
  0
VERTEX
  5
2D1
330
2C6
100
AcDbEntity
  8
1
  6
Continuous
 62
     7
370
    30
100
AcDbVertex
100
AcDb2dVertex
 10
120.7234580740235
 20
201.2957357918936
 30
0.0
  0
VERTEX
  5
2D2
330
2C6
100
AcDbEntity
  8
1
  6
Continuous
 62
     7
370
    30
100
AcDbVertex
100
AcDb2dVertex
 10
121.7275746305685
 20
201.3095008099431
 30
0.0
  0
VERTEX
  5
2D3
330
2C6
100
AcDbEntity
  8
1
  6
Continuous
 62
     7
370
    30
100
AcDbVertex
100
AcDb2dVertex
 10
121.7516509319824
 20
201.3146600184165
 30
0.0
  0
VERTEX
  5
2D4
330
2C6
100
AcDbEntity
  8
1
  6
Continuous
 62
     7
370
    30
100
AcDbVertex
100
AcDb2dVertex
 10
122.5442406158946
 20
201.2579156957931
 30
0.0
  0
VERTEX
  5
2D5
330
2C6
100
AcDbEntity
  8
1
  6
Continuous
 62
     7
370
    30
100
AcDbVertex
100
AcDb2dVertex
 10
123.1236817501802
 20
201.2562240600951
 30
0.0
  0
VERTEX
  5
2D6
330
2C6
100
AcDbEntity
  8
1
  6
Continuous
 62
     7
370
    30
100
AcDbVertex
100
AcDb2dVertex
 10
123.3128523475995
 20
201.196033537876
 30
0.0
  0
VERTEX
  5
2D7
330
2C6
100
AcDbEntity
  8
1
  6
Continuous
 62
     7
370
    30
100
AcDbVertex
100
AcDb2dVertex
 10
123.8904647093341
 20
200.9673653176102
 30
0.0
  0
VERTEX
  5
2D8
330
2C6
100
AcDbEntity
  8
1
  6
Continuous
 62
     7
370
    30
100
AcDbVertex
100
AcDb2dVertex
 10
124.0314830502972
 20
200.8968561543214
 30
0.0
  0
VERTEX
  5
2D9
330
2C6
100
AcDbEntity
  8
1
  6
Continuous
 62
     7
370
    30
100
AcDbVertex
100
AcDb2dVertex
 10
124.8274803235429
 20
200.2366334545067
 30
0.0
  0
VERTEX
  5
2DA
330
2C6
100
AcDbEntity
  8
1
  6
Continuous
 62
     7
370
    30
100
AcDbVertex
100
AcDb2dVertex
 10
124.9444223630922
 20
200.1609650827446
 30
0.0
  0
VERTEX
  5
2DB
330
2C6
100
AcDbEntity
  8
1
  6
Continuous
 62
     7
370
    30
100
AcDbVertex
100
AcDb2dVertex
 10
125.3140453836735
 20
199.9632732479901
 30
0.0
  0
VERTEX
  5
2DC
330
2C6
100
AcDbEntity
  8
1
  6
Continuous
 62
     7
370
    30
100
AcDbVertex
100
AcDb2dVertex
 10
125.4309874232227
 20
199.887604876228
 30
0.0
  0
VERTEX
  5
2DD
330
2C6
100
AcDbEntity
  8
1
  6
Continuous
 62
     7
370
    30
100
AcDbVertex
100
AcDb2dVertex
 10
125.558237019943
 20
199.7638331883027
 30
0.0
  0
VERTEX
  5
2DE
330
2C6
100
AcDbEntity
  8
1
  6
Continuous
 62
     7
370
    30
100
AcDbVertex
100
AcDb2dVertex
 10
125.6407839947598
 20
199.7311584350179
 30
0.0
  0
VERTEX
  5
2DF
330
2C6
100
AcDbEntity
  8
1
  6
Continuous
 62
     7
370
    30
100
AcDbVertex
100
AcDb2dVertex
 10
125.9330297624017
 20
199.5420159895924
 30
0.0
  0
VERTEX
  5
2E0
330
2C6
100
AcDbEntity
  8
1
  6
Continuous
 62
     7
370
    30
100
AcDbVertex
100
AcDb2dVertex
 10
125.9623636826201
 20
199.5231199845843
 30
0.0
  0
VERTEX
  5
2E1
330
2C6
100
AcDbEntity
  8
1
  6
Continuous
 62
     7
370
    30
100
AcDbVertex
100
AcDb2dVertex
 10
126.4987026150761
 20
199.1345166767865
 30
0.0
  0
VERTEX
  5
2E2
330
2C6
100
AcDbEntity
  8
1
  6
Continuous
 62
     7
370
    30
100
AcDbVertex
100
AcDb2dVertex
 10
126.5863877715584
 20
199.0778637471714
 30
0.0
  0
VERTEX
  5
2E3
330
2C6
100
AcDbEntity
  8
1
  6
Continuous
 62
     7
370
    30
100
AcDbVertex
100
AcDb2dVertex
 10
127.0609357149827
 20
198.6255528887271
 30
0.0
  0
VERTEX
  5
2E4
330
2C6
100
AcDbEntity
  8
1
  6
Continuous
 62
     7
370
    30
100
AcDbVertex
100
AcDb2dVertex
 10
127.1537803651858
 20
198.5448237188224
 30
0.0
  0
VERTEX
  5
2E5
330
2C6
100
AcDbEntity
  8
1
  6
Continuous
 62
     7
370
    30
100
AcDbVertex
100
AcDb2dVertex
 10
127.7916818368545
 20
198.1528019703122
 30
0.0
  0
VERTEX
  5
2E6
330
2C6
100
AcDbEntity
  8
1
  6
Continuous
 62
     7
370
    30
100
AcDbVertex
100
AcDb2dVertex
 10
127.8209173467419
 20
198.1338848773717
 30
0.0
  0
VERTEX
  5
2E7
330
2C6
100
AcDbEntity
  8
1
  6
Continuous
 62
     7
370
    30
100
AcDbVertex
100
AcDb2dVertex
 10
128.2730876885118
 20
197.9035180652095
 30
0.0
  0
VERTEX
  5
2E8
330
2C6
100
AcDbEntity
  8
1
  6
Continuous
 62
     7
370
    30
100
AcDbVertex
100
AcDb2dVertex
 10
128.326301089482
 20
197.8897390928101
 30
0.0
  0
VERTEX
  5
2E9
330
2C6
100
AcDbEntity
  8
1
  6
Continuous
 62
     7
370
    30
100
AcDbVertex
100
AcDb2dVertex
 10
129.6622945550386
 20
197.2948661932087
 30
0.0
  0
VERTEX
  5
2EA
330
2C6
100
AcDbEntity
  8
1
  6
Continuous
 62
     7
370
    30
100
AcDbVertex
100
AcDb2dVertex
 10
129.6915300649259
 20
197.2759491002682
 30
0.0
  0
VERTEX
  5
2EB
330
2C6
100
AcDbEntity
  8
1
  6
Continuous
 62
     7
370
    30
100
AcDbVertex
100
AcDb2dVertex
 10
131.2664470345437
 20
196.5057404170029
 30
0.0
  0
SEQEND
  5
2EC
330
2C6
100
AcDbEntity
  8
1
  6
Continuous
 62
     7
370
    30
  0
ENDBLK
  5
2C5
330
2C3
100
AcDbEntity
  8
0
100
AcDbBlockEnd
  0
BLOCK
  5
2EF
330
2EE
100
AcDbEntity
  8
0
100
AcDbBlockBegin
  2
*G33
 70
     1
 10
0.0
 20
0.0
 30
0.0
  3
*G33
  1
*G33
  0
POLYLINE
  5
2F1
330
2EE
100
AcDbEntity
  8
1
  6
Continuous
 62
     7
370
    30
100
AcDb2dPolyline
 66
     1
 10
0.0
 20
0.0
 30
0.0
  0
VERTEX
  5
2F2
330
2F1
100
AcDbEntity
  8
1
  6
Continuous
 62
     7
370
    30
100
AcDbVertex
100
AcDb2dVertex
 10
117.8539020088564
 20
197.5338769014534
 30
0.0
  0
VERTEX
  5
2F3
330
2F1
100
AcDbEntity
  8
1
  6
Continuous
 62
     7
370
    30
100
AcDbVertex
100
AcDb2dVertex
 10
116.5729820520811
 20
195.8747033279628
 30
0.0
  0
VERTEX
  5
2F4
330
2F1
100
AcDbEntity
  8
1
  6
Continuous
 62
     7
370
    30
100
AcDbVertex
100
AcDb2dVertex
 10
116.4251340627421
 20
195.7422945227689
 30
0.0
  0
VERTEX
  5
2F5
330
2F1
100
AcDbEntity
  8
1
  6
Continuous
 62
     7
370
    30
100
AcDbVertex
100
AcDb2dVertex
 10
116.4010577613281
 20
195.7371353142955
 30
0.0
  0
VERTEX
  5
2F6
330
2F1
100
AcDbEntity
  8
1
  6
Continuous
 62
     7
370
    30
100
AcDbVertex
100
AcDb2dVertex
 10
116.1947390985862
 20
195.6425604708601
 30
0.0
  0
VERTEX
  5
2F7
330
2F1
100
AcDbEntity
  8
1
  6
Continuous
 62
     7
370
    30
100
AcDbVertex
100
AcDb2dVertex
 10
115.9677836019506
 20
195.64429083308
 30
0.0
  0
VERTEX
  5
2F8
330
2F1
100
AcDbEntity
  8
1
  6
Continuous
 62
     7
370
    30
100
AcDbVertex
100
AcDb2dVertex
 10
115.8078975158361
 20
195.68557506101
 30
0.0
  0
VERTEX
  5
2F9
330
2F1
100
AcDbEntity
  8
1
  6
Continuous
 62
     7
370
    30
100
AcDbVertex
100
AcDb2dVertex
 10
115.6720387297181
 20
195.7320076987618
 30
0.0
  0
VERTEX
  5
2FA
330
2F1
100
AcDbEntity
  8
1
  6
Continuous
 62
     7
370
    30
100
AcDbVertex
100
AcDb2dVertex
 10
115.5844023505303
 20
195.7886710806562
 30
0.0
  0
VERTEX
  5
2FB
330
2F1
100
AcDbEntity
  8
1
  6
Continuous
 62
     7
370
    30
100
AcDbVertex
100
AcDb2dVertex
 10
109.0543320255416
 20
200.8848349147002
 30
0.0
  0
VERTEX
  5
2FC
330
2F1
100
AcDbEntity
  8
1
  6
Continuous
 62
     7
370
    30
100
AcDbVertex
100
AcDb2dVertex
 10
108.9219232203479
 20
201.0326829040393
 30
0.0
  0
VERTEX
  5
2FD
330
2F1
100
AcDbEntity
  8
1
  6
Continuous
 62
     7
370
    30
100
AcDbVertex
100
AcDb2dVertex
 10
108.9167640118744
 20
201.0567592054533
 30
0.0
  0
VERTEX
  5
2FE
330
2F1
100
AcDbEntity
  8
1
  6
Continuous
 62
     7
370
    30
100
AcDbVertex
100
AcDb2dVertex
 10
108.8222382309808
 20
201.2630883815991
 30
0.0
  0
VERTEX
  5
2FF
330
2F1
100
AcDbEntity
  8
1
  6
Continuous
 62
     7
370
    30
100
AcDbVertex
100
AcDb2dVertex
 10
108.8479957709485
 20
201.4951928585515
 30
0.0
  0
VERTEX
  5
300
330
2F1
100
AcDbEntity
  8
1
  6
Continuous
 62
     7
370
    30
100
AcDbVertex
100
AcDb2dVertex
 10
108.8892797747555
 20
201.6550785982941
 30
0.0
  0
VERTEX
  5
301
330
2F1
100
AcDbEntity
  8
1
  6
Continuous
 62
     7
370
    30
100
AcDbVertex
100
AcDb2dVertex
 10
108.9116363352164
 20
201.7857785223106
 30
0.0
  0
VERTEX
  5
302
330
2F1
100
AcDbEntity
  8
1
  6
Continuous
 62
     7
370
    30
100
AcDbVertex
100
AcDb2dVertex
 10
108.9683488407771
 20
201.873425129655
 30
0.0
  0
VERTEX
  5
303
330
2F1
100
AcDbEntity
  8
1
  6
Continuous
 62
     7
370
    30
100
AcDbVertex
100
AcDb2dVertex
 10
111.9410888225177
 20
205.8588493358751
 30
0.0
  0
VERTEX
  5
304
330
2F1
100
AcDbEntity
  8
1
  6
Continuous
 62
     7
370
    30
100
AcDbVertex
100
AcDb2dVertex
 10
112.0700690667055
 20
205.9620332057098
 30
0.0
  0
VERTEX
  5
305
330
2F1
100
AcDbEntity
  8
1
  6
Continuous
 62
     7
370
    30
100
AcDbVertex
100
AcDb2dVertex
 10
112.2041588252056
 20
206.0411304237251
 30
0.0
  0
VERTEX
  5
306
330
2F1
100
AcDbEntity
  8
1
  6
Continuous
 62
     7
370
    30
100
AcDbVertex
100
AcDb2dVertex
 10
112.3193317760127
 20
206.0909921929777
 30
0.0
  0
VERTEX
  5
307
330
2F1
100
AcDbEntity
  8
1
  6
Continuous
 62
     7
370
    30
100
AcDbVertex
100
AcDb2dVertex
 10
112.4878656006628
 20
206.1271065911669
 30
0.0
  0
VERTEX
  5
308
330
2F1
100
AcDbEntity
  8
1
  6
Continuous
 62
     7
370
    30
100
AcDbVertex
100
AcDb2dVertex
 10
112.6666687797178
 20
206.1150578731245
 30
0.0
  0
VERTEX
  5
309
330
2F1
100
AcDbEntity
  8
1
  6
Continuous
 62
     7
370
    30
100
AcDbVertex
100
AcDb2dVertex
 10
112.7440075446437
 20
206.1064486226024
 30
0.0
  0
VERTEX
  5
30A
330
2F1
100
AcDbEntity
  8
1
  6
Continuous
 62
     7
370
    30
100
AcDbVertex
100
AcDb2dVertex
 10
112.8798663307617
 20
206.0600159848505
 30
0.0
  0
VERTEX
  5
30B
330
2F1
100
AcDbEntity
  8
1
  6
Continuous
 62
     7
370
    30
100
AcDbVertex
100
AcDb2dVertex
 10
112.9675129992305
 20
206.0033031940424
 30
0.0
  0
VERTEX
  5
30C
330
2F1
100
AcDbEntity
  8
1
  6
Continuous
 62
     7
370
    30
100
AcDbVertex
100
AcDb2dVertex
 10
119.1485481217283
 20
201.3610610356611
 30
0.0
  0
SEQEND
  5
30D
330
2F1
100
AcDbEntity
  8
1
  6
Continuous
 62
     7
370
    30
  0
ENDBLK
  5
2F0
330
2EE
100
AcDbEntity
  8
0
100
AcDbBlockEnd
  0
BLOCK
  5
310
330
30F
100
AcDbEntity
  8
0
100
AcDbBlockBegin
  2
*G34
 70
     1
 10
0.0
 20
0.0
 30
0.0
  3
*G34
  1
*G34
  0
POLYLINE
  5
312
330
30F
100
AcDbEntity
  8
1
  6
Continuous
 62
     7
370
    30
100
AcDb2dPolyline
 66
     1
 10
0.0
 20
0.0
 30
0.0
  0
VERTEX
  5
313
330
312
100
AcDbEntity
  8
1
  6
Continuous
 62
     7
370
    30
100
AcDbVertex
100
AcDb2dVertex
 10
119.148547836481
 20
201.3610609745367
 30
0.0
  0
VERTEX
  5
314
330
312
100
AcDbEntity
  8
1
  6
Continuous
 62
     7
370
    30
100
AcDbVertex
100
AcDb2dVertex
 10
119.5680925486324
 20
201.0481574157143
 30
0.0
  0
VERTEX
  5
315
330
312
100
AcDbEntity
  8
1
  6
Continuous
 62
     7
370
    30
100
AcDbVertex
100
AcDb2dVertex
 10
119.7193200364356
 20
200.9295238483302
 30
0.0
  0
VERTEX
  5
316
330
312
100
AcDbEntity
  8
1
  6
Continuous
 62
     7
370
    30
100
AcDbVertex
100
AcDb2dVertex
 10
119.8277509505465
 20
200.7765377384499
 30
0.0
  0
VERTEX
  5
317
330
312
100
AcDbEntity
  8
1
  6
Continuous
 62
     7
370
    30
100
AcDbVertex
100
AcDb2dVertex
 10
119.8535469317889
 20
200.6561565166276
 30
0.0
  0
VERTEX
  5
318
330
312
100
AcDbEntity
  8
1
  6
Continuous
 62
     7
370
    30
100
AcDbVertex
100
AcDb2dVertex
 10
119.8896507554499
 20
200.4876720397667
 30
0.0
  0
VERTEX
  5
319
330
312
100
AcDbEntity
  8
1
  6
Continuous
 62
     7
370
    30
100
AcDbVertex
100
AcDb2dVertex
 10
119.8724431141814
 20
200.3329452232501
 30
0.0
  0
VERTEX
  5
31A
330
312
100
AcDbEntity
  8
1
  6
Continuous
 62
     7
370
    30
100
AcDbVertex
100
AcDb2dVertex
 10
119.8207529187494
 20
200.2211413653664
 30
0.0
  0
VERTEX
  5
31B
330
312
100
AcDbEntity
  8
1
  6
Continuous
 62
     7
370
    30
100
AcDbVertex
100
AcDb2dVertex
 10
119.7417328541452
 20
200.0028056326569
 30
0.0
  0
VERTEX
  5
31C
330
312
100
AcDbEntity
  8
1
  6
Continuous
 62
     7
370
    30
100
AcDbVertex
100
AcDb2dVertex
 10
119.3961440286342
 20
199.5007630082306
 30
0.0
  0
SEQEND
  5
31D
330
312
100
AcDbEntity
  8
1
  6
Continuous
 62
     7
370
    30
  0
ENDBLK
  5
311
330
30F
100
AcDbEntity
  8
0
100
AcDbBlockEnd
  0
BLOCK
  5
320
330
31F
100
AcDbEntity
  8
0
100
AcDbBlockBegin
  2
*G35
 70
     1
 10
0.0
 20
0.0
 30
0.0
  3
*G35
  1
*G35
  0
POLYLINE
  5
322
330
31F
100
AcDbEntity
  8
1
  6
Continuous
 62
     7
370
    30
100
AcDb2dPolyline
 66
     1
 10
0.0
 20
0.0
 30
0.0
  0
VERTEX
  5
323
330
322
100
AcDbEntity
  8
1
  6
Continuous
 62
     7
370
    30
100
AcDbVertex
100
AcDb2dVertex
 10
117.9845525850836
 20
197.5115097664641
 30
0.0
  0
VERTEX
  5
324
330
322
100
AcDbEntity
  8
1
  6
Continuous
 62
     7
370
    30
100
AcDbVertex
100
AcDb2dVertex
 10
118.0327050800483
 20
197.1692829086906
 30
0.0
  0
VERTEX
  5
325
330
322
100
AcDbEntity
  8
1
  6
Continuous
 62
     7
370
    30
100
AcDbVertex
100
AcDb2dVertex
 10
118.0155357026703
 20
197.0146156069954
 30
0.0
  0
VERTEX
  5
326
330
322
100
AcDbEntity
  8
1
  6
Continuous
 62
     7
370
    30
100
AcDbVertex
100
AcDb2dVertex
 10
117.9742411854596
 20
196.8547789297943
 30
0.0
  0
VERTEX
  5
327
330
322
100
AcDbEntity
  8
1
  6
Continuous
 62
     7
370
    30
100
AcDbVertex
100
AcDb2dVertex
 10
117.9811200737615
 20
196.7051621980847
 30
0.0
  0
VERTEX
  5
328
330
322
100
AcDbEntity
  8
1
  6
Continuous
 62
     7
370
    30
100
AcDbVertex
100
AcDb2dVertex
 10
118.0550686578319
 20
196.5950993932092
 30
0.0
  0
VERTEX
  5
329
330
322
100
AcDbEntity
  8
1
  6
Continuous
 62
     7
370
    30
100
AcDbVertex
100
AcDb2dVertex
 10
118.147885048178
 20
196.5142612384454
 30
0.0
  0
VERTEX
  5
32A
330
322
100
AcDbEntity
  8
1
  6
Continuous
 62
     7
370
    30
100
AcDbVertex
100
AcDb2dVertex
 10
118.1771205580653
 20
196.4953441455048
 30
0.0
  0
VERTEX
  5
32B
330
322
100
AcDbEntity
  8
1
  6
Continuous
 62
     7
370
    30
100
AcDbVertex
100
AcDb2dVertex
 10
118.6172806698063
 20
196.0862340154808
 30
0.0
  0
VERTEX
  5
32C
330
322
100
AcDbEntity
  8
1
  6
Continuous
 62
     7
370
    30
100
AcDbVertex
100
AcDb2dVertex
 10
118.7393535968476
 20
195.9863806426927
 30
0.0
  0
VERTEX
  5
32D
330
322
100
AcDbEntity
  8
1
  6
Continuous
 62
     7
370
    30
100
AcDbVertex
100
AcDb2dVertex
 10
118.8751916414051
 20
195.940046191149
 30
0.0
  0
VERTEX
  5
32E
330
322
100
AcDbEntity
  8
1
  6
Continuous
 62
     7
370
    30
100
AcDbVertex
100
AcDb2dVertex
 10
119.2723515799774
 20
195.8488792834186
 30
0.0
  0
VERTEX
  5
32F
330
322
100
AcDbEntity
  8
1
  6
Continuous
 62
     7
370
    30
100
AcDbVertex
100
AcDb2dVertex
 10
119.475230775199
 20
195.8419897127249
 30
0.0
  0
VERTEX
  5
330
330
322
100
AcDbEntity
  8
1
  6
Continuous
 62
     7
370
    30
100
AcDbVertex
100
AcDb2dVertex
 10
119.7451796050645
 20
195.8746543541129
 30
0.0
  0
VERTEX
  5
331
330
322
100
AcDbEntity
  8
1
  6
Continuous
 62
     7
370
    30
100
AcDbVertex
100
AcDb2dVertex
 10
119.8224973431828
 20
195.8661432286744
 30
0.0
  0
VERTEX
  5
332
330
322
100
AcDbEntity
  8
1
  6
Continuous
 62
     7
370
    30
100
AcDbVertex
100
AcDb2dVertex
 10
119.8706499460106
 20
195.8764616456212
 30
0.0
  0
VERTEX
  5
333
330
322
100
AcDbEntity
  8
1
  6
Continuous
 62
     7
370
    30
100
AcDbVertex
100
AcDb2dVertex
 10
120.0529136805182
 20
195.9657789313768
 30
0.0
  0
VERTEX
  5
334
330
322
100
AcDbEntity
  8
1
  6
Continuous
 62
     7
370
    30
100
AcDbVertex
100
AcDb2dVertex
 10
120.195651177554
 20
196.1222747755112
 30
0.0
  0
VERTEX
  5
335
330
322
100
AcDbEntity
  8
1
  6
Continuous
 62
     7
370
    30
100
AcDbVertex
100
AcDb2dVertex
 10
120.2712705478988
 20
196.2392060164093
 30
0.0
  0
VERTEX
  5
336
330
322
100
AcDbEntity
  8
1
  6
Continuous
 62
     7
370
    30
100
AcDbVertex
100
AcDb2dVertex
 10
120.3177242124584
 20
196.3749666774435
 30
0.0
  0
VERTEX
  5
337
330
322
100
AcDbEntity
  8
1
  6
Continuous
 62
     7
370
    30
100
AcDbVertex
100
AcDb2dVertex
 10
120.3160045326299
 20
196.5005071077393
 30
0.0
  0
VERTEX
  5
338
330
322
100
AcDbEntity
  8
1
  6
Continuous
 62
     7
370
    30
100
AcDbVertex
100
AcDb2dVertex
 10
120.2902085513874
 20
196.6208883295615
 30
0.0
  0
VERTEX
  5
339
330
322
100
AcDbEntity
  8
1
  6
Continuous
 62
     7
370
    30
100
AcDbVertex
100
AcDb2dVertex
 10
120.2007823418969
 20
196.8031800386788
 30
0.0
  0
VERTEX
  5
33A
330
322
100
AcDbEntity
  8
1
  6
Continuous
 62
     7
370
    30
100
AcDbVertex
100
AcDb2dVertex
 10
119.963550426795
 20
197.2054113966607
 30
0.0
  0
SEQEND
  5
33B
330
322
100
AcDbEntity
  8
1
  6
Continuous
 62
     7
370
    30
  0
ENDBLK
  5
321
330
31F
100
AcDbEntity
  8
0
100
AcDbBlockEnd
  0
BLOCK
  5
33E
330
33D
100
AcDbEntity
  8
0
100
AcDbBlockBegin
  2
*G36
 70
     1
 10
0.0
 20
0.0
 30
0.0
  3
*G36
  1
*G36
  0
POLYLINE
  5
340
330
33D
100
AcDbEntity
  8
1
  6
Continuous
 62
     7
370
    30
100
AcDb2dPolyline
 66
     1
 10
0.0
 20
0.0
 30
0.0
  0
VERTEX
  5
341
330
340
100
AcDbEntity
  8
1
  6
Continuous
 62
     7
370
    30
100
AcDbVertex
100
AcDb2dVertex
 10
118.5846267192065
 20
196.0035885692085
 30
0.0
  0
VERTEX
  5
342
330
340
100
AcDbEntity
  8
1
  6
Continuous
 62
     7
370
    30
100
AcDbVertex
100
AcDb2dVertex
 10
118.4195605751949
 20
195.71650201004
 30
0.0
  0
VERTEX
  5
343
330
340
100
AcDbEntity
  8
1
  6
Continuous
 62
     7
370
    30
100
AcDbVertex
100
AcDb2dVertex
 10
118.3541895324473
 20
195.5515057779939
 30
0.0
  0
VERTEX
  5
344
330
340
100
AcDbEntity
  8
1
  6
Continuous
 62
     7
370
    30
100
AcDbVertex
100
AcDb2dVertex
 10
118.3353428141038
 20
195.5221827175513
 30
0.0
  0
VERTEX
  5
345
330
340
100
AcDbEntity
  8
1
  6
Continuous
 62
     7
370
    30
100
AcDbVertex
100
AcDb2dVertex
 10
118.3422006144734
 20
195.3726643961728
 30
0.0
  0
VERTEX
  5
346
330
340
100
AcDbEntity
  8
1
  6
Continuous
 62
     7
370
    30
100
AcDbVertex
100
AcDb2dVertex
 10
118.3490795027754
 20
195.2230476644631
 30
0.0
  0
VERTEX
  5
347
330
340
100
AcDbEntity
  8
1
  6
Continuous
 62
     7
370
    30
100
AcDbVertex
100
AcDb2dVertex
 10
118.4040899670974
 20
195.0838474747841
 30
0.0
  0
VERTEX
  5
348
330
340
100
AcDbEntity
  8
1
  6
Continuous
 62
     7
370
    30
100
AcDbVertex
100
AcDb2dVertex
 10
118.5020655047925
 20
194.9789333038538
 30
0.0
  0
VERTEX
  5
349
330
340
100
AcDbEntity
  8
1
  6
Continuous
 62
     7
370
    30
100
AcDbVertex
100
AcDb2dVertex
 10
118.5949312429278
 20
194.8981057236182
 30
0.0
  0
VERTEX
  5
34A
330
340
100
AcDbEntity
  8
1
  6
Continuous
 62
     7
370
    30
100
AcDbVertex
100
AcDb2dVertex
 10
118.6534019163307
 20
194.8602717618599
 30
0.0
  0
VERTEX
  5
34B
330
340
100
AcDbEntity
  8
1
  6
Continuous
 62
     7
370
    30
100
AcDbVertex
100
AcDb2dVertex
 10
119.2620188155703
 20
194.4871565928864
 30
0.0
  0
VERTEX
  5
34C
330
340
100
AcDbEntity
  8
1
  6
Continuous
 62
     7
370
    30
100
AcDbVertex
100
AcDb2dVertex
 10
119.4271131726999
 20
194.4218065769466
 30
0.0
  0
VERTEX
  5
34D
330
340
100
AcDbEntity
  8
1
  6
Continuous
 62
     7
370
    30
100
AcDbVertex
100
AcDb2dVertex
 10
119.9841381094545
 20
194.2894538516174
 30
0.0
  0
VERTEX
  5
34E
330
340
100
AcDbEntity
  8
1
  6
Continuous
 62
     7
370
    30
100
AcDbVertex
100
AcDb2dVertex
 10
120.1096785397502
 20
194.291173531446
 30
0.0
  0
VERTEX
  5
34F
330
340
100
AcDbEntity
  8
1
  6
Continuous
 62
     7
370
    30
100
AcDbVertex
100
AcDb2dVertex
 10
120.2351698463796
 20
194.2928829831181
 30
0.0
  0
VERTEX
  5
350
330
340
100
AcDbEntity
  8
1
  6
Continuous
 62
     7
370
    30
100
AcDbVertex
100
AcDb2dVertex
 10
120.2833224492075
 20
194.3032014000648
 30
0.0
  0
VERTEX
  5
351
330
340
100
AcDbEntity
  8
1
  6
Continuous
 62
     7
370
    30
100
AcDbVertex
100
AcDb2dVertex
 10
120.4036546084879
 20
194.3289868679034
 30
0.0
  0
VERTEX
  5
352
330
340
100
AcDbEntity
  8
1
  6
Continuous
 62
     7
370
    30
100
AcDbVertex
100
AcDb2dVertex
 10
120.5343542472569
 20
194.3066302463181
 30
0.0
  0
VERTEX
  5
353
330
340
100
AcDbEntity
  8
1
  6
Continuous
 62
     7
370
    30
100
AcDbVertex
100
AcDb2dVertex
 10
120.6460877305436
 20
194.2550276014416
 30
0.0
  0
VERTEX
  5
354
330
340
100
AcDbEntity
  8
1
  6
Continuous
 62
     7
370
    30
100
AcDbVertex
100
AcDb2dVertex
 10
120.7578494736872
 20
194.2035339414243
 30
0.0
  0
VERTEX
  5
355
330
340
100
AcDbEntity
  8
1
  6
Continuous
 62
     7
370
    30
100
AcDbVertex
100
AcDb2dVertex
 10
121.0948678914578
 20
193.9232072349259
 30
0.0
  0
VERTEX
  5
356
330
340
100
AcDbEntity
  8
1
  6
Continuous
 62
     7
370
    30
100
AcDbVertex
100
AcDb2dVertex
 10
121.1533386259851
 20
193.8853729879204
 30
0.0
  0
VERTEX
  5
357
330
340
100
AcDbEntity
  8
1
  6
Continuous
 62
     7
370
    30
100
AcDbVertex
100
AcDb2dVertex
 10
121.4111791618624
 20
193.7392729993912
 30
0.0
  0
VERTEX
  5
358
330
340
100
AcDbEntity
  8
1
  6
Continuous
 62
     7
370
    30
100
AcDbVertex
100
AcDb2dVertex
 10
121.5435987657074
 20
193.5913760086347
 30
0.0
  0
VERTEX
  5
359
330
340
100
AcDbEntity
  8
1
  6
Continuous
 62
     7
370
    30
100
AcDbVertex
100
AcDb2dVertex
 10
121.5728131876625
 20
193.5725573260252
 30
0.0
  0
VERTEX
  5
35A
330
340
100
AcDbEntity
  8
1
  6
Continuous
 62
     7
370
    30
100
AcDbVertex
100
AcDb2dVertex
 10
121.6416023391365
 20
193.4865704761919
 30
0.0
  0
VERTEX
  5
35B
330
340
100
AcDbEntity
  8
1
  6
Continuous
 62
     7
370
    30
100
AcDbVertex
100
AcDb2dVertex
 10
121.9011625548424
 20
193.214930057367
 30
0.0
  0
VERTEX
  5
35C
330
340
100
AcDbEntity
  8
1
  6
Continuous
 62
     7
370
    30
100
AcDbVertex
100
AcDb2dVertex
 10
121.9648138098982
 20
193.1529214449884
 30
0.0
  0
VERTEX
  5
35D
330
340
100
AcDbEntity
  8
1
  6
Continuous
 62
     7
370
    30
100
AcDbVertex
100
AcDb2dVertex
 10
122.5167077512976
 20
192.6922084459648
 30
0.0
  0
VERTEX
  5
35E
330
340
100
AcDbEntity
  8
1
  6
Continuous
 62
     7
370
    30
100
AcDbVertex
100
AcDb2dVertex
 10
122.6095731430612
 20
192.6113810898522
 30
0.0
  0
VERTEX
  5
35F
330
340
100
AcDbEntity
  8
1
  6
Continuous
 62
     7
370
    30
100
AcDbVertex
100
AcDb2dVertex
 10
122.7402727818302
 20
192.5890244682669
 30
0.0
  0
VERTEX
  5
360
330
340
100
AcDbEntity
  8
1
  6
Continuous
 62
     7
370
    30
100
AcDbVertex
100
AcDb2dVertex
 10
122.7695082305931
 20
192.5701076605736
 30
0.0
  0
VERTEX
  5
361
330
340
100
AcDbEntity
  8
1
  6
Continuous
 62
     7
370
    30
100
AcDbVertex
100
AcDb2dVertex
 10
122.958580764053
 20
192.5098958262995
 30
0.0
  0
VERTEX
  5
362
330
340
100
AcDbEntity
  8
1
  6
Continuous
 62
     7
370
    30
100
AcDbVertex
100
AcDb2dVertex
 10
123.1391315975462
 20
192.3724156016963
 30
0.0
  0
VERTEX
  5
363
330
340
100
AcDbEntity
  8
1
  6
Continuous
 62
     7
370
    30
100
AcDbVertex
100
AcDb2dVertex
 10
123.3282037846344
 20
192.3122039915449
 30
0.0
  0
VERTEX
  5
364
330
340
100
AcDbEntity
  8
1
  6
Continuous
 62
     7
370
    30
100
AcDbVertex
100
AcDb2dVertex
 10
125.9244666104927
 20
191.7103888547638
 30
0.0
  0
VERTEX
  5
365
330
340
100
AcDbEntity
  8
1
  6
Continuous
 62
     7
370
    30
100
AcDbVertex
100
AcDb2dVertex
 10
125.9777570486143
 20
191.6967293195033
 30
0.0
  0
VERTEX
  5
366
330
340
100
AcDbEntity
  8
1
  6
Continuous
 62
     7
370
    30
100
AcDbVertex
100
AcDb2dVertex
 10
127.2448842092858
 20
191.540268760945
 30
0.0
  0
VERTEX
  5
367
330
340
100
AcDbEntity
  8
1
  6
Continuous
 62
     7
370
    30
100
AcDbVertex
100
AcDb2dVertex
 10
127.2930368121136
 20
191.5505871778917
 30
0.0
  0
VERTEX
  5
368
330
340
100
AcDbEntity
  8
1
  6
Continuous
 62
     7
370
    30
100
AcDbVertex
100
AcDb2dVertex
 10
127.9257018607734
 20
191.5350675072525
 30
0.0
  0
VERTEX
  5
369
330
340
100
AcDbEntity
  8
1
  6
Continuous
 62
     7
370
    30
100
AcDbVertex
100
AcDb2dVertex
 10
127.9550354957444
 20
191.5161714411198
 30
0.0
  0
VERTEX
  5
36A
330
340
100
AcDbEntity
  8
1
  6
Continuous
 62
     7
370
    30
100
AcDbVertex
100
AcDb2dVertex
 10
128.694302793827
 20
191.4732343507528
 30
0.0
  0
VERTEX
  5
36B
330
340
100
AcDbEntity
  8
1
  6
Continuous
 62
     7
370
    30
100
AcDbVertex
100
AcDb2dVertex
 10
128.7957882958884
 20
191.4696964729014
 30
0.0
  0
VERTEX
  5
36C
330
340
100
AcDbEntity
  8
1
  6
Continuous
 62
     7
370
    30
100
AcDbVertex
100
AcDb2dVertex
 10
130.4136213842006
 20
191.0863085697013
 30
0.0
  0
SEQEND
  5
36D
330
340
100
AcDbEntity
  8
1
  6
Continuous
 62
     7
370
    30
  0
ENDBLK
  5
33F
330
33D
100
AcDbEntity
  8
0
100
AcDbBlockEnd
  0
BLOCK
  5
370
330
36F
100
AcDbEntity
  8
0
100
AcDbBlockBegin
  2
*G37
 70
     1
 10
0.0
 20
0.0
 30
0.0
  3
*G37
  1
*G37
  0
POLYLINE
  5
372
330
36F
100
AcDbEntity
  8
1
  6
Continuous
 62
     7
370
    30
100
AcDb2dPolyline
 66
     1
 10
0.0
 20
0.0
 30
0.0
  0
VERTEX
  5
373
330
372
100
AcDbEntity
  8
1
  6
Continuous
 62
     7
370
    30
100
AcDbVertex
100
AcDb2dVertex
 10
119.9291209046607
 20
195.8386277449875
 30
0.0
  0
VERTEX
  5
374
330
372
100
AcDbEntity
  8
1
  6
Continuous
 62
     7
370
    30
100
AcDbVertex
100
AcDb2dVertex
 10
120.0271246554739
 20
195.3812769989487
 30
0.0
  0
VERTEX
  5
375
330
372
100
AcDbEntity
  8
1
  6
Continuous
 62
     7
370
    30
100
AcDbVertex
100
AcDb2dVertex
 10
120.034003543776
 20
195.2316602672392
 30
0.0
  0
VERTEX
  5
376
330
372
100
AcDbEntity
  8
1
  6
Continuous
 62
     7
370
    30
100
AcDbVertex
100
AcDb2dVertex
 10
119.9583844586786
 20
195.1147290874656
 30
0.0
  0
VERTEX
  5
377
330
372
100
AcDbEntity
  8
1
  6
Continuous
 62
     7
370
    30
100
AcDbVertex
100
AcDb2dVertex
 10
119.7778404651239
 20
194.8998710861671
 30
0.0
  0
VERTEX
  5
378
330
372
100
AcDbEntity
  8
1
  6
Continuous
 62
     7
370
    30
100
AcDbVertex
100
AcDb2dVertex
 10
119.6729578955297
 20
194.8017480755993
 30
0.0
  0
VERTEX
  5
379
330
372
100
AcDbEntity
  8
1
  6
Continuous
 62
     7
370
    30
100
AcDbVertex
100
AcDb2dVertex
 10
119.5336875553764
 20
194.7468255082044
 30
0.0
  0
VERTEX
  5
37A
330
372
100
AcDbEntity
  8
1
  6
Continuous
 62
     7
370
    30
100
AcDbVertex
100
AcDb2dVertex
 10
119.4666181448553
 20
194.7072716424947
 30
0.0
  0
VERTEX
  5
37B
330
372
100
AcDbEntity
  8
1
  6
Continuous
 62
     7
370
    30
100
AcDbVertex
100
AcDb2dVertex
 10
119.3359886565605
 20
194.729540367153
 30
0.0
  0
VERTEX
  5
37C
330
372
100
AcDbEntity
  8
1
  6
Continuous
 62
     7
370
    30
100
AcDbVertex
100
AcDb2dVertex
 10
119.258579455913
 20
194.7382374534777
 30
0.0
  0
SEQEND
  5
37D
330
372
100
AcDbEntity
  8
1
  6
Continuous
 62
     7
370
    30
  0
ENDBLK
  5
371
330
36F
100
AcDbEntity
  8
0
100
AcDbBlockEnd
  0
BLOCK
  5
380
330
37F
100
AcDbEntity
  8
0
100
AcDbBlockBegin
  2
*G38
 70
     1
 10
0.0
 20
0.0
 30
0.0
  3
*G38
  1
*G38
  0
POLYLINE
  5
382
330
37F
100
AcDbEntity
  8
1
  6
Continuous
 62
     7
370
    30
100
AcDb2dPolyline
 66
     1
 10
0.0
 20
0.0
 30
0.0
  0
VERTEX
  5
383
330
382
100
AcDbEntity
  8
1
  6
Continuous
 62
     7
370
    30
100
AcDbVertex
100
AcDb2dVertex
 10
120.2008103860274
 20
196.0981984740973
 30
0.0
  0
VERTEX
  5
384
330
382
100
AcDbEntity
  8
1
  6
Continuous
 62
     7
370
    30
100
AcDbVertex
100
AcDb2dVertex
 10
120.3211425453079
 20
196.1239839419359
 30
0.0
  0
VERTEX
  5
385
330
382
100
AcDbEntity
  8
1
  6
Continuous
 62
     7
370
    30
100
AcDbVertex
100
AcDb2dVertex
 10
120.374454356609
 20
196.1102260574689
 30
0.0
  0
VERTEX
  5
386
330
382
100
AcDbEntity
  8
1
  6
Continuous
 62
     7
370
    30
100
AcDbVertex
100
AcDb2dVertex
 10
120.379613503958
 20
196.0861500413022
 30
0.0
  0
VERTEX
  5
387
330
382
100
AcDbEntity
  8
1
  6
Continuous
 62
     7
370
    30
100
AcDbVertex
100
AcDb2dVertex
 10
120.3039243295109
 20
195.9693064732084
 30
0.0
  0
VERTEX
  5
388
330
382
100
AcDbEntity
  8
1
  6
Continuous
 62
     7
370
    30
100
AcDbVertex
100
AcDb2dVertex
 10
120.279848028097
 20
195.964147264735
 30
0.0
  0
VERTEX
  5
389
330
382
100
AcDbEntity
  8
1
  6
Continuous
 62
     7
370
    30
100
AcDbVertex
100
AcDb2dVertex
 10
120.2076684716445
 20
195.9486802138432
 30
0.0
  0
VERTEX
  5
38A
330
382
100
AcDbEntity
  8
1
  6
Continuous
 62
     7
370
    30
100
AcDbVertex
100
AcDb2dVertex
 10
120.1492185398021
 20
195.9864159893933
 30
0.0
  0
VERTEX
  5
38B
330
382
100
AcDbEntity
  8
1
  6
Continuous
 62
     7
370
    30
100
AcDbVertex
100
AcDb2dVertex
 10
120.1578172769203
 20
196.0638038168612
 30
0.0
  0
VERTEX
  5
38C
330
382
100
AcDbEntity
  8
1
  6
Continuous
 62
     7
370
    30
100
AcDbVertex
100
AcDb2dVertex
 10
120.2008103860274
 20
196.0981984740973
 30
0.0
  0
SEQEND
  5
38D
330
382
100
AcDbEntity
  8
1
  6
Continuous
 62
     7
370
    30
  0
ENDBLK
  5
381
330
37F
100
AcDbEntity
  8
0
100
AcDbBlockEnd
  0
BLOCK
  5
390
330
38F
100
AcDbEntity
  8
0
100
AcDbBlockBegin
  2
*G39
 70
     1
 10
0.0
 20
0.0
 30
0.0
  3
*G39
  1
*G39
  0
POLYLINE
  5
392
330
38F
100
AcDbEntity
  8
1
  6
Continuous
 62
     7
370
    30
100
AcDb2dPolyline
 66
     1
 10
0.0
 20
0.0
 30
0.0
  0
VERTEX
  5
393
330
392
100
AcDbEntity
  8
1
  6
Continuous
 62
     7
370
    30
100
AcDbVertex
100
AcDb2dVertex
 10
120.5567108688422
 20
194.4373298850872
 30
0.0
  0
VERTEX
  5
394
330
392
100
AcDbEntity
  8
1
  6
Continuous
 62
     7
370
    30
100
AcDbVertex
100
AcDb2dVertex
 10
120.5979355208262
 20
194.5972545203396
 30
0.0
  0
VERTEX
  5
395
330
392
100
AcDbEntity
  8
1
  6
Continuous
 62
     7
370
    30
100
AcDbVertex
100
AcDb2dVertex
 10
120.6013747642237
 20
194.6987185880968
 30
0.0
  0
VERTEX
  5
396
330
392
100
AcDbEntity
  8
1
  6
Continuous
 62
     7
370
    30
100
AcDbVertex
100
AcDb2dVertex
 10
120.5618422105692
 20
194.7656899346585
 30
0.0
  0
VERTEX
  5
397
330
392
100
AcDbEntity
  8
1
  6
Continuous
 62
     7
370
    30
100
AcDbVertex
100
AcDb2dVertex
 10
120.5566830020958
 20
194.7897662360725
 30
0.0
  0
VERTEX
  5
398
330
392
100
AcDbEntity
  8
1
  6
Continuous
 62
     7
370
    30
100
AcDbVertex
100
AcDb2dVertex
 10
120.5308870208533
 20
194.9101474578948
 30
0.0
  0
VERTEX
  5
399
330
392
100
AcDbEntity
  8
1
  6
Continuous
 62
     7
370
    30
100
AcDbVertex
100
AcDb2dVertex
 10
120.5240077861795
 20
195.0597644137273
 30
0.0
  0
VERTEX
  5
39A
330
392
100
AcDbEntity
  8
1
  6
Continuous
 62
     7
370
    30
100
AcDbVertex
100
AcDb2dVertex
 10
120.431184331772
 20
195.4929404480211
 30
0.0
  0
VERTEX
  5
39B
330
392
100
AcDbEntity
  8
1
  6
Continuous
 62
     7
370
    30
100
AcDbVertex
100
AcDb2dVertex
 10
120.4294646519433
 20
195.6184808783167
 30
0.0
  0
VERTEX
  5
39C
330
392
100
AcDbEntity
  8
1
  6
Continuous
 62
     7
370
    30
100
AcDbVertex
100
AcDb2dVertex
 10
120.3985094622275
 20
195.762938401553
 30
0.0
  0
VERTEX
  5
39D
330
392
100
AcDbEntity
  8
1
  6
Continuous
 62
     7
370
    30
100
AcDbVertex
100
AcDb2dVertex
 10
120.348637179571
 20
195.8781604149018
 30
0.0
  0
VERTEX
  5
39E
330
392
100
AcDbEntity
  8
1
  6
Continuous
 62
     7
370
    30
100
AcDbVertex
100
AcDb2dVertex
 10
120.3710148279643
 20
196.0087619285871
 30
0.0
  0
VERTEX
  5
39F
330
392
100
AcDbEntity
  8
1
  6
Continuous
 62
     7
370
    30
100
AcDbVertex
100
AcDb2dVertex
 10
120.3796135650824
 20
196.086149756055
 30
0.0
  0
VERTEX
  5
3A0
330
392
100
AcDbEntity
  8
1
  6
Continuous
 62
     7
370
    30
100
AcDbVertex
100
AcDb2dVertex
 10
120.4071293340167
 20
196.1927733786574
 30
0.0
  0
VERTEX
  5
3A1
330
392
100
AcDbEntity
  8
1
  6
Continuous
 62
     7
370
    30
100
AcDbVertex
100
AcDb2dVertex
 10
120.408842057647
 20
196.7721161026119
 30
0.0
  0
VERTEX
  5
3A2
330
392
100
AcDbEntity
  8
1
  6
Continuous
 62
     7
370
    30
100
AcDbVertex
100
AcDb2dVertex
 10
120.4363576024584
 20
196.8787393788427
 30
0.0
  0
VERTEX
  5
3A3
330
392
100
AcDbEntity
  8
1
  6
Continuous
 62
     7
370
    30
100
AcDbVertex
100
AcDb2dVertex
 10
120.4673129000375
 20
197.0868271303268
 30
0.0
  0
SEQEND
  5
3A4
330
392
100
AcDbEntity
  8
1
  6
Continuous
 62
     7
370
    30
  0
ENDBLK
  5
391
330
38F
100
AcDbEntity
  8
0
100
AcDbBlockEnd
  0
BLOCK
  5
3A7
330
3A6
100
AcDbEntity
  8
0
100
AcDbBlockBegin
  2
*G40
 70
     1
 10
0.0
 20
0.0
 30
0.0
  3
*G40
  1
*G40
  0
POLYLINE
  5
3A9
330
3A6
100
AcDbEntity
  8
1
  6
Continuous
 62
     7
370
    30
100
AcDb2dPolyline
 66
     1
 10
0.0
 20
0.0
 30
0.0
  0
VERTEX
  5
3AA
330
3A9
100
AcDbEntity
  8
1
  6
Continuous
 62
     7
370
    30
100
AcDbVertex
100
AcDb2dVertex
 10
118.8201530250894
 20
196.4316826706889
 30
0.0
  0
VERTEX
  5
3AB
330
3A9
100
AcDbEntity
  8
1
  6
Continuous
 62
     7
370
    30
100
AcDbVertex
100
AcDb2dVertex
 10
118.7788794184267
 20
196.624292796753
 30
0.0
  0
VERTEX
  5
3AC
330
3A9
100
AcDbEntity
  8
1
  6
Continuous
 62
     7
370
    30
100
AcDbVertex
100
AcDb2dVertex
 10
118.7960768315386
 20
196.7790687369361
 30
0.0
  0
VERTEX
  5
3AD
330
3A9
100
AcDbEntity
  8
1
  6
Continuous
 62
     7
370
    30
100
AcDbVertex
100
AcDb2dVertex
 10
118.8717449791779
 20
196.8960104301134
 30
0.0
  0
VERTEX
  5
3AE
330
3A9
100
AcDbEntity
  8
1
  6
Continuous
 62
     7
370
    30
100
AcDbVertex
100
AcDb2dVertex
 10
118.9766206009703
 20
196.9939263918628
 30
0.0
  0
VERTEX
  5
3AF
330
3A9
100
AcDbEntity
  8
1
  6
Continuous
 62
     7
370
    30
100
AcDbVertex
100
AcDb2dVertex
 10
119.1158978889252
 20
197.0490560080763
 30
0.0
  0
VERTEX
  5
3B0
330
3A9
100
AcDbEntity
  8
1
  6
Continuous
 62
     7
370
    30
100
AcDbVertex
100
AcDb2dVertex
 10
119.2603063496196
 20
197.0800006843883
 30
0.0
  0
VERTEX
  5
3B1
330
3A9
100
AcDbEntity
  8
1
  6
Continuous
 62
     7
370
    30
100
AcDbVertex
100
AcDb2dVertex
 10
119.3909568647223
 20
197.0576338346464
 30
0.0
  0
VERTEX
  5
3B2
330
3A9
100
AcDbEntity
  8
1
  6
Continuous
 62
     7
370
    30
100
AcDbVertex
100
AcDb2dVertex
 10
119.7640895644227
 20
196.9613182318464
 30
0.0
  0
VERTEX
  5
3B3
330
3A9
100
AcDbEntity
  8
1
  6
Continuous
 62
     7
370
    30
100
AcDbVertex
100
AcDb2dVertex
 10
119.8225605841972
 20
196.9234840459655
 30
0.0
  0
VERTEX
  5
3B4
330
3A9
100
AcDbEntity
  8
1
  6
Continuous
 62
     7
370
    30
100
AcDbVertex
100
AcDb2dVertex
 10
119.8139618470791
 20
196.8460962184976
 30
0.0
  0
VERTEX
  5
3B5
330
3A9
100
AcDbEntity
  8
1
  6
Continuous
 62
     7
370
    30
100
AcDbVertex
100
AcDb2dVertex
 10
119.7571897655726
 20
196.7584881602911
 30
0.0
  0
VERTEX
  5
3B6
330
3A9
100
AcDbEntity
  8
1
  6
Continuous
 62
     7
370
    30
100
AcDbVertex
100
AcDb2dVertex
 10
119.7055976952243
 20
196.6467053292154
 30
0.0
  0
VERTEX
  5
3B7
330
3A9
100
AcDbEntity
  8
1
  6
Continuous
 62
     7
370
    30
100
AcDbVertex
100
AcDb2dVertex
 10
119.5543383903585
 20
196.0603958200315
 30
0.0
  0
VERTEX
  5
3B8
330
3A9
100
AcDbEntity
  8
1
  6
Continuous
 62
     7
370
    30
100
AcDbVertex
100
AcDb2dVertex
 10
119.4924281271865
 20
195.9967659381554
 30
0.0
  0
VERTEX
  5
3B9
330
3A9
100
AcDbEntity
  8
1
  6
Continuous
 62
     7
370
    30
100
AcDbVertex
100
AcDb2dVertex
 10
119.4150400755959
 20
196.0053643289018
 30
0.0
  0
VERTEX
  5
3BA
330
3A9
100
AcDbEntity
  8
1
  6
Continuous
 62
     7
370
    30
100
AcDbVertex
100
AcDb2dVertex
 10
119.215600409019
 20
196.1137180284769
 30
0.0
  0
VERTEX
  5
3BB
330
3A9
100
AcDbEntity
  8
1
  6
Continuous
 62
     7
370
    30
100
AcDbVertex
100
AcDb2dVertex
 10
119.1519912075788
 20
196.1755303906883
 30
0.0
  0
VERTEX
  5
3BC
330
3A9
100
AcDbEntity
  8
1
  6
Continuous
 62
     7
370
    30
100
AcDbVertex
100
AcDb2dVertex
 10
119.0007038585826
 20
196.2942024460858
 30
0.0
  0
VERTEX
  5
3BD
330
3A9
100
AcDbEntity
  8
1
  6
Continuous
 62
     7
370
    30
100
AcDbVertex
100
AcDb2dVertex
 10
118.8889213738784
 20
196.3457942923111
 30
0.0
  0
VERTEX
  5
3BE
330
3A9
100
AcDbEntity
  8
1
  6
Continuous
 62
     7
370
    30
100
AcDbVertex
100
AcDb2dVertex
 10
118.8304714420361
 20
196.3835300678612
 30
0.0
  0
VERTEX
  5
3BF
330
3A9
100
AcDbEntity
  8
1
  6
Continuous
 62
     7
370
    30
100
AcDbVertex
100
AcDb2dVertex
 10
118.8201530250894
 20
196.4316826706889
 30
0.0
  0
SEQEND
  5
3C0
330
3A9
100
AcDbEntity
  8
1
  6
Continuous
 62
     7
370
    30
  0
ENDBLK
  5
3A8
330
3A6
100
AcDbEntity
  8
0
100
AcDbBlockEnd
  0
BLOCK
  5
3C3
330
3C2
100
AcDbEntity
  8
0
100
AcDbBlockBegin
  2
*G41
 70
     1
 10
0.0
 20
0.0
 30
0.0
  3
*G41
  1
*G41
  0
POLYLINE
  5
3C5
330
3C2
100
AcDbEntity
  8
1
  6
Continuous
 62
     7
370
    30
100
AcDb2dPolyline
 66
     1
 10
0.0
 20
0.0
 30
0.0
  0
VERTEX
  5
3C6
330
3C5
100
AcDbEntity
  8
1
  6
Continuous
 62
     7
370
    30
100
AcDbVertex
100
AcDb2dVertex
 10
119.4941548243378
 20
195.166342068362
 30
0.0
  0
VERTEX
  5
3C7
330
3C5
100
AcDbEntity
  8
1
  6
Continuous
 62
     7
370
    30
100
AcDbVertex
100
AcDb2dVertex
 10
119.3496973011016
 20
195.1353868786461
 30
0.0
  0
VERTEX
  5
3C8
330
3C5
100
AcDbEntity
  8
1
  6
Continuous
 62
     7
370
    30
100
AcDbVertex
100
AcDb2dVertex
 10
119.2190467859989
 20
195.157753728388
 30
0.0
  0
VERTEX
  5
3C9
330
3C5
100
AcDbEntity
  8
1
  6
Continuous
 62
     7
370
    30
100
AcDbVertex
100
AcDb2dVertex
 10
119.0591817878165
 20
195.1989395459868
 30
0.0
  0
VERTEX
  5
3CA
330
3C5
100
AcDbEntity
  8
1
  6
Continuous
 62
     7
370
    30
100
AcDbVertex
100
AcDb2dVertex
 10
118.9766347518755
 20
195.2316145845189
 30
0.0
  0
VERTEX
  5
3CB
330
3C5
100
AcDbEntity
  8
1
  6
Continuous
 62
     7
370
    30
100
AcDbVertex
100
AcDb2dVertex
 10
118.9130045236274
 20
195.2935250718139
 30
0.0
  0
VERTEX
  5
3CC
330
3C5
100
AcDbEntity
  8
1
  6
Continuous
 62
     7
370
    30
100
AcDbVertex
100
AcDb2dVertex
 10
118.8923677508584
 20
195.3898299922222
 30
0.0
  0
VERTEX
  5
3CD
330
3C5
100
AcDbEntity
  8
1
  6
Continuous
 62
     7
370
    30
100
AcDbVertex
100
AcDb2dVertex
 10
118.8958072795031
 20
195.491294121104
 30
0.0
  0
VERTEX
  5
3CE
330
3C5
100
AcDbEntity
  8
1
  6
Continuous
 62
     7
370
    30
100
AcDbVertex
100
AcDb2dVertex
 10
118.9457004727076
 20
195.7285189110199
 30
0.0
  0
VERTEX
  5
3CF
330
3C5
100
AcDbEntity
  8
1
  6
Continuous
 62
     7
370
    30
100
AcDbVertex
100
AcDb2dVertex
 10
118.9645685031064
 20
195.7577439075033
 30
0.0
  0
VERTEX
  5
3D0
330
3C5
100
AcDbEntity
  8
1
  6
Continuous
 62
     7
370
    30
100
AcDbVertex
100
AcDb2dVertex
 10
119.0127211059342
 20
195.7680623244501
 30
0.0
  0
VERTEX
  5
3D1
330
3C5
100
AcDbEntity
  8
1
  6
Continuous
 62
     7
370
    30
100
AcDbVertex
100
AcDb2dVertex
 10
119.1193443821649
 20
195.7405467796387
 30
0.0
  0
VERTEX
  5
3D2
330
3C5
100
AcDbEntity
  8
1
  6
Continuous
 62
     7
370
    30
100
AcDbVertex
100
AcDb2dVertex
 10
119.220738421697
 20
195.7371948626736
 30
0.0
  0
VERTEX
  5
3D3
330
3C5
100
AcDbEntity
  8
1
  6
Continuous
 62
     7
370
    30
100
AcDbVertex
100
AcDb2dVertex
 10
119.2878288590258
 20
195.7766506032996
 30
0.0
  0
VERTEX
  5
3D4
330
3C5
100
AcDbEntity
  8
1
  6
Continuous
 62
     7
370
    30
100
AcDbVertex
100
AcDb2dVertex
 10
119.3119051604397
 20
195.781809811773
 30
0.0
  0
VERTEX
  5
3D5
330
3C5
100
AcDbEntity
  8
1
  6
Continuous
 62
     7
370
    30
100
AcDbVertex
100
AcDb2dVertex
 10
119.4322373197201
 20
195.8075952796116
 30
0.0
  0
VERTEX
  5
3D6
330
3C5
100
AcDbEntity
  8
1
  6
Continuous
 62
     7
370
    30
100
AcDbVertex
100
AcDb2dVertex
 10
119.4855281042136
 20
195.7939355202281
 30
0.0
  0
VERTEX
  5
3D7
330
3C5
100
AcDbEntity
  8
1
  6
Continuous
 62
     7
370
    30
100
AcDbVertex
100
AcDb2dVertex
 10
119.471770158622
 20
195.7406239941742
 30
0.0
  0
VERTEX
  5
3D8
330
3C5
100
AcDbEntity
  8
1
  6
Continuous
 62
     7
370
    30
100
AcDbVertex
100
AcDb2dVertex
 10
119.4683306911016
 20
195.6391595800451
 30
0.0
  0
VERTEX
  5
3D9
330
3C5
100
AcDbEntity
  8
1
  6
Continuous
 62
     7
370
    30
100
AcDbVertex
100
AcDb2dVertex
 10
119.4648911624568
 20
195.5376954511635
 30
0.0
  0
VERTEX
  5
3DA
330
3C5
100
AcDbEntity
  8
1
  6
Continuous
 62
     7
370
    30
100
AcDbVertex
100
AcDb2dVertex
 10
119.4855279963503
 20
195.441390245508
 30
0.0
  0
VERTEX
  5
3DB
330
3C5
100
AcDbEntity
  8
1
  6
Continuous
 62
     7
370
    30
100
AcDbVertex
100
AcDb2dVertex
 10
119.5594554924885
 20
195.3314258509634
 30
0.0
  0
VERTEX
  5
3DC
330
3C5
100
AcDbEntity
  8
1
  6
Continuous
 62
     7
370
    30
100
AcDbVertex
100
AcDb2dVertex
 10
119.5749541447165
 20
195.2590988216379
 30
0.0
  0
VERTEX
  5
3DD
330
3C5
100
AcDbEntity
  8
1
  6
Continuous
 62
     7
370
    30
100
AcDbVertex
100
AcDb2dVertex
 10
119.5370988709031
 20
195.2007262121944
 30
0.0
  0
VERTEX
  5
3DE
330
3C5
100
AcDbEntity
  8
1
  6
Continuous
 62
     7
370
    30
100
AcDbVertex
100
AcDb2dVertex
 10
119.4941548243378
 20
195.166342068362
 30
0.0
  0
SEQEND
  5
3DF
330
3C5
100
AcDbEntity
  8
1
  6
Continuous
 62
     7
370
    30
  0
ENDBLK
  5
3C4
330
3C2
100
AcDbEntity
  8
0
100
AcDbBlockEnd
  0
BLOCK
  5
3E2
330
3E1
100
AcDbEntity
  8
0
100
AcDbBlockBegin
  2
*G42
 70
     1
 10
0.0
 20
0.0
 30
0.0
  3
*G42
  1
*G42
  0
POLYLINE
  5
3E4
330
3E1
100
AcDbEntity
  8
1
  6
Continuous
 62
     7
370
    30
100
AcDb2dPolyline
 66
     1
 10
0.0
 20
0.0
 30
0.0
  0
VERTEX
  5
3E5
330
3E4
100
AcDbEntity
  8
1
  6
Continuous
 62
     7
370
    30
100
AcDbVertex
100
AcDb2dVertex
 10
116.7156984420136
 20
198.4983941336913
 30
0.0
  0
VERTEX
  5
3E6
330
3E4
100
AcDbEntity
  8
1
  6
Continuous
 62
     7
370
    30
100
AcDbVertex
100
AcDb2dVertex
 10
116.7604115161966
 20
198.4072484217564
 30
0.0
  0
VERTEX
  5
3E7
330
3E4
100
AcDbEntity
  8
1
  6
Continuous
 62
     7
370
    30
100
AcDbVertex
100
AcDb2dVertex
 10
116.8927712588485
 20
198.2593899190133
 30
0.0
  0
VERTEX
  5
3E8
330
3E4
100
AcDbEntity
  8
1
  6
Continuous
 62
     7
370
    30
100
AcDbVertex
100
AcDb2dVertex
 10
117.2297686498114
 20
197.9791613375986
 30
0.0
  0
VERTEX
  5
3E9
330
3E4
100
AcDbEntity
  8
1
  6
Continuous
 62
     7
370
    30
100
AcDbVertex
100
AcDb2dVertex
 10
117.3174751794732
 20
197.922410058777
 30
0.0
  0
VERTEX
  5
3EA
330
3E4
100
AcDbEntity
  8
1
  6
Continuous
 62
     7
370
    30
100
AcDbVertex
100
AcDb2dVertex
 10
117.9553381020041
 20
197.5303287343211
 30
0.0
  0
VERTEX
  5
3EB
330
3E4
100
AcDbEntity
  8
1
  6
Continuous
 62
     7
370
    30
100
AcDbVertex
100
AcDb2dVertex
 10
118.0378640500131
 20
197.4977521061199
 30
0.0
  0
VERTEX
  5
3EC
330
3E4
100
AcDbEntity
  8
1
  6
Continuous
 62
     7
370
    30
100
AcDbVertex
100
AcDb2dVertex
 10
118.7032320039513
 20
197.2123431204364
 30
0.0
  0
VERTEX
  5
3ED
330
3E4
100
AcDbEntity
  8
1
  6
Continuous
 62
     7
370
    30
100
AcDbVertex
100
AcDb2dVertex
 10
118.7806201166665
 20
197.2037444444427
 30
0.0
  0
VERTEX
  5
3EE
330
3E4
100
AcDbEntity
  8
1
  6
Continuous
 62
     7
370
    30
100
AcDbVertex
100
AcDb2dVertex
 10
119.0230531775978
 20
197.129785463228
 30
0.0
  0
VERTEX
  5
3EF
330
3E4
100
AcDbEntity
  8
1
  6
Continuous
 62
     7
370
    30
100
AcDbVertex
100
AcDb2dVertex
 10
119.2259115701345
 20
197.1229943639901
 30
0.0
  0
VERTEX
  5
3F0
330
3E4
100
AcDbEntity
  8
1
  6
Continuous
 62
     7
370
    30
100
AcDbVertex
100
AcDb2dVertex
 10
119.4477289462289
 20
197.1452418928528
 30
0.0
  0
VERTEX
  5
3F1
330
3E4
100
AcDbEntity
  8
1
  6
Continuous
 62
     7
370
    30
100
AcDbVertex
100
AcDb2dVertex
 10
119.6265320641595
 20
197.1331934600577
 30
0.0
  0
VERTEX
  5
3F2
330
3E4
100
AcDbEntity
  8
1
  6
Continuous
 62
     7
370
    30
100
AcDbVertex
100
AcDb2dVertex
 10
119.7038988648195
 20
197.1246928480232
 30
0.0
  0
VERTEX
  5
3F3
330
3E4
100
AcDbEntity
  8
1
  6
Continuous
 62
     7
370
    30
100
AcDbVertex
100
AcDb2dVertex
 10
119.88270198275
 20
197.1126444152281
 30
0.0
  0
VERTEX
  5
3F4
330
3E4
100
AcDbEntity
  8
1
  6
Continuous
 62
     7
370
    30
100
AcDbVertex
100
AcDb2dVertex
 10
120.1578100822133
 20
197.1212324699547
 30
0.0
  0
VERTEX
  5
3F5
330
3E4
100
AcDbEntity
  8
1
  6
Continuous
 62
     7
370
    30
100
AcDbVertex
100
AcDb2dVertex
 10
120.2781422414938
 20
197.1470179377934
 30
0.0
  0
VERTEX
  5
3F6
330
3E4
100
AcDbEntity
  8
1
  6
Continuous
 62
     7
370
    30
100
AcDbVertex
100
AcDb2dVertex
 10
121.1240539037394
 20
197.0764668922839
 30
0.0
  0
VERTEX
  5
3F7
330
3E4
100
AcDbEntity
  8
1
  6
Continuous
 62
     7
370
    30
100
AcDbVertex
100
AcDb2dVertex
 10
121.2066012249279
 20
197.0437919148762
 30
0.0
  0
VERTEX
  5
3F8
330
3E4
100
AcDbEntity
  8
1
  6
Continuous
 62
     7
370
    30
100
AcDbVertex
100
AcDb2dVertex
 10
121.6811281882832
 20
196.9441247414831
 30
0.0
  0
VERTEX
  5
3F9
330
3E4
100
AcDbEntity
  8
1
  6
Continuous
 62
     7
370
    30
100
AcDbVertex
100
AcDb2dVertex
 10
121.8169870355257
 20
196.8976918184837
 30
0.0
  0
VERTEX
  5
3FA
330
3E4
100
AcDbEntity
  8
1
  6
Continuous
 62
     7
370
    30
100
AcDbVertex
100
AcDb2dVertex
 10
121.9338306036194
 20
196.8220026440367
 30
0.0
  0
VERTEX
  5
3FB
330
3E4
100
AcDbEntity
  8
1
  6
Continuous
 62
     7
370
    30
100
AcDbVertex
100
AcDb2dVertex
 10
122.0319325873795
 20
196.7172181995261
 30
0.0
  0
VERTEX
  5
3FC
330
3E4
100
AcDbEntity
  8
1
  6
Continuous
 62
     7
370
    30
100
AcDbVertex
100
AcDb2dVertex
 10
122.1110400946759
 20
196.5830790321124
 30
0.0
  0
VERTEX
  5
3FD
330
3E4
100
AcDbEntity
  8
1
  6
Continuous
 62
     7
370
    30
100
AcDbVertex
100
AcDb2dVertex
 10
122.1917484151568
 20
196.3234765938031
 30
0.0
  0
VERTEX
  5
3FE
330
3E4
100
AcDbEntity
  8
1
  6
Continuous
 62
     7
370
    30
100
AcDbVertex
100
AcDb2dVertex
 10
122.2364612040925
 20
196.2323308207438
 30
0.0
  0
VERTEX
  5
3FF
330
3E4
100
AcDbEntity
  8
1
  6
Continuous
 62
     7
370
    30
100
AcDbVertex
100
AcDb2dVertex
 10
122.5029987184314
 20
195.8110947581417
 30
0.0
  0
VERTEX
  5
400
330
3E4
100
AcDbEntity
  8
1
  6
Continuous
 62
     7
370
    30
100
AcDbVertex
100
AcDb2dVertex
 10
122.5424545201818
 20
195.7440040355655
 30
0.0
  0
VERTEX
  5
401
330
3E4
100
AcDbEntity
  8
1
  6
Continuous
 62
     7
370
    30
100
AcDbVertex
100
AcDb2dVertex
 10
122.7419223387523
 20
195.2832140461292
 30
0.0
  0
VERTEX
  5
402
330
3E4
100
AcDbEntity
  8
1
  6
Continuous
 62
     7
370
    30
100
AcDbVertex
100
AcDb2dVertex
 10
122.8158498960148
 20
195.1732493663374
 30
0.0
  0
VERTEX
  5
403
330
3E4
100
AcDbEntity
  8
1
  6
Continuous
 62
     7
370
    30
100
AcDbVertex
100
AcDb2dVertex
 10
122.8846389863644
 20
195.0872628017514
 30
0.0
  0
VERTEX
  5
404
330
3E4
100
AcDbEntity
  8
1
  6
Continuous
 62
     7
370
    30
100
AcDbVertex
100
AcDb2dVertex
 10
123.4366523649026
 20
194.6264727655764
 30
0.0
  0
VERTEX
  5
405
330
3E4
100
AcDbEntity
  8
1
  6
Continuous
 62
     7
370
    30
100
AcDbVertex
100
AcDb2dVertex
 10
123.5001841828196
 20
194.5645411903493
 30
0.0
  0
VERTEX
  5
406
330
3E4
100
AcDbEntity
  8
1
  6
Continuous
 62
     7
370
    30
100
AcDbVertex
100
AcDb2dVertex
 10
123.7202888820225
 20
194.359991555225
 30
0.0
  0
VERTEX
  5
407
330
3E4
100
AcDbEntity
  8
1
  6
Continuous
 62
     7
370
    30
100
AcDbVertex
100
AcDb2dVertex
 10
123.8130562098267
 20
194.2791428870572
 30
0.0
  0
VERTEX
  5
408
330
3E4
100
AcDbEntity
  8
1
  6
Continuous
 62
     7
370
    30
100
AcDbVertex
100
AcDb2dVertex
 10
123.9248386945308
 20
194.2275510408319
 30
0.0
  0
VERTEX
  5
409
330
3E4
100
AcDbEntity
  8
1
  6
Continuous
 62
     7
370
    30
100
AcDbVertex
100
AcDb2dVertex
 10
124.1088501446011
 20
194.1914365347795
 30
0.0
  0
VERTEX
  5
40A
330
3E4
100
AcDbEntity
  8
1
  6
Continuous
 62
     7
370
    30
100
AcDbVertex
100
AcDb2dVertex
 10
124.167320818004
 20
194.1536025730213
 30
0.0
  0
VERTEX
  5
40B
330
3E4
100
AcDbEntity
  8
1
  6
Continuous
 62
     7
370
    30
100
AcDbVertex
100
AcDb2dVertex
 10
124.2309299583196
 20
194.0917904960573
 30
0.0
  0
VERTEX
  5
40C
330
3E4
100
AcDbEntity
  8
1
  6
Continuous
 62
     7
370
    30
100
AcDbVertex
100
AcDb2dVertex
 10
124.29962098471
 20
194.0057826194162
 30
0.0
  0
VERTEX
  5
40D
330
3E4
100
AcDbEntity
  8
1
  6
Continuous
 62
     7
370
    30
100
AcDbVertex
100
AcDb2dVertex
 10
124.3822664309822
 20
193.9731286688163
 30
0.0
  0
VERTEX
  5
40E
330
3E4
100
AcDbEntity
  8
1
  6
Continuous
 62
     7
370
    30
100
AcDbVertex
100
AcDb2dVertex
 10
124.4836323736558
 20
193.9696683986111
 30
0.0
  0
VERTEX
  5
40F
330
3E4
100
AcDbEntity
  8
1
  6
Continuous
 62
     7
370
    30
100
AcDbVertex
100
AcDb2dVertex
 10
124.6194912208982
 20
193.9232354756118
 30
0.0
  0
VERTEX
  5
410
330
3E4
100
AcDbEntity
  8
1
  6
Continuous
 62
     7
370
    30
100
AcDbVertex
100
AcDb2dVertex
 10
124.9650382864375
 20
193.7203842082611
 30
0.0
  0
VERTEX
  5
411
330
3E4
100
AcDbEntity
  8
1
  6
Continuous
 62
     7
370
    30
100
AcDbVertex
100
AcDb2dVertex
 10
125.1008970725556
 20
193.673951570509
 30
0.0
  0
VERTEX
  5
412
330
3E4
100
AcDbEntity
  8
1
  6
Continuous
 62
     7
370
    30
100
AcDbVertex
100
AcDb2dVertex
 10
126.0018194843704
 20
193.464200396445
 30
0.0
  0
VERTEX
  5
413
330
3E4
100
AcDbEntity
  8
1
  6
Continuous
 62
     7
370
    30
100
AcDbVertex
100
AcDb2dVertex
 10
126.15143621608
 20
193.471079284747
 30
0.0
  0
VERTEX
  5
414
330
3E4
100
AcDbEntity
  8
1
  6
Continuous
 62
     7
370
    30
100
AcDbVertex
100
AcDb2dVertex
 10
127.1313889206558
 20
193.4796147197262
 30
0.0
  0
VERTEX
  5
415
330
3E4
100
AcDbEntity
  8
1
  6
Continuous
 62
     7
370
    30
100
AcDbVertex
100
AcDb2dVertex
 10
127.1795415234836
 20
193.489933136673
 30
0.0
  0
VERTEX
  5
416
330
3E4
100
AcDbEntity
  8
1
  6
Continuous
 62
     7
370
    30
100
AcDbVertex
100
AcDb2dVertex
 10
127.9189069466499
 20
193.4470170731138
 30
0.0
  0
VERTEX
  5
417
330
3E4
100
AcDbEntity
  8
1
  6
Continuous
 62
     7
370
    30
100
AcDbVertex
100
AcDb2dVertex
 10
128.020371360779
 20
193.4435776055934
 30
0.0
  0
VERTEX
  5
418
330
3E4
100
AcDbEntity
  8
1
  6
Continuous
 62
     7
370
    30
100
AcDbVertex
100
AcDb2dVertex
 10
128.3195063527428
 20
193.4573145795123
 30
0.0
  0
VERTEX
  5
419
330
3E4
100
AcDbEntity
  8
1
  6
Continuous
 62
     7
370
    30
100
AcDbVertex
100
AcDb2dVertex
 10
128.4450470682857
 20
193.4590343204655
 30
0.0
  0
VERTEX
  5
41A
330
3E4
100
AcDbEntity
  8
1
  6
Continuous
 62
     7
370
    30
100
AcDbVertex
100
AcDb2dVertex
 10
128.5223367706698
 20
193.4504145565394
 30
0.0
  0
SEQEND
  5
41B
330
3E4
100
AcDbEntity
  8
1
  6
Continuous
 62
     7
370
    30
  0
ENDBLK
  5
3E3
330
3E1
100
AcDbEntity
  8
0
100
AcDbBlockEnd
  0
BLOCK
  5
41E
330
41D
100
AcDbEntity
  8
0
100
AcDbBlockBegin
  2
*G43
 70
     1
 10
0.0
 20
0.0
 30
0.0
  3
*G43
  1
*G43
  0
POLYLINE
  5
420
330
41D
100
AcDbEntity
  8
1
  6
Continuous
 62
     7
370
    30
100
AcDb2dPolyline
 66
     1
 10
0.0
 20
0.0
 30
0.0
  0
VERTEX
  5
421
330
420
100
AcDbEntity
  8
1
  6
Continuous
 62
     7
370
    30
100
AcDbVertex
100
AcDb2dVertex
 10
124.2153891530092
 20
199.0985071633238
 30
0.0
  0
VERTEX
  5
422
330
420
100
AcDbEntity
  8
1
  6
Continuous
 62
     7
370
    30
100
AcDbVertex
100
AcDb2dVertex
 10
123.8921988864396
 20
199.0795128558477
 30
0.0
  0
VERTEX
  5
423
330
420
100
AcDbEntity
  8
1
  6
Continuous
 62
     7
370
    30
100
AcDbVertex
100
AcDb2dVertex
 10
123.7134450551738
 20
199.0915721484186
 30
0.0
  0
VERTEX
  5
424
330
420
100
AcDbEntity
  8
1
  6
Continuous
 62
     7
370
    30
100
AcDbVertex
100
AcDb2dVertex
 10
123.3695090309755
 20
199.1689110212077
 30
0.0
  0
VERTEX
  5
425
330
420
100
AcDbEntity
  8
1
  6
Continuous
 62
     7
370
    30
100
AcDbVertex
100
AcDb2dVertex
 10
123.2148312770007
 20
199.1861291758801
 30
0.0
  0
VERTEX
  5
426
330
420
100
AcDbEntity
  8
1
  6
Continuous
 62
     7
370
    30
100
AcDbVertex
100
AcDb2dVertex
 10
122.7901555083695
 20
199.1706727462554
 30
0.0
  0
VERTEX
  5
427
330
420
100
AcDbEntity
  8
1
  6
Continuous
 62
     7
370
    30
100
AcDbVertex
100
AcDb2dVertex
 10
122.7126692705707
 20
199.1792503954414
 30
0.0
  0
VERTEX
  5
428
330
420
100
AcDbEntity
  8
1
  6
Continuous
 62
     7
370
    30
100
AcDbVertex
100
AcDb2dVertex
 10
121.7121008811581
 20
199.2669214705394
 30
0.0
  0
VERTEX
  5
429
330
420
100
AcDbEntity
  8
1
  6
Continuous
 62
     7
370
    30
100
AcDbVertex
100
AcDb2dVertex
 10
121.6347130536903
 20
199.2755202076578
 30
0.0
  0
VERTEX
  5
42A
330
420
100
AcDbEntity
  8
1
  6
Continuous
 62
     7
370
    30
100
AcDbVertex
100
AcDb2dVertex
 10
121.2100372850592
 20
199.2600637780331
 30
0.0
  0
VERTEX
  5
42B
330
420
100
AcDbEntity
  8
1
  6
Continuous
 62
     7
370
    30
100
AcDbVertex
100
AcDb2dVertex
 10
121.0553595310843
 20
199.2772819327053
 30
0.0
  0
VERTEX
  5
42C
330
420
100
AcDbEntity
  8
1
  6
Continuous
 62
     7
370
    30
100
AcDbVertex
100
AcDb2dVertex
 10
119.8930484162597
 20
199.531697002151
 30
0.0
  0
VERTEX
  5
42D
330
420
100
AcDbEntity
  8
1
  6
Continuous
 62
     7
370
    30
100
AcDbVertex
100
AcDb2dVertex
 10
119.7382724760767
 20
199.548894415263
 30
0.0
  0
VERTEX
  5
42E
330
420
100
AcDbEntity
  8
1
  6
Continuous
 62
     7
370
    30
100
AcDbVertex
100
AcDb2dVertex
 10
119.313596992693
 20
199.5334380467627
 30
0.0
  0
VERTEX
  5
42F
330
420
100
AcDbEntity
  8
1
  6
Continuous
 62
     7
370
    30
100
AcDbVertex
100
AcDb2dVertex
 10
119.2362580036442
 20
199.542046950913
 30
0.0
  0
VERTEX
  5
430
330
420
100
AcDbEntity
  8
1
  6
Continuous
 62
     7
370
    30
100
AcDbVertex
100
AcDb2dVertex
 10
118.2063559181361
 20
199.6486143773912
 30
0.0
  0
VERTEX
  5
431
330
420
100
AcDbEntity
  8
1
  6
Continuous
 62
     7
370
    30
100
AcDbVertex
100
AcDb2dVertex
 10
117.2830666565792
 20
199.7277150363525
 30
0.0
  0
SEQEND
  5
432
330
420
100
AcDbEntity
  8
1
  6
Continuous
 62
     7
370
    30
  0
ENDBLK
  5
41F
330
41D
100
AcDbEntity
  8
0
100
AcDbBlockEnd
  0
BLOCK
  5
435
330
434
100
AcDbEntity
  8
0
100
AcDbBlockBegin
  2
*G44
 70
     1
 10
0.0
 20
0.0
 30
0.0
  3
*G44
  1
*G44
  0
POLYLINE
  5
437
330
434
100
AcDbEntity
  8
1
  6
Continuous
 62
     7
370
    30
100
AcDb2dPolyline
 66
     1
 10
0.0
 20
0.0
 30
0.0
  0
VERTEX
  5
438
330
437
100
AcDbEntity
  8
1
  6
Continuous
 62
     7
370
    30
100
AcDbVertex
100
AcDb2dVertex
 10
118.2200926068077
 20
199.3494793243031
 30
0.0
  0
VERTEX
  5
439
330
437
100
AcDbEntity
  8
1
  6
Continuous
 62
     7
370
    30
100
AcDbVertex
100
AcDb2dVertex
 10
118.4247408296472
 20
199.2170598978422
 30
0.0
  0
VERTEX
  5
43A
330
437
100
AcDbEntity
  8
1
  6
Continuous
 62
     7
370
    30
100
AcDbVertex
100
AcDb2dVertex
 10
118.5519413638256
 20
199.0932776965132
 30
0.0
  0
VERTEX
  5
43B
330
437
100
AcDbEntity
  8
1
  6
Continuous
 62
     7
370
    30
100
AcDbVertex
100
AcDb2dVertex
 10
118.5966439246048
 20
199.0021810471201
 30
0.0
  0
VERTEX
  5
43C
330
437
100
AcDbEntity
  8
1
  6
Continuous
 62
     7
370
    30
100
AcDbVertex
100
AcDb2dVertex
 10
118.5880451874866
 20
198.9247932196522
 30
0.0
  0
VERTEX
  5
43D
330
437
100
AcDbEntity
  8
1
  6
Continuous
 62
     7
370
    30
100
AcDbVertex
100
AcDb2dVertex
 10
118.4556539741439
 20
198.3677084217045
 30
0.0
  0
VERTEX
  5
43E
330
437
100
AcDbEntity
  8
1
  6
Continuous
 62
     7
370
    30
100
AcDbVertex
100
AcDb2dVertex
 10
118.4041006770565
 20
198.2559855129463
 30
0.0
  0
VERTEX
  5
43F
330
437
100
AcDbEntity
  8
1
  6
Continuous
 62
     7
370
    30
100
AcDbVertex
100
AcDb2dVertex
 10
118.2888783784604
 20
198.2061131691653
 30
0.0
  0
VERTEX
  5
440
330
437
100
AcDbEntity
  8
1
  6
Continuous
 62
     7
370
    30
100
AcDbVertex
100
AcDb2dVertex
 10
118.2648023622938
 20
198.2009540218163
 30
0.0
  0
VERTEX
  5
441
330
437
100
AcDbEntity
  8
1
  6
Continuous
 62
     7
370
    30
100
AcDbVertex
100
AcDb2dVertex
 10
118.1444702030134
 20
198.1751685539778
 30
0.0
  0
VERTEX
  5
442
330
437
100
AcDbEntity
  8
1
  6
Continuous
 62
     7
370
    30
100
AcDbVertex
100
AcDb2dVertex
 10
118.013770278997
 20
198.1975251144386
 30
0.0
  0
VERTEX
  5
443
330
437
100
AcDbEntity
  8
1
  6
Continuous
 62
     7
370
    30
100
AcDbVertex
100
AcDb2dVertex
 10
117.8882894246471
 20
198.1957668854721
 30
0.0
  0
VERTEX
  5
444
330
437
100
AcDbEntity
  8
1
  6
Continuous
 62
     7
370
    30
100
AcDbVertex
100
AcDb2dVertex
 10
117.7627983421407
 20
198.194057780172
 30
0.0
  0
VERTEX
  5
445
330
437
100
AcDbEntity
  8
1
  6
Continuous
 62
     7
370
    30
100
AcDbVertex
100
AcDb2dVertex
 10
117.7146457393128
 20
198.1837393632252
 30
0.0
  0
VERTEX
  5
446
330
437
100
AcDbEntity
  8
1
  6
Continuous
 62
     7
370
    30
100
AcDbVertex
100
AcDb2dVertex
 10
117.5942645174905
 20
198.1579433819827
 30
0.0
  0
VERTEX
  5
447
330
437
100
AcDbEntity
  8
1
  6
Continuous
 62
     7
370
    30
100
AcDbVertex
100
AcDb2dVertex
 10
117.4636140023878
 20
198.1803102317246
 30
0.0
  0
VERTEX
  5
448
330
437
100
AcDbEntity
  8
1
  6
Continuous
 62
     7
370
    30
100
AcDbVertex
100
AcDb2dVertex
 10
117.0904915308441
 20
198.2765767108583
 30
0.0
  0
VERTEX
  5
449
330
437
100
AcDbEntity
  8
1
  6
Continuous
 62
     7
370
    30
100
AcDbVertex
100
AcDb2dVertex
 10
116.9546818072679
 20
198.323019862014
 30
0.0
  0
VERTEX
  5
44A
330
437
100
AcDbEntity
  8
1
  6
Continuous
 62
     7
370
    30
100
AcDbVertex
100
AcDb2dVertex
 10
116.8429483239812
 20
198.3746225068906
 30
0.0
  0
VERTEX
  5
44B
330
437
100
AcDbEntity
  8
1
  6
Continuous
 62
     7
370
    30
100
AcDbVertex
100
AcDb2dVertex
 10
116.7793289555089
 20
198.4364837075208
 30
0.0
  0
VERTEX
  5
44C
330
437
100
AcDbEntity
  8
1
  6
Continuous
 62
     7
370
    30
100
AcDbVertex
100
AcDb2dVertex
 10
116.6761448615513
 20
198.5654636053367
 30
0.0
  0
VERTEX
  5
44D
330
437
100
AcDbEntity
  8
1
  6
Continuous
 62
     7
370
    30
100
AcDbVertex
100
AcDb2dVertex
 10
116.6108054668785
 20
198.7528654603856
 30
0.0
  0
VERTEX
  5
44E
330
437
100
AcDbEntity
  8
1
  6
Continuous
 62
     7
370
    30
100
AcDbVertex
100
AcDb2dVertex
 10
116.5884595276848
 20
198.9746617485478
 30
0.0
  0
VERTEX
  5
44F
330
437
100
AcDbEntity
  8
1
  6
Continuous
 62
     7
370
    30
100
AcDbVertex
100
AcDb2dVertex
 10
116.6005082457272
 20
199.1534649276027
 30
0.0
  0
VERTEX
  5
450
330
437
100
AcDbEntity
  8
1
  6
Continuous
 62
     7
370
    30
100
AcDbVertex
100
AcDb2dVertex
 10
116.6555010714595
 20
199.3666519652428
 30
0.0
  0
VERTEX
  5
451
330
437
100
AcDbEntity
  8
1
  6
Continuous
 62
     7
370
    30
100
AcDbVertex
100
AcDb2dVertex
 10
116.6881757636198
 20
199.4491992253069
 30
0.0
  0
VERTEX
  5
452
330
437
100
AcDbEntity
  8
1
  6
Continuous
 62
     7
370
    30
100
AcDbVertex
100
AcDb2dVertex
 10
116.7500968254431
 20
199.5127801057656
 30
0.0
  0
VERTEX
  5
453
330
437
100
AcDbEntity
  8
1
  6
Continuous
 62
     7
370
    30
100
AcDbVertex
100
AcDb2dVertex
 10
116.8841868691908
 20
199.5918773849056
 30
0.0
  0
VERTEX
  5
454
330
437
100
AcDbEntity
  8
1
  6
Continuous
 62
     7
370
    30
100
AcDbVertex
100
AcDb2dVertex
 10
116.9994088825395
 20
199.641749667562
 30
0.0
  0
VERTEX
  5
455
330
437
100
AcDbEntity
  8
1
  6
Continuous
 62
     7
370
    30
100
AcDbVertex
100
AcDb2dVertex
 10
117.1059831573528
 20
199.6142233240994
 30
0.0
  0
VERTEX
  5
456
330
437
100
AcDbEntity
  8
1
  6
Continuous
 62
     7
370
    30
100
AcDbVertex
100
AcDb2dVertex
 10
118.0550578867482
 20
199.4147905058576
 30
0.0
  0
VERTEX
  5
457
330
437
100
AcDbEntity
  8
1
  6
Continuous
 62
     7
370
    30
100
AcDbVertex
100
AcDb2dVertex
 10
118.2200926068077
 20
199.3494793243031
 30
0.0
  0
SEQEND
  5
458
330
437
100
AcDbEntity
  8
1
  6
Continuous
 62
     7
370
    30
  0
ENDBLK
  5
436
330
434
100
AcDbEntity
  8
0
100
AcDbBlockEnd
  0
ENDSEC
  0
SECTION
  2
ENTITIES
  0
LINE
  5
DF
330
1F
100
AcDbEntity
  8
15
  6
Continuous
 62
    96
370
    50
100
AcDbLine
 10
15.0
 20
272.0757920685739
 30
0.0
 11
15.0
 21
14.99999999999998
 31
0.0
  0
LINE
  5
E0
330
1F
100
AcDbEntity
  8
15
  6
Continuous
 62
    96
370
    50
100
AcDbLine
 10
15.0
 20
14.99999999999998
 30
0.0
 11
400.1135406474743
 21
14.99999999999998
 31
0.0
  0
LINE
  5
E1
330
1F
100
AcDbEntity
  8
15
  6
Continuous
 62
    96
370
     9
100
AcDbLine
 10
364.4395041932742
 20
20.70177683904443
 30
0.0
 11
351.9731661378562
 21
20.70177683904443
 31
0.0
  0
MTEXT
  5
E2
330
1F
100
AcDbEntity
  8
15
  6
Continuous
 62
    96
370
     9
100
AcDbMText
 10
334.2046847738799
 20
19.69114099908491
 30
0.0
 40
1.800530839390791
 41
22.72487742548258
 71
     7
 72
     1
  1
{\fＭＳ ゴシック;\W0.873016;出入管理システム}
 73
     1
 44
1.0
1001
ACAD
1000
ACAD_MTEXT_DEFINED_HEIGHT_BEGIN
1070
    46
1040
1.800530839390791
1000
ACAD_MTEXT_DEFINED_HEIGHT_END
  0
MTEXT
  5
E3
330
1F
100
AcDbEntity
  8
15
  6
Continuous
 62
    96
370
     9
100
AcDbMText
 10
334.2752633882099
 20
15.80931721093849
 30
0.0
 40
3.601061678781581
 41
39.06628350610139
 71
     7
 72
     1
  1
{\fＭＳ ゴシック;\W1.488095;\T1.026667;株式会社}
 73
     1
 44
1.0
1001
ACAD
1000
ACAD_MTEXT_DEFINED_HEIGHT_BEGIN
1070
    46
1040
3.601061678781581
1000
ACAD_MTEXT_DEFINED_HEIGHT_END
  0
LINE
  5
E4
330
1F
100
AcDbEntity
  8
15
  6
Continuous
 62
    96
370
    30
100
AcDbLine
 10
314.3783985348264
 20
15.8788200195852
 30
0.0
 11
317.5461845782916
 21
15.8788200195852
 31
0.0
  0
LINE
  5
E5
330
1F
100
AcDbEntity
  8
15
  6
Continuous
 62
    96
370
    30
100
AcDbLine
 10
333.0191872903828
 20
19.7285479361701
 30
0.0
 11
333.0191872903828
 21
20.94424959090641
 31
0.0
  0
LINE
  5
E6
330
1F
100
AcDbEntity
  8
15
  6
Continuous
 62
    96
370
    30
100
AcDbLine
 10
331.7021809206185
 20
19.7285479361701
 30
0.0
 11
333.0191872903828
 21
19.7285479361701
 31
0.0
  0
LINE
  5
E7
330
1F
100
AcDbEntity
  8
15
  6
Continuous
 62
    96
370
    30
100
AcDbLine
 10
331.7021809206185
 20
15.8788200195852
 30
0.0
 11
331.7021809206185
 21
19.7285479361701
 31
0.0
  0
LINE
  5
E8
330
1F
100
AcDbEntity
  8
15
  6
Continuous
 62
    96
370
    30
100
AcDbLine
 10
330.2838585672263
 20
15.8788200195852
 30
0.0
 11
331.7021809206185
 21
15.8788200195852
 31
0.0
  0
LINE
  5
E9
330
1F
100
AcDbEntity
  8
15
  6
Continuous
 62
    96
370
    30
100
AcDbLine
 10
329.4315579975776
 20
15.8788200195852
 30
0.0
 11
327.6498345590976
 21
15.8788200195852
 31
0.0
  0
LINE
  5
EA
330
1F
100
AcDbEntity
  8
15
  6
Continuous
 62
    96
370
    30
100
AcDbLine
 10
320.2543041396118
 20
15.8788200195852
 30
0.0
 11
324.6105714073767
 21
15.8788200195852
 31
0.0
  0
LINE
  5
EB
330
1F
100
AcDbEntity
  8
15
  6
Continuous
 62
    96
370
    30
100
AcDbLine
 10
320.2543041396118
 20
18.00630016909371
 30
0.0
 11
320.2543041396118
 21
15.8788200195852
 31
0.0
  0
HATCH
  5
EC
330
1F
100
AcDbEntity
  8
15
  6
Continuous
 62
    96
370
     9
100
AcDbHatch
 10
0.0
 20
0.0
 30
0.0
210
0.0
220
0.0
230
1.0
  2
SOLID
 70
     1
 71
     0
 91
        1
 92
        0
 93
       79
 72
     1
 10
327.6515454374589
 20
17.54016657673337
 11
329.4315579975776
 21
15.8788200195852
 72
     1
 10
329.4315579975776
 20
15.8788200195852
 11
327.6498345590976
 21
15.8788200195852
 72
     1
 10
327.6498345590976
 20
15.8788200195852
 11
324.6105714073767
 21
18.71546021892986
 72
     1
 10
324.6105714073767
 20
18.71546021892986
 11
327.0419814780093
 21
18.71546021892986
 72
     1
 10
327.0419814780093
 20
18.71546021892983
 11
327.0861296842417
 21
18.71738777124165
 72
     1
 10
327.0861296842417
 20
18.71738777124165
 11
327.1299418959671
 21
18.72315575834013
 72
     1
 10
327.1299418959671
 20
18.72315575834013
 11
327.1730846757999
 21
18.73272028236066
 72
     1
 10
327.1730846757999
 20
18.73272028236066
 11
327.2152296811353
 21
18.7460085515002
 72
     1
 10
327.2152296811353
 20
18.7460085515002
 11
327.2560561630348
 21
18.76291943400694
 72
     1
 10
327.2560561630348
 20
18.76291943400694
 11
327.2952534073194
 21
18.78332422785393
 72
     1
 10
327.2952534073194
 20
18.78332422785393
 11
327.3325230992922
 21
18.80706764023924
 72
     1
 10
327.3325230992922
 20
18.80706764023924
 11
327.3675815940932
 21
18.83396896945796
 72
     1
 10
327.3675815940932
 20
18.83396896945796
 11
327.400162075408
 21
18.86382348015126
 72
     1
 10
327.400162075408
 20
18.86382348015126
 11
327.4300165861013
 21
18.89640396146612
 72
     1
 10
327.4300165861013
 20
18.89640396146612
 11
327.45691791532
 21
18.93146245626711
 72
     1
 10
327.45691791532
 20
18.93146245626711
 11
327.4806613277054
 21
18.96873214823989
 72
     1
 10
327.4806613277054
 20
18.96873214823989
 11
327.5010661215524
 21
19.00792939252449
 72
     1
 10
327.5010661215524
 20
19.00792939252449
 11
327.5179770040591
 21
19.04875587442396
 72
     1
 10
327.5179770040591
 20
19.04875587442396
 11
327.5312652731986
 21
19.09090087975934
 72
     1
 10
327.5312652731986
 20
19.09090087975934
 11
327.5408297972191
 21
19.13404365959219
 72
     1
 10
327.5408297972191
 20
19.13404365959219
 11
327.5465977843177
 21
19.17785587131765
 72
     1
 10
327.5465977843177
 20
19.17785587131765
 11
327.5485253366295
 21
19.22200407754995
 72
     1
 10
327.5485253366295
 20
19.22200407754995
 11
327.5465977843177
 21
19.26615228378225
 72
     1
 10
327.5465977843177
 20
19.26615228378225
 11
327.5408297972191
 21
19.30996449550771
 72
     1
 10
327.5408297972191
 20
19.30996449550771
 11
327.5312652731986
 21
19.35310727534056
 72
     1
 10
327.5312652731986
 20
19.35310727534056
 11
327.5179770040591
 21
19.39525228067594
 72
     1
 10
327.5179770040591
 20
19.39525228067594
 11
327.5010661215524
 21
19.43607876257542
 72
     1
 10
327.5010661215524
 20
19.43607876257542
 11
327.4806613277054
 21
19.47527600686001
 72
     1
 10
327.4806613277054
 20
19.47527600686001
 11
327.45691791532
 21
19.51254569883279
 72
     1
 10
327.45691791532
 20
19.51254569883279
 11
327.4300165861013
 21
19.54760419363378
 72
     1
 10
327.4300165861013
 20
19.54760419363378
 11
327.400162075408
 21
19.58018467494864
 72
     1
 10
327.400162075408
 20
19.58018467494864
 11
327.3675815940932
 21
19.61003918564194
 72
     1
 10
327.3675815940932
 20
19.61003918564194
 11
327.3325230992922
 21
19.63694051486066
 72
     1
 10
327.3325230992922
 20
19.63694051486066
 11
327.2952534073194
 21
19.66068392724598
 72
     1
 10
327.2952534073194
 20
19.66068392724598
 11
327.2560561630348
 21
19.68108872109297
 72
     1
 10
327.2560561630348
 20
19.68108872109297
 11
327.2152296811353
 21
19.6979996035997
 72
     1
 10
327.2152296811353
 20
19.6979996035997
 11
327.1730846757999
 21
19.71128787273925
 72
     1
 10
327.1730846757999
 20
19.71128787273925
 11
327.1299418959671
 21
19.72085239675977
 72
     1
 10
327.1299418959671
 20
19.72085239675977
 11
327.0861296842417
 21
19.72662038385826
 72
     1
 10
327.0861296842417
 20
19.72662038385826
 11
327.0419814780093
 21
19.72854793617008
 72
     1
 10
327.0419814780093
 20
19.7285479361701
 11
325.0158082972491
 21
19.7285479361701
 72
     1
 10
325.0158082972491
 20
19.7285479361701
 11
325.0158082972491
 21
20.94424959090641
 72
     1
 10
325.0158082972491
 20
20.94424959090641
 11
327.0419750925317
 21
20.94424959090641
 72
     1
 10
327.0419750925318
 20
20.94424959090638
 11
327.1864386890639
 21
20.95426322560955
 72
     1
 10
327.1864386890639
 20
20.95426322560955
 11
327.3312339421825
 21
20.95218037243819
 72
     1
 10
327.3312339421825
 20
20.95218037243819
 11
327.4753497364167
 21
20.93801557610299
 72
     1
 10
327.4753497364167
 20
20.93801557610299
 11
327.6177797010055
 21
20.91186775037636
 72
     1
 10
327.6177797010055
 20
20.91186775037636
 11
327.7575292374549
 21
20.87391948737055
 72
     1
 10
327.7575292374549
 20
20.87391948737055
 11
327.8936224648899
 21
20.82443578248412
 72
     1
 10
327.8936224648899
 20
20.82443578248412
 11
328.0251090346995
 21
20.76376218392029
 72
     1
 10
328.0251090346995
 20
20.76376218392029
 11
328.1510707668879
 21
20.69232237969949
 72
     1
 10
328.1510707668879
 20
20.69232237969949
 11
328.27062806179
 21
20.61061523901605
 72
     1
 10
328.27062806179
 20
20.61061523901605
 11
328.3829460423786
 21
20.51921132859932
 72
     1
 10
328.3829460423786
 20
20.51921132859932
 11
328.4872403842692
 21
20.41874892840603
 72
     1
 10
328.4872403842692
 20
20.41874892840603
 11
328.5827827927124
 21
20.30992957446624
 72
     1
 10
328.5827827927124
 20
20.30992957446624
 11
328.6689060883275
 21
20.19351316000778
 72
     1
 10
328.6689060883275
 20
20.19351316000778
 11
328.7450088660639
 21
20.07031262906819
 72
     1
 10
328.7450088660639
 20
20.07031262906819
 11
328.8105596948539
 21
19.94118829964915
 72
     1
 10
328.8105596948539
 20
19.94118829964915
 11
328.8651008286344
 21
19.80704185605515
 72
     1
 10
328.8651008286344
 20
19.80704185605515
 11
328.9082514028193
 21
19.66881005236838
 72
     1
 10
328.9082514028193
 20
19.66881005236838
 11
328.9397100939039
 21
19.52745817102883
 72
     1
 10
328.9397100939039
 20
19.52745817102883
 11
328.9592572236284
 21
19.38397328219897
 72
     1
 10
328.9592572236284
 20
19.38397328219897
 11
328.9667562930064
 21
19.23935735098306
 72
     1
 10
328.9667562930064
 20
19.23935735098306
 11
328.9621549355074
 21
19.09462024063416
 72
     1
 10
328.9621549355074
 20
19.09462024063416
 11
328.9454852827355
 21
18.95077266060778
 72
     1
 10
328.9454852827355
 20
18.95077266060778
 11
328.9168637400522
 21
18.80881910870642
 72
     1
 10
328.9168637400522
 20
18.80881910870642
 11
328.8764901737101
 21
18.66975085660049
 72
     1
 10
328.8764901737101
 20
18.66975085660049
 11
328.8246465151718
 21
18.53453902770836
 72
     1
 10
328.8246465151718
 20
18.53453902770836
 11
328.7616947923637
 21
18.40412781577292
 72
     1
 10
328.7616947923637
 20
18.40412781577292
 11
328.6880746016084
 21
18.2794278914901
 72
     1
 10
328.6880746016084
 20
18.2794278914901
 11
328.6043000378934
 21
18.1613100432311
 72
     1
 10
328.6043000378934
 20
18.1613100432311
 11
328.5109561049088
 21
18.05059909626576
 72
     1
 10
328.5109561049088
 20
18.05059909626576
 11
328.4086946299261
 21
17.94806815294949
 72
     1
 10
328.4086946299261
 20
17.94806815294949
 11
328.2982297120412
 21
17.85443319409496
 72
     1
 10
328.2982297120412
 20
17.85443319409496
 11
328.1803327355714
 21
17.77034807922757
 72
     1
 10
328.1803327355714
 20
17.77034807922757
 11
328.0558269834232
 21
17.69639998063823
 72
     1
 10
328.0558269834232
 20
17.69639998063823
 11
327.9255818880499
 21
17.63310528311784
 72
     1
 10
327.9255818880499
 20
17.63310528311784
 11
327.790506960144
 21
17.58090597800579
 72
     1
 10
327.790506960144
 20
17.58090597800579
 11
327.6515454374589
 21
17.54016657673336
 97
        0
 75
     0
 76
     1
 98
        0
  0
HATCH
  5
ED
330
1F
100
AcDbEntity
  8
15
  6
Continuous
 62
    96
370
     9
100
AcDbHatch
 10
0.0
 20
0.0
 30
0.0
210
0.0
220
0.0
230
1.0
  2
SOLID
 70
     1
 71
     0
 91
        1
 92
        0
 93
        8
 72
     1
 10
328.9668431825819
 20
20.94424959090641
 11
333.0191872903828
 21
20.94424959090641
 72
     1
 10
333.0191872903828
 20
20.94424959090641
 11
333.0191872903828
 21
19.7285479361701
 72
     1
 10
333.0191872903828
 20
19.7285479361701
 11
331.7021809206185
 21
19.7285479361701
 72
     1
 10
331.7021809206185
 20
19.7285479361701
 11
331.7021809206185
 21
15.8788200195852
 72
     1
 10
331.7021809206185
 20
15.8788200195852
 11
330.2838585672263
 21
15.8788200195852
 72
     1
 10
330.2838585672263
 20
15.8788200195852
 11
330.2838585672263
 21
19.7285479361701
 72
     1
 10
330.2838585672263
 20
19.7285479361701
 11
328.9668431825819
 21
19.7285479361701
 72
     1
 10
328.9668431825819
 20
19.7285479361701
 11
328.9668431825819
 21
20.94424959090641
 97
        0
 75
     0
 76
     1
 98
        0
  0
LINE
  5
EE
330
1F
100
AcDbEntity
  8
15
  6
Continuous
 62
    96
370
    30
100
AcDbLine
 10
317.5461845782916
 20
15.8788200195852
 30
0.0
 11
322.4830935115883
 21
20.76684801930621
 31
0.0
  0
LINE
  5
EF
330
1F
100
AcDbEntity
  8
15
  6
Continuous
 62
    96
370
    30
100
AcDbLine
 10
322.4830935115883
 20
20.76684801930621
 30
0.0
 11
322.4830935115883
 21
18.00630016909371
 31
0.0
  0
LINE
  5
F0
330
1F
100
AcDbEntity
  8
15
  6
Continuous
 62
    96
370
    30
100
AcDbLine
 10
322.4830935115883
 20
18.00630016909371
 30
0.0
 11
320.2543041396118
 21
18.00630016909371
 31
0.0
  0
LINE
  5
F1
330
1F
100
AcDbEntity
  8
15
  6
Continuous
 62
    96
370
    30
100
AcDbLine
 10
324.6105714073767
 20
18.71546021892986
 30
0.0
 11
327.6498345590976
 21
15.8788200195852
 31
0.0
  0
ARC
  5
F2
330
1F
100
AcDbEntity
  8
15
  6
Continuous
 62
    96
370
    30
100
AcDbCircle
 10
327.0419814780093
 20
19.22200407754995
 30
0.0
 40
0.5065438586201266
100
AcDbArc
 50
270.0000000949009
 51
89.99999990509872
  0
LINE
  5
F3
330
1F
100
AcDbEntity
  8
15
  6
Continuous
 62
    96
370
    30
100
AcDbLine
 10
324.6105714073767
 20
18.71546021892986
 30
0.0
 11
327.0419814780093
 21
18.71546021892986
 31
0.0
  0
LINE
  5
F4
330
1F
100
AcDbEntity
  8
15
  6
Continuous
 62
    96
370
    30
100
AcDbLine
 10
325.0158082972491
 20
19.7285479361701
 30
0.0
 11
327.0419814780093
 21
19.7285479361701
 31
0.0
  0
LINE
  5
F5
330
1F
100
AcDbEntity
  8
15
  6
Continuous
 62
    96
370
    30
100
AcDbLine
 10
325.0158082972491
 20
20.94424959090641
 30
0.0
 11
325.0158082972491
 21
19.7285479361701
 31
0.0
  0
LINE
  5
F6
330
1F
100
AcDbEntity
  8
15
  6
Continuous
 62
    96
370
    30
100
AcDbLine
 10
325.0158082972491
 20
20.94424959090641
 30
0.0
 11
327.4258891615854
 21
20.94424959090641
 31
0.0
  0
ARC
  5
F7
330
1F
100
AcDbEntity
  8
15
  6
Continuous
 62
    96
370
    30
100
AcDbCircle
 10
327.2339330660773
 20
19.22200407754995
 30
0.0
 40
1.732910116504613
100
AcDbArc
 50
283.9448466306301
 51
83.64029606427442
  0
LINE
  5
F8
330
1F
100
AcDbEntity
  8
15
  6
Continuous
 62
    96
370
    30
100
AcDbLine
 10
327.6498345590976
 20
17.54176339797981
 30
0.0
 11
329.4315579975776
 21
15.8788200195852
 31
0.0
  0
LINE
  5
F9
330
1F
100
AcDbEntity
  8
15
  6
Continuous
 62
    96
370
    30
100
AcDbLine
 10
333.0191872903828
 20
20.94424959090641
 30
0.0
 11
328.9668431825819
 21
20.94424959090641
 31
0.0
  0
LINE
  5
FA
330
1F
100
AcDbEntity
  8
15
  6
Continuous
 62
    96
370
    30
100
AcDbLine
 10
328.9668431825819
 20
20.94424959090641
 30
0.0
 11
328.9668431825819
 21
19.7285479361701
 31
0.0
  0
LINE
  5
FB
330
1F
100
AcDbEntity
  8
15
  6
Continuous
 62
    96
370
    30
100
AcDbLine
 10
328.9668431825819
 20
19.7285479361701
 30
0.0
 11
330.2838585672263
 21
19.7285479361701
 31
0.0
  0
LINE
  5
FC
330
1F
100
AcDbEntity
  8
15
  6
Continuous
 62
    96
370
    30
100
AcDbLine
 10
330.2838585672263
 20
19.7285479361701
 30
0.0
 11
330.2838585672263
 21
15.8788200195852
 31
0.0
  0
LINE
  5
FD
330
1F
100
AcDbEntity
  8
15
  6
Continuous
 62
    96
370
     9
100
AcDbLine
 10
310.0869986779355
 20
51.01062362946588
 30
0.0
 11
400.1135406474743
 21
51.01062362946588
 31
0.0
  0
LINE
  5
FE
330
1F
100
AcDbEntity
  8
15
  6
Continuous
 62
    96
370
     9
100
AcDbLine
 10
310.0869986779353
 20
51.01061678781578
 30
0.0
 11
400.1135406474743
 21
51.01062362946588
 31
0.0
  0
LINE
  5
FF
330
1F
100
AcDbEntity
  8
15
  6
Continuous
 62
    96
370
     9
100
AcDbLine
 10
400.1135406474743
 20
27.003545770922
 30
0.0
 11
310.0869986779353
 21
27.0035389292719
 31
0.0
  0
LINE
  5
100
330
1F
100
AcDbEntity
  8
15
  6
Continuous
 62
    96
370
     9
100
AcDbLine
 10
325.091422339525
 20
33.0053095570981
 30
0.0
 11
325.091422339525
 21
27.00354006954693
 31
0.0
  0
LINE
  5
101
330
1F
100
AcDbEntity
  8
15
  6
Continuous
 62
    96
370
     9
100
AcDbLine
 10
324.6105714073767
 20
15.8788200195852
 30
0.0
 11
324.6105714073767
 21
26.00968141594755
 31
0.0
  0
LINE
  5
102
330
1F
100
AcDbEntity
  8
15
  6
Continuous
 62
    96
370
     9
100
AcDbLine
 10
324.6105714073767
 20
26.00968141594755
 30
0.0
 11
314.3783985348264
 21
15.8788200195852
 31
0.0
  0
HATCH
  5
103
330
1F
100
AcDbEntity
  8
15
  6
Continuous
 62
    96
370
     9
100
AcDbHatch
 10
0.0
 20
0.0
 30
0.0
210
0.0
220
0.0
230
1.0
  2
SOLID
 70
     1
 71
     0
 91
        1
 92
        0
 93
        8
 72
     1
 10
314.3783985348264
 20
15.8788200195852
 11
317.5461845782916
 21
15.8788200195852
 72
     1
 10
317.5461845782916
 20
15.8788200195852
 11
322.4830935115883
 21
20.76684801930621
 72
     1
 10
322.4830935115883
 20
20.76684801930621
 11
322.4830935115883
 21
18.00630016909371
 72
     1
 10
322.4830935115883
 20
18.00630016909371
 11
320.2543041396118
 21
18.00630016909371
 72
     1
 10
320.2543041396118
 20
18.00630016909371
 11
320.2543041396118
 21
15.8788200195852
 72
     1
 10
320.2543041396118
 20
15.8788200195852
 11
324.6105714073767
 21
15.8788200195852
 72
     1
 10
324.6105714073767
 20
15.8788200195852
 11
324.6105714073767
 21
26.00968141594755
 72
     1
 10
324.6105714073767
 20
26.00968141594755
 11
314.3783985348264
 21
15.8788200195852
 97
        0
 75
     0
 76
     1
 98
        0
  0
INSERT
  5
108
330
1F
100
AcDbEntity
  8
0
100
AcDbBlockReference
  2
*G16
 10
0.0
 20
0.0
 30
0.0
  0
MTEXT
  5
109
330
1F
100
AcDbEntity
  8
15
  6
Continuous
 62
    96
370
     9
100
AcDbMText
 10
366.6124830486601
 20
15.38699227382203
 30
0.0
 40
10.00294910772661
 41
36.23230288924496
 71
     7
 72
     1
  1
{\fＭＳ ゴシック|b1;\W0.714286;アート}
 73
     1
 44
1.0
1001
ACAD
1000
ACAD_MTEXT_DEFINED_HEIGHT_BEGIN
1070
    46
1040
10.00294910772661
1000
ACAD_MTEXT_DEFINED_HEIGHT_END
  0
LINE
  5
10A
330
1F
100
AcDbEntity
  8
15
  6
Continuous
 62
    96
370
     9
100
AcDbLine
 10
325.091422339525
 20
42.00796259086182
 30
0.0
 11
325.091422339525
 21
33.0053095570981
 31
0.0
  0
LINE
  5
10B
330
1F
100
AcDbEntity
  8
15
  6
Continuous
 62
    96
370
     9
100
AcDbLine
 10
350.0987951088416
 20
42.00796259086182
 30
0.0
 11
350.0987951088416
 21
33.00531145755646
 31
0.0
  0
LINE
  5
10C
330
1F
100
AcDbEntity
  8
15
  6
Continuous
 62
    96
370
     9
100
AcDbLine
 10
375.1061678781582
 20
42.00796259086182
 30
0.0
 11
375.1061678781582
 21
33.00531335801482
 31
0.0
  0
LINE
  5
10D
330
1F
100
AcDbEntity
  8
15
  6
Continuous
 62
    96
370
    30
100
AcDbLine
 10
310.0869986779355
 20
266.5741700593244
 30
0.0
 11
400.1135406474743
 21
266.5741700593244
 31
0.0
  0
LINE
  5
10E
330
1F
100
AcDbEntity
  8
15
  6
Continuous
 62
    96
370
    30
100
AcDbLine
 10
310.0869986779355
 20
261.0725480500747
 30
0.0
 11
400.1135406474743
 21
261.0725480500747
 31
0.0
  0
LINE
  5
10F
330
1F
100
AcDbEntity
  8
15
  6
Continuous
 62
    96
370
     9
100
AcDbLine
 10
310.0869986779355
 20
255.570926040825
 30
0.0
 11
400.1135406474743
 21
255.570926040825
 31
0.0
  0
LINE
  5
110
330
1F
100
AcDbEntity
  8
15
  6
Continuous
 62
    96
370
     9
100
AcDbLine
 10
400.1135406474743
 20
250.0693040315754
 30
0.0
 11
310.0869986779355
 21
250.0693040315754
 31
0.0
  0
LINE
  5
111
330
1F
100
AcDbEntity
  8
15
  6
Continuous
 62
    96
370
    50
100
AcDbLine
 10
15.0
 20
272.0757920685739
 30
0.0
 11
400.1138000001353
 21
272.0757920685739
 31
0.0
  0
LINE
  5
112
330
1F
100
AcDbEntity
  8
15
  6
Continuous
 62
    96
370
    50
100
AcDbLine
 10
400.1138
 20
14.99967714084742
 30
0.0
 11
400.1138
 21
272.0754692329934
 31
0.0
  0
LINE
  5
113
330
1F
100
AcDbEntity
  8
15
  6
Continuous
 62
    96
370
     9
100
AcDbLine
 10
310.0864776184603
 20
59.51312352938341
 30
0.0
 11
400.1130195879993
 21
59.51312352938341
 31
0.0
  0
LINE
  5
114
330
1F
100
AcDbEntity
  8
15
  6
Continuous
 62
    96
370
     9
100
AcDbLine
 10
334.9526569180789
 20
272.0757920685739
 30
0.0
 11
334.9526569180789
 21
266.5741700593245
 31
0.0
  0
LINE
  5
115
330
1F
100
AcDbEntity
  8
15
  6
Continuous
 62
    96
370
    30
100
AcDbLine
 10
310.0864776184603
 20
65.01474553863302
 30
0.0
 11
400.1130195879991
 21
65.01474553863297
 31
0.0
  0
LINE
  5
116
330
1F
100
AcDbEntity
  8
15
  6
Continuous
 62
    96
370
    30
100
AcDbLine
 10
310.0864776184603
 20
59.51312352938341
 30
0.0
 11
400.1130195879991
 21
59.51312352938335
 31
0.0
  0
LINE
  5
117
330
1F
100
AcDbEntity
  8
15
  6
Continuous
 62
    96
370
     9
100
AcDbLine
 10
335.0938503877764
 20
65.01474553863297
 30
0.0
 11
335.0938503877764
 21
59.51312352938335
 31
0.0
  0
LINE
  5
118
330
1F
100
AcDbEntity
  8
15
  6
Continuous
 62
    96
370
    30
100
AcDbLine
 10
310.0864776184603
 20
59.51312352938335
 30
0.0
 11
400.1130195879991
 21
59.51312352938335
 31
0.0
  0
LINE
  5
119
330
1F
100
AcDbEntity
  8
15
  6
Continuous
 62
    96
370
     9
100
AcDbLine
 10
355.1205012327282
 20
33.00354235189898
 30
0.0
 11
355.1205012327282
 21
27.00354235189897
 31
0.0
  0
LINE
  5
11A
330
1F
100
AcDbEntity
  8
15
  6
Continuous
 62
    96
370
     9
100
AcDbLine
 10
362.1205012327282
 20
33.00354728819667
 30
0.0
 11
362.1205012327282
 21
27.00354726528823
 31
0.0
  0
LINE
  5
11B
330
1F
100
AcDbEntity
  8
15
  6
Continuous
 62
    96
370
     9
100
AcDbLine
 10
388.1135406474743
 20
33.00354485942938
 30
0.0
 11
388.1135406474743
 21
27.00354485897093
 31
0.0
  0
LINE
  5
11C
330
1F
100
AcDbEntity
  8
15
  6
Continuous
 62
    96
370
     9
100
AcDbLine
 10
391.1642299747732
 20
32.24354485920015
 30
0.0
 11
391.1642299747732
 21
27.76354485920016
 31
0.0
  0
CIRCLE
  5
11D
330
1F
100
AcDbEntity
  8
15
  6
Continuous
 62
    96
370
     9
100
AcDbCircle
 10
391.1642299747732
 20
30.00354485920015
 30
0.0
 40
0.9599999999999795
  0
CIRCLE
  5
11E
330
1F
100
AcDbEntity
  8
15
  6
Continuous
 62
    96
370
     9
100
AcDbCircle
 10
391.1642299747732
 20
30.00354485920015
 30
0.0
 40
1.600000000000023
  0
LINE
  5
11F
330
1F
100
AcDbEntity
  8
15
  6
Continuous
 62
    96
370
     9
100
AcDbLine
 10
393.803501232728
 20
30.96354485920015
 30
0.0
 11
393.803501232728
 21
29.04354485920016
 31
0.0
  0
LINE
  5
120
330
1F
100
AcDbEntity
  8
15
  6
Continuous
 62
    96
370
     9
100
AcDbLine
 10
398.9235012327281
 20
31.60354485920016
 30
0.0
 11
398.9235012327281
 21
28.40354485920015
 31
0.0
  0
LINE
  5
121
330
1F
100
AcDbEntity
  8
15
  6
Continuous
 62
    96
370
     9
100
AcDbLine
 10
393.803501232728
 20
30.96354485920015
 30
0.0
 11
398.9235012327281
 21
31.60354485920016
 31
0.0
  0
LINE
  5
122
330
1F
100
AcDbEntity
  8
15
  6
Continuous
 62
    96
370
     9
100
AcDbLine
 10
393.803501232728
 20
29.04354485920016
 30
0.0
 11
398.9235012327281
 21
28.40354485920015
 31
0.0
  0
LINE
  5
123
330
1F
100
AcDbEntity
  8
15
  6
Continuous
 62
    96
370
     9
100
AcDbLine
 10
388.9242299747732
 20
30.00354485920015
 30
0.0
 11
399.4695012327281
 21
30.00354485920015
 31
0.0
  0
LINE
  5
124
330
1F
100
AcDbEntity
  8
15
  6
Continuous
 62
    96
370
     9
100
AcDbLine
 10
400.1138
 20
33.005315235558
 30
0.0
 11
310.0869986779353
 21
33.0053083939079
 31
0.0
  0
LINE
  5
125
330
1F
100
AcDbEntity
  8
15
  6
Continuous
 62
    96
370
     9
100
AcDbLine
 10
310.0869986779353
 20
42.00796259086182
 30
0.0
 11
400.1138
 21
42.00796259086182
 31
0.0
  0
LINE
  5
126
330
1F
100
AcDbEntity
  8
15
  6
Continuous
 62
    96
370
     9
100
AcDbLine
 10
322.5198277980072
 20
244.5676820223258
 30
0.0
 11
400.1135406474743
 21
244.5676820223258
 31
0.0
  0
LINE
  5
127
330
1F
100
AcDbEntity
  8
15
  6
Continuous
 62
    96
370
     9
100
AcDbLine
 10
322.5198277980072
 20
239.0660600130761
 30
0.0
 11
400.1135406474743
 21
239.0660600130761
 31
0.0
  0
LINE
  5
128
330
1F
100
AcDbEntity
  8
15
  6
Continuous
 62
    96
370
    30
100
AcDbLine
 10
400.2589958481754
 20
145.4347964727817
 30
0.0
 11
400.2589958481754
 21
147.5668611356482
 31
0.0
  0
MTEXT
  5
129
330
1F
100
AcDbEntity
  8
15
  6
PHANTOM
 62
    96
370
     9
100
AcDbMText
 10
322.5906850625934
 20
269.3249810639492
 30
0.0
 40
3.0
 41
20.35185121990866
 71
     5
 72
     1
  1
{\fＭＳ ゴシック;\W0.714286;\T1.133333;商品コード}
 73
     1
 44
1.0
1001
ACAD
1000
ACAD_MTEXT_DEFINED_HEIGHT_BEGIN
1070
    46
1040
3.0
1000
ACAD_MTEXT_DEFINED_HEIGHT_END
  0
MTEXT
  5
12A
330
1F
100
AcDbEntity
  8
15
  6
PHANTOM
 62
    96
370
     9
100
AcDbMText
 10
355.1002696627052
 20
263.8233590546995
 30
0.0
 40
3.0
 41
28.82073328990299
 71
     5
 72
     1
  1
{\fＭＳ ゴシック;\W0.714286;\T1.133333;定　　　　　格}
 73
     1
 44
1.0
1001
ACAD
1000
ACAD_MTEXT_DEFINED_HEIGHT_BEGIN
1070
    46
1040
3.0
1000
ACAD_MTEXT_DEFINED_HEIGHT_END
  0
MTEXT
  5
12B
330
1F
100
AcDbEntity
  8
15
  6
PHANTOM
 62
    96
370
     9
100
AcDbMText
 10
322.5906850625934
 20
258.3217370454499
 30
0.0
 40
3.0
 41
11.98946919251433
 71
     5
 72
     1
  1
{\fＭＳ ゴシック;\W0.714286;\T1.133333;材　質}
 73
     1
 44
1.0
1001
ACAD
1000
ACAD_MTEXT_DEFINED_HEIGHT_BEGIN
1070
    46
1040
3.0
1000
ACAD_MTEXT_DEFINED_HEIGHT_END
  0
MTEXT
  5
12C
330
1F
100
AcDbEntity
  8
15
  6
PHANTOM
 62
    96
370
     9
100
AcDbMText
 10
322.5906850625936
 20
252.8201150362002
 30
0.0
 40
3.0
 41
11.87992629155433
 71
     5
 72
     1
  1
{\fＭＳ ゴシック;\W0.714286;\T1.133333;仕　上}
 73
     1
 44
1.0
1001
ACAD
1000
ACAD_MTEXT_DEFINED_HEIGHT_BEGIN
1070
    46
1040
3.0
1000
ACAD_MTEXT_DEFINED_HEIGHT_END
  0
MTEXT
  5
12D
330
1F
100
AcDbEntity
  8
15
  6
PHANTOM
 62
    96
370
     9
100
AcDbMText
 10
328.7840850625934
 20
241.672821017701
 30
0.0
 40
3.0
 41
12.01989777611433
 71
     5
 72
     1
  1
{\fＭＳ ゴシック;\W0.714286;\T1.133333;パネル}
 73
     1
 44
1.0
1001
ACAD
1000
ACAD_MTEXT_DEFINED_HEIGHT_BEGIN
1070
    46
1040
3.0
1000
ACAD_MTEXT_DEFINED_HEIGHT_END
  0
MTEXT
  5
12E
330
1F
100
AcDbEntity
  8
15
  6
PHANTOM
 62
    96
370
     9
100
AcDbMText
 10
316.2537270984771
 20
241.751242366159
 30
0.0
 40
3.0
 41
11.88296914991433
 71
     5
 72
     1
  1
{\fＭＳ ゴシック;\W0.714286;\T1.133333;彩　色}
 73
     1
 44
1.0
1001
ACAD
1000
ACAD_MTEXT_DEFINED_HEIGHT_BEGIN
1070
    46
1040
3.0
1000
ACAD_MTEXT_DEFINED_HEIGHT_END
  0
MTEXT
  5
12F
330
1F
100
AcDbEntity
  8
15
  6
PHANTOM
 62
    96
370
     9
100
AcDbMText
 10
328.7840850625934
 20
247.1744430269506
 30
0.0
 40
3.0
 41
12.01989777611433
 71
     5
 72
     1
  1
{\fＭＳ ゴシック;\W0.714286;\T1.133333;本　体}
 73
     1
 44
1.0
1001
ACAD
1000
ACAD_MTEXT_DEFINED_HEIGHT_BEGIN
1070
    46
1040
3.0
1000
ACAD_MTEXT_DEFINED_HEIGHT_END
  0
MTEXT
  5
130
330
1F
100
AcDbEntity
  8
15
  6
Continuous
 62
    96
370
     9
100
AcDbMText
 10
310.6888523834452
 20
47.92169392634448
 30
0.0
 40
2.5
 41
9.404844243936193
 71
     7
 72
     1
  1
{\fＭＳ ゴシック;\W0.714286;\T1.080024;製品名}
 73
     1
 44
1.0
1001
ACAD
1000
ACAD_MTEXT_DEFINED_HEIGHT_BEGIN
1070
    46
1040
2.5
1000
ACAD_MTEXT_DEFINED_HEIGHT_END
  0
MTEXT
  5
131
330
1F
100
AcDbEntity
  8
15
  6
Continuous
 62
    96
370
     9
100
AcDbMText
 10
310.6029813239701
 20
56.47139829529964
 30
0.0
 40
2.5
 41
9.964955414551998
 71
     7
 72
     1
  1
{\fＭＳ ゴシック;\W0.714286;\T1.160000;型　式}
 73
     1
 44
1.0
1001
ACAD
1000
ACAD_MTEXT_DEFINED_HEIGHT_BEGIN
1070
    46
1040
2.5
1000
ACAD_MTEXT_DEFINED_HEIGHT_END
  0
MTEXT
  5
132
330
1F
100
AcDbEntity
  8
15
  6
Continuous
 62
    96
370
     9
100
AcDbMText
 10
322.5901640031183
 20
62.26393453400821
 30
0.0
 40
3.0
 41
16.00786728395149
 71
     5
 72
     1
  1
{\fＭＳ ゴシック;\W0.714286;\T1.133333;図面履歴}
 73
     1
 44
1.0
1001
ACAD
1000
ACAD_MTEXT_DEFINED_HEIGHT_BEGIN
1070
    46
1040
3.0
1000
ACAD_MTEXT_DEFINED_HEIGHT_END
  0
MTEXT
  5
133
330
1F
100
AcDbEntity
  8
15
  6
Continuous
 62
    96
370
     9
100
AcDbMText
 10
311.5851473982335
 20
28.4813332415864
 30
0.0
 40
3.0
 41
15.99265299215149
 71
     7
 72
     1
  1
{\fＭＳ ゴシック;\W0.714286;\T1.133333;図面番号}
 73
     1
 44
1.0
1001
ACAD
1000
ACAD_MTEXT_DEFINED_HEIGHT_BEGIN
1070
    46
1040
3.0
1000
ACAD_MTEXT_DEFINED_HEIGHT_END
  0
MTEXT
  5
134
330
1F
100
AcDbEntity
  8
15
  6
Continuous
 62
    96
370
     9
100
AcDbMText
 10
355.4136674843991
 20
28.47207959304369
 30
0.0
 40
3.0
 41
7.167756494037164
 71
     7
 72
     1
  1
{\fＭＳ ゴシック;\W0.714286;\T1.133333;日付}
 73
     1
 44
1.0
1001
ACAD
1000
ACAD_MTEXT_DEFINED_HEIGHT_BEGIN
1070
    46
1040
3.0
1000
ACAD_MTEXT_DEFINED_HEIGHT_END
  0
MTEXT
  5
135
330
1F
100
AcDbEntity
  8
15
  6
Continuous
 62
    96
370
     9
100
AcDbMText
 10
376.1601203199345
 20
38.85586965602617
 30
0.0
 40
2.5
 41
6.351763969276001
 71
     7
 72
     1
  1
{\fＭＳ ゴシック;\W0.714286;\T1.160000;作図}
 73
     1
 44
1.0
1001
ACAD
1000
ACAD_MTEXT_DEFINED_HEIGHT_BEGIN
1070
    46
1040
2.5
1000
ACAD_MTEXT_DEFINED_HEIGHT_END
  0
MTEXT
  5
136
330
1F
100
AcDbEntity
  8
15
  6
Continuous
 62
    96
370
     9
100
AcDbMText
 10
350.8194544969675
 20
38.8652185698709
 30
0.0
 40
2.5
 41
6.377121122276
 71
     7
 72
     1
  1
{\fＭＳ ゴシック;\W0.714286;\T1.160000;検図}
 73
     1
 44
1.0
1001
ACAD
1000
ACAD_MTEXT_DEFINED_HEIGHT_BEGIN
1070
    46
1040
2.5
1000
ACAD_MTEXT_DEFINED_HEIGHT_END
  0
MTEXT
  5
137
330
1F
100
AcDbEntity
  8
15
  6
Continuous
 62
    96
370
     9
100
AcDbMText
 10
325.8025817276509
 20
38.71351856987091
 30
0.0
 40
2.5
 41
6.582514061575999
 71
     7
 72
     1
  1
{\fＭＳ ゴシック;\W0.714286;\T1.160000;承認}
 73
     1
 44
1.0
1001
ACAD
1000
ACAD_MTEXT_DEFINED_HEIGHT_BEGIN
1070
    46
1040
2.5
1000
ACAD_MTEXT_DEFINED_HEIGHT_END
  0
MTEXT
  5
138
330
1F
100
AcDbEntity
  8
15
  6
Continuous
 62
    96
370
     9
100
AcDbMText
 10
310.832990375837
 20
38.74867546350942
 30
0.0
 40
2.5
 41
17.4076855345
 71
     7
 72
     1
  1
{\fＭＳ ゴシック;\W0.714286;縮尺（Ａ３）}
 73
     1
 44
1.0
1001
ACAD
1000
ACAD_MTEXT_DEFINED_HEIGHT_BEGIN
1070
    46
1040
2.5
1000
ACAD_MTEXT_DEFINED_HEIGHT_END
  0
MTEXT
  5
139
330
1F
100
AcDbEntity
  8
15
  6
Continuous
 62
    96
370
     9
100
AcDbMText
 10
312.921864369629
 20
34.51520818547711
 30
0.0
 40
3.0
 41
9.567353937954328
 71
     7
 72
     1
  1
{\fＭＳ ゴシック;\W0.714286;\T1.133333;１：１}
 73
     1
 44
1.0
1001
ACAD
1000
ACAD_MTEXT_DEFINED_HEIGHT_BEGIN
1070
    46
1040
3.0
1000
ACAD_MTEXT_DEFINED_HEIGHT_END
  0
MTEXT
  5
13A
330
1F
100
AcDbEntity
  8
15
  6
Continuous
 62
    96
370
     9
100
AcDbMText
 10
193.0700648570012
 20
26.934528600542
 30
0.0
 40
3.0
 41
140.7358262052152
 71
     7
 72
     1
  1
{\fＭＳ ゴシック;\W0.714286;\T1.133333;＊　FeliCaは、ソニー株式会社が開発した非接触ICカードの技術方式です。}
 73
     1
 44
1.0
1001
ACAD
1000
ACAD_MTEXT_DEFINED_HEIGHT_BEGIN
1070
    46
1040
3.0
1000
ACAD_MTEXT_DEFINED_HEIGHT_END
  0
MTEXT
  5
13B
330
1F
100
AcDbEntity
  8
15
  6
Continuous
 62
    96
370
     9
100
AcDbMText
 10
193.0700648570012
 20
22.934528600542
 30
0.0
 40
3.0
 41
89.841594411652
 71
     7
 72
     1
  1
{\fＭＳ ゴシック;\W0.714286;\T1.133333;＊　FeliCaは、ソニー株式会社の登録商標です。}
 73
     1
 44
1.0
1001
ACAD
1000
ACAD_MTEXT_DEFINED_HEIGHT_BEGIN
1070
    46
1040
3.0
1000
ACAD_MTEXT_DEFINED_HEIGHT_END
  0
MTEXT
  5
13C
330
1F
100
AcDbEntity
  8
15
  6
Continuous
 62
    96
370
     9
100
AcDbMText
 10
193.0700648570012
 20
18.934528600542
 30
0.0
 40
3.0
 41
148.1202361908209
 71
     7
 72
     1
  1
{\fＭＳ ゴシック;\W0.714286;\T1.133333;＊　その他記載されている会社名、製品名は、各社の登録商標または商標です。}
 73
     1
 44
1.0
1001
ACAD
1000
ACAD_MTEXT_DEFINED_HEIGHT_BEGIN
1070
    46
1040
3.0
1000
ACAD_MTEXT_DEFINED_HEIGHT_END
  0
DIMENSION
  5
147
330
1F
100
AcDbEntity
  8
2
  6
Continuous
 62
   214
370
     9
100
AcDbDimension
  2
Dim1
 10
41.84476180171211
 20
95.85089999999998
 30
0.0
 11
38.844761801712
 21
170.8509
 31
0.0
 70
   160
  1
<>
 71
     5
 42
-1.0
 53
89.99999999999991
  3
Standard
100
AcDbAlignedDimension
 13
55.90139475000021
 23
245.8509
 33
0.0
 14
53.844761801712
 24
95.85089999999995
 34
0.0
 50
-89.99999999999991
100
AcDbRotatedDimension
1001
ACAD
1000
DSTYLE
1002
{
1070
   279
1070
     2
1070
   340
1005
13D
1070
   140
1040
5.0
1070
    40
1040
1.0
1070
   147
1040
0.0
1070
    76
1070
     0
1070
    75
1070
     0
1070
   344
1005
7C
1070
   343
1005
7C
1070
   173
1070
     1
1070
   289
1070
     2
1070
   288
1070
     1
1070
    77
1070
     1
1070
   172
1070
     1
1070
   174
1070
     0
1070
    74
1070
     0
1070
    73
1070
     0
1070
   284
1070
     8
1070
    78
1070
     8
1070
    42
1040
2.0
1070
    44
1040
2.0
1070
    43
1040
10.0
1070
   271
1070
     2
1070
    41
1040
2.4
1002
}
  0
DIMENSION
  5
151
330
1F
100
AcDbEntity
  8
2
  6
Continuous
 62
   214
370
     9
100
AcDbDimension
  2
Dim2
 10
161.8447618017121
 20
255.8509
 30
0.0
 11
106.8447618017121
 21
258.8509
 31
0.0
 70
   160
  1
<>
 71
     5
 42
-1.0
  3
Standard
100
AcDbAlignedDimension
 13
51.844761801712
 23
237.9451790337463
 33
0.0
 14
161.844761801712
 24
240.6684452846833
 34
0.0
100
AcDbRotatedDimension
1001
ACAD
1000
DSTYLE
1002
{
1070
   279
1070
     2
1070
   340
1005
13D
1070
   140
1040
5.0
1070
    40
1040
1.0
1070
   147
1040
0.0
1070
    76
1070
     0
1070
    75
1070
     0
1070
   344
1005
7C
1070
   343
1005
7C
1070
   173
1070
     1
1070
   289
1070
     2
1070
   288
1070
     1
1070
    77
1070
     1
1070
   172
1070
     1
1070
   174
1070
     0
1070
    74
1070
     0
1070
    73
1070
     0
1070
   284
1070
     8
1070
    78
1070
     8
1070
    42
1040
2.0
1070
    44
1040
2.0
1070
    43
1040
10.0
1070
   271
1070
     2
1070
    41
1040
2.4
1002
}
  0
DIMENSION
  5
15B
330
1F
100
AcDbEntity
  8
2
  6
Continuous
 62
   214
370
     9
100
AcDbDimension
  2
Dim3
 10
31.844761801712
 20
76.35090000000007
 30
0.0
 11
28.844761801712
 21
54.35090000000022
 31
0.0
 70
   160
  1
<>
 71
     5
 42
-1.0
  3
Standard
100
AcDbAlignedDimension
 13
59.34476180171211
 23
32.35090000000027
 33
0.0
 14
59.34476180171211
 24
76.35089999999998
 34
0.0
 50
89.99999999999991
100
AcDbRotatedDimension
1001
ACAD
1000
DSTYLE
1002
{
1070
   279
1070
     2
1070
   340
1005
13D
1070
   140
1040
5.0
1070
    40
1040
1.0
1070
   147
1040
0.0
1070
    76
1070
     0
1070
    75
1070
     0
1070
   344
1005
7C
1070
   343
1005
7C
1070
   173
1070
     1
1070
   289
1070
     2
1070
   288
1070
     1
1070
    77
1070
     1
1070
   172
1070
     1
1070
   174
1070
     0
1070
    74
1070
     0
1070
    73
1070
     0
1070
   284
1070
     8
1070
    78
1070
     8
1070
    42
1040
2.0
1070
    44
1040
2.0
1070
    43
1040
10.0
1070
   271
1070
     2
1070
    41
1040
2.4
1002
}
  0
DIMENSION
  5
165
330
1F
100
AcDbEntity
  8
2
  6
Continuous
 62
   214
370
     9
100
AcDbDimension
  2
Dim4
 10
31.844761801712
 20
86.35090000000011
 30
0.0
 11
28.844761801712
 21
81.3509000000001
 31
0.0
 70
   160
  1
<>
 71
     5
 42
-1.0
  3
Standard
100
AcDbAlignedDimension
 13
51.84476180171239
 23
76.3509
 33
0.0
 14
65.59510544536116
 24
86.35089999999998
 34
0.0
 50
89.99999999999991
100
AcDbRotatedDimension
1001
ACAD
1000
DSTYLE
1002
{
1070
   279
1070
     2
1070
   340
1005
13D
1070
   140
1040
5.0
1070
    40
1040
1.0
1070
   147
1040
0.0
1070
    76
1070
     0
1070
    75
1070
     0
1070
   344
1005
7C
1070
   343
1005
7C
1070
   173
1070
     1
1070
   289
1070
     2
1070
   288
1070
     1
1070
    77
1070
     1
1070
   172
1070
     1
1070
   174
1070
     0
1070
    74
1070
     0
1070
    73
1070
     0
1070
   284
1070
     8
1070
    78
1070
     8
1070
    42
1040
2.0
1070
    44
1040
2.0
1070
    43
1040
10.0
1070
   271
1070
     2
1070
    41
1040
2.4
1002
}
  0
LINE
  5
166
330
1F
100
AcDbEntity
  8
1
  6
Continuous
 62
     7
370
    30
100
AcDbLine
 10
59.34476180171228
 20
76.35090000000027
 30
0.0
 11
154.3447618017122
 21
76.3508999999997
 31
0.0
  0
LINE
  5
167
330
1F
100
AcDbEntity
  8
1
  6
Continuous
 62
     7
370
    30
100
AcDbLine
 10
51.84476180171239
 20
76.35089999999998
 30
0.0
 11
161.8447618017125
 21
76.35089999999998
 31
0.0
  0
LINE
  5
168
330
1F
100
AcDbEntity
  8
1
  6
Continuous
 62
     7
370
    30
100
AcDbLine
 10
61.96786742171233
 20
86.35089999999998
 30
0.0
 11
151.8447618017124
 21
86.35089999999998
 31
0.0
  0
LINE
  5
169
330
1F
100
AcDbEntity
  8
1
  6
Continuous
 62
     7
370
    30
100
AcDbLine
 10
161.8447618017125
 20
76.35089999999998
 30
0.0
 11
161.8447618017125
 21
83.07012359999983
 31
0.0
  0
LINE
  5
16A
330
1F
100
AcDbEntity
  8
1
  6
Continuous
 62
     7
370
    30
100
AcDbLine
 10
51.84476180171239
 20
76.35089999999998
 30
0.0
 11
51.84476180171239
 21
83.07012359999983
 31
0.0
  0
LINE
  5
16B
330
1F
100
AcDbEntity
  8
1
  6
Continuous
 62
     7
370
    30
100
AcDbLine
 10
61.72533180171243
 20
86.32104249999982
 30
0.0
 11
52.60222617171237
 21
84.0402660999999
 31
0.0
  0
LINE
  5
16C
330
1F
100
AcDbEntity
  8
1
  6
Continuous
 62
     7
370
    30
100
AcDbLine
 10
151.8447618017124
 20
86.35089999999998
 30
0.0
 11
161.0872974217125
 21
84.0402660999999
 31
0.0
  0
ARC
  5
16D
330
1F
100
AcDbEntity
  8
1
  6
Continuous
 62
     7
370
    30
100
AcDbCircle
 10
160.8447618017124
 20
83.07012359999983
 30
0.0
 40
1.0
100
AcDbArc
 50
0.0
 51
75.96375652999923
  0
ARC
  5
16E
330
1F
100
AcDbEntity
  8
1
  6
Continuous
 62
     7
370
    30
100
AcDbCircle
 10
52.84476180171239
 20
83.07012359999983
 30
0.0
 40
1.0
100
AcDbArc
 50
104.0362434699992
 51
179.9999999999998
  0
ARC
  5
16F
330
1F
100
AcDbEntity
  8
1
  6
Continuous
 62
     7
370
    30
100
AcDbCircle
 10
61.96786742171233
 20
85.35089999999998
 30
0.0
 40
1.0
100
AcDbArc
 50
89.99999999999991
 51
104.0362434699961
  0
ARC
  5
170
330
1F
100
AcDbEntity
  8
1
  6
Continuous
 62
     7
370
    30
100
AcDbCircle
 10
151.7216561717125
 20
85.35089999999998
 30
0.0
 40
1.0
100
AcDbArc
 50
75.96375653000396
 51
89.99999999999991
  0
LINE
  5
171
330
1F
100
AcDbEntity
  8
1
  6
Continuous
 62
     7
370
    30
100
AcDbLine
 10
149.844761801712
 20
103.8509
 30
0.0
 11
149.844761801712
 21
237.8509
 31
0.0
  0
LINE
  5
172
330
1F
100
AcDbEntity
  8
1
  6
Continuous
 62
     7
370
    30
100
AcDbLine
 10
53.844761801712
 20
245.8509
 30
0.0
 11
159.844761801712
 21
245.8509
 31
0.0
  0
LINE
  5
173
330
1F
100
AcDbEntity
  8
1
  6
Continuous
 62
     7
370
    30
100
AcDbLine
 10
51.844761801712
 20
243.8509
 30
0.0
 11
51.844761801712
 21
97.85089999999995
 31
0.0
  0
LINE
  5
174
330
1F
100
AcDbEntity
  8
1
  6
Continuous
 62
     7
370
    30
100
AcDbLine
 10
53.844761801712
 20
95.85089999999995
 30
0.0
 11
159.844761801712
 21
95.85089999999995
 31
0.0
  0
LINE
  5
175
330
1F
100
AcDbEntity
  8
1
  6
Continuous
 62
     7
370
    30
100
AcDbLine
 10
161.844761801712
 20
97.85089999999995
 30
0.0
 11
161.844761801712
 21
243.8509
 31
0.0
  0
ARC
  5
176
330
1F
100
AcDbEntity
  8
1
  6
Continuous
 62
     7
370
    30
100
AcDbCircle
 10
53.844761801712
 20
243.8509
 30
0.0
 40
2.0
100
AcDbArc
 50
89.99999999999991
 51
179.9999999999998
  0
ARC
  5
177
330
1F
100
AcDbEntity
  8
1
  6
Continuous
 62
     7
370
    30
100
AcDbCircle
 10
159.844761801712
 20
243.8509
 30
0.0
 40
2.0
100
AcDbArc
 50
0.0
 51
89.99999999999991
  0
ARC
  5
178
330
1F
100
AcDbEntity
  8
1
  6
Continuous
 62
     7
370
    30
100
AcDbCircle
 10
159.844761801712
 20
97.85089999999995
 30
0.0
 40
2.0
100
AcDbArc
 50
269.9999999999998
 51
0.0
  0
ARC
  5
179
330
1F
100
AcDbEntity
  8
1
  6
Continuous
 62
     7
370
    30
100
AcDbCircle
 10
53.844761801712
 20
97.85089999999995
 30
0.0
 40
2.0
100
AcDbArc
 50
179.9999999999998
 51
269.9999999999998
  0
LINE
  5
17A
330
1F
100
AcDbEntity
  8
1
  6
Continuous
 62
     7
370
    30
100
AcDbLine
 10
151.844761801712
 20
96.85089999999995
 30
0.0
 11
151.844761801712
 21
244.8509
 31
0.0
  0
LINE
  5
17B
330
1F
100
AcDbEntity
  8
1
  6
Continuous
 62
     7
370
    30
100
AcDbLine
 10
61.844761801712
 20
96.85089999999995
 30
0.0
 11
61.844761801712
 21
244.8509
 31
0.0
  0
ARC
  5
17C
330
1F
100
AcDbEntity
  8
1
  6
Continuous
 62
     7
370
    30
100
AcDbCircle
 10
66.94476180171202
 20
237.7508999999999
 30
0.0
 40
3.0
100
AcDbArc
 50
89.99999999999991
 51
179.9999999999995
  0
LINE
  5
17D
330
1F
100
AcDbEntity
  8
1
  6
Continuous
 62
     7
370
    30
100
AcDbLine
 10
66.94476180171202
 20
240.7508999999999
 30
0.0
 11
146.7447618017119
 21
240.7509
 31
0.0
  0
LINE
  5
17E
330
1F
100
AcDbEntity
  8
1
  6
Continuous
 62
     7
370
    30
100
AcDbLine
 10
63.94476180171202
 20
103.9509
 30
0.0
 11
63.94476180171202
 21
237.7509
 31
0.0
  0
ARC
  5
17F
330
1F
100
AcDbEntity
  8
1
  6
Continuous
 62
     7
370
    30
100
AcDbCircle
 10
146.744761801712
 20
237.7509
 30
0.0
 40
3.0
100
AcDbArc
 50
0.0
 51
90.0000000000011
  0
LINE
  5
180
330
1F
100
AcDbEntity
  8
1
  6
Continuous
 62
     7
370
    30
100
AcDbLine
 10
149.744761801712
 20
237.7509
 30
0.0
 11
149.744761801712
 21
103.9508999999999
 31
0.0
  0
ARC
  5
181
330
1F
100
AcDbEntity
  8
1
  6
Continuous
 62
     7
370
    30
100
AcDbCircle
 10
146.744761801712
 20
103.9509
 30
0.0
 40
3.0
100
AcDbArc
 50
269.9999999999998
 51
359.9999999999991
  0
LINE
  5
182
330
1F
100
AcDbEntity
  8
1
  6
Continuous
 62
     7
370
    30
100
AcDbLine
 10
146.744761801712
 20
100.9509
 30
0.0
 11
66.94476180171202
 21
100.9509
 31
0.0
  0
ARC
  5
183
330
1F
100
AcDbEntity
  8
1
  6
Continuous
 62
     7
370
    30
100
AcDbCircle
 10
66.94476180171202
 20
103.9509
 30
0.0
 40
3.0
100
AcDbArc
 50
179.9999999999998
 51
269.9999999999998
  0
INSERT
  5
18F
330
1F
100
AcDbEntity
  8
0
100
AcDbBlockReference
  2
*G21
 10
0.0
 20
0.0
 30
0.0
  0
INSERT
  5
19B
330
1F
100
AcDbEntity
  8
0
100
AcDbBlockReference
  2
*G22
 10
0.0
 20
0.0
 30
0.0
  0
INSERT
  5
1A7
330
1F
100
AcDbEntity
  8
0
100
AcDbBlockReference
  2
*G23
 10
0.0
 20
0.0
 30
0.0
  0
INSERT
  5
1B3
330
1F
100
AcDbEntity
  8
0
100
AcDbBlockReference
  2
*G24
 10
0.0
 20
0.0
 30
0.0
  0
LINE
  5
1B4
330
1F
100
AcDbEntity
  8
1
  6
Continuous
 62
     7
370
    30
100
AcDbLine
 10
69.99490480171212
 20
182.5561218619462
 30
0.0
 11
70.59490480171198
 21
182.3575302416187
 31
0.0
  0
LINE
  5
1B5
330
1F
100
AcDbEntity
  8
1
  6
Continuous
 62
     7
370
    30
100
AcDbLine
 10
70.97262280171222
 20
182.2325110843462
 30
0.0
 11
71.57262280171207
 21
182.0339194640186
 31
0.0
  0
LINE
  5
1B6
330
1F
100
AcDbEntity
  8
1
  6
Continuous
 62
     7
370
    30
100
AcDbLine
 10
69.38942550734245
 20
183.9834978188318
 30
0.0
 11
69.57795823789778
 21
184.5531075874965
 31
0.0
  0
LINE
  5
1B7
330
1F
100
AcDbEntity
  8
1
  6
Continuous
 62
     7
370
    30
100
AcDbLine
 10
69.99490480171212
 20
183.7830927416635
 30
0.0
 11
69.38942550734245
 21
183.9834978188318
 31
0.0
  0
LINE
  5
1B8
330
1F
100
AcDbEntity
  8
1
  6
Continuous
 62
     7
370
    30
100
AcDbLine
 10
69.99490480171212
 20
183.7830927416635
 30
0.0
 11
69.99490480171212
 21
182.5561218619462
 31
0.0
  0
LINE
  5
1B9
330
1F
100
AcDbEntity
  8
1
  6
Continuous
 62
     7
370
    30
100
AcDbLine
 10
70.59490480171198
 20
182.3575302416187
 30
0.0
 11
70.59490480171198
 21
183.584501233384
 31
0.0
  0
LINE
  5
1BA
330
1F
100
AcDbEntity
  8
1
  6
Continuous
 62
     7
370
    30
100
AcDbLine
 10
70.97262280171222
 20
183.4594819211767
 30
0.0
 11
70.59490480171198
 21
183.584501233384
 31
0.0
  0
LINE
  5
1BB
330
1F
100
AcDbEntity
  8
1
  6
Continuous
 62
     7
370
    30
100
AcDbLine
 10
70.97262280171222
 20
183.4594819211767
 30
0.0
 11
70.97262280171222
 21
182.2325110843462
 31
0.0
  0
LINE
  5
1BC
330
1F
100
AcDbEntity
  8
1
  6
Continuous
 62
     7
370
    30
100
AcDbLine
 10
71.57262280171207
 20
182.0339194640186
 30
0.0
 11
71.57262280171207
 21
183.2608904128972
 31
0.0
  0
SPLINE
  5
1BD
330
1F
100
AcDbEntity
  8
1
  6
Continuous
 62
     7
370
    30
100
AcDbSpline
210
0.0
220
0.0
230
1.0
 70
    12
 71
     3
 72
    29
 73
    25
 74
     0
 42
0.000000001
 43
0.0000001
 40
0.0
 40
0.0
 40
0.0
 40
0.0
 40
1.0
 40
1.0
 40
1.0
 40
2.0
 40
2.0
 40
2.0
 40
3.0
 40
3.0
 40
3.0
 40
4.0
 40
4.0
 40
4.0
 40
5.0
 40
5.0
 40
5.0
 40
6.0
 40
6.0
 40
6.0
 40
7.0
 40
7.0
 40
7.0
 40
8.0
 40
8.0
 40
8.0
 40
8.0
 10
72.3441383016295
 20
183.637541020777
 30
0.0
 41
1.0
 10
72.37075403675767
 20
183.7151409847928
 30
0.0
 41
1.0
 10
72.39736977188586
 20
183.7927409488086
 30
0.0
 41
1.0
 10
72.42925004130333
 20
183.8681746848694
 30
0.0
 41
1.0
 10
72.54102103116304
 20
184.1326424419616
 30
0.0
 41
1.0
 10
72.72601646062105
 20
184.3278583612812
 30
0.0
 41
1.0
 10
72.80476495112865
 20
184.3885901718823
 30
0.0
 41
1.0
 10
73.2352532289763
 20
184.7226213997955
 30
0.0
 41
1.0
 10
73.62584863577025
 20
184.562456761892
 30
0.0
 41
1.0
 10
73.91150501950935
 20
184.2470973874929
 30
0.0
 41
1.0
 10
74.09692662653842
 20
184.0423962540993
 30
0.0
 41
1.0
 10
74.18021500672633
 20
183.8291574693915
 30
0.0
 41
1.0
 10
74.26529473062268
 20
183.4764935871871
 30
0.0
 41
1.0
 10
74.39940582043042
 20
182.9205874540023
 30
0.0
 41
1.0
 10
74.25115178191636
 20
182.0972059248309
 30
0.0
 41
1.0
 10
73.82194084984272
 20
181.7148080323963
 30
0.0
 41
1.0
 10
73.62544117683206
 20
181.5396851936376
 30
0.0
 41
1.0
 10
73.2703672897631
 20
181.357242484951
 30
0.0
 41
1.0
 10
72.85952497284089
 20
181.633712844414
 30
0.0
 41
1.0
 10
72.55075985021944
 20
181.841491841184
 30
0.0
 41
1.0
 10
72.30841019965693
 20
182.3601852228505
 30
0.0
 41
1.0
 10
72.27237530884761
 20
182.8337800735954
 30
0.0
 41
1.0
 10
72.2674048684464
 20
182.8999727288017
 30
0.0
 41
1.0
 10
72.26493945861516
 20
182.9662660711457
 30
0.0
 41
1.0
 10
72.2624740487839
 20
183.0325594134896
 30
0.0
 41
1.0
  0
LINE
  5
1BE
330
1F
100
AcDbEntity
  8
1
  6
Continuous
 62
     7
370
    30
100
AcDbLine
 10
69.57795823789778
 20
184.5531075874965
 30
0.0
 11
72.34413833702493
 21
183.6375411120532
 31
0.0
  0
LINE
  5
1BF
330
1F
100
AcDbEntity
  8
1
  6
Continuous
 62
     7
370
    30
100
AcDbLine
 10
72.26247405130894
 20
183.0325594126539
 30
0.0
 11
71.57262280171207
 21
183.2608904128972
 31
0.0
  0
CIRCLE
  5
1C0
330
1F
100
AcDbEntity
  8
1
  6
Continuous
 62
     7
370
    30
100
AcDbCircle
 10
71.94476180171208
 20
183.3508999999999
 30
0.0
 40
3.5
  0
CIRCLE
  5
1C1
330
1F
100
AcDbEntity
  8
1
  6
Continuous
 62
     7
370
    30
100
AcDbCircle
 10
71.94476180171208
 20
213.3508999999999
 30
0.0
 40
3.5
  0
LINE
  5
1C2
330
1F
100
AcDbEntity
  8
1
  6
Continuous
 62
     7
370
    30
100
AcDbLine
 10
71.47326980679279
 20
214.8098066299947
 30
0.0
 11
71.2614909122291
 21
215.419016968172
 31
0.0
  0
LINE
  5
1C3
330
1F
100
AcDbEntity
  8
1
  6
Continuous
 62
     7
370
    30
100
AcDbLine
 10
72.51411401590084
 20
214.8091677969828
 30
0.0
 11
72.72664059667395
 21
215.418117703617
 31
0.0
  0
ARC
  5
1C4
330
1F
100
AcDbEntity
  8
1
  6
Continuous
 62
     7
370
    30
100
AcDbCircle
 10
71.99277488214213
 20
213.3153807416624
 30
0.0
 40
1.582148621031374
100
AcDbArc
 50
109.1689098789629
 51
70.76075792247657
  0
ARC
  5
1C5
330
1F
100
AcDbEntity
  8
1
  6
Continuous
 62
     7
370
    30
100
AcDbCircle
 10
71.99277488214213
 20
213.3153807416624
 30
0.0
 40
2.227119578768832
100
AcDbArc
 50
109.1689098789646
 51
70.76075729737275
  0
LINE
  5
1C6
330
1F
100
AcDbEntity
  8
1
  6
Continuous
 62
     7
370
    30
100
AcDbLine
 10
72.31277488214207
 20
215.9496407416624
 30
0.0
 11
71.67277488214219
 21
215.9496407416624
 31
0.0
  0
LINE
  5
1C7
330
1F
100
AcDbEntity
  8
1
  6
Continuous
 62
     7
370
    30
100
AcDbLine
 10
72.31277488214207
 20
213.3153807416624
 30
0.0
 11
72.31277488214207
 21
215.9496407416624
 31
0.0
  0
LINE
  5
1C8
330
1F
100
AcDbEntity
  8
1
  6
Continuous
 62
     7
370
    30
100
AcDbLine
 10
71.67277488214219
 20
215.9496407416624
 30
0.0
 11
71.67277488214219
 21
213.3153807416624
 31
0.0
  0
LINE
  5
1C9
330
1F
100
AcDbEntity
  8
1
  6
Continuous
 62
     7
370
    30
100
AcDbLine
 10
71.67277488214219
 20
213.3153807416624
 30
0.0
 11
72.31277488214207
 21
213.3153807416624
 31
0.0
  0
ARC
  5
1CA
330
1F
100
AcDbEntity
  8
1
  6
Continuous
 62
     7
370
    30
100
AcDbCircle
 10
71.83832422829423
 20
205.1845611292748
 30
0.0
 40
1.264389999999992
100
AcDbArc
 50
359.9736933996811
 51
179.9999999999998
  0
ARC
  5
1CB
330
1F
100
AcDbEntity
  8
1
  6
Continuous
 62
     7
370
    30
100
AcDbCircle
 10
71.83832422829423
 20
205.1859311292748
 30
0.0
 40
0.8330200000000048
100
AcDbArc
 50
0.0006878079760531
 51
179.999312192024
  0
LINE
  5
1CC
330
1F
100
AcDbEntity
  8
1
  6
Continuous
 62
     7
370
    30
100
AcDbLine
 10
70.5739349813849
 20
205.1859411292749
 30
0.0
 11
70.5739349813849
 21
204.3351128249916
 31
0.0
  0
LINE
  5
1CD
330
1F
100
AcDbEntity
  8
1
  6
Continuous
 62
     7
370
    30
100
AcDbLine
 10
70.5739349813849
 20
204.3351128249916
 30
0.0
 11
71.00530422835428
 21
204.3351128249916
 31
0.0
  0
LINE
  5
1CE
330
1F
100
AcDbEntity
  8
1
  6
Continuous
 62
     7
370
    30
100
AcDbLine
 10
71.00530422835428
 20
204.3351128249916
 30
0.0
 11
71.00530422835428
 21
205.1859411292749
 31
0.0
  0
LINE
  5
1CF
330
1F
100
AcDbEntity
  8
1
  6
Continuous
 62
     7
370
    30
100
AcDbLine
 10
72.67134422823423
 20
205.1859411292749
 30
0.0
 11
72.67134422823423
 21
203.495281573454
 31
0.0
  0
LINE
  5
1D0
330
1F
100
AcDbEntity
  8
1
  6
Continuous
 62
     7
370
    30
100
AcDbLine
 10
73.10271347520356
 20
205.1859411292749
 30
0.0
 11
73.10271347520356
 21
203.495281573454
 31
0.0
  0
INSERT
  5
1DD
330
1F
100
AcDbEntity
  8
0
100
AcDbBlockReference
  2
*G25
 10
0.0
 20
0.0
 30
0.0
  0
CIRCLE
  5
1DE
330
1F
100
AcDbEntity
  8
1
  6
Continuous
 62
     7
370
    30
100
AcDbCircle
 10
71.94476180171208
 20
203.3508999999999
 30
0.0
 40
3.5
  0
ARC
  5
1DF
330
1F
100
AcDbEntity
  8
1
  6
Continuous
 62
     7
370
    30
100
AcDbCircle
 10
72.0745842703665
 20
190.1488619714961
 30
0.0
 40
1.220039999999983
100
AcDbArc
 50
44.84204823223435
 51
135.1317201448061
  0
LINE
  5
1E0
330
1F
100
AcDbEntity
  8
1
  6
Continuous
 62
     7
370
    30
100
AcDbLine
 10
72.93965781524949
 20
191.009178984895
 30
0.0
 11
73.01611451379941
 21
191.1729886305848
 31
0.0
  0
ARC
  5
1E1
330
1F
100
AcDbEntity
  8
1
  6
Continuous
 62
     7
370
    30
100
AcDbCircle
 10
72.0745842703665
 20
190.0488630343117
 30
0.0
 40
0.6795710628155973
100
AcDbArc
 50
31.21080390170822
 51
148.7561211872084
  0
LINE
  5
1E2
330
1F
100
AcDbEntity
  8
1
  6
Continuous
 62
     7
370
    30
100
AcDbLine
 10
72.65579867817783
 20
190.4010088018127
 30
0.0
 11
72.72937852933492
 21
190.558654293058
 31
0.0
  0
LINE
  5
1E3
330
1F
100
AcDbEntity
  8
1
  6
Continuous
 62
     7
370
    30
100
AcDbLine
 10
71.49357324119788
 20
190.4013442584935
 30
0.0
 11
71.4144674349441
 21
190.5709597198023
 31
0.0
  0
LINE
  5
1E4
330
1F
100
AcDbEntity
  8
1
  6
Continuous
 62
     7
370
    30
100
AcDbLine
 10
71.20990469351241
 20
191.0095749497713
 30
0.0
 11
71.13055532642957
 21
191.1797132314045
 31
0.0
  0
ARC
  5
1E5
330
1F
100
AcDbEntity
  8
1
  6
Continuous
 62
     7
370
    30
100
AcDbCircle
 10
72.06998003029221
 20
190.2356492452459
 30
0.0
 40
1.331831665109771
100
AcDbArc
 50
44.73245270289831
 51
134.858873186033
  0
ARC
  5
1E6
330
1F
100
AcDbEntity
  8
1
  6
Continuous
 62
     7
370
    30
100
AcDbCircle
 10
72.06814581296399
 20
190.1611930759722
 30
0.0
 40
0.7714947338035348
100
AcDbArc
 50
31.00970902932309
 51
147.9179318748819
  0
ARC
  5
1E7
330
1F
100
AcDbEntity
  8
1
  6
Continuous
 62
     7
370
    30
100
AcDbCircle
 10
70.20295723859002
 20
192.5872426126874
 30
0.0
 40
0.2061750317438645
100
AcDbArc
 50
170.1525871731425
 51
260.152587173133
  0
LINE
  5
1E8
330
1F
100
AcDbEntity
  8
1
  6
Continuous
 62
     7
370
    30
100
AcDbLine
 10
69.99981984316153
 20
192.6225036718479
 30
0.0
 11
70.33058543822168
 21
194.5280295714502
 31
0.0
  0
ARC
  5
1E9
330
1F
100
AcDbEntity
  8
1
  6
Continuous
 62
     7
370
    30
100
AcDbCircle
 10
70.53372283365016
 20
194.4927685122896
 30
0.0
 40
0.2061750317438645
100
AcDbArc
 50
80.15258717313336
 51
170.1525871731503
  0
ARC
  5
1EA
330
1F
100
AcDbEntity
  8
1
  6
Continuous
 62
     7
370
    30
100
AcDbCircle
 10
73.65766707793185
 20
193.950507041527
 30
0.0
 40
0.2061750317438645
100
AcDbArc
 50
350.1525871731367
 51
80.15258717313472
  0
LINE
  5
1EB
330
1F
100
AcDbEntity
  8
1
  6
Continuous
 62
     7
370
    30
100
AcDbLine
 10
73.69292813709242
 20
194.1536444369555
 30
0.0
 11
73.16283634861966
 21
194.2456589962367
 31
0.0
  0
LINE
  5
1EC
330
1F
100
AcDbEntity
  8
1
  6
Continuous
 62
     7
370
    30
100
AcDbLine
 10
70.81214642756598
 20
194.6536971922546
 30
0.0
 11
70.56898389281073
 21
194.6959059077181
 31
0.0
  0
LINE
  5
1ED
330
1F
100
AcDbEntity
  8
1
  6
Continuous
 62
     7
370
    30
100
AcDbLine
 10
74.06016324676548
 20
196.0889855901828
 30
0.0
 11
69.47177955666805
 21
190.811170422468
 31
0.0
  0
LINE
  5
1EE
330
1F
100
AcDbEntity
  8
1
  6
Continuous
 62
     7
370
    30
100
AcDbLine
 10
74.21301767124842
 20
195.9599743121427
 30
0.0
 11
69.62079560171335
 21
190.6777440260367
 31
0.0
  0
ARC
  5
1EF
330
1F
100
AcDbEntity
  8
1
  6
Continuous
 62
     7
370
    30
100
AcDbCircle
 10
71.88005148338428
 20
193.3508999999999
 30
0.0
 40
3.5
100
AcDbArc
 50
229.7966998251439
 51
48.19774819749311
  0
ARC
  5
1F0
330
1F
100
AcDbEntity
  8
1
  6
Continuous
 62
     7
370
    30
100
AcDbCircle
 10
71.88005148338428
 20
193.3508999999999
 30
0.0
 40
3.5
100
AcDbArc
 50
51.47258163379203
 51
226.521866388845
  0
LINE
  5
1F1
330
1F
100
AcDbEntity
  8
1
  6
Continuous
 62
     7
370
    30
100
AcDbLine
 10
73.86080447336022
 20
193.9152459823665
 30
0.0
 11
73.53069304302042
 21
192.0134886966578
 31
0.0
  0
ARC
  5
1F2
330
1F
100
AcDbEntity
  8
1
  6
Continuous
 62
     7
370
    30
100
AcDbCircle
 10
73.32378703369832
 20
192.0494039205386
 30
0.0
 40
0.21
100
AcDbArc
 50
260.1525871731424
 51
350.1525871731437
  0
LINE
  5
1F3
330
1F
100
AcDbEntity
  8
1
  6
Continuous
 62
     7
370
    30
100
AcDbLine
 10
73.16283634861966
 20
194.2456589962367
 30
0.0
 11
72.78035900049238
 21
194.3120502993812
 31
0.0
  0
LINE
  5
1F4
330
1F
100
AcDbEntity
  8
1
  6
Continuous
 62
     7
370
    30
100
AcDbLine
 10
72.5500944271711
 20
194.3520201568529
 30
0.0
 11
70.56898389281073
 21
194.6959059077181
 31
0.0
  0
LINE
  5
1F5
330
1F
100
AcDbEntity
  8
1
  6
Continuous
 62
     7
370
    30
100
AcDbLine
 10
70.98145551345632
 20
192.2428510452681
 30
0.0
 11
73.28805362118638
 21
191.8424664342529
 31
0.0
  0
LINE
  5
1F6
330
1F
100
AcDbEntity
  8
1
  6
Continuous
 62
     7
370
    30
100
AcDbLine
 10
70.16769617942944
 20
192.3841052172589
 30
0.0
 11
70.7511909508876
 21
192.2828208446161
 31
0.0
  0
LINE
  5
1F7
330
1F
100
AcDbEntity
  8
1
  6
Continuous
 62
     7
370
    30
100
AcDbLine
 10
222.3509156478017
 20
170.8509000000003
 30
0.0
 11
222.3509156478017
 21
235.8509000000004
 31
0.0
  0
LINE
  5
1F8
330
1F
100
AcDbEntity
  8
1
  6
Continuous
 62
     7
370
    30
100
AcDbLine
 10
222.3509156478017
 20
170.8509000000003
 30
0.0
 11
222.3509156478017
 21
105.8509000000004
 31
0.0
  0
ARC
  5
1F9
330
1F
100
AcDbEntity
  8
1
  6
Continuous
 62
     7
370
    30
100
AcDbCircle
 10
213.3509156478017
 20
96.85090000000024
 30
0.0
 40
1.0
100
AcDbArc
 50
179.9999999999998
 51
269.9999999999998
  0
LINE
  5
1FA
330
1F
100
AcDbEntity
  8
1
  6
Continuous
 62
     7
370
    30
100
AcDbLine
 10
212.3509156478017
 20
96.85090000000024
 30
0.0
 11
212.3509156478017
 21
244.8509000000003
 31
0.0
  0
LINE
  5
1FB
330
1F
100
AcDbEntity
  8
1
  6
Continuous
 62
     7
370
    30
100
AcDbLine
 10
222.3509156478017
 20
95.85090000000024
 30
0.0
 11
213.3509156478017
 21
95.85090000000024
 31
0.0
  0
ARC
  5
1FC
330
1F
100
AcDbEntity
  8
1
  6
Continuous
 62
     7
370
    30
100
AcDbCircle
 10
213.3509156478017
 20
244.8509000000003
 30
0.0
 40
1.0
100
AcDbArc
 50
89.99999999999991
 51
179.9999999999998
  0
LINE
  5
1FD
330
1F
100
AcDbEntity
  8
1
  6
Continuous
 62
     7
370
    30
100
AcDbLine
 10
213.3509156478017
 20
245.8509000000003
 30
0.0
 11
222.3509156478017
 21
245.8509000000003
 31
0.0
  0
LINE
  5
1FE
330
1F
100
AcDbEntity
  8
1
  6
Continuous
 62
     7
370
    30
100
AcDbLine
 10
222.3509156478017
 20
245.8509000000003
 30
0.0
 11
222.3509156478017
 21
95.85090000000024
 31
0.0
  0
MTEXT
  5
1FF
330
1F
100
AcDbEntity
  8
15
  6
PHANTOM
 62
    96
370
     9
100
AcDbMText
 10
367.6039560473636
 20
258.3217370454499
 30
0.0
 40
3.0
 41
12.05032635971433
 71
     5
 72
     1
  1
{\fＭＳ ゴシック;\W0.714286;\T1.133333;樹　脂}
 73
     1
 44
1.0
1001
ACAD
1000
ACAD_MTEXT_DEFINED_HEIGHT_BEGIN
1070
    46
1040
3.0
1000
ACAD_MTEXT_DEFINED_HEIGHT_END
  0
MTEXT
  5
200
330
1F
100
AcDbEntity
  8
15
  6
PHANTOM
 62
    96
370
     9
100
AcDbMText
 10
367.6039560473636
 20
252.8201150362002
 30
0.0
 40
3.0
 41
11.88296914991433
 71
     5
 72
     1
  1
{\fＭＳ ゴシック;\W0.714286;\T1.133333;艶　消}
 73
     1
 44
1.0
1001
ACAD
1000
ACAD_MTEXT_DEFINED_HEIGHT_BEGIN
1070
    46
1040
3.0
1000
ACAD_MTEXT_DEFINED_HEIGHT_END
  0
MTEXT
  5
201
330
1F
100
AcDbEntity
  8
15
  6
PHANTOM
 62
    96
370
     9
100
AcDbMText
 10
367.6579
 20
247.3556
 30
0.0
 40
3.0
 41
15.71271002303149
 71
     5
 72
     1
  1
{\fＭＳ ゴシック;\W0.714286;\T1.133333;ホワイト}
 73
     1
 44
1.0
1001
ACAD
1000
ACAD_MTEXT_DEFINED_HEIGHT_BEGIN
1070
    46
1040
3.0
1000
ACAD_MTEXT_DEFINED_HEIGHT_END
  0
LINE
  5
202
330
1F
100
AcDbEntity
  8
15
  6
Continuous
 62
    96
370
     9
100
AcDbLine
 10
310.0869986779355
 20
217.0595719760776
 30
0.0
 11
400.1135406474743
 21
217.0595719760776
 31
0.0
  0
LINE
  5
203
330
1F
100
AcDbEntity
  8
15
  6
Continuous
 62
    96
370
     9
100
AcDbLine
 10
310.0869986779355
 20
222.5611939853272
 30
0.0
 11
400.1135406474743
 21
222.5611939853272
 31
0.0
  0
LINE
  5
204
330
1F
100
AcDbEntity
  8
15
  6
Continuous
 62
    96
370
     9
100
AcDbLine
 10
310.0869986779355
 20
228.0628159945769
 30
0.0
 11
400.1135406474743
 21
228.0628159945769
 31
0.0
  0
MTEXT
  5
205
330
1F
100
AcDbEntity
  8
15
  6
PHANTOM
 62
    96
370
     9
100
AcDbMText
 10
322.5906850625934
 20
225.312004989952
 30
0.0
 40
3.0
 41
11.89818344171433
 71
     5
 72
     1
  1
{\fＭＳ ゴシック;\W0.714286;\T1.133333;重　量}
 73
     1
 44
1.0
1001
ACAD
1000
ACAD_MTEXT_DEFINED_HEIGHT_BEGIN
1070
    46
1040
3.0
1000
ACAD_MTEXT_DEFINED_HEIGHT_END
  0
LINE
  5
206
330
1F
100
AcDbEntity
  8
15
  6
Continuous
 62
    96
370
     9
100
AcDbLine
 10
322.5198277980072
 20
250.0693040315754
 30
0.0
 11
322.5198277980072
 21
228.0623514986628
 31
0.0
  0
MTEXT
  5
207
330
1F
100
AcDbEntity
  8
15
  6
PHANTOM
 62
    96
370
     9
100
AcDbMText
 10
328.8561350625934
 20
234.0839490084513
 30
0.0
 40
2.5
 41
13.174968127128
 71
     5
 72
     1
  1
{\fＭＳ ゴシック;\W0.714286;\T1.160000;イラスト}
 73
     1
 44
1.0
1001
ACAD
1000
ACAD_MTEXT_DEFINED_HEIGHT_BEGIN
1070
    46
1040
2.5
1000
ACAD_MTEXT_DEFINED_HEIGHT_END
  0
MTEXT
  5
208
330
1F
100
AcDbEntity
  8
15
  6
Continuous
 62
    96
370
     9
100
AcDbMText
 10
367.6039560473636
 20
219.8103829807024
 30
0.0
 40
3.0
 41
69.93217545606615
 71
     5
 72
     1
  1
{\fＭＳ ゴシック;\W0.714286;\T1.133333;DC24V±10％　出入管理装置より供給}
 73
     1
 44
1.0
1001
ACAD
1000
ACAD_MTEXT_DEFINED_HEIGHT_BEGIN
1070
    46
1040
3.0
1000
ACAD_MTEXT_DEFINED_HEIGHT_END
  0
MTEXT
  5
209
330
1F
100
AcDbEntity
  8
15
  6
Continuous
 62
    96
370
     9
100
AcDbMText
 10
322.5906850625936
 20
219.8103829807024
 30
0.0
 40
3.0
 41
16.20869593571149
 71
     5
 72
     1
  1
{\fＭＳ ゴシック;\W0.714286;\T1.133333;供給電源}
 73
     1
 44
1.0
1001
ACAD
1000
ACAD_MTEXT_DEFINED_HEIGHT_BEGIN
1070
    46
1040
3.0
1000
ACAD_MTEXT_DEFINED_HEIGHT_END
  0
MTEXT
  5
20A
330
1F
100
AcDbEntity
  8
15
  6
PHANTOM
 62
    96
370
     9
100
AcDbMText
 10
361.1451
 20
236.3152720092496
 30
0.0
 40
3.0
 41
28.72640468074298
 71
     5
 72
     1
  1
{\fＭＳ ゴシック;\W0.714286;\T1.133333;アイコン部：緑}
 73
     1
 44
1.0
1001
ACAD
1000
ACAD_MTEXT_DEFINED_HEIGHT_BEGIN
1070
    46
1040
3.0
1000
ACAD_MTEXT_DEFINED_HEIGHT_END
  0
MTEXT
  5
20B
330
1F
100
AcDbEntity
  8
15
  6
PHANTOM
 62
    96
370
     9
100
AcDbMText
 10
367.6205012327283
 20
203.505949966828
 30
0.0
 40
3.0
 41
11.26161879036
 71
     5
 72
     1
  1
{\fＭＳ ゴシック;\W0.714286;屋　内}
 73
     1
 44
1.0
1001
ACAD
1000
ACAD_MTEXT_DEFINED_HEIGHT_BEGIN
1070
    46
1040
3.0
1000
ACAD_MTEXT_DEFINED_HEIGHT_END
  0
LINE
  5
20C
330
1F
100
AcDbEntity
  8
15
  6
Continuous
 62
    96
370
     9
100
AcDbLine
 10
310.1135406474744
 20
206.057949966828
 30
0.0
 11
400.1135406474743
 21
206.057949966828
 31
0.0
  0
MTEXT
  5
20D
330
1F
100
AcDbEntity
  8
15
  6
PHANTOM
 62
    96
370
     9
100
AcDbMText
 10
322.6135406474743
 20
203.307949966828
 30
0.0
 40
3.0
 41
15.37252043472
 71
     5
 72
     1
  1
{\fＭＳ ゴシック;\W0.714286;設置場所}
 73
     1
 44
1.0
1001
ACAD
1000
ACAD_MTEXT_DEFINED_HEIGHT_BEGIN
1070
    46
1040
3.0
1000
ACAD_MTEXT_DEFINED_HEIGHT_END
  0
LINE
  5
20E
330
1F
100
AcDbEntity
  8
15
  6
Continuous
 62
    96
370
     9
100
AcDbLine
 10
310.1135406474744
 20
200.755949966828
 30
0.0
 11
400.1135434322671
 21
200.755949966828
 31
0.0
  0
LINE
  5
20F
330
1F
100
AcDbEntity
  8
15
  6
Continuous
 62
    96
370
     9
100
AcDbLine
 10
310.0869986779355
 20
211.5579499668279
 30
0.0
 11
400.1135406474743
 21
211.5579499668279
 31
0.0
  0
MTEXT
  5
210
330
1F
100
AcDbEntity
  8
15
  6
PHANTOM
 62
    96
370
     9
100
AcDbMText
 10
367.5869986779355
 20
214.3079499668279
 30
0.0
 40
3.0
 41
47.83981913592
 71
     5
 72
     1
  1
{\fＭＳ ゴシック;\W0.714286;０℃～40℃（結露なきこと）}
 73
     1
 44
1.0
1001
ACAD
1000
ACAD_MTEXT_DEFINED_HEIGHT_BEGIN
1070
    46
1040
3.0
1000
ACAD_MTEXT_DEFINED_HEIGHT_END
  0
MTEXT
  5
211
330
1F
100
AcDbEntity
  8
15
  6
PHANTOM
 62
    96
370
     9
100
AcDbMText
 10
322.5869986779354
 20
214.3079499668279
 30
0.0
 40
3.0
 41
23.32959504612
 71
     5
 72
     1
  1
{\fＭＳ ゴシック;\W0.714286;使用環境温度}
 73
     1
 44
1.0
1001
ACAD
1000
ACAD_MTEXT_DEFINED_HEIGHT_BEGIN
1070
    46
1040
3.0
1000
ACAD_MTEXT_DEFINED_HEIGHT_END
  0
MTEXT
  5
212
330
1F
100
AcDbEntity
  8
15
  6
PHANTOM
 62
    96
370
     9
100
AcDbMText
 10
322.6135406474743
 20
208.807949966828
 30
0.0
 40
3.0
 41
15.06519174036
 71
     5
 72
     1
  1
{\fＭＳ ゴシック;\W0.714286;消費電力}
 73
     1
 44
1.0
1001
ACAD
1000
ACAD_MTEXT_DEFINED_HEIGHT_BEGIN
1070
    46
1040
3.0
1000
ACAD_MTEXT_DEFINED_HEIGHT_END
  0
MTEXT
  5
213
330
1F
100
AcDbEntity
  8
2
  6
Continuous
 62
   214
370
     9
100
AcDbMText
 10
200.9759003496872
 20
38.4958
 30
0.0
 40
4.0
 41
35.466137043592
 71
     7
 72
     1
  1
{\fＭＳ ゴシック;\W0.714286;\T1.100000;LEDパネル詳細}
 73
     1
 44
1.0
1001
ACAD
1000
ACAD_MTEXT_DEFINED_HEIGHT_BEGIN
1070
    46
1040
4.0
1000
ACAD_MTEXT_DEFINED_HEIGHT_END
  0
LINE
  5
214
330
1F
100
AcDbEntity
  8
2
  6
Continuous
 62
   214
370
    30
100
AcDbLine
 10
200.5702134892326
 20
38.4958
 30
0.0
 11
229.1886120870934
 21
38.4958
 31
0.0
  0
INSERT
  5
215
330
1F
100
AcDbEntity
  8
2
  6
Continuous
 62
   214
370
     9
100
AcDbBlockReference
  2
_OPEN
 10
219.388202859883
 20
80.54784340730055
 30
0.0
 41
2.4
 42
2.4
 43
2.4
 50
171.3677411891651
  0
POLYLINE
  5
216
330
1F
100
AcDbEntity
  8
2
  6
Continuous
 62
   214
370
     9
100
AcDb2dPolyline
 66
     1
 10
0.0
 20
0.0
 30
0.0
  0
VERTEX
  5
217
330
216
100
AcDbEntity
  8
2
  6
Continuous
 62
   214
370
     9
100
AcDbVertex
100
AcDb2dVertex
 10
219.388202859883
 20
80.54784340730055
 30
0.0
  0
VERTEX
  5
218
330
216
100
AcDbEntity
  8
2
  6
Continuous
 62
   214
370
     9
100
AcDbVertex
100
AcDb2dVertex
 10
244.9326716403976
 20
76.66989340730038
 30
0.0
  0
VERTEX
  5
219
330
216
100
AcDbEntity
  8
2
  6
Continuous
 62
   214
370
     9
100
AcDbVertex
100
AcDb2dVertex
 10
270.3326716403976
 20
76.66989340730038
 30
0.0
  0
SEQEND
  5
21A
330
216
100
AcDbEntity
  8
2
  6
Continuous
 62
   214
370
     9
  0
MTEXT
  5
21B
330
1F
100
AcDbEntity
  8
2
  6
Continuous
 62
   214
370
     9
100
AcDbMText
 10
244.9326716403976
 20
77.16989340730038
 30
0.0
 40
3.0
 41
30.47787329398015
 71
     7
 72
     1
  1
{\fＭＳ ゴシック;\W0.714286;\T1.133333;電源表示灯（橙）}
 73
     1
 44
1.0
1001
ACAD
1000
ACAD_MTEXT_DEFINED_HEIGHT_BEGIN
1070
    46
1040
3.0
1000
ACAD_MTEXT_DEFINED_HEIGHT_END
  0
INSERT
  5
21C
330
1F
100
AcDbEntity
  8
2
  6
Continuous
 62
   214
370
     9
100
AcDbBlockReference
  2
_OPEN
 10
219.388202859883
 20
70.54784340730055
 30
0.0
 41
2.4
 42
2.4
 43
2.4
 50
171.1271209432153
  0
POLYLINE
  5
21D
330
1F
100
AcDbEntity
  8
2
  6
Continuous
 62
   214
370
     9
100
AcDb2dPolyline
 66
     1
 10
0.0
 20
0.0
 30
0.0
  0
VERTEX
  5
21E
330
21D
100
AcDbEntity
  8
2
  6
Continuous
 62
   214
370
     9
100
AcDbVertex
100
AcDb2dVertex
 10
219.388202859883
 20
70.54784340730055
 30
0.0
  0
VERTEX
  5
21F
330
21D
100
AcDbEntity
  8
2
  6
Continuous
 62
   214
370
     9
100
AcDbVertex
100
AcDb2dVertex
 10
244.9326716403976
 20
66.56007340730042
 30
0.0
  0
VERTEX
  5
220
330
21D
100
AcDbEntity
  8
2
  6
Continuous
 62
   214
370
     9
100
AcDbVertex
100
AcDb2dVertex
 10
270.3326716403976
 20
66.56007340730042
 30
0.0
  0
SEQEND
  5
221
330
21D
100
AcDbEntity
  8
2
  6
Continuous
 62
   214
370
     9
  0
MTEXT
  5
222
330
1F
100
AcDbEntity
  8
2
  6
Continuous
 62
   214
370
     9
100
AcDbMText
 10
244.9326716403976
 20
67.06007340730042
 30
0.0
 40
3.0
 41
30.63001621198015
 71
     7
 72
     1
  1
{\fＭＳ ゴシック;\W0.714286;\T1.133333;解錠表示灯（緑）}
 73
     1
 44
1.0
1001
ACAD
1000
ACAD_MTEXT_DEFINED_HEIGHT_BEGIN
1070
    46
1040
3.0
1000
ACAD_MTEXT_DEFINED_HEIGHT_END
  0
INSERT
  5
223
330
1F
100
AcDbEntity
  8
2
  6
Continuous
 62
   214
370
     9
100
AcDbBlockReference
  2
_OPEN
 10
219.388202859883
 20
60.54784340730055
 30
0.0
 41
2.4
 42
2.4
 43
2.4
 50
171.4417728738032
  0
POLYLINE
  5
224
330
1F
100
AcDbEntity
  8
2
  6
Continuous
 62
   214
370
     9
100
AcDb2dPolyline
 66
     1
 10
0.0
 20
0.0
 30
0.0
  0
VERTEX
  5
225
330
224
100
AcDbEntity
  8
2
  6
Continuous
 62
   214
370
     9
100
AcDbVertex
100
AcDb2dVertex
 10
219.388202859883
 20
60.54784340730055
 30
0.0
  0
VERTEX
  5
226
330
224
100
AcDbEntity
  8
2
  6
Continuous
 62
   214
370
     9
100
AcDbVertex
100
AcDb2dVertex
 10
244.9326716403976
 20
56.70365340730041
 30
0.0
  0
VERTEX
  5
227
330
224
100
AcDbEntity
  8
2
  6
Continuous
 62
   214
370
     9
100
AcDbVertex
100
AcDb2dVertex
 10
273.5326716403977
 20
56.70365340730041
 30
0.0
  0
SEQEND
  5
228
330
224
100
AcDbEntity
  8
2
  6
Continuous
 62
   214
370
     9
  0
MTEXT
  5
229
330
1F
100
AcDbEntity
  8
2
  6
Continuous
 62
   214
370
     9
100
AcDbMText
 10
244.9326716403976
 20
57.20365340730041
 30
0.0
 40
3.0
 41
34.55712855261731
 71
     7
 72
     1
  1
{\fＭＳ ゴシック;\W0.714286;\T1.133333;エラー表示灯（赤）}
 73
     1
 44
1.0
1001
ACAD
1000
ACAD_MTEXT_DEFINED_HEIGHT_BEGIN
1070
    46
1040
3.0
1000
ACAD_MTEXT_DEFINED_HEIGHT_END
  0
INSERT
  5
22A
330
1F
100
AcDbEntity
  8
2
  6
Continuous
 62
   214
370
     9
100
AcDbBlockReference
  2
_OPEN
 10
219.2306340613155
 20
50.25479000000013
 30
0.0
 41
2.4
 42
2.4
 43
2.4
 50
171.4417728738032
  0
POLYLINE
  5
22B
330
1F
100
AcDbEntity
  8
2
  6
Continuous
 62
   214
370
     9
100
AcDb2dPolyline
 66
     1
 10
0.0
 20
0.0
 30
0.0
  0
VERTEX
  5
22C
330
22B
100
AcDbEntity
  8
2
  6
Continuous
 62
   214
370
     9
100
AcDbVertex
100
AcDb2dVertex
 10
219.2306340613155
 20
50.25479000000013
 30
0.0
  0
VERTEX
  5
22D
330
22B
100
AcDbEntity
  8
2
  6
Continuous
 62
   214
370
     9
100
AcDbVertex
100
AcDb2dVertex
 10
244.7751028418302
 20
46.4106
 30
0.0
  0
VERTEX
  5
22E
330
22B
100
AcDbEntity
  8
2
  6
Continuous
 62
   214
370
     9
100
AcDbVertex
100
AcDb2dVertex
 10
270.1751028418302
 20
46.4106
 30
0.0
  0
SEQEND
  5
22F
330
22B
100
AcDbEntity
  8
2
  6
Continuous
 62
   214
370
     9
  0
MTEXT
  5
230
330
1F
100
AcDbEntity
  8
2
  6
Continuous
 62
   214
370
     9
100
AcDbMText
 10
244.7751028418302
 20
46.9106
 30
0.0
 40
3.0
 41
30.53873046118015
 71
     7
 72
     1
  1
{\fＭＳ ゴシック;\W0.714286;\T1.133333;警備表示灯（橙）}
 73
     1
 44
1.0
1001
ACAD
1000
ACAD_MTEXT_DEFINED_HEIGHT_BEGIN
1070
    46
1040
3.0
1000
ACAD_MTEXT_DEFINED_HEIGHT_END
  0
INSERT
  5
23C
330
1F
100
AcDbEntity
  8
0
100
AcDbBlockReference
  2
*G26
 10
0.0
 20
0.0
 30
0.0
  0
INSERT
  5
248
330
1F
100
AcDbEntity
  8
0
100
AcDbBlockReference
  2
*G27
 10
0.0
 20
0.0
 30
0.0
  0
INSERT
  5
254
330
1F
100
AcDbEntity
  8
0
100
AcDbBlockReference
  2
*G28
 10
0.0
 20
0.0
 30
0.0
  0
CIRCLE
  5
255
330
1F
100
AcDbEntity
  8
1
  6
Continuous
 62
     7
370
    30
100
AcDbCircle
 10
205.588202859883
 20
81.14784340730051
 30
0.0
 40
3.5
  0
LINE
  5
256
330
1F
100
AcDbEntity
  8
1
  6
Continuous
 62
     7
370
    30
100
AcDbLine
 10
205.1167108649637
 20
82.60675003729528
 30
0.0
 11
204.9049319704001
 21
83.21596037547255
 31
0.0
  0
LINE
  5
257
330
1F
100
AcDbEntity
  8
1
  6
Continuous
 62
     7
370
    30
100
AcDbLine
 10
206.1575550740718
 20
82.60611120428342
 30
0.0
 11
206.3700816548449
 21
83.21506111091759
 31
0.0
  0
ARC
  5
258
330
1F
100
AcDbEntity
  8
1
  6
Continuous
 62
     7
370
    30
100
AcDbCircle
 10
205.6362159403131
 20
81.11232414896295
 30
0.0
 40
1.582148621031374
100
AcDbArc
 50
109.1689098789629
 51
70.76075792247657
  0
ARC
  5
259
330
1F
100
AcDbEntity
  8
1
  6
Continuous
 62
     7
370
    30
100
AcDbCircle
 10
205.6362159403131
 20
81.11232414896295
 30
0.0
 40
2.227119578768832
100
AcDbArc
 50
109.1689098789646
 51
70.76075729737275
  0
LINE
  5
25A
330
1F
100
AcDbEntity
  8
1
  6
Continuous
 62
     7
370
    30
100
AcDbLine
 10
205.956215940313
 20
83.746584148963
 30
0.0
 11
205.3162159403132
 21
83.746584148963
 31
0.0
  0
LINE
  5
25B
330
1F
100
AcDbEntity
  8
1
  6
Continuous
 62
     7
370
    30
100
AcDbLine
 10
205.956215940313
 20
81.11232414896295
 30
0.0
 11
205.956215940313
 21
83.746584148963
 31
0.0
  0
LINE
  5
25C
330
1F
100
AcDbEntity
  8
1
  6
Continuous
 62
     7
370
    30
100
AcDbLine
 10
205.3162159403132
 20
83.746584148963
 30
0.0
 11
205.3162159403132
 21
81.11232414896295
 31
0.0
  0
LINE
  5
25D
330
1F
100
AcDbEntity
  8
1
  6
Continuous
 62
     7
370
    30
100
AcDbLine
 10
205.3162159403132
 20
81.11232414896295
 30
0.0
 11
205.956215940313
 21
81.11232414896295
 31
0.0
  0
ARC
  5
25E
330
1F
100
AcDbEntity
  8
1
  6
Continuous
 62
     7
370
    30
100
AcDbCircle
 10
205.4817652864652
 20
72.98150453657541
 30
0.0
 40
1.264389999999992
100
AcDbArc
 50
359.9736933996811
 51
179.9999999999998
  0
ARC
  5
25F
330
1F
100
AcDbEntity
  8
1
  6
Continuous
 62
     7
370
    30
100
AcDbCircle
 10
205.4817652864652
 20
72.98287453657537
 30
0.0
 40
0.8330200000000048
100
AcDbArc
 50
0.0006878079760531
 51
179.999312192024
  0
LINE
  5
260
330
1F
100
AcDbEntity
  8
1
  6
Continuous
 62
     7
370
    30
100
AcDbLine
 10
204.2173760395559
 20
72.98288453657545
 30
0.0
 11
204.2173760395559
 21
72.1320562322922
 31
0.0
  0
LINE
  5
261
330
1F
100
AcDbEntity
  8
1
  6
Continuous
 62
     7
370
    30
100
AcDbLine
 10
204.2173760395559
 20
72.1320562322922
 30
0.0
 11
204.6487452865252
 21
72.1320562322922
 31
0.0
  0
LINE
  5
262
330
1F
100
AcDbEntity
  8
1
  6
Continuous
 62
     7
370
    30
100
AcDbLine
 10
204.6487452865252
 20
72.1320562322922
 30
0.0
 11
204.6487452865252
 21
72.98288453657545
 31
0.0
  0
LINE
  5
263
330
1F
100
AcDbEntity
  8
1
  6
Continuous
 62
     7
370
    30
100
AcDbLine
 10
206.3147852864052
 20
72.98288453657545
 30
0.0
 11
206.3147852864052
 21
71.29222498075461
 31
0.0
  0
LINE
  5
264
330
1F
100
AcDbEntity
  8
1
  6
Continuous
 62
     7
370
    30
100
AcDbLine
 10
206.7461545333745
 20
72.98288453657545
 30
0.0
 11
206.7461545333745
 21
71.29222498075461
 31
0.0
  0
INSERT
  5
271
330
1F
100
AcDbEntity
  8
0
100
AcDbBlockReference
  2
*G29
 10
0.0
 20
0.0
 30
0.0
  0
CIRCLE
  5
272
330
1F
100
AcDbEntity
  8
1
  6
Continuous
 62
     7
370
    30
100
AcDbCircle
 10
205.588202859883
 20
71.14784340730051
 30
0.0
 40
3.5
  0
ARC
  5
273
330
1F
100
AcDbEntity
  8
1
  6
Continuous
 62
     7
370
    30
100
AcDbCircle
 10
205.7180253285375
 20
57.94580537879671
 30
0.0
 40
1.220039999999983
100
AcDbArc
 50
44.84204823223435
 51
135.1317201448061
  0
LINE
  5
274
330
1F
100
AcDbEntity
  8
1
  6
Continuous
 62
     7
370
    30
100
AcDbLine
 10
206.5830988734205
 20
58.80612239219562
 30
0.0
 11
206.6595555719704
 21
58.96993203788537
 31
0.0
  0
ARC
  5
275
330
1F
100
AcDbEntity
  8
1
  6
Continuous
 62
     7
370
    30
100
AcDbCircle
 10
205.7180253285375
 20
57.8458064416123
 30
0.0
 40
0.6795710628155973
100
AcDbArc
 50
31.21080390170822
 51
148.7561211872084
  0
LINE
  5
276
330
1F
100
AcDbEntity
  8
1
  6
Continuous
 62
     7
370
    30
100
AcDbLine
 10
206.2992397363488
 20
58.19795220911323
 30
0.0
 11
206.3728195875059
 21
58.3555977003586
 31
0.0
  0
LINE
  5
277
330
1F
100
AcDbEntity
  8
1
  6
Continuous
 62
     7
370
    30
100
AcDbLine
 10
205.1370142993688
 20
58.19828766579411
 30
0.0
 11
205.0579084931151
 21
58.36790312710292
 31
0.0
  0
LINE
  5
278
330
1F
100
AcDbEntity
  8
1
  6
Continuous
 62
     7
370
    30
100
AcDbLine
 10
204.8533457516834
 20
58.80651835707187
 30
0.0
 11
204.7739963846005
 21
58.97665663870504
 31
0.0
  0
ARC
  5
279
330
1F
100
AcDbEntity
  8
1
  6
Continuous
 62
     7
370
    30
100
AcDbCircle
 10
205.7134210884632
 20
58.0325926525465
 30
0.0
 40
1.331831665109771
100
AcDbArc
 50
44.73245270289831
 51
134.858873186033
  0
ARC
  5
27A
330
1F
100
AcDbEntity
  8
1
  6
Continuous
 62
     7
370
    30
100
AcDbCircle
 10
205.711586871135
 20
57.95813648327277
 30
0.0
 40
0.7714947338035348
100
AcDbArc
 50
31.00970902932309
 51
147.9179318748819
  0
ARC
  5
27B
330
1F
100
AcDbEntity
  8
1
  6
Continuous
 62
     7
370
    30
100
AcDbCircle
 10
203.846398296761
 20
60.38418601998796
 30
0.0
 40
0.2061750317438645
100
AcDbArc
 50
170.1525871731425
 51
260.152587173133
  0
LINE
  5
27C
330
1F
100
AcDbEntity
  8
1
  6
Continuous
 62
     7
370
    30
100
AcDbLine
 10
203.6432609013325
 20
60.41944707914851
 30
0.0
 11
203.9740264963926
 21
62.32497297875074
 31
0.0
  0
ARC
  5
27D
330
1F
100
AcDbEntity
  8
1
  6
Continuous
 62
     7
370
    30
100
AcDbCircle
 10
204.1771638918211
 20
62.28971191959022
 30
0.0
 40
0.2061750317438645
100
AcDbArc
 50
80.15258717313336
 51
170.1525871731503
  0
ARC
  5
27E
330
1F
100
AcDbEntity
  8
1
  6
Continuous
 62
     7
370
    30
100
AcDbCircle
 10
207.3011081361028
 20
61.74745044882758
 30
0.0
 40
0.2061750317438645
100
AcDbArc
 50
350.1525871731367
 51
80.15258717313472
  0
LINE
  5
27F
330
1F
100
AcDbEntity
  8
1
  6
Continuous
 62
     7
370
    30
100
AcDbLine
 10
207.3363691952634
 20
61.95058784425606
 30
0.0
 11
206.8062774067906
 21
62.04260240353724
 31
0.0
  0
LINE
  5
280
330
1F
100
AcDbEntity
  8
1
  6
Continuous
 62
     7
370
    30
100
AcDbLine
 10
204.4555874857369
 20
62.45064059955516
 30
0.0
 11
204.2124249509817
 21
62.49284931501867
 31
0.0
  0
LINE
  5
281
330
1F
100
AcDbEntity
  8
1
  6
Continuous
 62
     7
370
    30
100
AcDbLine
 10
207.7036043049364
 20
63.8859289974834
 30
0.0
 11
203.115220614839
 21
58.60811382976857
 31
0.0
  0
LINE
  5
282
330
1F
100
AcDbEntity
  8
1
  6
Continuous
 62
     7
370
    30
100
AcDbLine
 10
207.8564587294194
 20
63.75691771944327
 30
0.0
 11
203.2642366598843
 21
58.47468743333724
 31
0.0
  0
ARC
  5
283
330
1F
100
AcDbEntity
  8
1
  6
Continuous
 62
     7
370
    30
100
AcDbCircle
 10
205.5234925415552
 20
61.14784340730051
 30
0.0
 40
3.5
100
AcDbArc
 50
229.7966998251439
 51
48.19774819749311
  0
ARC
  5
284
330
1F
100
AcDbEntity
  8
1
  6
Continuous
 62
     7
370
    30
100
AcDbCircle
 10
205.5234925415552
 20
61.14784340730051
 30
0.0
 40
3.5
100
AcDbArc
 50
51.47258163379203
 51
226.521866388845
  0
LINE
  5
285
330
1F
100
AcDbEntity
  8
1
  6
Continuous
 62
     7
370
    30
100
AcDbLine
 10
207.5042455315312
 20
61.71218938966703
 30
0.0
 11
207.1741341011914
 21
59.81043210395839
 31
0.0
  0
ARC
  5
286
330
1F
100
AcDbEntity
  8
1
  6
Continuous
 62
     7
370
    30
100
AcDbCircle
 10
206.9672280918693
 20
59.8463473278392
 30
0.0
 40
0.21
100
AcDbArc
 50
260.1525871731424
 51
350.1525871731437
  0
LINE
  5
287
330
1F
100
AcDbEntity
  8
1
  6
Continuous
 62
     7
370
    30
100
AcDbLine
 10
206.8062774067906
 20
62.04260240353724
 30
0.0
 11
206.4238000586633
 21
62.10899370668179
 31
0.0
  0
LINE
  5
288
330
1F
100
AcDbEntity
  8
1
  6
Continuous
 62
     7
370
    30
100
AcDbLine
 10
206.1935354853421
 20
62.14896356415349
 30
0.0
 11
204.2124249509817
 21
62.49284931501867
 31
0.0
  0
LINE
  5
289
330
1F
100
AcDbEntity
  8
1
  6
Continuous
 62
     7
370
    30
100
AcDbLine
 10
204.6248965716273
 20
60.03979445256871
 30
0.0
 11
206.9314946793573
 21
59.63940984155349
 31
0.0
  0
LINE
  5
28A
330
1F
100
AcDbEntity
  8
1
  6
Continuous
 62
     7
370
    30
100
AcDbLine
 10
203.8111372376004
 20
60.18104862455951
 30
0.0
 11
204.3946320090586
 21
60.07976425191669
 31
0.0
  0
INSERT
  5
296
330
1F
100
AcDbEntity
  8
0
100
AcDbBlockReference
  2
*G30
 10
0.0
 20
0.0
 30
0.0
  0
LINE
  5
297
330
1F
100
AcDbEntity
  8
1
  6
Continuous
 62
     7
370
    30
100
AcDbLine
 10
203.6383458598831
 20
50.35306526924677
 30
0.0
 11
204.2383458598829
 21
50.15447364891924
 31
0.0
  0
LINE
  5
298
330
1F
100
AcDbEntity
  8
1
  6
Continuous
 62
     7
370
    30
100
AcDbLine
 10
204.6160638598832
 20
50.02945449164673
 30
0.0
 11
205.216063859883
 21
49.8308628713192
 31
0.0
  0
LINE
  5
299
330
1F
100
AcDbEntity
  8
1
  6
Continuous
 62
     7
370
    30
100
AcDbLine
 10
203.0328665655134
 20
51.78044122613238
 30
0.0
 11
203.2213992960687
 21
52.35005099479707
 31
0.0
  0
LINE
  5
29A
330
1F
100
AcDbEntity
  8
1
  6
Continuous
 62
     7
370
    30
100
AcDbLine
 10
203.6383458598831
 20
51.5800361489641
 30
0.0
 11
203.0328665655134
 21
51.78044122613238
 31
0.0
  0
LINE
  5
29B
330
1F
100
AcDbEntity
  8
1
  6
Continuous
 62
     7
370
    30
100
AcDbLine
 10
203.6383458598831
 20
51.5800361489641
 30
0.0
 11
203.6383458598831
 21
50.35306526924677
 31
0.0
  0
LINE
  5
29C
330
1F
100
AcDbEntity
  8
1
  6
Continuous
 62
     7
370
    30
100
AcDbLine
 10
204.2383458598829
 20
50.15447364891924
 30
0.0
 11
204.2383458598829
 21
51.38144464068461
 31
0.0
  0
LINE
  5
29D
330
1F
100
AcDbEntity
  8
1
  6
Continuous
 62
     7
370
    30
100
AcDbLine
 10
204.6160638598832
 20
51.25642532847729
 30
0.0
 11
204.2383458598829
 21
51.38144464068461
 31
0.0
  0
LINE
  5
29E
330
1F
100
AcDbEntity
  8
1
  6
Continuous
 62
     7
370
    30
100
AcDbLine
 10
204.6160638598832
 20
51.25642532847729
 30
0.0
 11
204.6160638598832
 21
50.02945449164673
 31
0.0
  0
LINE
  5
29F
330
1F
100
AcDbEntity
  8
1
  6
Continuous
 62
     7
370
    30
100
AcDbLine
 10
205.216063859883
 20
49.8308628713192
 30
0.0
 11
205.216063859883
 21
51.0578338201978
 31
0.0
  0
SPLINE
  5
2A0
330
1F
100
AcDbEntity
  8
1
  6
Continuous
 62
     7
370
    30
100
AcDbSpline
210
0.0
220
0.0
230
1.0
 70
    12
 71
     3
 72
    29
 73
    25
 74
     0
 42
0.000000001
 43
0.0000001
 40
0.0
 40
0.0
 40
0.0
 40
0.0
 40
1.0
 40
1.0
 40
1.0
 40
2.0
 40
2.0
 40
2.0
 40
3.0
 40
3.0
 40
3.0
 40
4.0
 40
4.0
 40
4.0
 40
5.0
 40
5.0
 40
5.0
 40
6.0
 40
6.0
 40
6.0
 40
7.0
 40
7.0
 40
7.0
 40
8.0
 40
8.0
 40
8.0
 40
8.0
 10
205.9875793598005
 20
51.43448442807761
 30
0.0
 41
1.0
 10
206.0141950949287
 20
51.51208439209337
 30
0.0
 41
1.0
 10
206.0408108300568
 20
51.58968435610913
 30
0.0
 41
1.0
 10
206.0726910994743
 20
51.66511809216996
 30
0.0
 41
1.0
 10
206.2503628485211
 20
52.08551741965242
 30
0.0
 41
1.0
 10
206.4328679448184
 20
52.23149158926576
 30
0.0
 41
1.0
 10
206.703492666157
 20
52.3290317236594
 30
0.0
 41
1.0
 10
207.1604627638799
 20
52.49375574923072
 30
0.0
 41
1.0
 10
207.5067944779156
 20
52.18226717227037
 30
0.0
 41
1.0
 10
207.7165834244332
 20
51.83592688078176
 30
0.0
 41
1.0
 10
207.8134718379534
 20
51.6745368376233
 30
0.0
 41
1.0
 10
207.8500669836402
 20
51.51697627498802
 30
0.0
 41
1.0
 10
207.9087357887936
 20
51.27343699448767
 30
0.0
 41
1.0
 10
208.0428467263243
 20
50.71753854710683
 30
0.0
 41
1.0
 10
207.894590973007
 20
49.89417311616637
 30
0.0
 41
1.0
 10
207.4653819080137
 20
49.51175143969687
 30
0.0
 41
1.0
 10
207.268882235003
 20
49.33662860093818
 30
0.0
 41
1.0
 10
206.9138083479341
 20
49.1541858922516
 30
0.0
 41
1.0
 10
206.5029660310119
 20
49.43065625171454
 30
0.0
 41
1.0
 10
206.1942009083904
 20
49.63843524848457
 30
0.0
 41
1.0
 10
205.9518512578279
 20
50.15712863015105
 30
0.0
 41
1.0
 10
205.9158163670186
 20
50.63072348089594
 30
0.0
 41
1.0
 10
205.9108459266174
 20
50.69691613610229
 30
0.0
 41
1.0
 10
205.9083805167861
 20
50.76320947844624
 30
0.0
 41
1.0
 10
205.9059151069549
 20
50.8295028207902
 30
0.0
 41
1.0
  0
LINE
  5
2A1
330
1F
100
AcDbEntity
  8
1
  6
Continuous
 62
     7
370
    30
100
AcDbLine
 10
203.2213992960687
 20
52.35005099479707
 30
0.0
 11
205.9875793951959
 21
51.43448451935382
 31
0.0
  0
LINE
  5
2A2
330
1F
100
AcDbEntity
  8
1
  6
Continuous
 62
     7
370
    30
100
AcDbLine
 10
205.9059151094799
 20
50.82950281995448
 30
0.0
 11
205.216063859883
 21
51.0578338201978
 31
0.0
  0
CIRCLE
  5
2A3
330
1F
100
AcDbEntity
  8
1
  6
Continuous
 62
     7
370
    30
100
AcDbCircle
 10
205.588202859883
 20
51.14784340730051
 30
0.0
 40
3.5
  0
LINE
  5
2A4
330
1F
100
AcDbEntity
  8
1
  6
PHANTOM
 62
     7
370
     9
100
AcDbLine
 10
154.3447618017121
 20
32.35089999999958
 30
0.0
 11
59.34476180171214
 21
76.35089999999998
 31
0.0
  0
LINE
  5
2A5
330
1F
100
AcDbEntity
  8
1
  6
PHANTOM
 62
     7
370
     9
100
AcDbLine
 10
59.34476180171214
 20
32.35090000000027
 30
0.0
 11
154.3447618017121
 21
76.3508999999997
 31
0.0
  0
LINE
  5
2A6
330
1F
100
AcDbEntity
  8
1
  6
PHANTOM
 62
     7
370
     9
100
AcDbLine
 10
222.3509156478017
 20
235.8509000000005
 30
0.0
 11
266.3509156478017
 21
105.8509000000005
 31
0.0
  0
LINE
  5
2A7
330
1F
100
AcDbEntity
  8
1
  6
PHANTOM
 62
     7
370
     9
100
AcDbLine
 10
222.3509156478017
 20
105.8509000000005
 30
0.0
 11
266.3509156478017
 21
235.8509000000005
 31
0.0
  0
LINE
  5
2A8
330
1F
100
AcDbEntity
  8
1
  6
PHANTOM
 62
     7
370
    30
100
AcDbLine
 10
222.3509156478016
 20
105.8509000000004
 30
0.0
 11
266.3509156478017
 21
105.8509000000005
 31
0.0
  0
LINE
  5
2A9
330
1F
100
AcDbEntity
  8
1
  6
PHANTOM
 62
     7
370
    30
100
AcDbLine
 10
266.3509156478017
 20
105.8509000000005
 30
0.0
 11
266.3509156478017
 21
170.8509000000005
 31
0.0
  0
LINE
  5
2AA
330
1F
100
AcDbEntity
  8
1
  6
PHANTOM
 62
     7
370
    30
100
AcDbLine
 10
222.3509156478016
 20
235.8509000000004
 30
0.0
 11
266.3509156478017
 21
235.8509000000005
 31
0.0
  0
LINE
  5
2AB
330
1F
100
AcDbEntity
  8
1
  6
PHANTOM
 62
     7
370
    30
100
AcDbLine
 10
266.3509156478017
 20
235.8509000000005
 30
0.0
 11
266.3509156478017
 21
170.8509000000005
 31
0.0
  0
LINE
  5
2AC
330
1F
100
AcDbEntity
  8
1
  6
PHANTOM
 62
     7
370
    30
100
AcDbLine
 10
59.344761801712
 20
32.35090000000027
 30
0.0
 11
59.34476180171228
 21
76.35090000000027
 31
0.0
  0
LINE
  5
2AD
330
1F
100
AcDbEntity
  8
1
  6
PHANTOM
 62
     7
370
    30
100
AcDbLine
 10
154.344761801712
 20
32.35089999999958
 30
0.0
 11
59.344761801712
 21
32.35090000000027
 31
0.0
  0
LINE
  5
2AE
330
1F
100
AcDbEntity
  8
1
  6
PHANTOM
 62
     7
370
    30
100
AcDbLine
 10
154.3447618017122
 20
76.3508999999997
 30
0.0
 11
154.344761801712
 21
32.35089999999958
 31
0.0
  0
CIRCLE
  5
2AF
330
1F
100
AcDbEntity
  8
1
  6
Continuous
 62
     7
370
    30
100
AcDbCircle
 10
140.0447618017119
 20
134.3508999999999
 30
0.0
 40
6.0
  0
LINE
  5
2B0
330
1F
100
AcDbEntity
  8
1
  6
Continuous
 62
     7
370
    30
100
AcDbLine
 10
136.702149801712
 20
132.9884231919078
 30
0.0
 11
137.7307212302833
 21
132.6479804142035
 31
0.0
  0
LINE
  5
2B1
330
1F
100
AcDbEntity
  8
1
  6
Continuous
 62
     7
370
    30
100
AcDbLine
 10
138.3782378017122
 20
132.4336618588792
 30
0.0
 11
139.4068092302834
 21
132.0932190811748
 31
0.0
  0
LINE
  5
2B2
330
1F
100
AcDbEntity
  8
1
  6
Continuous
 62
     7
370
    30
100
AcDbLine
 10
135.6641852970783
 20
135.4353534037117
 30
0.0
 11
135.9873842637446
 21
136.4118272928512
 31
0.0
  0
LINE
  5
2B3
330
1F
100
AcDbEntity
  8
1
  6
Continuous
 62
     7
370
    30
100
AcDbLine
 10
136.702149801712
 20
135.0918018428518
 30
0.0
 11
135.6641852970783
 21
135.4353534037117
 31
0.0
  0
LINE
  5
2B4
330
1F
100
AcDbEntity
  8
1
  6
Continuous
 62
     7
370
    30
100
AcDbLine
 10
136.702149801712
 20
135.0918018428518
 30
0.0
 11
136.702149801712
 21
132.9884231919078
 31
0.0
  0
LINE
  5
2B5
330
1F
100
AcDbEntity
  8
1
  6
Continuous
 62
     7
370
    30
100
AcDbLine
 10
137.7307212302833
 20
132.6479804142035
 30
0.0
 11
137.7307212302833
 21
134.7513592572298
 31
0.0
  0
LINE
  5
2B6
330
1F
100
AcDbEntity
  8
1
  6
Continuous
 62
     7
370
    30
100
AcDbLine
 10
138.3782378017122
 20
134.537040436303
 30
0.0
 11
137.7307212302833
 21
134.7513592572298
 31
0.0
  0
LINE
  5
2B7
330
1F
100
AcDbEntity
  8
1
  6
Continuous
 62
     7
370
    30
100
AcDbLine
 10
138.3782378017122
 20
134.537040436303
 30
0.0
 11
138.3782378017122
 21
132.4336618588792
 31
0.0
  0
LINE
  5
2B8
330
1F
100
AcDbEntity
  8
1
  6
Continuous
 62
     7
370
    30
100
AcDbLine
 10
139.4068092302834
 20
132.0932190811748
 30
0.0
 11
139.4068092302834
 21
134.196597850681
 31
0.0
  0
SPLINE
  5
2B9
330
1F
100
AcDbEntity
  8
1
  6
Continuous
 62
     7
370
    30
100
AcDbSpline
210
0.0
220
0.0
230
1.0
 70
    12
 71
     3
 72
    29
 73
    25
 74
     0
 42
0.000000001
 43
0.0000001
 40
0.0
 40
0.0
 40
0.0
 40
0.0
 40
1.0
 40
1.0
 40
1.0
 40
2.0
 40
2.0
 40
2.0
 40
3.0
 40
3.0
 40
3.0
 40
4.0
 40
4.0
 40
4.0
 40
5.0
 40
5.0
 40
5.0
 40
6.0
 40
6.0
 40
6.0
 40
7.0
 40
7.0
 40
7.0
 40
8.0
 40
8.0
 40
8.0
 40
8.0
 10
140.7294072301418
 20
134.8422846070464
 30
0.0
 41
1.0
 10
140.7750342046473
 20
134.9753131167877
 30
0.0
 41
1.0
 10
140.8206611791528
 20
135.108341626529
 30
0.0
 41
1.0
 10
140.8753130695827
 20
135.2376566026333
 30
0.0
 41
1.0
 10
141.0669204807707
 20
135.6910299005056
 30
0.0
 41
1.0
 10
141.3840555026989
 20
136.0256857621964
 30
0.0
 41
1.0
 10
141.5190529149975
 20
136.1297974375125
 30
0.0
 41
1.0
 10
142.4091746869006
 20
136.820474707397
 30
0.0
 41
1.0
 10
143.2462302102934
 20
136.2687187082888
 30
0.0
 41
1.0
 10
143.6934141980837
 20
135.5304716688249
 30
0.0
 41
1.0
 10
143.8595086212611
 20
135.2538030234105
 30
0.0
 41
1.0
 10
143.9222431567243
 20
134.9836992017499
 30
0.0
 41
1.0
 10
144.022818251273
 20
134.5662032923208
 30
0.0
 41
1.0
 10
144.2527228674129
 20
133.6132268752011
 30
0.0
 41
1.0
 10
143.9985718486262
 20
132.2017272578236
 30
0.0
 41
1.0
 10
143.2627830270788
 20
131.5461709126794
 30
0.0
 41
1.0
 10
142.9259264447748
 20
131.2459603319502
 30
0.0
 41
1.0
 10
142.3172283526566
 20
130.9332014027732
 30
0.0
 41
1.0
 10
141.6129272379328
 20
131.407150590424
 30
0.0
 41
1.0
 10
141.0836155991531
 20
131.7633431563155
 30
0.0
 41
1.0
 10
140.6681590553317
 20
132.6525318106008
 30
0.0
 41
1.0
 10
140.6063849568015
 20
133.4644086975921
 30
0.0
 41
1.0
 10
140.597864201828
 20
133.577881820803
 30
0.0
 41
1.0
 10
140.5936377849744
 20
133.6915275505355
 30
0.0
 41
1.0
 10
140.5894113681208
 20
133.805173280268
 30
0.0
 41
1.0
  0
LINE
  5
2BA
330
1F
100
AcDbEntity
  8
1
  6
Continuous
 62
     7
370
    30
100
AcDbLine
 10
135.9873842637446
 20
136.4118272928512
 30
0.0
 11
140.7294072908197
 21
134.8422847635199
 31
0.0
  0
LINE
  5
2BB
330
1F
100
AcDbEntity
  8
1
  6
Continuous
 62
     7
370
    30
100
AcDbLine
 10
140.5894113724495
 20
133.8051732788353
 30
0.0
 11
139.4068092302834
 21
134.196597850681
 31
0.0
  0
ARC
  5
2BC
330
1F
100
AcDbEntity
  8
1
  6
Continuous
 62
     7
370
    30
100
AcDbCircle
 10
111.9697256133915
 20
189.8839665405687
 30
0.0
 40
8.554381766767548
100
AcDbArc
 50
88.50492904273668
 51
121.5361435273566
  0
ARC
  5
2BD
330
1F
100
AcDbEntity
  8
1
  6
Continuous
 62
     7
370
    30
100
AcDbCircle
 10
111.9697256133915
 20
189.8839665405687
 30
0.0
 40
6.08316612662172
100
AcDbArc
 50
56.48829511016724
 51
127.1783534211679
  0
ARC
  5
2BE
330
1F
100
AcDbEntity
  8
1
  6
Continuous
 62
     7
370
    30
100
AcDbCircle
 10
111.9697256133915
 20
189.8839665405687
 30
0.0
 40
3.643985311664586
100
AcDbArc
 50
64.05559989398132
 51
132.74542737203
  0
ARC
  5
2BF
330
1F
100
AcDbEntity
  8
1
  6
Continuous
 62
     7
370
    30
100
AcDbCircle
 10
111.9697256133915
 20
189.8839665405687
 30
0.0
 40
1.890085452418192
100
AcDbArc
 50
46.80043945344347
 51
140.2519860023478
  0
INSERT
  5
45A
330
1F
100
AcDbEntity
  8
0
100
AcDbBlockReference
  2
*G31
 10
0.0
 20
0.0
 30
0.0
  0
LINE
  5
45B
330
1F
100
AcDbEntity
  8
1
  6
Continuous
 62
     7
370
    30
100
AcDbLine
 10
106.3447618821421
 20
80.8508997416624
 30
0.0
 11
105.3447618821421
 21
80.8508997416624
 31
0.0
  0
LINE
  5
45C
330
1F
100
AcDbEntity
  8
1
  6
Continuous
 62
     7
370
    30
100
AcDbLine
 10
105.3447618821421
 20
80.8508997416624
 30
0.0
 11
105.3447618821421
 21
79.8508997416624
 31
0.0
  0
LINE
  5
45D
330
1F
100
AcDbEntity
  8
1
  6
Continuous
 62
     7
370
    30
100
AcDbLine
 10
105.3447618821421
 20
79.8508997416624
 30
0.0
 11
106.3447618821421
 21
79.8508997416624
 31
0.0
  0
LINE
  5
45E
330
1F
100
AcDbEntity
  8
1
  6
Continuous
 62
     7
370
    30
100
AcDbLine
 10
106.3447618821421
 20
79.8508997416624
 30
0.0
 11
106.3447618821421
 21
78.8508997416624
 31
0.0
  0
LINE
  5
45F
330
1F
100
AcDbEntity
  8
1
  6
Continuous
 62
     7
370
    30
100
AcDbLine
 10
106.3447618821421
 20
78.8508997416624
 30
0.0
 11
107.3447618821421
 21
78.8508997416624
 31
0.0
  0
LINE
  5
460
330
1F
100
AcDbEntity
  8
1
  6
Continuous
 62
     7
370
    30
100
AcDbLine
 10
107.3447618821421
 20
78.8508997416624
 30
0.0
 11
107.3447618821421
 21
79.8508997416624
 31
0.0
  0
LINE
  5
461
330
1F
100
AcDbEntity
  8
1
  6
Continuous
 62
     7
370
    30
100
AcDbLine
 10
107.3447618821421
 20
79.8508997416624
 30
0.0
 11
108.3447618821421
 21
79.8508997416624
 31
0.0
  0
LINE
  5
462
330
1F
100
AcDbEntity
  8
1
  6
Continuous
 62
     7
370
    30
100
AcDbLine
 10
108.3447618821421
 20
79.8508997416624
 30
0.0
 11
108.3447618821421
 21
80.8508997416624
 31
0.0
  0
LINE
  5
463
330
1F
100
AcDbEntity
  8
1
  6
Continuous
 62
     7
370
    30
100
AcDbLine
 10
108.3447618821421
 20
80.8508997416624
 30
0.0
 11
107.3447618821421
 21
80.8508997416624
 31
0.0
  0
LINE
  5
464
330
1F
100
AcDbEntity
  8
1
  6
Continuous
 62
     7
370
    30
100
AcDbLine
 10
107.3447618821421
 20
81.8508997416624
 30
0.0
 11
106.3447618821421
 21
81.8508997416624
 31
0.0
  0
LINE
  5
465
330
1F
100
AcDbEntity
  8
1
  6
Continuous
 62
     7
370
    30
100
AcDbLine
 10
107.3447618821421
 20
80.8508997416624
 30
0.0
 11
107.3447618821421
 21
81.8508997416624
 31
0.0
  0
LINE
  5
466
330
1F
100
AcDbEntity
  8
1
  6
Continuous
 62
     7
370
    30
100
AcDbLine
 10
106.3447618821421
 20
81.8508997416624
 30
0.0
 11
106.3447618821421
 21
80.8508997416624
 31
0.0
  0
CIRCLE
  5
467
330
1F
100
AcDbEntity
  8
1
  6
Continuous
 62
     7
370
    30
100
AcDbCircle
 10
106.8447618821421
 20
80.3508997416624
 30
0.0
 40
3.0
  0
MTEXT
  5
468
330
1F
100
AcDbEntity
  8
15
  6
PHANTOM
 62
    96
370
     9
100
AcDbMText
 10
367.60195
 20
241.7853
 30
0.0
 40
3.0
 41
11.69735478995433
 71
     5
 72
     1
  1
{\fＭＳ ゴシック;\W0.714286;\T1.133333;グレー}
 73
     1
 44
1.0
1001
ACAD
1000
ACAD_MTEXT_DEFINED_HEIGHT_BEGIN
1070
    46
1040
3.0
1000
ACAD_MTEXT_DEFINED_HEIGHT_END
  0
MTEXT
  5
469
330
1F
100
AcDbEntity
  8
15
  6
PHANTOM
 62
    96
370
     9
100
AcDbMText
 10
356.49885
 20
230.7846779907503
 30
0.0
 40
3.0
 41
32.57744556238015
 71
     4
 72
     1
  1
{\fＭＳ ゴシック;\W0.714286;\T1.133333;照合部：ブラック}
 73
     1
 44
1.0
1001
ACAD
1000
ACAD_MTEXT_DEFINED_HEIGHT_BEGIN
1070
    46
1040
3.0
1000
ACAD_MTEXT_DEFINED_HEIGHT_END
  0
LINE
  5
46A
330
1F
100
AcDbEntity
  8
15
  6
Continuous
 62
    96
370
    30
100
AcDbLine
 10
310.0869986779355
 20
272.0757920685739
 30
0.0
 11
310.0869986779355
 21
14.9998210242025
 31
0.0
  0
MTEXT
  5
46B
330
1F
100
AcDbEntity
  8
15
  6
PHANTOM
 62
    96
370
     9
100
AcDbMText
 10
367.6361
 20
225.3120279907504
 30
0.0
 40
3.0
 41
13.73972000362866
 71
     5
 72
     1
  1
{\fＭＳ ゴシック;\W0.714286;\T1.133333;約190ｇ}
 73
     1
 44
1.0
1001
ACAD
1000
ACAD_MTEXT_DEFINED_HEIGHT_BEGIN
1070
    46
1040
3.0
1000
ACAD_MTEXT_DEFINED_HEIGHT_END
  0
MTEXT
  5
46C
330
1F
100
AcDbEntity
  8
15
  6
PHANTOM
 62
    96
370
     9
100
AcDbMText
 10
367.6135406474743
 20
208.807949966828
 30
0.0
 40
3.0
 41
14.77003447944
 71
     5
 72
     1
  1
{\fＭＳ ゴシック;\W0.714286;２．７Ｗ}
 73
     1
 44
1.0
1001
ACAD
1000
ACAD_MTEXT_DEFINED_HEIGHT_BEGIN
1070
    46
1040
3.0
1000
ACAD_MTEXT_DEFINED_HEIGHT_END
  0
MTEXT
  5
46D
330
1F
100
AcDbEntity
  8
15
  6
PHANTOM
 62
    96
370
     9
100
AcDbMText
 10
367.6039560473636
 20
269.3249810639492
 30
0.0
 40
3.0
 41
27.52447562854299
 71
     5
 72
     1
  1
{\fＭＳ ゴシック;\W0.714286;\T1.133333;０１０２５４４}
 73
     1
 44
1.0
1001
ACAD
1000
ACAD_MTEXT_DEFINED_HEIGHT_BEGIN
1070
    46
1040
3.0
1000
ACAD_MTEXT_DEFINED_HEIGHT_END
  0
MTEXT
  5
46E
330
1F
100
AcDbEntity
  8
15
  6
Continuous
 62
    96
370
     9
100
AcDbMText
 10
355.0997486032301
 20
55.0117964309065
 30
0.0
 40
5.0
 41
46.569730056456
 71
     5
 72
     1
  1
{\fＭＳ ゴシック;\W0.714286;\T1.080000;ＷＭＬ－２０Ａ}
 73
     1
 44
1.0
1001
ACAD
1000
ACAD_MTEXT_DEFINED_HEIGHT_BEGIN
1070
    46
1040
5.0
1000
ACAD_MTEXT_DEFINED_HEIGHT_END
  0
MTEXT
  5
46F
330
1F
100
AcDbEntity
  8
15
  6
Continuous
 62
    96
370
     9
100
AcDbMText
 10
387.7855527720052
 20
37.07061022922154
 30
0.0
 40
5.0
 41
13.91701985252
 71
     5
 72
     1
  1
{\fHG正楷書体-PRO;\W0.714286;\T1.080000;池田}
 73
     1
 44
1.0
1001
ACAD
1000
ACAD_MTEXT_DEFINED_HEIGHT_BEGIN
1070
    46
1040
5.0
1000
ACAD_MTEXT_DEFINED_HEIGHT_END
  0
MTEXT
  5
470
330
1F
100
AcDbEntity
  8
15
  6
Continuous
 62
    96
370
     9
100
AcDbMText
 10
337.7708072333721
 20
37.07061022922154
 30
0.0
 40
5.0
 41
13.26787673572
 71
     5
 72
     1
  1
{\fHG正楷書体-PRO;\W0.714286;\T1.080000;加川}
 73
     1
 44
1.0
1001
ACAD
1000
ACAD_MTEXT_DEFINED_HEIGHT_BEGIN
1070
    46
1040
5.0
1000
ACAD_MTEXT_DEFINED_HEIGHT_END
  0
MTEXT
  5
471
330
1F
100
AcDbEntity
  8
15
  6
Continuous
 62
    96
370
     9
100
AcDbMText
 10
358.4697839208739
 20
46.44434753960866
 30
0.0
 40
5.0
 41
100.01432643926
 71
     5
 72
     1
  1
{\fＭＳ ゴシック;\W0.571429;\T1.050000;非接触式FeliCa/MIFARE対応埋込リーダー}
 73
     1
 44
1.0
1001
ACAD
1000
ACAD_MTEXT_DEFINED_HEIGHT_BEGIN
1070
    46
1040
5.0
1000
ACAD_MTEXT_DEFINED_HEIGHT_END
  0
MTEXT
  5
472
330
1F
100
AcDbEntity
  8
15
  6
Continuous
 62
    96
370
     9
100
AcDbMText
 10
340.2172905573726
 20
30.013330054369
 30
0.0
 40
3.5
 41
34.19716367886001
 71
     5
 72
     1
  1
{\fＭＳ ゴシック;\W0.714286;G06082-01-20X08}
 73
     1
 44
1.0
1001
ACAD
1000
ACAD_MTEXT_DEFINED_HEIGHT_BEGIN
1070
    46
1040
3.5
1000
ACAD_MTEXT_DEFINED_HEIGHT_END
  0
MTEXT
  5
473
330
1F
100
AcDbEntity
  8
15
  6
Continuous
 62
    96
370
     9
100
AcDbMText
 10
365.4274645868237
 20
62.17397262465012
 30
0.0
 40
3.5
 41
34.19716367886001
 71
     5
 72
     1
  1
{\fＭＳ ゴシック;\W0.714286;G06082-01-20618}
 73
     1
 44
1.0
1001
ACAD
1000
ACAD_MTEXT_DEFINED_HEIGHT_BEGIN
1070
    46
1040
3.5
1000
ACAD_MTEXT_DEFINED_HEIGHT_END
  0
MTEXT
  5
474
330
1F
100
AcDbEntity
  8
15
  6
Continuous
 62
    96
370
     9
100
AcDbMText
 10
362.7781800026887
 20
37.07061022922154
 30
0.0
 40
5.0
 41
13.17659098492
 71
     5
 72
     1
  1
{\fHG正楷書体-PRO;\W0.714286;\T1.080000;片山}
 73
     1
 44
1.0
1001
ACAD
1000
ACAD_MTEXT_DEFINED_HEIGHT_BEGIN
1070
    46
1040
5.0
1000
ACAD_MTEXT_DEFINED_HEIGHT_END
  0
MTEXT
  5
475
330
1F
100
AcDbEntity
  8
15
  6
Continuous
 62
    96
370
     9
100
AcDbMText
 10
364.2774724347753
 20
28.50715732578613
 30
0.0
 40
3.0
 41
29.37879087801164
 71
     7
 72
     1
  1
{\fＭＳ ゴシック;\W0.714286;\T1.133333;2020年10月08日}
 73
     1
 44
1.0
1001
ACAD
1000
ACAD_MTEXT_DEFINED_HEIGHT_BEGIN
1070
    46
1040
3.0
1000
ACAD_MTEXT_DEFINED_HEIGHT_END
  0
LINE
  5
476
330
1F
100
AcDbEntity
  8
15
  6
Continuous
 62
    96
370
     9
100
AcDbLine
 10
310.1135406474744
 20
200.755949966828
 30
0.0
 11
400.1135406474743
 21
200.755949966828
 31
0.0
  0
LINE
  5
477
330
1F
100
AcDbEntity
  8
15
  6
Continuous
 62
    96
370
     9
100
AcDbLine
 10
310.1135406474744
 20
200.755949966828
 30
0.0
 11
400.1135406474743
 21
200.755949966828
 31
0.0
  0
LINE
  5
478
330
1F
100
AcDbEntity
  8
15
  6
Continuous
 62
    96
370
     9
100
AcDbLine
 10
399.9526569180788
 20
184.255949966828
 30
0.0
 11
309.9526569180789
 21
184.255949966828
 31
0.0
  0
LINE
  5
479
330
1F
100
AcDbEntity
  8
15
  6
Continuous
 62
    96
370
     9
100
AcDbLine
 10
399.9526569180788
 20
195.255949966828
 30
0.0
 11
334.9526569180789
 21
195.255949966828
 31
0.0
  0
LINE
  5
47A
330
1F
100
AcDbEntity
  8
15
  6
Continuous
 62
    96
370
     9
100
AcDbLine
 10
334.9596175033329
 20
189.755949966828
 30
0.0
 11
399.9526569180788
 21
189.755949966828
 31
0.0
  0
MTEXT
  5
47B
330
1F
100
AcDbEntity
  8
15
  6
PHANTOM
 62
    96
370
     9
100
AcDbMText
 10
335.9596175033329
 20
198.005949966828
 30
0.0
 40
3.0
 41
52.27326376644
 71
     4
 72
     1
  1
{\fＭＳ ゴシック;\W0.714286;FeliCa Standard(鍵なし領域)}
 73
     1
 44
1.0
1001
ACAD
1000
ACAD_MTEXT_DEFINED_HEIGHT_BEGIN
1070
    46
1040
3.0
1000
ACAD_MTEXT_DEFINED_HEIGHT_END
  0
MTEXT
  5
47C
330
1F
100
AcDbEntity
  8
15
  6
PHANTOM
 62
    96
370
     9
100
AcDbMText
 10
335.9596175033329
 20
192.505949966828
 30
0.0
 40
3.0
 41
21.35477997048
 71
     4
 72
     1
  1
{\fＭＳ ゴシック;\W0.714286;FeliCa Lite}
 73
     1
 44
1.0
1001
ACAD
1000
ACAD_MTEXT_DEFINED_HEIGHT_BEGIN
1070
    46
1040
3.0
1000
ACAD_MTEXT_DEFINED_HEIGHT_END
  0
MTEXT
  5
47D
330
1F
100
AcDbEntity
  8
15
  6
PHANTOM
 62
    96
370
     9
100
AcDbMText
 10
335.9596175033329
 20
187.005949966828
 30
0.0
 40
3.0
 41
29.26316884812
 71
     4
 72
     1
  1
{\fＭＳ ゴシック;\W0.714286;MIFARE Standard}
 73
     1
 44
1.0
1001
ACAD
1000
ACAD_MTEXT_DEFINED_HEIGHT_BEGIN
1070
    46
1040
3.0
1000
ACAD_MTEXT_DEFINED_HEIGHT_END
  0
LINE
  5
47E
330
1F
100
AcDbEntity
  8
15
  6
Continuous
 62
    96
370
     9
100
AcDbLine
 10
334.9596175033329
 20
189.755949966828
 30
0.0
 11
399.9526569180788
 21
189.755949966828
 31
0.0
  0
MTEXT
  5
47F
330
1F
100
AcDbEntity
  8
15
  6
PHANTOM
 62
    96
370
     9
100
AcDbMText
 10
311.9374787797684
 20
178.0386363385944
 30
0.0
 40
3.0
 41
102.2711000788801
 71
     4
 72
     1
  1
{\fＭＳ ゴシック;\W0.619048;MIFARE Plus、TypeBカードなど)をご使用の場合は問合せください。}
 73
     1
 44
1.0
1001
ACAD
1000
ACAD_MTEXT_DEFINED_HEIGHT_BEGIN
1070
    46
1040
3.0
1000
ACAD_MTEXT_DEFINED_HEIGHT_END
  0
MTEXT
  5
480
330
1F
100
AcDbEntity
  8
15
  6
PHANTOM
 62
    96
370
     9
100
AcDbMText
 10
312.1769254553596
 20
182.2403320101696
 30
0.0
 40
3.0
 41
112.81176656544
 71
     4
 72
     1
  1
{\fＭＳ ゴシック;\W0.619048;適応カード以外のカード（モバイルFeliCa、MIFARE DSFire、MIFARE T=CL}
 73
     1
 44
1.0
1001
ACAD
1000
ACAD_MTEXT_DEFINED_HEIGHT_BEGIN
1070
    46
1040
3.0
1000
ACAD_MTEXT_DEFINED_HEIGHT_END
  0
MTEXT
  5
481
330
1F
100
AcDbEntity
  8
15
  6
PHANTOM
 62
    96
370
     9
100
AcDbMText
 10
322.6920770151674
 20
191.9574225237222
 30
0.0
 40
3.0
 41
19.32823630272
 71
     5
 72
     1
  1
{\fＭＳ ゴシック;\W0.714286;適応カード}
 73
     1
 44
1.0
1001
ACAD
1000
ACAD_MTEXT_DEFINED_HEIGHT_BEGIN
1070
    46
1040
3.0
1000
ACAD_MTEXT_DEFINED_HEIGHT_END
  0
LINE
  5
482
330
1F
100
AcDbEntity
  8
15
  6
Continuous
 62
    96
370
     9
100
AcDbLine
 10
334.9596175033329
 20
261.0693040315754
 30
0.0
 11
334.9596175033329
 21
184.2556418591796
 31
0.0
  0
VIEWPORT
  5
6A
102
{ACAD_XDICTIONARY
360
48A
102
}
330
1B
100
AcDbEntity
 67
     1
  8
0
100
AcDbViewport
 10
210.0
 20
148.5
 30
0.0
 40
420.0
 41
297.0
 68
     1
 69
     1
 12
210.0
 22
148.5
 13
0.0
 23
0.0
 14
0.5
 24
0.5
 15
0.5
 25
0.5
 16
0.0
 26
0.0
 36
1.0
 17
0.0
 27
0.0
 37
0.0
 42
50.0
 43
0.0
 44
0.0
 45
9.0
 50
0.0
 51
0.0
 72
   100
 90
   557152
  1

281
     0
 71
     1
 74
     0
110
0.0
120
0.0
130
0.0
111
1.0
121
0.0
131
0.0
112
0.0
122
1.0
132
0.0
 79
     0
146
0.0
  0
ENDSEC
  0
SECTION
  2
OBJECTS
  0
DICTIONARY
  5
C
330
0
100
AcDbDictionary
281
     1
  3
ACAD_GROUP
350
D
  3
ACAD_LAYOUT
350
1A
  3
ACAD_MATERIAL
350
43
  3
ACAD_MLEADERSTYLE
350
485
  3
ACAD_MLINESTYLE
350
17
  3
ACAD_PLOTSETTINGS
350
19
  3
ACAD_PLOTSTYLENAME
350
E
  3
ACAD_SCALELIST
350
47
  3
ACAD_VISUALSTYLE
350
2A
  3
AcDbVariableDictionary
350
483
  0
DICTIONARY
  5
48C
330
8
100
AcDbDictionary
280
     1
281
     1
  3
ACAD_XREC_ROUNDTRIP
360
48D
  0
DICTIONARY
  5
48A
330
6A
100
AcDbDictionary
280
     1
281
     1
  3
ACAD_XREC_ROUNDTRIP
360
48B
  0
DICTIONARY
  5
D
102
{ACAD_REACTORS
330
C
102
}
330
C
100
AcDbDictionary
281
     1
  0
DICTIONARY
  5
1A
102
{ACAD_REACTORS
330
C
102
}
330
C
100
AcDbDictionary
281
     1
  3
Layout1
350
1E
  3
Layout2
350
26
  3
Model
350
22
  0
DICTIONARY
  5
43
102
{ACAD_REACTORS
330
C
102
}
330
C
100
AcDbDictionary
281
     1
  3
ByBlock
350
45
  3
ByLayer
350
44
  3
Global
350
46
  0
DICTIONARY
  5
485
102
{ACAD_REACTORS
330
C
102
}
330
C
100
AcDbDictionary
281
     1
  0
DICTIONARY
  5
17
102
{ACAD_REACTORS
330
C
102
}
330
C
100
AcDbDictionary
281
     1
  3
Standard
350
18
  0
DICTIONARY
  5
19
102
{ACAD_REACTORS
330
C
102
}
330
C
100
AcDbDictionary
281
     1
  0
ACDBDICTIONARYWDFLT
  5
E
102
{ACAD_REACTORS
330
C
102
}
330
C
100
AcDbDictionary
281
     1
  3
Normal
350
F
100
AcDbDictionaryWithDefault
340
F
  0
DICTIONARY
  5
47
102
{ACAD_REACTORS
330
C
102
}
330
C
100
AcDbDictionary
281
     1
  3
A0
350
48
  3
A1
350
49
  3
A2
350
4A
  3
A3
350
4B
  3
A4
350
4C
  3
A5
350
4D
  3
A6
350
4E
  3
A7
350
4F
  3
A8
350
50
  3
A9
350
51
  3
B0
350
52
  3
B1
350
53
  3
B2
350
54
  3
B3
350
55
  3
B4
350
56
  3
B5
350
57
  3
B6
350
58
  3
B7
350
59
  3
B8
350
5A
  3
B9
350
5B
  3
C0
350
5C
  3
C1
350
5D
  3
C2
350
5E
  3
C3
350
5F
  3
C4
350
60
  3
C5
350
61
  3
C6
350
62
  3
C7
350
63
  3
C8
350
64
  3
C9
350
65
  3
D0
350
66
  3
D1
350
67
  3
D2
350
68
  0
DICTIONARY
  5
2A
102
{ACAD_REACTORS
330
C
102
}
330
C
100
AcDbDictionary
281
     1
  3
2dWireframe
350
2F
  3
Basic
350
32
  3
Brighten
350
36
  3
ColorChange
350
3A
  3
Conceptual
350
34
  3
Dim
350
35
  3
EdgeColorOff
350
3D
  3
Facepattern
350
39
  3
Flat
350
2B
  3
FlatWithEdges
350
2C
  3
Gouraud
350
2D
  3
GouraudWithEdges
350
2E
  3
Hidden
350
31
  3
JitterOff
350
3B
  3
Linepattern
350
38
  3
OverhangOff
350
3C
  3
Realistic
350
33
  3
Shaded
350
42
  3
Shaded with edges
350
41
  3
Shades of Gray
350
3E
  3
Sketchy
350
3F
  3
Thicken
350
37
  3
Wireframe
350
30
  3
X-Ray
350
40
  0
DICTIONARY
  5
483
102
{ACAD_REACTORS
330
C
102
}
330
C
100
AcDbDictionary
281
     1
  3
CANNOSCALE
350
48E
  3
DIMASSOC
350
486
  3
HIDETEXT
350
489
  3
MSLTSCALE
350
48F
  0
XRECORD
  5
48D
102
{ACAD_REACTORS
330
48C
102
}
330
48C
100
AcDbXrecord
280
     1
102
VTR_0.000_0.000_1.000_1.000_GRIDDISPLAY
 70
     3
102
VTR_0.000_0.000_1.000_1.000_GRIDMAJOR
 70
     5
102
VTR_0.000_0.000_1.000_1.000_DEFAULTLIGHTING
280
     1
102
VTR_0.000_0.000_1.000_1.000_DEFAULTLIGHTINGTYPE
 70
     1
102
VTR_0.000_0.000_1.000_1.000_BRIGHTNESS
141
0.0
102
VTR_0.000_0.000_1.000_1.000_CONTRAST
142
0.0
  0
XRECORD
  5
48B
102
{ACAD_REACTORS
330
48A
102
}
330
48A
100
AcDbXrecord
280
     1
102
GRIDDISPLAY
 70
     2
102
GRIDMAJOR
 70
     5
102
DEFAULTLIGHTING
280
     1
102
DEFAULTLIGHTINGTYPE
 70
     1
102
BRIGHTNESS
141
0.0
102
CONTRAST
142
0.0
  0
LAYOUT
  5
1E
102
{ACAD_REACTORS
330
1A
102
}
330
1A
100
AcDbPlotSettings
  1

  2
none_device
  4

  6

 40
0.0
 41
0.0
 42
0.0
 43
0.0
 44
0.0
 45
0.0
 46
0.0
 47
0.0
 48
0.0
 49
0.0
140
0.0
141
0.0
142
1.0
143
1.0
 70
   688
 72
     0
 73
     0
 74
     5
  7

 75
    16
147
1.0
148
0.0
149
0.0
100
AcDbLayout
  1
Layout1
 70
     1
 71
     1
 10
0.0
 20
0.0
 11
420.0
 21
297.0
 12
0.0
 22
0.0
 32
0.0
 14
0.0
 24
0.0
 34
0.0
 15
420.0
 25
297.0
 35
0.0
146
0.0
 13
0.0
 23
0.0
 33
0.0
 16
1.0
 26
0.0
 36
0.0
 17
0.0
 27
1.0
 37
0.0
 76
     0
330
1B
331
6A
  0
LAYOUT
  5
26
102
{ACAD_REACTORS
330
1A
102
}
330
1A
100
AcDbPlotSettings
  1

  2
none_device
  4

  6

 40
0.0
 41
0.0
 42
0.0
 43
0.0
 44
0.0
 45
0.0
 46
0.0
 47
0.0
 48
0.0
 49
0.0
140
0.0
141
0.0
142
1.0
143
1.0
 70
   688
 72
     0
 73
     0
 74
     5
  7

 75
    16
147
1.0
148
0.0
149
0.0
100
AcDbLayout
  1
Layout2
 70
     1
 71
     2
 10
0.0
 20
0.0
 11
0.0
 21
0.0
 12
0.0
 22
0.0
 32
0.0
 14
0.0
 24
0.0
 34
0.0
 15
0.0
 25
0.0
 35
0.0
146
0.0
 13
0.0
 23
0.0
 33
0.0
 16
1.0
 26
0.0
 36
0.0
 17
0.0
 27
1.0
 37
0.0
 76
     0
330
23
  0
LAYOUT
  5
22
102
{ACAD_REACTORS
330
1A
102
}
330
1A
100
AcDbPlotSettings
  1

  2
none_device
  4
Letter_(8.50_x_11.00_Inches)
  6

 40
6.35
 41
6.35
 42
6.35000508
 43
6.35000508
 44
215.9
 45
279.4
 46
0.0
 47
0.0
 48
0.0
 49
0.0
140
0.0
141
0.0
142
1.0
143
1.0
 70
  1712
 72
     0
 73
     0
 74
     0
  7

 75
     0
147
1.0
148
0.0
149
0.0
100
AcDbLayout
  1
Model
 70
     1
 71
     0
 10
0.0
 20
0.0
 11
420.0
 21
297.0
 12
0.0
 22
0.0
 32
0.0
 14
15.0
 24
14.99967714084742
 34
0.0
 15
400.2589958481754
 25
272.0757920685739
 35
0.0
146
0.0
 13
0.0
 23
0.0
 33
0.0
 16
1.0
 26
0.0
 36
0.0
 17
0.0
 27
1.0
 37
0.0
 76
     0
330
1F
331
29
  0
MATERIAL
  5
45
102
{ACAD_REACTORS
330
43
102
}
102
{ACAD_XDICTIONARY
360
4C2
102
}
330
43
100
AcDbMaterial
  1
ByBlock
  0
MATERIAL
  5
44
102
{ACAD_REACTORS
330
43
102
}
102
{ACAD_XDICTIONARY
360
4C0
102
}
330
43
100
AcDbMaterial
  1
ByLayer
  0
MATERIAL
  5
46
102
{ACAD_REACTORS
330
43
102
}
102
{ACAD_XDICTIONARY
360
4C4
102
}
330
43
100
AcDbMaterial
  1
Global
  0
MLINESTYLE
  5
18
102
{ACAD_REACTORS
330
17
102
}
330
17
100
AcDbMlineStyle
  2
Standard
 70
     0
  3

 62
   256
 51
90.0
 52
90.0
 71
     2
 49
0.5
 62
   256
  6
BYLAYER
 49
-0.5
 62
   256
  6
BYLAYER
  0
ACDBPLACEHOLDER
  5
F
102
{ACAD_REACTORS
330
E
102
}
330
E
  0
SCALE
  5
48
102
{ACAD_REACTORS
330
47
102
}
330
47
100
AcDbScale
 70
     0
300
1:1
140
1.0
141
1.0
290
     1
  0
SCALE
  5
49
102
{ACAD_REACTORS
330
47
102
}
330
47
100
AcDbScale
 70
     0
300
1:2
140
1.0
141
2.0
290
     0
  0
SCALE
  5
4A
102
{ACAD_REACTORS
330
47
102
}
330
47
100
AcDbScale
 70
     0
300
1:4
140
1.0
141
4.0
290
     0
  0
SCALE
  5
4B
102
{ACAD_REACTORS
330
47
102
}
330
47
100
AcDbScale
 70
     0
300
1:5
140
1.0
141
5.0
290
     0
  0
SCALE
  5
4C
102
{ACAD_REACTORS
330
47
102
}
330
47
100
AcDbScale
 70
     0
300
1:8
140
1.0
141
8.0
290
     0
  0
SCALE
  5
4D
102
{ACAD_REACTORS
330
47
102
}
330
47
100
AcDbScale
 70
     0
300
1:10
140
1.0
141
10.0
290
     0
  0
SCALE
  5
4E
102
{ACAD_REACTORS
330
47
102
}
330
47
100
AcDbScale
 70
     0
300
1:16
140
1.0
141
16.0
290
     0
  0
SCALE
  5
4F
102
{ACAD_REACTORS
330
47
102
}
330
47
100
AcDbScale
 70
     0
300
1:20
140
1.0
141
20.0
290
     0
  0
SCALE
  5
50
102
{ACAD_REACTORS
330
47
102
}
330
47
100
AcDbScale
 70
     0
300
1:30
140
1.0
141
30.0
290
     0
  0
SCALE
  5
51
102
{ACAD_REACTORS
330
47
102
}
330
47
100
AcDbScale
 70
     0
300
1:40
140
1.0
141
40.0
290
     0
  0
SCALE
  5
52
102
{ACAD_REACTORS
330
47
102
}
330
47
100
AcDbScale
 70
     0
300
1:50
140
1.0
141
50.0
290
     0
  0
SCALE
  5
53
102
{ACAD_REACTORS
330
47
102
}
330
47
100
AcDbScale
 70
     0
300
1:100
140
1.0
141
100.0
290
     0
  0
SCALE
  5
54
102
{ACAD_REACTORS
330
47
102
}
330
47
100
AcDbScale
 70
     0
300
2:1
140
2.0
141
1.0
290
     0
  0
SCALE
  5
55
102
{ACAD_REACTORS
330
47
102
}
330
47
100
AcDbScale
 70
     0
300
4:1
140
4.0
141
1.0
290
     0
  0
SCALE
  5
56
102
{ACAD_REACTORS
330
47
102
}
330
47
100
AcDbScale
 70
     0
300
8:1
140
8.0
141
1.0
290
     0
  0
SCALE
  5
57
102
{ACAD_REACTORS
330
47
102
}
330
47
100
AcDbScale
 70
     0
300
10:1
140
10.0
141
1.0
290
     0
  0
SCALE
  5
58
102
{ACAD_REACTORS
330
47
102
}
330
47
100
AcDbScale
 70
     0
300
100:1
140
100.0
141
1.0
290
     0
  0
SCALE
  5
59
102
{ACAD_REACTORS
330
47
102
}
330
47
100
AcDbScale
 70
     0
300
1/128" = 1'-0"
140
0.0078125
141
12.0
290
     0
  0
SCALE
  5
5A
102
{ACAD_REACTORS
330
47
102
}
330
47
100
AcDbScale
 70
     0
300
1/64" = 1'-0"
140
0.015625
141
12.0
290
     0
  0
SCALE
  5
5B
102
{ACAD_REACTORS
330
47
102
}
330
47
100
AcDbScale
 70
     0
300
1/32" = 1'-0"
140
0.03125
141
12.0
290
     0
  0
SCALE
  5
5C
102
{ACAD_REACTORS
330
47
102
}
330
47
100
AcDbScale
 70
     0
300
1/16" = 1'-0"
140
0.0625
141
12.0
290
     0
  0
SCALE
  5
5D
102
{ACAD_REACTORS
330
47
102
}
330
47
100
AcDbScale
 70
     0
300
3/32" = 1'-0"
140
0.09375
141
12.0
290
     0
  0
SCALE
  5
5E
102
{ACAD_REACTORS
330
47
102
}
330
47
100
AcDbScale
 70
     0
300
1/8" = 1'-0"
140
0.125
141
12.0
290
     0
  0
SCALE
  5
5F
102
{ACAD_REACTORS
330
47
102
}
330
47
100
AcDbScale
 70
     0
300
3/16" = 1'-0"
140
0.1875
141
12.0
290
     0
  0
SCALE
  5
60
102
{ACAD_REACTORS
330
47
102
}
330
47
100
AcDbScale
 70
     0
300
1/4" = 1'-0"
140
0.25
141
12.0
290
     0
  0
SCALE
  5
61
102
{ACAD_REACTORS
330
47
102
}
330
47
100
AcDbScale
 70
     0
300
3/8" = 1'-0"
140
0.375
141
12.0
290
     0
  0
SCALE
  5
62
102
{ACAD_REACTORS
330
47
102
}
330
47
100
AcDbScale
 70
     0
300
1/2" = 1'-0"
140
0.5
141
12.0
290
     0
  0
SCALE
  5
63
102
{ACAD_REACTORS
330
47
102
}
330
47
100
AcDbScale
 70
     0
300
3/4" = 1'-0"
140
0.75
141
12.0
290
     0
  0
SCALE
  5
64
102
{ACAD_REACTORS
330
47
102
}
330
47
100
AcDbScale
 70
     0
300
1" = 1'-0"
140
1.0
141
12.0
290
     0
  0
SCALE
  5
65
102
{ACAD_REACTORS
330
47
102
}
330
47
100
AcDbScale
 70
     0
300
1-1/2" = 1'-0"
140
1.5
141
12.0
290
     0
  0
SCALE
  5
66
102
{ACAD_REACTORS
330
47
102
}
330
47
100
AcDbScale
 70
     0
300
3" = 1'-0"
140
3.0
141
12.0
290
     0
  0
SCALE
  5
67
102
{ACAD_REACTORS
330
47
102
}
330
47
100
AcDbScale
 70
     0
300
6" = 1'-0"
140
6.0
141
12.0
290
     0
  0
SCALE
  5
68
102
{ACAD_REACTORS
330
47
102
}
330
47
100
AcDbScale
 70
     0
300
1'-0" = 1'-0"
140
12.0
141
12.0
290
     0
  0
VISUALSTYLE
  5
2F
102
{ACAD_REACTORS
330
2A
102
}
102
{ACAD_XDICTIONARY
360
498
102
}
330
2A
100
AcDbVisualStyle
  2
2dWireframe
 70
     4
 71
     0
 72
     2
 73
     0
 90
        0
 40
0.6
 41
30.0
 62
     5
 63
     7
 74
     1
 91
        4
 64
     7
 65
   257
 75
     1
175
     1
 42
1.0
 92
        0
 66
   257
 43
1.0
 76
     1
 77
     6
 78
     2
 67
     7
 79
     5
170
     0
171
     0
290
     0
174
     0
 93
        1
 44
0.0
173
     0
291
     0
 45
0.0
1001
ACAD
1000
AcDbSavedByObjectVersion
1070
     0
  0
VISUALSTYLE
  5
32
102
{ACAD_REACTORS
330
2A
102
}
102
{ACAD_XDICTIONARY
360
49E
102
}
330
2A
100
AcDbVisualStyle
  2
Basic
 70
     7
 71
     1
 72
     0
 73
     1
 90
        0
 40
0.6
 41
30.0
 62
     5
 63
     7
 74
     0
 91
        4
 64
     7
 65
   257
 75
     1
175
     1
 42
1.0
 92
        8
 66
     7
 43
1.0
 76
     1
 77
     6
 78
     2
 67
     7
 79
     5
170
     0
171
     0
290
     0
174
     0
 93
        1
 44
0.0
173
     0
291
     1
 45
0.0
1001
ACAD
1000
AcDbSavedByObjectVersion
1070
     0
  0
VISUALSTYLE
  5
36
102
{ACAD_REACTORS
330
2A
102
}
102
{ACAD_XDICTIONARY
360
4A6
102
}
330
2A
100
AcDbVisualStyle
  2
Brighten
 70
    12
 71
     2
 72
     2
 73
     0
 90
        0
 40
0.6
 41
30.0
 62
     5
 63
     7
 74
     1
 91
        4
 64
     7
 65
   257
 75
     1
175
     1
 42
1.0
 92
        8
 66
     7
 43
1.0
 76
     1
 77
     6
 78
     2
 67
     7
 79
     5
170
     0
171
     0
290
     0
174
     0
 93
        1
 44
50.0
173
     0
291
     1
 45
0.0
1001
ACAD
1000
AcDbSavedByObjectVersion
1070
     0
  0
VISUALSTYLE
  5
3A
102
{ACAD_REACTORS
330
2A
102
}
102
{ACAD_XDICTIONARY
360
4AE
102
}
330
2A
100
AcDbVisualStyle
  2
ColorChange
 70
    16
 71
     2
 72
     2
 73
     3
 90
        0
 40
0.6
 41
30.0
 62
     5
 63
     8
 74
     1
 91
        4
 64
     7
 65
   257
 75
     1
175
     1
 42
1.0
 92
        8
 66
     8
 43
1.0
 76
     1
 77
     6
 78
     2
 67
     7
 79
     5
170
     0
171
     0
290
     0
174
     0
 93
        1
 44
0.0
173
     0
291
     1
 45
0.0
1001
ACAD
1000
AcDbSavedByObjectVersion
1070
     0
  0
VISUALSTYLE
  5
34
102
{ACAD_REACTORS
330
2A
102
}
102
{ACAD_XDICTIONARY
360
4A2
102
}
330
2A
100
AcDbVisualStyle
  2
Conceptual
 70
     9
 71
     3
 72
     2
 73
     0
 90
        0
 40
0.6
 41
30.0
 62
     5
 63
     7
 74
     2
 91
        2
 64
     7
 65
   257
 75
     1
175
     1
 42
179.0
 92
        8
 66
     7
 43
1.0
 76
     1
 77
     6
 78
     2
 67
     7
 79
     3
170
     0
171
     0
290
     0
174
     0
 93
        1
 44
0.0
173
     0
291
     0
 45
0.0
1001
ACAD
1000
AcDbSavedByObjectVersion
1070
     0
  0
VISUALSTYLE
  5
35
102
{ACAD_REACTORS
330
2A
102
}
102
{ACAD_XDICTIONARY
360
4A4
102
}
330
2A
100
AcDbVisualStyle
  2
Dim
 70
    11
 71
     2
 72
     2
 73
     0
 90
        0
 40
0.6
 41
30.0
 62
     5
 63
     7
 74
     1
 91
        4
 64
     7
 65
   257
 75
     1
175
     1
 42
1.0
 92
        8
 66
     7
 43
1.0
 76
     1
 77
     6
 78
     2
 67
     7
 79
     5
170
     0
171
     0
290
     0
174
     0
 93
        1
 44
-50.0
173
     0
291
     1
 45
0.0
1001
ACAD
1000
AcDbSavedByObjectVersion
1070
     0
  0
VISUALSTYLE
  5
3D
102
{ACAD_REACTORS
330
2A
102
}
102
{ACAD_XDICTIONARY
360
4B4
102
}
330
2A
100
AcDbVisualStyle
  2
EdgeColorOff
 70
    22
 71
     2
 72
     2
 73
     0
 90
        0
 40
0.6
 41
30.0
 62
     5
 63
     7
 74
     1
 91
        4
 64
     7
 65
   257
 75
     1
175
     1
 42
1.0
 92
        8
 66
     7
 43
1.0
 76
     1
 77
     6
 78
     2
 67
     7
 79
     5
170
     0
171
     0
290
     0
174
     0
 93
        1
 44
0.0
173
     0
291
     1
 45
0.0
1001
ACAD
1000
AcDbSavedByObjectVersion
1070
     0
  0
VISUALSTYLE
  5
39
102
{ACAD_REACTORS
330
2A
102
}
102
{ACAD_XDICTIONARY
360
4AC
102
}
330
2A
100
AcDbVisualStyle
  2
Facepattern
 70
    15
 71
     2
 72
     2
 73
     0
 90
        0
 40
0.6
 41
30.0
 62
     5
 63
     7
 74
     1
 91
        4
 64
     7
 65
   257
 75
     1
175
     1
 42
1.0
 92
        8
 66
     7
 43
1.0
 76
     1
 77
     6
 78
     2
 67
     7
 79
     5
170
     0
171
     0
290
     0
174
     0
 93
        1
 44
0.0
173
     0
291
     1
 45
0.0
1001
ACAD
1000
AcDbSavedByObjectVersion
1070
     0
  0
VISUALSTYLE
  5
2B
102
{ACAD_REACTORS
330
2A
102
}
102
{ACAD_XDICTIONARY
360
490
102
}
330
2A
100
AcDbVisualStyle
  2
Flat
 70
     0
 71
     2
 72
     1
 73
     1
 90
        2
 40
0.6
 41
30.0
 62
     5
 63
     7
 74
     0
 91
        0
 64
     7
 65
   257
 75
     1
175
     1
 42
1.0
 92
        8
 66
     7
 43
1.0
 76
     1
 77
     6
 78
     2
 67
     7
 79
     5
170
     0
171
     0
290
     0
174
     0
 93
       13
 44
0.0
173
     0
291
     1
 45
0.0
1001
ACAD
1000
AcDbSavedByObjectVersion
1070
     0
  0
VISUALSTYLE
  5
2C
102
{ACAD_REACTORS
330
2A
102
}
102
{ACAD_XDICTIONARY
360
492
102
}
330
2A
100
AcDbVisualStyle
  2
FlatWithEdges
 70
     1
 71
     2
 72
     1
 73
     1
 90
        2
 40
0.6
 41
30.0
 62
     5
 63
     7
 74
     1
 91
        0
 64
     7
 65
   257
 75
     1
175
     1
 42
1.0
 92
        0
 66
   257
 43
1.0
 76
     1
 77
     6
 78
     2
 67
     7
 79
     5
170
     0
171
     0
290
     0
174
     0
 93
       13
 44
0.0
173
     0
291
     1
 45
0.0
1001
ACAD
1000
AcDbSavedByObjectVersion
1070
     0
  0
VISUALSTYLE
  5
2D
102
{ACAD_REACTORS
330
2A
102
}
102
{ACAD_XDICTIONARY
360
494
102
}
330
2A
100
AcDbVisualStyle
  2
Gouraud
 70
     2
 71
     2
 72
     2
 73
     1
 90
        2
 40
0.6
 41
30.0
 62
     5
 63
     7
 74
     0
 91
        0
 64
     7
 65
   257
 75
     1
175
     1
 42
1.0
 92
        0
 66
     7
 43
1.0
 76
     1
 77
     6
 78
     2
 67
     7
 79
     5
170
     0
171
     0
290
     0
174
     0
 93
       13
 44
0.0
173
     0
291
     1
 45
0.0
1001
ACAD
1000
AcDbSavedByObjectVersion
1070
     0
  0
VISUALSTYLE
  5
2E
102
{ACAD_REACTORS
330
2A
102
}
102
{ACAD_XDICTIONARY
360
496
102
}
330
2A
100
AcDbVisualStyle
  2
GouraudWithEdges
 70
     3
 71
     2
 72
     2
 73
     1
 90
        2
 40
0.6
 41
30.0
 62
     5
 63
     7
 74
     1
 91
        0
 64
     7
 65
   257
 75
     1
175
     1
 42
1.0
 92
        0
 66
   257
 43
1.0
 76
     1
 77
     6
 78
     2
 67
     7
 79
     5
170
     0
171
     0
290
     0
174
     0
 93
       13
 44
0.0
173
     0
291
     1
 45
0.0
1001
ACAD
1000
AcDbSavedByObjectVersion
1070
     0
  0
VISUALSTYLE
  5
31
102
{ACAD_REACTORS
330
2A
102
}
102
{ACAD_XDICTIONARY
360
49C
102
}
330
2A
100
AcDbVisualStyle
  2
Hidden
 70
     6
 71
     1
 72
     2
 73
     2
 90
        0
 40
0.6
 41
30.0
 62
     5
 63
     7
 74
     2
 91
        2
 64
     7
 65
   257
 75
     2
175
     1
 42
40.0
 92
        0
 66
   257
 43
1.0
 76
     1
 77
     6
 78
     2
 67
     7
 79
     3
170
     0
171
     0
290
     0
174
     0
 93
        1
 44
0.0
173
     0
291
     0
 45
0.0
1001
ACAD
1000
AcDbSavedByObjectVersion
1070
     0
  0
VISUALSTYLE
  5
3B
102
{ACAD_REACTORS
330
2A
102
}
102
{ACAD_XDICTIONARY
360
4B0
102
}
330
2A
100
AcDbVisualStyle
  2
JitterOff
 70
    20
 71
     2
 72
     2
 73
     0
 90
        0
 40
0.6
 41
30.0
 62
     5
 63
     7
 74
     1
 91
        4
 64
     7
 65
   257
 75
     1
175
     1
 42
1.0
 92
       10
 66
     7
 43
1.0
 76
     1
 77
     6
 78
     2
 67
     7
 79
     5
170
     0
171
     0
290
     0
174
     0
 93
        1
 44
0.0
173
     0
291
     1
 45
0.0
1001
ACAD
1000
AcDbSavedByObjectVersion
1070
     0
  0
VISUALSTYLE
  5
38
102
{ACAD_REACTORS
330
2A
102
}
102
{ACAD_XDICTIONARY
360
4AA
102
}
330
2A
100
AcDbVisualStyle
  2
Linepattern
 70
    14
 71
     2
 72
     2
 73
     0
 90
        0
 40
0.6
 41
30.0
 62
     5
 63
     7
 74
     1
 91
        4
 64
     7
 65
   257
 75
     7
175
     7
 42
1.0
 92
        8
 66
     7
 43
1.0
 76
     1
 77
     6
 78
     2
 67
     7
 79
     5
170
     0
171
     0
290
     0
174
     0
 93
        1
 44
0.0
173
     0
291
     1
 45
0.0
1001
ACAD
1000
AcDbSavedByObjectVersion
1070
     0
  0
VISUALSTYLE
  5
3C
102
{ACAD_REACTORS
330
2A
102
}
102
{ACAD_XDICTIONARY
360
4B2
102
}
330
2A
100
AcDbVisualStyle
  2
OverhangOff
 70
    21
 71
     2
 72
     2
 73
     0
 90
        0
 40
0.6
 41
30.0
 62
     5
 63
     7
 74
     1
 91
        4
 64
     7
 65
   257
 75
     1
175
     1
 42
1.0
 92
        9
 66
     7
 43
1.0
 76
     1
 77
     6
 78
     2
 67
     7
 79
     5
170
     0
171
     0
290
     0
174
     0
 93
        1
 44
0.0
173
     0
291
     1
 45
0.0
1001
ACAD
1000
AcDbSavedByObjectVersion
1070
     0
  0
VISUALSTYLE
  5
33
102
{ACAD_REACTORS
330
2A
102
}
102
{ACAD_XDICTIONARY
360
4A0
102
}
330
2A
100
AcDbVisualStyle
  2
Realistic
 70
     8
 71
     2
 72
     3
 73
     0
 90
        2
 40
0.6
 41
30.0
 62
     5
 63
     7
 74
     0
 91
        0
 64
     7
 65
   257
 75
     1
175
     1
 42
1.0
 92
        8
 66
   257
 43
1.0
 76
     1
 77
     6
 78
     2
 67
     7
 79
     3
170
     0
171
     0
290
     0
174
     0
 93
       13
 44
0.0
173
     0
291
     0
 45
0.0
1001
ACAD
1000
AcDbSavedByObjectVersion
1070
     0
  0
VISUALSTYLE
  5
42
102
{ACAD_REACTORS
330
2A
102
}
102
{ACAD_XDICTIONARY
360
4BE
102
}
330
2A
100
AcDbVisualStyle
  2
Shaded
 70
    27
 71
     2
 72
     2
 73
     1
 90
        2
 40
0.6
 41
30.0
 62
     5
 63
     7
 74
     0
 91
        4
 64
     7
 65
   257
 75
     1
175
     1
 42
1.0
 92
        8
 66
   257
 43
1.0
 76
     1
 77
     6
 78
     2
 67
     8
 79
     3
170
     0
171
     0
290
     0
174
     0
 93
        5
 44
0.0
173
     0
291
     0
 45
0.0
1001
ACAD
1000
AcDbSavedByObjectVersion
1070
     0
  0
VISUALSTYLE
  5
41
102
{ACAD_REACTORS
330
2A
102
}
102
{ACAD_XDICTIONARY
360
4BC
102
}
330
2A
100
AcDbVisualStyle
  2
Shaded with edges
 70
    26
 71
     2
 72
     2
 73
     1
 90
        2
 40
0.6
 41
30.0
 62
     5
 63
     7
 74
     1
 91
       10
 64
     7
 65
   257
 75
     2
175
     1
 42
1.0
 92
        8
 66
   257
 43
1.0
 76
     1
 77
     6
 78
     2
 67
     7
 79
     3
170
     0
171
     0
290
     0
174
     0
 93
        5
 44
0.0
173
     0
291
     0
 45
0.0
1001
ACAD
1000
AcDbSavedByObjectVersion
1070
     0
  0
VISUALSTYLE
  5
3E
102
{ACAD_REACTORS
330
2A
102
}
102
{ACAD_XDICTIONARY
360
4B6
102
}
330
2A
100
AcDbVisualStyle
  2
Shades of Gray
 70
    23
 71
     2
 72
     2
 73
     3
 90
        0
 40
0.6
 41
30.0
 62
     5
 63
     7
 74
     2
 91
        2
 64
     7
 65
     7
 75
     1
175
     1
 42
40.0
 92
        8
 66
     7
 43
1.0
 76
     1
 77
     6
 78
     2
 67
     7
 79
     3
170
     0
171
     0
290
     0
174
     0
 93
        1
 44
0.0
173
     0
291
     0
 45
0.0
1001
ACAD
1000
AcDbSavedByObjectVersion
1070
     0
  0
VISUALSTYLE
  5
3F
102
{ACAD_REACTORS
330
2A
102
}
102
{ACAD_XDICTIONARY
360
4B8
102
}
330
2A
100
AcDbVisualStyle
  2
Sketchy
 70
    24
 71
     1
 72
     2
 73
     2
 90
        0
 40
0.6
 41
30.0
 62
     5
 63
     7
 74
     2
 91
        2
 64
     7
 65
     7
 75
     1
175
     1
 42
40.0
 92
       11
 66
     7
 43
1.0
 76
     1
 77
     6
 78
     2
 67
     7
 79
     6
170
     0
171
     0
290
     0
174
     0
 93
        1
 44
0.0
173
     0
291
     0
 45
0.0
1001
ACAD
1000
AcDbSavedByObjectVersion
1070
     0
  0
VISUALSTYLE
  5
37
102
{ACAD_REACTORS
330
2A
102
}
102
{ACAD_XDICTIONARY
360
4A8
102
}
330
2A
100
AcDbVisualStyle
  2
Thicken
 70
    13
 71
     2
 72
     2
 73
     0
 90
        0
 40
0.6
 41
30.0
 62
     5
 63
     7
 74
     1
 91
        4
 64
     7
 65
   257
 75
     1
175
     1
 42
1.0
 92
       12
 66
     7
 43
1.0
 76
     1
 77
     6
 78
     2
 67
     7
 79
     5
170
     0
171
     0
290
     0
174
     0
 93
        1
 44
0.0
173
     0
291
     1
 45
0.0
1001
ACAD
1000
AcDbSavedByObjectVersion
1070
     0
  0
VISUALSTYLE
  5
30
102
{ACAD_REACTORS
330
2A
102
}
102
{ACAD_XDICTIONARY
360
49A
102
}
330
2A
100
AcDbVisualStyle
  2
Wireframe
 70
     5
 71
     0
 72
     2
 73
     0
 90
        0
 40
0.6
 41
30.0
 62
     5
 63
     7
 74
     1
 91
        4
 64
     7
 65
   257
 75
     1
175
     1
 42
1.0
 92
        0
 66
   257
 43
1.0
 76
     1
 77
     6
 78
     2
 67
     7
 79
     3
170
     0
171
     0
290
     0
174
     0
 93
        1
 44
0.0
173
     0
291
     0
 45
0.0
1001
ACAD
1000
AcDbSavedByObjectVersion
1070
     0
  0
VISUALSTYLE
  5
40
102
{ACAD_REACTORS
330
2A
102
}
102
{ACAD_XDICTIONARY
360
4BA
102
}
330
2A
100
AcDbVisualStyle
  2
X-Ray
 70
    25
 71
     2
 72
     2
 73
     1
 90
        1
 40
0.5
 41
30.0
 62
     5
 63
     7
 74
     1
 91
        0
 64
     7
 65
   257
 75
     1
175
     1
 42
1.0
 92
        8
 66
     7
 43
1.0
 76
     1
 77
     6
 78
     2
 67
     7
 79
     3
170
     0
171
     0
290
     0
174
     0
 93
       13
 44
0.0
173
     0
291
     0
 45
0.0
1001
ACAD
1000
AcDbSavedByObjectVersion
1070
     0
  0
DICTIONARYVAR
  5
48E
102
{ACAD_REACTORS
330
483
102
}
330
483
100
DictionaryVariables
280
     0
  1
1:1
  0
DICTIONARYVAR
  5
486
102
{ACAD_REACTORS
330
483
102
}
330
483
100
DictionaryVariables
280
     0
  1
1
  0
DICTIONARYVAR
  5
489
102
{ACAD_REACTORS
330
483
102
}
330
483
100
DictionaryVariables
280
     0
  1
1
  0
DICTIONARYVAR
  5
48F
102
{ACAD_REACTORS
330
483
102
}
330
483
100
DictionaryVariables
280
     0
  1
1
  0
DICTIONARY
  5
4C2
330
45
100
AcDbDictionary
280
     1
281
     1
  3
ACAD_XREC_ROUNDTRIP
360
4C3
  0
DICTIONARY
  5
4C0
330
44
100
AcDbDictionary
280
     1
281
     1
  3
ACAD_XREC_ROUNDTRIP
360
4C1
  0
DICTIONARY
  5
4C4
330
46
100
AcDbDictionary
280
     1
281
     1
  3
ACAD_XREC_ROUNDTRIP
360
4C5
  0
DICTIONARY
  5
498
330
2F
100
AcDbDictionary
280
     1
281
     1
  3
ACAD_XREC_ROUNDTRIP
360
499
  0
DICTIONARY
  5
49E
330
32
100
AcDbDictionary
280
     1
281
     1
  3
ACAD_XREC_ROUNDTRIP
360
49F
  0
DICTIONARY
  5
4A6
330
36
100
AcDbDictionary
280
     1
281
     1
  3
ACAD_XREC_ROUNDTRIP
360
4A7
  0
DICTIONARY
  5
4AE
330
3A
100
AcDbDictionary
280
     1
281
     1
  3
ACAD_XREC_ROUNDTRIP
360
4AF
  0
DICTIONARY
  5
4A2
330
34
100
AcDbDictionary
280
     1
281
     1
  3
ACAD_XREC_ROUNDTRIP
360
4A3
  0
DICTIONARY
  5
4A4
330
35
100
AcDbDictionary
280
     1
281
     1
  3
ACAD_XREC_ROUNDTRIP
360
4A5
  0
DICTIONARY
  5
4B4
330
3D
100
AcDbDictionary
280
     1
281
     1
  3
ACAD_XREC_ROUNDTRIP
360
4B5
  0
DICTIONARY
  5
4AC
330
39
100
AcDbDictionary
280
     1
281
     1
  3
ACAD_XREC_ROUNDTRIP
360
4AD
  0
DICTIONARY
  5
490
330
2B
100
AcDbDictionary
280
     1
281
     1
  3
ACAD_XREC_ROUNDTRIP
360
491
  0
DICTIONARY
  5
492
330
2C
100
AcDbDictionary
280
     1
281
     1
  3
ACAD_XREC_ROUNDTRIP
360
493
  0
DICTIONARY
  5
494
330
2D
100
AcDbDictionary
280
     1
281
     1
  3
ACAD_XREC_ROUNDTRIP
360
495
  0
DICTIONARY
  5
496
330
2E
100
AcDbDictionary
280
     1
281
     1
  3
ACAD_XREC_ROUNDTRIP
360
497
  0
DICTIONARY
  5
49C
330
31
100
AcDbDictionary
280
     1
281
     1
  3
ACAD_XREC_ROUNDTRIP
360
49D
  0
DICTIONARY
  5
4B0
330
3B
100
AcDbDictionary
280
     1
281
     1
  3
ACAD_XREC_ROUNDTRIP
360
4B1
  0
DICTIONARY
  5
4AA
330
38
100
AcDbDictionary
280
     1
281
     1
  3
ACAD_XREC_ROUNDTRIP
360
4AB
  0
DICTIONARY
  5
4B2
330
3C
100
AcDbDictionary
280
     1
281
     1
  3
ACAD_XREC_ROUNDTRIP
360
4B3
  0
DICTIONARY
  5
4A0
330
33
100
AcDbDictionary
280
     1
281
     1
  3
ACAD_XREC_ROUNDTRIP
360
4A1
  0
DICTIONARY
  5
4BE
330
42
100
AcDbDictionary
280
     1
281
     1
  3
ACAD_XREC_ROUNDTRIP
360
4BF
  0
DICTIONARY
  5
4BC
330
41
100
AcDbDictionary
280
     1
281
     1
  3
ACAD_XREC_ROUNDTRIP
360
4BD
  0
DICTIONARY
  5
4B6
330
3E
100
AcDbDictionary
280
     1
281
     1
  3
ACAD_XREC_ROUNDTRIP
360
4B7
  0
DICTIONARY
  5
4B8
330
3F
100
AcDbDictionary
280
     1
281
     1
  3
ACAD_XREC_ROUNDTRIP
360
4B9
  0
DICTIONARY
  5
4A8
330
37
100
AcDbDictionary
280
     1
281
     1
  3
ACAD_XREC_ROUNDTRIP
360
4A9
  0
DICTIONARY
  5
49A
330
30
100
AcDbDictionary
280
     1
281
     1
  3
ACAD_XREC_ROUNDTRIP
360
49B
  0
DICTIONARY
  5
4BA
330
40
100
AcDbDictionary
280
     1
281
     1
  3
ACAD_XREC_ROUNDTRIP
360
4BB
  0
XRECORD
  5
4C3
102
{ACAD_REACTORS
330
4C2
102
}
330
4C2
100
AcDbXrecord
280
     1
102
MATERIAL
148
0.0
149
0.0
149
0.0
 93
        0
 94
      127
282
     0
 72
     1
 77
     1
171
     1
175
     1
179
     1
273
     0
  0
XRECORD
  5
4C1
102
{ACAD_REACTORS
330
4C0
102
}
330
4C0
100
AcDbXrecord
280
     1
102
MATERIAL
148
0.0
149
0.0
149
0.0
 93
        0
 94
      127
282
     0
 72
     1
 77
     1
171
     1
175
     1
179
     1
273
     0
  0
XRECORD
  5
4C5
102
{ACAD_REACTORS
330
4C4
102
}
330
4C4
100
AcDbXrecord
280
     1
102
MATERIAL
148
0.0
149
0.0
149
0.0
 93
        0
 94
      127
282
     0
 72
     1
 77
     1
171
     1
175
     1
179
     1
273
     0
  0
XRECORD
  5
499
102
{ACAD_REACTORS
330
498
102
}
330
498
100
AcDbXrecord
280
     1
102
RTVSPropertyOp0
 70
     1
102
RTVSPropertyOp1
 70
     1
102
RTVSPropertyOp2
 70
     1
102
RTVSPropertyOp3
 70
     1
102
RTVSPropertyOp4
 70
     1
102
RTVSPropertyOp5
 70
     1
102
RTVSPropertyOp6
 70
     1
102
RTVSPropertyOp7
 70
     1
102
RTVSPropertyOp8
 70
     1
102
RTVSPropertyOp9
 70
     1
102
RTVSPropertyOp10
 70
     1
102
RTVSPropertyOp11
 70
     1
102
RTVSPropertyOp12
 70
     1
102
RTVSPropertyOp13
 70
     1
102
RTVSPropertyOp14
 70
     1
102
RTVSPropertyOp15
 70
     1
102
RTVSPropertyOp16
 70
     1
102
RTVSPropertyOp17
 70
     1
102
RTVSPropertyOp18
 70
     1
102
RTVSPropertyOp19
 70
     1
102
RTVSPropertyOp20
 70
     1
102
RTVSPropertyOp21
 70
     1
102
RTVSPropertyOp22
 70
     1
102
RTVSPropertyOp23
 70
     1
102
RTVSPropertyOp24
 70
     1
102
RTVSPropertyOp25
 70
     1
102
RTVSPropertyOp26
 70
     1
102
RTVSPropertyOp27
 70
     1
102
RTVSPropertyOp28
 70
     1
102
RTVSPropertyOp29
 70
     1
102
RTVSPropertyOp30
 70
     1
102
RTVSPropertyOp31
 70
     1
102
RTVSPropertyOp32
 70
     1
102
RTVSPropertyOp33
 70
     1
102
RTVSPropertyOp34
 70
     1
102
RTVSPropertyOp35
 70
     1
102
RTVSPropertyOp36
 70
     1
102
RTVSPropertyOp37
 70
     1
102
RTVSPropertyOp38
 70
     1
102
RTVSPropertyOp39
 70
     1
102
RTVSPropertyOp40
 70
     1
102
RTVSPropertyOp41
 70
     1
102
RTVSPropertyOp42
 70
     1
102
RTVSPropertyOp43
 70
     1
102
RTVSPropertyOp44
 70
     1
102
RTVSPropertyOp45
 70
     1
102
RTVSPropertyOp46
 70
     1
102
RTVSPropertyOp47
 70
     1
102
RTVSPropertyOp48
 70
     1
102
RTVSPropertyOp49
 70
     1
102
RTVSPropertyOp50
 70
     1
102
RTVSPropertyOp51
 70
     0
102
RTVSPropertyOp52
 70
     0
102
RTVSPropertyOp53
 70
     1
102
RTVSPropertyOp54
 70
     1
102
RTVSPropertyOp55
 70
     1
102
RTVSPropertyOp56
 70
     1
102
RTVSPropertyOp57
 70
     1
102
RTVSPost2010Prop28
280
     1
102
RTVSPost2010PropOp28
 70
     1
102
RTVSPost2010Prop29
280
     1
102
RTVSPost2010PropOp29
 70
     1
102
RTVSPost2010Prop30
280
     0
102
RTVSPost2010PropOp30
 70
     1
102
RTVSPost2010Prop31
280
     0
102
RTVSPost2010PropOp31
 70
     1
102
RTVSPost2010Prop32
280
     0
102
RTVSPost2010PropOp32
 70
     1
102
RTVSPost2010Prop33
280
     0
102
RTVSPost2010PropOp33
 70
     1
102
RTVSPost2010Prop34
280
     0
102
RTVSPost2010PropOp34
 70
     1
102
RTVSPost2010Prop35
280
     0
102
RTVSPost2010PropOp35
 70
     1
102
RTVSPost2010Prop36
280
     0
102
RTVSPost2010PropOp36
 70
     1
102
RTVSPost2010Prop37
 90
       50
102
RTVSPost2010PropOp37
 70
     1
102
RTVSPost2010Prop38
140
0.0
102
RTVSPost2010PropOp38
 70
     1
102
RTVSPost2010Prop39
140
1.0
102
RTVSPost2010PropOp39
 70
     1
102
RTVSPost2010Prop40
 90
        0
102
RTVSPost2010PropOp40
 70
     1
102
RTVSPost2010Prop41ColorIndex
 90
       18
102
RTVSPost2010Prop41ColorRGB
 90
        0
102
RTVSPost2010PropOp41
 70
     1
102
RTVSPost2010Prop42
 90
       50
102
RTVSPost2010PropOp42
 70
     1
102
RTVSPost2010Prop43
 90
        3
102
RTVSPost2010PropOp43
 70
     1
102
RTVSPost2010Prop44ColorIndex
 90
        5
102
RTVSPost2010Prop44ColorRGB
 90
      255
102
RTVSPost2010PropOp44
 70
     1
102
RTVSPost2010Prop45
280
     0
102
RTVSPost2010PropOp45
 70
     1
102
RTVSPost2010Prop46
 90
       50
102
RTVSPost2010PropOp46
 70
     1
102
RTVSPost2010Prop47
 90
       50
102
RTVSPost2010PropOp47
 70
     1
102
RTVSPost2010Prop48
 90
       50
102
RTVSPost2010PropOp48
 70
     1
102
RTVSPost2010Prop49
280
     0
102
RTVSPost2010PropOp49
 70
     1
102
RTVSPost2010Prop50
 90
       50
102
RTVSPost2010PropOp50
 70
     1
102
RTVSPost2010Prop51ColorIndex
 90
      256
102
RTVSPost2010Prop51ColorRGB
 90
-16777216
102
RTVSPost2010PropOp51
 70
     0
102
RTVSPost2010Prop52
140
1.0
102
RTVSPost2010PropOp52
 70
     0
102
RTVSPost2010Prop53
 90
        2
102
RTVSPost2010PropOp53
 70
     1
102
RTVSPost2010Prop54
  1
strokes_ogs.tif
102
RTVSPost2010PropOp54
 70
     1
102
RTVSPost2010Prop55
280
     0
102
RTVSPost2010PropOp55
 70
     1
102
RTVSPost2010Prop56
140
1.0
102
RTVSPost2010PropOp56
 70
     1
102
RTVSPost2010Prop57
140
1.0
102
RTVSPost2010PropOp57
 70
     1
  0
XRECORD
  5
49F
102
{ACAD_REACTORS
330
49E
102
}
330
49E
100
AcDbXrecord
280
     1
102
RTVSPropertyOp0
 70
     1
102
RTVSPropertyOp1
 70
     1
102
RTVSPropertyOp2
 70
     1
102
RTVSPropertyOp3
 70
     1
102
RTVSPropertyOp4
 70
     1
102
RTVSPropertyOp5
 70
     1
102
RTVSPropertyOp6
 70
     1
102
RTVSPropertyOp7
 70
     1
102
RTVSPropertyOp8
 70
     1
102
RTVSPropertyOp9
 70
     1
102
RTVSPropertyOp10
 70
     1
102
RTVSPropertyOp11
 70
     1
102
RTVSPropertyOp12
 70
     1
102
RTVSPropertyOp13
 70
     1
102
RTVSPropertyOp14
 70
     1
102
RTVSPropertyOp15
 70
     1
102
RTVSPropertyOp16
 70
     1
102
RTVSPropertyOp17
 70
     1
102
RTVSPropertyOp18
 70
     1
102
RTVSPropertyOp19
 70
     1
102
RTVSPropertyOp20
 70
     1
102
RTVSPropertyOp21
 70
     1
102
RTVSPropertyOp22
 70
     1
102
RTVSPropertyOp23
 70
     1
102
RTVSPropertyOp24
 70
     1
102
RTVSPropertyOp25
 70
     1
102
RTVSPropertyOp26
 70
     1
102
RTVSPropertyOp27
 70
     1
102
RTVSPropertyOp28
 70
     1
102
RTVSPropertyOp29
 70
     1
102
RTVSPropertyOp30
 70
     1
102
RTVSPropertyOp31
 70
     1
102
RTVSPropertyOp32
 70
     1
102
RTVSPropertyOp33
 70
     1
102
RTVSPropertyOp34
 70
     1
102
RTVSPropertyOp35
 70
     1
102
RTVSPropertyOp36
 70
     1
102
RTVSPropertyOp37
 70
     1
102
RTVSPropertyOp38
 70
     1
102
RTVSPropertyOp39
 70
     1
102
RTVSPropertyOp40
 70
     1
102
RTVSPropertyOp41
 70
     1
102
RTVSPropertyOp42
 70
     1
102
RTVSPropertyOp43
 70
     1
102
RTVSPropertyOp44
 70
     1
102
RTVSPropertyOp45
 70
     1
102
RTVSPropertyOp46
 70
     1
102
RTVSPropertyOp47
 70
     1
102
RTVSPropertyOp48
 70
     1
102
RTVSPropertyOp49
 70
     1
102
RTVSPropertyOp50
 70
     1
102
RTVSPropertyOp51
 70
     0
102
RTVSPropertyOp52
 70
     0
102
RTVSPropertyOp53
 70
     1
102
RTVSPropertyOp54
 70
     1
102
RTVSPropertyOp55
 70
     1
102
RTVSPropertyOp56
 70
     1
102
RTVSPropertyOp57
 70
     1
102
RTVSPost2010Prop28
280
     0
102
RTVSPost2010PropOp28
 70
     1
102
RTVSPost2010Prop29
280
     1
102
RTVSPost2010PropOp29
 70
     1
102
RTVSPost2010Prop30
280
     1
102
RTVSPost2010PropOp30
 70
     1
102
RTVSPost2010Prop31
280
     0
102
RTVSPost2010PropOp31
 70
     1
102
RTVSPost2010Prop32
280
     0
102
RTVSPost2010PropOp32
 70
     1
102
RTVSPost2010Prop33
280
     0
102
RTVSPost2010PropOp33
 70
     1
102
RTVSPost2010Prop34
280
     0
102
RTVSPost2010PropOp34
 70
     1
102
RTVSPost2010Prop35
280
     0
102
RTVSPost2010PropOp35
 70
     1
102
RTVSPost2010Prop36
280
     0
102
RTVSPost2010PropOp36
 70
     1
102
RTVSPost2010Prop37
 90
       50
102
RTVSPost2010PropOp37
 70
     1
102
RTVSPost2010Prop38
140
0.0
102
RTVSPost2010PropOp38
 70
     1
102
RTVSPost2010Prop39
140
1.0
102
RTVSPost2010PropOp39
 70
     1
102
RTVSPost2010Prop40
 90
        0
102
RTVSPost2010PropOp40
 70
     1
102
RTVSPost2010Prop41ColorIndex
 90
       18
102
RTVSPost2010Prop41ColorRGB
 90
        0
102
RTVSPost2010PropOp41
 70
     1
102
RTVSPost2010Prop42
 90
       50
102
RTVSPost2010PropOp42
 70
     1
102
RTVSPost2010Prop43
 90
        3
102
RTVSPost2010PropOp43
 70
     1
102
RTVSPost2010Prop44ColorIndex
 90
        5
102
RTVSPost2010Prop44ColorRGB
 90
      255
102
RTVSPost2010PropOp44
 70
     1
102
RTVSPost2010Prop45
280
     0
102
RTVSPost2010PropOp45
 70
     1
102
RTVSPost2010Prop46
 90
       50
102
RTVSPost2010PropOp46
 70
     1
102
RTVSPost2010Prop47
 90
       50
102
RTVSPost2010PropOp47
 70
     1
102
RTVSPost2010Prop48
 90
       50
102
RTVSPost2010PropOp48
 70
     1
102
RTVSPost2010Prop49
280
     0
102
RTVSPost2010PropOp49
 70
     1
102
RTVSPost2010Prop50
 90
       50
102
RTVSPost2010PropOp50
 70
     1
102
RTVSPost2010Prop51ColorIndex
 90
      256
102
RTVSPost2010Prop51ColorRGB
 90
-16777216
102
RTVSPost2010PropOp51
 70
     0
102
RTVSPost2010Prop52
140
1.0
102
RTVSPost2010PropOp52
 70
     0
102
RTVSPost2010Prop53
 90
        2
102
RTVSPost2010PropOp53
 70
     1
102
RTVSPost2010Prop54
  1
strokes_ogs.tif
102
RTVSPost2010PropOp54
 70
     1
102
RTVSPost2010Prop55
280
     0
102
RTVSPost2010PropOp55
 70
     1
102
RTVSPost2010Prop56
140
1.0
102
RTVSPost2010PropOp56
 70
     1
102
RTVSPost2010Prop57
140
1.0
102
RTVSPost2010PropOp57
 70
     1
  0
XRECORD
  5
4A7
102
{ACAD_REACTORS
330
4A6
102
}
330
4A6
100
AcDbXrecord
280
     1
102
RTVSPropertyOp0
 70
     1
102
RTVSPropertyOp1
 70
     1
102
RTVSPropertyOp2
 70
     1
102
RTVSPropertyOp3
 70
     1
102
RTVSPropertyOp4
 70
     1
102
RTVSPropertyOp5
 70
     1
102
RTVSPropertyOp6
 70
     1
102
RTVSPropertyOp7
 70
     1
102
RTVSPropertyOp8
 70
     1
102
RTVSPropertyOp9
 70
     1
102
RTVSPropertyOp10
 70
     1
102
RTVSPropertyOp11
 70
     1
102
RTVSPropertyOp12
 70
     1
102
RTVSPropertyOp13
 70
     1
102
RTVSPropertyOp14
 70
     1
102
RTVSPropertyOp15
 70
     1
102
RTVSPropertyOp16
 70
     1
102
RTVSPropertyOp17
 70
     1
102
RTVSPropertyOp18
 70
     1
102
RTVSPropertyOp19
 70
     1
102
RTVSPropertyOp20
 70
     1
102
RTVSPropertyOp21
 70
     1
102
RTVSPropertyOp22
 70
     1
102
RTVSPropertyOp23
 70
     1
102
RTVSPropertyOp24
 70
     1
102
RTVSPropertyOp25
 70
     1
102
RTVSPropertyOp26
 70
     1
102
RTVSPropertyOp27
 70
     1
102
RTVSPropertyOp28
 70
     1
102
RTVSPropertyOp29
 70
     1
102
RTVSPropertyOp30
 70
     1
102
RTVSPropertyOp31
 70
     1
102
RTVSPropertyOp32
 70
     1
102
RTVSPropertyOp33
 70
     1
102
RTVSPropertyOp34
 70
     1
102
RTVSPropertyOp35
 70
     1
102
RTVSPropertyOp36
 70
     1
102
RTVSPropertyOp37
 70
     1
102
RTVSPropertyOp38
 70
     1
102
RTVSPropertyOp39
 70
     1
102
RTVSPropertyOp40
 70
     1
102
RTVSPropertyOp41
 70
     1
102
RTVSPropertyOp42
 70
     1
102
RTVSPropertyOp43
 70
     1
102
RTVSPropertyOp44
 70
     1
102
RTVSPropertyOp45
 70
     1
102
RTVSPropertyOp46
 70
     1
102
RTVSPropertyOp47
 70
     1
102
RTVSPropertyOp48
 70
     1
102
RTVSPropertyOp49
 70
     1
102
RTVSPropertyOp50
 70
     1
102
RTVSPropertyOp51
 70
     0
102
RTVSPropertyOp52
 70
     0
102
RTVSPropertyOp53
 70
     1
102
RTVSPropertyOp54
 70
     1
102
RTVSPropertyOp55
 70
     1
102
RTVSPropertyOp56
 70
     1
102
RTVSPropertyOp57
 70
     1
102
RTVSPost2010Prop28
280
     0
102
RTVSPost2010PropOp28
 70
     1
102
RTVSPost2010Prop29
280
     1
102
RTVSPost2010PropOp29
 70
     1
102
RTVSPost2010Prop30
280
     1
102
RTVSPost2010PropOp30
 70
     1
102
RTVSPost2010Prop31
280
     0
102
RTVSPost2010PropOp31
 70
     1
102
RTVSPost2010Prop32
280
     0
102
RTVSPost2010PropOp32
 70
     1
102
RTVSPost2010Prop33
280
     0
102
RTVSPost2010PropOp33
 70
     1
102
RTVSPost2010Prop34
280
     0
102
RTVSPost2010PropOp34
 70
     1
102
RTVSPost2010Prop35
280
     0
102
RTVSPost2010PropOp35
 70
     1
102
RTVSPost2010Prop36
280
     0
102
RTVSPost2010PropOp36
 70
     1
102
RTVSPost2010Prop37
 90
       50
102
RTVSPost2010PropOp37
 70
     1
102
RTVSPost2010Prop38
140
0.0
102
RTVSPost2010PropOp38
 70
     1
102
RTVSPost2010Prop39
140
1.0
102
RTVSPost2010PropOp39
 70
     1
102
RTVSPost2010Prop40
 90
        0
102
RTVSPost2010PropOp40
 70
     1
102
RTVSPost2010Prop41ColorIndex
 90
       18
102
RTVSPost2010Prop41ColorRGB
 90
        0
102
RTVSPost2010PropOp41
 70
     1
102
RTVSPost2010Prop42
 90
       50
102
RTVSPost2010PropOp42
 70
     1
102
RTVSPost2010Prop43
 90
        3
102
RTVSPost2010PropOp43
 70
     1
102
RTVSPost2010Prop44ColorIndex
 90
        5
102
RTVSPost2010Prop44ColorRGB
 90
      255
102
RTVSPost2010PropOp44
 70
     1
102
RTVSPost2010Prop45
280
     0
102
RTVSPost2010PropOp45
 70
     1
102
RTVSPost2010Prop46
 90
       50
102
RTVSPost2010PropOp46
 70
     1
102
RTVSPost2010Prop47
 90
       50
102
RTVSPost2010PropOp47
 70
     1
102
RTVSPost2010Prop48
 90
       50
102
RTVSPost2010PropOp48
 70
     1
102
RTVSPost2010Prop49
280
     0
102
RTVSPost2010PropOp49
 70
     1
102
RTVSPost2010Prop50
 90
       50
102
RTVSPost2010PropOp50
 70
     1
102
RTVSPost2010Prop51ColorIndex
 90
      256
102
RTVSPost2010Prop51ColorRGB
 90
-16777216
102
RTVSPost2010PropOp51
 70
     0
102
RTVSPost2010Prop52
140
1.0
102
RTVSPost2010PropOp52
 70
     0
102
RTVSPost2010Prop53
 90
        2
102
RTVSPost2010PropOp53
 70
     1
102
RTVSPost2010Prop54
  1
strokes_ogs.tif
102
RTVSPost2010PropOp54
 70
     1
102
RTVSPost2010Prop55
280
     0
102
RTVSPost2010PropOp55
 70
     1
102
RTVSPost2010Prop56
140
1.0
102
RTVSPost2010PropOp56
 70
     1
102
RTVSPost2010Prop57
140
1.0
102
RTVSPost2010PropOp57
 70
     1
  0
XRECORD
  5
4AF
102
{ACAD_REACTORS
330
4AE
102
}
330
4AE
100
AcDbXrecord
280
     1
102
RTVSPropertyOp0
 70
     1
102
RTVSPropertyOp1
 70
     1
102
RTVSPropertyOp2
 70
     1
102
RTVSPropertyOp3
 70
     1
102
RTVSPropertyOp4
 70
     1
102
RTVSPropertyOp5
 70
     1
102
RTVSPropertyOp6
 70
     1
102
RTVSPropertyOp7
 70
     1
102
RTVSPropertyOp8
 70
     1
102
RTVSPropertyOp9
 70
     1
102
RTVSPropertyOp10
 70
     1
102
RTVSPropertyOp11
 70
     1
102
RTVSPropertyOp12
 70
     1
102
RTVSPropertyOp13
 70
     1
102
RTVSPropertyOp14
 70
     1
102
RTVSPropertyOp15
 70
     1
102
RTVSPropertyOp16
 70
     1
102
RTVSPropertyOp17
 70
     1
102
RTVSPropertyOp18
 70
     1
102
RTVSPropertyOp19
 70
     1
102
RTVSPropertyOp20
 70
     1
102
RTVSPropertyOp21
 70
     1
102
RTVSPropertyOp22
 70
     1
102
RTVSPropertyOp23
 70
     1
102
RTVSPropertyOp24
 70
     1
102
RTVSPropertyOp25
 70
     1
102
RTVSPropertyOp26
 70
     1
102
RTVSPropertyOp27
 70
     1
102
RTVSPropertyOp28
 70
     1
102
RTVSPropertyOp29
 70
     1
102
RTVSPropertyOp30
 70
     1
102
RTVSPropertyOp31
 70
     1
102
RTVSPropertyOp32
 70
     1
102
RTVSPropertyOp33
 70
     1
102
RTVSPropertyOp34
 70
     1
102
RTVSPropertyOp35
 70
     1
102
RTVSPropertyOp36
 70
     1
102
RTVSPropertyOp37
 70
     1
102
RTVSPropertyOp38
 70
     1
102
RTVSPropertyOp39
 70
     1
102
RTVSPropertyOp40
 70
     1
102
RTVSPropertyOp41
 70
     1
102
RTVSPropertyOp42
 70
     1
102
RTVSPropertyOp43
 70
     1
102
RTVSPropertyOp44
 70
     1
102
RTVSPropertyOp45
 70
     1
102
RTVSPropertyOp46
 70
     1
102
RTVSPropertyOp47
 70
     1
102
RTVSPropertyOp48
 70
     1
102
RTVSPropertyOp49
 70
     1
102
RTVSPropertyOp50
 70
     1
102
RTVSPropertyOp51
 70
     0
102
RTVSPropertyOp52
 70
     0
102
RTVSPropertyOp53
 70
     1
102
RTVSPropertyOp54
 70
     1
102
RTVSPropertyOp55
 70
     1
102
RTVSPropertyOp56
 70
     1
102
RTVSPropertyOp57
 70
     1
102
RTVSPost2010Prop28
280
     0
102
RTVSPost2010PropOp28
 70
     1
102
RTVSPost2010Prop29
280
     1
102
RTVSPost2010PropOp29
 70
     1
102
RTVSPost2010Prop30
280
     1
102
RTVSPost2010PropOp30
 70
     1
102
RTVSPost2010Prop31
280
     0
102
RTVSPost2010PropOp31
 70
     1
102
RTVSPost2010Prop32
280
     0
102
RTVSPost2010PropOp32
 70
     1
102
RTVSPost2010Prop33
280
     0
102
RTVSPost2010PropOp33
 70
     1
102
RTVSPost2010Prop34
280
     0
102
RTVSPost2010PropOp34
 70
     1
102
RTVSPost2010Prop35
280
     0
102
RTVSPost2010PropOp35
 70
     1
102
RTVSPost2010Prop36
280
     0
102
RTVSPost2010PropOp36
 70
     1
102
RTVSPost2010Prop37
 90
       50
102
RTVSPost2010PropOp37
 70
     1
102
RTVSPost2010Prop38
140
0.0
102
RTVSPost2010PropOp38
 70
     1
102
RTVSPost2010Prop39
140
1.0
102
RTVSPost2010PropOp39
 70
     1
102
RTVSPost2010Prop40
 90
        0
102
RTVSPost2010PropOp40
 70
     1
102
RTVSPost2010Prop41ColorIndex
 90
       18
102
RTVSPost2010Prop41ColorRGB
 90
        0
102
RTVSPost2010PropOp41
 70
     1
102
RTVSPost2010Prop42
 90
       50
102
RTVSPost2010PropOp42
 70
     1
102
RTVSPost2010Prop43
 90
        3
102
RTVSPost2010PropOp43
 70
     1
102
RTVSPost2010Prop44ColorIndex
 90
        5
102
RTVSPost2010Prop44ColorRGB
 90
      255
102
RTVSPost2010PropOp44
 70
     1
102
RTVSPost2010Prop45
280
     0
102
RTVSPost2010PropOp45
 70
     1
102
RTVSPost2010Prop46
 90
       50
102
RTVSPost2010PropOp46
 70
     1
102
RTVSPost2010Prop47
 90
       50
102
RTVSPost2010PropOp47
 70
     1
102
RTVSPost2010Prop48
 90
       50
102
RTVSPost2010PropOp48
 70
     1
102
RTVSPost2010Prop49
280
     0
102
RTVSPost2010PropOp49
 70
     1
102
RTVSPost2010Prop50
 90
       50
102
RTVSPost2010PropOp50
 70
     1
102
RTVSPost2010Prop51ColorIndex
 90
      256
102
RTVSPost2010Prop51ColorRGB
 90
-16777216
102
RTVSPost2010PropOp51
 70
     0
102
RTVSPost2010Prop52
140
1.0
102
RTVSPost2010PropOp52
 70
     0
102
RTVSPost2010Prop53
 90
        2
102
RTVSPost2010PropOp53
 70
     1
102
RTVSPost2010Prop54
  1
strokes_ogs.tif
102
RTVSPost2010PropOp54
 70
     1
102
RTVSPost2010Prop55
280
     0
102
RTVSPost2010PropOp55
 70
     1
102
RTVSPost2010Prop56
140
1.0
102
RTVSPost2010PropOp56
 70
     1
102
RTVSPost2010Prop57
140
1.0
102
RTVSPost2010PropOp57
 70
     1
  0
XRECORD
  5
4A3
102
{ACAD_REACTORS
330
4A2
102
}
330
4A2
100
AcDbXrecord
280
     1
102
RTVSPropertyOp0
 70
     1
102
RTVSPropertyOp1
 70
     1
102
RTVSPropertyOp2
 70
     1
102
RTVSPropertyOp3
 70
     1
102
RTVSPropertyOp4
 70
     1
102
RTVSPropertyOp5
 70
     1
102
RTVSPropertyOp6
 70
     1
102
RTVSPropertyOp7
 70
     1
102
RTVSPropertyOp8
 70
     1
102
RTVSPropertyOp9
 70
     1
102
RTVSPropertyOp10
 70
     1
102
RTVSPropertyOp11
 70
     1
102
RTVSPropertyOp12
 70
     1
102
RTVSPropertyOp13
 70
     1
102
RTVSPropertyOp14
 70
     1
102
RTVSPropertyOp15
 70
     1
102
RTVSPropertyOp16
 70
     1
102
RTVSPropertyOp17
 70
     1
102
RTVSPropertyOp18
 70
     1
102
RTVSPropertyOp19
 70
     1
102
RTVSPropertyOp20
 70
     1
102
RTVSPropertyOp21
 70
     1
102
RTVSPropertyOp22
 70
     1
102
RTVSPropertyOp23
 70
     1
102
RTVSPropertyOp24
 70
     1
102
RTVSPropertyOp25
 70
     1
102
RTVSPropertyOp26
 70
     1
102
RTVSPropertyOp27
 70
     1
102
RTVSPropertyOp28
 70
     1
102
RTVSPropertyOp29
 70
     1
102
RTVSPropertyOp30
 70
     1
102
RTVSPropertyOp31
 70
     1
102
RTVSPropertyOp32
 70
     1
102
RTVSPropertyOp33
 70
     1
102
RTVSPropertyOp34
 70
     1
102
RTVSPropertyOp35
 70
     1
102
RTVSPropertyOp36
 70
     1
102
RTVSPropertyOp37
 70
     1
102
RTVSPropertyOp38
 70
     1
102
RTVSPropertyOp39
 70
     1
102
RTVSPropertyOp40
 70
     1
102
RTVSPropertyOp41
 70
     1
102
RTVSPropertyOp42
 70
     1
102
RTVSPropertyOp43
 70
     1
102
RTVSPropertyOp44
 70
     1
102
RTVSPropertyOp45
 70
     1
102
RTVSPropertyOp46
 70
     1
102
RTVSPropertyOp47
 70
     1
102
RTVSPropertyOp48
 70
     1
102
RTVSPropertyOp49
 70
     1
102
RTVSPropertyOp50
 70
     1
102
RTVSPropertyOp51
 70
     0
102
RTVSPropertyOp52
 70
     0
102
RTVSPropertyOp53
 70
     1
102
RTVSPropertyOp54
 70
     1
102
RTVSPropertyOp55
 70
     1
102
RTVSPropertyOp56
 70
     1
102
RTVSPropertyOp57
 70
     1
102
RTVSPost2010Prop28
280
     0
102
RTVSPost2010PropOp28
 70
     1
102
RTVSPost2010Prop29
280
     1
102
RTVSPost2010PropOp29
 70
     1
102
RTVSPost2010Prop30
280
     1
102
RTVSPost2010PropOp30
 70
     1
102
RTVSPost2010Prop31
280
     0
102
RTVSPost2010PropOp31
 70
     1
102
RTVSPost2010Prop32
280
     0
102
RTVSPost2010PropOp32
 70
     1
102
RTVSPost2010Prop33
280
     0
102
RTVSPost2010PropOp33
 70
     1
102
RTVSPost2010Prop34
280
     0
102
RTVSPost2010PropOp34
 70
     1
102
RTVSPost2010Prop35
280
     0
102
RTVSPost2010PropOp35
 70
     1
102
RTVSPost2010Prop36
280
     0
102
RTVSPost2010PropOp36
 70
     1
102
RTVSPost2010Prop37
 90
       50
102
RTVSPost2010PropOp37
 70
     1
102
RTVSPost2010Prop38
140
0.0
102
RTVSPost2010PropOp38
 70
     1
102
RTVSPost2010Prop39
140
1.0
102
RTVSPost2010PropOp39
 70
     1
102
RTVSPost2010Prop40
 90
        0
102
RTVSPost2010PropOp40
 70
     1
102
RTVSPost2010Prop41ColorIndex
 90
       18
102
RTVSPost2010Prop41ColorRGB
 90
        0
102
RTVSPost2010PropOp41
 70
     1
102
RTVSPost2010Prop42
 90
       50
102
RTVSPost2010PropOp42
 70
     1
102
RTVSPost2010Prop43
 90
        3
102
RTVSPost2010PropOp43
 70
     1
102
RTVSPost2010Prop44ColorIndex
 90
        5
102
RTVSPost2010Prop44ColorRGB
 90
      255
102
RTVSPost2010PropOp44
 70
     1
102
RTVSPost2010Prop45
280
     0
102
RTVSPost2010PropOp45
 70
     1
102
RTVSPost2010Prop46
 90
       50
102
RTVSPost2010PropOp46
 70
     1
102
RTVSPost2010Prop47
 90
       50
102
RTVSPost2010PropOp47
 70
     1
102
RTVSPost2010Prop48
 90
       50
102
RTVSPost2010PropOp48
 70
     1
102
RTVSPost2010Prop49
280
     0
102
RTVSPost2010PropOp49
 70
     1
102
RTVSPost2010Prop50
 90
       50
102
RTVSPost2010PropOp50
 70
     1
102
RTVSPost2010Prop51ColorIndex
 90
      256
102
RTVSPost2010Prop51ColorRGB
 90
-16777216
102
RTVSPost2010PropOp51
 70
     0
102
RTVSPost2010Prop52
140
1.0
102
RTVSPost2010PropOp52
 70
     0
102
RTVSPost2010Prop53
 90
        2
102
RTVSPost2010PropOp53
 70
     1
102
RTVSPost2010Prop54
  1
strokes_ogs.tif
102
RTVSPost2010PropOp54
 70
     1
102
RTVSPost2010Prop55
280
     0
102
RTVSPost2010PropOp55
 70
     1
102
RTVSPost2010Prop56
140
1.0
102
RTVSPost2010PropOp56
 70
     1
102
RTVSPost2010Prop57
140
1.0
102
RTVSPost2010PropOp57
 70
     1
  0
XRECORD
  5
4A5
102
{ACAD_REACTORS
330
4A4
102
}
330
4A4
100
AcDbXrecord
280
     1
102
RTVSPropertyOp0
 70
     1
102
RTVSPropertyOp1
 70
     1
102
RTVSPropertyOp2
 70
     1
102
RTVSPropertyOp3
 70
     1
102
RTVSPropertyOp4
 70
     1
102
RTVSPropertyOp5
 70
     1
102
RTVSPropertyOp6
 70
     1
102
RTVSPropertyOp7
 70
     1
102
RTVSPropertyOp8
 70
     1
102
RTVSPropertyOp9
 70
     1
102
RTVSPropertyOp10
 70
     1
102
RTVSPropertyOp11
 70
     1
102
RTVSPropertyOp12
 70
     1
102
RTVSPropertyOp13
 70
     1
102
RTVSPropertyOp14
 70
     1
102
RTVSPropertyOp15
 70
     1
102
RTVSPropertyOp16
 70
     1
102
RTVSPropertyOp17
 70
     1
102
RTVSPropertyOp18
 70
     1
102
RTVSPropertyOp19
 70
     1
102
RTVSPropertyOp20
 70
     1
102
RTVSPropertyOp21
 70
     1
102
RTVSPropertyOp22
 70
     1
102
RTVSPropertyOp23
 70
     1
102
RTVSPropertyOp24
 70
     1
102
RTVSPropertyOp25
 70
     1
102
RTVSPropertyOp26
 70
     1
102
RTVSPropertyOp27
 70
     1
102
RTVSPropertyOp28
 70
     1
102
RTVSPropertyOp29
 70
     1
102
RTVSPropertyOp30
 70
     1
102
RTVSPropertyOp31
 70
     1
102
RTVSPropertyOp32
 70
     1
102
RTVSPropertyOp33
 70
     1
102
RTVSPropertyOp34
 70
     1
102
RTVSPropertyOp35
 70
     1
102
RTVSPropertyOp36
 70
     1
102
RTVSPropertyOp37
 70
     1
102
RTVSPropertyOp38
 70
     1
102
RTVSPropertyOp39
 70
     1
102
RTVSPropertyOp40
 70
     1
102
RTVSPropertyOp41
 70
     1
102
RTVSPropertyOp42
 70
     1
102
RTVSPropertyOp43
 70
     1
102
RTVSPropertyOp44
 70
     1
102
RTVSPropertyOp45
 70
     1
102
RTVSPropertyOp46
 70
     1
102
RTVSPropertyOp47
 70
     1
102
RTVSPropertyOp48
 70
     1
102
RTVSPropertyOp49
 70
     1
102
RTVSPropertyOp50
 70
     1
102
RTVSPropertyOp51
 70
     0
102
RTVSPropertyOp52
 70
     0
102
RTVSPropertyOp53
 70
     1
102
RTVSPropertyOp54
 70
     1
102
RTVSPropertyOp55
 70
     1
102
RTVSPropertyOp56
 70
     1
102
RTVSPropertyOp57
 70
     1
102
RTVSPost2010Prop28
280
     0
102
RTVSPost2010PropOp28
 70
     1
102
RTVSPost2010Prop29
280
     1
102
RTVSPost2010PropOp29
 70
     1
102
RTVSPost2010Prop30
280
     1
102
RTVSPost2010PropOp30
 70
     1
102
RTVSPost2010Prop31
280
     0
102
RTVSPost2010PropOp31
 70
     1
102
RTVSPost2010Prop32
280
     0
102
RTVSPost2010PropOp32
 70
     1
102
RTVSPost2010Prop33
280
     0
102
RTVSPost2010PropOp33
 70
     1
102
RTVSPost2010Prop34
280
     0
102
RTVSPost2010PropOp34
 70
     1
102
RTVSPost2010Prop35
280
     0
102
RTVSPost2010PropOp35
 70
     1
102
RTVSPost2010Prop36
280
     0
102
RTVSPost2010PropOp36
 70
     1
102
RTVSPost2010Prop37
 90
       50
102
RTVSPost2010PropOp37
 70
     1
102
RTVSPost2010Prop38
140
0.0
102
RTVSPost2010PropOp38
 70
     1
102
RTVSPost2010Prop39
140
1.0
102
RTVSPost2010PropOp39
 70
     1
102
RTVSPost2010Prop40
 90
        0
102
RTVSPost2010PropOp40
 70
     1
102
RTVSPost2010Prop41ColorIndex
 90
       18
102
RTVSPost2010Prop41ColorRGB
 90
        0
102
RTVSPost2010PropOp41
 70
     1
102
RTVSPost2010Prop42
 90
       50
102
RTVSPost2010PropOp42
 70
     1
102
RTVSPost2010Prop43
 90
        3
102
RTVSPost2010PropOp43
 70
     1
102
RTVSPost2010Prop44ColorIndex
 90
        5
102
RTVSPost2010Prop44ColorRGB
 90
      255
102
RTVSPost2010PropOp44
 70
     1
102
RTVSPost2010Prop45
280
     0
102
RTVSPost2010PropOp45
 70
     1
102
RTVSPost2010Prop46
 90
       50
102
RTVSPost2010PropOp46
 70
     1
102
RTVSPost2010Prop47
 90
       50
102
RTVSPost2010PropOp47
 70
     1
102
RTVSPost2010Prop48
 90
       50
102
RTVSPost2010PropOp48
 70
     1
102
RTVSPost2010Prop49
280
     0
102
RTVSPost2010PropOp49
 70
     1
102
RTVSPost2010Prop50
 90
       50
102
RTVSPost2010PropOp50
 70
     1
102
RTVSPost2010Prop51ColorIndex
 90
      256
102
RTVSPost2010Prop51ColorRGB
 90
-16777216
102
RTVSPost2010PropOp51
 70
     0
102
RTVSPost2010Prop52
140
1.0
102
RTVSPost2010PropOp52
 70
     0
102
RTVSPost2010Prop53
 90
        2
102
RTVSPost2010PropOp53
 70
     1
102
RTVSPost2010Prop54
  1
strokes_ogs.tif
102
RTVSPost2010PropOp54
 70
     1
102
RTVSPost2010Prop55
280
     0
102
RTVSPost2010PropOp55
 70
     1
102
RTVSPost2010Prop56
140
1.0
102
RTVSPost2010PropOp56
 70
     1
102
RTVSPost2010Prop57
140
1.0
102
RTVSPost2010PropOp57
 70
     1
  0
XRECORD
  5
4B5
102
{ACAD_REACTORS
330
4B4
102
}
330
4B4
100
AcDbXrecord
280
     1
102
RTVSPropertyOp0
 70
     0
102
RTVSPropertyOp1
 70
     0
102
RTVSPropertyOp2
 70
     0
102
RTVSPropertyOp3
 70
     0
102
RTVSPropertyOp4
 70
     0
102
RTVSPropertyOp5
 70
     0
102
RTVSPropertyOp6
 70
     0
102
RTVSPropertyOp7
 70
     0
102
RTVSPropertyOp8
 70
     0
102
RTVSPropertyOp9
 70
     0
102
RTVSPropertyOp10
 70
     0
102
RTVSPropertyOp11
 70
     0
102
RTVSPropertyOp12
 70
     0
102
RTVSPropertyOp13
 70
     0
102
RTVSPropertyOp14
 70
     2
102
RTVSPropertyOp15
 70
     0
102
RTVSPropertyOp16
 70
     0
102
RTVSPropertyOp17
 70
     0
102
RTVSPropertyOp18
 70
     0
102
RTVSPropertyOp19
 70
     0
102
RTVSPropertyOp20
 70
     0
102
RTVSPropertyOp21
 70
     0
102
RTVSPropertyOp22
 70
     0
102
RTVSPropertyOp23
 70
     0
102
RTVSPropertyOp24
 70
     0
102
RTVSPropertyOp25
 70
     0
102
RTVSPropertyOp26
 70
     0
102
RTVSPropertyOp27
 70
     0
102
RTVSPropertyOp28
 70
     0
102
RTVSPropertyOp29
 70
     0
102
RTVSPropertyOp30
 70
     0
102
RTVSPropertyOp31
 70
     0
102
RTVSPropertyOp32
 70
     0
102
RTVSPropertyOp33
 70
     0
102
RTVSPropertyOp34
 70
     0
102
RTVSPropertyOp35
 70
     0
102
RTVSPropertyOp36
 70
     0
102
RTVSPropertyOp37
 70
     0
102
RTVSPropertyOp38
 70
     0
102
RTVSPropertyOp39
 70
     0
102
RTVSPropertyOp40
 70
     0
102
RTVSPropertyOp41
 70
     0
102
RTVSPropertyOp42
 70
     0
102
RTVSPropertyOp43
 70
     0
102
RTVSPropertyOp44
 70
     0
102
RTVSPropertyOp45
 70
     0
102
RTVSPropertyOp46
 70
     0
102
RTVSPropertyOp47
 70
     0
102
RTVSPropertyOp48
 70
     0
102
RTVSPropertyOp49
 70
     0
102
RTVSPropertyOp50
 70
     0
102
RTVSPropertyOp51
 70
     0
102
RTVSPropertyOp52
 70
     0
102
RTVSPropertyOp53
 70
     0
102
RTVSPropertyOp54
 70
     0
102
RTVSPropertyOp55
 70
     0
102
RTVSPropertyOp56
 70
     0
102
RTVSPropertyOp57
 70
     0
102
RTVSPost2010Prop28
280
     0
102
RTVSPost2010PropOp28
 70
     0
102
RTVSPost2010Prop29
280
     1
102
RTVSPost2010PropOp29
 70
     0
102
RTVSPost2010Prop30
280
     1
102
RTVSPost2010PropOp30
 70
     0
102
RTVSPost2010Prop31
280
     0
102
RTVSPost2010PropOp31
 70
     0
102
RTVSPost2010Prop32
280
     0
102
RTVSPost2010PropOp32
 70
     0
102
RTVSPost2010Prop33
280
     0
102
RTVSPost2010PropOp33
 70
     0
102
RTVSPost2010Prop34
280
     0
102
RTVSPost2010PropOp34
 70
     0
102
RTVSPost2010Prop35
280
     0
102
RTVSPost2010PropOp35
 70
     0
102
RTVSPost2010Prop36
280
     0
102
RTVSPost2010PropOp36
 70
     0
102
RTVSPost2010Prop37
 90
       50
102
RTVSPost2010PropOp37
 70
     0
102
RTVSPost2010Prop38
140
0.0
102
RTVSPost2010PropOp38
 70
     0
102
RTVSPost2010Prop39
140
1.0
102
RTVSPost2010PropOp39
 70
     0
102
RTVSPost2010Prop40
 90
        0
102
RTVSPost2010PropOp40
 70
     0
102
RTVSPost2010Prop41ColorIndex
 90
       18
102
RTVSPost2010Prop41ColorRGB
 90
        0
102
RTVSPost2010PropOp41
 70
     0
102
RTVSPost2010Prop42
 90
       50
102
RTVSPost2010PropOp42
 70
     0
102
RTVSPost2010Prop43
 90
        3
102
RTVSPost2010PropOp43
 70
     0
102
RTVSPost2010Prop44ColorIndex
 90
        5
102
RTVSPost2010Prop44ColorRGB
 90
      255
102
RTVSPost2010PropOp44
 70
     0
102
RTVSPost2010Prop45
280
     0
102
RTVSPost2010PropOp45
 70
     0
102
RTVSPost2010Prop46
 90
       50
102
RTVSPost2010PropOp46
 70
     0
102
RTVSPost2010Prop47
 90
       50
102
RTVSPost2010PropOp47
 70
     0
102
RTVSPost2010Prop48
 90
       50
102
RTVSPost2010PropOp48
 70
     0
102
RTVSPost2010Prop49
280
     0
102
RTVSPost2010PropOp49
 70
     0
102
RTVSPost2010Prop50
 90
       50
102
RTVSPost2010PropOp50
 70
     0
102
RTVSPost2010Prop51ColorIndex
 90
      256
102
RTVSPost2010Prop51ColorRGB
 90
-16777216
102
RTVSPost2010PropOp51
 70
     0
102
RTVSPost2010Prop52
140
1.0
102
RTVSPost2010PropOp52
 70
     0
102
RTVSPost2010Prop53
 90
        2
102
RTVSPost2010PropOp53
 70
     0
102
RTVSPost2010Prop54
  1
strokes_ogs.tif
102
RTVSPost2010PropOp54
 70
     0
102
RTVSPost2010Prop55
280
     0
102
RTVSPost2010PropOp55
 70
     0
102
RTVSPost2010Prop56
140
1.0
102
RTVSPost2010PropOp56
 70
     0
102
RTVSPost2010Prop57
140
1.0
102
RTVSPost2010PropOp57
 70
     0
  0
XRECORD
  5
4AD
102
{ACAD_REACTORS
330
4AC
102
}
330
4AC
100
AcDbXrecord
280
     1
102
RTVSPropertyOp0
 70
     1
102
RTVSPropertyOp1
 70
     1
102
RTVSPropertyOp2
 70
     1
102
RTVSPropertyOp3
 70
     1
102
RTVSPropertyOp4
 70
     1
102
RTVSPropertyOp5
 70
     1
102
RTVSPropertyOp6
 70
     1
102
RTVSPropertyOp7
 70
     1
102
RTVSPropertyOp8
 70
     1
102
RTVSPropertyOp9
 70
     1
102
RTVSPropertyOp10
 70
     1
102
RTVSPropertyOp11
 70
     1
102
RTVSPropertyOp12
 70
     1
102
RTVSPropertyOp13
 70
     1
102
RTVSPropertyOp14
 70
     1
102
RTVSPropertyOp15
 70
     1
102
RTVSPropertyOp16
 70
     1
102
RTVSPropertyOp17
 70
     1
102
RTVSPropertyOp18
 70
     1
102
RTVSPropertyOp19
 70
     1
102
RTVSPropertyOp20
 70
     1
102
RTVSPropertyOp21
 70
     1
102
RTVSPropertyOp22
 70
     1
102
RTVSPropertyOp23
 70
     1
102
RTVSPropertyOp24
 70
     1
102
RTVSPropertyOp25
 70
     1
102
RTVSPropertyOp26
 70
     1
102
RTVSPropertyOp27
 70
     1
102
RTVSPropertyOp28
 70
     1
102
RTVSPropertyOp29
 70
     1
102
RTVSPropertyOp30
 70
     1
102
RTVSPropertyOp31
 70
     1
102
RTVSPropertyOp32
 70
     1
102
RTVSPropertyOp33
 70
     1
102
RTVSPropertyOp34
 70
     1
102
RTVSPropertyOp35
 70
     1
102
RTVSPropertyOp36
 70
     1
102
RTVSPropertyOp37
 70
     1
102
RTVSPropertyOp38
 70
     1
102
RTVSPropertyOp39
 70
     1
102
RTVSPropertyOp40
 70
     1
102
RTVSPropertyOp41
 70
     1
102
RTVSPropertyOp42
 70
     1
102
RTVSPropertyOp43
 70
     1
102
RTVSPropertyOp44
 70
     1
102
RTVSPropertyOp45
 70
     1
102
RTVSPropertyOp46
 70
     1
102
RTVSPropertyOp47
 70
     1
102
RTVSPropertyOp48
 70
     1
102
RTVSPropertyOp49
 70
     1
102
RTVSPropertyOp50
 70
     1
102
RTVSPropertyOp51
 70
     0
102
RTVSPropertyOp52
 70
     0
102
RTVSPropertyOp53
 70
     1
102
RTVSPropertyOp54
 70
     1
102
RTVSPropertyOp55
 70
     1
102
RTVSPropertyOp56
 70
     1
102
RTVSPropertyOp57
 70
     1
102
RTVSPost2010Prop28
280
     0
102
RTVSPost2010PropOp28
 70
     1
102
RTVSPost2010Prop29
280
     1
102
RTVSPost2010PropOp29
 70
     1
102
RTVSPost2010Prop30
280
     1
102
RTVSPost2010PropOp30
 70
     1
102
RTVSPost2010Prop31
280
     0
102
RTVSPost2010PropOp31
 70
     1
102
RTVSPost2010Prop32
280
     0
102
RTVSPost2010PropOp32
 70
     1
102
RTVSPost2010Prop33
280
     0
102
RTVSPost2010PropOp33
 70
     1
102
RTVSPost2010Prop34
280
     0
102
RTVSPost2010PropOp34
 70
     1
102
RTVSPost2010Prop35
280
     0
102
RTVSPost2010PropOp35
 70
     1
102
RTVSPost2010Prop36
280
     0
102
RTVSPost2010PropOp36
 70
     1
102
RTVSPost2010Prop37
 90
       50
102
RTVSPost2010PropOp37
 70
     1
102
RTVSPost2010Prop38
140
0.0
102
RTVSPost2010PropOp38
 70
     1
102
RTVSPost2010Prop39
140
1.0
102
RTVSPost2010PropOp39
 70
     1
102
RTVSPost2010Prop40
 90
        0
102
RTVSPost2010PropOp40
 70
     1
102
RTVSPost2010Prop41ColorIndex
 90
       18
102
RTVSPost2010Prop41ColorRGB
 90
        0
102
RTVSPost2010PropOp41
 70
     1
102
RTVSPost2010Prop42
 90
       50
102
RTVSPost2010PropOp42
 70
     1
102
RTVSPost2010Prop43
 90
        3
102
RTVSPost2010PropOp43
 70
     1
102
RTVSPost2010Prop44ColorIndex
 90
        5
102
RTVSPost2010Prop44ColorRGB
 90
      255
102
RTVSPost2010PropOp44
 70
     1
102
RTVSPost2010Prop45
280
     0
102
RTVSPost2010PropOp45
 70
     1
102
RTVSPost2010Prop46
 90
       50
102
RTVSPost2010PropOp46
 70
     1
102
RTVSPost2010Prop47
 90
       50
102
RTVSPost2010PropOp47
 70
     1
102
RTVSPost2010Prop48
 90
       50
102
RTVSPost2010PropOp48
 70
     1
102
RTVSPost2010Prop49
280
     0
102
RTVSPost2010PropOp49
 70
     1
102
RTVSPost2010Prop50
 90
       50
102
RTVSPost2010PropOp50
 70
     1
102
RTVSPost2010Prop51ColorIndex
 90
      256
102
RTVSPost2010Prop51ColorRGB
 90
-16777216
102
RTVSPost2010PropOp51
 70
     0
102
RTVSPost2010Prop52
140
1.0
102
RTVSPost2010PropOp52
 70
     0
102
RTVSPost2010Prop53
 90
        2
102
RTVSPost2010PropOp53
 70
     1
102
RTVSPost2010Prop54
  1
strokes_ogs.tif
102
RTVSPost2010PropOp54
 70
     1
102
RTVSPost2010Prop55
280
     0
102
RTVSPost2010PropOp55
 70
     1
102
RTVSPost2010Prop56
140
1.0
102
RTVSPost2010PropOp56
 70
     1
102
RTVSPost2010Prop57
140
1.0
102
RTVSPost2010PropOp57
 70
     1
  0
XRECORD
  5
491
102
{ACAD_REACTORS
330
490
102
}
330
490
100
AcDbXrecord
280
     1
102
RTVSPropertyOp0
 70
     1
102
RTVSPropertyOp1
 70
     1
102
RTVSPropertyOp2
 70
     1
102
RTVSPropertyOp3
 70
     1
102
RTVSPropertyOp4
 70
     1
102
RTVSPropertyOp5
 70
     1
102
RTVSPropertyOp6
 70
     1
102
RTVSPropertyOp7
 70
     1
102
RTVSPropertyOp8
 70
     1
102
RTVSPropertyOp9
 70
     1
102
RTVSPropertyOp10
 70
     1
102
RTVSPropertyOp11
 70
     1
102
RTVSPropertyOp12
 70
     1
102
RTVSPropertyOp13
 70
     1
102
RTVSPropertyOp14
 70
     1
102
RTVSPropertyOp15
 70
     1
102
RTVSPropertyOp16
 70
     1
102
RTVSPropertyOp17
 70
     1
102
RTVSPropertyOp18
 70
     1
102
RTVSPropertyOp19
 70
     1
102
RTVSPropertyOp20
 70
     1
102
RTVSPropertyOp21
 70
     1
102
RTVSPropertyOp22
 70
     1
102
RTVSPropertyOp23
 70
     1
102
RTVSPropertyOp24
 70
     1
102
RTVSPropertyOp25
 70
     1
102
RTVSPropertyOp26
 70
     1
102
RTVSPropertyOp27
 70
     1
102
RTVSPropertyOp28
 70
     1
102
RTVSPropertyOp29
 70
     1
102
RTVSPropertyOp30
 70
     1
102
RTVSPropertyOp31
 70
     1
102
RTVSPropertyOp32
 70
     1
102
RTVSPropertyOp33
 70
     1
102
RTVSPropertyOp34
 70
     1
102
RTVSPropertyOp35
 70
     1
102
RTVSPropertyOp36
 70
     1
102
RTVSPropertyOp37
 70
     1
102
RTVSPropertyOp38
 70
     1
102
RTVSPropertyOp39
 70
     1
102
RTVSPropertyOp40
 70
     1
102
RTVSPropertyOp41
 70
     1
102
RTVSPropertyOp42
 70
     1
102
RTVSPropertyOp43
 70
     1
102
RTVSPropertyOp44
 70
     1
102
RTVSPropertyOp45
 70
     1
102
RTVSPropertyOp46
 70
     1
102
RTVSPropertyOp47
 70
     1
102
RTVSPropertyOp48
 70
     1
102
RTVSPropertyOp49
 70
     1
102
RTVSPropertyOp50
 70
     1
102
RTVSPropertyOp51
 70
     0
102
RTVSPropertyOp52
 70
     0
102
RTVSPropertyOp53
 70
     1
102
RTVSPropertyOp54
 70
     1
102
RTVSPropertyOp55
 70
     1
102
RTVSPropertyOp56
 70
     1
102
RTVSPropertyOp57
 70
     1
102
RTVSPost2010Prop28
280
     0
102
RTVSPost2010PropOp28
 70
     1
102
RTVSPost2010Prop29
280
     1
102
RTVSPost2010PropOp29
 70
     1
102
RTVSPost2010Prop30
280
     1
102
RTVSPost2010PropOp30
 70
     1
102
RTVSPost2010Prop31
280
     0
102
RTVSPost2010PropOp31
 70
     1
102
RTVSPost2010Prop32
280
     0
102
RTVSPost2010PropOp32
 70
     1
102
RTVSPost2010Prop33
280
     0
102
RTVSPost2010PropOp33
 70
     1
102
RTVSPost2010Prop34
280
     0
102
RTVSPost2010PropOp34
 70
     1
102
RTVSPost2010Prop35
280
     0
102
RTVSPost2010PropOp35
 70
     1
102
RTVSPost2010Prop36
280
     0
102
RTVSPost2010PropOp36
 70
     1
102
RTVSPost2010Prop37
 90
       50
102
RTVSPost2010PropOp37
 70
     1
102
RTVSPost2010Prop38
140
0.0
102
RTVSPost2010PropOp38
 70
     1
102
RTVSPost2010Prop39
140
1.0
102
RTVSPost2010PropOp39
 70
     1
102
RTVSPost2010Prop40
 90
        0
102
RTVSPost2010PropOp40
 70
     1
102
RTVSPost2010Prop41ColorIndex
 90
       18
102
RTVSPost2010Prop41ColorRGB
 90
        0
102
RTVSPost2010PropOp41
 70
     1
102
RTVSPost2010Prop42
 90
       50
102
RTVSPost2010PropOp42
 70
     1
102
RTVSPost2010Prop43
 90
        3
102
RTVSPost2010PropOp43
 70
     1
102
RTVSPost2010Prop44ColorIndex
 90
        5
102
RTVSPost2010Prop44ColorRGB
 90
      255
102
RTVSPost2010PropOp44
 70
     1
102
RTVSPost2010Prop45
280
     0
102
RTVSPost2010PropOp45
 70
     1
102
RTVSPost2010Prop46
 90
       50
102
RTVSPost2010PropOp46
 70
     1
102
RTVSPost2010Prop47
 90
       50
102
RTVSPost2010PropOp47
 70
     1
102
RTVSPost2010Prop48
 90
       50
102
RTVSPost2010PropOp48
 70
     1
102
RTVSPost2010Prop49
280
     0
102
RTVSPost2010PropOp49
 70
     1
102
RTVSPost2010Prop50
 90
       50
102
RTVSPost2010PropOp50
 70
     1
102
RTVSPost2010Prop51ColorIndex
 90
      256
102
RTVSPost2010Prop51ColorRGB
 90
-16777216
102
RTVSPost2010PropOp51
 70
     0
102
RTVSPost2010Prop52
140
1.0
102
RTVSPost2010PropOp52
 70
     0
102
RTVSPost2010Prop53
 90
        2
102
RTVSPost2010PropOp53
 70
     1
102
RTVSPost2010Prop54
  1
strokes_ogs.tif
102
RTVSPost2010PropOp54
 70
     1
102
RTVSPost2010Prop55
280
     0
102
RTVSPost2010PropOp55
 70
     1
102
RTVSPost2010Prop56
140
1.0
102
RTVSPost2010PropOp56
 70
     1
102
RTVSPost2010Prop57
140
1.0
102
RTVSPost2010PropOp57
 70
     1
  0
XRECORD
  5
493
102
{ACAD_REACTORS
330
492
102
}
330
492
100
AcDbXrecord
280
     1
102
RTVSPropertyOp0
 70
     1
102
RTVSPropertyOp1
 70
     1
102
RTVSPropertyOp2
 70
     1
102
RTVSPropertyOp3
 70
     1
102
RTVSPropertyOp4
 70
     1
102
RTVSPropertyOp5
 70
     1
102
RTVSPropertyOp6
 70
     1
102
RTVSPropertyOp7
 70
     1
102
RTVSPropertyOp8
 70
     1
102
RTVSPropertyOp9
 70
     1
102
RTVSPropertyOp10
 70
     1
102
RTVSPropertyOp11
 70
     1
102
RTVSPropertyOp12
 70
     1
102
RTVSPropertyOp13
 70
     1
102
RTVSPropertyOp14
 70
     1
102
RTVSPropertyOp15
 70
     1
102
RTVSPropertyOp16
 70
     1
102
RTVSPropertyOp17
 70
     1
102
RTVSPropertyOp18
 70
     1
102
RTVSPropertyOp19
 70
     1
102
RTVSPropertyOp20
 70
     1
102
RTVSPropertyOp21
 70
     1
102
RTVSPropertyOp22
 70
     1
102
RTVSPropertyOp23
 70
     1
102
RTVSPropertyOp24
 70
     1
102
RTVSPropertyOp25
 70
     1
102
RTVSPropertyOp26
 70
     1
102
RTVSPropertyOp27
 70
     1
102
RTVSPropertyOp28
 70
     1
102
RTVSPropertyOp29
 70
     1
102
RTVSPropertyOp30
 70
     1
102
RTVSPropertyOp31
 70
     1
102
RTVSPropertyOp32
 70
     1
102
RTVSPropertyOp33
 70
     1
102
RTVSPropertyOp34
 70
     1
102
RTVSPropertyOp35
 70
     1
102
RTVSPropertyOp36
 70
     1
102
RTVSPropertyOp37
 70
     1
102
RTVSPropertyOp38
 70
     1
102
RTVSPropertyOp39
 70
     1
102
RTVSPropertyOp40
 70
     1
102
RTVSPropertyOp41
 70
     1
102
RTVSPropertyOp42
 70
     1
102
RTVSPropertyOp43
 70
     1
102
RTVSPropertyOp44
 70
     1
102
RTVSPropertyOp45
 70
     1
102
RTVSPropertyOp46
 70
     1
102
RTVSPropertyOp47
 70
     1
102
RTVSPropertyOp48
 70
     1
102
RTVSPropertyOp49
 70
     1
102
RTVSPropertyOp50
 70
     1
102
RTVSPropertyOp51
 70
     0
102
RTVSPropertyOp52
 70
     0
102
RTVSPropertyOp53
 70
     1
102
RTVSPropertyOp54
 70
     1
102
RTVSPropertyOp55
 70
     1
102
RTVSPropertyOp56
 70
     1
102
RTVSPropertyOp57
 70
     1
102
RTVSPost2010Prop28
280
     0
102
RTVSPost2010PropOp28
 70
     1
102
RTVSPost2010Prop29
280
     1
102
RTVSPost2010PropOp29
 70
     1
102
RTVSPost2010Prop30
280
     1
102
RTVSPost2010PropOp30
 70
     1
102
RTVSPost2010Prop31
280
     0
102
RTVSPost2010PropOp31
 70
     1
102
RTVSPost2010Prop32
280
     0
102
RTVSPost2010PropOp32
 70
     1
102
RTVSPost2010Prop33
280
     0
102
RTVSPost2010PropOp33
 70
     1
102
RTVSPost2010Prop34
280
     0
102
RTVSPost2010PropOp34
 70
     1
102
RTVSPost2010Prop35
280
     0
102
RTVSPost2010PropOp35
 70
     1
102
RTVSPost2010Prop36
280
     0
102
RTVSPost2010PropOp36
 70
     1
102
RTVSPost2010Prop37
 90
       50
102
RTVSPost2010PropOp37
 70
     1
102
RTVSPost2010Prop38
140
0.0
102
RTVSPost2010PropOp38
 70
     1
102
RTVSPost2010Prop39
140
1.0
102
RTVSPost2010PropOp39
 70
     1
102
RTVSPost2010Prop40
 90
        0
102
RTVSPost2010PropOp40
 70
     1
102
RTVSPost2010Prop41ColorIndex
 90
       18
102
RTVSPost2010Prop41ColorRGB
 90
        0
102
RTVSPost2010PropOp41
 70
     1
102
RTVSPost2010Prop42
 90
       50
102
RTVSPost2010PropOp42
 70
     1
102
RTVSPost2010Prop43
 90
        3
102
RTVSPost2010PropOp43
 70
     1
102
RTVSPost2010Prop44ColorIndex
 90
        5
102
RTVSPost2010Prop44ColorRGB
 90
      255
102
RTVSPost2010PropOp44
 70
     1
102
RTVSPost2010Prop45
280
     0
102
RTVSPost2010PropOp45
 70
     1
102
RTVSPost2010Prop46
 90
       50
102
RTVSPost2010PropOp46
 70
     1
102
RTVSPost2010Prop47
 90
       50
102
RTVSPost2010PropOp47
 70
     1
102
RTVSPost2010Prop48
 90
       50
102
RTVSPost2010PropOp48
 70
     1
102
RTVSPost2010Prop49
280
     0
102
RTVSPost2010PropOp49
 70
     1
102
RTVSPost2010Prop50
 90
       50
102
RTVSPost2010PropOp50
 70
     1
102
RTVSPost2010Prop51ColorIndex
 90
      256
102
RTVSPost2010Prop51ColorRGB
 90
-16777216
102
RTVSPost2010PropOp51
 70
     0
102
RTVSPost2010Prop52
140
1.0
102
RTVSPost2010PropOp52
 70
     0
102
RTVSPost2010Prop53
 90
        2
102
RTVSPost2010PropOp53
 70
     1
102
RTVSPost2010Prop54
  1
strokes_ogs.tif
102
RTVSPost2010PropOp54
 70
     1
102
RTVSPost2010Prop55
280
     0
102
RTVSPost2010PropOp55
 70
     1
102
RTVSPost2010Prop56
140
1.0
102
RTVSPost2010PropOp56
 70
     1
102
RTVSPost2010Prop57
140
1.0
102
RTVSPost2010PropOp57
 70
     1
  0
XRECORD
  5
495
102
{ACAD_REACTORS
330
494
102
}
330
494
100
AcDbXrecord
280
     1
102
RTVSPropertyOp0
 70
     1
102
RTVSPropertyOp1
 70
     1
102
RTVSPropertyOp2
 70
     1
102
RTVSPropertyOp3
 70
     1
102
RTVSPropertyOp4
 70
     1
102
RTVSPropertyOp5
 70
     1
102
RTVSPropertyOp6
 70
     1
102
RTVSPropertyOp7
 70
     1
102
RTVSPropertyOp8
 70
     1
102
RTVSPropertyOp9
 70
     1
102
RTVSPropertyOp10
 70
     1
102
RTVSPropertyOp11
 70
     1
102
RTVSPropertyOp12
 70
     1
102
RTVSPropertyOp13
 70
     1
102
RTVSPropertyOp14
 70
     1
102
RTVSPropertyOp15
 70
     1
102
RTVSPropertyOp16
 70
     1
102
RTVSPropertyOp17
 70
     1
102
RTVSPropertyOp18
 70
     1
102
RTVSPropertyOp19
 70
     1
102
RTVSPropertyOp20
 70
     1
102
RTVSPropertyOp21
 70
     1
102
RTVSPropertyOp22
 70
     1
102
RTVSPropertyOp23
 70
     1
102
RTVSPropertyOp24
 70
     1
102
RTVSPropertyOp25
 70
     1
102
RTVSPropertyOp26
 70
     1
102
RTVSPropertyOp27
 70
     1
102
RTVSPropertyOp28
 70
     1
102
RTVSPropertyOp29
 70
     1
102
RTVSPropertyOp30
 70
     1
102
RTVSPropertyOp31
 70
     1
102
RTVSPropertyOp32
 70
     1
102
RTVSPropertyOp33
 70
     1
102
RTVSPropertyOp34
 70
     1
102
RTVSPropertyOp35
 70
     1
102
RTVSPropertyOp36
 70
     1
102
RTVSPropertyOp37
 70
     1
102
RTVSPropertyOp38
 70
     1
102
RTVSPropertyOp39
 70
     1
102
RTVSPropertyOp40
 70
     1
102
RTVSPropertyOp41
 70
     1
102
RTVSPropertyOp42
 70
     1
102
RTVSPropertyOp43
 70
     1
102
RTVSPropertyOp44
 70
     1
102
RTVSPropertyOp45
 70
     1
102
RTVSPropertyOp46
 70
     1
102
RTVSPropertyOp47
 70
     1
102
RTVSPropertyOp48
 70
     1
102
RTVSPropertyOp49
 70
     1
102
RTVSPropertyOp50
 70
     1
102
RTVSPropertyOp51
 70
     0
102
RTVSPropertyOp52
 70
     0
102
RTVSPropertyOp53
 70
     1
102
RTVSPropertyOp54
 70
     1
102
RTVSPropertyOp55
 70
     1
102
RTVSPropertyOp56
 70
     1
102
RTVSPropertyOp57
 70
     1
102
RTVSPost2010Prop28
280
     0
102
RTVSPost2010PropOp28
 70
     1
102
RTVSPost2010Prop29
280
     1
102
RTVSPost2010PropOp29
 70
     1
102
RTVSPost2010Prop30
280
     1
102
RTVSPost2010PropOp30
 70
     1
102
RTVSPost2010Prop31
280
     0
102
RTVSPost2010PropOp31
 70
     1
102
RTVSPost2010Prop32
280
     0
102
RTVSPost2010PropOp32
 70
     1
102
RTVSPost2010Prop33
280
     0
102
RTVSPost2010PropOp33
 70
     1
102
RTVSPost2010Prop34
280
     0
102
RTVSPost2010PropOp34
 70
     1
102
RTVSPost2010Prop35
280
     0
102
RTVSPost2010PropOp35
 70
     1
102
RTVSPost2010Prop36
280
     0
102
RTVSPost2010PropOp36
 70
     1
102
RTVSPost2010Prop37
 90
       50
102
RTVSPost2010PropOp37
 70
     1
102
RTVSPost2010Prop38
140
0.0
102
RTVSPost2010PropOp38
 70
     1
102
RTVSPost2010Prop39
140
1.0
102
RTVSPost2010PropOp39
 70
     1
102
RTVSPost2010Prop40
 90
        0
102
RTVSPost2010PropOp40
 70
     1
102
RTVSPost2010Prop41ColorIndex
 90
       18
102
RTVSPost2010Prop41ColorRGB
 90
        0
102
RTVSPost2010PropOp41
 70
     1
102
RTVSPost2010Prop42
 90
       50
102
RTVSPost2010PropOp42
 70
     1
102
RTVSPost2010Prop43
 90
        3
102
RTVSPost2010PropOp43
 70
     1
102
RTVSPost2010Prop44ColorIndex
 90
        5
102
RTVSPost2010Prop44ColorRGB
 90
      255
102
RTVSPost2010PropOp44
 70
     1
102
RTVSPost2010Prop45
280
     0
102
RTVSPost2010PropOp45
 70
     1
102
RTVSPost2010Prop46
 90
       50
102
RTVSPost2010PropOp46
 70
     1
102
RTVSPost2010Prop47
 90
       50
102
RTVSPost2010PropOp47
 70
     1
102
RTVSPost2010Prop48
 90
       50
102
RTVSPost2010PropOp48
 70
     1
102
RTVSPost2010Prop49
280
     0
102
RTVSPost2010PropOp49
 70
     1
102
RTVSPost2010Prop50
 90
       50
102
RTVSPost2010PropOp50
 70
     1
102
RTVSPost2010Prop51ColorIndex
 90
      256
102
RTVSPost2010Prop51ColorRGB
 90
-16777216
102
RTVSPost2010PropOp51
 70
     0
102
RTVSPost2010Prop52
140
1.0
102
RTVSPost2010PropOp52
 70
     0
102
RTVSPost2010Prop53
 90
        2
102
RTVSPost2010PropOp53
 70
     1
102
RTVSPost2010Prop54
  1
strokes_ogs.tif
102
RTVSPost2010PropOp54
 70
     1
102
RTVSPost2010Prop55
280
     0
102
RTVSPost2010PropOp55
 70
     1
102
RTVSPost2010Prop56
140
1.0
102
RTVSPost2010PropOp56
 70
     1
102
RTVSPost2010Prop57
140
1.0
102
RTVSPost2010PropOp57
 70
     1
  0
XRECORD
  5
497
102
{ACAD_REACTORS
330
496
102
}
330
496
100
AcDbXrecord
280
     1
102
RTVSPropertyOp0
 70
     1
102
RTVSPropertyOp1
 70
     1
102
RTVSPropertyOp2
 70
     1
102
RTVSPropertyOp3
 70
     1
102
RTVSPropertyOp4
 70
     1
102
RTVSPropertyOp5
 70
     1
102
RTVSPropertyOp6
 70
     1
102
RTVSPropertyOp7
 70
     1
102
RTVSPropertyOp8
 70
     1
102
RTVSPropertyOp9
 70
     1
102
RTVSPropertyOp10
 70
     1
102
RTVSPropertyOp11
 70
     1
102
RTVSPropertyOp12
 70
     1
102
RTVSPropertyOp13
 70
     1
102
RTVSPropertyOp14
 70
     1
102
RTVSPropertyOp15
 70
     1
102
RTVSPropertyOp16
 70
     1
102
RTVSPropertyOp17
 70
     1
102
RTVSPropertyOp18
 70
     1
102
RTVSPropertyOp19
 70
     1
102
RTVSPropertyOp20
 70
     1
102
RTVSPropertyOp21
 70
     1
102
RTVSPropertyOp22
 70
     1
102
RTVSPropertyOp23
 70
     1
102
RTVSPropertyOp24
 70
     1
102
RTVSPropertyOp25
 70
     1
102
RTVSPropertyOp26
 70
     1
102
RTVSPropertyOp27
 70
     1
102
RTVSPropertyOp28
 70
     1
102
RTVSPropertyOp29
 70
     1
102
RTVSPropertyOp30
 70
     1
102
RTVSPropertyOp31
 70
     1
102
RTVSPropertyOp32
 70
     1
102
RTVSPropertyOp33
 70
     1
102
RTVSPropertyOp34
 70
     1
102
RTVSPropertyOp35
 70
     1
102
RTVSPropertyOp36
 70
     1
102
RTVSPropertyOp37
 70
     1
102
RTVSPropertyOp38
 70
     1
102
RTVSPropertyOp39
 70
     1
102
RTVSPropertyOp40
 70
     1
102
RTVSPropertyOp41
 70
     1
102
RTVSPropertyOp42
 70
     1
102
RTVSPropertyOp43
 70
     1
102
RTVSPropertyOp44
 70
     1
102
RTVSPropertyOp45
 70
     1
102
RTVSPropertyOp46
 70
     1
102
RTVSPropertyOp47
 70
     1
102
RTVSPropertyOp48
 70
     1
102
RTVSPropertyOp49
 70
     1
102
RTVSPropertyOp50
 70
     1
102
RTVSPropertyOp51
 70
     0
102
RTVSPropertyOp52
 70
     0
102
RTVSPropertyOp53
 70
     1
102
RTVSPropertyOp54
 70
     1
102
RTVSPropertyOp55
 70
     1
102
RTVSPropertyOp56
 70
     1
102
RTVSPropertyOp57
 70
     1
102
RTVSPost2010Prop28
280
     0
102
RTVSPost2010PropOp28
 70
     1
102
RTVSPost2010Prop29
280
     1
102
RTVSPost2010PropOp29
 70
     1
102
RTVSPost2010Prop30
280
     1
102
RTVSPost2010PropOp30
 70
     1
102
RTVSPost2010Prop31
280
     0
102
RTVSPost2010PropOp31
 70
     1
102
RTVSPost2010Prop32
280
     0
102
RTVSPost2010PropOp32
 70
     1
102
RTVSPost2010Prop33
280
     0
102
RTVSPost2010PropOp33
 70
     1
102
RTVSPost2010Prop34
280
     0
102
RTVSPost2010PropOp34
 70
     1
102
RTVSPost2010Prop35
280
     0
102
RTVSPost2010PropOp35
 70
     1
102
RTVSPost2010Prop36
280
     0
102
RTVSPost2010PropOp36
 70
     1
102
RTVSPost2010Prop37
 90
       50
102
RTVSPost2010PropOp37
 70
     1
102
RTVSPost2010Prop38
140
0.0
102
RTVSPost2010PropOp38
 70
     1
102
RTVSPost2010Prop39
140
1.0
102
RTVSPost2010PropOp39
 70
     1
102
RTVSPost2010Prop40
 90
        0
102
RTVSPost2010PropOp40
 70
     1
102
RTVSPost2010Prop41ColorIndex
 90
       18
102
RTVSPost2010Prop41ColorRGB
 90
        0
102
RTVSPost2010PropOp41
 70
     1
102
RTVSPost2010Prop42
 90
       50
102
RTVSPost2010PropOp42
 70
     1
102
RTVSPost2010Prop43
 90
        3
102
RTVSPost2010PropOp43
 70
     1
102
RTVSPost2010Prop44ColorIndex
 90
        5
102
RTVSPost2010Prop44ColorRGB
 90
      255
102
RTVSPost2010PropOp44
 70
     1
102
RTVSPost2010Prop45
280
     0
102
RTVSPost2010PropOp45
 70
     1
102
RTVSPost2010Prop46
 90
       50
102
RTVSPost2010PropOp46
 70
     1
102
RTVSPost2010Prop47
 90
       50
102
RTVSPost2010PropOp47
 70
     1
102
RTVSPost2010Prop48
 90
       50
102
RTVSPost2010PropOp48
 70
     1
102
RTVSPost2010Prop49
280
     0
102
RTVSPost2010PropOp49
 70
     1
102
RTVSPost2010Prop50
 90
       50
102
RTVSPost2010PropOp50
 70
     1
102
RTVSPost2010Prop51ColorIndex
 90
      256
102
RTVSPost2010Prop51ColorRGB
 90
-16777216
102
RTVSPost2010PropOp51
 70
     0
102
RTVSPost2010Prop52
140
1.0
102
RTVSPost2010PropOp52
 70
     0
102
RTVSPost2010Prop53
 90
        2
102
RTVSPost2010PropOp53
 70
     1
102
RTVSPost2010Prop54
  1
strokes_ogs.tif
102
RTVSPost2010PropOp54
 70
     1
102
RTVSPost2010Prop55
280
     0
102
RTVSPost2010PropOp55
 70
     1
102
RTVSPost2010Prop56
140
1.0
102
RTVSPost2010PropOp56
 70
     1
102
RTVSPost2010Prop57
140
1.0
102
RTVSPost2010PropOp57
 70
     1
  0
XRECORD
  5
49D
102
{ACAD_REACTORS
330
49C
102
}
330
49C
100
AcDbXrecord
280
     1
102
RTVSPropertyOp0
 70
     1
102
RTVSPropertyOp1
 70
     1
102
RTVSPropertyOp2
 70
     1
102
RTVSPropertyOp3
 70
     1
102
RTVSPropertyOp4
 70
     1
102
RTVSPropertyOp5
 70
     1
102
RTVSPropertyOp6
 70
     1
102
RTVSPropertyOp7
 70
     1
102
RTVSPropertyOp8
 70
     1
102
RTVSPropertyOp9
 70
     1
102
RTVSPropertyOp10
 70
     1
102
RTVSPropertyOp11
 70
     1
102
RTVSPropertyOp12
 70
     1
102
RTVSPropertyOp13
 70
     1
102
RTVSPropertyOp14
 70
     1
102
RTVSPropertyOp15
 70
     1
102
RTVSPropertyOp16
 70
     1
102
RTVSPropertyOp17
 70
     1
102
RTVSPropertyOp18
 70
     1
102
RTVSPropertyOp19
 70
     1
102
RTVSPropertyOp20
 70
     1
102
RTVSPropertyOp21
 70
     1
102
RTVSPropertyOp22
 70
     1
102
RTVSPropertyOp23
 70
     1
102
RTVSPropertyOp24
 70
     1
102
RTVSPropertyOp25
 70
     1
102
RTVSPropertyOp26
 70
     1
102
RTVSPropertyOp27
 70
     1
102
RTVSPropertyOp28
 70
     1
102
RTVSPropertyOp29
 70
     1
102
RTVSPropertyOp30
 70
     1
102
RTVSPropertyOp31
 70
     1
102
RTVSPropertyOp32
 70
     1
102
RTVSPropertyOp33
 70
     1
102
RTVSPropertyOp34
 70
     1
102
RTVSPropertyOp35
 70
     1
102
RTVSPropertyOp36
 70
     1
102
RTVSPropertyOp37
 70
     1
102
RTVSPropertyOp38
 70
     1
102
RTVSPropertyOp39
 70
     1
102
RTVSPropertyOp40
 70
     1
102
RTVSPropertyOp41
 70
     1
102
RTVSPropertyOp42
 70
     1
102
RTVSPropertyOp43
 70
     1
102
RTVSPropertyOp44
 70
     1
102
RTVSPropertyOp45
 70
     1
102
RTVSPropertyOp46
 70
     1
102
RTVSPropertyOp47
 70
     1
102
RTVSPropertyOp48
 70
     1
102
RTVSPropertyOp49
 70
     1
102
RTVSPropertyOp50
 70
     1
102
RTVSPropertyOp51
 70
     0
102
RTVSPropertyOp52
 70
     0
102
RTVSPropertyOp53
 70
     1
102
RTVSPropertyOp54
 70
     1
102
RTVSPropertyOp55
 70
     1
102
RTVSPropertyOp56
 70
     1
102
RTVSPropertyOp57
 70
     1
102
RTVSPost2010Prop28
280
     0
102
RTVSPost2010PropOp28
 70
     1
102
RTVSPost2010Prop29
280
     1
102
RTVSPost2010PropOp29
 70
     1
102
RTVSPost2010Prop30
280
     1
102
RTVSPost2010PropOp30
 70
     1
102
RTVSPost2010Prop31
280
     0
102
RTVSPost2010PropOp31
 70
     1
102
RTVSPost2010Prop32
280
     0
102
RTVSPost2010PropOp32
 70
     1
102
RTVSPost2010Prop33
280
     0
102
RTVSPost2010PropOp33
 70
     1
102
RTVSPost2010Prop34
280
     0
102
RTVSPost2010PropOp34
 70
     1
102
RTVSPost2010Prop35
280
     0
102
RTVSPost2010PropOp35
 70
     1
102
RTVSPost2010Prop36
280
     0
102
RTVSPost2010PropOp36
 70
     1
102
RTVSPost2010Prop37
 90
       50
102
RTVSPost2010PropOp37
 70
     1
102
RTVSPost2010Prop38
140
0.0
102
RTVSPost2010PropOp38
 70
     1
102
RTVSPost2010Prop39
140
1.0
102
RTVSPost2010PropOp39
 70
     1
102
RTVSPost2010Prop40
 90
        0
102
RTVSPost2010PropOp40
 70
     1
102
RTVSPost2010Prop41ColorIndex
 90
       18
102
RTVSPost2010Prop41ColorRGB
 90
        0
102
RTVSPost2010PropOp41
 70
     1
102
RTVSPost2010Prop42
 90
       50
102
RTVSPost2010PropOp42
 70
     1
102
RTVSPost2010Prop43
 90
        3
102
RTVSPost2010PropOp43
 70
     1
102
RTVSPost2010Prop44ColorIndex
 90
        5
102
RTVSPost2010Prop44ColorRGB
 90
      255
102
RTVSPost2010PropOp44
 70
     1
102
RTVSPost2010Prop45
280
     0
102
RTVSPost2010PropOp45
 70
     1
102
RTVSPost2010Prop46
 90
       50
102
RTVSPost2010PropOp46
 70
     1
102
RTVSPost2010Prop47
 90
       50
102
RTVSPost2010PropOp47
 70
     1
102
RTVSPost2010Prop48
 90
       50
102
RTVSPost2010PropOp48
 70
     1
102
RTVSPost2010Prop49
280
     0
102
RTVSPost2010PropOp49
 70
     1
102
RTVSPost2010Prop50
 90
       50
102
RTVSPost2010PropOp50
 70
     1
102
RTVSPost2010Prop51ColorIndex
 90
      256
102
RTVSPost2010Prop51ColorRGB
 90
-16777216
102
RTVSPost2010PropOp51
 70
     0
102
RTVSPost2010Prop52
140
1.0
102
RTVSPost2010PropOp52
 70
     0
102
RTVSPost2010Prop53
 90
        2
102
RTVSPost2010PropOp53
 70
     1
102
RTVSPost2010Prop54
  1
strokes_ogs.tif
102
RTVSPost2010PropOp54
 70
     1
102
RTVSPost2010Prop55
280
     0
102
RTVSPost2010PropOp55
 70
     1
102
RTVSPost2010Prop56
140
1.0
102
RTVSPost2010PropOp56
 70
     1
102
RTVSPost2010Prop57
140
1.0
102
RTVSPost2010PropOp57
 70
     1
  0
XRECORD
  5
4B1
102
{ACAD_REACTORS
330
4B0
102
}
330
4B0
100
AcDbXrecord
280
     1
102
RTVSPropertyOp0
 70
     0
102
RTVSPropertyOp1
 70
     0
102
RTVSPropertyOp2
 70
     0
102
RTVSPropertyOp3
 70
     0
102
RTVSPropertyOp4
 70
     0
102
RTVSPropertyOp5
 70
     0
102
RTVSPropertyOp6
 70
     0
102
RTVSPropertyOp7
 70
     0
102
RTVSPropertyOp8
 70
     0
102
RTVSPropertyOp9
 70
     0
102
RTVSPropertyOp10
 70
     0
102
RTVSPropertyOp11
 70
     0
102
RTVSPropertyOp12
 70
     0
102
RTVSPropertyOp13
 70
     0
102
RTVSPropertyOp14
 70
     2
102
RTVSPropertyOp15
 70
     0
102
RTVSPropertyOp16
 70
     0
102
RTVSPropertyOp17
 70
     0
102
RTVSPropertyOp18
 70
     0
102
RTVSPropertyOp19
 70
     0
102
RTVSPropertyOp20
 70
     0
102
RTVSPropertyOp21
 70
     0
102
RTVSPropertyOp22
 70
     0
102
RTVSPropertyOp23
 70
     0
102
RTVSPropertyOp24
 70
     0
102
RTVSPropertyOp25
 70
     0
102
RTVSPropertyOp26
 70
     0
102
RTVSPropertyOp27
 70
     0
102
RTVSPropertyOp28
 70
     0
102
RTVSPropertyOp29
 70
     0
102
RTVSPropertyOp30
 70
     0
102
RTVSPropertyOp31
 70
     0
102
RTVSPropertyOp32
 70
     0
102
RTVSPropertyOp33
 70
     0
102
RTVSPropertyOp34
 70
     0
102
RTVSPropertyOp35
 70
     0
102
RTVSPropertyOp36
 70
     0
102
RTVSPropertyOp37
 70
     0
102
RTVSPropertyOp38
 70
     0
102
RTVSPropertyOp39
 70
     0
102
RTVSPropertyOp40
 70
     0
102
RTVSPropertyOp41
 70
     0
102
RTVSPropertyOp42
 70
     0
102
RTVSPropertyOp43
 70
     0
102
RTVSPropertyOp44
 70
     0
102
RTVSPropertyOp45
 70
     0
102
RTVSPropertyOp46
 70
     0
102
RTVSPropertyOp47
 70
     0
102
RTVSPropertyOp48
 70
     0
102
RTVSPropertyOp49
 70
     0
102
RTVSPropertyOp50
 70
     0
102
RTVSPropertyOp51
 70
     0
102
RTVSPropertyOp52
 70
     0
102
RTVSPropertyOp53
 70
     0
102
RTVSPropertyOp54
 70
     0
102
RTVSPropertyOp55
 70
     0
102
RTVSPropertyOp56
 70
     0
102
RTVSPropertyOp57
 70
     0
102
RTVSPost2010Prop28
280
     0
102
RTVSPost2010PropOp28
 70
     0
102
RTVSPost2010Prop29
280
     1
102
RTVSPost2010PropOp29
 70
     0
102
RTVSPost2010Prop30
280
     1
102
RTVSPost2010PropOp30
 70
     0
102
RTVSPost2010Prop31
280
     0
102
RTVSPost2010PropOp31
 70
     0
102
RTVSPost2010Prop32
280
     0
102
RTVSPost2010PropOp32
 70
     0
102
RTVSPost2010Prop33
280
     0
102
RTVSPost2010PropOp33
 70
     0
102
RTVSPost2010Prop34
280
     0
102
RTVSPost2010PropOp34
 70
     0
102
RTVSPost2010Prop35
280
     0
102
RTVSPost2010PropOp35
 70
     0
102
RTVSPost2010Prop36
280
     0
102
RTVSPost2010PropOp36
 70
     0
102
RTVSPost2010Prop37
 90
       50
102
RTVSPost2010PropOp37
 70
     0
102
RTVSPost2010Prop38
140
0.0
102
RTVSPost2010PropOp38
 70
     0
102
RTVSPost2010Prop39
140
1.0
102
RTVSPost2010PropOp39
 70
     0
102
RTVSPost2010Prop40
 90
        0
102
RTVSPost2010PropOp40
 70
     0
102
RTVSPost2010Prop41ColorIndex
 90
       18
102
RTVSPost2010Prop41ColorRGB
 90
        0
102
RTVSPost2010PropOp41
 70
     0
102
RTVSPost2010Prop42
 90
       50
102
RTVSPost2010PropOp42
 70
     0
102
RTVSPost2010Prop43
 90
        3
102
RTVSPost2010PropOp43
 70
     0
102
RTVSPost2010Prop44ColorIndex
 90
        5
102
RTVSPost2010Prop44ColorRGB
 90
      255
102
RTVSPost2010PropOp44
 70
     0
102
RTVSPost2010Prop45
280
     0
102
RTVSPost2010PropOp45
 70
     0
102
RTVSPost2010Prop46
 90
       50
102
RTVSPost2010PropOp46
 70
     0
102
RTVSPost2010Prop47
 90
       50
102
RTVSPost2010PropOp47
 70
     0
102
RTVSPost2010Prop48
 90
       50
102
RTVSPost2010PropOp48
 70
     0
102
RTVSPost2010Prop49
280
     0
102
RTVSPost2010PropOp49
 70
     0
102
RTVSPost2010Prop50
 90
       50
102
RTVSPost2010PropOp50
 70
     0
102
RTVSPost2010Prop51ColorIndex
 90
      256
102
RTVSPost2010Prop51ColorRGB
 90
-16777216
102
RTVSPost2010PropOp51
 70
     0
102
RTVSPost2010Prop52
140
1.0
102
RTVSPost2010PropOp52
 70
     0
102
RTVSPost2010Prop53
 90
        2
102
RTVSPost2010PropOp53
 70
     0
102
RTVSPost2010Prop54
  1
strokes_ogs.tif
102
RTVSPost2010PropOp54
 70
     0
102
RTVSPost2010Prop55
280
     0
102
RTVSPost2010PropOp55
 70
     0
102
RTVSPost2010Prop56
140
1.0
102
RTVSPost2010PropOp56
 70
     0
102
RTVSPost2010Prop57
140
1.0
102
RTVSPost2010PropOp57
 70
     0
  0
XRECORD
  5
4AB
102
{ACAD_REACTORS
330
4AA
102
}
330
4AA
100
AcDbXrecord
280
     1
102
RTVSPropertyOp0
 70
     1
102
RTVSPropertyOp1
 70
     1
102
RTVSPropertyOp2
 70
     1
102
RTVSPropertyOp3
 70
     1
102
RTVSPropertyOp4
 70
     1
102
RTVSPropertyOp5
 70
     1
102
RTVSPropertyOp6
 70
     1
102
RTVSPropertyOp7
 70
     1
102
RTVSPropertyOp8
 70
     1
102
RTVSPropertyOp9
 70
     1
102
RTVSPropertyOp10
 70
     1
102
RTVSPropertyOp11
 70
     1
102
RTVSPropertyOp12
 70
     1
102
RTVSPropertyOp13
 70
     1
102
RTVSPropertyOp14
 70
     1
102
RTVSPropertyOp15
 70
     1
102
RTVSPropertyOp16
 70
     1
102
RTVSPropertyOp17
 70
     1
102
RTVSPropertyOp18
 70
     1
102
RTVSPropertyOp19
 70
     1
102
RTVSPropertyOp20
 70
     1
102
RTVSPropertyOp21
 70
     1
102
RTVSPropertyOp22
 70
     1
102
RTVSPropertyOp23
 70
     1
102
RTVSPropertyOp24
 70
     1
102
RTVSPropertyOp25
 70
     1
102
RTVSPropertyOp26
 70
     1
102
RTVSPropertyOp27
 70
     1
102
RTVSPropertyOp28
 70
     1
102
RTVSPropertyOp29
 70
     1
102
RTVSPropertyOp30
 70
     1
102
RTVSPropertyOp31
 70
     1
102
RTVSPropertyOp32
 70
     1
102
RTVSPropertyOp33
 70
     1
102
RTVSPropertyOp34
 70
     1
102
RTVSPropertyOp35
 70
     1
102
RTVSPropertyOp36
 70
     1
102
RTVSPropertyOp37
 70
     1
102
RTVSPropertyOp38
 70
     1
102
RTVSPropertyOp39
 70
     1
102
RTVSPropertyOp40
 70
     1
102
RTVSPropertyOp41
 70
     1
102
RTVSPropertyOp42
 70
     1
102
RTVSPropertyOp43
 70
     1
102
RTVSPropertyOp44
 70
     1
102
RTVSPropertyOp45
 70
     1
102
RTVSPropertyOp46
 70
     1
102
RTVSPropertyOp47
 70
     1
102
RTVSPropertyOp48
 70
     1
102
RTVSPropertyOp49
 70
     1
102
RTVSPropertyOp50
 70
     1
102
RTVSPropertyOp51
 70
     0
102
RTVSPropertyOp52
 70
     0
102
RTVSPropertyOp53
 70
     1
102
RTVSPropertyOp54
 70
     1
102
RTVSPropertyOp55
 70
     1
102
RTVSPropertyOp56
 70
     1
102
RTVSPropertyOp57
 70
     1
102
RTVSPost2010Prop28
280
     0
102
RTVSPost2010PropOp28
 70
     1
102
RTVSPost2010Prop29
280
     1
102
RTVSPost2010PropOp29
 70
     1
102
RTVSPost2010Prop30
280
     1
102
RTVSPost2010PropOp30
 70
     1
102
RTVSPost2010Prop31
280
     0
102
RTVSPost2010PropOp31
 70
     1
102
RTVSPost2010Prop32
280
     0
102
RTVSPost2010PropOp32
 70
     1
102
RTVSPost2010Prop33
280
     0
102
RTVSPost2010PropOp33
 70
     1
102
RTVSPost2010Prop34
280
     0
102
RTVSPost2010PropOp34
 70
     1
102
RTVSPost2010Prop35
280
     0
102
RTVSPost2010PropOp35
 70
     1
102
RTVSPost2010Prop36
280
     0
102
RTVSPost2010PropOp36
 70
     1
102
RTVSPost2010Prop37
 90
       50
102
RTVSPost2010PropOp37
 70
     1
102
RTVSPost2010Prop38
140
0.0
102
RTVSPost2010PropOp38
 70
     1
102
RTVSPost2010Prop39
140
1.0
102
RTVSPost2010PropOp39
 70
     1
102
RTVSPost2010Prop40
 90
        0
102
RTVSPost2010PropOp40
 70
     1
102
RTVSPost2010Prop41ColorIndex
 90
       18
102
RTVSPost2010Prop41ColorRGB
 90
        0
102
RTVSPost2010PropOp41
 70
     1
102
RTVSPost2010Prop42
 90
       50
102
RTVSPost2010PropOp42
 70
     1
102
RTVSPost2010Prop43
 90
        3
102
RTVSPost2010PropOp43
 70
     1
102
RTVSPost2010Prop44ColorIndex
 90
        5
102
RTVSPost2010Prop44ColorRGB
 90
      255
102
RTVSPost2010PropOp44
 70
     1
102
RTVSPost2010Prop45
280
     0
102
RTVSPost2010PropOp45
 70
     1
102
RTVSPost2010Prop46
 90
       50
102
RTVSPost2010PropOp46
 70
     1
102
RTVSPost2010Prop47
 90
       50
102
RTVSPost2010PropOp47
 70
     1
102
RTVSPost2010Prop48
 90
       50
102
RTVSPost2010PropOp48
 70
     1
102
RTVSPost2010Prop49
280
     0
102
RTVSPost2010PropOp49
 70
     1
102
RTVSPost2010Prop50
 90
       50
102
RTVSPost2010PropOp50
 70
     1
102
RTVSPost2010Prop51ColorIndex
 90
      256
102
RTVSPost2010Prop51ColorRGB
 90
-16777216
102
RTVSPost2010PropOp51
 70
     0
102
RTVSPost2010Prop52
140
1.0
102
RTVSPost2010PropOp52
 70
     0
102
RTVSPost2010Prop53
 90
        2
102
RTVSPost2010PropOp53
 70
     1
102
RTVSPost2010Prop54
  1
strokes_ogs.tif
102
RTVSPost2010PropOp54
 70
     1
102
RTVSPost2010Prop55
280
     0
102
RTVSPost2010PropOp55
 70
     1
102
RTVSPost2010Prop56
140
1.0
102
RTVSPost2010PropOp56
 70
     1
102
RTVSPost2010Prop57
140
1.0
102
RTVSPost2010PropOp57
 70
     1
  0
XRECORD
  5
4B3
102
{ACAD_REACTORS
330
4B2
102
}
330
4B2
100
AcDbXrecord
280
     1
102
RTVSPropertyOp0
 70
     0
102
RTVSPropertyOp1
 70
     0
102
RTVSPropertyOp2
 70
     0
102
RTVSPropertyOp3
 70
     0
102
RTVSPropertyOp4
 70
     0
102
RTVSPropertyOp5
 70
     0
102
RTVSPropertyOp6
 70
     0
102
RTVSPropertyOp7
 70
     0
102
RTVSPropertyOp8
 70
     0
102
RTVSPropertyOp9
 70
     0
102
RTVSPropertyOp10
 70
     0
102
RTVSPropertyOp11
 70
     0
102
RTVSPropertyOp12
 70
     0
102
RTVSPropertyOp13
 70
     0
102
RTVSPropertyOp14
 70
     2
102
RTVSPropertyOp15
 70
     0
102
RTVSPropertyOp16
 70
     0
102
RTVSPropertyOp17
 70
     0
102
RTVSPropertyOp18
 70
     0
102
RTVSPropertyOp19
 70
     0
102
RTVSPropertyOp20
 70
     0
102
RTVSPropertyOp21
 70
     0
102
RTVSPropertyOp22
 70
     0
102
RTVSPropertyOp23
 70
     0
102
RTVSPropertyOp24
 70
     0
102
RTVSPropertyOp25
 70
     0
102
RTVSPropertyOp26
 70
     0
102
RTVSPropertyOp27
 70
     0
102
RTVSPropertyOp28
 70
     0
102
RTVSPropertyOp29
 70
     0
102
RTVSPropertyOp30
 70
     0
102
RTVSPropertyOp31
 70
     0
102
RTVSPropertyOp32
 70
     0
102
RTVSPropertyOp33
 70
     0
102
RTVSPropertyOp34
 70
     0
102
RTVSPropertyOp35
 70
     0
102
RTVSPropertyOp36
 70
     0
102
RTVSPropertyOp37
 70
     0
102
RTVSPropertyOp38
 70
     0
102
RTVSPropertyOp39
 70
     0
102
RTVSPropertyOp40
 70
     0
102
RTVSPropertyOp41
 70
     0
102
RTVSPropertyOp42
 70
     0
102
RTVSPropertyOp43
 70
     0
102
RTVSPropertyOp44
 70
     0
102
RTVSPropertyOp45
 70
     0
102
RTVSPropertyOp46
 70
     0
102
RTVSPropertyOp47
 70
     0
102
RTVSPropertyOp48
 70
     0
102
RTVSPropertyOp49
 70
     0
102
RTVSPropertyOp50
 70
     0
102
RTVSPropertyOp51
 70
     0
102
RTVSPropertyOp52
 70
     0
102
RTVSPropertyOp53
 70
     0
102
RTVSPropertyOp54
 70
     0
102
RTVSPropertyOp55
 70
     0
102
RTVSPropertyOp56
 70
     0
102
RTVSPropertyOp57
 70
     0
102
RTVSPost2010Prop28
280
     0
102
RTVSPost2010PropOp28
 70
     0
102
RTVSPost2010Prop29
280
     1
102
RTVSPost2010PropOp29
 70
     0
102
RTVSPost2010Prop30
280
     1
102
RTVSPost2010PropOp30
 70
     0
102
RTVSPost2010Prop31
280
     0
102
RTVSPost2010PropOp31
 70
     0
102
RTVSPost2010Prop32
280
     0
102
RTVSPost2010PropOp32
 70
     0
102
RTVSPost2010Prop33
280
     0
102
RTVSPost2010PropOp33
 70
     0
102
RTVSPost2010Prop34
280
     0
102
RTVSPost2010PropOp34
 70
     0
102
RTVSPost2010Prop35
280
     0
102
RTVSPost2010PropOp35
 70
     0
102
RTVSPost2010Prop36
280
     0
102
RTVSPost2010PropOp36
 70
     0
102
RTVSPost2010Prop37
 90
       50
102
RTVSPost2010PropOp37
 70
     0
102
RTVSPost2010Prop38
140
0.0
102
RTVSPost2010PropOp38
 70
     0
102
RTVSPost2010Prop39
140
1.0
102
RTVSPost2010PropOp39
 70
     0
102
RTVSPost2010Prop40
 90
        0
102
RTVSPost2010PropOp40
 70
     0
102
RTVSPost2010Prop41ColorIndex
 90
       18
102
RTVSPost2010Prop41ColorRGB
 90
        0
102
RTVSPost2010PropOp41
 70
     0
102
RTVSPost2010Prop42
 90
       50
102
RTVSPost2010PropOp42
 70
     0
102
RTVSPost2010Prop43
 90
        3
102
RTVSPost2010PropOp43
 70
     0
102
RTVSPost2010Prop44ColorIndex
 90
        5
102
RTVSPost2010Prop44ColorRGB
 90
      255
102
RTVSPost2010PropOp44
 70
     0
102
RTVSPost2010Prop45
280
     0
102
RTVSPost2010PropOp45
 70
     0
102
RTVSPost2010Prop46
 90
       50
102
RTVSPost2010PropOp46
 70
     0
102
RTVSPost2010Prop47
 90
       50
102
RTVSPost2010PropOp47
 70
     0
102
RTVSPost2010Prop48
 90
       50
102
RTVSPost2010PropOp48
 70
     0
102
RTVSPost2010Prop49
280
     0
102
RTVSPost2010PropOp49
 70
     0
102
RTVSPost2010Prop50
 90
       50
102
RTVSPost2010PropOp50
 70
     0
102
RTVSPost2010Prop51ColorIndex
 90
      256
102
RTVSPost2010Prop51ColorRGB
 90
-16777216
102
RTVSPost2010PropOp51
 70
     0
102
RTVSPost2010Prop52
140
1.0
102
RTVSPost2010PropOp52
 70
     0
102
RTVSPost2010Prop53
 90
        2
102
RTVSPost2010PropOp53
 70
     0
102
RTVSPost2010Prop54
  1
strokes_ogs.tif
102
RTVSPost2010PropOp54
 70
     0
102
RTVSPost2010Prop55
280
     0
102
RTVSPost2010PropOp55
 70
     0
102
RTVSPost2010Prop56
140
1.0
102
RTVSPost2010PropOp56
 70
     0
102
RTVSPost2010Prop57
140
1.0
102
RTVSPost2010PropOp57
 70
     0
  0
XRECORD
  5
4A1
102
{ACAD_REACTORS
330
4A0
102
}
330
4A0
100
AcDbXrecord
280
     1
102
RTVSPropertyOp0
 70
     1
102
RTVSPropertyOp1
 70
     1
102
RTVSPropertyOp2
 70
     1
102
RTVSPropertyOp3
 70
     1
102
RTVSPropertyOp4
 70
     1
102
RTVSPropertyOp5
 70
     1
102
RTVSPropertyOp6
 70
     1
102
RTVSPropertyOp7
 70
     1
102
RTVSPropertyOp8
 70
     1
102
RTVSPropertyOp9
 70
     1
102
RTVSPropertyOp10
 70
     1
102
RTVSPropertyOp11
 70
     1
102
RTVSPropertyOp12
 70
     1
102
RTVSPropertyOp13
 70
     1
102
RTVSPropertyOp14
 70
     1
102
RTVSPropertyOp15
 70
     1
102
RTVSPropertyOp16
 70
     1
102
RTVSPropertyOp17
 70
     1
102
RTVSPropertyOp18
 70
     1
102
RTVSPropertyOp19
 70
     1
102
RTVSPropertyOp20
 70
     1
102
RTVSPropertyOp21
 70
     1
102
RTVSPropertyOp22
 70
     1
102
RTVSPropertyOp23
 70
     1
102
RTVSPropertyOp24
 70
     1
102
RTVSPropertyOp25
 70
     1
102
RTVSPropertyOp26
 70
     1
102
RTVSPropertyOp27
 70
     1
102
RTVSPropertyOp28
 70
     1
102
RTVSPropertyOp29
 70
     1
102
RTVSPropertyOp30
 70
     1
102
RTVSPropertyOp31
 70
     1
102
RTVSPropertyOp32
 70
     1
102
RTVSPropertyOp33
 70
     1
102
RTVSPropertyOp34
 70
     1
102
RTVSPropertyOp35
 70
     1
102
RTVSPropertyOp36
 70
     1
102
RTVSPropertyOp37
 70
     1
102
RTVSPropertyOp38
 70
     1
102
RTVSPropertyOp39
 70
     1
102
RTVSPropertyOp40
 70
     1
102
RTVSPropertyOp41
 70
     1
102
RTVSPropertyOp42
 70
     1
102
RTVSPropertyOp43
 70
     1
102
RTVSPropertyOp44
 70
     1
102
RTVSPropertyOp45
 70
     1
102
RTVSPropertyOp46
 70
     1
102
RTVSPropertyOp47
 70
     1
102
RTVSPropertyOp48
 70
     1
102
RTVSPropertyOp49
 70
     1
102
RTVSPropertyOp50
 70
     1
102
RTVSPropertyOp51
 70
     0
102
RTVSPropertyOp52
 70
     0
102
RTVSPropertyOp53
 70
     1
102
RTVSPropertyOp54
 70
     1
102
RTVSPropertyOp55
 70
     1
102
RTVSPropertyOp56
 70
     1
102
RTVSPropertyOp57
 70
     1
102
RTVSPost2010Prop28
280
     0
102
RTVSPost2010PropOp28
 70
     1
102
RTVSPost2010Prop29
280
     1
102
RTVSPost2010PropOp29
 70
     1
102
RTVSPost2010Prop30
280
     1
102
RTVSPost2010PropOp30
 70
     1
102
RTVSPost2010Prop31
280
     0
102
RTVSPost2010PropOp31
 70
     1
102
RTVSPost2010Prop32
280
     0
102
RTVSPost2010PropOp32
 70
     1
102
RTVSPost2010Prop33
280
     0
102
RTVSPost2010PropOp33
 70
     1
102
RTVSPost2010Prop34
280
     0
102
RTVSPost2010PropOp34
 70
     1
102
RTVSPost2010Prop35
280
     0
102
RTVSPost2010PropOp35
 70
     1
102
RTVSPost2010Prop36
280
     0
102
RTVSPost2010PropOp36
 70
     1
102
RTVSPost2010Prop37
 90
       50
102
RTVSPost2010PropOp37
 70
     1
102
RTVSPost2010Prop38
140
0.0
102
RTVSPost2010PropOp38
 70
     1
102
RTVSPost2010Prop39
140
1.0
102
RTVSPost2010PropOp39
 70
     1
102
RTVSPost2010Prop40
 90
        0
102
RTVSPost2010PropOp40
 70
     1
102
RTVSPost2010Prop41ColorIndex
 90
       18
102
RTVSPost2010Prop41ColorRGB
 90
        0
102
RTVSPost2010PropOp41
 70
     1
102
RTVSPost2010Prop42
 90
       50
102
RTVSPost2010PropOp42
 70
     1
102
RTVSPost2010Prop43
 90
        3
102
RTVSPost2010PropOp43
 70
     1
102
RTVSPost2010Prop44ColorIndex
 90
        5
102
RTVSPost2010Prop44ColorRGB
 90
      255
102
RTVSPost2010PropOp44
 70
     1
102
RTVSPost2010Prop45
280
     0
102
RTVSPost2010PropOp45
 70
     1
102
RTVSPost2010Prop46
 90
       50
102
RTVSPost2010PropOp46
 70
     1
102
RTVSPost2010Prop47
 90
       50
102
RTVSPost2010PropOp47
 70
     1
102
RTVSPost2010Prop48
 90
       50
102
RTVSPost2010PropOp48
 70
     1
102
RTVSPost2010Prop49
280
     0
102
RTVSPost2010PropOp49
 70
     1
102
RTVSPost2010Prop50
 90
       50
102
RTVSPost2010PropOp50
 70
     1
102
RTVSPost2010Prop51ColorIndex
 90
      256
102
RTVSPost2010Prop51ColorRGB
 90
-16777216
102
RTVSPost2010PropOp51
 70
     0
102
RTVSPost2010Prop52
140
1.0
102
RTVSPost2010PropOp52
 70
     0
102
RTVSPost2010Prop53
 90
        2
102
RTVSPost2010PropOp53
 70
     1
102
RTVSPost2010Prop54
  1
strokes_ogs.tif
102
RTVSPost2010PropOp54
 70
     1
102
RTVSPost2010Prop55
280
     0
102
RTVSPost2010PropOp55
 70
     1
102
RTVSPost2010Prop56
140
1.0
102
RTVSPost2010PropOp56
 70
     1
102
RTVSPost2010Prop57
140
1.0
102
RTVSPost2010PropOp57
 70
     1
  0
XRECORD
  5
4BF
102
{ACAD_REACTORS
330
4BE
102
}
330
4BE
100
AcDbXrecord
280
     1
102
RTVSPropertyOp0
 70
     1
102
RTVSPropertyOp1
 70
     1
102
RTVSPropertyOp2
 70
     1
102
RTVSPropertyOp3
 70
     1
102
RTVSPropertyOp4
 70
     1
102
RTVSPropertyOp5
 70
     1
102
RTVSPropertyOp6
 70
     1
102
RTVSPropertyOp7
 70
     1
102
RTVSPropertyOp8
 70
     1
102
RTVSPropertyOp9
 70
     1
102
RTVSPropertyOp10
 70
     1
102
RTVSPropertyOp11
 70
     1
102
RTVSPropertyOp12
 70
     1
102
RTVSPropertyOp13
 70
     1
102
RTVSPropertyOp14
 70
     1
102
RTVSPropertyOp15
 70
     1
102
RTVSPropertyOp16
 70
     1
102
RTVSPropertyOp17
 70
     1
102
RTVSPropertyOp18
 70
     1
102
RTVSPropertyOp19
 70
     1
102
RTVSPropertyOp20
 70
     1
102
RTVSPropertyOp21
 70
     1
102
RTVSPropertyOp22
 70
     1
102
RTVSPropertyOp23
 70
     1
102
RTVSPropertyOp24
 70
     1
102
RTVSPropertyOp25
 70
     1
102
RTVSPropertyOp26
 70
     1
102
RTVSPropertyOp27
 70
     1
102
RTVSPropertyOp28
 70
     1
102
RTVSPropertyOp29
 70
     1
102
RTVSPropertyOp30
 70
     1
102
RTVSPropertyOp31
 70
     1
102
RTVSPropertyOp32
 70
     1
102
RTVSPropertyOp33
 70
     1
102
RTVSPropertyOp34
 70
     1
102
RTVSPropertyOp35
 70
     1
102
RTVSPropertyOp36
 70
     1
102
RTVSPropertyOp37
 70
     1
102
RTVSPropertyOp38
 70
     1
102
RTVSPropertyOp39
 70
     1
102
RTVSPropertyOp40
 70
     1
102
RTVSPropertyOp41
 70
     1
102
RTVSPropertyOp42
 70
     1
102
RTVSPropertyOp43
 70
     1
102
RTVSPropertyOp44
 70
     1
102
RTVSPropertyOp45
 70
     1
102
RTVSPropertyOp46
 70
     1
102
RTVSPropertyOp47
 70
     1
102
RTVSPropertyOp48
 70
     1
102
RTVSPropertyOp49
 70
     1
102
RTVSPropertyOp50
 70
     1
102
RTVSPropertyOp51
 70
     0
102
RTVSPropertyOp52
 70
     0
102
RTVSPropertyOp53
 70
     1
102
RTVSPropertyOp54
 70
     1
102
RTVSPropertyOp55
 70
     1
102
RTVSPropertyOp56
 70
     1
102
RTVSPropertyOp57
 70
     1
102
RTVSPost2010Prop28
280
     0
102
RTVSPost2010PropOp28
 70
     1
102
RTVSPost2010Prop29
280
     1
102
RTVSPost2010PropOp29
 70
     1
102
RTVSPost2010Prop30
280
     1
102
RTVSPost2010PropOp30
 70
     1
102
RTVSPost2010Prop31
280
     0
102
RTVSPost2010PropOp31
 70
     1
102
RTVSPost2010Prop32
280
     0
102
RTVSPost2010PropOp32
 70
     1
102
RTVSPost2010Prop33
280
     0
102
RTVSPost2010PropOp33
 70
     1
102
RTVSPost2010Prop34
280
     0
102
RTVSPost2010PropOp34
 70
     1
102
RTVSPost2010Prop35
280
     0
102
RTVSPost2010PropOp35
 70
     1
102
RTVSPost2010Prop36
280
     0
102
RTVSPost2010PropOp36
 70
     1
102
RTVSPost2010Prop37
 90
       50
102
RTVSPost2010PropOp37
 70
     1
102
RTVSPost2010Prop38
140
0.0
102
RTVSPost2010PropOp38
 70
     1
102
RTVSPost2010Prop39
140
1.0
102
RTVSPost2010PropOp39
 70
     1
102
RTVSPost2010Prop40
 90
        0
102
RTVSPost2010PropOp40
 70
     1
102
RTVSPost2010Prop41ColorIndex
 90
       18
102
RTVSPost2010Prop41ColorRGB
 90
        0
102
RTVSPost2010PropOp41
 70
     1
102
RTVSPost2010Prop42
 90
       50
102
RTVSPost2010PropOp42
 70
     1
102
RTVSPost2010Prop43
 90
        3
102
RTVSPost2010PropOp43
 70
     1
102
RTVSPost2010Prop44ColorIndex
 90
        5
102
RTVSPost2010Prop44ColorRGB
 90
      255
102
RTVSPost2010PropOp44
 70
     1
102
RTVSPost2010Prop45
280
     0
102
RTVSPost2010PropOp45
 70
     1
102
RTVSPost2010Prop46
 90
       50
102
RTVSPost2010PropOp46
 70
     1
102
RTVSPost2010Prop47
 90
       50
102
RTVSPost2010PropOp47
 70
     1
102
RTVSPost2010Prop48
 90
       50
102
RTVSPost2010PropOp48
 70
     1
102
RTVSPost2010Prop49
280
     0
102
RTVSPost2010PropOp49
 70
     1
102
RTVSPost2010Prop50
 90
       50
102
RTVSPost2010PropOp50
 70
     1
102
RTVSPost2010Prop51ColorIndex
 90
      256
102
RTVSPost2010Prop51ColorRGB
 90
-16777216
102
RTVSPost2010PropOp51
 70
     0
102
RTVSPost2010Prop52
140
1.0
102
RTVSPost2010PropOp52
 70
     0
102
RTVSPost2010Prop53
 90
        2
102
RTVSPost2010PropOp53
 70
     1
102
RTVSPost2010Prop54
  1
strokes_ogs.tif
102
RTVSPost2010PropOp54
 70
     1
102
RTVSPost2010Prop55
280
     0
102
RTVSPost2010PropOp55
 70
     1
102
RTVSPost2010Prop56
140
1.0
102
RTVSPost2010PropOp56
 70
     1
102
RTVSPost2010Prop57
140
1.0
102
RTVSPost2010PropOp57
 70
     1
  0
XRECORD
  5
4BD
102
{ACAD_REACTORS
330
4BC
102
}
330
4BC
100
AcDbXrecord
280
     1
102
RTVSPropertyOp0
 70
     1
102
RTVSPropertyOp1
 70
     1
102
RTVSPropertyOp2
 70
     1
102
RTVSPropertyOp3
 70
     1
102
RTVSPropertyOp4
 70
     1
102
RTVSPropertyOp5
 70
     1
102
RTVSPropertyOp6
 70
     1
102
RTVSPropertyOp7
 70
     1
102
RTVSPropertyOp8
 70
     1
102
RTVSPropertyOp9
 70
     1
102
RTVSPropertyOp10
 70
     1
102
RTVSPropertyOp11
 70
     1
102
RTVSPropertyOp12
 70
     1
102
RTVSPropertyOp13
 70
     1
102
RTVSPropertyOp14
 70
     1
102
RTVSPropertyOp15
 70
     1
102
RTVSPropertyOp16
 70
     1
102
RTVSPropertyOp17
 70
     1
102
RTVSPropertyOp18
 70
     1
102
RTVSPropertyOp19
 70
     1
102
RTVSPropertyOp20
 70
     1
102
RTVSPropertyOp21
 70
     1
102
RTVSPropertyOp22
 70
     1
102
RTVSPropertyOp23
 70
     1
102
RTVSPropertyOp24
 70
     1
102
RTVSPropertyOp25
 70
     1
102
RTVSPropertyOp26
 70
     1
102
RTVSPropertyOp27
 70
     1
102
RTVSPropertyOp28
 70
     1
102
RTVSPropertyOp29
 70
     1
102
RTVSPropertyOp30
 70
     1
102
RTVSPropertyOp31
 70
     1
102
RTVSPropertyOp32
 70
     1
102
RTVSPropertyOp33
 70
     1
102
RTVSPropertyOp34
 70
     1
102
RTVSPropertyOp35
 70
     1
102
RTVSPropertyOp36
 70
     1
102
RTVSPropertyOp37
 70
     1
102
RTVSPropertyOp38
 70
     1
102
RTVSPropertyOp39
 70
     1
102
RTVSPropertyOp40
 70
     1
102
RTVSPropertyOp41
 70
     1
102
RTVSPropertyOp42
 70
     1
102
RTVSPropertyOp43
 70
     1
102
RTVSPropertyOp44
 70
     1
102
RTVSPropertyOp45
 70
     1
102
RTVSPropertyOp46
 70
     1
102
RTVSPropertyOp47
 70
     1
102
RTVSPropertyOp48
 70
     1
102
RTVSPropertyOp49
 70
     1
102
RTVSPropertyOp50
 70
     1
102
RTVSPropertyOp51
 70
     0
102
RTVSPropertyOp52
 70
     0
102
RTVSPropertyOp53
 70
     1
102
RTVSPropertyOp54
 70
     1
102
RTVSPropertyOp55
 70
     1
102
RTVSPropertyOp56
 70
     1
102
RTVSPropertyOp57
 70
     1
102
RTVSPost2010Prop28
280
     0
102
RTVSPost2010PropOp28
 70
     1
102
RTVSPost2010Prop29
280
     1
102
RTVSPost2010PropOp29
 70
     1
102
RTVSPost2010Prop30
280
     1
102
RTVSPost2010PropOp30
 70
     1
102
RTVSPost2010Prop31
280
     0
102
RTVSPost2010PropOp31
 70
     1
102
RTVSPost2010Prop32
280
     0
102
RTVSPost2010PropOp32
 70
     1
102
RTVSPost2010Prop33
280
     0
102
RTVSPost2010PropOp33
 70
     1
102
RTVSPost2010Prop34
280
     0
102
RTVSPost2010PropOp34
 70
     1
102
RTVSPost2010Prop35
280
     0
102
RTVSPost2010PropOp35
 70
     1
102
RTVSPost2010Prop36
280
     0
102
RTVSPost2010PropOp36
 70
     1
102
RTVSPost2010Prop37
 90
       50
102
RTVSPost2010PropOp37
 70
     1
102
RTVSPost2010Prop38
140
0.0
102
RTVSPost2010PropOp38
 70
     1
102
RTVSPost2010Prop39
140
1.0
102
RTVSPost2010PropOp39
 70
     1
102
RTVSPost2010Prop40
 90
        0
102
RTVSPost2010PropOp40
 70
     1
102
RTVSPost2010Prop41ColorIndex
 90
       18
102
RTVSPost2010Prop41ColorRGB
 90
        0
102
RTVSPost2010PropOp41
 70
     1
102
RTVSPost2010Prop42
 90
       50
102
RTVSPost2010PropOp42
 70
     1
102
RTVSPost2010Prop43
 90
        3
102
RTVSPost2010PropOp43
 70
     1
102
RTVSPost2010Prop44ColorIndex
 90
        5
102
RTVSPost2010Prop44ColorRGB
 90
      255
102
RTVSPost2010PropOp44
 70
     1
102
RTVSPost2010Prop45
280
     0
102
RTVSPost2010PropOp45
 70
     1
102
RTVSPost2010Prop46
 90
       50
102
RTVSPost2010PropOp46
 70
     1
102
RTVSPost2010Prop47
 90
       50
102
RTVSPost2010PropOp47
 70
     1
102
RTVSPost2010Prop48
 90
       50
102
RTVSPost2010PropOp48
 70
     1
102
RTVSPost2010Prop49
280
     0
102
RTVSPost2010PropOp49
 70
     1
102
RTVSPost2010Prop50
 90
       50
102
RTVSPost2010PropOp50
 70
     1
102
RTVSPost2010Prop51ColorIndex
 90
      256
102
RTVSPost2010Prop51ColorRGB
 90
-16777216
102
RTVSPost2010PropOp51
 70
     0
102
RTVSPost2010Prop52
140
1.0
102
RTVSPost2010PropOp52
 70
     0
102
RTVSPost2010Prop53
 90
        2
102
RTVSPost2010PropOp53
 70
     1
102
RTVSPost2010Prop54
  1
strokes_ogs.tif
102
RTVSPost2010PropOp54
 70
     1
102
RTVSPost2010Prop55
280
     0
102
RTVSPost2010PropOp55
 70
     1
102
RTVSPost2010Prop56
140
1.0
102
RTVSPost2010PropOp56
 70
     1
102
RTVSPost2010Prop57
140
1.0
102
RTVSPost2010PropOp57
 70
     1
  0
XRECORD
  5
4B7
102
{ACAD_REACTORS
330
4B6
102
}
330
4B6
100
AcDbXrecord
280
     1
102
RTVSPropertyOp0
 70
     1
102
RTVSPropertyOp1
 70
     1
102
RTVSPropertyOp2
 70
     1
102
RTVSPropertyOp3
 70
     1
102
RTVSPropertyOp4
 70
     1
102
RTVSPropertyOp5
 70
     1
102
RTVSPropertyOp6
 70
     1
102
RTVSPropertyOp7
 70
     1
102
RTVSPropertyOp8
 70
     1
102
RTVSPropertyOp9
 70
     1
102
RTVSPropertyOp10
 70
     1
102
RTVSPropertyOp11
 70
     1
102
RTVSPropertyOp12
 70
     1
102
RTVSPropertyOp13
 70
     1
102
RTVSPropertyOp14
 70
     1
102
RTVSPropertyOp15
 70
     1
102
RTVSPropertyOp16
 70
     1
102
RTVSPropertyOp17
 70
     1
102
RTVSPropertyOp18
 70
     1
102
RTVSPropertyOp19
 70
     1
102
RTVSPropertyOp20
 70
     1
102
RTVSPropertyOp21
 70
     1
102
RTVSPropertyOp22
 70
     1
102
RTVSPropertyOp23
 70
     1
102
RTVSPropertyOp24
 70
     1
102
RTVSPropertyOp25
 70
     1
102
RTVSPropertyOp26
 70
     1
102
RTVSPropertyOp27
 70
     1
102
RTVSPropertyOp28
 70
     1
102
RTVSPropertyOp29
 70
     1
102
RTVSPropertyOp30
 70
     1
102
RTVSPropertyOp31
 70
     1
102
RTVSPropertyOp32
 70
     1
102
RTVSPropertyOp33
 70
     1
102
RTVSPropertyOp34
 70
     1
102
RTVSPropertyOp35
 70
     1
102
RTVSPropertyOp36
 70
     1
102
RTVSPropertyOp37
 70
     1
102
RTVSPropertyOp38
 70
     1
102
RTVSPropertyOp39
 70
     1
102
RTVSPropertyOp40
 70
     1
102
RTVSPropertyOp41
 70
     1
102
RTVSPropertyOp42
 70
     1
102
RTVSPropertyOp43
 70
     1
102
RTVSPropertyOp44
 70
     1
102
RTVSPropertyOp45
 70
     1
102
RTVSPropertyOp46
 70
     1
102
RTVSPropertyOp47
 70
     1
102
RTVSPropertyOp48
 70
     1
102
RTVSPropertyOp49
 70
     1
102
RTVSPropertyOp50
 70
     1
102
RTVSPropertyOp51
 70
     0
102
RTVSPropertyOp52
 70
     0
102
RTVSPropertyOp53
 70
     1
102
RTVSPropertyOp54
 70
     1
102
RTVSPropertyOp55
 70
     1
102
RTVSPropertyOp56
 70
     1
102
RTVSPropertyOp57
 70
     1
102
RTVSPost2010Prop28
280
     0
102
RTVSPost2010PropOp28
 70
     1
102
RTVSPost2010Prop29
280
     1
102
RTVSPost2010PropOp29
 70
     1
102
RTVSPost2010Prop30
280
     1
102
RTVSPost2010PropOp30
 70
     1
102
RTVSPost2010Prop31
280
     0
102
RTVSPost2010PropOp31
 70
     1
102
RTVSPost2010Prop32
280
     0
102
RTVSPost2010PropOp32
 70
     1
102
RTVSPost2010Prop33
280
     0
102
RTVSPost2010PropOp33
 70
     1
102
RTVSPost2010Prop34
280
     0
102
RTVSPost2010PropOp34
 70
     1
102
RTVSPost2010Prop35
280
     0
102
RTVSPost2010PropOp35
 70
     1
102
RTVSPost2010Prop36
280
     0
102
RTVSPost2010PropOp36
 70
     1
102
RTVSPost2010Prop37
 90
       50
102
RTVSPost2010PropOp37
 70
     1
102
RTVSPost2010Prop38
140
0.0
102
RTVSPost2010PropOp38
 70
     1
102
RTVSPost2010Prop39
140
1.0
102
RTVSPost2010PropOp39
 70
     1
102
RTVSPost2010Prop40
 90
        0
102
RTVSPost2010PropOp40
 70
     1
102
RTVSPost2010Prop41ColorIndex
 90
       18
102
RTVSPost2010Prop41ColorRGB
 90
        0
102
RTVSPost2010PropOp41
 70
     1
102
RTVSPost2010Prop42
 90
       50
102
RTVSPost2010PropOp42
 70
     1
102
RTVSPost2010Prop43
 90
        3
102
RTVSPost2010PropOp43
 70
     1
102
RTVSPost2010Prop44ColorIndex
 90
        5
102
RTVSPost2010Prop44ColorRGB
 90
      255
102
RTVSPost2010PropOp44
 70
     1
102
RTVSPost2010Prop45
280
     0
102
RTVSPost2010PropOp45
 70
     1
102
RTVSPost2010Prop46
 90
       50
102
RTVSPost2010PropOp46
 70
     1
102
RTVSPost2010Prop47
 90
       50
102
RTVSPost2010PropOp47
 70
     1
102
RTVSPost2010Prop48
 90
       50
102
RTVSPost2010PropOp48
 70
     1
102
RTVSPost2010Prop49
280
     0
102
RTVSPost2010PropOp49
 70
     1
102
RTVSPost2010Prop50
 90
       50
102
RTVSPost2010PropOp50
 70
     1
102
RTVSPost2010Prop51ColorIndex
 90
      256
102
RTVSPost2010Prop51ColorRGB
 90
-16777216
102
RTVSPost2010PropOp51
 70
     0
102
RTVSPost2010Prop52
140
1.0
102
RTVSPost2010PropOp52
 70
     0
102
RTVSPost2010Prop53
 90
        2
102
RTVSPost2010PropOp53
 70
     1
102
RTVSPost2010Prop54
  1
strokes_ogs.tif
102
RTVSPost2010PropOp54
 70
     1
102
RTVSPost2010Prop55
280
     0
102
RTVSPost2010PropOp55
 70
     1
102
RTVSPost2010Prop56
140
1.0
102
RTVSPost2010PropOp56
 70
     1
102
RTVSPost2010Prop57
140
1.0
102
RTVSPost2010PropOp57
 70
     1
  0
XRECORD
  5
4B9
102
{ACAD_REACTORS
330
4B8
102
}
330
4B8
100
AcDbXrecord
280
     1
102
RTVSPropertyOp0
 70
     1
102
RTVSPropertyOp1
 70
     1
102
RTVSPropertyOp2
 70
     1
102
RTVSPropertyOp3
 70
     1
102
RTVSPropertyOp4
 70
     1
102
RTVSPropertyOp5
 70
     1
102
RTVSPropertyOp6
 70
     1
102
RTVSPropertyOp7
 70
     1
102
RTVSPropertyOp8
 70
     1
102
RTVSPropertyOp9
 70
     1
102
RTVSPropertyOp10
 70
     1
102
RTVSPropertyOp11
 70
     1
102
RTVSPropertyOp12
 70
     1
102
RTVSPropertyOp13
 70
     1
102
RTVSPropertyOp14
 70
     1
102
RTVSPropertyOp15
 70
     1
102
RTVSPropertyOp16
 70
     1
102
RTVSPropertyOp17
 70
     1
102
RTVSPropertyOp18
 70
     1
102
RTVSPropertyOp19
 70
     1
102
RTVSPropertyOp20
 70
     1
102
RTVSPropertyOp21
 70
     1
102
RTVSPropertyOp22
 70
     1
102
RTVSPropertyOp23
 70
     1
102
RTVSPropertyOp24
 70
     1
102
RTVSPropertyOp25
 70
     1
102
RTVSPropertyOp26
 70
     1
102
RTVSPropertyOp27
 70
     1
102
RTVSPropertyOp28
 70
     1
102
RTVSPropertyOp29
 70
     1
102
RTVSPropertyOp30
 70
     1
102
RTVSPropertyOp31
 70
     1
102
RTVSPropertyOp32
 70
     1
102
RTVSPropertyOp33
 70
     1
102
RTVSPropertyOp34
 70
     1
102
RTVSPropertyOp35
 70
     1
102
RTVSPropertyOp36
 70
     1
102
RTVSPropertyOp37
 70
     1
102
RTVSPropertyOp38
 70
     1
102
RTVSPropertyOp39
 70
     1
102
RTVSPropertyOp40
 70
     1
102
RTVSPropertyOp41
 70
     1
102
RTVSPropertyOp42
 70
     1
102
RTVSPropertyOp43
 70
     1
102
RTVSPropertyOp44
 70
     1
102
RTVSPropertyOp45
 70
     1
102
RTVSPropertyOp46
 70
     1
102
RTVSPropertyOp47
 70
     1
102
RTVSPropertyOp48
 70
     1
102
RTVSPropertyOp49
 70
     1
102
RTVSPropertyOp50
 70
     1
102
RTVSPropertyOp51
 70
     0
102
RTVSPropertyOp52
 70
     0
102
RTVSPropertyOp53
 70
     1
102
RTVSPropertyOp54
 70
     1
102
RTVSPropertyOp55
 70
     1
102
RTVSPropertyOp56
 70
     1
102
RTVSPropertyOp57
 70
     1
102
RTVSPost2010Prop28
280
     0
102
RTVSPost2010PropOp28
 70
     1
102
RTVSPost2010Prop29
280
     1
102
RTVSPost2010PropOp29
 70
     1
102
RTVSPost2010Prop30
280
     1
102
RTVSPost2010PropOp30
 70
     1
102
RTVSPost2010Prop31
280
     0
102
RTVSPost2010PropOp31
 70
     1
102
RTVSPost2010Prop32
280
     0
102
RTVSPost2010PropOp32
 70
     1
102
RTVSPost2010Prop33
280
     0
102
RTVSPost2010PropOp33
 70
     1
102
RTVSPost2010Prop34
280
     0
102
RTVSPost2010PropOp34
 70
     1
102
RTVSPost2010Prop35
280
     0
102
RTVSPost2010PropOp35
 70
     1
102
RTVSPost2010Prop36
280
     0
102
RTVSPost2010PropOp36
 70
     1
102
RTVSPost2010Prop37
 90
       50
102
RTVSPost2010PropOp37
 70
     1
102
RTVSPost2010Prop38
140
0.0
102
RTVSPost2010PropOp38
 70
     1
102
RTVSPost2010Prop39
140
1.0
102
RTVSPost2010PropOp39
 70
     1
102
RTVSPost2010Prop40
 90
        0
102
RTVSPost2010PropOp40
 70
     1
102
RTVSPost2010Prop41ColorIndex
 90
       18
102
RTVSPost2010Prop41ColorRGB
 90
        0
102
RTVSPost2010PropOp41
 70
     1
102
RTVSPost2010Prop42
 90
       50
102
RTVSPost2010PropOp42
 70
     1
102
RTVSPost2010Prop43
 90
        3
102
RTVSPost2010PropOp43
 70
     1
102
RTVSPost2010Prop44ColorIndex
 90
        5
102
RTVSPost2010Prop44ColorRGB
 90
      255
102
RTVSPost2010PropOp44
 70
     1
102
RTVSPost2010Prop45
280
     0
102
RTVSPost2010PropOp45
 70
     1
102
RTVSPost2010Prop46
 90
       50
102
RTVSPost2010PropOp46
 70
     1
102
RTVSPost2010Prop47
 90
       50
102
RTVSPost2010PropOp47
 70
     1
102
RTVSPost2010Prop48
 90
       50
102
RTVSPost2010PropOp48
 70
     1
102
RTVSPost2010Prop49
280
     0
102
RTVSPost2010PropOp49
 70
     1
102
RTVSPost2010Prop50
 90
       50
102
RTVSPost2010PropOp50
 70
     1
102
RTVSPost2010Prop51ColorIndex
 90
      256
102
RTVSPost2010Prop51ColorRGB
 90
-16777216
102
RTVSPost2010PropOp51
 70
     0
102
RTVSPost2010Prop52
140
1.0
102
RTVSPost2010PropOp52
 70
     0
102
RTVSPost2010Prop53
 90
        2
102
RTVSPost2010PropOp53
 70
     1
102
RTVSPost2010Prop54
  1
strokes_ogs.tif
102
RTVSPost2010PropOp54
 70
     1
102
RTVSPost2010Prop55
280
     0
102
RTVSPost2010PropOp55
 70
     1
102
RTVSPost2010Prop56
140
1.0
102
RTVSPost2010PropOp56
 70
     1
102
RTVSPost2010Prop57
140
1.0
102
RTVSPost2010PropOp57
 70
     1
  0
XRECORD
  5
4A9
102
{ACAD_REACTORS
330
4A8
102
}
330
4A8
100
AcDbXrecord
280
     1
102
RTVSPropertyOp0
 70
     1
102
RTVSPropertyOp1
 70
     1
102
RTVSPropertyOp2
 70
     1
102
RTVSPropertyOp3
 70
     1
102
RTVSPropertyOp4
 70
     1
102
RTVSPropertyOp5
 70
     1
102
RTVSPropertyOp6
 70
     1
102
RTVSPropertyOp7
 70
     1
102
RTVSPropertyOp8
 70
     1
102
RTVSPropertyOp9
 70
     1
102
RTVSPropertyOp10
 70
     1
102
RTVSPropertyOp11
 70
     1
102
RTVSPropertyOp12
 70
     1
102
RTVSPropertyOp13
 70
     1
102
RTVSPropertyOp14
 70
     1
102
RTVSPropertyOp15
 70
     1
102
RTVSPropertyOp16
 70
     1
102
RTVSPropertyOp17
 70
     1
102
RTVSPropertyOp18
 70
     1
102
RTVSPropertyOp19
 70
     1
102
RTVSPropertyOp20
 70
     1
102
RTVSPropertyOp21
 70
     1
102
RTVSPropertyOp22
 70
     1
102
RTVSPropertyOp23
 70
     1
102
RTVSPropertyOp24
 70
     1
102
RTVSPropertyOp25
 70
     1
102
RTVSPropertyOp26
 70
     1
102
RTVSPropertyOp27
 70
     1
102
RTVSPropertyOp28
 70
     1
102
RTVSPropertyOp29
 70
     1
102
RTVSPropertyOp30
 70
     1
102
RTVSPropertyOp31
 70
     1
102
RTVSPropertyOp32
 70
     1
102
RTVSPropertyOp33
 70
     1
102
RTVSPropertyOp34
 70
     1
102
RTVSPropertyOp35
 70
     1
102
RTVSPropertyOp36
 70
     1
102
RTVSPropertyOp37
 70
     1
102
RTVSPropertyOp38
 70
     1
102
RTVSPropertyOp39
 70
     1
102
RTVSPropertyOp40
 70
     1
102
RTVSPropertyOp41
 70
     1
102
RTVSPropertyOp42
 70
     1
102
RTVSPropertyOp43
 70
     1
102
RTVSPropertyOp44
 70
     1
102
RTVSPropertyOp45
 70
     1
102
RTVSPropertyOp46
 70
     1
102
RTVSPropertyOp47
 70
     1
102
RTVSPropertyOp48
 70
     1
102
RTVSPropertyOp49
 70
     1
102
RTVSPropertyOp50
 70
     1
102
RTVSPropertyOp51
 70
     0
102
RTVSPropertyOp52
 70
     0
102
RTVSPropertyOp53
 70
     1
102
RTVSPropertyOp54
 70
     1
102
RTVSPropertyOp55
 70
     1
102
RTVSPropertyOp56
 70
     1
102
RTVSPropertyOp57
 70
     1
102
RTVSPost2010Prop28
280
     0
102
RTVSPost2010PropOp28
 70
     1
102
RTVSPost2010Prop29
280
     1
102
RTVSPost2010PropOp29
 70
     1
102
RTVSPost2010Prop30
280
     1
102
RTVSPost2010PropOp30
 70
     1
102
RTVSPost2010Prop31
280
     0
102
RTVSPost2010PropOp31
 70
     1
102
RTVSPost2010Prop32
280
     0
102
RTVSPost2010PropOp32
 70
     1
102
RTVSPost2010Prop33
280
     0
102
RTVSPost2010PropOp33
 70
     1
102
RTVSPost2010Prop34
280
     0
102
RTVSPost2010PropOp34
 70
     1
102
RTVSPost2010Prop35
280
     0
102
RTVSPost2010PropOp35
 70
     1
102
RTVSPost2010Prop36
280
     0
102
RTVSPost2010PropOp36
 70
     1
102
RTVSPost2010Prop37
 90
       50
102
RTVSPost2010PropOp37
 70
     1
102
RTVSPost2010Prop38
140
0.0
102
RTVSPost2010PropOp38
 70
     1
102
RTVSPost2010Prop39
140
1.0
102
RTVSPost2010PropOp39
 70
     1
102
RTVSPost2010Prop40
 90
        0
102
RTVSPost2010PropOp40
 70
     1
102
RTVSPost2010Prop41ColorIndex
 90
       18
102
RTVSPost2010Prop41ColorRGB
 90
        0
102
RTVSPost2010PropOp41
 70
     1
102
RTVSPost2010Prop42
 90
       50
102
RTVSPost2010PropOp42
 70
     1
102
RTVSPost2010Prop43
 90
        3
102
RTVSPost2010PropOp43
 70
     1
102
RTVSPost2010Prop44ColorIndex
 90
        5
102
RTVSPost2010Prop44ColorRGB
 90
      255
102
RTVSPost2010PropOp44
 70
     1
102
RTVSPost2010Prop45
280
     0
102
RTVSPost2010PropOp45
 70
     1
102
RTVSPost2010Prop46
 90
       50
102
RTVSPost2010PropOp46
 70
     1
102
RTVSPost2010Prop47
 90
       50
102
RTVSPost2010PropOp47
 70
     1
102
RTVSPost2010Prop48
 90
       50
102
RTVSPost2010PropOp48
 70
     1
102
RTVSPost2010Prop49
280
     0
102
RTVSPost2010PropOp49
 70
     1
102
RTVSPost2010Prop50
 90
       50
102
RTVSPost2010PropOp50
 70
     1
102
RTVSPost2010Prop51ColorIndex
 90
      256
102
RTVSPost2010Prop51ColorRGB
 90
-16777216
102
RTVSPost2010PropOp51
 70
     0
102
RTVSPost2010Prop52
140
1.0
102
RTVSPost2010PropOp52
 70
     0
102
RTVSPost2010Prop53
 90
        2
102
RTVSPost2010PropOp53
 70
     1
102
RTVSPost2010Prop54
  1
strokes_ogs.tif
102
RTVSPost2010PropOp54
 70
     1
102
RTVSPost2010Prop55
280
     0
102
RTVSPost2010PropOp55
 70
     1
102
RTVSPost2010Prop56
140
1.0
102
RTVSPost2010PropOp56
 70
     1
102
RTVSPost2010Prop57
140
1.0
102
RTVSPost2010PropOp57
 70
     1
  0
XRECORD
  5
49B
102
{ACAD_REACTORS
330
49A
102
}
330
49A
100
AcDbXrecord
280
     1
102
RTVSPropertyOp0
 70
     1
102
RTVSPropertyOp1
 70
     1
102
RTVSPropertyOp2
 70
     1
102
RTVSPropertyOp3
 70
     1
102
RTVSPropertyOp4
 70
     1
102
RTVSPropertyOp5
 70
     1
102
RTVSPropertyOp6
 70
     1
102
RTVSPropertyOp7
 70
     1
102
RTVSPropertyOp8
 70
     1
102
RTVSPropertyOp9
 70
     1
102
RTVSPropertyOp10
 70
     1
102
RTVSPropertyOp11
 70
     1
102
RTVSPropertyOp12
 70
     1
102
RTVSPropertyOp13
 70
     1
102
RTVSPropertyOp14
 70
     1
102
RTVSPropertyOp15
 70
     1
102
RTVSPropertyOp16
 70
     1
102
RTVSPropertyOp17
 70
     1
102
RTVSPropertyOp18
 70
     1
102
RTVSPropertyOp19
 70
     1
102
RTVSPropertyOp20
 70
     1
102
RTVSPropertyOp21
 70
     1
102
RTVSPropertyOp22
 70
     1
102
RTVSPropertyOp23
 70
     1
102
RTVSPropertyOp24
 70
     1
102
RTVSPropertyOp25
 70
     1
102
RTVSPropertyOp26
 70
     1
102
RTVSPropertyOp27
 70
     1
102
RTVSPropertyOp28
 70
     1
102
RTVSPropertyOp29
 70
     1
102
RTVSPropertyOp30
 70
     1
102
RTVSPropertyOp31
 70
     1
102
RTVSPropertyOp32
 70
     1
102
RTVSPropertyOp33
 70
     1
102
RTVSPropertyOp34
 70
     1
102
RTVSPropertyOp35
 70
     1
102
RTVSPropertyOp36
 70
     1
102
RTVSPropertyOp37
 70
     1
102
RTVSPropertyOp38
 70
     1
102
RTVSPropertyOp39
 70
     1
102
RTVSPropertyOp40
 70
     1
102
RTVSPropertyOp41
 70
     1
102
RTVSPropertyOp42
 70
     1
102
RTVSPropertyOp43
 70
     1
102
RTVSPropertyOp44
 70
     1
102
RTVSPropertyOp45
 70
     1
102
RTVSPropertyOp46
 70
     1
102
RTVSPropertyOp47
 70
     1
102
RTVSPropertyOp48
 70
     1
102
RTVSPropertyOp49
 70
     1
102
RTVSPropertyOp50
 70
     1
102
RTVSPropertyOp51
 70
     0
102
RTVSPropertyOp52
 70
     0
102
RTVSPropertyOp53
 70
     1
102
RTVSPropertyOp54
 70
     1
102
RTVSPropertyOp55
 70
     1
102
RTVSPropertyOp56
 70
     1
102
RTVSPropertyOp57
 70
     1
102
RTVSPost2010Prop28
280
     0
102
RTVSPost2010PropOp28
 70
     1
102
RTVSPost2010Prop29
280
     1
102
RTVSPost2010PropOp29
 70
     1
102
RTVSPost2010Prop30
280
     1
102
RTVSPost2010PropOp30
 70
     1
102
RTVSPost2010Prop31
280
     0
102
RTVSPost2010PropOp31
 70
     1
102
RTVSPost2010Prop32
280
     0
102
RTVSPost2010PropOp32
 70
     1
102
RTVSPost2010Prop33
280
     0
102
RTVSPost2010PropOp33
 70
     1
102
RTVSPost2010Prop34
280
     0
102
RTVSPost2010PropOp34
 70
     1
102
RTVSPost2010Prop35
280
     0
102
RTVSPost2010PropOp35
 70
     1
102
RTVSPost2010Prop36
280
     0
102
RTVSPost2010PropOp36
 70
     1
102
RTVSPost2010Prop37
 90
       50
102
RTVSPost2010PropOp37
 70
     1
102
RTVSPost2010Prop38
140
0.0
102
RTVSPost2010PropOp38
 70
     1
102
RTVSPost2010Prop39
140
1.0
102
RTVSPost2010PropOp39
 70
     1
102
RTVSPost2010Prop40
 90
        0
102
RTVSPost2010PropOp40
 70
     1
102
RTVSPost2010Prop41ColorIndex
 90
       18
102
RTVSPost2010Prop41ColorRGB
 90
        0
102
RTVSPost2010PropOp41
 70
     1
102
RTVSPost2010Prop42
 90
       50
102
RTVSPost2010PropOp42
 70
     1
102
RTVSPost2010Prop43
 90
        3
102
RTVSPost2010PropOp43
 70
     1
102
RTVSPost2010Prop44ColorIndex
 90
        5
102
RTVSPost2010Prop44ColorRGB
 90
      255
102
RTVSPost2010PropOp44
 70
     1
102
RTVSPost2010Prop45
280
     0
102
RTVSPost2010PropOp45
 70
     1
102
RTVSPost2010Prop46
 90
       50
102
RTVSPost2010PropOp46
 70
     1
102
RTVSPost2010Prop47
 90
       50
102
RTVSPost2010PropOp47
 70
     1
102
RTVSPost2010Prop48
 90
       50
102
RTVSPost2010PropOp48
 70
     1
102
RTVSPost2010Prop49
280
     0
102
RTVSPost2010PropOp49
 70
     1
102
RTVSPost2010Prop50
 90
       50
102
RTVSPost2010PropOp50
 70
     1
102
RTVSPost2010Prop51ColorIndex
 90
      256
102
RTVSPost2010Prop51ColorRGB
 90
-16777216
102
RTVSPost2010PropOp51
 70
     0
102
RTVSPost2010Prop52
140
1.0
102
RTVSPost2010PropOp52
 70
     0
102
RTVSPost2010Prop53
 90
        2
102
RTVSPost2010PropOp53
 70
     1
102
RTVSPost2010Prop54
  1
strokes_ogs.tif
102
RTVSPost2010PropOp54
 70
     1
102
RTVSPost2010Prop55
280
     0
102
RTVSPost2010PropOp55
 70
     1
102
RTVSPost2010Prop56
140
1.0
102
RTVSPost2010PropOp56
 70
     1
102
RTVSPost2010Prop57
140
1.0
102
RTVSPost2010PropOp57
 70
     1
  0
XRECORD
  5
4BB
102
{ACAD_REACTORS
330
4BA
102
}
330
4BA
100
AcDbXrecord
280
     1
102
RTVSPropertyOp0
 70
     1
102
RTVSPropertyOp1
 70
     1
102
RTVSPropertyOp2
 70
     1
102
RTVSPropertyOp3
 70
     1
102
RTVSPropertyOp4
 70
     1
102
RTVSPropertyOp5
 70
     1
102
RTVSPropertyOp6
 70
     1
102
RTVSPropertyOp7
 70
     1
102
RTVSPropertyOp8
 70
     1
102
RTVSPropertyOp9
 70
     1
102
RTVSPropertyOp10
 70
     1
102
RTVSPropertyOp11
 70
     1
102
RTVSPropertyOp12
 70
     1
102
RTVSPropertyOp13
 70
     1
102
RTVSPropertyOp14
 70
     1
102
RTVSPropertyOp15
 70
     1
102
RTVSPropertyOp16
 70
     1
102
RTVSPropertyOp17
 70
     1
102
RTVSPropertyOp18
 70
     1
102
RTVSPropertyOp19
 70
     1
102
RTVSPropertyOp20
 70
     1
102
RTVSPropertyOp21
 70
     1
102
RTVSPropertyOp22
 70
     1
102
RTVSPropertyOp23
 70
     1
102
RTVSPropertyOp24
 70
     1
102
RTVSPropertyOp25
 70
     1
102
RTVSPropertyOp26
 70
     1
102
RTVSPropertyOp27
 70
     1
102
RTVSPropertyOp28
 70
     1
102
RTVSPropertyOp29
 70
     1
102
RTVSPropertyOp30
 70
     1
102
RTVSPropertyOp31
 70
     1
102
RTVSPropertyOp32
 70
     1
102
RTVSPropertyOp33
 70
     1
102
RTVSPropertyOp34
 70
     1
102
RTVSPropertyOp35
 70
     1
102
RTVSPropertyOp36
 70
     1
102
RTVSPropertyOp37
 70
     1
102
RTVSPropertyOp38
 70
     1
102
RTVSPropertyOp39
 70
     1
102
RTVSPropertyOp40
 70
     1
102
RTVSPropertyOp41
 70
     1
102
RTVSPropertyOp42
 70
     1
102
RTVSPropertyOp43
 70
     1
102
RTVSPropertyOp44
 70
     1
102
RTVSPropertyOp45
 70
     1
102
RTVSPropertyOp46
 70
     1
102
RTVSPropertyOp47
 70
     1
102
RTVSPropertyOp48
 70
     1
102
RTVSPropertyOp49
 70
     1
102
RTVSPropertyOp50
 70
     1
102
RTVSPropertyOp51
 70
     0
102
RTVSPropertyOp52
 70
     0
102
RTVSPropertyOp53
 70
     1
102
RTVSPropertyOp54
 70
     1
102
RTVSPropertyOp55
 70
     1
102
RTVSPropertyOp56
 70
     1
102
RTVSPropertyOp57
 70
     1
102
RTVSPost2010Prop28
280
     0
102
RTVSPost2010PropOp28
 70
     1
102
RTVSPost2010Prop29
280
     1
102
RTVSPost2010PropOp29
 70
     1
102
RTVSPost2010Prop30
280
     1
102
RTVSPost2010PropOp30
 70
     1
102
RTVSPost2010Prop31
280
     0
102
RTVSPost2010PropOp31
 70
     1
102
RTVSPost2010Prop32
280
     0
102
RTVSPost2010PropOp32
 70
     1
102
RTVSPost2010Prop33
280
     0
102
RTVSPost2010PropOp33
 70
     1
102
RTVSPost2010Prop34
280
     0
102
RTVSPost2010PropOp34
 70
     1
102
RTVSPost2010Prop35
280
     0
102
RTVSPost2010PropOp35
 70
     1
102
RTVSPost2010Prop36
280
     0
102
RTVSPost2010PropOp36
 70
     1
102
RTVSPost2010Prop37
 90
       50
102
RTVSPost2010PropOp37
 70
     1
102
RTVSPost2010Prop38
140
0.0
102
RTVSPost2010PropOp38
 70
     1
102
RTVSPost2010Prop39
140
1.0
102
RTVSPost2010PropOp39
 70
     1
102
RTVSPost2010Prop40
 90
        0
102
RTVSPost2010PropOp40
 70
     1
102
RTVSPost2010Prop41ColorIndex
 90
       18
102
RTVSPost2010Prop41ColorRGB
 90
        0
102
RTVSPost2010PropOp41
 70
     1
102
RTVSPost2010Prop42
 90
       50
102
RTVSPost2010PropOp42
 70
     1
102
RTVSPost2010Prop43
 90
        3
102
RTVSPost2010PropOp43
 70
     1
102
RTVSPost2010Prop44ColorIndex
 90
        5
102
RTVSPost2010Prop44ColorRGB
 90
      255
102
RTVSPost2010PropOp44
 70
     1
102
RTVSPost2010Prop45
280
     0
102
RTVSPost2010PropOp45
 70
     1
102
RTVSPost2010Prop46
 90
       50
102
RTVSPost2010PropOp46
 70
     1
102
RTVSPost2010Prop47
 90
       50
102
RTVSPost2010PropOp47
 70
     1
102
RTVSPost2010Prop48
 90
       50
102
RTVSPost2010PropOp48
 70
     1
102
RTVSPost2010Prop49
280
     0
102
RTVSPost2010PropOp49
 70
     1
102
RTVSPost2010Prop50
 90
       50
102
RTVSPost2010PropOp50
 70
     1
102
RTVSPost2010Prop51ColorIndex
 90
      256
102
RTVSPost2010Prop51ColorRGB
 90
-16777216
102
RTVSPost2010PropOp51
 70
     0
102
RTVSPost2010Prop52
140
1.0
102
RTVSPost2010PropOp52
 70
     0
102
RTVSPost2010Prop53
 90
        2
102
RTVSPost2010PropOp53
 70
     1
102
RTVSPost2010Prop54
  1
strokes_ogs.tif
102
RTVSPost2010PropOp54
 70
     1
102
RTVSPost2010Prop55
280
     0
102
RTVSPost2010PropOp55
 70
     1
102
RTVSPost2010Prop56
140
1.0
102
RTVSPost2010PropOp56
 70
     1
102
RTVSPost2010Prop57
140
1.0
102
RTVSPost2010PropOp57
 70
     1
  0
ENDSEC
  0
EOF
