  0
SECTION
  2
HEADER
  9
$ACADVER
  1
AC1015
  9
$ACADMAINTVER
 70
    13
  9
$DWGCODEPAGE
  3
ANSI_932
  9
$INSBASE
 10
0.0
 20
0.0
 30
0.0
  9
$EXTMIN
 10
15.0
 20
14.999677
 30
0.0
  9
$EXTMAX
 10
400.2589959999999
 20
272.075792
 30
0.0
  9
$LIMMIN
 10
0.0
 20
0.0
  9
$LIMMAX
 10
420.0
 20
297.0
  9
$ORTHOMODE
 70
     0
  9
$REGENMODE
 70
     1
  9
$FILLMODE
 70
     1
  9
$QTEXTMODE
 70
     0
  9
$MIRRTEXT
 70
     1
  9
$LTSCALE
 40
0.25
  9
$ATTMODE
 70
     1
  9
$TEXTSIZE
 40
0.0
  9
$TRACEWID
 40
0.05
  9
$TEXTSTYLE
  7
STANDARD
  9
$CLAYER
  8
0
  9
$CELTYPE
  6
CONTINUOUS
  9
$CECOLOR
 62
   256
  9
$CELTSCALE
 40
1.0
  9
$DISPSILH
 70
     0
  9
$DIMSCALE
 40
1.0
  9
$DIMASZ
 40
4.0
  9
$DIMEXO
 40
2.0
  9
$DIMDLI
 40
10.0
  9
$DIMRND
 40
0.0
  9
$DIMDLE
 40
0.0
  9
$DIMEXE
 40
2.0
  9
$DIMTP
 40
0.0
  9
$DIMTM
 40
0.0
  9
$DIMTXT
 40
4.0
  9
$DIMCEN
 40
0.09
  9
$DIMTSZ
 40
0.0
  9
$DIMTOL
 70
     0
  9
$DIMLIM
 70
     0
  9
$DIMTIH
 70
     0
  9
$DIMTOH
 70
     0
  9
$DIMSE1
 70
     0
  9
$DIMSE2
 70
     0
  9
$DIMTAD
 70
     3
  9
$DIMZIN
 70
     0
  9
$DIMBLK
  1

  9
$DIMASO
 70
     1
  9
$DIMSHO
 70
     1
  9
$DIMPOST
  1

  9
$DIMAPOST
  1

  9
$DIMALT
 70
     0
  9
$DIMALTD
 70
     2
  9
$DIMALTF
 40
25.4
  9
$DIMLFAC
 40
1.0
  9
$DIMTOFL
 70
     1
  9
$DIMTVP
 40
0.7
  9
$DIMTIX
 70
     0
  9
$DIMSOXD
 70
     0
  9
$DIMSAH
 70
     0
  9
$DIMBLK1
  1

  9
$DIMBLK2
  1

  9
$DIMSTYLE
  2
STANDARD
  9
$DIMCLRD
 70
     0
  9
$DIMCLRE
 70
     0
  9
$DIMCLRT
 70
     0
  9
$DIMTFAC
 40
0.5
  9
$DIMGAP
 40
0.0
  9
$DIMJUST
 70
     0
  9
$DIMSD1
 70
     0
  9
$DIMSD2
 70
     0
  9
$DIMTOLJ
 70
     1
  9
$DIMTZIN
 70
     0
  9
$DIMALTZ
 70
     0
  9
$DIMALTTZ
 70
     0
  9
$DIMUPT
 70
     0
  9
$DIMDEC
 70
     2
  9
$DIMTDEC
 70
     4
  9
$DIMALTU
 70
     2
  9
$DIMALTTD
 70
     2
  9
$DIMTXSTY
  7
STANDARD
  9
$DIMAUNIT
 70
     0
  9
$DIMADEC
 70
     0
  9
$DIMALTRND
 40
0.0
  9
$DIMAZIN
 70
     0
  9
$DIMDSEP
 70
    46
  9
$DIMATFIT
 70
     3
  9
$DIMFRAC
 70
     0
  9
$DIMLDRBLK
  1

  9
$DIMLUNIT
 70
     2
  9
$DIMLWD
 70
    -2
  9
$DIMLWE
 70
    -2
  9
$DIMTMOVE
 70
     0
  9
$LUNITS
 70
     2
  9
$LUPREC
 70
     4
  9
$SKETCHINC
 40
0.1
  9
$FILLETRAD
 40
0.0
  9
$AUNITS
 70
     0
  9
$AUPREC
 70
     0
  9
$MENU
  1
acad
  9
$ELEVATION
 40
0.0
  9
$PELEVATION
 40
0.0
  9
$THICKNESS
 40
0.0
  9
$LIMCHECK
 70
     0
  9
$CHAMFERA
 40
0.0
  9
$CHAMFERB
 40
0.0
  9
$CHAMFERC
 40
0.0
  9
$CHAMFERD
 40
0.0
  9
$SKPOLY
 70
     0
  9
$TDCREATE
 40
2456892.742870370
  9
$TDUCREATE
 40
2456892.367870370
  9
$TDUPDATE
 40
2456895.426792106
  9
$TDUUPDATE
 40
2456895.051792106
  9
$TDINDWG
 40
0.0004586227
  9
$TDUSRTIMER
 40
0.0004586227
  9
$USRTIMER
 70
     1
  9
$ANGBASE
 50
0.0
  9
$ANGDIR
 70
     0
  9
$PDMODE
 70
     0
  9
$PDSIZE
 40
0.0
  9
$PLINEWID
 40
0.0
  9
$SPLFRAME
 70
     0
  9
$SPLINETYPE
 70
     6
  9
$SPLINESEGS
 70
     8
  9
$HANDSEED
  5
1AB
  9
$SURFTAB1
 70
     6
  9
$SURFTAB2
 70
     6
  9
$SURFTYPE
 70
     6
  9
$SURFU
 70
     6
  9
$SURFV
 70
     6
  9
$UCSBASE
  2

  9
$UCSNAME
  2

  9
$UCSORG
 10
0.0
 20
0.0
 30
0.0
  9
$UCSXDIR
 10
1.0
 20
0.0
 30
0.0
  9
$UCSYDIR
 10
0.0
 20
1.0
 30
0.0
  9
$UCSORTHOREF
  2

  9
$UCSORTHOVIEW
 70
     0
  9
$UCSORGTOP
 10
0.0
 20
0.0
 30
0.0
  9
$UCSORGBOTTOM
 10
0.0
 20
0.0
 30
0.0
  9
$UCSORGLEFT
 10
0.0
 20
0.0
 30
0.0
  9
$UCSORGRIGHT
 10
0.0
 20
0.0
 30
0.0
  9
$UCSORGFRONT
 10
0.0
 20
0.0
 30
0.0
  9
$UCSORGBACK
 10
0.0
 20
0.0
 30
0.0
  9
$PUCSBASE
  2

  9
$PUCSNAME
  2

  9
$PUCSORG
 10
0.0
 20
0.0
 30
0.0
  9
$PUCSXDIR
 10
1.0
 20
0.0
 30
0.0
  9
$PUCSYDIR
 10
0.0
 20
1.0
 30
0.0
  9
$PUCSORTHOREF
  2

  9
$PUCSORTHOVIEW
 70
     0
  9
$PUCSORGTOP
 10
0.0
 20
0.0
 30
0.0
  9
$PUCSORGBOTTOM
 10
0.0
 20
0.0
 30
0.0
  9
$PUCSORGLEFT
 10
0.0
 20
0.0
 30
0.0
  9
$PUCSORGRIGHT
 10
0.0
 20
0.0
 30
0.0
  9
$PUCSORGFRONT
 10
0.0
 20
0.0
 30
0.0
  9
$PUCSORGBACK
 10
0.0
 20
0.0
 30
0.0
  9
$USERI1
 70
     0
  9
$USERI2
 70
     0
  9
$USERI3
 70
     0
  9
$USERI4
 70
     0
  9
$USERI5
 70
     0
  9
$USERR1
 40
0.0
  9
$USERR2
 40
0.0
  9
$USERR3
 40
0.0
  9
$USERR4
 40
0.0
  9
$USERR5
 40
0.0
  9
$WORLDVIEW
 70
     1
  9
$SHADEDGE
 70
     3
  9
$SHADEDIF
 70
    70
  9
$TILEMODE
 70
     1
  9
$MAXACTVP
 70
    16
  9
$PINSBASE
 10
0.0
 20
0.0
 30
0.0
  9
$PLIMCHECK
 70
     0
  9
$PEXTMIN
 10
0.0
 20
0.0
 30
0.0
  9
$PEXTMAX
 10
420.0
 20
297.0
 30
0.0
  9
$PLIMMIN
 10
0.0
 20
0.0
  9
$PLIMMAX
 10
420.0
 20
297.0
  9
$UNITMODE
 70
     0
  9
$VISRETAIN
 70
     0
  9
$PLINEGEN
 70
     1
  9
$PSLTSCALE
 70
     0
  9
$TREEDEPTH
 70
  3020
  9
$CMLSTYLE
  2
STANDARD
  9
$CMLJUST
 70
     0
  9
$CMLSCALE
 40
1.0
  9
$PROXYGRAPHICS
 70
     0
  9
$MEASUREMENT
 70
     0
  9
$CELWEIGHT
370
    -1
  9
$ENDCAPS
280
     0
  9
$JOINSTYLE
280
     0
  9
$LWDISPLAY
290
     0
  9
$INSUNITS
 70
     0
  9
$HYPERLINKBASE
  1

  9
$STYLESHEET
  1

  9
$XEDIT
290
     1
  9
$CEPSNTYPE
380
     0
  9
$PSTYLEMODE
290
     1
  9
$FINGERPRINTGUID
  2
{E11DBF72-FCD6-45EC-92E2-C42DBE7504FA}
  9
$VERSIONGUID
  2
{2DE2B935-363D-4CD1-AFDF-E3728635D299}
  9
$EXTNAMES
290
     1
  9
$PSVPSCALE
 40
0.0
  9
$OLESTARTUP
290
     0
  0
ENDSEC
  0
SECTION
  2
CLASSES
  0
CLASS
  1
LWPOLYLINE
  2
AcDbPolyline
  3
AutoCAD 2000
 90
    32768
280
     0
281
     1
  0
CLASS
  1
IMAGE
  2
AcDbRasterImage
  3
ISM
 90
    32895
280
     0
281
     1
  0
CLASS
  1
OLE2FRAME
  2
AcDbOle2Frame
  3
AutoCAD 2000
 90
    32768
280
     0
281
     1
  0
CLASS
  1
HATCH
  2
AcDbHatch
  3
AutoCAD 2000
 90
    32768
280
     0
281
     1
  0
CLASS
  1
DICTIONARYVAR
  2
AcDbDictionaryVar
  3
AutoCAD 2000
 90
        0
280
     0
281
     0
  0
CLASS
  1
RASTERVARIABLES
  2
AcDbRasterVariables
  3
ISM
 90
    32768
280
     0
281
     0
  0
CLASS
  1
IMAGEDEF
  2
AcDbRasterImageDef
  3
ISM
 90
    32768
280
     0
281
     0
  0
CLASS
  1
IMAGEDEF_REACTOR
  2
AcDbRasterImageDefReactor
  3
ISM
 90
    32769
280
     0
281
     0
  0
CLASS
  1
IDBUFFER
  2
AcDbIdBuffer
  3
AutoCAD 2000
 90
    32768
280
     0
281
     0
  0
CLASS
  1
SPATIAL_FILTER
  2
AcDbSpatialFilter
  3
AutoCAD 2000
 90
    32768
280
     0
281
     0
  0
CLASS
  1
XRECORD
  2
AcDbXrecord
  3
AutoCAD 2000
 90
    32768
280
     0
281
     0
  0
CLASS
  1
SORTENTSTABLE
  2
AcDbSortentsTable
  3
AutoCAD 2000
 90
    32768
280
     0
281
     0
  0
CLASS
  1
LAYER_INDEX
  2
AcDbLayerIndex
  3
AutoCAD 2000
 90
    32768
280
     0
281
     0
  0
CLASS
  1
SPATIAL_INDEX
  2
AcDbSpatialIndex
  3
AutoCAD 2000
 90
    32768
280
     0
281
     0
  0
CLASS
  1
OBJECT_PTR
  2
CAseDLPNTableRecord
  3
"ASE-LPNTableRecord"
 90
    32769
280
     0
281
     0
  0
CLASS
  1
LAYOUT
  2
AcDbLayout
  3
AutoCAD 2000
 90
        0
280
     0
281
     0
  0
CLASS
  1
PLOTSETTINGS
  2
AcDbPlotSettings
  3
AutoCAD 2000
 90
    32768
280
     0
281
     0
  0
CLASS
  1
ACDBDICTIONARYWDFLT
  2
AcDbDictionaryWithDefault
  3
AutoCAD 2000
 90
        0
280
     0
281
     0
  0
CLASS
  1
ACDBPLACEHOLDER
  2
AcDbPlaceHolder
  3
AutoCAD 2000
 90
        0
280
     0
281
     0
  0
CLASS
  1
VBA_PROJECT
  2
AcDbVbaProject
  3
"acadvba"
 90
    32769
280
     0
281
     0
  0
CLASS
  1
WIPEOUT
  2
AcDbWipeout
  3
WipeOut|AutoCAD Express Tool|expresstools@autodesk.com
 90
    32895
280
     0
281
     1
  0
CLASS
  1
WIPEOUTVARIABLES
  2
AcDbWipeoutVariables
  3
WipeOut|AutoCAD Express Tool|expresstools@autodesk.com
 90
    32768
280
     0
281
     0
  0
CLASS
  1
RTEXT
  2
RText
  3
RText|AutoCAD Express Tool|expresstools@autodesk.com
 90
    32768
280
     0
281
     1
  0
CLASS
  1
ARCALIGNEDTEXT
  2
AcDbArcAlignedText
  3
ATEXT|AutoCAD Express Tool|expresstools@autodesk.com
 90
    32768
280
     0
281
     1
  0
ENDSEC
  0
SECTION
  2
TABLES
  0
TABLE
  2
VPORT
  5
7
330
0
100
AcDbSymbolTable
 70
     3
  0
VPORT
  5
1AA
330
7
100
AcDbSymbolTableRecord
100
AcDbViewportTableRecord
  2
*Active
 70
     0
 10
0.0
 20
0.0
 11
1.0
 21
1.0
 12
238.545127824681
 22
156.1259034818274
 13
0.0
 23
0.0
 14
1.0
 24
1.0
 15
0.0
 25
0.0
 16
0.0
 26
0.0
 36
1.0
 17
0.0
 27
0.0
 37
0.0
 40
372.7221986571997
 41
2.009157509157509
 42
50.0
 43
0.0
 44
0.0
 50
0.0
 51
0.0
 71
     0
 72
   100
 73
     1
 74
     1
 75
     0
 76
     0
 77
     0
 78
     0
281
     0
 65
     1
110
0.0
120
0.0
130
0.0
111
1.0
121
0.0
131
0.0
112
0.0
122
1.0
132
0.0
 79
     0
146
0.0
  0
ENDTAB
  0
TABLE
  2
LTYPE
  5
4
330
0
100
AcDbSymbolTable
 70
     7
  0
LTYPE
  5
11
330
4
100
AcDbSymbolTableRecord
100
AcDbLinetypeTableRecord
  2
BYBLOCK
 70
     0
  3

 72
    65
 73
     0
 40
0.0
  0
LTYPE
  5
12
330
4
100
AcDbSymbolTableRecord
100
AcDbLinetypeTableRecord
  2
BYLAYER
 70
     0
  3

 72
    65
 73
     0
 40
0.0
  0
LTYPE
  5
13
330
4
100
AcDbSymbolTableRecord
100
AcDbLinetypeTableRecord
  2
CONTINUOUS
 70
     0
  3
Solid line
 72
    65
 73
     0
 40
0.0
  0
LTYPE
  5
1E
330
4
100
AcDbSymbolTableRecord
100
AcDbLinetypeTableRecord
  2
HIDDEN
 70
     0
  3
- - - - - - - - 
 72
    65
 73
     2
 40
12.6
 49
8.4
 74
     0
 49
-4.2
 74
     0
  0
LTYPE
  5
1F
330
4
100
AcDbSymbolTableRecord
100
AcDbLinetypeTableRecord
  2
DOT
 70
     0
  3
･ ･ ･ ･ ･ ･ ･ ･ 
 72
    65
 73
     2
 40
8.0
 49
6.0
 74
     0
 49
-2.0
 74
     0
  0
LTYPE
  5
20
330
4
100
AcDbSymbolTableRecord
100
AcDbLinetypeTableRecord
  2
CENTER
 70
     0
  3
- ･ - ･ - ･ - ･ 
 72
    65
 73
     4
 40
50.5
 49
30.0
 74
     0
 49
-9.0
 74
     0
 49
2.5
 74
     0
 49
-9.0
 74
     0
  0
LTYPE
  5
21
330
4
100
AcDbSymbolTableRecord
100
AcDbLinetypeTableRecord
  2
PHANTOM
 70
     0
  3
- ･･ - ･･ - ･･ - ･･ 
 72
    65
 73
     6
 40
58.0
 49
30.0
 74
     0
 49
-9.0
 74
     0
 49
2.5
 74
     0
 49
-5.0
 74
     0
 49
2.5
 74
     0
 49
-9.0
 74
     0
  0
LTYPE
  5
22
330
4
100
AcDbSymbolTableRecord
100
AcDbLinetypeTableRecord
  2
ACAD_ISO06W100
 70
     0
  3
____ ... ____ ... ____
 72
    65
 73
     8
 40
37.5
 49
24.0
 74
     0
 49
-3.0
 74
     0
 49
0.5
 74
     0
 49
-3.0
 74
     0
 49
0.5
 74
     0
 49
-3.0
 74
     0
 49
0.5
 74
     0
 49
-3.0
 74
     0
  0
LTYPE
  5
23
330
4
100
AcDbSymbolTableRecord
100
AcDbLinetypeTableRecord
  2
ACAD_ISO14W100
 70
     0
  3
__ . . . __ . . . __ . . . 
 72
    65
 73
     8
 40
25.5
 49
12.0
 74
     0
 49
-3.0
 74
     0
 49
0.5
 74
     0
 49
-3.0
 74
     0
 49
0.5
 74
     0
 49
-3.0
 74
     0
 49
0.5
 74
     0
 49
-3.0
 74
     0
  0
ENDTAB
  0
TABLE
  2
LAYER
  5
2
330
0
100
AcDbSymbolTable
 70
    31
  0
LAYER
  5
14
330
2
100
AcDbSymbolTableRecord
100
AcDbLayerTableRecord
  2
0
 70
     0
 62
     7
  6
CONTINUOUS
370
    -3
390
1A1
  0
LAYER
  5
24
330
2
100
AcDbSymbolTableRecord
100
AcDbLayerTableRecord
  2
1
 70
     0
 62
     7
  6
CONTINUOUS
370
    -3
390
1A1
  0
LAYER
  5
25
330
2
100
AcDbSymbolTableRecord
100
AcDbLayerTableRecord
  2
2
 70
     0
 62
   134
  6
CONTINUOUS
370
    -3
390
1A1
  0
LAYER
  5
26
330
2
100
AcDbSymbolTableRecord
100
AcDbLayerTableRecord
  2
3
 70
     0
 62
   216
  6
CONTINUOUS
370
    -3
390
1A1
  0
LAYER
  5
27
330
2
100
AcDbSymbolTableRecord
100
AcDbLayerTableRecord
  2
4
 70
     0
 62
    54
  6
CONTINUOUS
370
    -3
390
1A1
  0
LAYER
  5
28
330
2
100
AcDbSymbolTableRecord
100
AcDbLayerTableRecord
  2
5
 70
     0
 62
    94
  6
CONTINUOUS
370
    -3
390
1A1
  0
LAYER
  5
29
330
2
100
AcDbSymbolTableRecord
100
AcDbLayerTableRecord
  2
6
 70
     0
 62
   135
  6
CONTINUOUS
370
    -3
390
1A1
  0
LAYER
  5
2A
330
2
100
AcDbSymbolTableRecord
100
AcDbLayerTableRecord
  2
7
 70
     0
 62
     4
  6
CONTINUOUS
370
    -3
390
1A1
  0
LAYER
  5
2B
330
2
100
AcDbSymbolTableRecord
100
AcDbLayerTableRecord
  2
8
 70
     0
 62
     6
  6
CONTINUOUS
370
    -3
390
1A1
  0
LAYER
  5
2C
330
2
100
AcDbSymbolTableRecord
100
AcDbLayerTableRecord
  2
9
 70
     0
 62
     2
  6
CONTINUOUS
370
    -3
390
1A1
  0
LAYER
  5
2D
330
2
100
AcDbSymbolTableRecord
100
AcDbLayerTableRecord
  2
10
 70
     0
 62
     3
  6
CONTINUOUS
370
    -3
390
1A1
  0
LAYER
  5
2E
330
2
100
AcDbSymbolTableRecord
100
AcDbLayerTableRecord
  2
11
 70
     0
 62
   251
  6
CONTINUOUS
370
    -3
390
1A1
  0
LAYER
  5
2F
330
2
100
AcDbSymbolTableRecord
100
AcDbLayerTableRecord
  2
12
 70
     0
 62
   136
  6
CONTINUOUS
370
    -3
390
1A1
  0
LAYER
  5
30
330
2
100
AcDbSymbolTableRecord
100
AcDbLayerTableRecord
  2
13
 70
     0
 62
     7
  6
CONTINUOUS
370
    -3
390
1A1
  0
LAYER
  5
31
330
2
100
AcDbSymbolTableRecord
100
AcDbLayerTableRecord
  2
14
 70
     0
 62
    56
  6
CONTINUOUS
370
    -3
390
1A1
  0
LAYER
  5
32
330
2
100
AcDbSymbolTableRecord
100
AcDbLayerTableRecord
  2
15
 70
     0
 62
    96
  6
CONTINUOUS
370
    -3
390
1A1
  0
LAYER
  5
33
330
2
100
AcDbSymbolTableRecord
100
AcDbLayerTableRecord
  2
16
 70
     0
 62
    16
  6
CONTINUOUS
370
    -3
390
1A1
  0
LAYER
  5
34
330
2
100
AcDbSymbolTableRecord
100
AcDbLayerTableRecord
  2
17
 70
     0
 62
   132
  6
CONTINUOUS
370
    -3
390
1A1
  0
LAYER
  5
35
330
2
100
AcDbSymbolTableRecord
100
AcDbLayerTableRecord
  2
18
 70
     0
 62
   212
  6
CONTINUOUS
370
    -3
390
1A1
  0
LAYER
  5
36
330
2
100
AcDbSymbolTableRecord
100
AcDbLayerTableRecord
  2
19
 70
     0
 62
    52
  6
CONTINUOUS
370
    -3
390
1A1
  0
LAYER
  5
37
330
2
100
AcDbSymbolTableRecord
100
AcDbLayerTableRecord
  2
20
 70
     0
 62
   250
  6
CONTINUOUS
370
    -3
390
1A1
  0
LAYER
  5
38
330
2
100
AcDbSymbolTableRecord
100
AcDbLayerTableRecord
  2
22
 70
     0
 62
     7
  6
CONTINUOUS
370
    -3
390
1A1
  0
LAYER
  5
39
330
2
100
AcDbSymbolTableRecord
100
AcDbLayerTableRecord
  2
24
 70
     0
 62
     7
  6
CONTINUOUS
370
    -3
390
1A1
  0
LAYER
  5
3A
330
2
100
AcDbSymbolTableRecord
100
AcDbLayerTableRecord
  2
25
 70
     0
 62
     7
  6
CONTINUOUS
370
    -3
390
1A1
  0
LAYER
  5
3B
330
2
100
AcDbSymbolTableRecord
100
AcDbLayerTableRecord
  2
128
 70
     0
 62
     7
  6
CONTINUOUS
370
    -3
390
1A1
  0
LAYER
  5
3C
330
2
100
AcDbSymbolTableRecord
100
AcDbLayerTableRecord
  2
129
 70
     0
 62
     7
  6
CONTINUOUS
370
    -3
390
1A1
  0
LAYER
  5
3D
330
2
100
AcDbSymbolTableRecord
100
AcDbLayerTableRecord
  2
130
 70
     0
 62
     7
  6
CONTINUOUS
370
    -3
390
1A1
  0
LAYER
  5
3E
330
2
100
AcDbSymbolTableRecord
100
AcDbLayerTableRecord
  2
131
 70
     0
 62
     7
  6
CONTINUOUS
370
    -3
390
1A1
  0
LAYER
  5
3F
330
2
100
AcDbSymbolTableRecord
100
AcDbLayerTableRecord
  2
258
 70
     0
 62
     7
  6
CONTINUOUS
370
    -3
390
1A1
  0
LAYER
  5
40
330
2
100
AcDbSymbolTableRecord
100
AcDbLayerTableRecord
  2
260
 70
     0
 62
     7
  6
CONTINUOUS
370
    -3
390
1A1
  0
LAYER
  5
41
330
2
100
AcDbSymbolTableRecord
100
AcDbLayerTableRecord
  2
261
 70
     0
 62
     5
  6
CONTINUOUS
370
    -3
390
1A1
  0
ENDTAB
  0
TABLE
  2
STYLE
  5
3
330
0
100
AcDbSymbolTable
 70
     2
  0
STYLE
  5
17
330
3
100
AcDbSymbolTableRecord
100
AcDbTextStyleTableRecord
  2
STANDARD
 70
     0
 40
0.0
 41
1.0
 50
0.0
 71
     0
 42
0.0
  3
txt
  4
bigfont
  0
STYLE
  5
1D
330
3
100
AcDbSymbolTableRecord
100
AcDbTextStyleTableRecord
  2
T_STANDARD
 70
     4
 40
10.0
 41
1.0
 50
0.0
 71
     0
 42
10.0
  3
txt
  4
bigfont
  0
ENDTAB
  0
TABLE
  2
VIEW
  5
5
330
0
100
AcDbSymbolTable
 70
     0
  0
ENDTAB
  0
TABLE
  2
UCS
  5
6
330
0
100
AcDbSymbolTable
 70
     0
  0
ENDTAB
  0
TABLE
  2
APPID
  5
8
330
0
100
AcDbSymbolTable
 70
     1
  0
APPID
  5
16
330
8
100
AcDbSymbolTableRecord
100
AcDbRegAppTableRecord
  2
ACAD
 70
     0
  0
ENDTAB
  0
TABLE
  2
DIMSTYLE
  5
9
330
0
100
AcDbSymbolTable
 70
     1
100
AcDbDimStyleTable
 71
     0
  0
DIMSTYLE
105
18
330
9
100
AcDbSymbolTableRecord
100
AcDbDimStyleTableRecord
  2
STANDARD
 70
     0
340
17
  0
ENDTAB
  0
TABLE
  2
BLOCK_RECORD
  5
1
330
0
100
AcDbSymbolTable
 70
    13
  0
BLOCK_RECORD
  5
A
330
1
100
AcDbSymbolTableRecord
100
AcDbBlockTableRecord
  2
*MODEL_SPACE
340
1A4
  0
BLOCK_RECORD
  5
B
330
1
100
AcDbSymbolTableRecord
100
AcDbBlockTableRecord
  2
*PAPER_SPACE
340
1A5
  0
BLOCK_RECORD
  5
42
330
1
100
AcDbSymbolTableRecord
100
AcDbBlockTableRecord
  2
*G00
340
0
102
{BLKREFS
331
45
102
}
  0
BLOCK_RECORD
  5
69
330
1
100
AcDbSymbolTableRecord
100
AcDbBlockTableRecord
  2
*G11
340
0
102
{BLKREFS
331
6D
102
}
  0
BLOCK_RECORD
  5
C0
330
1
100
AcDbSymbolTableRecord
100
AcDbBlockTableRecord
  2
*D2
340
0
  0
BLOCK_RECORD
  5
CC
330
1
100
AcDbSymbolTableRecord
100
AcDbBlockTableRecord
  2
*D3
340
0
  0
BLOCK_RECORD
  5
D8
330
1
100
AcDbSymbolTableRecord
100
AcDbBlockTableRecord
  2
*D4
340
0
  0
BLOCK_RECORD
  5
E4
330
1
100
AcDbSymbolTableRecord
100
AcDbBlockTableRecord
  2
*D5
340
0
  0
BLOCK_RECORD
  5
103
330
1
100
AcDbSymbolTableRecord
100
AcDbBlockTableRecord
  2
*D6
340
0
  0
BLOCK_RECORD
  5
10F
330
1
100
AcDbSymbolTableRecord
100
AcDbBlockTableRecord
  2
*D7
340
0
  0
BLOCK_RECORD
  5
123
330
1
100
AcDbSymbolTableRecord
100
AcDbBlockTableRecord
  2
*D8
340
0
  0
BLOCK_RECORD
  5
12F
330
1
100
AcDbSymbolTableRecord
100
AcDbBlockTableRecord
  2
*D9
340
0
  0
BLOCK_RECORD
  5
145
330
1
100
AcDbSymbolTableRecord
100
AcDbBlockTableRecord
  2
*D10
340
0
  0
BLOCK_RECORD
  5
151
330
1
100
AcDbSymbolTableRecord
100
AcDbBlockTableRecord
  2
*D11
340
0
  0
BLOCK_RECORD
  5
166
330
1
100
AcDbSymbolTableRecord
100
AcDbBlockTableRecord
  2
*D12
340
0
  0
ENDTAB
  0
ENDSEC
  0
SECTION
  2
BLOCKS
  0
BLOCK
  5
D
330
A
100
AcDbEntity
  8
0
100
AcDbBlockBegin
  2
*MODEL_SPACE
 70
     0
 10
0.0
 20
0.0
 30
0.0
  3
*MODEL_SPACE
  1

  0
ENDBLK
  5
E
330
A
100
AcDbEntity
  8
0
100
AcDbBlockEnd
  0
BLOCK
  5
F
330
B
100
AcDbEntity
 67
     1
  8
0
100
AcDbBlockBegin
  2
*PAPER_SPACE
 70
     0
 10
0.0
 20
0.0
 30
0.0
  3
*PAPER_SPACE
  1

  0
ENDBLK
  5
10
330
B
100
AcDbEntity
 67
     1
  8
0
100
AcDbBlockEnd
  0
BLOCK
  5
43
330
42
100
AcDbEntity
  8
0
  6
Continuous
 62
     7
100
AcDbBlockBegin
  2
*G00
 70
     0
 10
0.0
 20
0.0
 30
0.0
  3
*G00
  1

  0
ENDBLK
  5
44
330
42
100
AcDbEntity
  8
0
100
AcDbBlockEnd
  0
BLOCK
  5
6A
330
69
100
AcDbEntity
  8
0
  6
Continuous
 62
    96
100
AcDbBlockBegin
  2
*G11
 70
     0
 10
0.0
 20
0.0
 30
0.0
  3
*G11
  1

  0
LINE
  5
6B
330
69
100
AcDbEntity
  8
15
  6
Continuous
 62
    96
100
AcDbLine
 10
324.343916
 20
25.745666
 30
0.0
 11
324.610571
 21
25.745666
 31
0.0
  0
ENDBLK
  5
6C
330
69
100
AcDbEntity
  8
0
100
AcDbBlockEnd
  0
BLOCK
  5
C1
330
C0
100
AcDbEntity
  8
2
  6
Continuous
 62
   134
100
AcDbBlockBegin
  2
*D2
 70
     0
 10
0.0
 20
0.0
 30
0.0
  3
*D2
  1

  0
LINE
  5
C2
330
C0
100
AcDbEntity
  8
2
  6
Continuous
 62
   134
100
AcDbLine
 10
182.5267899999999
 20
112.2514719999999
 30
0.0
 11
182.5267899999999
 21
232.251472
 31
0.0
  0
LINE
  5
C3
330
C0
100
AcDbEntity
  8
2
  6
Continuous
 62
   134
100
AcDbLine
 10
184.5267899999999
 20
112.2514719999999
 30
0.0
 11
172.9267899999999
 21
112.2514719999999
 31
0.0
  0
LINE
  5
C4
330
C0
100
AcDbEntity
  8
2
  6
Continuous
 62
   134
100
AcDbLine
 10
184.5267899999999
 20
232.251472
 30
0.0
 11
172.9267899999999
 21
232.251472
 31
0.0
  0
LINE
  5
C5
330
C0
100
AcDbEntity
  8
2
  6
Continuous
 62
   134
100
AcDbLine
 10
182.5267899999999
 20
112.2514719999999
 30
0.0
 11
181.9056239999999
 21
114.569694
 31
0.0
  0
LINE
  5
C6
330
C0
100
AcDbEntity
  8
2
  6
Continuous
 62
   134
100
AcDbLine
 10
182.5267899999999
 20
112.2514719999999
 30
0.0
 11
183.147956
 21
114.569694
 31
0.0
  0
LINE
  5
C7
330
C0
100
AcDbEntity
  8
2
  6
Continuous
 62
   134
100
AcDbLine
 10
182.5267899999999
 20
232.251472
 30
0.0
 11
183.147956
 21
229.9332499999999
 31
0.0
  0
LINE
  5
C8
330
C0
100
AcDbEntity
  8
2
  6
Continuous
 62
   134
100
AcDbLine
 10
182.5267899999999
 20
232.251472
 30
0.0
 11
181.9056239999999
 21
229.9332499999999
 31
0.0
  0
TEXT
  5
C9
330
C0
100
AcDbEntity
  8
2
  6
Continuous
 62
   134
100
AcDbText
 10
181.6267899999999
 20
169.8014719999999
 30
0.0
 40
3.0
  1
120
 50
90.0
 41
0.566667
 11
182.0267899999999
 21
169.8014719999999
 31
0.0
100
AcDbText
 73
     1
  0
ENDBLK
  5
CA
330
C0
100
AcDbEntity
  8
2
  6
Continuous
 62
   134
100
AcDbBlockEnd
  0
BLOCK
  5
CD
330
CC
100
AcDbEntity
  8
2
  6
Continuous
 62
   134
100
AcDbBlockBegin
  2
*D3
 70
     0
 10
0.0
 20
0.0
 30
0.0
  3
*D3
  1

  0
LINE
  5
CE
330
CC
100
AcDbEntity
  8
2
  6
Continuous
 62
   134
100
AcDbLine
 10
192.5267899999999
 20
237.251472
 30
0.0
 11
192.5267899999999
 21
107.251472
 31
0.0
  0
LINE
  5
CF
330
CC
100
AcDbEntity
  8
2
  6
Continuous
 62
   134
100
AcDbLine
 10
194.5267899999999
 20
237.251472
 30
0.0
 11
174.5267899999999
 21
237.251472
 31
0.0
  0
LINE
  5
D0
330
CC
100
AcDbEntity
  8
2
  6
Continuous
 62
   134
100
AcDbLine
 10
194.5267899999999
 20
107.251472
 30
0.0
 11
174.5267899999999
 21
107.251472
 31
0.0
  0
LINE
  5
D1
330
CC
100
AcDbEntity
  8
2
  6
Continuous
 62
   134
100
AcDbLine
 10
192.5267899999999
 20
237.251472
 30
0.0
 11
193.1479559999999
 21
234.93325
 31
0.0
  0
LINE
  5
D2
330
CC
100
AcDbEntity
  8
2
  6
Continuous
 62
   134
100
AcDbLine
 10
192.5267899999999
 20
237.251472
 30
0.0
 11
191.9056239999999
 21
234.93325
 31
0.0
  0
LINE
  5
D3
330
CC
100
AcDbEntity
  8
2
  6
Continuous
 62
   134
100
AcDbLine
 10
192.5267899999999
 20
107.251472
 30
0.0
 11
191.9056239999999
 21
109.569694
 31
0.0
  0
LINE
  5
D4
330
CC
100
AcDbEntity
  8
2
  6
Continuous
 62
   134
100
AcDbLine
 10
192.5267899999999
 20
107.251472
 30
0.0
 11
193.1479559999999
 21
109.569694
 31
0.0
  0
TEXT
  5
D5
330
CC
100
AcDbEntity
  8
2
  6
Continuous
 62
   134
100
AcDbText
 10
191.6267899999999
 20
169.8014719999999
 30
0.0
 40
3.0
  1
130
 50
90.0
 41
0.566667
 11
192.0267899999999
 21
169.8014719999999
 31
0.0
100
AcDbText
 73
     1
  0
ENDBLK
  5
D6
330
CC
100
AcDbEntity
  8
2
  6
Continuous
 62
   134
100
AcDbBlockEnd
  0
BLOCK
  5
D9
330
D8
100
AcDbEntity
  8
2
  6
Continuous
 62
   134
100
AcDbBlockBegin
  2
*D4
 70
     0
 10
0.0
 20
0.0
 30
0.0
  3
*D4
  1

  0
LINE
  5
DA
330
D8
100
AcDbEntity
  8
2
  6
Continuous
 62
   134
100
AcDbLine
 10
167.5267899999999
 20
247.2514719999999
 30
0.0
 11
82.52679
 21
247.2514719999999
 31
0.0
  0
LINE
  5
DB
330
D8
100
AcDbEntity
  8
2
  6
Continuous
 62
   134
100
AcDbLine
 10
167.5267899999999
 20
249.2514719999999
 30
0.0
 11
167.5267899999999
 21
237.651472
 31
0.0
  0
LINE
  5
DC
330
D8
100
AcDbEntity
  8
2
  6
Continuous
 62
   134
100
AcDbLine
 10
82.52679
 20
249.2514719999999
 30
0.0
 11
82.52679
 21
237.651472
 31
0.0
  0
LINE
  5
DD
330
D8
100
AcDbEntity
  8
2
  6
Continuous
 62
   134
100
AcDbLine
 10
167.5267899999999
 20
247.2514719999999
 30
0.0
 11
165.2085679999999
 21
246.6303069999999
 31
0.0
  0
LINE
  5
DE
330
D8
100
AcDbEntity
  8
2
  6
Continuous
 62
   134
100
AcDbLine
 10
167.5267899999999
 20
247.2514719999999
 30
0.0
 11
165.2085679999999
 21
247.8726379999999
 31
0.0
  0
LINE
  5
DF
330
D8
100
AcDbEntity
  8
2
  6
Continuous
 62
   134
100
AcDbLine
 10
82.52679
 20
247.2514719999999
 30
0.0
 11
84.845012
 21
247.8726379999999
 31
0.0
  0
LINE
  5
E0
330
D8
100
AcDbEntity
  8
2
  6
Continuous
 62
   134
100
AcDbLine
 10
82.52679
 20
247.2514719999999
 30
0.0
 11
84.845012
 21
246.6303069999999
 31
0.0
  0
TEXT
  5
E1
330
D8
100
AcDbEntity
  8
2
  6
Continuous
 62
   134
100
AcDbText
 10
123.42679
 20
248.151472
 30
0.0
 40
3.0
  1
85
 41
0.566667
 11
123.42679
 21
247.751472
 31
0.0
100
AcDbText
 73
     1
  0
ENDBLK
  5
E2
330
D8
100
AcDbEntity
  8
2
  6
Continuous
 62
   134
100
AcDbBlockEnd
  0
BLOCK
  5
E5
330
E4
100
AcDbEntity
  8
2
  6
Continuous
 62
   134
100
AcDbBlockBegin
  2
*D5
 70
     0
 10
0.0
 20
0.0
 30
0.0
  3
*D5
  1

  0
LINE
  5
E6
330
E4
100
AcDbEntity
  8
2
  6
Continuous
 62
   134
100
AcDbLine
 10
77.52679
 20
257.251472
 30
0.0
 11
172.5267899999999
 21
257.251472
 31
0.0
  0
LINE
  5
E7
330
E4
100
AcDbEntity
  8
2
  6
Continuous
 62
   134
100
AcDbLine
 10
77.52679
 20
259.251472
 30
0.0
 11
77.52679
 21
239.251472
 31
0.0
  0
LINE
  5
E8
330
E4
100
AcDbEntity
  8
2
  6
Continuous
 62
   134
100
AcDbLine
 10
172.5267899999999
 20
259.251472
 30
0.0
 11
172.5267899999999
 21
239.251472
 31
0.0
  0
LINE
  5
E9
330
E4
100
AcDbEntity
  8
2
  6
Continuous
 62
   134
100
AcDbLine
 10
77.52679
 20
257.251472
 30
0.0
 11
79.845012
 21
257.8726379999999
 31
0.0
  0
LINE
  5
EA
330
E4
100
AcDbEntity
  8
2
  6
Continuous
 62
   134
100
AcDbLine
 10
77.52679
 20
257.251472
 30
0.0
 11
79.845012
 21
256.6303069999999
 31
0.0
  0
LINE
  5
EB
330
E4
100
AcDbEntity
  8
2
  6
Continuous
 62
   134
100
AcDbLine
 10
172.5267899999999
 20
257.251472
 30
0.0
 11
170.2085679999999
 21
256.6303069999999
 31
0.0
  0
LINE
  5
EC
330
E4
100
AcDbEntity
  8
2
  6
Continuous
 62
   134
100
AcDbLine
 10
172.5267899999999
 20
257.251472
 30
0.0
 11
170.2085679999999
 21
257.8726379999999
 31
0.0
  0
TEXT
  5
ED
330
E4
100
AcDbEntity
  8
2
  6
Continuous
 62
   134
100
AcDbText
 10
123.42679
 20
258.151472
 30
0.0
 40
3.0
  1
95
 41
0.566667
 11
123.42679
 21
257.751472
 31
0.0
100
AcDbText
 73
     1
  0
ENDBLK
  5
EE
330
E4
100
AcDbEntity
  8
2
  6
Continuous
 62
   134
100
AcDbBlockEnd
  0
BLOCK
  5
104
330
103
100
AcDbEntity
  8
2
  6
Continuous
 62
   134
100
AcDbBlockBegin
  2
*D6
 70
     0
 10
0.0
 20
0.0
 30
0.0
  3
*D6
  1

  0
LINE
  5
105
330
103
100
AcDbEntity
  8
2
  6
Continuous
 62
   134
100
AcDbLine
 10
87.52679
 20
97.251472
 30
0.0
 11
77.52679
 21
97.251472
 31
0.0
  0
LINE
  5
106
330
103
100
AcDbEntity
  8
2
  6
Continuous
 62
   134
100
AcDbLine
 10
87.52679
 20
95.25147199999999
 30
0.0
 11
87.52679
 21
105.251472
 31
0.0
  0
LINE
  5
107
330
103
100
AcDbEntity
  8
2
  6
Continuous
 62
   134
100
AcDbLine
 10
77.52679
 20
95.25147199999999
 30
0.0
 11
77.52679
 21
105.251472
 31
0.0
  0
LINE
  5
108
330
103
100
AcDbEntity
  8
2
  6
Continuous
 62
   134
100
AcDbLine
 10
87.52679
 20
97.251472
 30
0.0
 11
85.208568
 21
96.630307
 31
0.0
  0
LINE
  5
109
330
103
100
AcDbEntity
  8
2
  6
Continuous
 62
   134
100
AcDbLine
 10
87.52679
 20
97.251472
 30
0.0
 11
85.208568
 21
97.87263799999999
 31
0.0
  0
LINE
  5
10A
330
103
100
AcDbEntity
  8
2
  6
Continuous
 62
   134
100
AcDbLine
 10
77.52679
 20
97.251472
 30
0.0
 11
79.845012
 21
97.87263799999999
 31
0.0
  0
LINE
  5
10B
330
103
100
AcDbEntity
  8
2
  6
Continuous
 62
   134
100
AcDbLine
 10
77.52679
 20
97.251472
 30
0.0
 11
79.845012
 21
96.630307
 31
0.0
  0
TEXT
  5
10C
330
103
100
AcDbEntity
  8
2
  6
Continuous
 62
   134
100
AcDbText
 10
80.92679
 20
98.151472
 30
0.0
 40
3.0
  1
10
 41
0.566667
 11
80.92679
 21
97.75147199999999
 31
0.0
100
AcDbText
 73
     1
  0
ENDBLK
  5
10D
330
103
100
AcDbEntity
  8
2
  6
Continuous
 62
   134
100
AcDbBlockEnd
  0
BLOCK
  5
110
330
10F
100
AcDbEntity
  8
2
  6
Continuous
 62
   134
100
AcDbBlockBegin
  2
*D7
 70
     0
 10
0.0
 20
0.0
 30
0.0
  3
*D7
  1

  0
LINE
  5
111
330
10F
100
AcDbEntity
  8
2
  6
Continuous
 62
   134
100
AcDbLine
 10
67.52679
 20
107.251472
 30
0.0
 11
67.52679
 21
117.2514719999999
 31
0.0
  0
LINE
  5
112
330
10F
100
AcDbEntity
  8
2
  6
Continuous
 62
   134
100
AcDbLine
 10
65.52679000000001
 20
107.251472
 30
0.0
 11
75.52679000000001
 21
107.251472
 31
0.0
  0
LINE
  5
113
330
10F
100
AcDbEntity
  8
2
  6
Continuous
 62
   134
100
AcDbLine
 10
65.52679000000001
 20
117.2514719999999
 30
0.0
 11
77.12679
 21
117.2514719999999
 31
0.0
  0
LINE
  5
114
330
10F
100
AcDbEntity
  8
2
  6
Continuous
 62
   134
100
AcDbLine
 10
67.52679
 20
107.251472
 30
0.0
 11
66.90562400000001
 21
109.569694
 31
0.0
  0
LINE
  5
115
330
10F
100
AcDbEntity
  8
2
  6
Continuous
 62
   134
100
AcDbLine
 10
67.52679
 20
107.251472
 30
0.0
 11
68.147956
 21
109.569694
 31
0.0
  0
LINE
  5
116
330
10F
100
AcDbEntity
  8
2
  6
Continuous
 62
   134
100
AcDbLine
 10
67.52679
 20
117.2514719999999
 30
0.0
 11
68.147956
 21
114.93325
 31
0.0
  0
LINE
  5
117
330
10F
100
AcDbEntity
  8
2
  6
Continuous
 62
   134
100
AcDbLine
 10
67.52679
 20
117.2514719999999
 30
0.0
 11
66.90562400000001
 21
114.93325
 31
0.0
  0
TEXT
  5
118
330
10F
100
AcDbEntity
  8
2
  6
Continuous
 62
   134
100
AcDbText
 10
66.62679
 20
110.651472
 30
0.0
 40
3.0
  1
10
 50
90.0
 41
0.566667
 11
67.02679
 21
110.651472
 31
0.0
100
AcDbText
 73
     1
  0
ENDBLK
  5
119
330
10F
100
AcDbEntity
  8
2
  6
Continuous
 62
   134
100
AcDbBlockEnd
  0
BLOCK
  5
124
330
123
100
AcDbEntity
  8
2
  6
Continuous
 62
   134
100
AcDbBlockBegin
  2
*D8
 70
     0
 10
0.0
 20
0.0
 30
0.0
  3
*D8
  1

  0
LINE
  5
125
330
123
100
AcDbEntity
  8
2
  6
Continuous
 62
   134
100
AcDbLine
 10
155.0267899999999
 20
218.284891
 30
0.0
 11
95.02679
 21
218.284891
 31
0.0
  0
LINE
  5
126
330
123
100
AcDbEntity
  8
2
  6
Continuous
 62
   134
100
AcDbLine
 10
155.0267899999999
 20
220.284891
 30
0.0
 11
155.0267899999999
 21
214.251472
 31
0.0
  0
LINE
  5
127
330
123
100
AcDbEntity
  8
2
  6
Continuous
 62
   134
100
AcDbLine
 10
95.02679
 20
220.284891
 30
0.0
 11
95.02679
 21
214.251472
 31
0.0
  0
LINE
  5
128
330
123
100
AcDbEntity
  8
2
  6
Continuous
 62
   134
100
AcDbLine
 10
155.0267899999999
 20
218.284891
 30
0.0
 11
152.7085679999999
 21
217.663725
 31
0.0
  0
LINE
  5
129
330
123
100
AcDbEntity
  8
2
  6
Continuous
 62
   134
100
AcDbLine
 10
155.0267899999999
 20
218.284891
 30
0.0
 11
152.7085679999999
 21
218.906056
 31
0.0
  0
LINE
  5
12A
330
123
100
AcDbEntity
  8
2
  6
Continuous
 62
   134
100
AcDbLine
 10
95.02679
 20
218.284891
 30
0.0
 11
97.345012
 21
218.906056
 31
0.0
  0
LINE
  5
12B
330
123
100
AcDbEntity
  8
2
  6
Continuous
 62
   134
100
AcDbLine
 10
95.02679
 20
218.284891
 30
0.0
 11
97.345012
 21
217.663725
 31
0.0
  0
TEXT
  5
12C
330
123
100
AcDbEntity
  8
2
  6
Continuous
 62
   134
100
AcDbText
 10
121.0734179999999
 20
219.184891
 30
0.0
 40
3.0
  1
60
 41
0.566667
 11
121.0734179999999
 21
218.784891
 31
0.0
100
AcDbText
 73
     1
  0
ENDBLK
  5
12D
330
123
100
AcDbEntity
  8
2
  6
Continuous
 62
   134
100
AcDbBlockEnd
  0
BLOCK
  5
130
330
12F
100
AcDbEntity
  8
2
  6
Continuous
 62
   134
100
AcDbBlockBegin
  2
*D9
 70
     0
 10
0.0
 20
0.0
 30
0.0
  3
*D9
  1

  0
LINE
  5
131
330
12F
100
AcDbEntity
  8
2
  6
Continuous
 62
   134
100
AcDbLine
 10
162.6734179999999
 20
137.251472
 30
0.0
 11
162.6734179999999
 21
207.251472
 31
0.0
  0
LINE
  5
132
330
12F
100
AcDbEntity
  8
2
  6
Continuous
 62
   134
100
AcDbLine
 10
164.6734179999999
 20
137.251472
 30
0.0
 11
162.0267899999999
 21
137.251472
 31
0.0
  0
LINE
  5
133
330
12F
100
AcDbEntity
  8
2
  6
Continuous
 62
   134
100
AcDbLine
 10
164.6734179999999
 20
207.251472
 30
0.0
 11
162.0267899999999
 21
207.251472
 31
0.0
  0
LINE
  5
134
330
12F
100
AcDbEntity
  8
2
  6
Continuous
 62
   134
100
AcDbLine
 10
162.6734179999999
 20
137.251472
 30
0.0
 11
162.052252
 21
139.569694
 31
0.0
  0
LINE
  5
135
330
12F
100
AcDbEntity
  8
2
  6
Continuous
 62
   134
100
AcDbLine
 10
162.6734179999999
 20
137.251472
 30
0.0
 11
163.294583
 21
139.569694
 31
0.0
  0
LINE
  5
136
330
12F
100
AcDbEntity
  8
2
  6
Continuous
 62
   134
100
AcDbLine
 10
162.6734179999999
 20
207.251472
 30
0.0
 11
163.294583
 21
204.9332499999999
 31
0.0
  0
LINE
  5
137
330
12F
100
AcDbEntity
  8
2
  6
Continuous
 62
   134
100
AcDbLine
 10
162.6734179999999
 20
207.251472
 30
0.0
 11
162.052252
 21
204.9332499999999
 31
0.0
  0
TEXT
  5
138
330
12F
100
AcDbEntity
  8
2
  6
Continuous
 62
   134
100
AcDbText
 10
161.773418
 20
175.710123
 30
0.0
 40
3.0
  1
70
 50
90.0
 41
0.566667
 11
162.1734179999999
 21
175.710123
 31
0.0
100
AcDbText
 73
     1
  0
ENDBLK
  5
139
330
12F
100
AcDbEntity
  8
2
  6
Continuous
 62
   134
100
AcDbBlockEnd
  0
BLOCK
  5
146
330
145
100
AcDbEntity
  8
2
  6
Continuous
 62
   134
100
AcDbBlockBegin
  2
*D10
 70
     0
 10
0.0
 20
0.0
 30
0.0
  3
*D10
  1

  0
LINE
  5
147
330
145
100
AcDbEntity
  8
2
  6
Continuous
 62
   134
100
AcDbLine
 10
182.5267899999999
 20
50.75147199999999
 30
0.0
 11
182.5267899999999
 21
33.25147199999999
 31
0.0
  0
LINE
  5
148
330
145
100
AcDbEntity
  8
2
  6
Continuous
 62
   134
100
AcDbLine
 10
184.5267899999999
 20
50.75147199999999
 30
0.0
 11
143.5554689999999
 21
50.75147199999999
 31
0.0
  0
LINE
  5
149
330
145
100
AcDbEntity
  8
2
  6
Continuous
 62
   134
100
AcDbLine
 10
184.5267899999999
 20
33.25147199999999
 30
0.0
 11
174.5267899999999
 21
33.25147199999999
 31
0.0
  0
LINE
  5
14A
330
145
100
AcDbEntity
  8
2
  6
Continuous
 62
   134
100
AcDbLine
 10
182.5267899999999
 20
50.75147199999999
 30
0.0
 11
183.147956
 21
48.43325
 31
0.0
  0
LINE
  5
14B
330
145
100
AcDbEntity
  8
2
  6
Continuous
 62
   134
100
AcDbLine
 10
182.5267899999999
 20
50.75147199999999
 30
0.0
 11
181.9056239999999
 21
48.43325
 31
0.0
  0
LINE
  5
14C
330
145
100
AcDbEntity
  8
2
  6
Continuous
 62
   134
100
AcDbLine
 10
182.5267899999999
 20
33.25147199999999
 30
0.0
 11
181.9056239999999
 21
35.56969399999999
 31
0.0
  0
LINE
  5
14D
330
145
100
AcDbEntity
  8
2
  6
Continuous
 62
   134
100
AcDbLine
 10
182.5267899999999
 20
33.25147199999999
 30
0.0
 11
183.147956
 21
35.56969399999999
 31
0.0
  0
TEXT
  5
14E
330
145
100
AcDbEntity
  8
2
  6
Continuous
 62
   134
100
AcDbText
 10
181.6267899999999
 20
38.70147199999999
 30
0.0
 40
3.0
  1
17.5
 50
90.0
 41
0.566667
 11
182.0267899999999
 21
38.70147199999999
 31
0.0
100
AcDbText
 73
     1
  0
ENDBLK
  5
14F
330
145
100
AcDbEntity
  8
2
  6
Continuous
 62
   134
100
AcDbBlockEnd
  0
BLOCK
  5
152
330
151
100
AcDbEntity
  8
2
  6
Continuous
 62
   134
100
AcDbBlockBegin
  2
*D11
 70
     0
 10
0.0
 20
0.0
 30
0.0
  3
*D11
  1

  0
LINE
  5
153
330
151
100
AcDbEntity
  8
2
  6
Continuous
 62
   134
100
AcDbLine
 10
192.5267899999999
 20
33.25147199999999
 30
0.0
 11
192.5267899999999
 21
77.25147199999999
 31
0.0
  0
LINE
  5
154
330
151
100
AcDbEntity
  8
2
  6
Continuous
 62
   134
100
AcDbLine
 10
194.5267899999999
 20
33.25147199999999
 30
0.0
 11
174.5267899999999
 21
33.25147199999999
 31
0.0
  0
LINE
  5
155
330
151
100
AcDbEntity
  8
2
  6
Continuous
 62
   134
100
AcDbLine
 10
194.5267899999999
 20
77.25147199999999
 30
0.0
 11
174.5267899999999
 21
77.25147199999999
 31
0.0
  0
LINE
  5
156
330
151
100
AcDbEntity
  8
2
  6
Continuous
 62
   134
100
AcDbLine
 10
192.5267899999999
 20
33.25147199999999
 30
0.0
 11
191.9056239999999
 21
35.56969399999999
 31
0.0
  0
LINE
  5
157
330
151
100
AcDbEntity
  8
2
  6
Continuous
 62
   134
100
AcDbLine
 10
192.5267899999999
 20
33.25147199999999
 30
0.0
 11
193.1479559999999
 21
35.56969399999999
 31
0.0
  0
LINE
  5
158
330
151
100
AcDbEntity
  8
2
  6
Continuous
 62
   134
100
AcDbLine
 10
192.5267899999999
 20
77.25147199999999
 30
0.0
 11
193.1479559999999
 21
74.93325
 31
0.0
  0
LINE
  5
159
330
151
100
AcDbEntity
  8
2
  6
Continuous
 62
   134
100
AcDbLine
 10
192.5267899999999
 20
77.25147199999999
 30
0.0
 11
191.9056239999999
 21
74.93325
 31
0.0
  0
TEXT
  5
15A
330
151
100
AcDbEntity
  8
2
  6
Continuous
 62
   134
100
AcDbText
 10
191.6267899999999
 20
53.651472
 30
0.0
 40
3.0
  1
44
 50
90.0
 41
0.566667
 11
192.0267899999999
 21
53.651472
 31
0.0
100
AcDbText
 73
     1
  0
ENDBLK
  5
15B
330
151
100
AcDbEntity
  8
2
  6
Continuous
 62
   134
100
AcDbBlockEnd
  0
BLOCK
  5
167
330
166
100
AcDbEntity
  8
2
  6
Continuous
 62
   134
100
AcDbBlockBegin
  2
*D12
 70
     0
 10
0.0
 20
0.0
 30
0.0
  3
*D12
  1

  0
LINE
  5
168
330
166
100
AcDbEntity
  8
2
  6
Continuous
 62
   134
100
AcDbLine
 10
266.5267899999999
 20
247.2514719999999
 30
0.0
 11
222.5267899999999
 21
247.2514719999999
 31
0.0
  0
LINE
  5
169
330
166
100
AcDbEntity
  8
2
  6
Continuous
 62
   134
100
AcDbLine
 10
266.5267899999999
 20
249.2514719999999
 30
0.0
 11
266.5267899999999
 21
239.251472
 31
0.0
  0
LINE
  5
16A
330
166
100
AcDbEntity
  8
2
  6
Continuous
 62
   134
100
AcDbLine
 10
222.5267899999999
 20
249.2514719999999
 30
0.0
 11
222.5267899999999
 21
239.251472
 31
0.0
  0
LINE
  5
16B
330
166
100
AcDbEntity
  8
2
  6
Continuous
 62
   134
100
AcDbLine
 10
266.5267899999999
 20
247.2514719999999
 30
0.0
 11
264.208568
 21
246.6303069999999
 31
0.0
  0
LINE
  5
16C
330
166
100
AcDbEntity
  8
2
  6
Continuous
 62
   134
100
AcDbLine
 10
266.5267899999999
 20
247.2514719999999
 30
0.0
 11
264.208568
 21
247.8726379999999
 31
0.0
  0
LINE
  5
16D
330
166
100
AcDbEntity
  8
2
  6
Continuous
 62
   134
100
AcDbLine
 10
222.5267899999999
 20
247.2514719999999
 30
0.0
 11
224.845012
 21
247.8726379999999
 31
0.0
  0
LINE
  5
16E
330
166
100
AcDbEntity
  8
2
  6
Continuous
 62
   134
100
AcDbLine
 10
222.5267899999999
 20
247.2514719999999
 30
0.0
 11
224.845012
 21
246.6303069999999
 31
0.0
  0
TEXT
  5
16F
330
166
100
AcDbEntity
  8
2
  6
Continuous
 62
   134
100
AcDbText
 10
242.9267899999999
 20
248.151472
 30
0.0
 40
3.0
  1
44
 41
0.566667
 11
242.9267899999999
 21
247.751472
 31
0.0
100
AcDbText
 73
     1
  0
ENDBLK
  5
170
330
166
100
AcDbEntity
  8
2
  6
Continuous
 62
   134
100
AcDbBlockEnd
  0
ENDSEC
  0
SECTION
  2
ENTITIES
  0
INSERT
  5
45
330
A
100
AcDbEntity
  8
0
  6
Continuous
 62
     7
100
AcDbBlockReference
  2
*G00
 10
0.0
 20
0.0
 30
0.0
  0
LINE
  5
46
330
A
100
AcDbEntity
  8
15
  6
Continuous
 62
    96
100
AcDbLine
 10
15.0
 20
272.075792
 30
0.0
 11
15.0
 21
15.0
 31
0.0
  0
LINE
  5
47
330
A
100
AcDbEntity
  8
15
  6
Continuous
 62
    96
100
AcDbLine
 10
15.0
 20
15.0
 30
0.0
 11
400.1135409999999
 21
15.0
 31
0.0
  0
LINE
  5
48
330
A
100
AcDbEntity
  8
15
  6
Continuous
 62
    96
100
AcDbLine
 10
364.439504
 20
20.70177699999999
 30
0.0
 11
351.973166
 21
20.70177699999999
 31
0.0
  0
TEXT
  5
49
330
A
100
AcDbEntity
  8
15
  6
Continuous
 62
    96
100
AcDbText
 10
334.204685
 20
19.9312118
 30
0.0
 40
1.800531
  1
出入管理システム
 41
1.222221999999999
 11
334.204685
 21
19.691141
 31
0.0
100
AcDbText
 73
     1
  0
TEXT
  5
4A
330
A
100
AcDbEntity
  8
15
  6
Continuous
 62
    96
100
AcDbText
 10
334.275263
 20
16.2894586
 30
0.0
 40
3.601062
  1
株式会社
 41
2.138888999999999
 11
334.275263
 21
15.809317
 31
0.0
100
AcDbText
 73
     1
  0
LINE
  5
4B
330
A
100
AcDbEntity
  8
15
  6
Continuous
 62
    96
100
AcDbLine
 10
314.378399
 20
15.87882
 30
0.0
 11
317.546185
 21
15.87882
 31
0.0
  0
LINE
  5
4C
330
A
100
AcDbEntity
  8
15
  6
Continuous
 62
    96
100
AcDbLine
 10
333.019187
 20
19.728548
 30
0.0
 11
333.019187
 21
20.94425
 31
0.0
  0
LINE
  5
4D
330
A
100
AcDbEntity
  8
15
  6
Continuous
 62
    96
100
AcDbLine
 10
331.7021809999999
 20
19.728548
 30
0.0
 11
333.019187
 21
19.728548
 31
0.0
  0
LINE
  5
4E
330
A
100
AcDbEntity
  8
15
  6
Continuous
 62
    96
100
AcDbLine
 10
331.7021809999999
 20
15.87882
 30
0.0
 11
331.7021809999999
 21
19.728548
 31
0.0
  0
LINE
  5
4F
330
A
100
AcDbEntity
  8
15
  6
Continuous
 62
    96
100
AcDbLine
 10
330.283859
 20
15.87882
 30
0.0
 11
331.7021809999999
 21
15.87882
 31
0.0
  0
LINE
  5
50
330
A
100
AcDbEntity
  8
15
  6
Continuous
 62
    96
100
AcDbLine
 10
329.431558
 20
15.87882
 30
0.0
 11
327.649835
 21
15.87882
 31
0.0
  0
LINE
  5
51
330
A
100
AcDbEntity
  8
15
  6
Continuous
 62
    96
100
AcDbLine
 10
320.254304
 20
15.87882
 30
0.0
 11
324.610571
 21
15.87882
 31
0.0
  0
LINE
  5
52
330
A
100
AcDbEntity
  8
15
  6
Continuous
 62
    96
100
AcDbLine
 10
320.254304
 20
18.00629999999999
 30
0.0
 11
320.254304
 21
15.87882
 31
0.0
  0
LINE
  5
53
330
A
100
AcDbEntity
  8
15
  6
Continuous
 62
    96
100
AcDbLine
 10
317.546185
 20
15.87882
 30
0.0
 11
322.4830939999999
 21
20.766848
 31
0.0
  0
LINE
  5
54
330
A
100
AcDbEntity
  8
15
  6
Continuous
 62
    96
100
AcDbLine
 10
322.4830939999999
 20
20.766848
 30
0.0
 11
322.4830939999999
 21
18.00629999999999
 31
0.0
  0
LINE
  5
55
330
A
100
AcDbEntity
  8
15
  6
Continuous
 62
    96
100
AcDbLine
 10
322.4830939999999
 20
18.00629999999999
 30
0.0
 11
320.254304
 21
18.00629999999999
 31
0.0
  0
LINE
  5
56
330
A
100
AcDbEntity
  8
15
  6
Continuous
 62
    96
100
AcDbLine
 10
324.610571
 20
18.71546
 30
0.0
 11
327.649835
 21
15.87882
 31
0.0
  0
ARC
  5
57
330
A
100
AcDbEntity
  8
15
  6
Continuous
 62
    96
100
AcDbCircle
 10
327.041981
 20
19.222004
 30
0.0
 40
0.506544
100
AcDbArc
 50
-90.0
 51
90.0
  0
LINE
  5
58
330
A
100
AcDbEntity
  8
15
  6
Continuous
 62
    96
100
AcDbLine
 10
324.610571
 20
18.71546
 30
0.0
 11
327.041981
 21
18.71546
 31
0.0
  0
LINE
  5
59
330
A
100
AcDbEntity
  8
15
  6
Continuous
 62
    96
100
AcDbLine
 10
325.0158079999999
 20
19.728548
 30
0.0
 11
327.041981
 21
19.728548
 31
0.0
  0
LINE
  5
5A
330
A
100
AcDbEntity
  8
15
  6
Continuous
 62
    96
100
AcDbLine
 10
325.0158079999999
 20
20.94425
 30
0.0
 11
325.0158079999999
 21
19.728548
 31
0.0
  0
LINE
  5
5B
330
A
100
AcDbEntity
  8
15
  6
Continuous
 62
    96
100
AcDbLine
 10
325.0158079999999
 20
20.94425
 30
0.0
 11
327.425889
 21
20.94425
 31
0.0
  0
ARC
  5
5C
330
A
100
AcDbEntity
  8
15
  6
Continuous
 62
    96
100
AcDbCircle
 10
327.2339329999999
 20
19.222004
 30
0.0
 40
1.732909999999999
100
AcDbArc
 50
-76.055153
 51
83.640296
  0
LINE
  5
5D
330
A
100
AcDbEntity
  8
15
  6
Continuous
 62
    96
100
AcDbLine
 10
327.649835
 20
17.541763
 30
0.0
 11
329.431558
 21
15.87882
 31
0.0
  0
LINE
  5
5E
330
A
100
AcDbEntity
  8
15
  6
Continuous
 62
    96
100
AcDbLine
 10
333.019187
 20
20.94425
 30
0.0
 11
328.966843
 21
20.94425
 31
0.0
  0
LINE
  5
5F
330
A
100
AcDbEntity
  8
15
  6
Continuous
 62
    96
100
AcDbLine
 10
328.966843
 20
20.94425
 30
0.0
 11
328.966843
 21
19.728548
 31
0.0
  0
LINE
  5
60
330
A
100
AcDbEntity
  8
15
  6
Continuous
 62
    96
100
AcDbLine
 10
328.966843
 20
19.728548
 30
0.0
 11
330.283859
 21
19.728548
 31
0.0
  0
LINE
  5
61
330
A
100
AcDbEntity
  8
15
  6
Continuous
 62
    96
100
AcDbLine
 10
330.283859
 20
19.728548
 30
0.0
 11
330.283859
 21
15.87882
 31
0.0
  0
LINE
  5
62
330
A
100
AcDbEntity
  8
15
  6
Continuous
 62
    96
100
AcDbLine
 10
310.086999
 20
15.0
 30
0.0
 11
310.086999
 21
60.013278
 31
0.0
  0
LINE
  5
63
330
A
100
AcDbEntity
  8
15
  6
Continuous
 62
    96
100
AcDbLine
 10
310.086999
 20
51.01062399999999
 30
0.0
 11
400.1135409999999
 21
51.01062399999999
 31
0.0
  0
LINE
  5
64
330
A
100
AcDbEntity
  8
15
  6
Continuous
 62
    96
100
AcDbLine
 10
310.086999
 20
51.01061699999999
 30
0.0
 11
400.1135409999999
 21
51.01062399999999
 31
0.0
  0
LINE
  5
65
330
A
100
AcDbEntity
  8
15
  6
Continuous
 62
    96
100
AcDbLine
 10
400.1135409999999
 20
27.003546
 30
0.0
 11
310.086999
 21
27.003539
 31
0.0
  0
LINE
  5
66
330
A
100
AcDbEntity
  8
15
  6
Continuous
 62
    96
100
AcDbLine
 10
325.091422
 20
33.00530999999999
 30
0.0
 11
325.091422
 21
27.00354
 31
0.0
  0
LINE
  5
67
330
A
100
AcDbEntity
  8
15
  6
Continuous
 62
    96
100
AcDbLine
 10
324.610571
 20
15.87882
 30
0.0
 11
324.610571
 21
26.009681
 31
0.0
  0
LINE
  5
68
330
A
100
AcDbEntity
  8
15
  6
Continuous
 62
    96
100
AcDbLine
 10
324.610571
 20
26.009681
 30
0.0
 11
314.378399
 21
15.87882
 31
0.0
  0
INSERT
  5
6D
330
A
100
AcDbEntity
  8
0
  6
Continuous
 62
    96
100
AcDbBlockReference
  2
*G11
 10
0.0
 20
0.0
 30
0.0
  0
TEXT
  5
6E
330
A
100
AcDbEntity
  8
15
  6
Continuous
 62
    96
100
AcDbText
 10
366.612483
 20
16.72071853333333
 30
0.0
 40
10.002949
  1
アート
 11
366.612483
 21
15.386992
 31
0.0
100
AcDbText
 73
     1
  0
LINE
  5
6F
330
A
100
AcDbEntity
  8
15
  6
Continuous
 62
    96
100
AcDbLine
 10
325.091422
 20
42.007963
 30
0.0
 11
325.091422
 21
33.00530999999999
 31
0.0
  0
LINE
  5
70
330
A
100
AcDbEntity
  8
15
  6
Continuous
 62
    96
100
AcDbLine
 10
350.0987949999999
 20
42.007963
 30
0.0
 11
350.0987949999999
 21
33.005311
 31
0.0
  0
LINE
  5
71
330
A
100
AcDbEntity
  8
15
  6
Continuous
 62
    96
100
AcDbLine
 10
375.106168
 20
42.007963
 30
0.0
 11
375.106168
 21
33.005313
 31
0.0
  0
LINE
  5
72
330
A
100
AcDbEntity
  8
15
  6
Continuous
 62
    96
100
AcDbLine
 10
310.086999
 20
266.57417
 30
0.0
 11
400.1135409999999
 21
266.57417
 31
0.0
  0
LINE
  5
73
330
A
100
AcDbEntity
  8
15
  6
Continuous
 62
    96
100
AcDbLine
 10
310.086999
 20
261.0725479999999
 30
0.0
 11
400.1135409999999
 21
261.0725479999999
 31
0.0
  0
LINE
  5
74
330
A
100
AcDbEntity
  8
15
  6
Continuous
 62
    96
100
AcDbLine
 10
310.086999
 20
272.075792
 30
0.0
 11
310.086999
 21
72.516964
 31
0.0
  0
LINE
  5
75
330
A
100
AcDbEntity
  8
15
  6
Continuous
 62
    96
100
AcDbLine
 10
310.086999
 20
60.013278
 30
0.0
 11
310.086999
 21
72.516964
 31
0.0
  0
LINE
  5
76
330
A
100
AcDbEntity
  8
15
  6
Continuous
 62
    96
100
AcDbLine
 10
15.0
 20
272.075792
 30
0.0
 11
400.1138
 21
272.075792
 31
0.0
  0
LINE
  5
77
330
A
100
AcDbEntity
  8
15
  6
Continuous
 62
    96
100
AcDbLine
 10
400.1138
 20
14.999677
 30
0.0
 11
400.1138
 21
272.075469
 31
0.0
  0
LINE
  5
78
330
A
100
AcDbEntity
  8
15
  6
Continuous
 62
    96
100
AcDbLine
 10
310.086478
 20
59.51312399999999
 30
0.0
 11
400.11302
 21
59.51312399999999
 31
0.0
  0
LINE
  5
79
330
A
100
AcDbEntity
  8
15
  6
Continuous
 62
    96
100
AcDbLine
 10
334.952657
 20
272.075792
 30
0.0
 11
334.952657
 21
266.57417
 31
0.0
  0
LINE
  5
7A
330
A
100
AcDbEntity
  8
15
  6
Continuous
 62
    96
100
AcDbLine
 10
310.086478
 20
65.014746
 30
0.0
 11
400.11302
 21
65.014746
 31
0.0
  0
LINE
  5
7B
330
A
100
AcDbEntity
  8
15
  6
Continuous
 62
    96
100
AcDbLine
 10
310.086478
 20
59.51312399999999
 30
0.0
 11
400.11302
 21
59.51312399999999
 31
0.0
  0
LINE
  5
7C
330
A
100
AcDbEntity
  8
15
  6
Continuous
 62
    96
100
AcDbLine
 10
335.0938499999999
 20
65.014746
 30
0.0
 11
335.0938499999999
 21
59.51312399999999
 31
0.0
  0
LINE
  5
7D
330
A
100
AcDbEntity
  8
15
  6
Continuous
 62
    96
100
AcDbLine
 10
310.086478
 20
59.51312399999999
 30
0.0
 11
400.11302
 21
59.51312399999999
 31
0.0
  0
LINE
  5
7E
330
A
100
AcDbEntity
  8
15
  6
Continuous
 62
    96
100
AcDbLine
 10
355.1205009999999
 20
33.00354199999999
 30
0.0
 11
355.1205009999999
 21
27.003542
 31
0.0
  0
LINE
  5
7F
330
A
100
AcDbEntity
  8
15
  6
Continuous
 62
    96
100
AcDbLine
 10
362.120501
 20
33.00354699999999
 30
0.0
 11
362.120501
 21
27.003547
 31
0.0
  0
LINE
  5
80
330
A
100
AcDbEntity
  8
15
  6
Continuous
 62
    96
100
AcDbLine
 10
388.113541
 20
33.003545
 30
0.0
 11
388.113541
 21
27.003545
 31
0.0
  0
LINE
  5
81
330
A
100
AcDbEntity
  8
15
  6
Continuous
 62
    96
100
AcDbLine
 10
391.16423
 20
32.243545
 30
0.0
 11
391.16423
 21
27.763545
 31
0.0
  0
CIRCLE
  5
82
330
A
100
AcDbEntity
  8
15
  6
Continuous
 62
    96
100
AcDbCircle
 10
391.16423
 20
30.003545
 30
0.0
 40
0.9599999999999999
  0
CIRCLE
  5
83
330
A
100
AcDbEntity
  8
15
  6
Continuous
 62
    96
100
AcDbCircle
 10
391.16423
 20
30.003545
 30
0.0
 40
1.6
  0
LINE
  5
84
330
A
100
AcDbEntity
  8
15
  6
Continuous
 62
    96
100
AcDbLine
 10
393.803501
 20
30.963545
 30
0.0
 11
393.803501
 21
29.043545
 31
0.0
  0
LINE
  5
85
330
A
100
AcDbEntity
  8
15
  6
Continuous
 62
    96
100
AcDbLine
 10
398.9235009999999
 20
31.603545
 30
0.0
 11
398.9235009999999
 21
28.403545
 31
0.0
  0
LINE
  5
86
330
A
100
AcDbEntity
  8
15
  6
Continuous
 62
    96
100
AcDbLine
 10
393.803501
 20
30.963545
 30
0.0
 11
398.9235009999999
 21
31.603545
 31
0.0
  0
LINE
  5
87
330
A
100
AcDbEntity
  8
15
  6
Continuous
 62
    96
100
AcDbLine
 10
393.803501
 20
29.043545
 30
0.0
 11
398.9235009999999
 21
28.403545
 31
0.0
  0
LINE
  5
88
330
A
100
AcDbEntity
  8
15
  6
Continuous
 62
    96
100
AcDbLine
 10
388.9242299999999
 20
30.003545
 30
0.0
 11
399.469501
 21
30.003545
 31
0.0
  0
LINE
  5
89
330
A
100
AcDbEntity
  8
15
  6
Continuous
 62
    96
100
AcDbLine
 10
400.1138
 20
33.005315
 30
0.0
 11
310.086999
 21
33.005308
 31
0.0
  0
LINE
  5
8A
330
A
100
AcDbEntity
  8
15
  6
Continuous
 62
    96
100
AcDbLine
 10
310.086999
 20
42.007963
 30
0.0
 11
400.1138
 21
42.007963
 31
0.0
  0
LINE
  5
8B
330
A
100
AcDbEntity
  8
15
  6
Continuous
 62
    96
100
AcDbLine
 10
400.2589959999999
 20
145.4347959999999
 30
0.0
 11
400.2589959999999
 21
147.566861
 31
0.0
  0
TEXT
  5
8C
330
A
100
AcDbEntity
  8
15
  6
PHANTOM
 62
    96
100
AcDbText
 10
314.690685
 20
268.2249809999999
 30
0.0
 40
3.0
  1
商品コード
 41
1.133332999999999
 11
314.690685
 21
267.824981
 31
0.0
100
AcDbText
 73
     1
  0
TEXT
  5
8D
330
A
100
AcDbEntity
  8
15
  6
PHANTOM
 62
    96
100
AcDbText
 10
344.0002699999999
 20
262.7233589999999
 30
0.0
 40
3.0
  1
定　　　　　格
 41
1.133332999999999
 11
344.0002699999999
 21
262.3233589999999
 31
0.0
100
AcDbText
 73
     1
  0
TEXT
  5
8E
330
A
100
AcDbEntity
  8
15
  6
Continuous
 62
    96
100
AcDbText
 10
310.688852
 20
48.25502733333333
 30
0.0
 40
2.5
  1
製品名
 41
1.080023999999999
 11
310.688852
 21
47.921694
 31
0.0
100
AcDbText
 73
     1
  0
TEXT
  5
8F
330
A
100
AcDbEntity
  8
15
  6
Continuous
 62
    96
100
AcDbText
 10
310.6029809999999
 20
56.80473133333333
 30
0.0
 40
2.5
  1
型　式
 41
1.159999999999999
 11
310.6029809999999
 21
56.471398
 31
0.0
100
AcDbText
 73
     1
  0
TEXT
  5
90
330
A
100
AcDbEntity
  8
15
  6
Continuous
 62
    96
100
AcDbText
 10
316.290164
 20
61.163935
 30
0.0
 40
3.0
  1
図面履歴
 41
1.133332999999999
 11
316.290164
 21
60.763935
 31
0.0
100
AcDbText
 73
     1
  0
TEXT
  5
91
330
A
100
AcDbEntity
  8
15
  6
Continuous
 62
    96
100
AcDbText
 10
311.5851469999999
 20
28.881333
 30
0.0
 40
3.0
  1
図面番号
 41
1.133332999999999
 11
311.5851469999999
 21
28.481333
 31
0.0
100
AcDbText
 73
     1
  0
TEXT
  5
92
330
A
100
AcDbEntity
  8
15
  6
Continuous
 62
    96
100
AcDbText
 10
355.4136669999999
 20
28.87207999999999
 30
0.0
 40
3.0
  1
日付
 41
1.133332999999999
 11
355.4136669999999
 21
28.47208
 31
0.0
100
AcDbText
 73
     1
  0
TEXT
  5
93
330
A
100
AcDbEntity
  8
15
  6
Continuous
 62
    96
100
AcDbText
 10
376.16012
 20
39.18920333333334
 30
0.0
 40
2.5
  1
作図
 41
1.159999999999999
 11
376.16012
 21
38.85587
 31
0.0
100
AcDbText
 73
     1
  0
TEXT
  5
94
330
A
100
AcDbEntity
  8
15
  6
Continuous
 62
    96
100
AcDbText
 10
350.819454
 20
39.19855233333334
 30
0.0
 40
2.5
  1
検図
 41
1.159999999999999
 11
350.819454
 21
38.865219
 31
0.0
100
AcDbText
 73
     1
  0
TEXT
  5
95
330
A
100
AcDbEntity
  8
15
  6
Continuous
 62
    96
100
AcDbText
 10
325.8025819999999
 20
39.04685233333333
 30
0.0
 40
2.5
  1
承認
 41
1.159999999999999
 11
325.8025819999999
 21
38.713519
 31
0.0
100
AcDbText
 73
     1
  0
TEXT
  5
96
330
A
100
AcDbEntity
  8
15
  6
Continuous
 62
    96
100
AcDbText
 10
310.83299
 20
39.08200833333333
 30
0.0
 40
2.5
  1
縮尺（Ａ３）
 11
310.83299
 21
38.748675
 31
0.0
100
AcDbText
 73
     1
  0
TEXT
  5
97
330
A
100
AcDbEntity
  8
15
  6
Continuous
 62
    96
100
AcDbText
 10
312.921864
 20
34.91520799999999
 30
0.0
 40
3.0
  1
１：１
 41
1.133332999999999
 11
312.921864
 21
34.515208
 31
0.0
100
AcDbText
 73
     1
  0
TEXT
  5
98
330
A
100
AcDbEntity
  8
15
  6
Continuous
 62
    96
100
AcDbText
 10
193.070065
 20
19.33452899999999
 30
0.0
 40
3.0
  1
＊　記載されている会社名、製品名は、登録商標または商標です。
 41
1.133332999999999
 11
193.070065
 21
18.934529
 31
0.0
100
AcDbText
 73
     1
  0
TEXT
  5
99
330
A
100
AcDbEntity
  8
15
  6
Continuous
 62
    96
100
AcDbText
 10
348.4497489999999
 20
53.17846266666666
 30
0.0
 40
5.0
  1
-----
 41
0.5400000000000001
 11
348.4497489999999
 21
52.511796
 31
0.0
100
AcDbText
 73
     1
  0
LINE
  5
9A
330
A
100
AcDbEntity
  8
15
  6
Continuous
 62
    96
100
AcDbLine
 10
310.086999
 20
255.5709259999999
 30
0.0
 11
400.1135409999999
 21
255.5709259999999
 31
0.0
  0
LINE
  5
9B
330
A
100
AcDbEntity
  8
15
  6
Continuous
 62
    96
100
AcDbLine
 10
400.1135409999999
 20
250.069304
 30
0.0
 11
310.086999
 21
250.069304
 31
0.0
  0
TEXT
  5
9C
330
A
100
AcDbEntity
  8
15
  6
PHANTOM
 62
    96
100
AcDbText
 10
318.089358
 20
257.221413
 30
0.0
 40
3.000884999999999
  1
材　質
 11
318.089358
 21
256.821295
 31
0.0
100
AcDbText
 73
     1
  0
LINE
  5
9D
330
A
100
AcDbEntity
  8
15
  6
Continuous
 62
    96
100
AcDbLine
 10
334.952657
 20
261.086023
 30
0.0
 11
334.952657
 21
250.069304
 31
0.0
  0
TEXT
  5
9E
330
A
100
AcDbEntity
  8
15
  6
PHANTOM
 62
    96
100
AcDbText
 10
318.089358
 20
251.7197909999999
 30
0.0
 40
3.000884999999999
  1
重　量
 11
318.089358
 21
251.319673
 31
0.0
100
AcDbText
 73
     1
  0
TEXT
  5
9F
330
A
100
AcDbEntity
  8
15
  6
PHANTOM
 62
    96
100
AcDbText
 10
363.1347729999999
 20
251.719814
 30
0.0
 40
3.000884999999999
  1
約400g
 41
0.6
 11
363.1347729999999
 21
251.319696
 31
0.0
100
AcDbText
 73
     1
  0
TEXT
  5
A0
330
A
100
AcDbEntity
  8
15
  6
Continuous
 62
    96
100
AcDbText
 10
326.170184
 20
44.61101466666666
 30
0.0
 40
5.0
  1
WL/WM-20用埋込ボックス
 41
0.792
 11
326.170184
 21
43.94434799999999
 31
0.0
100
AcDbText
 73
     1
  0
TEXT
  5
A1
330
A
100
AcDbEntity
  8
15
  6
PHANTOM
 62
    96
100
AcDbText
 10
356.503956
 20
268.2249809999999
 30
0.0
 40
3.0
  1
０８１３０５３
 41
1.133332999999999
 11
356.503956
 21
267.824981
 31
0.0
100
AcDbText
 73
     1
  0
TEXT
  5
A2
330
A
100
AcDbEntity
  8
15
  6
PHANTOM
 62
    96
100
AcDbText
 10
360.101744
 20
257.221413
 30
0.0
 40
3.000884999999999
  1
SECC ｔ1.6
 41
0.5555560000000001
 11
360.101744
 21
256.821295
 31
0.0
100
AcDbText
 73
     1
  0
LINE
  5
A3
330
A
100
AcDbEntity
  8
1
  6
Continuous
 62
     7
100
AcDbLine
 10
167.5267899999999
 20
117.2514719999999
 30
0.0
 11
162.5267899999999
 21
112.2514719999999
 31
0.0
  0
LINE
  5
A4
330
A
100
AcDbEntity
  8
1
  6
Continuous
 62
     7
100
AcDbLine
 10
162.5267899999999
 20
107.251472
 30
0.0
 11
162.5267899999999
 21
112.2514719999999
 31
0.0
  0
LINE
  5
A5
330
A
100
AcDbEntity
  8
1
  6
Continuous
 62
     7
100
AcDbLine
 10
162.5267899999999
 20
108.851472
 30
0.0
 11
125.0267899999999
 21
108.851472
 31
0.0
  0
CIRCLE
  5
A6
330
A
100
AcDbEntity
  8
1
  6
Continuous
 62
     7
100
AcDbCircle
 10
167.5267899999999
 20
112.2514719999999
 30
0.0
 40
1.5
  0
LINE
  5
A7
330
A
100
AcDbEntity
  8
1
  6
Continuous
 62
     7
100
AcDbLine
 10
172.5267899999999
 20
107.251472
 30
0.0
 11
125.0267899999999
 21
107.251472
 31
0.0
  0
LINE
  5
A8
330
A
100
AcDbEntity
  8
1
  6
Continuous
 62
     7
100
AcDbLine
 10
172.5267899999999
 20
172.251472
 30
0.0
 11
172.5267899999999
 21
107.251472
 31
0.0
  0
LINE
  5
A9
330
A
100
AcDbEntity
  8
1
  6
Continuous
 62
     7
100
AcDbLine
 10
167.5267899999999
 20
227.251472
 30
0.0
 11
162.5267899999999
 21
232.251472
 31
0.0
  0
LINE
  5
AA
330
A
100
AcDbEntity
  8
1
  6
Continuous
 62
     7
100
AcDbLine
 10
162.5267899999999
 20
237.251472
 30
0.0
 11
162.5267899999999
 21
232.251472
 31
0.0
  0
LINE
  5
AB
330
A
100
AcDbEntity
  8
1
  6
Continuous
 62
     7
100
AcDbLine
 10
162.5267899999999
 20
235.651472
 30
0.0
 11
125.0267899999999
 21
235.651472
 31
0.0
  0
CIRCLE
  5
AC
330
A
100
AcDbEntity
  8
1
  6
Continuous
 62
     7
100
AcDbCircle
 10
167.5267899999999
 20
232.251472
 30
0.0
 40
1.5
  0
LINE
  5
AD
330
A
100
AcDbEntity
  8
1
  6
Continuous
 62
     7
100
AcDbLine
 10
172.5267899999999
 20
237.251472
 30
0.0
 11
125.0267899999999
 21
237.251472
 31
0.0
  0
LINE
  5
AE
330
A
100
AcDbEntity
  8
1
  6
Continuous
 62
     7
100
AcDbLine
 10
172.5267899999999
 20
172.251472
 30
0.0
 11
172.5267899999999
 21
237.251472
 31
0.0
  0
LINE
  5
AF
330
A
100
AcDbEntity
  8
1
  6
Continuous
 62
     7
100
AcDbLine
 10
82.52679
 20
117.2514719999999
 30
0.0
 11
87.52679
 21
112.2514719999999
 31
0.0
  0
LINE
  5
B0
330
A
100
AcDbEntity
  8
1
  6
Continuous
 62
     7
100
AcDbLine
 10
87.52679
 20
107.251472
 30
0.0
 11
87.52679
 21
112.2514719999999
 31
0.0
  0
LINE
  5
B1
330
A
100
AcDbEntity
  8
1
  6
Continuous
 62
     7
100
AcDbLine
 10
87.52679
 20
108.851472
 30
0.0
 11
125.0267899999999
 21
108.851472
 31
0.0
  0
CIRCLE
  5
B2
330
A
100
AcDbEntity
  8
1
  6
Continuous
 62
     7
100
AcDbCircle
 10
82.52679
 20
112.2514719999999
 30
0.0
 40
1.5
  0
LINE
  5
B3
330
A
100
AcDbEntity
  8
1
  6
Continuous
 62
     7
100
AcDbLine
 10
77.52679
 20
107.251472
 30
0.0
 11
125.0267899999999
 21
107.251472
 31
0.0
  0
LINE
  5
B4
330
A
100
AcDbEntity
  8
1
  6
Continuous
 62
     7
100
AcDbLine
 10
77.52679
 20
172.251472
 30
0.0
 11
77.52679
 21
107.251472
 31
0.0
  0
LINE
  5
B5
330
A
100
AcDbEntity
  8
1
  6
Continuous
 62
     7
100
AcDbLine
 10
82.52679
 20
227.251472
 30
0.0
 11
87.52679
 21
232.251472
 31
0.0
  0
LINE
  5
B6
330
A
100
AcDbEntity
  8
1
  6
Continuous
 62
     7
100
AcDbLine
 10
87.52679
 20
237.251472
 30
0.0
 11
87.52679
 21
232.251472
 31
0.0
  0
LINE
  5
B7
330
A
100
AcDbEntity
  8
1
  6
Continuous
 62
     7
100
AcDbLine
 10
77.52679
 20
227.251472
 30
0.0
 11
82.52679
 21
227.251472
 31
0.0
  0
LINE
  5
B8
330
A
100
AcDbEntity
  8
1
  6
Continuous
 62
     7
100
AcDbLine
 10
87.52679
 20
235.651472
 30
0.0
 11
125.0267899999999
 21
235.651472
 31
0.0
  0
CIRCLE
  5
B9
330
A
100
AcDbEntity
  8
1
  6
Continuous
 62
     7
100
AcDbCircle
 10
82.52679
 20
232.251472
 30
0.0
 40
1.5
  0
LINE
  5
BA
330
A
100
AcDbEntity
  8
1
  6
Continuous
 62
     7
100
AcDbLine
 10
77.52679
 20
237.251472
 30
0.0
 11
125.0267899999999
 21
237.251472
 31
0.0
  0
LINE
  5
BB
330
A
100
AcDbEntity
  8
1
  6
Continuous
 62
     7
100
AcDbLine
 10
77.52679
 20
172.251472
 30
0.0
 11
77.52679
 21
237.251472
 31
0.0
  0
CIRCLE
  5
BC
330
A
100
AcDbEntity
  8
1
  6
Continuous
 62
     7
100
AcDbCircle
 10
82.52679
 20
112.2514719999999
 30
0.0
 40
2.0
  0
CIRCLE
  5
BD
330
A
100
AcDbEntity
  8
1
  6
Continuous
 62
     7
100
AcDbCircle
 10
82.52679
 20
232.251472
 30
0.0
 40
2.0
  0
CIRCLE
  5
BE
330
A
100
AcDbEntity
  8
1
  6
Continuous
 62
     7
100
AcDbCircle
 10
167.5267899999999
 20
112.2514719999999
 30
0.0
 40
2.0
  0
CIRCLE
  5
BF
330
A
100
AcDbEntity
  8
1
  6
Continuous
 62
     7
100
AcDbCircle
 10
167.5267899999999
 20
232.251472
 30
0.0
 40
2.0
  0
DIMENSION
  5
CB
330
A
100
AcDbEntity
  8
2
  6
Continuous
 62
   134
100
AcDbDimension
  2
*D2
 10
182.5267899999999
 20
112.2514719999999
 30
0.0
 11
182.0267899999999
 21
172.251472
 31
0.0
  1
120
 71
     5
 42
-1.0
100
AcDbAlignedDimension
 13
172.9267899999999
 23
112.2514719999999
 33
0.0
 14
172.9267899999999
 24
232.251472
 34
0.0
 50
90.0
100
AcDbRotatedDimension
  0
DIMENSION
  5
D7
330
A
100
AcDbEntity
  8
2
  6
Continuous
 62
   134
100
AcDbDimension
  2
*D3
 10
192.5267899999999
 20
237.251472
 30
0.0
 11
192.0267899999999
 21
172.251472
 31
0.0
  1
130
 71
     5
 42
-1.0
100
AcDbAlignedDimension
 13
174.5267899999999
 23
237.251472
 33
0.0
 14
174.5267899999999
 24
107.251472
 34
0.0
 50
90.0
100
AcDbRotatedDimension
  0
DIMENSION
  5
E3
330
A
100
AcDbEntity
  8
2
  6
Continuous
 62
   134
100
AcDbDimension
  2
*D4
 10
167.5267899999999
 20
247.2514719999999
 30
0.0
 11
125.0267899999999
 21
247.751472
 31
0.0
  1
85
 71
     5
 42
-1.0
100
AcDbAlignedDimension
 13
167.5267899999999
 23
237.651472
 33
0.0
 14
82.52679
 24
237.651472
 34
0.0
100
AcDbRotatedDimension
  0
DIMENSION
  5
EF
330
A
100
AcDbEntity
  8
2
  6
Continuous
 62
   134
100
AcDbDimension
  2
*D5
 10
77.52679
 20
257.251472
 30
0.0
 11
125.0267899999999
 21
257.751472
 31
0.0
  1
95
 71
     5
 42
-1.0
100
AcDbAlignedDimension
 13
77.52679
 23
239.251472
 33
0.0
 14
172.5267899999999
 24
239.251472
 34
0.0
100
AcDbRotatedDimension
  0
LINE
  5
F0
330
A
100
AcDbEntity
  8
2
  6
CENTER
 62
   134
100
AcDbLine
 10
125.0267899999999
 20
172.251472
 30
0.0
 11
125.0267899999999
 21
102.2514719999999
 31
0.0
  0
LINE
  5
F1
330
A
100
AcDbEntity
  8
2
  6
CENTER
 62
   134
100
AcDbLine
 10
125.0267899999999
 20
172.251472
 30
0.0
 11
125.0267899999999
 21
242.2527259999999
 31
0.0
  0
LINE
  5
F2
330
A
100
AcDbEntity
  8
2
  6
CENTER
 62
   134
100
AcDbLine
 10
177.527641
 20
172.251472
 30
0.0
 11
125.0267899999999
 21
172.251472
 31
0.0
  0
LINE
  5
F3
330
A
100
AcDbEntity
  8
2
  6
CENTER
 62
   134
100
AcDbLine
 10
72.244505
 20
172.251472
 30
0.0
 11
125.0267899999999
 21
172.251472
 31
0.0
  0
LINE
  5
F4
330
A
100
AcDbEntity
  8
1
  6
Continuous
 62
     7
100
AcDbLine
 10
79.12679
 20
117.2514719999999
 30
0.0
 11
82.52679
 21
117.2514719999999
 31
0.0
  0
LINE
  5
F5
330
A
100
AcDbEntity
  8
1
  6
Continuous
 62
     7
100
AcDbLine
 10
79.12679
 20
107.251403
 30
0.0
 11
79.12679
 21
172.251472
 31
0.0
  0
LINE
  5
F6
330
A
100
AcDbEntity
  8
1
  6
Continuous
 62
     7
100
AcDbLine
 10
79.12679
 20
237.253593
 30
0.0
 11
79.12679
 21
172.251472
 31
0.0
  0
LINE
  5
F7
330
A
100
AcDbEntity
  8
1
  6
Continuous
 62
     7
100
AcDbLine
 10
170.9267899999999
 20
107.251157
 30
0.0
 11
170.9267899999999
 21
172.251472
 31
0.0
  0
LINE
  5
F8
330
A
100
AcDbEntity
  8
1
  6
Continuous
 62
     7
100
AcDbLine
 10
170.9267899999999
 20
117.2514719999999
 30
0.0
 11
167.5267899999999
 21
117.2514719999999
 31
0.0
  0
LINE
  5
F9
330
A
100
AcDbEntity
  8
1
  6
Continuous
 62
     7
100
AcDbLine
 10
170.9267899999999
 20
237.251533
 30
0.0
 11
170.9267899999999
 21
172.251472
 31
0.0
  0
LINE
  5
FA
330
A
100
AcDbEntity
  8
1
  6
Continuous
 62
     7
100
AcDbLine
 10
170.9267899999999
 20
227.251472
 30
0.0
 11
167.5267899999999
 21
227.251472
 31
0.0
  0
LINE
  5
FB
330
A
100
AcDbEntity
  8
2
  6
CENTER
 62
   134
100
AcDbLine
 10
170.5267899999999
 20
232.251472
 30
0.0
 11
164.5267899999999
 21
232.251472
 31
0.0
  0
LINE
  5
FC
330
A
100
AcDbEntity
  8
2
  6
CENTER
 62
   134
100
AcDbLine
 10
167.5267899999999
 20
235.251472
 30
0.0
 11
167.5267899999999
 21
229.251472
 31
0.0
  0
LINE
  5
FD
330
A
100
AcDbEntity
  8
2
  6
CENTER
 62
   134
100
AcDbLine
 10
170.5267899999999
 20
112.2514719999999
 30
0.0
 11
164.5267899999999
 21
112.2514719999999
 31
0.0
  0
LINE
  5
FE
330
A
100
AcDbEntity
  8
2
  6
CENTER
 62
   134
100
AcDbLine
 10
167.5267899999999
 20
115.2514719999999
 30
0.0
 11
167.5267899999999
 21
109.251472
 31
0.0
  0
LINE
  5
FF
330
A
100
AcDbEntity
  8
2
  6
CENTER
 62
   134
100
AcDbLine
 10
85.52679000000001
 20
112.2514719999999
 30
0.0
 11
79.52679
 21
112.2514719999999
 31
0.0
  0
LINE
  5
100
330
A
100
AcDbEntity
  8
2
  6
CENTER
 62
   134
100
AcDbLine
 10
82.52679
 20
115.2514719999999
 30
0.0
 11
82.52679
 21
109.251472
 31
0.0
  0
LINE
  5
101
330
A
100
AcDbEntity
  8
2
  6
CENTER
 62
   134
100
AcDbLine
 10
85.52679000000001
 20
232.251472
 30
0.0
 11
79.52679
 21
232.251472
 31
0.0
  0
LINE
  5
102
330
A
100
AcDbEntity
  8
2
  6
CENTER
 62
   134
100
AcDbLine
 10
82.52679
 20
235.251472
 30
0.0
 11
82.52679
 21
229.251472
 31
0.0
  0
DIMENSION
  5
10E
330
A
100
AcDbEntity
  8
2
  6
Continuous
 62
   134
100
AcDbDimension
  2
*D6
 10
87.52679
 20
97.251472
 30
0.0
 11
82.52679
 21
97.75147199999999
 31
0.0
  1
10
 71
     5
 42
-1.0
100
AcDbAlignedDimension
 13
87.52679
 23
105.251472
 33
0.0
 14
77.52679
 24
105.251472
 34
0.0
100
AcDbRotatedDimension
  0
DIMENSION
  5
11A
330
A
100
AcDbEntity
  8
2
  6
Continuous
 62
   134
100
AcDbDimension
  2
*D7
 10
67.52679
 20
107.251472
 30
0.0
 11
67.02679
 21
112.2514719999999
 31
0.0
  1
10
 71
     5
 42
-1.0
100
AcDbAlignedDimension
 13
75.52679000000001
 23
107.251472
 33
0.0
 14
77.12679
 24
117.2514719999999
 34
0.0
 50
90.0
100
AcDbRotatedDimension
  0
LINE
  5
11B
330
A
100
AcDbEntity
  8
2
  6
CENTER
 62
   134
100
AcDbLine
 10
155.0267899999999
 20
212.251472
 30
0.0
 11
155.0267899999999
 21
172.251472
 31
0.0
  0
LINE
  5
11C
330
A
100
AcDbEntity
  8
2
  6
CENTER
 62
   134
100
AcDbLine
 10
155.0267899999999
 20
132.251472
 30
0.0
 11
155.0267899999999
 21
172.251472
 31
0.0
  0
LINE
  5
11D
330
A
100
AcDbEntity
  8
2
  6
CENTER
 62
   134
100
AcDbLine
 10
95.02679
 20
132.251472
 30
0.0
 11
95.02679
 21
172.251472
 31
0.0
  0
LINE
  5
11E
330
A
100
AcDbEntity
  8
2
  6
CENTER
 62
   134
100
AcDbLine
 10
95.02679
 20
212.251472
 30
0.0
 11
95.02679
 21
172.251472
 31
0.0
  0
LINE
  5
11F
330
A
100
AcDbEntity
  8
2
  6
CENTER
 62
   134
100
AcDbLine
 10
125.0267899999999
 20
137.251472
 30
0.0
 11
90.02679
 21
137.251472
 31
0.0
  0
LINE
  5
120
330
A
100
AcDbEntity
  8
2
  6
CENTER
 62
   134
100
AcDbLine
 10
125.0267899999999
 20
207.251472
 30
0.0
 11
90.02679
 21
207.251472
 31
0.0
  0
LINE
  5
121
330
A
100
AcDbEntity
  8
2
  6
CENTER
 62
   134
100
AcDbLine
 10
125.0267899999999
 20
137.251472
 30
0.0
 11
160.0267899999999
 21
137.251472
 31
0.0
  0
LINE
  5
122
330
A
100
AcDbEntity
  8
2
  6
CENTER
 62
   134
100
AcDbLine
 10
125.0267899999999
 20
207.251472
 30
0.0
 11
160.0267899999999
 21
207.251472
 31
0.0
  0
DIMENSION
  5
12E
330
A
100
AcDbEntity
  8
2
  6
Continuous
 62
   134
100
AcDbDimension
  2
*D8
 10
155.0267899999999
 20
218.284891
 30
0.0
 11
122.673418
 21
218.784891
 31
0.0
  1
60
 71
     5
 42
-1.0
100
AcDbAlignedDimension
 13
155.0267899999999
 23
214.251472
 33
0.0
 14
95.02679
 24
214.251472
 34
0.0
100
AcDbRotatedDimension
  0
DIMENSION
  5
13A
330
A
100
AcDbEntity
  8
2
  6
Continuous
 62
   134
100
AcDbDimension
  2
*D9
 10
162.6734179999999
 20
137.251472
 30
0.0
 11
162.1734179999999
 21
177.3101229999999
 31
0.0
  1
70
 71
     5
 42
-1.0
100
AcDbAlignedDimension
 13
162.0267899999999
 23
137.251472
 33
0.0
 14
162.0267899999999
 24
207.251472
 34
0.0
 50
90.0
100
AcDbRotatedDimension
  0
CIRCLE
  5
13B
330
A
100
AcDbEntity
  8
1
  6
Continuous
 62
     7
100
AcDbCircle
 10
155.0267899999999
 20
137.251472
 30
0.0
 40
2.5
  0
CIRCLE
  5
13C
330
A
100
AcDbEntity
  8
1
  6
Continuous
 62
     7
100
AcDbCircle
 10
95.02679
 20
137.251472
 30
0.0
 40
2.5
  0
CIRCLE
  5
13D
330
A
100
AcDbEntity
  8
1
  6
Continuous
 62
     7
100
AcDbCircle
 10
155.0267899999999
 20
207.251472
 30
0.0
 40
2.5
  0
CIRCLE
  5
13E
330
A
100
AcDbEntity
  8
1
  6
Continuous
 62
     7
100
AcDbCircle
 10
95.02679
 20
207.251472
 30
0.0
 40
2.5
  0
LINE
  5
13F
330
A
100
AcDbEntity
  8
1
  6
Continuous
 62
     7
100
AcDbLine
 10
77.52679
 20
77.25147199999999
 30
0.0
 11
172.5267899999999
 21
77.25147199999999
 31
0.0
  0
LINE
  5
140
330
A
100
AcDbEntity
  8
1
  6
Continuous
 62
     7
100
AcDbLine
 10
77.52679
 20
33.25147199999999
 30
0.0
 11
77.52679
 21
77.25147199999999
 31
0.0
  0
LINE
  5
141
330
A
100
AcDbEntity
  8
1
  6
Continuous
 62
     7
100
AcDbLine
 10
172.5267899999999
 20
33.25147199999999
 30
0.0
 11
77.52679
 21
33.25147199999999
 31
0.0
  0
LINE
  5
142
330
A
100
AcDbEntity
  8
1
  6
Continuous
 62
     7
100
AcDbLine
 10
172.5267899999999
 20
77.25147199999999
 30
0.0
 11
172.5267899999999
 21
33.25147199999999
 31
0.0
  0
LINE
  5
143
330
A
100
AcDbEntity
  8
1
  6
Continuous
 62
     7
100
AcDbLine
 10
170.9267899999999
 20
77.25151099999999
 30
0.0
 11
170.9267899999999
 21
33.25147199999999
 31
0.0
  0
LINE
  5
144
330
A
100
AcDbEntity
  8
1
  6
Continuous
 62
     7
100
AcDbLine
 10
79.12679
 20
77.251473
 30
0.0
 11
79.12679
 21
33.25147199999999
 31
0.0
  0
DIMENSION
  5
150
330
A
100
AcDbEntity
  8
2
  6
Continuous
 62
   134
100
AcDbDimension
  2
*D10
 10
182.5267899999999
 20
50.75147199999999
 30
0.0
 11
182.0267899999999
 21
42.00147199999999
 31
0.0
  1
17.5
 71
     5
 42
-1.0
100
AcDbAlignedDimension
 13
143.5554689999999
 23
50.75147199999999
 33
0.0
 14
174.5267899999999
 24
33.25147199999999
 34
0.0
 50
90.0
100
AcDbRotatedDimension
  0
DIMENSION
  5
15C
330
A
100
AcDbEntity
  8
2
  6
Continuous
 62
   134
100
AcDbDimension
  2
*D11
 10
192.5267899999999
 20
33.25147199999999
 30
0.0
 11
192.0267899999999
 21
55.251472
 31
0.0
  1
44
 71
     5
 42
-1.0
100
AcDbAlignedDimension
 13
174.5267899999999
 23
33.25147199999999
 33
0.0
 14
174.5267899999999
 24
77.25147199999999
 34
0.0
 50
90.0
100
AcDbRotatedDimension
  0
LINE
  5
15D
330
A
100
AcDbEntity
  8
2
  6
CENTER
 62
   134
100
AcDbLine
 10
125.0267899999999
 20
82.251472
 30
0.0
 11
125.0267899999999
 21
28.25147199999999
 31
0.0
  0
LINE
  5
15E
330
A
100
AcDbEntity
  8
2
  6
CENTER
 62
   134
100
AcDbLine
 10
107.5267899999999
 20
50.75147199999999
 30
0.0
 11
142.5267899999999
 21
50.75147199999999
 31
0.0
  0
TEXT
  5
15F
330
A
100
AcDbEntity
  8
2
  6
Continuous
 62
   134
100
AcDbText
 10
71.76186899999999
 20
18.52759999999999
 30
0.0
 40
3.0
  1
（対面同様）
 41
1.133332999999999
 11
71.76186899999999
 21
18.1276
 31
0.0
100
AcDbText
 73
     1
  0
LINE
  5
160
330
A
100
AcDbEntity
  8
1
  6
Continuous
 62
     7
100
AcDbLine
 10
266.5267899999999
 20
172.251472
 30
0.0
 11
266.5267899999999
 21
107.251472
 31
0.0
  0
LINE
  5
161
330
A
100
AcDbEntity
  8
1
  6
Continuous
 62
     7
100
AcDbLine
 10
266.5267899999999
 20
172.251472
 30
0.0
 11
266.5267899999999
 21
237.251472
 31
0.0
  0
LINE
  5
162
330
A
100
AcDbEntity
  8
1
  6
Continuous
 62
     7
100
AcDbLine
 10
222.5267899999999
 20
107.251472
 30
0.0
 11
222.5267899999999
 21
172.251472
 31
0.0
  0
LINE
  5
163
330
A
100
AcDbEntity
  8
1
  6
Continuous
 62
     7
100
AcDbLine
 10
266.5267899999999
 20
107.251472
 30
0.0
 11
222.5267899999999
 21
107.251472
 31
0.0
  0
LINE
  5
164
330
A
100
AcDbEntity
  8
1
  6
Continuous
 62
     7
100
AcDbLine
 10
222.5267899999999
 20
237.251472
 30
0.0
 11
222.5267899999999
 21
172.251472
 31
0.0
  0
LINE
  5
165
330
A
100
AcDbEntity
  8
1
  6
Continuous
 62
     7
100
AcDbLine
 10
266.5267899999999
 20
237.251472
 30
0.0
 11
222.5267899999999
 21
237.251472
 31
0.0
  0
DIMENSION
  5
171
330
A
100
AcDbEntity
  8
2
  6
Continuous
 62
   134
100
AcDbDimension
  2
*D12
 10
266.5267899999999
 20
247.2514719999999
 30
0.0
 11
244.5267899999999
 21
247.751472
 31
0.0
  1
44
 71
     5
 42
-1.0
100
AcDbAlignedDimension
 13
266.5267899999999
 23
239.251472
 33
0.0
 14
222.5267899999999
 24
239.251472
 34
0.0
100
AcDbRotatedDimension
  0
TEXT
  5
172
330
A
100
AcDbEntity
  8
15
  6
Continuous
 62
    96
100
AcDbText
 10
351.059791
 20
61.23957866666667
 30
0.0
 40
3.5
  1
G06009-01-09217
 41
0.5
 11
351.059791
 21
60.772912
 31
0.0
100
AcDbText
 73
     1
  0
TEXT
  5
173
330
A
100
AcDbEntity
  8
15
  6
Continuous
 62
    96
100
AcDbText
 10
385.2855529999999
 20
35.23727666666665
 30
0.0
 40
5.0
  1
辻
 41
1.08
 11
385.2855529999999
 21
34.57060999999999
 31
0.0
100
AcDbText
 73
     1
  0
TEXT
  5
174
330
A
100
AcDbEntity
  8
15
  6
Continuous
 62
    96
100
AcDbText
 10
357.67818
 20
35.23727666666665
 30
0.0
 40
5.0
  1
片山
 41
1.08
 11
357.67818
 21
34.57060999999999
 31
0.0
100
AcDbText
 73
     1
  0
TEXT
  5
175
330
A
100
AcDbEntity
  8
15
  6
Continuous
 62
    96
100
AcDbText
 10
332.6708069999999
 20
35.23727666666665
 30
0.0
 40
5.0
  1
仲代
 41
1.08
 11
332.6708069999999
 21
34.57060999999999
 31
0.0
100
AcDbText
 73
     1
  0
TEXT
  5
176
330
A
100
AcDbEntity
  8
15
  6
Continuous
 62
    96
100
AcDbText
 10
364.277472
 20
28.90715699999999
 30
0.0
 40
3.0
  1
2014年07月09日
 41
0.721212
 11
364.277472
 21
28.507157
 31
0.0
100
AcDbText
 73
     1
  0
TEXT
  5
177
330
A
100
AcDbEntity
  8
15
  6
Continuous
 62
    96
100
AcDbText
 10
327.0922909999999
 20
28.72999666666666
 30
0.0
 40
3.5
  1
G06009-01-14709
 41
0.5
 11
327.0922909999999
 21
28.26332999999999
 31
0.0
100
AcDbText
 73
     1
  0
LINE
  5
178
330
A
100
AcDbEntity
  8
2
  6
CENTER
 62
   134
100
AcDbLine
 10
249.0267899999999
 20
104.7115
 30
0.0
 11
249.0267899999999
 21
110.1258999999999
 31
0.0
  0
LINE
  5
179
330
A
100
AcDbEntity
  8
2
  6
CENTER
 62
   134
100
AcDbLine
 10
249.0267899999999
 20
234.7115
 30
0.0
 11
249.0267899999999
 21
240.1259
 31
0.0
  0
CIRCLE
  5
17A
330
A
100
AcDbEntity
  8
1
  6
Continuous
 62
     7
100
AcDbCircle
 10
125.0267899999999
 20
172.251472
 30
0.0
 40
13.55
  0
CIRCLE
  5
17B
330
A
100
AcDbEntity
  8
1
  6
Continuous
 62
     7
100
AcDbCircle
 10
125.0267899999999
 20
50.75147199999999
 30
0.0
 40
13.55
  0
LINE
  5
17C
330
A
100
AcDbEntity
  8
2
  6
Continuous
 62
   134
100
AcDbLine
 10
114.757487
 20
41.835116
 30
0.0
 11
113.629106
 21
39.71691899999999
 31
0.0
  0
LINE
  5
17D
330
A
100
AcDbEntity
  8
2
  6
Continuous
 62
   134
100
AcDbLine
 10
114.757487
 20
41.835116
 30
0.0
 11
112.721182
 21
40.564894
 31
0.0
  0
LWPOLYLINE
  5
17E
330
A
100
AcDbEntity
  8
2
  6
Continuous
 62
   134
100
AcDbPolyline
 90
        3
 70
     0
 43
0.0
 10
114.757487
 20
41.835116
 10
96.10840000000001
 20
21.8676
 10
69.3084
 20
21.8676
  0
TEXT
  5
183
330
A
100
AcDbEntity
  8
2
  6
Continuous
 62
   134
100
AcDbText
 10
69.3084
 20
22.76759999999999
 30
0.0
 40
3.0
  1
φ27.1ﾉｯｸｱｳﾄﾊﾟﾝﾁ
 41
0.604444
 11
69.3084
 21
22.36759999999999
 31
0.0
100
AcDbText
 73
     1
  0
LINE
  5
184
330
A
100
AcDbEntity
  8
2
  6
Continuous
 62
   134
100
AcDbLine
 10
115.248256
 20
162.799474
 30
0.0
 11
113.574261
 21
161.079666
 31
0.0
  0
LINE
  5
185
330
A
100
AcDbEntity
  8
2
  6
Continuous
 62
   134
100
AcDbLine
 10
115.248256
 20
162.799474
 30
0.0
 11
112.9386299999999
 21
162.147074
 31
0.0
  0
LWPOLYLINE
  5
186
330
A
100
AcDbEntity
  8
2
  6
Continuous
 62
   134
100
AcDbPolyline
 90
        3
 70
     0
 43
0.0
 10
115.248256
 20
162.799474
 10
69.58929999999999
 20
135.61
 10
42.78929999999999
 20
135.61
  0
TEXT
  5
18B
330
A
100
AcDbEntity
  8
2
  6
Continuous
 62
   134
100
AcDbText
 10
42.78929999999999
 20
136.51
 30
0.0
 40
3.0
  1
φ27.1ﾉｯｸｱｳﾄﾊﾟﾝﾁ
 41
0.604444
 11
42.78929999999999
 21
136.11
 31
0.0
100
AcDbText
 73
     1
  0
LINE
  5
18C
330
A
100
AcDbEntity
  8
6
  6
Continuous
 62
   135
100
AcDbLine
 10
167.5267899999999
 20
110.7514719999999
 30
0.0
 11
168.9829419999999
 21
108.843694
 31
0.0
  0
LINE
  5
18D
330
A
100
AcDbEntity
  8
6
  6
Continuous
 62
   135
100
AcDbLine
 10
167.5267899999999
 20
110.7514719999999
 30
0.0
 11
167.8339649999999
 21
108.371211
 31
0.0
  0
LWPOLYLINE
  5
18E
330
A
100
AcDbEntity
  8
6
  6
Continuous
 62
   135
100
AcDbPolyline
 90
        3
 70
     0
 43
0.0
 10
167.5267899999999
 20
110.7514719999999
 10
173.0926
 20
97.21659999999999
 10
195.6925999999999
 20
97.21659999999999
  0
TEXT
  5
193
330
A
100
AcDbEntity
  8
6
  6
Continuous
 62
   135
100
AcDbText
 10
173.0926
 20
97.6166
 30
0.0
 40
3.0
  1
4-M3バーリング
 41
0.8814809999999999
 11
173.0926
 21
97.21659999999999
 31
0.0
100
AcDbText
 73
     1
  0
LINE
  5
194
330
A
100
AcDbEntity
  8
2
  6
Continuous
 62
   134
100
AcDbLine
 10
153.239384
 20
135.5035649999999
 30
0.0
 11
152.305251
 21
133.29282
 31
0.0
  0
LINE
  5
195
330
A
100
AcDbEntity
  8
2
  6
Continuous
 62
   134
100
AcDbLine
 10
153.239384
 20
135.5035649999999
 30
0.0
 11
151.325028
 21
134.05607
 31
0.0
  0
LWPOLYLINE
  5
196
330
A
100
AcDbEntity
  8
2
  6
Continuous
 62
   134
100
AcDbPolyline
 90
        3
 70
     0
 43
0.0
 10
153.239384
 20
135.5035649999999
 10
148.1331689999999
 20
128.9457889999999
 10
140.0331689999999
 20
128.9457889999999
  0
TEXT
  5
19B
330
A
100
AcDbEntity
  8
2
  6
Continuous
 62
   134
100
AcDbText
 10
140.0331689999999
 20
129.8457889999999
 30
0.0
 40
3.0
  1
4-φ5
 41
0.7083330000000001
 11
140.0331689999999
 21
129.4457889999999
 31
0.0
100
AcDbText
 73
     1
  0
ENDSEC
  0
SECTION
  2
OBJECTS
  0
DICTIONARY
  5
19
330
0
100
AcDbDictionary
281
     1
  3
ACAD_GROUP
350
1A
  3
ACAD_LAYOUT
350
1A2
  3
ACAD_MLINESTYLE
350
1B
  3
ACAD_PLOTSETTINGS
350
1A3
  3
ACAD_PLOTSTYLENAME
350
1A0
  3
AcDbVariableDictionary
350
1A8
  0
DICTIONARY
  5
1A
102
{ACAD_REACTORS
330
19
102
}
330
19
100
AcDbDictionary
281
     1
  0
DICTIONARY
  5
1A2
102
{ACAD_REACTORS
330
19
102
}
330
19
100
AcDbDictionary
281
     1
  3
Model
350
1A4
  3
ﾚｲｱｳﾄ1
350
1A5
  0
DICTIONARY
  5
1B
102
{ACAD_REACTORS
330
19
102
}
330
19
100
AcDbDictionary
281
     1
  3
STANDARD
350
1C
  0
DICTIONARY
  5
1A3
102
{ACAD_REACTORS
330
19
102
}
330
19
100
AcDbDictionary
281
     1
  0
ACDBDICTIONARYWDFLT
  5
1A0
102
{ACAD_REACTORS
330
19
102
}
330
19
100
AcDbDictionary
281
     1
  3
Normal
350
1A1
100
AcDbDictionaryWithDefault
340
1A1
  0
DICTIONARY
  5
1A8
102
{ACAD_REACTORS
330
19
102
}
330
19
100
AcDbDictionary
281
     1
  3
DIMASSOC
350
1A9
  0
LAYOUT
  5
1A4
102
{ACAD_REACTORS
330
1A2
102
}
330
1A2
100
AcDbPlotSettings
  1

  2
NEC MultiWriter2360/2360N
  4

  6

 40
0.0
 41
0.0
 42
0.0
 43
0.0
 44
0.0
 45
0.0
 46
0.0
 47
0.0
 48
0.0
 49
0.0
140
0.0
141
0.0
142
1.0
143
1.0
 70
  1712
 72
     0
 73
     0
 74
     0
  7

 75
     0
147
1.0
148
0.0
149
0.0
100
AcDbLayout
  1
Model
 70
     1
 71
     0
 10
0.0
 20
0.0
 11
12.0
 21
9.0
 12
0.0
 22
0.0
 32
0.0
 14
0.0
 24
0.0
 34
0.0
 15
0.0
 25
0.0
 35
0.0
146
0.0
 13
0.0
 23
0.0
 33
0.0
 16
1.0
 26
0.0
 36
0.0
 17
0.0
 27
1.0
 37
0.0
 76
     0
330
A
  0
LAYOUT
  5
1A5
102
{ACAD_REACTORS
330
1A2
102
}
330
1A2
100
AcDbPlotSettings
  1

  2
NEC MultiWriter2360/2360N
  4

  6

 40
0.0
 41
0.0
 42
0.0
 43
0.0
 44
0.0
 45
0.0
 46
0.0
 47
0.0
 48
0.0
 49
0.0
140
0.0
141
0.0
142
1.0
143
1.0
 70
   688
 72
     0
 73
     0
 74
     5
  7

 75
    16
147
1.0
148
0.0
149
0.0
100
AcDbLayout
  1
ﾚｲｱｳﾄ1
 70
     0
 71
     1
 10
0.0
 20
0.0
 11
420.0
 21
297.0
 12
0.0
 22
0.0
 32
0.0
 14
0.0
 24
0.0
 34
0.0
 15
420.0
 25
297.0
 35
0.0
146
0.0
 13
0.0
 23
0.0
 33
0.0
 16
1.0
 26
0.0
 36
0.0
 17
0.0
 27
1.0
 37
0.0
 76
     0
330
B
  0
MLINESTYLE
  5
1C
102
{ACAD_REACTORS
330
1B
102
}
330
1B
100
AcDbMlineStyle
  2
STANDARD
 70
     0
  3

 62
     0
 51
90.0
 52
90.0
 71
     2
 49
0.5
 62
   256
  6
BYLAYER
 49
-0.5
 62
   256
  6
BYLAYER
  0
ACDBPLACEHOLDER
  5
1A1
102
{ACAD_REACTORS
330
1A0
102
}
330
1A0
  0
DICTIONARYVAR
  5
1A9
102
{ACAD_REACTORS
330
1A8
102
}
330
1A8
100
DictionaryVariables
280
     0
  1
1
  0
ENDSEC
  0
EOF
