  0
SECTION
  2
HEADER
  9
$ACADVER
  1
AC1014
  9
$ACADMAINTVER
 70
     0
  9
$DWGCODEPAGE
  3
DOS932
  9
$INSBASE
 10
0.0
 20
0.0
 30
0.0
  9
$EXTMIN
 10
0.0
 20
0.0
 30
0.0
  9
$EXTMAX
 10
420.0
 20
297.0
 30
0.0
  9
$LIMMIN
 10
0.0
 20
0.0
  9
$LIMMAX
 10
420.0
 20
297.0
  9
$ORTHOMODE
 70
     0
  9
$REGENMODE
 70
     1
  9
$FILLMODE
 70
     1
  9
$QTEXTMODE
 70
     0
  9
$MIRRTEXT
 70
     1
  9
$DRAGMODE
 70
     2
  9
$LTSCALE
 40
0.25
  9
$OSMODE
 70
     0
  9
$ATTMODE
 70
     1
  9
$TEXTSIZE
 40
5.0
  9
$TRACEWID
 40
0.05
  9
$TEXTSTYLE
  7
STANDARD
  9
$CLAYER
  8
0
  9
$CELTYPE
  6
CONTINUOUS
  9
$CECOLOR
 62
   256
  9
$CELTSCALE
 40
1.0
  9
$DELOBJ
 70
     1
  9
$DISPSILH
 70
     0
  9
$DIMSCALE
 40
1.0
  9
$DIMASZ
 40
4.0
  9
$DIMEXO
 40
2.0
  9
$DIMDLI
 40
10.0
  9
$DIMRND
 40
0.0
  9
$DIMDLE
 40
0.0
  9
$DIMEXE
 40
2.0
  9
$DIMTP
 40
0.0
  9
$DIMTM
 40
0.0
  9
$DIMTXT
 40
4.0
  9
$DIMCEN
 40
0.09
  9
$DIMTSZ
 40
0.0
  9
$DIMTOL
 70
     0
  9
$DIMLIM
 70
     0
  9
$DIMTIH
 70
     0
  9
$DIMTOH
 70
     0
  9
$DIMSE1
 70
     0
  9
$DIMSE2
 70
     0
  9
$DIMTAD
 70
     3
  9
$DIMZIN
 70
     0
  9
$DIMBLK
  1
_OPEN
  9
$DIMASO
 70
     1
  9
$DIMSHO
 70
     1
  9
$DIMPOST
  1

  9
$DIMAPOST
  1

  9
$DIMALT
 70
     0
  9
$DIMALTD
 70
     2
  9
$DIMALTF
 40
25.4
  9
$DIMLFAC
 40
1.0
  9
$DIMTOFL
 70
     1
  9
$DIMTVP
 40
0.7
  9
$DIMTIX
 70
     0
  9
$DIMSOXD
 70
     0
  9
$DIMSAH
 70
     0
  9
$DIMBLK1
  1
_OPEN
  9
$DIMBLK2
  1
_OPEN
  9
$DIMSTYLE
  2
STANDARD
  9
$DIMCLRD
 70
     0
  9
$DIMCLRE
 70
     0
  9
$DIMCLRT
 70
     0
  9
$DIMTFAC
 40
0.5
  9
$DIMGAP
 40
0.0
  9
$DIMJUST
 70
     0
  9
$DIMSD1
 70
     0
  9
$DIMSD2
 70
     0
  9
$DIMTOLJ
 70
     1
  9
$DIMTZIN
 70
     0
  9
$DIMALTZ
 70
     0
  9
$DIMALTTZ
 70
     0
  9
$DIMFIT
 70
     3
  9
$DIMUPT
 70
     0
  9
$DIMUNIT
 70
     2
  9
$DIMDEC
 70
     2
  9
$DIMTDEC
 70
     4
  9
$DIMALTU
 70
     2
  9
$DIMALTTD
 70
     2
  9
$DIMTXSTY
  7
STANDARD
  9
$DIMAUNIT
 70
     0
  9
$LUNITS
 70
     2
  9
$LUPREC
 70
     4
  9
$SKETCHINC
 40
0.1
  9
$FILLETRAD
 40
0.0
  9
$AUNITS
 70
     0
  9
$AUPREC
 70
     0
  9
$MENU
  1
acad
  9
$ELEVATION
 40
0.0
  9
$PELEVATION
 40
0.0
  9
$THICKNESS
 40
0.0
  9
$LIMCHECK
 70
     0
  9
$BLIPMODE
 70
     1
  9
$CHAMFERA
 40
0.0
  9
$CHAMFERB
 40
0.0
  9
$CHAMFERC
 40
0.0
  9
$CHAMFERD
 40
0.0
  9
$SKPOLY
 70
     0
  9
$TDCREATE
 40
2454939.448553241
  9
$TDUPDATE
 40
2454939.448553241
  9
$TDINDWG
 40
0.0000000000
  9
$TDUSRTIMER
 40
0.0000000000
  9
$USRTIMER
 70
     1
  9
$ANGBASE
 50
0.0
  9
$ANGDIR
 70
     0
  9
$PDMODE
 70
     0
  9
$PDSIZE
 40
0.0
  9
$PLINEWID
 40
0.0
  9
$COORDS
 70
     0
  9
$SPLFRAME
 70
     0
  9
$SPLINETYPE
 70
     6
  9
$SPLINESEGS
 70
     8
  9
$ATTDIA
 70
     0
  9
$ATTREQ
 70
     1
  9
$HANDLING
 70
     1
  9
$HANDSEED
  5
17C
  9
$SURFTAB1
 70
     6
  9
$SURFTAB2
 70
     6
  9
$SURFTYPE
 70
     6
  9
$SURFU
 70
     6
  9
$SURFV
 70
     6
  9
$UCSNAME
  2

  9
$UCSORG
 10
0.0
 20
0.0
 30
0.0
  9
$UCSXDIR
 10
1.0
 20
0.0
 30
0.0
  9
$UCSYDIR
 10
0.0
 20
1.0
 30
0.0
  9
$PUCSNAME
  2

  9
$PUCSORG
 10
0.0
 20
0.0
 30
0.0
  9
$PUCSXDIR
 10
1.0
 20
0.0
 30
0.0
  9
$PUCSYDIR
 10
0.0
 20
1.0
 30
0.0
  9
$USERI1
 70
     0
  9
$USERI2
 70
     0
  9
$USERI3
 70
     0
  9
$USERI4
 70
     0
  9
$USERI5
 70
     0
  9
$USERR1
 40
0.0
  9
$USERR2
 40
0.0
  9
$USERR3
 40
0.0
  9
$USERR4
 40
0.0
  9
$USERR5
 40
0.0
  9
$WORLDVIEW
 70
     1
  9
$SHADEDGE
 70
     3
  9
$SHADEDIF
 70
    70
  9
$TILEMODE
 70
     1
  9
$MAXACTVP
 70
    16
  9
$PINSBASE
 10
0.0
 20
0.0
 30
0.0
  9
$PLIMCHECK
 70
     0
  9
$PEXTMIN
 10
0.0
 20
0.0
 30
0.0
  9
$PEXTMAX
 10
420.0
 20
297.0
 30
0.0
  9
$PLIMMIN
 10
0.0
 20
0.0
  9
$PLIMMAX
 10
420.0
 20
297.0
  9
$UNITMODE
 70
     0
  9
$VISRETAIN
 70
     0
  9
$PLINEGEN
 70
     1
  9
$PSLTSCALE
 70
     0
  9
$TREEDEPTH
 70
  3020
  9
$PICKSTYLE
 70
     1
  9
$CMLSTYLE
  2
STANDARD
  9
$CMLJUST
 70
     0
  9
$CMLSCALE
 40
1.0
  9
$PROXYGRAPHICS
 70
     0
  9
$MEASUREMENT
 70
     0
  0
ENDSEC
  0
SECTION
  2
CLASSES
  0
CLASS
  1
LWPOLYLINE
  2
AcDbPolyline
  3
"AutoCAD"
 90
        0
280
     0
281
     1
  0
CLASS
  1
IMAGE
  2
AcDbRasterImage
  3
ISM
 90
      127
280
     0
281
     1
  0
CLASS
  1
OLE2FRAME
  2
AcDbOle2Frame
  3
""
 90
        0
280
     0
281
     1
  0
CLASS
  1
HATCH
  2
AcDbHatch
  3
"ACAD_SEDONA"
 90
        0
280
     0
281
     1
  0
CLASS
  1
DICTIONARYVAR
  2
AcDbDictionaryVar
  3
"AutoCAD"
 90
        0
280
     0
281
     0
  0
CLASS
  1
RASTERVARIABLES
  2
AcDbRasterVariables
  3
ISM
 90
        0
280
     0
281
     0
  0
CLASS
  1
IMAGEDEF
  2
AcDbRasterImageDef
  3
ISM
 90
        0
280
     0
281
     0
  0
CLASS
  1
IMAGEDEF_REACTOR
  2
AcDbRasterImageDefReactor
  3
ISM
 90
        1
280
     0
281
     0
  0
CLASS
  1
IDBUFFER
  2
AcDbIdBuffer
  3
"Acad"
 90
        0
280
     0
281
     0
  0
CLASS
  1
SPATIAL_FILTER
  2
AcDbSpatialFilter
  3
"Acad"
 90
        0
280
     0
281
     0
  0
CLASS
  1
XRECORD
  2
AcDbXrecord
  3
"<Built In>"
 90
        0
280
     0
281
     0
  0
CLASS
  1
SORTENTSTABLE
  2
AcDbSortentsTable
  3
"AutoCAD"
 90
        0
280
     0
281
     0
  0
CLASS
  1
LAYER_INDEX
  2
AcDbLayerIndex
  3
"Acad"
 90
        0
280
     0
281
     0
  0
CLASS
  1
SPATIAL_INDEX
  2
AcDbSpatialIndex
  3
"Acad"
 90
        0
280
     0
281
     0
  0
CLASS
  1
OBJECT_PTR
  2
CAseDLPNTableRecord
  3
"ASE-LPNTableRecord"
 90
        1
280
     0
281
     0
  0
ENDSEC
  0
SECTION
  2
TABLES
  0
TABLE
  2
VPORT
  5
7
100
AcDbSymbolTable
 70
     1
  0
VPORT
  5
15
100
AcDbSymbolTableRecord
100
AcDbViewportTableRecord
  2
*ACTIVE
 70
     0
 10
0.0
 20
0.0
 11
1.0
 21
1.0
 12
6.591288
 22
4.579184
 13
0.0
 23
0.0
 14
1.0
 24
1.0
 15
0.0
 25
0.0
 16
0.0
 26
0.0
 36
1.0
 17
0.0
 27
0.0
 37
0.0
 40
9.158369
 41
0.688564
 42
50.0
 43
0.0
 44
0.0
 50
0.0
 51
0.0
 71
     0
 72
   100
 73
     1
 74
     1
 75
     0
 76
     0
 77
     0
 78
     0
  0
ENDTAB
  0
TABLE
  2
LTYPE
  5
4
100
AcDbSymbolTable
 70
     7
  0
LTYPE
  5
11
100
AcDbSymbolTableRecord
100
AcDbLinetypeTableRecord
  2
BYBLOCK
 70
     0
  3

 72
    65
 73
     0
 40
0.0
  0
LTYPE
  5
12
100
AcDbSymbolTableRecord
100
AcDbLinetypeTableRecord
  2
BYLAYER
 70
     0
  3

 72
    65
 73
     0
 40
0.0
  0
LTYPE
  5
13
100
AcDbSymbolTableRecord
100
AcDbLinetypeTableRecord
  2
CONTINUOUS
 70
     0
  3
Solid line
 72
    65
 73
     0
 40
0.0
  0
LTYPE
  5
1D
100
AcDbSymbolTableRecord
100
AcDbLinetypeTableRecord
  2
HIDDEN
 70
     0
  3
- - - - - - - - 
 72
    65
 73
     2
 40
12.6
 49
8.4
 74
     0
 49
-4.2
 74
     0
  0
LTYPE
  5
1E
100
AcDbSymbolTableRecord
100
AcDbLinetypeTableRecord
  2
DOT
 70
     0
  3
･ ･ ･ ･ ･ ･ ･ ･ 
 72
    65
 73
     2
 40
8.0
 49
6.0
 74
     0
 49
-2.0
 74
     0
  0
LTYPE
  5
1F
100
AcDbSymbolTableRecord
100
AcDbLinetypeTableRecord
  2
CENTER
 70
     0
  3
- ･ - ･ - ･ - ･ 
 72
    65
 73
     4
 40
50.5
 49
30.0
 74
     0
 49
-9.0
 74
     0
 49
2.5
 74
     0
 49
-9.0
 74
     0
  0
LTYPE
  5
20
100
AcDbSymbolTableRecord
100
AcDbLinetypeTableRecord
  2
PHANTOM
 70
     0
  3
- ･･ - ･･ - ･･ - ･･ 
 72
    65
 73
     6
 40
58.0
 49
30.0
 74
     0
 49
-9.0
 74
     0
 49
2.5
 74
     0
 49
-5.0
 74
     0
 49
2.5
 74
     0
 49
-9.0
 74
     0
  0
ENDTAB
  0
TABLE
  2
LAYER
  5
2
100
AcDbSymbolTable
 70
    33
  0
LAYER
  5
14
100
AcDbSymbolTableRecord
100
AcDbLayerTableRecord
  2
0
 70
     0
 62
     7
  6
CONTINUOUS
  0
LAYER
  5
21
100
AcDbSymbolTableRecord
100
AcDbLayerTableRecord
  2
1
 70
     0
 62
     7
  6
CONTINUOUS
  0
LAYER
  5
22
100
AcDbSymbolTableRecord
100
AcDbLayerTableRecord
  2
2
 70
     0
 62
   134
  6
CONTINUOUS
  0
LAYER
  5
23
100
AcDbSymbolTableRecord
100
AcDbLayerTableRecord
  2
3
 70
     0
 62
   216
  6
CONTINUOUS
  0
LAYER
  5
24
100
AcDbSymbolTableRecord
100
AcDbLayerTableRecord
  2
4
 70
     0
 62
    54
  6
CONTINUOUS
  0
LAYER
  5
25
100
AcDbSymbolTableRecord
100
AcDbLayerTableRecord
  2
5
 70
     0
 62
    94
  6
CONTINUOUS
  0
LAYER
  5
26
100
AcDbSymbolTableRecord
100
AcDbLayerTableRecord
  2
6
 70
     0
 62
    14
  6
CONTINUOUS
  0
LAYER
  5
27
100
AcDbSymbolTableRecord
100
AcDbLayerTableRecord
  2
7
 70
     0
 62
     4
  6
CONTINUOUS
  0
LAYER
  5
28
100
AcDbSymbolTableRecord
100
AcDbLayerTableRecord
  2
8
 70
     0
 62
     6
  6
CONTINUOUS
  0
LAYER
  5
29
100
AcDbSymbolTableRecord
100
AcDbLayerTableRecord
  2
9
 70
     0
 62
     2
  6
CONTINUOUS
  0
LAYER
  5
2A
100
AcDbSymbolTableRecord
100
AcDbLayerTableRecord
  2
10
 70
     0
 62
     3
  6
CONTINUOUS
  0
LAYER
  5
2B
100
AcDbSymbolTableRecord
100
AcDbLayerTableRecord
  2
11
 70
     0
 62
   251
  6
CONTINUOUS
  0
LAYER
  5
2C
100
AcDbSymbolTableRecord
100
AcDbLayerTableRecord
  2
12
 70
     0
 62
   136
  6
CONTINUOUS
  0
LAYER
  5
2D
100
AcDbSymbolTableRecord
100
AcDbLayerTableRecord
  2
13
 70
     0
 62
     7
  6
CONTINUOUS
  0
LAYER
  5
2E
100
AcDbSymbolTableRecord
100
AcDbLayerTableRecord
  2
14
 70
     0
 62
    56
  6
CONTINUOUS
  0
LAYER
  5
2F
100
AcDbSymbolTableRecord
100
AcDbLayerTableRecord
  2
15
 70
     0
 62
    96
  6
CONTINUOUS
  0
LAYER
  5
30
100
AcDbSymbolTableRecord
100
AcDbLayerTableRecord
  2
16
 70
     0
 62
    16
  6
CONTINUOUS
  0
LAYER
  5
31
100
AcDbSymbolTableRecord
100
AcDbLayerTableRecord
  2
17
 70
     0
 62
   132
  6
CONTINUOUS
  0
LAYER
  5
32
100
AcDbSymbolTableRecord
100
AcDbLayerTableRecord
  2
18
 70
     0
 62
   212
  6
CONTINUOUS
  0
LAYER
  5
33
100
AcDbSymbolTableRecord
100
AcDbLayerTableRecord
  2
19
 70
     0
 62
    52
  6
CONTINUOUS
  0
LAYER
  5
34
100
AcDbSymbolTableRecord
100
AcDbLayerTableRecord
  2
20
 70
     0
 62
   250
  6
CONTINUOUS
  0
LAYER
  5
35
100
AcDbSymbolTableRecord
100
AcDbLayerTableRecord
  2
22
 70
     0
 62
     7
  6
CONTINUOUS
  0
LAYER
  5
36
100
AcDbSymbolTableRecord
100
AcDbLayerTableRecord
  2
24
 70
     0
 62
     7
  6
CONTINUOUS
  0
LAYER
  5
37
100
AcDbSymbolTableRecord
100
AcDbLayerTableRecord
  2
25
 70
     0
 62
     7
  6
CONTINUOUS
  0
LAYER
  5
38
100
AcDbSymbolTableRecord
100
AcDbLayerTableRecord
  2
126
 70
     0
 62
     3
  6
CONTINUOUS
  0
LAYER
  5
39
100
AcDbSymbolTableRecord
100
AcDbLayerTableRecord
  2
127
 70
     0
 62
     7
  6
CONTINUOUS
  0
LAYER
  5
3A
100
AcDbSymbolTableRecord
100
AcDbLayerTableRecord
  2
128
 70
     0
 62
     7
  6
CONTINUOUS
  0
LAYER
  5
3B
100
AcDbSymbolTableRecord
100
AcDbLayerTableRecord
  2
129
 70
     0
 62
     7
  6
CONTINUOUS
  0
LAYER
  5
3C
100
AcDbSymbolTableRecord
100
AcDbLayerTableRecord
  2
130
 70
     0
 62
     7
  6
CONTINUOUS
  0
LAYER
  5
3D
100
AcDbSymbolTableRecord
100
AcDbLayerTableRecord
  2
131
 70
     0
 62
     7
  6
CONTINUOUS
  0
LAYER
  5
3E
100
AcDbSymbolTableRecord
100
AcDbLayerTableRecord
  2
258
 70
     0
 62
     7
  6
CONTINUOUS
  0
LAYER
  5
3F
100
AcDbSymbolTableRecord
100
AcDbLayerTableRecord
  2
260
 70
     0
 62
     7
  6
CONTINUOUS
  0
LAYER
  5
40
100
AcDbSymbolTableRecord
100
AcDbLayerTableRecord
  2
261
 70
     0
 62
     5
  6
CONTINUOUS
  0
ENDTAB
  0
TABLE
  2
STYLE
  5
3
100
AcDbSymbolTable
 70
     1
  0
STYLE
  5
17
100
AcDbSymbolTableRecord
100
AcDbTextStyleTableRecord
  2
STANDARD
 70
     0
 40
0.0
 41
1.0
 50
0.0
 71
     0
 42
0.0
  3
txt
  4
bigfont
  0
ENDTAB
  0
TABLE
  2
VIEW
  5
5
100
AcDbSymbolTable
 70
     0
  0
ENDTAB
  0
TABLE
  2
UCS
  5
6
100
AcDbSymbolTable
 70
     0
  0
ENDTAB
  0
TABLE
  2
APPID
  5
8
100
AcDbSymbolTable
 70
     1
  0
APPID
  5
16
100
AcDbSymbolTableRecord
100
AcDbRegAppTableRecord
  2
ACAD
 70
     0
  0
ENDTAB
  0
TABLE
  2
DIMSTYLE
  5
9
100
AcDbSymbolTable
 70
     1
  0
DIMSTYLE
105
18
100
AcDbSymbolTableRecord
100
AcDbDimStyleTableRecord
  2
STANDARD
 70
     0
  3

  4

  5

  6

  7

 40
1.0
 41
0.18
 42
0.0625
 43
0.38
 44
0.18
 45
0.0
 46
0.0
 47
0.0
 48
0.0
140
0.18
141
0.09
142
0.0
143
25.4
144
1.0
145
0.0
146
1.0
147
0.09
 71
     0
 72
     0
 73
     1
 74
     1
 75
     0
 76
     0
 77
     0
 78
     0
170
     0
171
     2
172
     0
173
     0
174
     0
175
     0
176
     0
177
     0
178
     0
270
     2
271
     4
272
     4
273
     2
274
     2
340
17
275
     0
280
     0
281
     0
282
     0
283
     1
284
     0
285
     0
286
     0
287
     0
288
     0
  0
ENDTAB
  0
TABLE
  2
BLOCK_RECORD
  5
1
100
AcDbSymbolTable
 70
    11
  0
BLOCK_RECORD
  5
A
100
AcDbSymbolTableRecord
100
AcDbBlockTableRecord
  2
*MODEL_SPACE
  0
BLOCK_RECORD
  5
B
100
AcDbSymbolTableRecord
100
AcDbBlockTableRecord
  2
*PAPER_SPACE
  0
BLOCK_RECORD
  5
64
100
AcDbSymbolTableRecord
100
AcDbBlockTableRecord
  2
*G0
  0
BLOCK_RECORD
  5
E6
100
AcDbSymbolTableRecord
100
AcDbBlockTableRecord
  2
*D1
  0
BLOCK_RECORD
  5
F2
100
AcDbSymbolTableRecord
100
AcDbBlockTableRecord
  2
*D2
  0
BLOCK_RECORD
  5
10E
100
AcDbSymbolTableRecord
100
AcDbBlockTableRecord
  2
*D3
  0
BLOCK_RECORD
  5
11A
100
AcDbSymbolTableRecord
100
AcDbBlockTableRecord
  2
*D4
  0
BLOCK_RECORD
  5
126
100
AcDbSymbolTableRecord
100
AcDbBlockTableRecord
  2
*D5
  0
BLOCK_RECORD
  5
132
100
AcDbSymbolTableRecord
100
AcDbBlockTableRecord
  2
*D6
  0
BLOCK_RECORD
  5
13E
100
AcDbSymbolTableRecord
100
AcDbBlockTableRecord
  2
*D7
  0
BLOCK_RECORD
  5
14A
100
AcDbSymbolTableRecord
100
AcDbBlockTableRecord
  2
*D8
  0
BLOCK_RECORD
  5
156
100
AcDbSymbolTableRecord
100
AcDbBlockTableRecord
  2
*D9
  0
BLOCK_RECORD
  5
16A
100
AcDbSymbolTableRecord
100
AcDbBlockTableRecord
  2
*D10
  0
ENDTAB
  0
ENDSEC
  0
SECTION
  2
BLOCKS
  0
BLOCK
  5
D
100
AcDbEntity
  8
0
100
AcDbBlockBegin
  2
*MODEL_SPACE
 70
     0
 10
0.0
 20
0.0
 30
0.0
  3
*MODEL_SPACE
  1

  0
ENDBLK
  5
E
100
AcDbEntity
  8
0
100
AcDbBlockEnd
  0
BLOCK
  5
F
100
AcDbEntity
 67
     1
  8
0
100
AcDbBlockBegin
  2
*PAPER_SPACE
 70
     0
 10
0.0
 20
0.0
 30
0.0
  3
*PAPER_SPACE
  1

  0
ENDBLK
  5
10
100
AcDbEntity
 67
     1
  8
0
100
AcDbBlockEnd
  0
BLOCK
  5
65
100
AcDbEntity
  8
1
  6
CONTINUOUS
 62
     7
100
AcDbBlockBegin
  2
*G0
 70
     0
 10
0.0
 20
0.0
 30
0.0
  3
*G0
  1

  0
LINE
  5
66
100
AcDbEntity
  8
15
  6
CONTINUOUS
 62
    96
100
AcDbLine
 10
324.343916
 20
25.745666
 30
0.0
 11
324.610571
 21
25.745666
 31
0.0
  0
ENDBLK
  5
67
100
AcDbEntity
  8
0
100
AcDbBlockEnd
  0
BLOCK
  5
E7
100
AcDbEntity
  8
2
  6
CONTINUOUS
 62
   134
100
AcDbBlockBegin
  2
*D1
 70
     0
 10
0.0
 20
0.0
 30
0.0
  3
*D1
  1

  0
LINE
  5
E8
100
AcDbEntity
  8
2
  6
CONTINUOUS
 62
   134
100
AcDbLine
 10
97.694582
 20
202.4367
 30
0.0
 11
97.694582
 21
142.4367
 31
0.0
  0
LINE
  5
E9
100
AcDbEntity
  8
2
  6
CONTINUOUS
 62
   134
100
AcDbLine
 10
95.694582
 20
202.4367
 30
0.0
 11
101.728
 21
202.4367
 31
0.0
  0
LINE
  5
EA
100
AcDbEntity
  8
2
  6
CONTINUOUS
 62
   134
100
AcDbLine
 10
95.694582
 20
142.4367
 30
0.0
 11
101.728
 21
142.4367
 31
0.0
  0
LINE
  5
EB
100
AcDbEntity
  8
2
  6
CONTINUOUS
 62
   134
100
AcDbLine
 10
97.694582
 20
202.4367
 30
0.0
 11
98.315748
 21
200.118478
 31
0.0
  0
LINE
  5
EC
100
AcDbEntity
  8
2
  6
CONTINUOUS
 62
   134
100
AcDbLine
 10
97.694582
 20
202.4367
 30
0.0
 11
97.073416
 21
200.118478
 31
0.0
  0
LINE
  5
ED
100
AcDbEntity
  8
2
  6
CONTINUOUS
 62
   134
100
AcDbLine
 10
97.694582
 20
142.4367
 30
0.0
 11
97.073416
 21
144.754922
 31
0.0
  0
LINE
  5
EE
100
AcDbEntity
  8
2
  6
CONTINUOUS
 62
   134
100
AcDbLine
 10
97.694582
 20
142.4367
 30
0.0
 11
98.315748
 21
144.754922
 31
0.0
  0
TEXT
  5
EF
100
AcDbEntity
  8
2
  6
CONTINUOUS
 62
   134
100
AcDbText
 10
97.194582
 20
168.483328
 30
0.0
 40
3.0
  1
60
 50
90.0
 41
0.533333
 11
97.194582
 21
168.483328
 31
0.0
100
AcDbText
 73
     1
  0
ENDBLK
  5
F0
100
AcDbEntity
  8
2
  6
CONTINUOUS
 62
   134
100
AcDbBlockEnd
  0
BLOCK
  5
F3
100
AcDbEntity
  8
2
  6
CONTINUOUS
 62
   134
100
AcDbBlockBegin
  2
*D2
 70
     0
 10
0.0
 20
0.0
 30
0.0
  3
*D2
  1

  0
LINE
  5
F4
100
AcDbEntity
  8
2
  6
CONTINUOUS
 62
   134
100
AcDbLine
 10
178.728
 20
210.083328
 30
0.0
 11
108.728
 21
210.083328
 31
0.0
  0
LINE
  5
F5
100
AcDbEntity
  8
2
  6
CONTINUOUS
 62
   134
100
AcDbLine
 10
178.728
 20
212.083328
 30
0.0
 11
178.728
 21
209.4367
 31
0.0
  0
LINE
  5
F6
100
AcDbEntity
  8
2
  6
CONTINUOUS
 62
   134
100
AcDbLine
 10
108.728
 20
212.083328
 30
0.0
 11
108.728
 21
209.4367
 31
0.0
  0
LINE
  5
F7
100
AcDbEntity
  8
2
  6
CONTINUOUS
 62
   134
100
AcDbLine
 10
178.728
 20
210.083328
 30
0.0
 11
176.409778
 21
209.462162
 31
0.0
  0
LINE
  5
F8
100
AcDbEntity
  8
2
  6
CONTINUOUS
 62
   134
100
AcDbLine
 10
178.728
 20
210.083328
 30
0.0
 11
176.409778
 21
210.704493
 31
0.0
  0
LINE
  5
F9
100
AcDbEntity
  8
2
  6
CONTINUOUS
 62
   134
100
AcDbLine
 10
108.728
 20
210.083328
 30
0.0
 11
111.046222
 21
210.704493
 31
0.0
  0
LINE
  5
FA
100
AcDbEntity
  8
2
  6
CONTINUOUS
 62
   134
100
AcDbLine
 10
108.728
 20
210.083328
 30
0.0
 11
111.046222
 21
209.462162
 31
0.0
  0
TEXT
  5
FB
100
AcDbEntity
  8
2
  6
CONTINUOUS
 62
   134
100
AcDbText
 10
137.069349
 20
210.583328
 30
0.0
 40
3.0
  1
70
 41
0.533333
 11
137.069349
 21
210.583328
 31
0.0
100
AcDbText
 73
     1
  0
ENDBLK
  5
FC
100
AcDbEntity
  8
2
  6
CONTINUOUS
 62
   134
100
AcDbBlockEnd
  0
BLOCK
  5
10F
100
AcDbEntity
  8
2
  6
CONTINUOUS
 62
   134
100
AcDbBlockBegin
  2
*D3
 70
     0
 10
0.0
 20
0.0
 30
0.0
  3
*D3
  1

  0
LINE
  5
110
100
AcDbEntity
  8
2
  6
CONTINUOUS
 62
   134
100
AcDbLine
 10
238.869409
 20
250.190683
 30
0.0
 11
278.869409
 21
250.190683
 31
0.0
  0
LINE
  5
111
100
AcDbEntity
  8
2
  6
CONTINUOUS
 62
   134
100
AcDbLine
 10
238.869409
 20
251.190683
 30
0.0
 11
238.869409
 21
228.4367
 31
0.0
  0
LINE
  5
112
100
AcDbEntity
  8
2
  6
CONTINUOUS
 62
   134
100
AcDbLine
 10
278.869409
 20
251.190683
 30
0.0
 11
278.869409
 21
228.4367
 31
0.0
  0
LINE
  5
113
100
AcDbEntity
  8
2
  6
CONTINUOUS
 62
   134
100
AcDbLine
 10
238.869409
 20
250.190683
 30
0.0
 11
241.767186
 21
250.96714
 31
0.0
  0
LINE
  5
114
100
AcDbEntity
  8
2
  6
CONTINUOUS
 62
   134
100
AcDbLine
 10
238.869409
 20
250.190683
 30
0.0
 11
241.767186
 21
249.414226
 31
0.0
  0
LINE
  5
115
100
AcDbEntity
  8
2
  6
CONTINUOUS
 62
   134
100
AcDbLine
 10
278.869409
 20
250.190683
 30
0.0
 11
275.971631
 21
249.414226
 31
0.0
  0
LINE
  5
116
100
AcDbEntity
  8
2
  6
CONTINUOUS
 62
   134
100
AcDbLine
 10
278.869409
 20
250.190683
 30
0.0
 11
275.971631
 21
250.96714
 31
0.0
  0
TEXT
  5
117
100
AcDbEntity
  8
2
  6
CONTINUOUS
 62
   134
100
AcDbText
 10
256.619409
 20
250.190683
 30
0.0
 40
4.5
  1
40
 41
0.5
 11
256.619409
 21
250.190683
 31
0.0
100
AcDbText
 73
     1
  0
ENDBLK
  5
118
100
AcDbEntity
  8
2
  6
CONTINUOUS
 62
   134
100
AcDbBlockEnd
  0
BLOCK
  5
11B
100
AcDbEntity
  8
2
  6
CONTINUOUS
 62
   134
100
AcDbBlockBegin
  2
*D4
 70
     0
 10
0.0
 20
0.0
 30
0.0
  3
*D4
  1

  0
LINE
  5
11C
100
AcDbEntity
  8
2
  6
CONTINUOUS
 62
   134
100
AcDbLine
 10
47.968891
 20
95.074045
 30
0.0
 11
47.968891
 21
55.074045
 31
0.0
  0
LINE
  5
11D
100
AcDbEntity
  8
2
  6
CONTINUOUS
 62
   134
100
AcDbLine
 10
46.968891
 20
95.074045
 30
0.0
 11
67.728
 21
95.074045
 31
0.0
  0
LINE
  5
11E
100
AcDbEntity
  8
2
  6
CONTINUOUS
 62
   134
100
AcDbLine
 10
46.968891
 20
55.074045
 30
0.0
 11
67.728
 21
55.074045
 31
0.0
  0
LINE
  5
11F
100
AcDbEntity
  8
2
  6
CONTINUOUS
 62
   134
100
AcDbLine
 10
47.968891
 20
95.074045
 30
0.0
 11
48.745348
 21
92.176268
 31
0.0
  0
LINE
  5
120
100
AcDbEntity
  8
2
  6
CONTINUOUS
 62
   134
100
AcDbLine
 10
47.968891
 20
95.074045
 30
0.0
 11
47.192434
 21
92.176268
 31
0.0
  0
LINE
  5
121
100
AcDbEntity
  8
2
  6
CONTINUOUS
 62
   134
100
AcDbLine
 10
47.968891
 20
55.074045
 30
0.0
 11
47.192434
 21
57.971823
 31
0.0
  0
LINE
  5
122
100
AcDbEntity
  8
2
  6
CONTINUOUS
 62
   134
100
AcDbLine
 10
47.968891
 20
55.074045
 30
0.0
 11
48.745348
 21
57.971823
 31
0.0
  0
TEXT
  5
123
100
AcDbEntity
  8
2
  6
CONTINUOUS
 62
   134
100
AcDbText
 10
47.968891
 20
72.824045
 30
0.0
 40
4.5
  1
40
 50
90.0
 41
0.5
 11
47.968891
 21
72.824045
 31
0.0
100
AcDbText
 73
     1
  0
ENDBLK
  5
124
100
AcDbEntity
  8
2
  6
CONTINUOUS
 62
   134
100
AcDbBlockEnd
  0
BLOCK
  5
127
100
AcDbEntity
  8
2
  6
CONTINUOUS
 62
   134
100
AcDbBlockBegin
  2
*D5
 70
     0
 10
0.0
 20
0.0
 30
0.0
  3
*D5
  1

  0
LINE
  5
128
100
AcDbEntity
  8
2
  6
CONTINUOUS
 62
   134
100
AcDbLine
 10
68.728
 20
250.190683
 30
0.0
 11
218.728
 21
250.190683
 31
0.0
  0
LINE
  5
129
100
AcDbEntity
  8
2
  6
CONTINUOUS
 62
   134
100
AcDbLine
 10
68.728
 20
251.190683
 30
0.0
 11
68.728
 21
228.4367
 31
0.0
  0
LINE
  5
12A
100
AcDbEntity
  8
2
  6
CONTINUOUS
 62
   134
100
AcDbLine
 10
218.728
 20
251.190683
 30
0.0
 11
218.728
 21
228.4367
 31
0.0
  0
LINE
  5
12B
100
AcDbEntity
  8
2
  6
CONTINUOUS
 62
   134
100
AcDbLine
 10
68.728
 20
250.190683
 30
0.0
 11
71.625777
 21
250.96714
 31
0.0
  0
LINE
  5
12C
100
AcDbEntity
  8
2
  6
CONTINUOUS
 62
   134
100
AcDbLine
 10
68.728
 20
250.190683
 30
0.0
 11
71.625777
 21
249.414226
 31
0.0
  0
LINE
  5
12D
100
AcDbEntity
  8
2
  6
CONTINUOUS
 62
   134
100
AcDbLine
 10
218.728
 20
250.190683
 30
0.0
 11
215.830223
 21
249.414226
 31
0.0
  0
LINE
  5
12E
100
AcDbEntity
  8
2
  6
CONTINUOUS
 62
   134
100
AcDbLine
 10
218.728
 20
250.190683
 30
0.0
 11
215.830223
 21
250.96714
 31
0.0
  0
TEXT
  5
12F
100
AcDbEntity
  8
2
  6
CONTINUOUS
 62
   134
100
AcDbText
 10
140.353
 20
250.190683
 30
0.0
 40
4.5
  1
150
 41
0.5
 11
140.353
 21
250.190683
 31
0.0
100
AcDbText
 73
     1
  0
ENDBLK
  5
130
100
AcDbEntity
  8
2
  6
CONTINUOUS
 62
   134
100
AcDbBlockEnd
  0
BLOCK
  5
133
100
AcDbEntity
  8
2
  6
CONTINUOUS
 62
   134
100
AcDbBlockBegin
  2
*D6
 70
     0
 10
0.0
 20
0.0
 30
0.0
  3
*D6
  1

  0
LINE
  5
134
100
AcDbEntity
  8
2
  6
CONTINUOUS
 62
   134
100
AcDbLine
 10
47.968891
 20
227.4367
 30
0.0
 11
47.968891
 21
117.4367
 31
0.0
  0
LINE
  5
135
100
AcDbEntity
  8
2
  6
CONTINUOUS
 62
   134
100
AcDbLine
 10
46.968891
 20
227.4367
 30
0.0
 11
67.728
 21
227.4367
 31
0.0
  0
LINE
  5
136
100
AcDbEntity
  8
2
  6
CONTINUOUS
 62
   134
100
AcDbLine
 10
46.968891
 20
117.4367
 30
0.0
 11
67.728
 21
117.4367
 31
0.0
  0
LINE
  5
137
100
AcDbEntity
  8
2
  6
CONTINUOUS
 62
   134
100
AcDbLine
 10
47.968891
 20
227.4367
 30
0.0
 11
48.745348
 21
224.538923
 31
0.0
  0
LINE
  5
138
100
AcDbEntity
  8
2
  6
CONTINUOUS
 62
   134
100
AcDbLine
 10
47.968891
 20
227.4367
 30
0.0
 11
47.192434
 21
224.538923
 31
0.0
  0
LINE
  5
139
100
AcDbEntity
  8
2
  6
CONTINUOUS
 62
   134
100
AcDbLine
 10
47.968891
 20
117.4367
 30
0.0
 11
47.192434
 21
120.334477
 31
0.0
  0
LINE
  5
13A
100
AcDbEntity
  8
2
  6
CONTINUOUS
 62
   134
100
AcDbLine
 10
47.968891
 20
117.4367
 30
0.0
 11
48.745348
 21
120.334477
 31
0.0
  0
TEXT
  5
13B
100
AcDbEntity
  8
2
  6
CONTINUOUS
 62
   134
100
AcDbText
 10
47.968891
 20
169.0617
 30
0.0
 40
4.5
  1
110
 50
90.0
 41
0.5
 11
47.968891
 21
169.0617
 31
0.0
100
AcDbText
 73
     1
  0
ENDBLK
  5
13C
100
AcDbEntity
  8
2
  6
CONTINUOUS
 62
   134
100
AcDbBlockEnd
  0
BLOCK
  5
13F
100
AcDbEntity
  8
2
  6
CONTINUOUS
 62
   134
100
AcDbBlockBegin
  2
*D7
 70
     0
 10
0.0
 20
0.0
 30
0.0
  3
*D7
  1

  0
LINE
  5
140
100
AcDbEntity
  8
2
  6
CONTINUOUS
 62
   134
100
AcDbLine
 10
56.972218
 20
214.9367
 30
0.0
 11
56.972218
 21
129.9367
 31
0.0
  0
LINE
  5
141
100
AcDbEntity
  8
2
  6
CONTINUOUS
 62
   134
100
AcDbLine
 10
55.972218
 20
214.9367
 30
0.0
 11
79.328
 21
214.9367
 31
0.0
  0
LINE
  5
142
100
AcDbEntity
  8
2
  6
CONTINUOUS
 62
   134
100
AcDbLine
 10
55.972218
 20
129.9367
 30
0.0
 11
79.328
 21
129.9367
 31
0.0
  0
LINE
  5
143
100
AcDbEntity
  8
2
  6
CONTINUOUS
 62
   134
100
AcDbLine
 10
56.972218
 20
214.9367
 30
0.0
 11
57.748676
 21
212.038923
 31
0.0
  0
LINE
  5
144
100
AcDbEntity
  8
2
  6
CONTINUOUS
 62
   134
100
AcDbLine
 10
56.972218
 20
214.9367
 30
0.0
 11
56.195761
 21
212.038923
 31
0.0
  0
LINE
  5
145
100
AcDbEntity
  8
2
  6
CONTINUOUS
 62
   134
100
AcDbLine
 10
56.972218
 20
129.9367
 30
0.0
 11
56.195761
 21
132.834477
 31
0.0
  0
LINE
  5
146
100
AcDbEntity
  8
2
  6
CONTINUOUS
 62
   134
100
AcDbLine
 10
56.972218
 20
129.9367
 30
0.0
 11
57.748676
 21
132.834477
 31
0.0
  0
TEXT
  5
147
100
AcDbEntity
  8
2
  6
CONTINUOUS
 62
   134
100
AcDbText
 10
56.972218
 20
170.1867
 30
0.0
 40
4.5
  1
85
 50
90.0
 41
0.5
 11
56.972218
 21
170.1867
 31
0.0
100
AcDbText
 73
     1
  0
ENDBLK
  5
148
100
AcDbEntity
  8
2
  6
CONTINUOUS
 62
   134
100
AcDbBlockEnd
  0
BLOCK
  5
14B
100
AcDbEntity
  8
2
  6
CONTINUOUS
 62
   134
100
AcDbBlockBegin
  2
*D8
 70
     0
 10
0.0
 20
0.0
 30
0.0
  3
*D8
  1

  0
LINE
  5
14C
100
AcDbEntity
  8
2
  6
CONTINUOUS
 62
   134
100
AcDbLine
 10
83.728
 20
240.025636
 30
0.0
 11
203.728
 21
240.025636
 31
0.0
  0
LINE
  5
14D
100
AcDbEntity
  8
2
  6
CONTINUOUS
 62
   134
100
AcDbLine
 10
83.728
 20
241.025636
 30
0.0
 11
83.728
 21
219.3367
 31
0.0
  0
LINE
  5
14E
100
AcDbEntity
  8
2
  6
CONTINUOUS
 62
   134
100
AcDbLine
 10
203.728
 20
241.025636
 30
0.0
 11
203.728
 21
219.3367
 31
0.0
  0
LINE
  5
14F
100
AcDbEntity
  8
2
  6
CONTINUOUS
 62
   134
100
AcDbLine
 10
83.728
 20
240.025636
 30
0.0
 11
86.625777
 21
240.802093
 31
0.0
  0
LINE
  5
150
100
AcDbEntity
  8
2
  6
CONTINUOUS
 62
   134
100
AcDbLine
 10
83.728
 20
240.025636
 30
0.0
 11
86.625777
 21
239.249179
 31
0.0
  0
LINE
  5
151
100
AcDbEntity
  8
2
  6
CONTINUOUS
 62
   134
100
AcDbLine
 10
203.728
 20
240.025636
 30
0.0
 11
200.830223
 21
239.249179
 31
0.0
  0
LINE
  5
152
100
AcDbEntity
  8
2
  6
CONTINUOUS
 62
   134
100
AcDbLine
 10
203.728
 20
240.025636
 30
0.0
 11
200.830223
 21
240.802093
 31
0.0
  0
TEXT
  5
153
100
AcDbEntity
  8
2
  6
CONTINUOUS
 62
   134
100
AcDbText
 10
140.353
 20
240.025636
 30
0.0
 40
4.5
  1
120
 41
0.5
 11
140.353
 21
240.025636
 31
0.0
100
AcDbText
 73
     1
  0
ENDBLK
  5
154
100
AcDbEntity
  8
2
  6
CONTINUOUS
 62
   134
100
AcDbBlockEnd
  0
BLOCK
  5
157
100
AcDbEntity
  8
2
  6
CONTINUOUS
 62
   134
100
AcDbBlockBegin
  2
*D9
 70
     0
 10
0.0
 20
0.0
 30
0.0
  3
*D9
  1

  0
LINE
  5
158
100
AcDbEntity
  8
2
  6
CONTINUOUS
 62
   134
100
AcDbLine
 10
229.068191
 20
134.9367
 30
0.0
 11
229.068191
 21
117.4367
 31
0.0
  0
LINE
  5
159
100
AcDbEntity
  8
2
  6
CONTINUOUS
 62
   134
100
AcDbLine
 10
230.068191
 20
134.9367
 30
0.0
 11
209.728
 21
134.9367
 31
0.0
  0
LINE
  5
15A
100
AcDbEntity
  8
2
  6
CONTINUOUS
 62
   134
100
AcDbLine
 10
230.068191
 20
117.4367
 30
0.0
 11
219.728
 21
117.4367
 31
0.0
  0
LINE
  5
15B
100
AcDbEntity
  8
2
  6
CONTINUOUS
 62
   134
100
AcDbLine
 10
229.068191
 20
134.9367
 30
0.0
 11
229.844648
 21
132.038923
 31
0.0
  0
LINE
  5
15C
100
AcDbEntity
  8
2
  6
CONTINUOUS
 62
   134
100
AcDbLine
 10
229.068191
 20
134.9367
 30
0.0
 11
228.291734
 21
132.038923
 31
0.0
  0
LINE
  5
15D
100
AcDbEntity
  8
2
  6
CONTINUOUS
 62
   134
100
AcDbLine
 10
229.068191
 20
117.4367
 30
0.0
 11
228.291734
 21
120.334477
 31
0.0
  0
LINE
  5
15E
100
AcDbEntity
  8
2
  6
CONTINUOUS
 62
   134
100
AcDbLine
 10
229.068191
 20
117.4367
 30
0.0
 11
229.844648
 21
120.334477
 31
0.0
  0
TEXT
  5
15F
100
AcDbEntity
  8
2
  6
CONTINUOUS
 62
   134
100
AcDbText
 10
229.068191
 20
121.6867
 30
0.0
 40
4.5
  1
17.5
 50
90.0
 41
0.555556
 11
229.068191
 21
121.6867
 31
0.0
100
AcDbText
 73
     1
  0
ENDBLK
  5
160
100
AcDbEntity
  8
2
  6
CONTINUOUS
 62
   134
100
AcDbBlockEnd
  0
BLOCK
  5
16B
100
AcDbEntity
  8
2
  6
CONTINUOUS
 62
   134
100
AcDbBlockBegin
  2
*D10
 70
     0
 10
0.0
 20
0.0
 30
0.0
  3
*D10
  1

  0
LINE
  5
16C
100
AcDbEntity
  8
2
  6
CONTINUOUS
 62
   134
100
AcDbLine
 10
198.728
 20
102.931091
 30
0.0
 11
218.728
 21
102.931091
 31
0.0
  0
LINE
  5
16D
100
AcDbEntity
  8
2
  6
CONTINUOUS
 62
   134
100
AcDbLine
 10
198.728
 20
101.931091
 30
0.0
 11
198.728
 21
116.4367
 31
0.0
  0
LINE
  5
16E
100
AcDbEntity
  8
2
  6
CONTINUOUS
 62
   134
100
AcDbLine
 10
218.728
 20
101.931091
 30
0.0
 11
218.728
 21
116.4367
 31
0.0
  0
LINE
  5
16F
100
AcDbEntity
  8
2
  6
CONTINUOUS
 62
   134
100
AcDbLine
 10
198.728
 20
102.931091
 30
0.0
 11
201.625777
 21
103.707548
 31
0.0
  0
LINE
  5
170
100
AcDbEntity
  8
2
  6
CONTINUOUS
 62
   134
100
AcDbLine
 10
198.728
 20
102.931091
 30
0.0
 11
201.625777
 21
102.154634
 31
0.0
  0
LINE
  5
171
100
AcDbEntity
  8
2
  6
CONTINUOUS
 62
   134
100
AcDbLine
 10
218.728
 20
102.931091
 30
0.0
 11
215.830223
 21
102.154634
 31
0.0
  0
LINE
  5
172
100
AcDbEntity
  8
2
  6
CONTINUOUS
 62
   134
100
AcDbLine
 10
218.728
 20
102.931091
 30
0.0
 11
215.830223
 21
103.707548
 31
0.0
  0
TEXT
  5
173
100
AcDbEntity
  8
2
  6
CONTINUOUS
 62
   134
100
AcDbText
 10
206.478
 20
102.931091
 30
0.0
 40
4.5
  1
20
 41
0.5
 11
206.478
 21
102.931091
 31
0.0
100
AcDbText
 73
     1
  0
ENDBLK
  5
174
100
AcDbEntity
  8
2
  6
CONTINUOUS
 62
   134
100
AcDbBlockEnd
  0
ENDSEC
  0
SECTION
  2
ENTITIES
  0
LINE
  5
41
100
AcDbEntity
  8
15
  6
CONTINUOUS
 62
    96
100
AcDbLine
 10
15.0
 20
272.075792
 30
0.0
 11
15.0
 21
15.0
 31
0.0
  0
LINE
  5
42
100
AcDbEntity
  8
15
  6
CONTINUOUS
 62
    96
100
AcDbLine
 10
15.0
 20
15.0
 30
0.0
 11
400.113541
 21
15.0
 31
0.0
  0
LINE
  5
43
100
AcDbEntity
  8
15
  6
CONTINUOUS
 62
    96
100
AcDbLine
 10
364.439504
 20
20.701777
 30
0.0
 11
351.973166
 21
20.701777
 31
0.0
  0
TEXT
  5
44
100
AcDbEntity
  8
15
  6
CONTINUOUS
 62
    96
100
AcDbText
 10
334.204685
 20
19.691141
 30
0.0
 40
1.800531
  1
出入管理システム
 41
1.018519
 11
334.204685
 21
19.691141
 31
0.0
100
AcDbText
 73
     1
  0
TEXT
  5
45
100
AcDbEntity
  8
15
  6
CONTINUOUS
 62
    96
100
AcDbText
 10
334.275263
 20
15.809317
 30
0.0
 40
3.601062
  1
株式会社
 41
1.753472
 11
334.275263
 21
15.809317
 31
0.0
100
AcDbText
 73
     1
  0
LINE
  5
46
100
AcDbEntity
  8
15
  6
CONTINUOUS
 62
    96
100
AcDbLine
 10
314.378399
 20
15.87882
 30
0.0
 11
317.546185
 21
15.87882
 31
0.0
  0
LINE
  5
47
100
AcDbEntity
  8
15
  6
CONTINUOUS
 62
    96
100
AcDbLine
 10
333.019187
 20
19.728548
 30
0.0
 11
333.019187
 21
20.94425
 31
0.0
  0
LINE
  5
48
100
AcDbEntity
  8
15
  6
CONTINUOUS
 62
    96
100
AcDbLine
 10
331.702181
 20
19.728548
 30
0.0
 11
333.019187
 21
19.728548
 31
0.0
  0
LINE
  5
49
100
AcDbEntity
  8
15
  6
CONTINUOUS
 62
    96
100
AcDbLine
 10
331.702181
 20
15.87882
 30
0.0
 11
331.702181
 21
19.728548
 31
0.0
  0
LINE
  5
4A
100
AcDbEntity
  8
15
  6
CONTINUOUS
 62
    96
100
AcDbLine
 10
330.283859
 20
15.87882
 30
0.0
 11
331.702181
 21
15.87882
 31
0.0
  0
LINE
  5
4B
100
AcDbEntity
  8
15
  6
CONTINUOUS
 62
    96
100
AcDbLine
 10
329.431558
 20
15.87882
 30
0.0
 11
327.649835
 21
15.87882
 31
0.0
  0
LINE
  5
4C
100
AcDbEntity
  8
15
  6
CONTINUOUS
 62
    96
100
AcDbLine
 10
320.254304
 20
15.87882
 30
0.0
 11
324.610571
 21
15.87882
 31
0.0
  0
LINE
  5
4D
100
AcDbEntity
  8
15
  6
CONTINUOUS
 62
    96
100
AcDbLine
 10
320.254304
 20
18.0063
 30
0.0
 11
320.254304
 21
15.87882
 31
0.0
  0
LINE
  5
4E
100
AcDbEntity
  8
15
  6
CONTINUOUS
 62
    96
100
AcDbLine
 10
317.546185
 20
15.87882
 30
0.0
 11
322.483094
 21
20.766848
 31
0.0
  0
LINE
  5
4F
100
AcDbEntity
  8
15
  6
CONTINUOUS
 62
    96
100
AcDbLine
 10
322.483094
 20
20.766848
 30
0.0
 11
322.483094
 21
18.0063
 31
0.0
  0
LINE
  5
50
100
AcDbEntity
  8
15
  6
CONTINUOUS
 62
    96
100
AcDbLine
 10
322.483094
 20
18.0063
 30
0.0
 11
320.254304
 21
18.0063
 31
0.0
  0
LINE
  5
51
100
AcDbEntity
  8
15
  6
CONTINUOUS
 62
    96
100
AcDbLine
 10
324.610571
 20
18.71546
 30
0.0
 11
327.649835
 21
15.87882
 31
0.0
  0
ARC
  5
52
100
AcDbEntity
  8
15
  6
CONTINUOUS
 62
    96
100
AcDbCircle
 10
327.041981
 20
19.222004
 30
0.0
 40
0.506544
100
AcDbArc
 50
-90.0
 51
90.0
  0
LINE
  5
53
100
AcDbEntity
  8
15
  6
CONTINUOUS
 62
    96
100
AcDbLine
 10
324.610571
 20
18.71546
 30
0.0
 11
327.041981
 21
18.71546
 31
0.0
  0
LINE
  5
54
100
AcDbEntity
  8
15
  6
CONTINUOUS
 62
    96
100
AcDbLine
 10
325.015808
 20
19.728548
 30
0.0
 11
327.041981
 21
19.728548
 31
0.0
  0
LINE
  5
55
100
AcDbEntity
  8
15
  6
CONTINUOUS
 62
    96
100
AcDbLine
 10
325.015808
 20
20.94425
 30
0.0
 11
325.015808
 21
19.728548
 31
0.0
  0
LINE
  5
56
100
AcDbEntity
  8
15
  6
CONTINUOUS
 62
    96
100
AcDbLine
 10
325.015808
 20
20.94425
 30
0.0
 11
327.425889
 21
20.94425
 31
0.0
  0
ARC
  5
57
100
AcDbEntity
  8
15
  6
CONTINUOUS
 62
    96
100
AcDbCircle
 10
327.233933
 20
19.222004
 30
0.0
 40
1.73291
100
AcDbArc
 50
-76.055153
 51
83.640296
  0
LINE
  5
58
100
AcDbEntity
  8
15
  6
CONTINUOUS
 62
    96
100
AcDbLine
 10
327.649835
 20
17.541763
 30
0.0
 11
329.431558
 21
15.87882
 31
0.0
  0
LINE
  5
59
100
AcDbEntity
  8
15
  6
CONTINUOUS
 62
    96
100
AcDbLine
 10
333.019187
 20
20.94425
 30
0.0
 11
328.966843
 21
20.94425
 31
0.0
  0
LINE
  5
5A
100
AcDbEntity
  8
15
  6
CONTINUOUS
 62
    96
100
AcDbLine
 10
328.966843
 20
20.94425
 30
0.0
 11
328.966843
 21
19.728548
 31
0.0
  0
LINE
  5
5B
100
AcDbEntity
  8
15
  6
CONTINUOUS
 62
    96
100
AcDbLine
 10
328.966843
 20
19.728548
 30
0.0
 11
330.283859
 21
19.728548
 31
0.0
  0
LINE
  5
5C
100
AcDbEntity
  8
15
  6
CONTINUOUS
 62
    96
100
AcDbLine
 10
330.283859
 20
19.728548
 30
0.0
 11
330.283859
 21
15.87882
 31
0.0
  0
LINE
  5
5D
100
AcDbEntity
  8
15
  6
CONTINUOUS
 62
    96
100
AcDbLine
 10
310.086999
 20
15.0
 30
0.0
 11
310.086999
 21
60.013278
 31
0.0
  0
LINE
  5
5E
100
AcDbEntity
  8
15
  6
CONTINUOUS
 62
    96
100
AcDbLine
 10
310.086999
 20
51.010624
 30
0.0
 11
400.113541
 21
51.010624
 31
0.0
  0
LINE
  5
5F
100
AcDbEntity
  8
15
  6
CONTINUOUS
 62
    96
100
AcDbLine
 10
310.086999
 20
51.010617
 30
0.0
 11
400.113541
 21
51.010624
 31
0.0
  0
LINE
  5
60
100
AcDbEntity
  8
15
  6
CONTINUOUS
 62
    96
100
AcDbLine
 10
400.113541
 20
27.003546
 30
0.0
 11
310.086999
 21
27.003539
 31
0.0
  0
LINE
  5
61
100
AcDbEntity
  8
15
  6
CONTINUOUS
 62
    96
100
AcDbLine
 10
325.091422
 20
33.00531
 30
0.0
 11
325.091422
 21
27.00354
 31
0.0
  0
LINE
  5
62
100
AcDbEntity
  8
15
  6
CONTINUOUS
 62
    96
100
AcDbLine
 10
324.610571
 20
15.87882
 30
0.0
 11
324.610571
 21
26.009681
 31
0.0
  0
LINE
  5
63
100
AcDbEntity
  8
15
  6
CONTINUOUS
 62
    96
100
AcDbLine
 10
324.610571
 20
26.009681
 30
0.0
 11
314.378399
 21
15.87882
 31
0.0
  0
INSERT
  5
68
100
AcDbEntity
  8
1
  6
CONTINUOUS
 62
     7
100
AcDbBlockReference
  2
*G0
 10
0.0
 20
0.0
 30
0.0
  0
TEXT
  5
69
100
AcDbEntity
  8
15
  6
CONTINUOUS
 62
    96
100
AcDbText
 10
366.612483
 20
15.386992
 30
0.0
 40
10.002949
  1
アート
 41
0.833333
 11
366.612483
 21
15.386992
 31
0.0
100
AcDbText
 73
     1
  0
LINE
  5
6A
100
AcDbEntity
  8
15
  6
CONTINUOUS
 62
    96
100
AcDbLine
 10
325.091422
 20
42.007963
 30
0.0
 11
325.091422
 21
33.00531
 31
0.0
  0
LINE
  5
6B
100
AcDbEntity
  8
15
  6
CONTINUOUS
 62
    96
100
AcDbLine
 10
350.098795
 20
42.007963
 30
0.0
 11
350.098795
 21
33.005311
 31
0.0
  0
LINE
  5
6C
100
AcDbEntity
  8
15
  6
CONTINUOUS
 62
    96
100
AcDbLine
 10
375.106168
 20
42.007963
 30
0.0
 11
375.106168
 21
33.005313
 31
0.0
  0
LINE
  5
6D
100
AcDbEntity
  8
15
  6
CONTINUOUS
 62
    96
100
AcDbLine
 10
310.086999
 20
266.57417
 30
0.0
 11
400.113541
 21
266.57417
 31
0.0
  0
LINE
  5
6E
100
AcDbEntity
  8
15
  6
CONTINUOUS
 62
    96
100
AcDbLine
 10
310.086999
 20
261.072548
 30
0.0
 11
400.113541
 21
261.072548
 31
0.0
  0
LINE
  5
6F
100
AcDbEntity
  8
15
  6
CONTINUOUS
 62
    96
100
AcDbLine
 10
310.086999
 20
272.075792
 30
0.0
 11
310.086999
 21
72.516964
 31
0.0
  0
LINE
  5
70
100
AcDbEntity
  8
15
  6
CONTINUOUS
 62
    96
100
AcDbLine
 10
310.086999
 20
60.013278
 30
0.0
 11
310.086999
 21
72.516964
 31
0.0
  0
LINE
  5
71
100
AcDbEntity
  8
15
  6
CONTINUOUS
 62
    96
100
AcDbLine
 10
15.0
 20
272.075792
 30
0.0
 11
400.1138
 21
272.075792
 31
0.0
  0
LINE
  5
72
100
AcDbEntity
  8
15
  6
CONTINUOUS
 62
    96
100
AcDbLine
 10
400.1138
 20
14.999677
 30
0.0
 11
400.1138
 21
272.075469
 31
0.0
  0
LINE
  5
73
100
AcDbEntity
  8
15
  6
CONTINUOUS
 62
    96
100
AcDbLine
 10
310.086478
 20
59.513124
 30
0.0
 11
400.11302
 21
59.513124
 31
0.0
  0
LINE
  5
74
100
AcDbEntity
  8
15
  6
CONTINUOUS
 62
    96
100
AcDbLine
 10
334.952657
 20
272.075792
 30
0.0
 11
334.952657
 21
266.57417
 31
0.0
  0
LINE
  5
75
100
AcDbEntity
  8
15
  6
CONTINUOUS
 62
    96
100
AcDbLine
 10
310.086478
 20
65.014746
 30
0.0
 11
400.11302
 21
65.014746
 31
0.0
  0
LINE
  5
76
100
AcDbEntity
  8
15
  6
CONTINUOUS
 62
    96
100
AcDbLine
 10
310.086478
 20
59.513124
 30
0.0
 11
400.11302
 21
59.513124
 31
0.0
  0
LINE
  5
77
100
AcDbEntity
  8
15
  6
CONTINUOUS
 62
    96
100
AcDbLine
 10
335.09385
 20
65.014746
 30
0.0
 11
335.09385
 21
59.513124
 31
0.0
  0
LINE
  5
78
100
AcDbEntity
  8
15
  6
CONTINUOUS
 62
    96
100
AcDbLine
 10
310.086478
 20
59.513124
 30
0.0
 11
400.11302
 21
59.513124
 31
0.0
  0
LINE
  5
79
100
AcDbEntity
  8
15
  6
CONTINUOUS
 62
    96
100
AcDbLine
 10
355.120501
 20
33.003542
 30
0.0
 11
355.120501
 21
27.003542
 31
0.0
  0
LINE
  5
7A
100
AcDbEntity
  8
15
  6
CONTINUOUS
 62
    96
100
AcDbLine
 10
362.120501
 20
33.003547
 30
0.0
 11
362.120501
 21
27.003547
 31
0.0
  0
LINE
  5
7B
100
AcDbEntity
  8
15
  6
CONTINUOUS
 62
    96
100
AcDbLine
 10
388.113541
 20
33.003545
 30
0.0
 11
388.113541
 21
27.003545
 31
0.0
  0
LINE
  5
7C
100
AcDbEntity
  8
15
  6
CONTINUOUS
 62
    96
100
AcDbLine
 10
391.16423
 20
32.243545
 30
0.0
 11
391.16423
 21
27.763545
 31
0.0
  0
CIRCLE
  5
7D
100
AcDbEntity
  8
15
  6
CONTINUOUS
 62
    96
100
AcDbCircle
 10
391.16423
 20
30.003545
 30
0.0
 40
0.96
  0
CIRCLE
  5
7E
100
AcDbEntity
  8
15
  6
CONTINUOUS
 62
    96
100
AcDbCircle
 10
391.16423
 20
30.003545
 30
0.0
 40
1.6
  0
LINE
  5
7F
100
AcDbEntity
  8
15
  6
CONTINUOUS
 62
    96
100
AcDbLine
 10
393.803501
 20
30.963545
 30
0.0
 11
393.803501
 21
29.043545
 31
0.0
  0
LINE
  5
80
100
AcDbEntity
  8
15
  6
CONTINUOUS
 62
    96
100
AcDbLine
 10
398.923501
 20
31.603545
 30
0.0
 11
398.923501
 21
28.403545
 31
0.0
  0
LINE
  5
81
100
AcDbEntity
  8
15
  6
CONTINUOUS
 62
    96
100
AcDbLine
 10
393.803501
 20
30.963545
 30
0.0
 11
398.923501
 21
31.603545
 31
0.0
  0
LINE
  5
82
100
AcDbEntity
  8
15
  6
CONTINUOUS
 62
    96
100
AcDbLine
 10
393.803501
 20
29.043545
 30
0.0
 11
398.923501
 21
28.403545
 31
0.0
  0
LINE
  5
83
100
AcDbEntity
  8
15
  6
CONTINUOUS
 62
    96
100
AcDbLine
 10
388.92423
 20
30.003545
 30
0.0
 11
399.469501
 21
30.003545
 31
0.0
  0
LINE
  5
84
100
AcDbEntity
  8
15
  6
CONTINUOUS
 62
    96
100
AcDbLine
 10
400.1138
 20
33.005315
 30
0.0
 11
310.086999
 21
33.005308
 31
0.0
  0
LINE
  5
85
100
AcDbEntity
  8
15
  6
CONTINUOUS
 62
    96
100
AcDbLine
 10
310.086999
 20
42.007963
 30
0.0
 11
400.1138
 21
42.007963
 31
0.0
  0
LINE
  5
86
100
AcDbEntity
  8
15
  6
CONTINUOUS
 62
    96
100
AcDbLine
 10
400.258996
 20
145.434796
 30
0.0
 11
400.258996
 21
147.566861
 31
0.0
  0
TEXT
  5
87
100
AcDbEntity
  8
15
  6
PHANTOM
 62
    96
100
AcDbText
 10
314.690685
 20
267.824981
 30
0.0
 40
3.0
  1
商品コード
 41
0.877778
 11
314.690685
 21
267.824981
 31
0.0
100
AcDbText
 73
     1
  0
TEXT
  5
88
100
AcDbEntity
  8
15
  6
PHANTOM
 62
    96
100
AcDbText
 10
344.00027
 20
262.323359
 30
0.0
 40
3.0
  1
定　　　　　格
 41
0.880952
 11
344.00027
 21
262.323359
 31
0.0
100
AcDbText
 73
     1
  0
TEXT
  5
89
100
AcDbEntity
  8
15
  6
CONTINUOUS
 62
    96
100
AcDbText
 10
310.688852
 20
47.921694
 30
0.0
 40
2.5
  1
製品名
 41
0.855562
 11
310.688852
 21
47.921694
 31
0.0
100
AcDbText
 73
     1
  0
TEXT
  5
8A
100
AcDbEntity
  8
15
  6
CONTINUOUS
 62
    96
100
AcDbText
 10
310.602981
 20
56.471398
 30
0.0
 40
2.5
  1
型　式
 41
0.877778
 11
310.602981
 21
56.471398
 31
0.0
100
AcDbText
 73
     1
  0
TEXT
  5
8B
100
AcDbEntity
  8
15
  6
CONTINUOUS
 62
    96
100
AcDbText
 10
316.290164
 20
60.763935
 30
0.0
 40
3.0
  1
図面履歴
 41
0.875
 11
316.290164
 21
60.763935
 31
0.0
100
AcDbText
 73
     1
  0
TEXT
  5
8C
100
AcDbEntity
  8
15
  6
CONTINUOUS
 62
    96
100
AcDbText
 10
311.585147
 20
28.481333
 30
0.0
 40
3.0
  1
図面番号
 41
0.875
 11
311.585147
 21
28.481333
 31
0.0
100
AcDbText
 73
     1
  0
TEXT
  5
8D
100
AcDbEntity
  8
15
  6
CONTINUOUS
 62
    96
100
AcDbText
 10
355.413667
 20
28.47208
 30
0.0
 40
3.0
  1
日付
 41
0.861111
 11
355.413667
 21
28.47208
 31
0.0
100
AcDbText
 73
     1
  0
TEXT
  5
8E
100
AcDbEntity
  8
15
  6
CONTINUOUS
 62
    96
100
AcDbText
 10
376.16012
 20
38.85587
 30
0.0
 40
2.5
  1
作図
 41
0.866667
 11
376.16012
 21
38.85587
 31
0.0
100
AcDbText
 73
     1
  0
TEXT
  5
8F
100
AcDbEntity
  8
15
  6
CONTINUOUS
 62
    96
100
AcDbText
 10
350.819454
 20
38.865219
 30
0.0
 40
2.5
  1
検図
 41
0.866667
 11
350.819454
 21
38.865219
 31
0.0
100
AcDbText
 73
     1
  0
TEXT
  5
90
100
AcDbEntity
  8
15
  6
CONTINUOUS
 62
    96
100
AcDbText
 10
325.802582
 20
38.713519
 30
0.0
 40
2.5
  1
承認
 41
0.866667
 11
325.802582
 21
38.713519
 31
0.0
100
AcDbText
 73
     1
  0
TEXT
  5
91
100
AcDbEntity
  8
15
  6
CONTINUOUS
 62
    96
100
AcDbText
 10
310.83299
 20
38.748675
 30
0.0
 40
2.5
  1
縮尺（Ａ３）
 41
0.833333
 11
310.83299
 21
38.748675
 31
0.0
100
AcDbText
 73
     1
  0
TEXT
  5
92
100
AcDbEntity
  8
15
  6
CONTINUOUS
 62
    96
100
AcDbText
 10
312.921864
 20
34.515208
 30
0.0
 40
3.0
  1
１：１
 41
0.87037
 11
312.921864
 21
34.515208
 31
0.0
100
AcDbText
 73
     1
  0
TEXT
  5
93
100
AcDbEntity
  8
15
  6
CONTINUOUS
 62
    96
100
AcDbText
 10
332.670807
 20
34.57061
 30
0.0
 40
5.0
  1
仲代
 41
0.85
 11
332.670807
 21
34.57061
 31
0.0
100
AcDbText
 73
     1
  0
TEXT
  5
94
100
AcDbEntity
  8
15
  6
CONTINUOUS
 62
    96
100
AcDbText
 10
357.67818
 20
34.57061
 30
0.0
 40
5.0
  1
池田
 41
0.85
 11
357.67818
 21
34.57061
 31
0.0
100
AcDbText
 73
     1
  0
TEXT
  5
95
100
AcDbEntity
  8
15
  6
CONTINUOUS
 62
    96
100
AcDbText
 10
382.685553
 20
34.57061
 30
0.0
 40
5.0
  1
江辺
 41
0.85
 11
382.685553
 21
34.57061
 31
0.0
100
AcDbText
 73
     1
  0
TEXT
  5
96
100
AcDbEntity
  8
15
  6
CONTINUOUS
 62
    96
100
AcDbText
 10
193.070065
 20
18.934529
 30
0.0
 40
3.0
  1
＊　記載されている会社名、製品名は、登録商標または商標です。
 41
0.887037
 11
193.070065
 21
18.934529
 31
0.0
100
AcDbText
 73
     1
  0
TEXT
  5
97
100
AcDbEntity
  8
15
  6
CONTINUOUS
 62
    96
100
AcDbText
 10
348.449749
 20
52.511796
 30
0.0
 40
5.0
  1
-----
 41
0.532
 11
348.449749
 21
52.511796
 31
0.0
100
AcDbText
 73
     1
  0
LINE
  5
98
100
AcDbEntity
  8
15
  6
CONTINUOUS
 62
    96
100
AcDbLine
 10
310.086999
 20
255.570926
 30
0.0
 11
400.113541
 21
255.570926
 31
0.0
  0
LINE
  5
99
100
AcDbEntity
  8
15
  6
CONTINUOUS
 62
    96
100
AcDbLine
 10
400.113541
 20
250.069304
 30
0.0
 11
310.086999
 21
250.069304
 31
0.0
  0
TEXT
  5
9A
100
AcDbEntity
  8
15
  6
PHANTOM
 62
    96
100
AcDbText
 10
318.089358
 20
256.821295
 30
0.0
 40
3.000885
  1
材　質
 41
0.833333
 11
318.089358
 21
256.821295
 31
0.0
100
AcDbText
 73
     1
  0
TEXT
  5
9B
100
AcDbEntity
  8
15
  6
PHANTOM
 62
    96
100
AcDbText
 10
360.101744
 20
256.821295
 30
0.0
 40
3.000885
  1
SPCC ｔ1.6
 41
0.595238
 11
360.101744
 21
256.821295
 31
0.0
100
AcDbText
 73
     1
  0
TEXT
  5
9C
100
AcDbEntity
  8
15
  6
CONTINUOUS
 62
    96
100
AcDbText
 10
327.092291
 20
28.26333
 30
0.0
 40
3.5
  1
G06010-01-09217
 41
0.5
 11
327.092291
 21
28.26333
 31
0.0
100
AcDbText
 73
     1
  0
TEXT
  5
9D
100
AcDbEntity
  8
15
  6
CONTINUOUS
 62
    96
100
AcDbText
 10
365.127472
 20
28.507157
 30
0.0
 40
3.0
  1
2009年2月17日
 41
0.669811
 11
365.127472
 21
28.507157
 31
0.0
100
AcDbText
 73
     1
  0
TEXT
  5
9E
100
AcDbEntity
  8
15
  6
CONTINUOUS
 62
    96
100
AcDbText
 10
360.684791
 20
60.772912
 30
0.0
 40
3.5
  1
----
 41
0.5
 11
360.684791
 21
60.772912
 31
0.0
100
AcDbText
 73
     1
  0
TEXT
  5
9F
100
AcDbEntity
  8
15
  6
CONTINUOUS
 62
    96
100
AcDbText
 10
326.170184
 20
43.944348
 30
0.0
 40
5.0
  1
WL/WM-20用面付ボックス
 41
0.704878
 11
326.170184
 21
43.944348
 31
0.0
100
AcDbText
 73
     1
  0
TEXT
  5
A0
100
AcDbEntity
  8
15
  6
PHANTOM
 62
    96
100
AcDbText
 10
361.303956
 20
267.824981
 30
0.0
 40
3.0
  1
－－－－
 41
0.875
 11
361.303956
 21
267.824981
 31
0.0
100
AcDbText
 73
     1
  0
CIRCLE
  5
A1
100
AcDbEntity
  8
1
  6
CONTINUOUS
 62
     7
100
AcDbCircle
 10
108.728
 20
142.4367
 30
0.0
 40
2.5
  0
CIRCLE
  5
A2
100
AcDbEntity
  8
1
  6
CONTINUOUS
 62
     7
100
AcDbCircle
 10
108.728
 20
202.4367
 30
0.0
 40
2.5
  0
CIRCLE
  5
A3
100
AcDbEntity
  8
1
  6
CONTINUOUS
 62
     7
100
AcDbCircle
 10
178.728
 20
142.4367
 30
0.0
 40
2.5
  0
CIRCLE
  5
A4
100
AcDbEntity
  8
1
  6
CONTINUOUS
 62
     7
100
AcDbCircle
 10
178.728
 20
202.4367
 30
0.0
 40
2.5
  0
CIRCLE
  5
A5
100
AcDbEntity
  8
1
  6
CONTINUOUS
 62
     7
100
AcDbCircle
 10
83.728
 20
214.9367
 30
0.0
 40
2.0
  0
CIRCLE
  5
A6
100
AcDbEntity
  8
1
  6
CONTINUOUS
 62
     7
100
AcDbCircle
 10
203.728
 20
214.9367
 30
0.0
 40
2.0
  0
CIRCLE
  5
A7
100
AcDbEntity
  8
1
  6
CONTINUOUS
 62
     7
100
AcDbCircle
 10
83.728
 20
129.9367
 30
0.0
 40
2.0
  0
CIRCLE
  5
A8
100
AcDbEntity
  8
1
  6
CONTINUOUS
 62
     7
100
AcDbCircle
 10
203.728
 20
129.9367
 30
0.0
 40
2.0
  0
LINE
  5
A9
100
AcDbEntity
  8
1
  6
CONTINUOUS
 62
     7
100
AcDbLine
 10
143.728
 20
95.074045
 30
0.0
 11
218.728
 21
95.074045
 31
0.0
  0
LINE
  5
AA
100
AcDbEntity
  8
1
  6
CONTINUOUS
 62
     7
100
AcDbLine
 10
238.869409
 20
172.4367
 30
0.0
 11
238.869409
 21
117.4367
 31
0.0
  0
LINE
  5
AB
100
AcDbEntity
  8
1
  6
CONTINUOUS
 62
     7
100
AcDbLine
 10
238.869409
 20
172.4367
 30
0.0
 11
238.869409
 21
227.4367
 31
0.0
  0
LINE
  5
AC
100
AcDbEntity
  8
1
  6
CONTINUOUS
 62
     7
100
AcDbLine
 10
143.728
 20
95.074045
 30
0.0
 11
68.728
 21
95.074045
 31
0.0
  0
LINE
  5
AD
100
AcDbEntity
  8
1
  6
CONTINUOUS
 62
     7
100
AcDbLine
 10
80.328
 20
134.9367
 30
0.0
 11
83.728
 21
134.9367
 31
0.0
  0
LINE
  5
AE
100
AcDbEntity
  8
1
  6
CONTINUOUS
 62
     7
100
AcDbLine
 10
80.328
 20
209.9367
 30
0.0
 11
83.728
 21
209.9367
 31
0.0
  0
LINE
  5
AF
100
AcDbEntity
  8
1
  6
CONTINUOUS
 62
     7
100
AcDbLine
 10
207.128
 20
134.9367
 30
0.0
 11
203.728
 21
134.9367
 31
0.0
  0
LINE
  5
B0
100
AcDbEntity
  8
1
  6
CONTINUOUS
 62
     7
100
AcDbLine
 10
207.128
 20
209.9367
 30
0.0
 11
203.728
 21
209.9367
 31
0.0
  0
LINE
  5
B1
100
AcDbEntity
  8
1
  6
CONTINUOUS
 62
     7
100
AcDbLine
 10
68.728
 20
117.4367
 30
0.0
 11
68.728
 21
227.4367
 31
0.0
  0
LINE
  5
B2
100
AcDbEntity
  8
1
  6
CONTINUOUS
 62
     7
100
AcDbLine
 10
218.728
 20
117.4367
 30
0.0
 11
68.728
 21
117.4367
 31
0.0
  0
LINE
  5
B3
100
AcDbEntity
  8
1
  6
CONTINUOUS
 62
     7
100
AcDbLine
 10
218.728
 20
227.4367
 30
0.0
 11
218.728
 21
117.4367
 31
0.0
  0
LINE
  5
B4
100
AcDbEntity
  8
1
  6
CONTINUOUS
 62
     7
100
AcDbLine
 10
68.728
 20
227.4367
 30
0.0
 11
218.728
 21
227.4367
 31
0.0
  0
LINE
  5
B5
100
AcDbEntity
  8
1
  6
CONTINUOUS
 62
     7
100
AcDbLine
 10
88.728
 20
126.5367
 30
0.0
 11
143.728
 21
126.5367
 31
0.0
  0
CIRCLE
  5
B6
100
AcDbEntity
  8
1
  6
CONTINUOUS
 62
     7
100
AcDbCircle
 10
83.728
 20
129.9367
 30
0.0
 40
1.5
  0
LINE
  5
B7
100
AcDbEntity
  8
1
  6
CONTINUOUS
 62
     7
100
AcDbLine
 10
80.328
 20
134.9367
 30
0.0
 11
80.328
 21
172.4367
 31
0.0
  0
LINE
  5
B8
100
AcDbEntity
  8
1
  6
CONTINUOUS
 62
     7
100
AcDbLine
 10
88.728
 20
129.9367
 30
0.0
 11
83.728
 21
134.9367
 31
0.0
  0
LINE
  5
B9
100
AcDbEntity
  8
1
  6
CONTINUOUS
 62
     7
100
AcDbLine
 10
198.728
 20
126.5367
 30
0.0
 11
143.728
 21
126.5367
 31
0.0
  0
CIRCLE
  5
BA
100
AcDbEntity
  8
1
  6
CONTINUOUS
 62
     7
100
AcDbCircle
 10
203.728
 20
129.9367
 30
0.0
 40
1.5
  0
LINE
  5
BB
100
AcDbEntity
  8
1
  6
CONTINUOUS
 62
     7
100
AcDbLine
 10
207.128
 20
134.9367
 30
0.0
 11
207.128
 21
172.4367
 31
0.0
  0
LINE
  5
BC
100
AcDbEntity
  8
1
  6
CONTINUOUS
 62
     7
100
AcDbLine
 10
198.728
 20
129.9367
 30
0.0
 11
203.728
 21
134.9367
 31
0.0
  0
LINE
  5
BD
100
AcDbEntity
  8
1
  6
CONTINUOUS
 62
     7
100
AcDbLine
 10
88.728
 20
218.3367
 30
0.0
 11
143.728
 21
218.3367
 31
0.0
  0
CIRCLE
  5
BE
100
AcDbEntity
  8
1
  6
CONTINUOUS
 62
     7
100
AcDbCircle
 10
83.728
 20
214.9367
 30
0.0
 40
1.5
  0
LINE
  5
BF
100
AcDbEntity
  8
1
  6
CONTINUOUS
 62
     7
100
AcDbLine
 10
80.328
 20
209.9367
 30
0.0
 11
80.328
 21
172.4367
 31
0.0
  0
LINE
  5
C0
100
AcDbEntity
  8
1
  6
CONTINUOUS
 62
     7
100
AcDbLine
 10
88.728
 20
214.9367
 30
0.0
 11
83.728
 21
209.9367
 31
0.0
  0
LINE
  5
C1
100
AcDbEntity
  8
1
  6
CONTINUOUS
 62
     7
100
AcDbLine
 10
198.728
 20
218.3367
 30
0.0
 11
143.728
 21
218.3367
 31
0.0
  0
CIRCLE
  5
C2
100
AcDbEntity
  8
1
  6
CONTINUOUS
 62
     7
100
AcDbCircle
 10
203.728
 20
214.9367
 30
0.0
 40
1.5
  0
LINE
  5
C3
100
AcDbEntity
  8
1
  6
CONTINUOUS
 62
     7
100
AcDbLine
 10
207.128
 20
209.9367
 30
0.0
 11
207.128
 21
172.4367
 31
0.0
  0
LINE
  5
C4
100
AcDbEntity
  8
1
  6
CONTINUOUS
 62
     7
100
AcDbLine
 10
198.728
 20
214.9367
 30
0.0
 11
203.728
 21
209.9367
 31
0.0
  0
CIRCLE
  5
C5
100
AcDbEntity
  8
1
  6
CONTINUOUS
 62
     7
100
AcDbCircle
 10
143.728
 20
172.4367
 30
0.0
 40
12.5
  0
LINE
  5
C6
100
AcDbEntity
  8
1
  6
CONTINUOUS
 62
     7
100
AcDbLine
 10
218.728
 20
95.074045
 30
0.0
 11
218.728
 21
55.074045
 31
0.0
  0
LINE
  5
C7
100
AcDbEntity
  8
1
  6
CONTINUOUS
 62
     7
100
AcDbLine
 10
218.728
 20
55.074045
 30
0.0
 11
143.728
 21
55.074045
 31
0.0
  0
LINE
  5
C8
100
AcDbEntity
  8
1
  6
CONTINUOUS
 62
     7
100
AcDbLine
 10
68.728
 20
95.074045
 30
0.0
 11
68.728
 21
55.074045
 31
0.0
  0
LINE
  5
C9
100
AcDbEntity
  8
1
  6
CONTINUOUS
 62
     7
100
AcDbLine
 10
68.728
 20
55.074045
 30
0.0
 11
143.728
 21
55.074045
 31
0.0
  0
LINE
  5
CA
100
AcDbEntity
  8
1
  6
CONTINUOUS
 62
     7
100
AcDbLine
 10
278.869409
 20
117.4367
 30
0.0
 11
278.869409
 21
172.4367
 31
0.0
  0
LINE
  5
CB
100
AcDbEntity
  8
1
  6
CONTINUOUS
 62
     7
100
AcDbLine
 10
238.869409
 20
117.4367
 30
0.0
 11
278.869409
 21
117.4367
 31
0.0
  0
LINE
  5
CC
100
AcDbEntity
  8
1
  6
CONTINUOUS
 62
     7
100
AcDbLine
 10
278.869409
 20
227.4367
 30
0.0
 11
278.869409
 21
172.4367
 31
0.0
  0
LINE
  5
CD
100
AcDbEntity
  8
1
  6
CONTINUOUS
 62
     7
100
AcDbLine
 10
238.869409
 20
227.4367
 30
0.0
 11
278.869409
 21
227.4367
 31
0.0
  0
LINE
  5
CE
100
AcDbEntity
  8
1
  6
CONTINUOUS
 62
     7
100
AcDbLine
 10
198.728
 20
218.3367
 30
0.0
 11
198.728
 21
214.9367
 31
0.0
  0
LINE
  5
CF
100
AcDbEntity
  8
1
  6
CONTINUOUS
 62
     7
100
AcDbLine
 10
88.728
 20
218.3367
 30
0.0
 11
88.728
 21
214.9367
 31
0.0
  0
LINE
  5
D0
100
AcDbEntity
  8
1
  6
CONTINUOUS
 62
     7
100
AcDbLine
 10
88.728
 20
126.5367
 30
0.0
 11
88.728
 21
129.9367
 31
0.0
  0
LINE
  5
D1
100
AcDbEntity
  8
1
  6
CONTINUOUS
 62
     7
100
AcDbLine
 10
198.728
 20
126.5367
 30
0.0
 11
198.728
 21
129.9367
 31
0.0
  0
LINE
  5
D2
100
AcDbEntity
  8
2
  6
CENTER
 62
   134
100
AcDbLine
 10
143.728
 20
172.4367
 30
0.0
 11
213.728
 21
172.4367
 31
0.0
  0
LINE
  5
D3
100
AcDbEntity
  8
2
  6
CENTER
 62
   134
100
AcDbLine
 10
143.728
 20
172.4367
 30
0.0
 11
73.726746
 21
172.4367
 31
0.0
  0
LINE
  5
D4
100
AcDbEntity
  8
2
  6
CENTER
 62
   134
100
AcDbLine
 10
143.728
 20
224.937551
 30
0.0
 11
143.728
 21
172.4367
 31
0.0
  0
LINE
  5
D5
100
AcDbEntity
  8
2
  6
CENTER
 62
   134
100
AcDbLine
 10
143.728
 20
119.654415
 30
0.0
 11
143.728
 21
172.4367
 31
0.0
  0
LINE
  5
D6
100
AcDbEntity
  8
2
  6
CONTINUOUS
 62
   134
100
AcDbLine
 10
153.648631
 20
180.041375
 30
0.0
 11
154.531165
 21
182.273221
 31
0.0
  0
LINE
  5
D7
100
AcDbEntity
  8
2
  6
CONTINUOUS
 62
   134
100
AcDbLine
 10
153.648631
 20
180.041375
 30
0.0
 11
155.52885
 21
181.532943
 31
0.0
  0
POLYLINE
  5
D8
100
AcDbEntity
  8
2
  6
CONTINUOUS
 62
   134
100
AcDb2dPolyline
 66
     1
 10
0.0
 20
0.0
 30
0.0
  0
VERTEX
  5
D9
100
AcDbEntity
  8
2
  6
CONTINUOUS
 62
   134
100
AcDbVertex
100
AcDb2dVertex
 10
153.648631
 20
180.041375
 30
0.0
  0
VERTEX
  5
DA
100
AcDbEntity
  8
2
  6
CONTINUOUS
 62
   134
100
AcDbVertex
100
AcDb2dVertex
 10
160.99091
 20
189.9367
 30
0.0
  0
VERTEX
  5
DB
100
AcDbEntity
  8
2
  6
CONTINUOUS
 62
   134
100
AcDbVertex
100
AcDb2dVertex
 10
184.39091
 20
189.9367
 30
0.0
  0
SEQEND
  5
DC
100
AcDbEntity
  8
2
  6
CONTINUOUS
 62
   134
  0
TEXT
  5
DD
100
AcDbEntity
  8
2
  6
CONTINUOUS
 62
   134
100
AcDbText
 10
160.99091
 20
190.4367
 30
0.0
 40
3.0
  1
%%c25ﾉｯｸｱｳﾄﾊ%%dﾝﾁ
 41
0.6
 11
160.99091
 21
190.4367
 31
0.0
100
AcDbText
 73
     1
  0
LINE
  5
DE
100
AcDbEntity
  8
2
  6
CENTER
 62
   134
100
AcDbLine
 10
103.728
 20
202.4367
 30
0.0
 11
143.728
 21
202.4367
 31
0.0
  0
LINE
  5
DF
100
AcDbEntity
  8
2
  6
CENTER
 62
   134
100
AcDbLine
 10
183.728
 20
202.4367
 30
0.0
 11
143.728
 21
202.4367
 31
0.0
  0
LINE
  5
E0
100
AcDbEntity
  8
2
  6
CENTER
 62
   134
100
AcDbLine
 10
183.728
 20
142.4367
 30
0.0
 11
143.728
 21
142.4367
 31
0.0
  0
LINE
  5
E1
100
AcDbEntity
  8
2
  6
CENTER
 62
   134
100
AcDbLine
 10
103.728
 20
142.4367
 30
0.0
 11
143.728
 21
142.4367
 31
0.0
  0
LINE
  5
E2
100
AcDbEntity
  8
2
  6
CENTER
 62
   134
100
AcDbLine
 10
178.728
 20
172.4367
 30
0.0
 11
178.728
 21
137.4367
 31
0.0
  0
LINE
  5
E3
100
AcDbEntity
  8
2
  6
CENTER
 62
   134
100
AcDbLine
 10
108.728
 20
172.4367
 30
0.0
 11
108.728
 21
137.4367
 31
0.0
  0
LINE
  5
E4
100
AcDbEntity
  8
2
  6
CENTER
 62
   134
100
AcDbLine
 10
178.728
 20
172.4367
 30
0.0
 11
178.728
 21
207.4367
 31
0.0
  0
LINE
  5
E5
100
AcDbEntity
  8
2
  6
CENTER
 62
   134
100
AcDbLine
 10
108.728
 20
172.4367
 30
0.0
 11
108.728
 21
207.4367
 31
0.0
  0
DIMENSION
  5
F1
100
AcDbEntity
  8
2
  6
CONTINUOUS
 62
   134
100
AcDbDimension
  2
*D1
 10
97.694582
 20
202.4367
 30
0.0
 11
95.694582
 21
170.083328
 31
0.0
  1
60
100
AcDbAlignedDimension
 13
101.728
 23
202.4367
 33
0.0
 14
101.728
 24
142.4367
 34
0.0
 50
90.0
100
AcDbRotatedDimension
  0
DIMENSION
  5
FD
100
AcDbEntity
  8
2
  6
CONTINUOUS
 62
   134
100
AcDbDimension
  2
*D2
 10
178.728
 20
210.083328
 30
0.0
 11
138.669349
 21
212.083328
 31
0.0
  1
70
100
AcDbAlignedDimension
 13
178.728
 23
209.4367
 33
0.0
 14
108.728
 24
209.4367
 34
0.0
100
AcDbRotatedDimension
  0
LINE
  5
FE
100
AcDbEntity
  8
2
  6
CONTINUOUS
 62
   134
100
AcDbLine
 10
176.862086
 20
140.77286
 30
0.0
 11
175.927952
 21
138.562115
 31
0.0
  0
LINE
  5
FF
100
AcDbEntity
  8
2
  6
CONTINUOUS
 62
   134
100
AcDbLine
 10
176.862086
 20
140.77286
 30
0.0
 11
174.947729
 21
139.325366
 31
0.0
  0
POLYLINE
  5
100
100
AcDbEntity
  8
2
  6
CONTINUOUS
 62
   134
100
AcDb2dPolyline
 66
     1
 10
0.0
 20
0.0
 30
0.0
  0
VERTEX
  5
101
100
AcDbEntity
  8
2
  6
CONTINUOUS
 62
   134
100
AcDbVertex
100
AcDb2dVertex
 10
176.862086
 20
140.77286
 30
0.0
  0
VERTEX
  5
102
100
AcDbEntity
  8
2
  6
CONTINUOUS
 62
   134
100
AcDbVertex
100
AcDb2dVertex
 10
171.75587
 20
134.215084
 30
0.0
  0
VERTEX
  5
103
100
AcDbEntity
  8
2
  6
CONTINUOUS
 62
   134
100
AcDbVertex
100
AcDb2dVertex
 10
163.65587
 20
134.215084
 30
0.0
  0
SEQEND
  5
104
100
AcDbEntity
  8
2
  6
CONTINUOUS
 62
   134
  0
TEXT
  5
105
100
AcDbEntity
  8
2
  6
CONTINUOUS
 62
   134
100
AcDbText
 10
163.65587
 20
134.715084
 30
0.0
 40
3.0
  1
4-%%c5
 41
0.675
 11
163.65587
 21
134.715084
 31
0.0
100
AcDbText
 73
     1
  0
LINE
  5
106
100
AcDbEntity
  8
2
  6
CENTER
 62
   134
100
AcDbLine
 10
207.128
 20
214.9367
 30
0.0
 11
198.728
 21
214.9367
 31
0.0
  0
LINE
  5
107
100
AcDbEntity
  8
2
  6
CENTER
 62
   134
100
AcDbLine
 10
203.728
 20
218.3367
 30
0.0
 11
203.728
 21
209.9367
 31
0.0
  0
LINE
  5
108
100
AcDbEntity
  8
2
  6
CENTER
 62
   134
100
AcDbLine
 10
80.328
 20
214.9367
 30
0.0
 11
88.728
 21
214.9367
 31
0.0
  0
LINE
  5
109
100
AcDbEntity
  8
2
  6
CENTER
 62
   134
100
AcDbLine
 10
83.728
 20
218.3367
 30
0.0
 11
83.728
 21
209.9367
 31
0.0
  0
LINE
  5
10A
100
AcDbEntity
  8
2
  6
CENTER
 62
   134
100
AcDbLine
 10
207.128
 20
129.9367
 30
0.0
 11
198.728
 21
129.9367
 31
0.0
  0
LINE
  5
10B
100
AcDbEntity
  8
2
  6
CENTER
 62
   134
100
AcDbLine
 10
203.728
 20
126.5367
 30
0.0
 11
203.728
 21
134.9367
 31
0.0
  0
LINE
  5
10C
100
AcDbEntity
  8
2
  6
CENTER
 62
   134
100
AcDbLine
 10
80.328
 20
129.9367
 30
0.0
 11
88.728
 21
129.9367
 31
0.0
  0
LINE
  5
10D
100
AcDbEntity
  8
2
  6
CENTER
 62
   134
100
AcDbLine
 10
83.728
 20
126.5367
 30
0.0
 11
83.728
 21
134.9367
 31
0.0
  0
DIMENSION
  5
119
100
AcDbEntity
  8
2
  6
CONTINUOUS
 62
   134
100
AcDbDimension
  2
*D3
 10
238.869409
 20
250.190683
 30
0.0
 11
258.869409
 21
252.440683
 31
0.0
  1
40
100
AcDbAlignedDimension
 13
238.869409
 23
228.4367
 33
0.0
 14
278.869409
 24
228.4367
 34
0.0
100
AcDbRotatedDimension
  0
DIMENSION
  5
125
100
AcDbEntity
  8
2
  6
CONTINUOUS
 62
   134
100
AcDbDimension
  2
*D4
 10
47.968891
 20
95.074045
 30
0.0
 11
45.718891
 21
75.074045
 31
0.0
  1
40
100
AcDbAlignedDimension
 13
67.728
 23
95.074045
 33
0.0
 14
67.728
 24
55.074045
 34
0.0
 50
90.0
100
AcDbRotatedDimension
  0
DIMENSION
  5
131
100
AcDbEntity
  8
2
  6
CONTINUOUS
 62
   134
100
AcDbDimension
  2
*D5
 10
68.728
 20
250.190683
 30
0.0
 11
143.728
 21
252.440683
 31
0.0
  1
150
100
AcDbAlignedDimension
 13
68.728
 23
228.4367
 33
0.0
 14
218.728
 24
228.4367
 34
0.0
100
AcDbRotatedDimension
  0
DIMENSION
  5
13D
100
AcDbEntity
  8
2
  6
CONTINUOUS
 62
   134
100
AcDbDimension
  2
*D6
 10
47.968891
 20
227.4367
 30
0.0
 11
45.718891
 21
172.4367
 31
0.0
  1
110
100
AcDbAlignedDimension
 13
67.728
 23
227.4367
 33
0.0
 14
67.728
 24
117.4367
 34
0.0
 50
90.0
100
AcDbRotatedDimension
  0
DIMENSION
  5
149
100
AcDbEntity
  8
2
  6
CONTINUOUS
 62
   134
100
AcDbDimension
  2
*D7
 10
56.972218
 20
214.9367
 30
0.0
 11
54.722218
 21
172.4367
 31
0.0
  1
85
100
AcDbAlignedDimension
 13
79.328
 23
214.9367
 33
0.0
 14
79.328
 24
129.9367
 34
0.0
 50
90.0
100
AcDbRotatedDimension
  0
DIMENSION
  5
155
100
AcDbEntity
  8
2
  6
CONTINUOUS
 62
   134
100
AcDbDimension
  2
*D8
 10
83.728
 20
240.025636
 30
0.0
 11
143.728
 21
242.275636
 31
0.0
  1
120
100
AcDbAlignedDimension
 13
83.728
 23
219.3367
 33
0.0
 14
203.728
 24
219.3367
 34
0.0
100
AcDbRotatedDimension
  0
DIMENSION
  5
161
100
AcDbEntity
  8
2
  6
CONTINUOUS
 62
   134
100
AcDbDimension
  2
*D9
 10
229.068191
 20
134.9367
 30
0.0
 11
226.818191
 21
126.1867
 31
0.0
  1
17.5
100
AcDbAlignedDimension
 13
209.728
 23
134.9367
 33
0.0
 14
219.728
 24
117.4367
 34
0.0
 50
90.0
100
AcDbRotatedDimension
  0
LINE
  5
162
100
AcDbEntity
  8
2
  6
CONTINUOUS
 62
   134
100
AcDbLine
 10
202.549717
 20
129.008449
 30
0.0
 11
201.449714
 21
126.217393
 31
0.0
  0
LINE
  5
163
100
AcDbEntity
  8
2
  6
CONTINUOUS
 62
   134
100
AcDbLine
 10
202.549717
 20
129.008449
 30
0.0
 11
200.201558
 21
127.141326
 31
0.0
  0
POLYLINE
  5
164
100
AcDbEntity
  8
2
  6
CONTINUOUS
 62
   134
100
AcDb2dPolyline
 66
     1
 10
0.0
 20
0.0
 30
0.0
  0
VERTEX
  5
165
100
AcDbEntity
  8
2
  6
CONTINUOUS
 62
   134
100
AcDbVertex
100
AcDb2dVertex
 10
202.549717
 20
129.008449
 30
0.0
  0
VERTEX
  5
166
100
AcDbEntity
  8
2
  6
CONTINUOUS
 62
   134
100
AcDbVertex
100
AcDb2dVertex
 10
186.748398
 20
107.66218
 30
0.0
  0
VERTEX
  5
167
100
AcDbEntity
  8
2
  6
CONTINUOUS
 62
   134
100
AcDbVertex
100
AcDb2dVertex
 10
161.998398
 20
107.66218
 30
0.0
  0
SEQEND
  5
168
100
AcDbEntity
  8
2
  6
CONTINUOUS
 62
   134
  0
TEXT
  5
169
100
AcDbEntity
  8
2
  6
CONTINUOUS
 62
   134
100
AcDbText
 10
161.998398
 20
107.66218
 30
0.0
 40
4.5
  1
4-M3ﾊﾞｰﾘﾝｸﾞ
 41
0.5
 11
161.998398
 21
107.66218
 31
0.0
100
AcDbText
 73
     1
  0
DIMENSION
  5
175
100
AcDbEntity
  8
2
  6
CONTINUOUS
 62
   134
100
AcDbDimension
  2
*D10
 10
198.728
 20
102.931091
 30
0.0
 11
208.728
 21
105.181091
 31
0.0
  1
20
100
AcDbAlignedDimension
 13
198.728
 23
116.4367
 33
0.0
 14
218.728
 24
116.4367
 34
0.0
100
AcDbRotatedDimension
  0
TEXT
  5
176
100
AcDbEntity
  8
15
  6
PHANTOM
 62
    96
100
AcDbText
 10
318.089358
 20
245.818051
 30
0.0
 40
3.000885
  1
重　量
 41
0.833333
 11
318.089358
 21
245.818051
 31
0.0
100
AcDbText
 73
     1
  0
TEXT
  5
177
100
AcDbEntity
  8
15
  6
PHANTOM
 62
    96
100
AcDbText
 10
363.134773
 20
245.818074
 30
0.0
 40
3.000885
  1
約600g
 41
0.576923
 11
363.134773
 21
245.818074
 31
0.0
100
AcDbText
 73
     1
  0
LINE
  5
178
100
AcDbEntity
  8
15
  6
CONTINUOUS
 62
    96
100
AcDbLine
 10
400.113541
 20
244.567682
 30
0.0
 11
310.086999
 21
244.567682
 31
0.0
  0
LINE
  5
179
100
AcDbEntity
  8
15
  6
CONTINUOUS
 62
    96
100
AcDbLine
 10
334.952657
 20
261.086023
 30
0.0
 11
334.952657
 21
244.567565
 31
0.0
  0
TEXT
  5
17A
100
AcDbEntity
  8
15
  6
PHANTOM
 62
    96
100
AcDbText
 10
342.12858
 20
251.319696
 30
0.0
 40
3.000885
  1
メラミン焼付塗装　マンセルN9.0近似
 41
0.787037
 11
342.12858
 21
251.319696
 31
0.0
100
AcDbText
 73
     1
  0
TEXT
  5
17B
100
AcDbEntity
  8
15
  6
PHANTOM
 62
    96
100
AcDbText
 10
318.089358
 20
251.319673
 30
0.0
 40
3.000885
  1
塗　装
 41
0.833333
 11
318.089358
 21
251.319673
 31
0.0
100
AcDbText
 73
     1
  0
ENDSEC
  0
SECTION
  2
OBJECTS
  0
DICTIONARY
  5
19
100
AcDbDictionary
  3
ACAD_GROUP
350
1A
  3
ACAD_MLINESTYLE
350
1B
  0
DICTIONARY
  5
1A
102
{ACAD_REACTORS
330
19
102
}
100
AcDbDictionary
  0
DICTIONARY
  5
1B
102
{ACAD_REACTORS
330
19
102
}
100
AcDbDictionary
  3
STANDARD
350
1C
  0
MLINESTYLE
  5
1C
102
{ACAD_REACTORS
330
1B
102
}
100
AcDbMlineStyle
  2
STANDARD
 70
     0
  3

 62
     0
 51
90.0
 52
90.0
 71
     2
 49
0.5
 62
   256
  6
BYLAYER
 49
-0.5
 62
   256
  6
BYLAYER
  0
ENDSEC
  0
EOF
