  0
SECTION
  2
HEADER
  9
$ACADVER
  1
AC1015
  9
$ACADMAINTVER
 70
     6
  9
$DWGCODEPAGE
  3
DOS932
  9
$INSBASE
 10
0.0
 20
0.0
 30
0.0
  9
$EXTMIN
 10
0.0
 20
0.0
 30
0.0
  9
$EXTMAX
 10
840.0
 20
594.0
 30
0.0
  9
$LIMMIN
 10
0.0
 20
0.0
  9
$LIMMAX
 10
840.0
 20
594.0
  9
$ORTHOMODE
 70
     0
  9
$REGENMODE
 70
     1
  9
$FILLMODE
 70
     1
  9
$QTEXTMODE
 70
     0
  9
$MIRRTEXT
 70
     1
  9
$LTSCALE
 40
0.5
  9
$ATTMODE
 70
     1
  9
$TEXTSIZE
 40
10.0
  9
$TRACEWID
 40
0.05
  9
$TEXTSTYLE
  7
Standard
  9
$CLAYER
  8
0
  9
$CELTYPE
  6
Continuous
  9
$CECOLOR
 62
   256
  9
$CELTSCALE
 40
1.0
  9
$DISPSILH
 70
     0
  9
$DIMSCALE
 40
2.0
  9
$DIMASZ
 40
4.0
  9
$DIMEXO
 40
2.0
  9
$DIMDLI
 40
10.0
  9
$DIMRND
 40
0.0
  9
$DIMDLE
 40
0.0
  9
$DIMEXE
 40
2.0
  9
$DIMTP
 40
0.0
  9
$DIMTM
 40
0.0
  9
$DIMTXT
 40
4.0
  9
$DIMCEN
 40
0.09
  9
$DIMTSZ
 40
0.0
  9
$DIMTOL
 70
     0
  9
$DIMLIM
 70
     0
  9
$DIMTIH
 70
     0
  9
$DIMTOH
 70
     0
  9
$DIMSE1
 70
     0
  9
$DIMSE2
 70
     0
  9
$DIMTAD
 70
     3
  9
$DIMZIN
 70
     0
  9
$DIMBLK
  1

  9
$DIMASO
 70
     1
  9
$DIMSHO
 70
     1
  9
$DIMPOST
  1

  9
$DIMAPOST
  1

  9
$DIMALT
 70
     0
  9
$DIMALTD
 70
     2
  9
$DIMALTF
 40
25.4
  9
$DIMLFAC
 40
1.0
  9
$DIMTOFL
 70
     1
  9
$DIMTVP
 40
0.7
  9
$DIMTIX
 70
     0
  9
$DIMSOXD
 70
     0
  9
$DIMSAH
 70
     0
  9
$DIMBLK1
  1

  9
$DIMBLK2
  1

  9
$DIMSTYLE
  2
Standard
  9
$DIMCLRD
 70
     0
  9
$DIMCLRE
 70
     0
  9
$DIMCLRT
 70
     0
  9
$DIMTFAC
 40
0.5
  9
$DIMGAP
 40
0.0
  9
$DIMJUST
 70
     0
  9
$DIMSD1
 70
     0
  9
$DIMSD2
 70
     0
  9
$DIMTOLJ
 70
     1
  9
$DIMTZIN
 70
     0
  9
$DIMALTZ
 70
     0
  9
$DIMALTTZ
 70
     0
  9
$DIMUPT
 70
     0
  9
$DIMDEC
 70
     2
  9
$DIMTDEC
 70
     4
  9
$DIMALTU
 70
     2
  9
$DIMALTTD
 70
     2
  9
$DIMTXSTY
  7
Standard
  9
$DIMAUNIT
 70
     0
  9
$DIMADEC
 70
     0
  9
$DIMALTRND
 40
0.0
  9
$DIMAZIN
 70
     0
  9
$DIMDSEP
 70
     0
  9
$DIMATFIT
 70
     3
  9
$DIMFRAC
 70
     0
  9
$DIMLDRBLK
  1

  9
$DIMLUNIT
 70
     2
  9
$DIMLWD
 70
     0
  9
$DIMLWE
 70
     0
  9
$DIMTMOVE
 70
     0
  9
$LUNITS
 70
     2
  9
$LUPREC
 70
     4
  9
$SKETCHINC
 40
0.1
  9
$FILLETRAD
 40
0.0
  9
$AUNITS
 70
     0
  9
$AUPREC
 70
     0
  9
$MENU
  1
acad
  9
$ELEVATION
 40
0.0
  9
$PELEVATION
 40
0.0
  9
$THICKNESS
 40
0.0
  9
$LIMCHECK
 70
     0
  9
$CHAMFERA
 40
0.0
  9
$CHAMFERB
 40
0.0
  9
$CHAMFERC
 40
0.0
  9
$CHAMFERD
 40
0.0
  9
$SKPOLY
 70
     0
  9
$TDCREATE
 40
2458719.419942129
  9
$TDUCREATE
 40
0.000000000
  9
$TDUPDATE
 40
2458719.419942129
  9
$TDUUPDATE
 40
0.000000000
  9
$TDINDWG
 40
0.0000000000
  9
$TDUSRTIMER
 40
0.0000000000
  9
$USRTIMER
 70
     1
  9
$ANGBASE
 50
0.0
  9
$ANGDIR
 70
     0
  9
$PDMODE
 70
     0
  9
$PDSIZE
 40
0.0
  9
$PLINEWID
 40
0.0
  9
$SPLFRAME
 70
     0
  9
$SPLINETYPE
 70
     6
  9
$SPLINESEGS
 70
     8
  9
$HANDSEED
  5
3F4
  9
$SURFTAB1
 70
     6
  9
$SURFTAB2
 70
     6
  9
$SURFTYPE
 70
     6
  9
$SURFU
 70
     6
  9
$SURFV
 70
     6
  9
$UCSBASE
  2

  9
$UCSNAME
  2

  9
$UCSORG
 10
0.0
 20
0.0
 30
0.0
  9
$UCSXDIR
 10
1.0
 20
0.0
 30
0.0
  9
$UCSYDIR
 10
0.0
 20
1.0
 30
0.0
  9
$UCSORTHOREF
  2

  9
$UCSORTHOVIEW
 70
     0
  9
$UCSORGTOP
 10
0.0
 20
0.0
 30
0.0
  9
$UCSORGBOTTOM
 10
0.0
 20
0.0
 30
0.0
  9
$UCSORGLEFT
 10
0.0
 20
0.0
 30
0.0
  9
$UCSORGRIGHT
 10
0.0
 20
0.0
 30
0.0
  9
$UCSORGFRONT
 10
0.0
 20
0.0
 30
0.0
  9
$UCSORGBACK
 10
0.0
 20
0.0
 30
0.0
  9
$PUCSBASE
  2

  9
$PUCSNAME
  2

  9
$PUCSORG
 10
0.0
 20
0.0
 30
0.0
  9
$PUCSXDIR
 10
1.0
 20
0.0
 30
0.0
  9
$PUCSYDIR
 10
0.0
 20
1.0
 30
0.0
  9
$PUCSORTHOREF
  2

  9
$PUCSORTHOVIEW
 70
     0
  9
$PUCSORGTOP
 10
0.0
 20
0.0
 30
0.0
  9
$PUCSORGBOTTOM
 10
0.0
 20
0.0
 30
0.0
  9
$PUCSORGLEFT
 10
0.0
 20
0.0
 30
0.0
  9
$PUCSORGRIGHT
 10
0.0
 20
0.0
 30
0.0
  9
$PUCSORGFRONT
 10
0.0
 20
0.0
 30
0.0
  9
$PUCSORGBACK
 10
0.0
 20
0.0
 30
0.0
  9
$USERI1
 70
     0
  9
$USERI2
 70
     0
  9
$USERI3
 70
     0
  9
$USERI4
 70
     0
  9
$USERI5
 70
     0
  9
$USERR1
 40
0.0
  9
$USERR2
 40
0.0
  9
$USERR3
 40
0.0
  9
$USERR4
 40
0.0
  9
$USERR5
 40
0.0
  9
$WORLDVIEW
 70
     1
  9
$SHADEDGE
 70
     3
  9
$SHADEDIF
 70
    70
  9
$TILEMODE
 70
     1
  9
$MAXACTVP
 70
    16
  9
$PINSBASE
 10
0.0
 20
0.0
 30
0.0
  9
$PLIMCHECK
 70
     0
  9
$PEXTMIN
 10
0.0
 20
0.0
 30
0.0
  9
$PEXTMAX
 10
420.0
 20
297.0
 30
0.0
  9
$PLIMMIN
 10
0.0
 20
0.0
  9
$PLIMMAX
 10
420.0
 20
297.0
  9
$UNITMODE
 70
     0
  9
$VISRETAIN
 70
     0
  9
$PLINEGEN
 70
     1
  9
$PSLTSCALE
 70
     0
  9
$TREEDEPTH
 70
  3020
  9
$CMLSTYLE
  2
Standard
  9
$CMLJUST
 70
     0
  9
$CMLSCALE
 40
1.0
  9
$PROXYGRAPHICS
 70
     0
  9
$MEASUREMENT
 70
     0
  9
$CELWEIGHT
370
     0
  9
$ENDCAPS
280
     0
  9
$JOINSTYLE
280
     0
  9
$LWDISPLAY
290
     0
  9
$INSUNITS
 70
     0
  9
$HYPERLINKBASE
  1

  9
$STYLESHEET
  1

  9
$XEDIT
290
     1
  9
$CEPSNTYPE
380
     0
  9
$PSTYLEMODE
290
     1
  9
$FINGERPRINTGUID
  2

  9
$VERSIONGUID
  2

  9
$EXTNAMES
290
     1
  9
$PSVPSCALE
 40
0.0
  0
ENDSEC
  0
SECTION
  2
CLASSES
  0
CLASS
  1
LWPOLYLINE
  2
AcDbPolyline
  3
AutoCAD 2000
 90
    32768
280
     0
281
     1
  0
CLASS
  1
IMAGE
  2
AcDbRasterImage
  3
ISM
 90
    32895
280
     0
281
     1
  0
CLASS
  1
OLE2FRAME
  2
AcDbOle2Frame
  3
AutoCAD 2000
 90
    32768
280
     0
281
     1
  0
CLASS
  1
HATCH
  2
AcDbHatch
  3
AutoCAD 2000
 90
    32768
280
     0
281
     1
  0
CLASS
  1
DICTIONARYVAR
  2
AcDbDictionaryVar
  3
AutoCAD 2000
 90
    32768
280
     0
281
     0
  0
CLASS
  1
RASTERVARIABLES
  2
AcDbRasterVariables
  3
ISM
 90
    32768
280
     0
281
     0
  0
CLASS
  1
IMAGEDEF
  2
AcDbRasterImageDef
  3
ISM
 90
    32768
280
     0
281
     0
  0
CLASS
  1
IMAGEDEF_REACTOR
  2
AcDbRasterImageDefReactor
  3
ISM
 90
    32769
280
     0
281
     0
  0
CLASS
  1
IDBUFFER
  2
AcDbIdBuffer
  3
AutoCAD 2000
 90
    32768
280
     0
281
     0
  0
CLASS
  1
SPATIAL_FILTER
  2
AcDbSpatialFilter
  3
AutoCAD 2000
 90
    32768
280
     0
281
     0
  0
CLASS
  1
XRECORD
  2
AcDbXrecord
  3
AutoCAD 2000
 90
    32768
280
     0
281
     0
  0
CLASS
  1
SORTENTSTABLE
  2
AcDbSortentsTable
  3
AutoCAD 2000
 90
    32768
280
     0
281
     0
  0
CLASS
  1
LAYER_INDEX
  2
AcDbLayerIndex
  3
AutoCAD 2000
 90
    32768
280
     0
281
     0
  0
CLASS
  1
SPATIAL_INDEX
  2
AcDbSpatialIndex
  3
AutoCAD 2000
 90
    32768
280
     0
281
     0
  0
CLASS
  1
OBJECT_PTR
  2
CAseDLPNTableRecord
  3
"ASE-LPNTableRecord"
 90
    32769
280
     0
281
     0
  0
CLASS
  1
LAYOUT
  2
AcDbLayout
  3
AutoCAD 2000
 90
        0
280
     0
281
     0
  0
CLASS
  1
PLOTSETTINGS
  2
AcDbPlotSettings
  3
AutoCAD 2000
 90
    32768
280
     0
281
     0
  0
CLASS
  1
ACDBDICTIONARYWDFLT
  2
AcDbDictionaryWithDefault
  3
AutoCAD 2000
 90
        0
280
     0
281
     0
  0
CLASS
  1
ACDBPLACEHOLDER
  2
AcDbPlaceHolder
  3
AutoCAD 2000
 90
        0
280
     0
281
     0
  0
CLASS
  1
VBA_PROJECT
  2
AcDbVbaProject
  3
acadvba
 90
    32768
280
     0
281
     0
  0
CLASS
  1
WIPEOUT
  2
AcDbWipeout
  3
WipeOut|AutoCAD Express Tool|expresstools@autodesk.com
 90
    32895
280
     0
281
     1
  0
CLASS
  1
WIPEOUTVARIABLES
  2
AcDbWipeoutVariables
  3
WipeOut|AutoCAD Express Tool|expresstools@autodesk.com
 90
        0
280
     0
281
     0
  0
CLASS
  1
RTEXT
  2
RText
  3
RText|AutoCAD Express Tool|expresstools@autodesk.com
 90
    32768
280
     0
281
     1
  0
CLASS
  1
ARCALIGNEDTEXT
  2
AcDbArcAlignedText
  3
ATEXT|AutoCAD Express Tool|expresstools@autodesk.com
 90
    32768
280
     0
281
     1
  0
ENDSEC
  0
SECTION
  2
TABLES
  0
TABLE
  2
VPORT
  5
7
100
AcDbSymbolTable
 70
     1
  0
VPORT
  5
15
100
AcDbSymbolTableRecord
100
AcDbViewportTableRecord
  2
*ACTIVE
 70
     0
 10
0.0
 20
0.0
 11
1.0
 21
1.0
 12
6.591288
 22
4.579184
 13
0.0
 23
0.0
 14
1.0
 24
1.0
 15
0.0
 25
0.0
 16
0.0
 26
0.0
 36
1.0
 17
0.0
 27
0.0
 37
0.0
 40
9.158369
 41
0.688564
 42
50.0
 43
0.0
 44
0.0
 50
0.0
 51
0.0
 71
     0
 72
   100
 73
     1
 74
     1
 75
     0
 76
     0
 77
     0
 78
     0
281
     0
 65
     0
110
0.0
120
0.0
130
0.0
111
1.0
121
0.0
131
0.0
112
0.0
122
1.0
132
0.0
345
0
346
0
 79
     0
146
0.0
  0
ENDTAB
  0
TABLE
  2
LTYPE
  5
4
100
AcDbSymbolTable
 70
     9
  0
LTYPE
  5
11
100
AcDbSymbolTableRecord
100
AcDbLinetypeTableRecord
  2
ByBlock
 70
    64
  3

 72
    65
 73
     0
 40
0.0
  0
LTYPE
  5
12
100
AcDbSymbolTableRecord
100
AcDbLinetypeTableRecord
  2
ByLayer
 70
    64
  3

 72
    65
 73
     0
 40
0.0
  0
LTYPE
  5
13
100
AcDbSymbolTableRecord
100
AcDbLinetypeTableRecord
  2
Continuous
 70
    64
  3
Solid line
 72
    65
 73
     0
 40
0.0
  0
LTYPE
  5
25
100
AcDbSymbolTableRecord
100
AcDbLinetypeTableRecord
  2
HIDDEN
 70
    64
  3
- - - - - - - - 
 72
    65
 73
     2
 40
12.6
 49
8.4
 74
     0
 49
-4.2
 74
     0
  0
LTYPE
  5
26
100
AcDbSymbolTableRecord
100
AcDbLinetypeTableRecord
  2
DOT
 70
    64
  3
･ ･ ･ ･ ･ ･ ･ ･ 
 72
    65
 73
     2
 40
8.0
 49
6.0
 74
     0
 49
-2.0
 74
     0
  0
LTYPE
  5
27
100
AcDbSymbolTableRecord
100
AcDbLinetypeTableRecord
  2
CENTER
 70
    64
  3
- ･ - ･ - ･ - ･ 
 72
    65
 73
     4
 40
50.5
 49
30.0
 74
     0
 49
-9.0
 74
     0
 49
2.5
 74
     0
 49
-9.0
 74
     0
  0
LTYPE
  5
28
100
AcDbSymbolTableRecord
100
AcDbLinetypeTableRecord
  2
PHANTOM
 70
    64
  3
- ･･ - ･･ - ･･ - ･･ 
 72
    65
 73
     6
 40
58.0
 49
30.0
 74
     0
 49
-9.0
 74
     0
 49
2.5
 74
     0
 49
-5.0
 74
     0
 49
2.5
 74
     0
 49
-9.0
 74
     0
  0
LTYPE
  5
29
100
AcDbSymbolTableRecord
100
AcDbLinetypeTableRecord
  2
ACAD_ISO06W100
 70
    64
  3
____ ... ____ ... ____
 72
    65
 73
     8
 40
37.5
 49
24.0
 74
     0
 49
-3.0
 74
     0
 49
0.5
 74
     0
 49
-3.0
 74
     0
 49
0.5
 74
     0
 49
-3.0
 74
     0
 49
0.5
 74
     0
 49
-3.0
 74
     0
  0
LTYPE
  5
2A
100
AcDbSymbolTableRecord
100
AcDbLinetypeTableRecord
  2
ACAD_ISO14W100
 70
    64
  3
__ . . . __ . . . __ . . . 
 72
    65
 73
     8
 40
25.5
 49
12.0
 74
     0
 49
-3.0
 74
     0
 49
0.5
 74
     0
 49
-3.0
 74
     0
 49
0.5
 74
     0
 49
-3.0
 74
     0
 49
0.5
 74
     0
 49
-3.0
 74
     0
  0
ENDTAB
  0
TABLE
  2
LAYER
  5
2
100
AcDbSymbolTable
 70
    66
  0
LAYER
  5
14
100
AcDbSymbolTableRecord
100
AcDbLayerTableRecord
  2
0
 70
     0
 62
     7
  6
Continuous
290
     1
370
    -3
390
1D
  0
LAYER
  5
2B
100
AcDbSymbolTableRecord
100
AcDbLayerTableRecord
  2
1
 70
     0
 62
     7
  6
Continuous
290
     1
370
    -3
390
1D
  0
LAYER
  5
2C
100
AcDbSymbolTableRecord
100
AcDbLayerTableRecord
  2
2
 70
     0
 62
   134
  6
Continuous
290
     1
370
    -3
390
1D
  0
LAYER
  5
2D
100
AcDbSymbolTableRecord
100
AcDbLayerTableRecord
  2
3
 70
     0
 62
   214
  6
Continuous
290
     1
370
    -3
390
1D
  0
LAYER
  5
2E
100
AcDbSymbolTableRecord
100
AcDbLayerTableRecord
  2
4
 70
     0
 62
    54
  6
Continuous
290
     1
370
    -3
390
1D
  0
LAYER
  5
2F
100
AcDbSymbolTableRecord
100
AcDbLayerTableRecord
  2
5
 70
     0
 62
    94
  6
Continuous
290
     1
370
    -3
390
1D
  0
LAYER
  5
30
100
AcDbSymbolTableRecord
100
AcDbLayerTableRecord
  2
6
 70
     0
 62
    14
  6
Continuous
290
     1
370
    -3
390
1D
  0
LAYER
  5
31
100
AcDbSymbolTableRecord
100
AcDbLayerTableRecord
  2
7
 70
     0
 62
     4
  6
Continuous
290
     1
370
    -3
390
1D
  0
LAYER
  5
32
100
AcDbSymbolTableRecord
100
AcDbLayerTableRecord
  2
8
 70
     0
 62
     6
  6
Continuous
290
     1
370
    -3
390
1D
  0
LAYER
  5
33
100
AcDbSymbolTableRecord
100
AcDbLayerTableRecord
  2
9
 70
     0
 62
     2
  6
Continuous
290
     1
370
    -3
390
1D
  0
LAYER
  5
34
100
AcDbSymbolTableRecord
100
AcDbLayerTableRecord
  2
10
 70
     0
 62
     3
  6
Continuous
290
     1
370
    -3
390
1D
  0
LAYER
  5
35
100
AcDbSymbolTableRecord
100
AcDbLayerTableRecord
  2
11
 70
     0
 62
   251
  6
Continuous
290
     1
370
    -3
390
1D
  0
LAYER
  5
36
100
AcDbSymbolTableRecord
100
AcDbLayerTableRecord
  2
12
 70
     0
 62
   136
  6
Continuous
290
     1
370
    -3
390
1D
  0
LAYER
  5
37
100
AcDbSymbolTableRecord
100
AcDbLayerTableRecord
  2
13
 70
     0
 62
   216
  6
Continuous
290
     1
370
    -3
390
1D
  0
LAYER
  5
38
100
AcDbSymbolTableRecord
100
AcDbLayerTableRecord
  2
14
 70
     0
 62
    56
  6
Continuous
290
     1
370
    -3
390
1D
  0
LAYER
  5
39
100
AcDbSymbolTableRecord
100
AcDbLayerTableRecord
  2
15
 70
     0
 62
    96
  6
Continuous
290
     1
370
    -3
390
1D
  0
LAYER
  5
3A
100
AcDbSymbolTableRecord
100
AcDbLayerTableRecord
  2
16
 70
     0
 62
    16
  6
Continuous
290
     1
370
    -3
390
1D
  0
LAYER
  5
3B
100
AcDbSymbolTableRecord
100
AcDbLayerTableRecord
  2
17
 70
     0
 62
   132
  6
Continuous
290
     1
370
    -3
390
1D
  0
LAYER
  5
3C
100
AcDbSymbolTableRecord
100
AcDbLayerTableRecord
  2
18
 70
     0
 62
   212
  6
Continuous
290
     1
370
    -3
390
1D
  0
LAYER
  5
3D
100
AcDbSymbolTableRecord
100
AcDbLayerTableRecord
  2
19
 70
     0
 62
    52
  6
Continuous
290
     1
370
    -3
390
1D
  0
LAYER
  5
3E
100
AcDbSymbolTableRecord
100
AcDbLayerTableRecord
  2
20
 70
     0
 62
     6
  6
Continuous
290
     1
370
    -3
390
1D
  0
LAYER
  5
3F
100
AcDbSymbolTableRecord
100
AcDbLayerTableRecord
  2
21
 70
     0
 62
     3
  6
Continuous
290
     1
370
    -3
390
1D
  0
LAYER
  5
40
100
AcDbSymbolTableRecord
100
AcDbLayerTableRecord
  2
22
 70
     0
 62
     7
  6
Continuous
290
     1
370
    -3
390
1D
  0
LAYER
  5
41
100
AcDbSymbolTableRecord
100
AcDbLayerTableRecord
  2
23
 70
     0
 62
    21
  6
Continuous
290
     1
370
    -3
390
1D
  0
LAYER
  5
42
100
AcDbSymbolTableRecord
100
AcDbLayerTableRecord
  2
24
 70
     0
 62
     3
  6
Continuous
290
     1
370
    -3
390
1D
  0
LAYER
  5
43
100
AcDbSymbolTableRecord
100
AcDbLayerTableRecord
  2
25
 70
     0
 62
     4
  6
Continuous
290
     1
370
    -3
390
1D
  0
LAYER
  5
44
100
AcDbSymbolTableRecord
100
AcDbLayerTableRecord
  2
26
 70
     0
 62
     5
  6
Continuous
290
     1
370
    -3
390
1D
  0
LAYER
  5
45
100
AcDbSymbolTableRecord
100
AcDbLayerTableRecord
  2
27
 70
     0
 62
     3
  6
Continuous
290
     1
370
    -3
390
1D
  0
LAYER
  5
46
100
AcDbSymbolTableRecord
100
AcDbLayerTableRecord
  2
28
 70
     0
 62
     1
  6
Continuous
290
     1
370
    -3
390
1D
  0
LAYER
  5
47
100
AcDbSymbolTableRecord
100
AcDbLayerTableRecord
  2
29
 70
     0
 62
     4
  6
Continuous
290
     1
370
    -3
390
1D
  0
LAYER
  5
48
100
AcDbSymbolTableRecord
100
AcDbLayerTableRecord
  2
30
 70
     0
 62
     6
  6
Continuous
290
     1
370
    -3
390
1D
  0
LAYER
  5
49
100
AcDbSymbolTableRecord
100
AcDbLayerTableRecord
  2
31
 70
     0
 62
     2
  6
Continuous
290
     1
370
    -3
390
1D
  0
LAYER
  5
4A
100
AcDbSymbolTableRecord
100
AcDbLayerTableRecord
  2
32
 70
     0
 62
     7
  6
Continuous
290
     1
370
    -3
390
1D
  0
LAYER
  5
4B
100
AcDbSymbolTableRecord
100
AcDbLayerTableRecord
  2
33
 70
     0
 62
     7
  6
Continuous
290
     1
370
    -3
390
1D
  0
LAYER
  5
4C
100
AcDbSymbolTableRecord
100
AcDbLayerTableRecord
  2
34
 70
     0
 62
   253
  6
Continuous
290
     1
370
    -3
390
1D
  0
LAYER
  5
4D
100
AcDbSymbolTableRecord
100
AcDbLayerTableRecord
  2
35
 70
     0
 62
     7
  6
Continuous
290
     1
370
    -3
390
1D
  0
LAYER
  5
4E
100
AcDbSymbolTableRecord
100
AcDbLayerTableRecord
  2
36
 70
     0
 62
    94
  6
Continuous
290
     1
370
    -3
390
1D
  0
LAYER
  5
4F
100
AcDbSymbolTableRecord
100
AcDbLayerTableRecord
  2
37
 70
     0
 62
    14
  6
Continuous
290
     1
370
    -3
390
1D
  0
LAYER
  5
50
100
AcDbSymbolTableRecord
100
AcDbLayerTableRecord
  2
38
 70
     0
 62
   134
  6
Continuous
290
     1
370
    -3
390
1D
  0
LAYER
  5
51
100
AcDbSymbolTableRecord
100
AcDbLayerTableRecord
  2
39
 70
     0
 62
    54
  6
Continuous
290
     1
370
    -3
390
1D
  0
LAYER
  5
52
100
AcDbSymbolTableRecord
100
AcDbLayerTableRecord
  2
40
 70
     0
 62
   214
  6
Continuous
290
     1
370
    -3
390
1D
  0
LAYER
  5
53
100
AcDbSymbolTableRecord
100
AcDbLayerTableRecord
  2
41
 70
     0
 62
     7
  6
Continuous
290
     1
370
    -3
390
1D
  0
LAYER
  5
54
100
AcDbSymbolTableRecord
100
AcDbLayerTableRecord
  2
42
 70
     0
 62
     5
  6
Continuous
290
     1
370
    -3
390
1D
  0
LAYER
  5
55
100
AcDbSymbolTableRecord
100
AcDbLayerTableRecord
  2
43
 70
     0
 62
     3
  6
Continuous
290
     1
370
    -3
390
1D
  0
LAYER
  5
56
100
AcDbSymbolTableRecord
100
AcDbLayerTableRecord
  2
44
 70
     0
 62
     1
  6
Continuous
290
     1
370
    -3
390
1D
  0
LAYER
  5
57
100
AcDbSymbolTableRecord
100
AcDbLayerTableRecord
  2
45
 70
     0
 62
     4
  6
Continuous
290
     1
370
    -3
390
1D
  0
LAYER
  5
58
100
AcDbSymbolTableRecord
100
AcDbLayerTableRecord
  2
46
 70
     0
 62
     6
  6
Continuous
290
     1
370
    -3
390
1D
  0
LAYER
  5
59
100
AcDbSymbolTableRecord
100
AcDbLayerTableRecord
  2
47
 70
     0
 62
     2
  6
Continuous
290
     1
370
    -3
390
1D
  0
LAYER
  5
5A
100
AcDbSymbolTableRecord
100
AcDbLayerTableRecord
  2
48
 70
     0
 62
     7
  6
Continuous
290
     1
370
    -3
390
1D
  0
LAYER
  5
5B
100
AcDbSymbolTableRecord
100
AcDbLayerTableRecord
  2
49
 70
     0
 62
     7
  6
Continuous
290
     1
370
    -3
390
1D
  0
LAYER
  5
5C
100
AcDbSymbolTableRecord
100
AcDbLayerTableRecord
  2
50
 70
     0
 62
   253
  6
Continuous
290
     1
370
    -3
390
1D
  0
LAYER
  5
5D
100
AcDbSymbolTableRecord
100
AcDbLayerTableRecord
  2
51
 70
     0
 62
   174
  6
Continuous
290
     1
370
    -3
390
1D
  0
LAYER
  5
5E
100
AcDbSymbolTableRecord
100
AcDbLayerTableRecord
  2
52
 70
     0
 62
    94
  6
Continuous
290
     1
370
    -3
390
1D
  0
LAYER
  5
5F
100
AcDbSymbolTableRecord
100
AcDbLayerTableRecord
  2
53
 70
     0
 62
    14
  6
Continuous
290
     1
370
    -3
390
1D
  0
LAYER
  5
60
100
AcDbSymbolTableRecord
100
AcDbLayerTableRecord
  2
54
 70
     0
 62
   134
  6
Continuous
290
     1
370
    -3
390
1D
  0
LAYER
  5
61
100
AcDbSymbolTableRecord
100
AcDbLayerTableRecord
  2
55
 70
     0
 62
    54
  6
Continuous
290
     1
370
    -3
390
1D
  0
LAYER
  5
62
100
AcDbSymbolTableRecord
100
AcDbLayerTableRecord
  2
56
 70
     0
 62
   214
  6
Continuous
290
     1
370
    -3
390
1D
  0
LAYER
  5
63
100
AcDbSymbolTableRecord
100
AcDbLayerTableRecord
  2
57
 70
     0
 62
   251
  6
Continuous
290
     1
370
    -3
390
1D
  0
LAYER
  5
64
100
AcDbSymbolTableRecord
100
AcDbLayerTableRecord
  2
58
 70
     0
 62
     5
  6
Continuous
290
     1
370
    -3
390
1D
  0
LAYER
  5
65
100
AcDbSymbolTableRecord
100
AcDbLayerTableRecord
  2
59
 70
     0
 62
     3
  6
Continuous
290
     1
370
    -3
390
1D
  0
LAYER
  5
66
100
AcDbSymbolTableRecord
100
AcDbLayerTableRecord
  2
60
 70
     0
 62
     1
  6
Continuous
290
     1
370
    -3
390
1D
  0
LAYER
  5
67
100
AcDbSymbolTableRecord
100
AcDbLayerTableRecord
  2
61
 70
     0
 62
     4
  6
Continuous
290
     1
370
    -3
390
1D
  0
LAYER
  5
68
100
AcDbSymbolTableRecord
100
AcDbLayerTableRecord
  2
62
 70
     0
 62
     6
  6
Continuous
290
     1
370
    -3
390
1D
  0
LAYER
  5
69
100
AcDbSymbolTableRecord
100
AcDbLayerTableRecord
  2
63
 70
     0
 62
     2
  6
Continuous
290
     1
370
    -3
390
1D
  0
LAYER
  5
6A
100
AcDbSymbolTableRecord
100
AcDbLayerTableRecord
  2
64
 70
     0
 62
     7
  6
Continuous
290
     1
370
    -3
390
1D
  0
LAYER
  5
6B
100
AcDbSymbolTableRecord
100
AcDbLayerTableRecord
  2
128
 70
     0
 62
     7
  6
Continuous
290
     1
370
    -3
390
1D
  0
ENDTAB
  0
TABLE
  2
STYLE
  5
3
100
AcDbSymbolTable
 70
     2
  0
STYLE
  5
17
100
AcDbSymbolTableRecord
100
AcDbTextStyleTableRecord
  2
Standard
 70
     0
 40
0.0
 41
1.0
 50
0.0
 71
     0
 42
0.0
  3
txt
  4
bigfont
  0
STYLE
  5
24
100
AcDbSymbolTableRecord
100
AcDbTextStyleTableRecord
  2
T_STANDARD
 70
    68
 40
10.0
 41
1.0
 50
0.0
 71
     0
 42
10.0
  3
txt
  4
bigfont
  0
ENDTAB
  0
TABLE
  2
VIEW
  5
5
100
AcDbSymbolTable
 70
     0
  0
ENDTAB
  0
TABLE
  2
UCS
  5
6
100
AcDbSymbolTable
 70
     0
  0
ENDTAB
  0
TABLE
  2
APPID
  5
8
100
AcDbSymbolTable
 70
     1
  0
APPID
  5
16
100
AcDbSymbolTableRecord
100
AcDbRegAppTableRecord
  2
ACAD
 70
     0
  0
ENDTAB
  0
TABLE
  2
DIMSTYLE
  5
9
100
AcDbSymbolTable
 70
     1
100
AcDbDimStyleTable
 71
     0
  0
DIMSTYLE
105
18
100
AcDbSymbolTableRecord
100
AcDbDimStyleTableRecord
  2
Standard
 70
     0
  3

  4

 40
1.0
 41
0.18
 42
0.0625
 43
0.38
 44
0.18
 45
0.0
 46
0.0
 47
0.0
 48
0.0
 71
     0
 72
     0
 73
     1
 74
     1
 75
     0
 76
     0
 77
     0
 78
     0
 79
     0
140
0.18
141
0.09
142
0.0
143
25.4
144
1.0
145
0.0
146
1.0
147
0.09
148
0.0
170
     0
171
     2
172
     0
173
     0
174
     0
175
     0
176
     0
177
     0
178
     0
179
     0
271
     4
272
     4
273
     2
274
     2
275
     0
276
     0
277
     2
278
    46
279
     0
280
     0
281
     0
282
     0
283
     1
284
     0
285
     0
286
     0
288
     0
340
17
341
0
342
0
343
0
344
0
371
    -2
372
    -2
  0
ENDTAB
  0
TABLE
  2
BLOCK_RECORD
  5
1
100
AcDbSymbolTable
 70
    20
  0
BLOCK_RECORD
  5
A
100
AcDbSymbolTableRecord
100
AcDbBlockTableRecord
  2
*MODEL_SPACE
340
20
  0
BLOCK_RECORD
  5
B
100
AcDbSymbolTableRecord
100
AcDbBlockTableRecord
  2
*PAPER_SPACE
340
21
  0
BLOCK_RECORD
  5
6C
100
AcDbSymbolTableRecord
100
AcDbBlockTableRecord
  2
*G0
340
0
102
{BLKREFS
331
6F
102
}
  0
BLOCK_RECORD
  5
A0
100
AcDbSymbolTableRecord
100
AcDbBlockTableRecord
  2
*G1
340
0
102
{BLKREFS
331
A4
102
}
  0
BLOCK_RECORD
  5
EB
100
AcDbSymbolTableRecord
100
AcDbBlockTableRecord
  2
*G2
340
0
102
{BLKREFS
331
F4
102
}
  0
BLOCK_RECORD
  5
F6
100
AcDbSymbolTableRecord
100
AcDbBlockTableRecord
  2
*G3
340
0
102
{BLKREFS
331
FF
102
}
  0
BLOCK_RECORD
  5
102
100
AcDbSymbolTableRecord
100
AcDbBlockTableRecord
  2
*G4
340
0
102
{BLKREFS
331
109
102
}
  0
BLOCK_RECORD
  5
10C
100
AcDbSymbolTableRecord
100
AcDbBlockTableRecord
  2
*G5
340
0
102
{BLKREFS
331
113
102
}
  0
BLOCK_RECORD
  5
119
100
AcDbSymbolTableRecord
100
AcDbBlockTableRecord
  2
*G6
340
0
102
{BLKREFS
331
120
102
}
  0
BLOCK_RECORD
  5
124
100
AcDbSymbolTableRecord
100
AcDbBlockTableRecord
  2
*G7
340
0
102
{BLKREFS
331
12B
102
}
  0
BLOCK_RECORD
  5
132
100
AcDbSymbolTableRecord
100
AcDbBlockTableRecord
  2
*G8
340
0
102
{BLKREFS
331
13D
102
}
  0
BLOCK_RECORD
  5
13E
100
AcDbSymbolTableRecord
100
AcDbBlockTableRecord
  2
*G9
340
0
102
{BLKREFS
331
149
102
}
  0
BLOCK_RECORD
  5
14A
100
AcDbSymbolTableRecord
100
AcDbBlockTableRecord
  2
*G10
340
0
102
{BLKREFS
331
156
102
}
  0
BLOCK_RECORD
  5
157
100
AcDbSymbolTableRecord
100
AcDbBlockTableRecord
  2
*G11
340
0
102
{BLKREFS
331
163
102
}
  0
BLOCK_RECORD
  5
164
100
AcDbSymbolTableRecord
100
AcDbBlockTableRecord
  2
*G12
340
0
102
{BLKREFS
331
16F
102
}
  0
BLOCK_RECORD
  5
170
100
AcDbSymbolTableRecord
100
AcDbBlockTableRecord
  2
*G13
340
0
102
{BLKREFS
331
17B
102
}
  0
BLOCK_RECORD
  5
392
100
AcDbSymbolTableRecord
100
AcDbBlockTableRecord
  2
*D14
340
0
  0
BLOCK_RECORD
  5
39E
100
AcDbSymbolTableRecord
100
AcDbBlockTableRecord
  2
*D15
340
0
  0
BLOCK_RECORD
  5
3AA
100
AcDbSymbolTableRecord
100
AcDbBlockTableRecord
  2
*D16
340
0
  0
BLOCK_RECORD
  5
3B6
100
AcDbSymbolTableRecord
100
AcDbBlockTableRecord
  2
*D17
340
0
  0
BLOCK_RECORD
  5
3C2
100
AcDbSymbolTableRecord
100
AcDbBlockTableRecord
  2
*D18
340
0
  0
BLOCK_RECORD
  5
3E1
100
AcDbSymbolTableRecord
100
AcDbBlockTableRecord
  2
*D19
340
0
  0
ENDTAB
  0
ENDSEC
  0
SECTION
  2
BLOCKS
  0
BLOCK
  5
D
100
AcDbEntity
  8
0
100
AcDbBlockBegin
  2
*MODEL_SPACE
 70
     0
 10
0.0
 20
0.0
 30
0.0
  3
*MODEL_SPACE
  1

  0
ENDBLK
  5
E
100
AcDbEntity
  8
0
100
AcDbBlockEnd
  0
BLOCK
  5
F
100
AcDbEntity
 67
     1
  8
0
100
AcDbBlockBegin
  2
*PAPER_SPACE
 70
     0
 10
0.0
 20
0.0
 30
0.0
  3
*PAPER_SPACE
  1

  0
ENDBLK
  5
10
100
AcDbEntity
 67
     1
  8
0
100
AcDbBlockEnd
  0
BLOCK
  5
6D
100
AcDbEntity
  8
0
370
     9
  6
Continuous
 62
     7
100
AcDbBlockBegin
  2
*G0
 70
     0
 10
0.0
 20
0.0
 30
0.0
  3
*G0
  1

  0
ENDBLK
  5
6E
100
AcDbEntity
  8
0
100
AcDbBlockEnd
  0
BLOCK
  5
A1
100
AcDbEntity
  8
0
370
     9
  6
Continuous
 62
    96
100
AcDbBlockBegin
  2
*G1
 70
     0
 10
0.0
 20
0.0
 30
0.0
  3
*G1
  1

  0
LINE
  5
A2
100
AcDbEntity
  8
15
370
     9
  6
Continuous
 62
    96
100
AcDbLine
 10
638.505428
 20
38.484996
 30
0.0
 11
639.038582
 21
38.484996
 31
0.0
  0
ENDBLK
  5
A3
100
AcDbEntity
  8
0
100
AcDbBlockEnd
  0
BLOCK
  5
EC
100
AcDbEntity
  8
0
370
     9
  6
Continuous
 62
     7
100
AcDbBlockBegin
  2
*G2
 70
     0
 10
0.0
 20
0.0
 30
0.0
  3
*G2
  1

  0
LINE
  5
ED
100
AcDbEntity
  8
1
370
    30
  6
Continuous
 62
     7
100
AcDbLine
 10
298.900599
 20
259.518563
 30
0.0
 11
298.900599
 21
274.718563
 31
0.0
  0
LINE
  5
EE
100
AcDbEntity
  8
1
370
    30
  6
Continuous
 62
     7
100
AcDbLine
 10
298.900599
 20
274.718563
 30
0.0
 11
308.800599
 21
274.718563
 31
0.0
  0
LINE
  5
EF
100
AcDbEntity
  8
1
370
    30
  6
Continuous
 62
     7
100
AcDbLine
 10
310.600599
 20
272.918563
 30
0.0
 11
308.800599
 21
274.718563
 31
0.0
  0
LINE
  5
F0
100
AcDbEntity
  8
1
370
    30
  6
Continuous
 62
     7
100
AcDbLine
 10
310.600599
 20
272.918563
 30
0.0
 11
310.600599
 21
261.318563
 31
0.0
  0
LINE
  5
F1
100
AcDbEntity
  8
1
370
    30
  6
Continuous
 62
     7
100
AcDbLine
 10
298.900599
 20
259.518563
 30
0.0
 11
308.800599
 21
259.518563
 31
0.0
  0
LINE
  5
F2
100
AcDbEntity
  8
1
370
    30
  6
Continuous
 62
     7
100
AcDbLine
 10
310.600599
 20
261.318563
 30
0.0
 11
308.800599
 21
259.518563
 31
0.0
  0
ENDBLK
  5
F3
100
AcDbEntity
  8
0
100
AcDbBlockEnd
  0
BLOCK
  5
F7
100
AcDbEntity
  8
0
370
     9
  6
Continuous
 62
     7
100
AcDbBlockBegin
  2
*G3
 70
     0
 10
0.0
 20
0.0
 30
0.0
  3
*G3
  1

  0
LINE
  5
F8
100
AcDbEntity
  8
1
370
    30
  6
Continuous
 62
     7
100
AcDbLine
 10
95.500599
 20
259.518563
 30
0.0
 11
95.500599
 21
274.718563
 31
0.0
  0
LINE
  5
F9
100
AcDbEntity
  8
1
370
    30
  6
Continuous
 62
     7
100
AcDbLine
 10
95.500599
 20
274.718563
 30
0.0
 11
85.600599
 21
274.718563
 31
0.0
  0
LINE
  5
FA
100
AcDbEntity
  8
1
370
    30
  6
Continuous
 62
     7
100
AcDbLine
 10
83.800599
 20
272.918563
 30
0.0
 11
85.600599
 21
274.718563
 31
0.0
  0
LINE
  5
FB
100
AcDbEntity
  8
1
370
    30
  6
Continuous
 62
     7
100
AcDbLine
 10
83.800599
 20
272.918563
 30
0.0
 11
83.800599
 21
261.318563
 31
0.0
  0
LINE
  5
FC
100
AcDbEntity
  8
1
370
    30
  6
Continuous
 62
     7
100
AcDbLine
 10
95.500599
 20
259.518563
 30
0.0
 11
85.600599
 21
259.518563
 31
0.0
  0
LINE
  5
FD
100
AcDbEntity
  8
1
370
    30
  6
Continuous
 62
     7
100
AcDbLine
 10
83.800599
 20
261.318563
 30
0.0
 11
85.600599
 21
259.518563
 31
0.0
  0
ENDBLK
  5
FE
100
AcDbEntity
  8
0
100
AcDbBlockEnd
  0
BLOCK
  5
103
100
AcDbEntity
  8
0
370
     9
  6
Continuous
 62
     7
100
AcDbBlockBegin
  2
*G4
 70
     0
 10
0.0
 20
0.0
 30
0.0
  3
*G4
  1

  0
LINE
  5
104
100
AcDbEntity
  8
1
370
    30
  6
Continuous
 62
     7
100
AcDbLine
 10
308.800599
 20
401.548859
 30
0.0
 11
308.800599
 21
400.348859
 31
0.0
  0
LINE
  5
105
100
AcDbEntity
  8
1
370
    30
  6
Continuous
 62
     7
100
AcDbLine
 10
308.800599
 20
400.348859
 30
0.0
 11
310.600599
 21
400.348859
 31
0.0
  0
LINE
  5
106
100
AcDbEntity
  8
1
370
    30
  6
Continuous
 62
     7
100
AcDbLine
 10
310.600599
 20
400.348859
 30
0.0
 11
310.600599
 21
401.548859
 31
0.0
  0
LINE
  5
107
100
AcDbEntity
  8
1
370
    30
  6
Continuous
 62
     7
100
AcDbLine
 10
310.600599
 20
401.548859
 30
0.0
 11
308.800599
 21
401.548859
 31
0.0
  0
ENDBLK
  5
108
100
AcDbEntity
  8
0
100
AcDbBlockEnd
  0
BLOCK
  5
10D
100
AcDbEntity
  8
0
370
     9
  6
Continuous
 62
     7
100
AcDbBlockBegin
  2
*G5
 70
     0
 10
0.0
 20
0.0
 30
0.0
  3
*G5
  1

  0
LINE
  5
10E
100
AcDbEntity
  8
1
370
    30
  6
Continuous
 62
     7
100
AcDbLine
 10
83.800599
 20
401.548859
 30
0.0
 11
83.800599
 21
400.348859
 31
0.0
  0
LINE
  5
10F
100
AcDbEntity
  8
1
370
    30
  6
Continuous
 62
     7
100
AcDbLine
 10
83.800599
 20
400.348859
 30
0.0
 11
85.600599
 21
400.348859
 31
0.0
  0
LINE
  5
110
100
AcDbEntity
  8
1
370
    30
  6
Continuous
 62
     7
100
AcDbLine
 10
85.600599
 20
400.348859
 30
0.0
 11
85.600599
 21
401.548859
 31
0.0
  0
LINE
  5
111
100
AcDbEntity
  8
1
370
    30
  6
Continuous
 62
     7
100
AcDbLine
 10
85.600599
 20
401.548859
 30
0.0
 11
83.800599
 21
401.548859
 31
0.0
  0
ENDBLK
  5
112
100
AcDbEntity
  8
0
100
AcDbBlockEnd
  0
BLOCK
  5
11A
100
AcDbEntity
  8
0
370
     9
  6
Continuous
 62
     7
100
AcDbBlockBegin
  2
*G6
 70
     0
 10
0.0
 20
0.0
 30
0.0
  3
*G6
  1

  0
LINE
  5
11B
100
AcDbEntity
  8
1
370
    30
  6
Continuous
 62
     7
100
AcDbLine
 10
83.800599
 20
141.017216
 30
0.0
 11
83.800599
 21
139.817216
 31
0.0
  0
LINE
  5
11C
100
AcDbEntity
  8
1
370
    30
  6
Continuous
 62
     7
100
AcDbLine
 10
83.800599
 20
139.817216
 30
0.0
 11
85.600599
 21
139.817216
 31
0.0
  0
LINE
  5
11D
100
AcDbEntity
  8
1
370
    30
  6
Continuous
 62
     7
100
AcDbLine
 10
85.600599
 20
139.817216
 30
0.0
 11
85.600599
 21
141.017216
 31
0.0
  0
LINE
  5
11E
100
AcDbEntity
  8
1
370
    30
  6
Continuous
 62
     7
100
AcDbLine
 10
85.600599
 20
141.017216
 30
0.0
 11
83.800599
 21
141.017216
 31
0.0
  0
ENDBLK
  5
11F
100
AcDbEntity
  8
0
100
AcDbBlockEnd
  0
BLOCK
  5
125
100
AcDbEntity
  8
0
370
     9
  6
Continuous
 62
     7
100
AcDbBlockBegin
  2
*G7
 70
     0
 10
0.0
 20
0.0
 30
0.0
  3
*G7
  1

  0
LINE
  5
126
100
AcDbEntity
  8
1
370
    30
  6
Continuous
 62
     7
100
AcDbLine
 10
308.800599
 20
141.017216
 30
0.0
 11
308.800599
 21
139.817216
 31
0.0
  0
LINE
  5
127
100
AcDbEntity
  8
1
370
    30
  6
Continuous
 62
     7
100
AcDbLine
 10
308.800599
 20
139.817216
 30
0.0
 11
310.600599
 21
139.817216
 31
0.0
  0
LINE
  5
128
100
AcDbEntity
  8
1
370
    30
  6
Continuous
 62
     7
100
AcDbLine
 10
310.600599
 20
139.817216
 30
0.0
 11
310.600599
 21
141.017216
 31
0.0
  0
LINE
  5
129
100
AcDbEntity
  8
1
370
    30
  6
Continuous
 62
     7
100
AcDbLine
 10
310.600599
 20
141.017216
 30
0.0
 11
308.800599
 21
141.017216
 31
0.0
  0
ENDBLK
  5
12A
100
AcDbEntity
  8
0
100
AcDbBlockEnd
  0
BLOCK
  5
133
100
AcDbEntity
  8
0
370
     9
  6
Continuous
 62
     7
100
AcDbBlockBegin
  2
*G8
 70
     0
 10
0.0
 20
0.0
 30
0.0
  3
*G8
  1

  0
ARC
  5
134
100
AcDbEntity
  8
1
370
    30
  6
Continuous
 62
     7
100
AcDbCircle
 10
97.700599
 20
375.048859
 30
0.0
 40
1.0
100
AcDbArc
 50
90.0
 51
180.0
  0
LINE
  5
135
100
AcDbEntity
  8
1
370
    30
  6
Continuous
 62
     7
100
AcDbLine
 10
96.700599
 20
352.048859
 30
0.0
 11
96.700599
 21
375.048859
 31
0.0
  0
ARC
  5
136
100
AcDbEntity
  8
1
370
    30
  6
Continuous
 62
     7
100
AcDbCircle
 10
97.700599
 20
352.048859
 30
0.0
 40
1.0
100
AcDbArc
 50
180.0
 51
-90.0
  0
LINE
  5
137
100
AcDbEntity
  8
1
370
    30
  6
Continuous
 62
     7
100
AcDbLine
 10
296.700599
 20
351.048859
 30
0.0
 11
97.700599
 21
351.048859
 31
0.0
  0
ARC
  5
138
100
AcDbEntity
  8
1
370
    30
  6
Continuous
 62
     7
100
AcDbCircle
 10
296.700599
 20
352.048859
 30
0.0
 40
1.0
100
AcDbArc
 50
-90.0
 51
0.0
  0
LINE
  5
139
100
AcDbEntity
  8
1
370
    30
  6
Continuous
 62
     7
100
AcDbLine
 10
297.700599
 20
375.048859
 30
0.0
 11
297.700599
 21
352.048859
 31
0.0
  0
ARC
  5
13A
100
AcDbEntity
  8
1
370
    30
  6
Continuous
 62
     7
100
AcDbCircle
 10
296.700599
 20
375.048859
 30
0.0
 40
1.0
100
AcDbArc
 50
0.0
 51
90.0
  0
LINE
  5
13B
100
AcDbEntity
  8
1
370
    30
  6
Continuous
 62
     7
100
AcDbLine
 10
97.700599
 20
376.048859
 30
0.0
 11
296.700599
 21
376.048859
 31
0.0
  0
ENDBLK
  5
13C
100
AcDbEntity
  8
0
100
AcDbBlockEnd
  0
BLOCK
  5
13F
100
AcDbEntity
  8
0
370
     9
  6
Continuous
 62
     7
100
AcDbBlockBegin
  2
*G9
 70
     0
 10
0.0
 20
0.0
 30
0.0
  3
*G9
  1

  0
ARC
  5
140
100
AcDbEntity
  8
1
370
    30
  6
Continuous
 62
     7
100
AcDbCircle
 10
97.700599
 20
377.048859
 30
0.0
 40
1.0
100
AcDbArc
 50
180.0
 51
-90.0
  0
ARC
  5
141
100
AcDbEntity
  8
1
370
    30
  6
Continuous
 62
     7
100
AcDbCircle
 10
296.700599
 20
377.048859
 30
0.0
 40
1.0
100
AcDbArc
 50
-90.0
 51
0.0
  0
LINE
  5
142
100
AcDbEntity
  8
1
370
    30
  6
Continuous
 62
     7
100
AcDbLine
 10
297.700599
 20
400.048859
 30
0.0
 11
297.700599
 21
377.048859
 31
0.0
  0
ARC
  5
143
100
AcDbEntity
  8
1
370
    30
  6
Continuous
 62
     7
100
AcDbCircle
 10
296.700599
 20
400.048859
 30
0.0
 40
1.0
100
AcDbArc
 50
0.0
 51
90.0
  0
LINE
  5
144
100
AcDbEntity
  8
1
370
    30
  6
Continuous
 62
     7
100
AcDbLine
 10
96.700599
 20
377.048859
 30
0.0
 11
96.700599
 21
400.048859
 31
0.0
  0
LINE
  5
145
100
AcDbEntity
  8
1
370
    30
  6
Continuous
 62
     7
100
AcDbLine
 10
97.700599
 20
401.048859
 30
0.0
 11
296.700599
 21
401.048859
 31
0.0
  0
ARC
  5
146
100
AcDbEntity
  8
1
370
    30
  6
Continuous
 62
     7
100
AcDbCircle
 10
97.700599
 20
400.048859
 30
0.0
 40
1.0
100
AcDbArc
 50
90.0
 51
180.0
  0
LINE
  5
147
100
AcDbEntity
  8
1
370
    30
  6
Continuous
 62
     7
100
AcDbLine
 10
296.700599
 20
376.048859
 30
0.0
 11
97.700599
 21
376.048859
 31
0.0
  0
ENDBLK
  5
148
100
AcDbEntity
  8
0
100
AcDbBlockEnd
  0
BLOCK
  5
14B
100
AcDbEntity
  8
0
370
     9
  6
Continuous
 62
     7
100
AcDbBlockBegin
  2
*G10
 70
     0
 10
0.0
 20
0.0
 30
0.0
  3
*G10
  1

  0
ARC
  5
14C
100
AcDbEntity
  8
1
370
     9
  6
Continuous
 62
     7
100
AcDbCircle
 10
102.600599
 20
394.548344
 30
0.0
 40
1.0
100
AcDbArc
 50
90.0
 51
180.0
  0
LINE
  5
14D
100
AcDbEntity
  8
1
370
     9
  6
Continuous
 62
     7
100
AcDbLine
 10
101.600599
 20
378.048344
 30
0.0
 11
101.600599
 21
394.548344
 31
0.0
  0
ARC
  5
14E
100
AcDbEntity
  8
1
370
     9
  6
Continuous
 62
     7
100
AcDbCircle
 10
102.600599
 20
378.048344
 30
0.0
 40
1.0
100
AcDbArc
 50
180.0
 51
-90.0
  0
ARC
  5
14F
100
AcDbEntity
  8
1
370
     9
  6
Continuous
 62
     7
100
AcDbCircle
 10
284.700599
 20
394.548344
 30
0.0
 40
1.0
100
AcDbArc
 50
0.0
 51
90.0
  0
LINE
  5
150
100
AcDbEntity
  8
1
370
     9
  6
Continuous
 62
     7
100
AcDbLine
 10
284.700599
 20
377.048344
 30
0.0
 11
102.600599
 21
377.048344
 31
0.0
  0
LINE
  5
151
100
AcDbEntity
  8
1
370
     9
  6
Continuous
 62
     7
100
AcDbLine
 10
285.700599
 20
394.548344
 30
0.0
 11
285.700599
 21
378.048344
 31
0.0
  0
ARC
  5
152
100
AcDbEntity
  8
1
370
     9
  6
Continuous
 62
     7
100
AcDbCircle
 10
284.700599
 20
378.048344
 30
0.0
 40
1.0
100
AcDbArc
 50
-90.0
 51
0.0
  0
LINE
  5
153
100
AcDbEntity
  8
1
370
     9
  6
Continuous
 62
     7
100
AcDbLine
 10
102.600599
 20
395.548344
 30
0.0
 11
157.200599
 21
395.548344
 31
0.0
  0
LINE
  5
154
100
AcDbEntity
  8
1
370
     9
  6
Continuous
 62
     7
100
AcDbLine
 10
229.200599
 20
395.548344
 30
0.0
 11
284.700599
 21
395.548344
 31
0.0
  0
ENDBLK
  5
155
100
AcDbEntity
  8
0
100
AcDbBlockEnd
  0
BLOCK
  5
158
100
AcDbEntity
  8
0
370
     9
  6
Continuous
 62
     7
100
AcDbBlockBegin
  2
*G11
 70
     0
 10
0.0
 20
0.0
 30
0.0
  3
*G11
  1

  0
ARC
  5
159
100
AcDbEntity
  8
1
370
     9
  6
Continuous
 62
     7
100
AcDbCircle
 10
102.600599
 20
369.548859
 30
0.0
 40
1.0
100
AcDbArc
 50
90.0
 51
180.0
  0
LINE
  5
15A
100
AcDbEntity
  8
1
370
     9
  6
Continuous
 62
     7
100
AcDbLine
 10
101.600599
 20
353.048859
 30
0.0
 11
101.600599
 21
369.548859
 31
0.0
  0
ARC
  5
15B
100
AcDbEntity
  8
1
370
     9
  6
Continuous
 62
     7
100
AcDbCircle
 10
102.600599
 20
353.048859
 30
0.0
 40
1.0
100
AcDbArc
 50
180.0
 51
-90.0
  0
ARC
  5
15C
100
AcDbEntity
  8
1
370
     9
  6
Continuous
 62
     7
100
AcDbCircle
 10
284.700599
 20
369.548859
 30
0.0
 40
1.0
100
AcDbArc
 50
0.0
 51
90.0
  0
LINE
  5
15D
100
AcDbEntity
  8
1
370
     9
  6
Continuous
 62
     7
100
AcDbLine
 10
284.700599
 20
352.048859
 30
0.0
 11
102.600599
 21
352.048859
 31
0.0
  0
LINE
  5
15E
100
AcDbEntity
  8
1
370
     9
  6
Continuous
 62
     7
100
AcDbLine
 10
285.700599
 20
369.548859
 30
0.0
 11
285.700599
 21
353.048859
 31
0.0
  0
ARC
  5
15F
100
AcDbEntity
  8
1
370
     9
  6
Continuous
 62
     7
100
AcDbCircle
 10
284.700599
 20
353.048859
 30
0.0
 40
1.0
100
AcDbArc
 50
-90.0
 51
0.0
  0
LINE
  5
160
100
AcDbEntity
  8
1
370
     9
  6
Continuous
 62
     7
100
AcDbLine
 10
102.600599
 20
370.548859
 30
0.0
 11
157.200599
 21
370.548859
 31
0.0
  0
LINE
  5
161
100
AcDbEntity
  8
1
370
     9
  6
Continuous
 62
     7
100
AcDbLine
 10
229.200599
 20
370.548859
 30
0.0
 11
284.700599
 21
370.548859
 31
0.0
  0
ENDBLK
  5
162
100
AcDbEntity
  8
0
100
AcDbBlockEnd
  0
BLOCK
  5
165
100
AcDbEntity
  8
0
370
     9
  6
Continuous
 62
     7
100
AcDbBlockBegin
  2
*G12
 70
     0
 10
0.0
 20
0.0
 30
0.0
  3
*G12
  1

  0
ARC
  5
166
100
AcDbEntity
  8
1
370
     9
  6
Continuous
 62
     7
100
AcDbCircle
 10
228.200599
 20
374.048859
 30
0.0
 40
1.0
100
AcDbArc
 50
0.0
 51
90.0
  0
LINE
  5
167
100
AcDbEntity
  8
1
370
     9
  6
Continuous
 62
     7
100
AcDbLine
 10
229.200599
 20
374.048859
 30
0.0
 11
229.200599
 21
355.048859
 31
0.0
  0
ARC
  5
168
100
AcDbEntity
  8
1
370
     9
  6
Continuous
 62
     7
100
AcDbCircle
 10
228.200599
 20
355.048859
 30
0.0
 40
1.0
100
AcDbArc
 50
-90.0
 51
0.0
  0
LINE
  5
169
100
AcDbEntity
  8
1
370
     9
  6
Continuous
 62
     7
100
AcDbLine
 10
228.200599
 20
354.048859
 30
0.0
 11
158.200599
 21
354.048859
 31
0.0
  0
ARC
  5
16A
100
AcDbEntity
  8
1
370
     9
  6
Continuous
 62
     7
100
AcDbCircle
 10
158.200599
 20
355.048859
 30
0.0
 40
1.0
100
AcDbArc
 50
180.0
 51
-90.0
  0
LINE
  5
16B
100
AcDbEntity
  8
1
370
     9
  6
Continuous
 62
     7
100
AcDbLine
 10
157.200599
 20
355.048859
 30
0.0
 11
157.200599
 21
374.048859
 31
0.0
  0
LINE
  5
16C
100
AcDbEntity
  8
1
370
     9
  6
Continuous
 62
     7
100
AcDbLine
 10
158.200599
 20
375.048859
 30
0.0
 11
228.200599
 21
375.048859
 31
0.0
  0
ARC
  5
16D
100
AcDbEntity
  8
1
370
     9
  6
Continuous
 62
     7
100
AcDbCircle
 10
158.200599
 20
374.048859
 30
0.0
 40
1.0
100
AcDbArc
 50
90.0
 51
180.0
  0
ENDBLK
  5
16E
100
AcDbEntity
  8
0
100
AcDbBlockEnd
  0
BLOCK
  5
171
100
AcDbEntity
  8
0
370
     9
  6
Continuous
 62
     7
100
AcDbBlockBegin
  2
*G13
 70
     0
 10
0.0
 20
0.0
 30
0.0
  3
*G13
  1

  0
ARC
  5
172
100
AcDbEntity
  8
1
370
     9
  6
Continuous
 62
     7
100
AcDbCircle
 10
228.200599
 20
398.048859
 30
0.0
 40
1.0
100
AcDbArc
 50
0.0
 51
90.0
  0
LINE
  5
173
100
AcDbEntity
  8
1
370
     9
  6
Continuous
 62
     7
100
AcDbLine
 10
229.200599
 20
398.048859
 30
0.0
 11
229.200599
 21
379.048859
 31
0.0
  0
ARC
  5
174
100
AcDbEntity
  8
1
370
     9
  6
Continuous
 62
     7
100
AcDbCircle
 10
228.200599
 20
379.048859
 30
0.0
 40
1.0
100
AcDbArc
 50
-90.0
 51
0.0
  0
LINE
  5
175
100
AcDbEntity
  8
1
370
     9
  6
Continuous
 62
     7
100
AcDbLine
 10
228.200599
 20
378.048859
 30
0.0
 11
158.200599
 21
378.048859
 31
0.0
  0
ARC
  5
176
100
AcDbEntity
  8
1
370
     9
  6
Continuous
 62
     7
100
AcDbCircle
 10
158.200599
 20
379.048859
 30
0.0
 40
1.0
100
AcDbArc
 50
180.0
 51
-90.0
  0
LINE
  5
177
100
AcDbEntity
  8
1
370
     9
  6
Continuous
 62
     7
100
AcDbLine
 10
157.200599
 20
379.048859
 30
0.0
 11
157.200599
 21
398.048859
 31
0.0
  0
LINE
  5
178
100
AcDbEntity
  8
1
370
     9
  6
Continuous
 62
     7
100
AcDbLine
 10
158.200599
 20
399.048859
 30
0.0
 11
228.200599
 21
399.048859
 31
0.0
  0
ARC
  5
179
100
AcDbEntity
  8
1
370
     9
  6
Continuous
 62
     7
100
AcDbCircle
 10
158.200599
 20
398.048859
 30
0.0
 40
1.0
100
AcDbArc
 50
90.0
 51
180.0
  0
ENDBLK
  5
17A
100
AcDbEntity
  8
0
100
AcDbBlockEnd
  0
BLOCK
  5
393
100
AcDbEntity
  8
2
370
     9
  6
Continuous
 62
   134
100
AcDbBlockBegin
  2
*D14
 70
     0
 10
0.0
 20
0.0
 30
0.0
  3
*D14
  1

  0
LINE
  5
394
100
AcDbEntity
  8
2
370
     9
  6
Continuous
 62
   134
100
AcDbLine
 10
54.135331
 20
401.048859
 30
0.0
 11
54.135331
 21
351.048859
 31
0.0
  0
LINE
  5
395
100
AcDbEntity
  8
2
370
     9
  6
Continuous
 62
   134
100
AcDbLine
 10
50.135331
 20
401.048859
 30
0.0
 11
97.148639
 21
401.048859
 31
0.0
  0
LINE
  5
396
100
AcDbEntity
  8
2
370
     9
  6
Continuous
 62
   134
100
AcDbLine
 10
50.135331
 20
351.048859
 30
0.0
 11
97.148639
 21
351.048859
 31
0.0
  0
LINE
  5
397
100
AcDbEntity
  8
2
370
     9
  6
Continuous
 62
   134
100
AcDbLine
 10
54.135331
 20
401.048859
 30
0.0
 11
55.377663
 21
396.412415
 31
0.0
  0
LINE
  5
398
100
AcDbEntity
  8
2
370
     9
  6
Continuous
 62
   134
100
AcDbLine
 10
54.135331
 20
401.048859
 30
0.0
 11
52.893
 21
396.412415
 31
0.0
  0
LINE
  5
399
100
AcDbEntity
  8
2
370
     9
  6
Continuous
 62
   134
100
AcDbLine
 10
54.135331
 20
351.048859
 30
0.0
 11
52.893
 21
355.685303
 31
0.0
  0
LINE
  5
39A
100
AcDbEntity
  8
2
370
     9
  6
Continuous
 62
   134
100
AcDbLine
 10
54.135331
 20
351.048859
 30
0.0
 11
55.377663
 21
355.685303
 31
0.0
  0
TEXT
  5
39B
100
AcDbEntity
  8
2
370
     9
  6
Continuous
 62
   134
100
AcDbText
 10
53.385331
 20
372.848859
 30
0.0
 40
6.0
  1
50
 50
90.0
 41
0.533333
 11
53.385331
 21
372.848859
 31
0.0
100
AcDbText
 73
     1
  0
ENDBLK
  5
39C
100
AcDbEntity
  8
2
370
     9
  6
Continuous
 62
   134
100
AcDbBlockEnd
  0
BLOCK
  5
39F
100
AcDbEntity
  8
2
370
     9
  6
Continuous
 62
   134
100
AcDbBlockBegin
  2
*D15
 70
     0
 10
0.0
 20
0.0
 30
0.0
  3
*D15
  1

  0
LINE
  5
3A0
100
AcDbEntity
  8
2
370
     9
  6
Continuous
 62
   134
100
AcDbLine
 10
542.032331
 20
215.129681
 30
0.0
 11
594.032328
 21
215.129681
 31
0.0
  0
LINE
  5
3A1
100
AcDbEntity
  8
2
370
     9
  6
Continuous
 62
   134
100
AcDbLine
 10
542.032331
 20
211.129681
 30
0.0
 11
542.032331
 21
237.997454
 31
0.0
  0
LINE
  5
3A2
100
AcDbEntity
  8
2
370
     9
  6
Continuous
 62
   134
100
AcDbLine
 10
594.032328
 20
211.129681
 30
0.0
 11
594.032328
 21
237.997454
 31
0.0
  0
LINE
  5
3A3
100
AcDbEntity
  8
2
370
     9
  6
Continuous
 62
   134
100
AcDbLine
 10
542.032331
 20
215.129681
 30
0.0
 11
546.668775
 21
216.372013
 31
0.0
  0
LINE
  5
3A4
100
AcDbEntity
  8
2
370
     9
  6
Continuous
 62
   134
100
AcDbLine
 10
542.032331
 20
215.129681
 30
0.0
 11
546.668775
 21
213.88735
 31
0.0
  0
LINE
  5
3A5
100
AcDbEntity
  8
2
370
     9
  6
Continuous
 62
   134
100
AcDbLine
 10
594.032328
 20
215.129681
 30
0.0
 11
589.395884
 21
213.88735
 31
0.0
  0
LINE
  5
3A6
100
AcDbEntity
  8
2
370
     9
  6
Continuous
 62
   134
100
AcDbLine
 10
594.032328
 20
215.129681
 30
0.0
 11
589.395884
 21
216.372013
 31
0.0
  0
TEXT
  5
3A7
100
AcDbEntity
  8
2
370
     9
  6
Continuous
 62
   134
100
AcDbText
 10
564.83233
 20
215.879681
 30
0.0
 40
6.0
  1
52
 41
0.533333
 11
564.83233
 21
215.879681
 31
0.0
100
AcDbText
 73
     1
  0
ENDBLK
  5
3A8
100
AcDbEntity
  8
2
370
     9
  6
Continuous
 62
   134
100
AcDbBlockEnd
  0
BLOCK
  5
3AB
100
AcDbEntity
  8
2
370
     9
  6
Continuous
 62
   134
100
AcDbBlockBegin
  2
*D16
 70
     0
 10
0.0
 20
0.0
 30
0.0
  3
*D16
  1

  0
LINE
  5
3AC
100
AcDbEntity
  8
2
370
     9
  6
Continuous
 62
   134
100
AcDbLine
 10
83.800599
 20
423.225889
 30
0.0
 11
310.600599
 21
423.225889
 31
0.0
  0
LINE
  5
3AD
100
AcDbEntity
  8
2
370
     9
  6
Continuous
 62
   134
100
AcDbLine
 10
83.800599
 20
427.225889
 30
0.0
 11
83.800599
 21
402.948202
 31
0.0
  0
LINE
  5
3AE
100
AcDbEntity
  8
2
370
     9
  6
Continuous
 62
   134
100
AcDbLine
 10
310.600599
 20
427.225889
 30
0.0
 11
310.600599
 21
402.948202
 31
0.0
  0
LINE
  5
3AF
100
AcDbEntity
  8
2
370
     9
  6
Continuous
 62
   134
100
AcDbLine
 10
83.800599
 20
423.225889
 30
0.0
 11
88.437043
 21
424.468221
 31
0.0
  0
LINE
  5
3B0
100
AcDbEntity
  8
2
370
     9
  6
Continuous
 62
   134
100
AcDbLine
 10
83.800599
 20
423.225889
 30
0.0
 11
88.437043
 21
421.983558
 31
0.0
  0
LINE
  5
3B1
100
AcDbEntity
  8
2
370
     9
  6
Continuous
 62
   134
100
AcDbLine
 10
310.600599
 20
423.225889
 30
0.0
 11
305.964155
 21
421.983558
 31
0.0
  0
LINE
  5
3B2
100
AcDbEntity
  8
2
370
     9
  6
Continuous
 62
   134
100
AcDbLine
 10
310.600599
 20
423.225889
 30
0.0
 11
305.964155
 21
424.468221
 31
0.0
  0
TEXT
  5
3B3
100
AcDbEntity
  8
2
370
     9
  6
Continuous
 62
   134
100
AcDbText
 10
188.900599
 20
423.975889
 30
0.0
 40
6.0
  1
(227)
 41
0.553333
 11
188.900599
 21
423.975889
 31
0.0
100
AcDbText
 73
     1
  0
ENDBLK
  5
3B4
100
AcDbEntity
  8
2
370
     9
  6
Continuous
 62
   134
100
AcDbBlockEnd
  0
BLOCK
  5
3B7
100
AcDbEntity
  8
2
370
     9
  6
Continuous
 62
   134
100
AcDbBlockBegin
  2
*D17
 70
     0
 10
0.0
 20
0.0
 30
0.0
  3
*D17
  1

  0
LINE
  5
3B8
100
AcDbEntity
  8
2
370
     9
  6
Continuous
 62
   134
100
AcDbLine
 10
297.700599
 20
437.058225
 30
0.0
 11
472.700599
 21
437.058225
 31
0.0
  0
LINE
  5
3B9
100
AcDbEntity
  8
2
370
     9
  6
Continuous
 62
   134
100
AcDbLine
 10
297.700599
 20
441.058225
 30
0.0
 11
297.700599
 21
367.048859
 31
0.0
  0
LINE
  5
3BA
100
AcDbEntity
  8
2
370
     9
  6
Continuous
 62
   134
100
AcDbLine
 10
472.700599
 20
441.058225
 30
0.0
 11
472.700599
 21
367.048859
 31
0.0
  0
LINE
  5
3BB
100
AcDbEntity
  8
2
370
     9
  6
Continuous
 62
   134
100
AcDbLine
 10
297.700599
 20
437.058225
 30
0.0
 11
302.337043
 21
438.300556
 31
0.0
  0
LINE
  5
3BC
100
AcDbEntity
  8
2
370
     9
  6
Continuous
 62
   134
100
AcDbLine
 10
297.700599
 20
437.058225
 30
0.0
 11
302.337043
 21
435.815893
 31
0.0
  0
LINE
  5
3BD
100
AcDbEntity
  8
2
370
     9
  6
Continuous
 62
   134
100
AcDbLine
 10
472.700599
 20
437.058225
 30
0.0
 11
468.064155
 21
435.815893
 31
0.0
  0
LINE
  5
3BE
100
AcDbEntity
  8
2
370
     9
  6
Continuous
 62
   134
100
AcDbLine
 10
472.700599
 20
437.058225
 30
0.0
 11
468.064155
 21
438.300556
 31
0.0
  0
TEXT
  5
3BF
100
AcDbEntity
  8
2
370
     9
  6
Continuous
 62
   134
100
AcDbText
 10
376.900599
 20
437.808225
 30
0.0
 40
6.0
  1
(190)
 41
0.553333
 11
376.900599
 21
437.808225
 31
0.0
100
AcDbText
 73
     1
  0
ENDBLK
  5
3C0
100
AcDbEntity
  8
2
370
     9
  6
Continuous
 62
   134
100
AcDbBlockEnd
  0
BLOCK
  5
3C3
100
AcDbEntity
  8
2
370
     9
  6
Continuous
 62
   134
100
AcDbBlockBegin
  2
*D18
 70
     0
 10
0.0
 20
0.0
 30
0.0
  3
*D18
  1

  0
LINE
  5
3C4
100
AcDbEntity
  8
2
370
     9
  6
Continuous
 62
   134
100
AcDbLine
 10
54.165745
 20
139.817216
 30
0.0
 11
54.165745
 21
191.517216
 31
0.0
  0
LINE
  5
3C5
100
AcDbEntity
  8
2
370
     9
  6
Continuous
 62
   134
100
AcDbLine
 10
50.165745
 20
139.817216
 30
0.0
 11
92.700599
 21
139.817216
 31
0.0
  0
LINE
  5
3C6
100
AcDbEntity
  8
2
370
     9
  6
Continuous
 62
   134
100
AcDbLine
 10
50.165745
 20
191.517216
 30
0.0
 11
92.700599
 21
191.517216
 31
0.0
  0
LINE
  5
3C7
100
AcDbEntity
  8
2
370
     9
  6
Continuous
 62
   134
100
AcDbLine
 10
54.165745
 20
139.817216
 30
0.0
 11
52.923414
 21
144.45366
 31
0.0
  0
LINE
  5
3C8
100
AcDbEntity
  8
2
370
     9
  6
Continuous
 62
   134
100
AcDbLine
 10
54.165745
 20
139.817216
 30
0.0
 11
55.408077
 21
144.45366
 31
0.0
  0
LINE
  5
3C9
100
AcDbEntity
  8
2
370
     9
  6
Continuous
 62
   134
100
AcDbLine
 10
54.165745
 20
191.517216
 30
0.0
 11
55.408077
 21
186.880772
 31
0.0
  0
LINE
  5
3CA
100
AcDbEntity
  8
2
370
     9
  6
Continuous
 62
   134
100
AcDbLine
 10
54.165745
 20
191.517216
 30
0.0
 11
52.923414
 21
186.880772
 31
0.0
  0
TEXT
  5
3CB
100
AcDbEntity
  8
2
370
     9
  6
Continuous
 62
   134
100
AcDbText
 10
53.415745
 20
159.067216
 30
0.0
 40
6.0
  1
(52)
 50
90.0
 41
0.55
 11
53.415745
 21
159.067216
 31
0.0
100
AcDbText
 73
     1
  0
ENDBLK
  5
3CC
100
AcDbEntity
  8
2
370
     9
  6
Continuous
 62
   134
100
AcDbBlockEnd
  0
BLOCK
  5
3E2
100
AcDbEntity
  8
2
370
     9
  6
Continuous
 62
   134
100
AcDbBlockBegin
  2
*D19
 70
     0
 10
0.0
 20
0.0
 30
0.0
  3
*D19
  1

  0
LINE
  5
3E3
100
AcDbEntity
  8
2
370
     9
  6
Continuous
 62
   134
100
AcDbLine
 10
88.750599
 20
218.067207
 30
0.0
 11
305.650599
 21
218.067207
 31
0.0
  0
LINE
  5
3E4
100
AcDbEntity
  8
2
370
     9
  6
Continuous
 62
   134
100
AcDbLine
 10
88.750599
 20
214.067207
 30
0.0
 11
88.750599
 21
263.118563
 31
0.0
  0
LINE
  5
3E5
100
AcDbEntity
  8
2
370
     9
  6
Continuous
 62
   134
100
AcDbLine
 10
305.650599
 20
214.067207
 30
0.0
 11
305.650599
 21
263.118563
 31
0.0
  0
LINE
  5
3E6
100
AcDbEntity
  8
2
370
     9
  6
Continuous
 62
   134
100
AcDbLine
 10
88.750599
 20
218.067207
 30
0.0
 11
93.387043
 21
219.309538
 31
0.0
  0
LINE
  5
3E7
100
AcDbEntity
  8
2
370
     9
  6
Continuous
 62
   134
100
AcDbLine
 10
88.750599
 20
218.067207
 30
0.0
 11
93.387043
 21
216.824875
 31
0.0
  0
LINE
  5
3E8
100
AcDbEntity
  8
2
370
     9
  6
Continuous
 62
   134
100
AcDbLine
 10
305.650599
 20
218.067207
 30
0.0
 11
301.014155
 21
216.824875
 31
0.0
  0
LINE
  5
3E9
100
AcDbEntity
  8
2
370
     9
  6
Continuous
 62
   134
100
AcDbLine
 10
305.650599
 20
218.067207
 30
0.0
 11
301.014155
 21
219.309538
 31
0.0
  0
TEXT
  5
3EA
100
AcDbEntity
  8
2
370
     9
  6
Continuous
 62
   134
100
AcDbText
 10
192.241793
 20
219.067207
 30
0.0
 40
6.0
  1
217
 41
0.544444
 11
192.241793
 21
219.067207
 31
0.0
100
AcDbText
 73
     1
  0
ENDBLK
  5
3EB
100
AcDbEntity
  8
2
370
     9
  6
Continuous
 62
   134
100
AcDbBlockEnd
  0
ENDSEC
  0
SECTION
  2
ENTITIES
  0
INSERT
  5
6F
100
AcDbEntity
  8
0
370
     9
  6
Continuous
 62
     7
100
AcDbBlockReference
  2
*G0
 10
0.0
 20
0.0
 30
0.0
  0
LINE
  5
70
100
AcDbEntity
  8
15
370
     9
  6
Continuous
 62
    96
100
AcDbLine
 10
660.0
 20
509.0
 30
0.0
 11
660.0
 21
432.0
 31
0.0
  0
TEXT
  5
71
100
AcDbEntity
  8
15
370
     9
  6
Continuous
 62
    96
100
AcDbText
 10
615.66806
 20
56.018909
 30
0.0
 40
6.0
  1
１：２
 41
0.833333
 11
615.66806
 21
56.018909
 31
0.0
100
AcDbText
 73
     1
  0
LINE
  5
72
100
AcDbEntity
  8
15
370
    30
  6
Continuous
 62
    96
100
AcDbLine
 10
610.0
 20
432.0
 30
0.0
 11
789.986079
 21
432.0
 31
0.0
  0
TEXT
  5
73
100
AcDbEntity
  8
15
370
     9
  6
PHANTOM
 62
    96
100
AcDbText
 10
701.0
 20
434.5
 30
0.0
 40
6.0
  1
満充電時３０分間
 41
0.833333
 11
701.0
 21
434.5
 31
0.0
100
AcDbText
 73
     1
  0
TEXT
  5
74
100
AcDbEntity
  8
15
370
     9
  6
PHANTOM
 62
    96
100
AcDbText
 10
617.0
 20
434.5
 30
0.0
 40
6.0
  1
停電補償時間
 41
0.833333
 11
617.0
 21
434.5
 31
0.0
100
AcDbText
 73
     1
  0
TEXT
  5
75
100
AcDbEntity
  8
15
370
     9
  6
Continuous
 62
    96
100
AcDbText
 10
693.0
 20
445.5
 30
0.0
 40
6.0
  1
－２０～＋４０℃
 41
0.833333
 11
693.0
 21
445.5
 31
0.0
100
AcDbText
 73
     1
  0
TEXT
  5
76
100
AcDbEntity
  8
15
370
     9
  6
Continuous
 62
    96
100
AcDbText
 10
626.0
 20
445.5
 30
0.0
 40
6.0
  1
保　管
 41
0.833333
 11
626.0
 21
445.5
 31
0.0
100
AcDbText
 73
     1
  0
TEXT
  5
77
100
AcDbEntity
  8
15
370
     9
  6
Continuous
 62
    96
100
AcDbText
 10
693.0
 20
456.5
 30
0.0
 40
6.0
  1
－２０～＋５０℃
 41
0.833333
 11
693.0
 21
456.5
 31
0.0
100
AcDbText
 73
     1
  0
TEXT
  5
78
100
AcDbEntity
  8
15
370
     9
  6
Continuous
 62
    96
100
AcDbText
 10
626.0
 20
456.5
 30
0.0
 40
6.0
  1
放　電
 41
0.833333
 11
626.0
 21
456.5
 31
0.0
100
AcDbText
 73
     1
  0
LINE
  5
79
100
AcDbEntity
  8
15
370
    30
  6
Continuous
 62
    96
100
AcDbLine
 10
789.986079
 20
282.25674
 30
0.0
 11
789.986079
 21
469.895518
 31
0.0
  0
LINE
  5
7A
100
AcDbEntity
  8
15
370
     9
  6
Continuous
 62
    96
100
AcDbLine
 10
610.0
 20
443.0
 30
0.0
 11
789.986079
 21
443.0
 31
0.0
  0
LINE
  5
7B
100
AcDbEntity
  8
15
370
     9
  6
Continuous
 62
    96
100
AcDbLine
 10
610.0
 20
454.0
 30
0.0
 11
790.0
 21
454.0
 31
0.0
  0
LINE
  5
7C
100
AcDbEntity
  8
15
370
     9
  6
Continuous
 62
    96
100
AcDbLine
 10
610.0
 20
465.0
 30
0.0
 11
790.0
 21
465.0
 31
0.0
  0
TEXT
  5
7D
100
AcDbEntity
  8
15
370
     9
  6
PHANTOM
 62
    96
100
AcDbText
 10
617.0
 20
467.5
 30
0.0
 40
6.0
  1
使用温度範囲
 41
0.833333
 11
617.0
 21
467.5
 31
0.0
100
AcDbText
 73
     1
  0
TEXT
  5
7E
100
AcDbEntity
  8
15
370
     9
  6
PHANTOM
 62
    96
100
AcDbText
 10
710.0
 20
478.5
 30
0.0
 40
6.0
  1
０．８ｋｇ
 41
0.833333
 11
710.0
 21
478.5
 31
0.0
100
AcDbText
 73
     1
  0
TEXT
  5
7F
100
AcDbEntity
  8
15
370
     9
  6
PHANTOM
 62
    96
100
AcDbText
 10
623.0
 20
478.5
 30
0.0
 40
6.0
  1
電池質量
 41
0.833333
 11
623.0
 21
478.5
 31
0.0
100
AcDbText
 73
     1
  0
TEXT
  5
80
100
AcDbEntity
  8
15
370
     9
  6
PHANTOM
 62
    96
100
AcDbText
 10
698.0
 20
489.5
 30
0.0
 40
6.0
  1
２４ｈ（２０ＨＲ）
 41
0.833333
 11
698.0
 21
489.5
 31
0.0
100
AcDbText
 73
     1
  0
TEXT
  5
81
100
AcDbEntity
  8
15
370
     9
  6
PHANTOM
 62
    96
100
AcDbText
 10
623.0
 20
489.5
 30
0.0
 40
6.0
  1
定格容量
 41
0.833333
 11
623.0
 21
489.5
 31
0.0
100
AcDbText
 73
     1
  0
TEXT
  5
82
100
AcDbEntity
  8
15
370
     9
  6
PHANTOM
 62
    96
100
AcDbText
 10
623.0
 20
500.5
 30
0.0
 40
6.0
  1
公称電圧
 41
0.833333
 11
623.0
 21
500.5
 31
0.0
100
AcDbText
 73
     1
  0
TEXT
  5
83
100
AcDbEntity
  8
15
370
     9
  6
PHANTOM
 62
    96
100
AcDbText
 10
679.0
 20
511.5
 30
0.0
 40
6.0
  1
定　　　　　格
 41
0.833333
 11
679.0
 21
511.5
 31
0.0
100
AcDbText
 73
     1
  0
TEXT
  5
84
100
AcDbEntity
  8
15
370
     9
  6
PHANTOM
 62
    96
100
AcDbText
 10
620.0
 20
522.5
 30
0.0
 40
6.0
  1
商品コード
 41
0.833333
 11
620.0
 21
522.5
 31
0.0
100
AcDbText
 73
     1
  0
LINE
  5
85
100
AcDbEntity
  8
15
370
    30
  6
Continuous
 62
    96
100
AcDbLine
 10
789.993039
 20
277.792682
 30
0.0
 11
789.993039
 21
282.055555
 31
0.0
  0
LINE
  5
86
100
AcDbEntity
  8
15
370
    30
  6
Continuous
 62
    96
100
AcDbLine
 10
789.993039
 20
237.617393
 30
0.0
 11
789.993039
 21
318.5632
 31
0.0
  0
LINE
  5
87
100
AcDbEntity
  8
15
370
    50
  6
Continuous
 62
    96
100
AcDbLine
 10
790.0
 20
199.000041
 30
0.0
 11
790.0
 21
218.400032
 31
0.0
  0
LINE
  5
88
100
AcDbEntity
  8
15
370
    30
  6
Continuous
 62
    96
100
AcDbLine
 10
790.0
 20
132.000014
 30
0.0
 11
790.0
 21
240.356938
 31
0.0
  0
LINE
  5
89
100
AcDbEntity
  8
15
370
    30
  6
Continuous
 62
    96
100
AcDbLine
 10
790.0
 20
131.98642
 30
0.0
 11
790.0
 21
239.849293
 31
0.0
  0
LINE
  5
8A
100
AcDbEntity
  8
15
370
    30
  6
Continuous
 62
    96
100
AcDbLine
 10
610.0
 20
107.000014
 30
0.0
 11
610.0
 21
132.000014
 31
0.0
  0
LINE
  5
8B
100
AcDbEntity
  8
15
370
    30
  6
Continuous
 62
    96
100
AcDbLine
 10
610.0
 20
531.0
 30
0.0
 11
610.0
 21
132.000014
 31
0.0
  0
TEXT
  5
8C
100
AcDbEntity
  8
15
370
     9
  6
Continuous
 62
    96
100
AcDbText
 10
674.2
 20
111.000014
 30
0.0
 40
10.0
  1
現　場　名
 41
0.86
 11
674.2
 21
111.000014
 31
0.0
100
AcDbText
 73
     1
  0
TEXT
  5
8D
100
AcDbEntity
  8
15
370
     9
  6
Continuous
 62
    96
100
AcDbText
 10
622.4
 20
127.500014
 30
0.0
 40
6.0
  1
図面履歴
 41
0.875
 11
622.4
 21
127.500014
 31
0.0
100
AcDbText
 73
     1
  0
LINE
  5
8E
100
AcDbEntity
  8
15
370
     9
  6
Continuous
 62
    96
100
AcDbLine
 10
660.0
 20
136.000014
 30
0.0
 11
660.0
 21
125.000014
 31
0.0
  0
LINE
  5
8F
100
AcDbEntity
  8
15
370
    30
  6
Continuous
 62
    96
100
AcDbLine
 10
610.0
 20
136.000014
 30
0.0
 11
790.0
 21
136.000014
 31
0.0
  0
LINE
  5
90
100
AcDbEntity
  8
15
370
     9
  6
Continuous
 62
    96
100
AcDbLine
 10
610.0
 20
476.0
 30
0.0
 11
790.0
 21
476.0
 31
0.0
  0
LINE
  5
91
100
AcDbEntity
  8
15
370
     9
  6
Continuous
 62
    96
100
AcDbLine
 10
790.0
 20
487.0
 30
0.0
 11
610.0
 21
487.0
 31
0.0
  0
LINE
  5
92
100
AcDbEntity
  8
15
370
     9
  6
Continuous
 62
    96
100
AcDbLine
 10
610.0
 20
498.0
 30
0.0
 11
790.0
 21
498.0
 31
0.0
  0
LINE
  5
93
100
AcDbEntity
  8
15
370
    30
  6
Continuous
 62
    96
100
AcDbLine
 10
610.0
 20
509.0
 30
0.0
 11
790.0
 21
509.0
 31
0.0
  0
LINE
  5
94
100
AcDbEntity
  8
15
370
    30
  6
Continuous
 62
    96
100
AcDbLine
 10
610.0
 20
520.0
 30
0.0
 11
790.0
 21
520.0
 31
0.0
  0
LINE
  5
95
100
AcDbEntity
  8
15
370
     9
  6
Continuous
 62
    96
100
AcDbLine
 10
660.0
 20
531.0
 30
0.0
 11
660.0
 21
520.0
 31
0.0
  0
LINE
  5
96
100
AcDbEntity
  8
15
370
     9
  6
Continuous
 62
    96
100
AcDbLine
 10
740.0
 20
71.0
 30
0.0
 11
740.0
 21
53.00001
 31
0.0
  0
LINE
  5
97
100
AcDbEntity
  8
15
370
     9
  6
Continuous
 62
    96
100
AcDbLine
 10
690.0
 20
71.0
 30
0.0
 11
690.0
 21
53.000006
 31
0.0
  0
LINE
  5
98
100
AcDbEntity
  8
15
370
     9
  6
Continuous
 62
    96
100
AcDbLine
 10
640.0
 20
71.0
 30
0.0
 11
640.0
 21
53.000002
 31
0.0
  0
TEXT
  5
99
100
AcDbEntity
  8
15
370
     9
  6
Continuous
 62
    96
100
AcDbText
 10
742.107283
 20
64.697673
 30
0.0
 40
5.0
  1
作図
 41
0.85
 11
742.107283
 21
64.697673
 31
0.0
100
AcDbText
 73
     1
  0
TEXT
  5
9A
100
AcDbEntity
  8
15
370
     9
  6
Continuous
 62
    96
100
AcDbText
 10
614.275212
 20
44.018798
 30
0.0
 40
5.0
  1
図面番号
 41
0.858333
 11
614.275212
 21
44.018798
 31
0.0
100
AcDbText
 73
     1
  0
TEXT
  5
9B
100
AcDbEntity
  8
15
370
     9
  6
Continuous
 62
    96
100
AcDbText
 10
727.832041
 20
44.179874
 30
0.0
 40
5.0
  1
日付
 41
0.85
 11
727.832041
 21
44.179874
 31
0.0
100
AcDbText
 73
     1
  0
LINE
  5
9C
100
AcDbEntity
  8
15
370
     9
  6
Continuous
 62
    96
100
AcDbLine
 10
725.306708
 20
53.0
 30
0.0
 11
725.306708
 21
41.0
 31
0.0
  0
TEXT
  5
9D
100
AcDbEntity
  8
15
370
     9
  6
Continuous
 62
    96
100
AcDbText
 10
723.017639
 20
17.773756
 30
0.0
 40
20.0
  1
アート
 41
0.833333
 11
723.017639
 21
17.773756
 31
0.0
100
AcDbText
 73
     1
  0
TEXT
  5
9E
100
AcDbEntity
  8
15
370
     9
  6
Continuous
 62
    96
100
AcDbText
 10
691.421899
 20
65.351678
 30
0.0
 40
5.0
  1
承認
 41
0.85
 11
691.421899
 21
65.351678
 31
0.0
100
AcDbText
 73
     1
  0
LINE
  5
9F
100
AcDbEntity
  8
15
370
     9
  6
Continuous
 62
    96
100
AcDbLine
 10
740.0
 20
53.00001
 30
0.0
 11
740.0
 21
41.00001
 31
0.0
  0
INSERT
  5
A4
100
AcDbEntity
  8
0
370
     9
  6
Continuous
 62
    96
100
AcDbBlockReference
  2
*G1
 10
0.0
 20
0.0
 30
0.0
  0
LINE
  5
A5
100
AcDbEntity
  8
15
370
     9
  6
Continuous
 62
    96
100
AcDbLine
 10
639.038582
 20
39.012871
 30
0.0
 11
618.580269
 21
18.757122
 31
0.0
  0
LINE
  5
A6
100
AcDbEntity
  8
15
370
     9
  6
Continuous
 62
    96
100
AcDbLine
 10
639.038582
 20
18.757122
 30
0.0
 11
639.038582
 21
39.012871
 31
0.0
  0
LINE
  5
A7
100
AcDbEntity
  8
15
370
     9
  6
Continuous
 62
    96
100
AcDbLine
 10
640.0
 20
53.000002
 30
0.0
 11
640.0
 21
41.000002
 31
0.0
  0
TEXT
  5
A8
100
AcDbEntity
  8
15
370
     9
  6
Continuous
 62
    96
100
AcDbText
 10
611.491544
 20
65.162847
 30
0.0
 40
5.0
  1
縮尺（Ａ３）
 41
0.861111
 11
611.491544
 21
65.162847
 31
0.0
100
AcDbText
 73
     1
  0
LINE
  5
A9
100
AcDbEntity
  8
15
370
     9
  6
Continuous
 62
    96
100
AcDbLine
 10
789.397114
 20
53.000014
 30
0.0
 11
610.0
 21
53.0
 31
0.0
  0
LINE
  5
AA
100
AcDbEntity
  8
15
370
     9
  6
Continuous
 62
    96
100
AcDbLine
 10
610.0
 20
107.000014
 30
0.0
 11
790.0
 21
107.000014
 31
0.0
  0
LINE
  5
AB
100
AcDbEntity
  8
15
370
     9
  6
Continuous
 62
    96
100
AcDbLine
 10
610.0
 20
71.0
 30
0.0
 11
789.397114
 21
71.0
 31
0.0
  0
LINE
  5
AC
100
AcDbEntity
  8
15
370
     9
  6
Continuous
 62
    96
100
AcDbLine
 10
790.0
 20
41.000014
 30
0.0
 11
610.0
 21
41.0
 31
0.0
  0
LINE
  5
AD
100
AcDbEntity
  8
15
370
     9
  6
Continuous
 62
    96
100
AcDbLine
 10
610.0
 20
89.0
 30
0.0
 11
790.0
 21
89.000014
 31
0.0
  0
LINE
  5
AE
100
AcDbEntity
  8
15
370
     9
  6
Continuous
 62
    96
100
AcDbLine
 10
610.0
 20
89.000014
 30
0.0
 11
790.0
 21
89.000014
 31
0.0
  0
LINE
  5
AF
100
AcDbEntity
  8
15
370
    30
  6
Continuous
 62
    96
100
AcDbLine
 10
610.0
 20
17.0
 30
0.0
 11
610.0
 21
107.000014
 31
0.0
  0
LINE
  5
B0
100
AcDbEntity
  8
15
370
    30
  6
Continuous
 62
    96
100
AcDbLine
 10
610.0
 20
125.000014
 30
0.0
 11
790.0
 21
125.000014
 31
0.0
  0
TEXT
  5
B1
100
AcDbEntity
  8
15
370
    30
  6
Continuous
 62
    96
100
AcDbText
 10
610.862053
 20
82.909251
 30
0.0
 40
5.0
  1
製品名
 41
0.855556
 11
610.862053
 21
82.909251
 31
0.0
100
AcDbText
 73
     1
  0
TEXT
  5
B2
100
AcDbEntity
  8
15
370
    30
  6
Continuous
 62
    96
100
AcDbText
 10
610.862053
 20
101.231165
 30
0.0
 40
5.0
  1
型　式
 41
0.855556
 11
610.862053
 21
101.231165
 31
0.0
100
AcDbText
 73
     1
  0
LINE
  5
B3
100
AcDbEntity
  8
15
370
    30
  6
Continuous
 62
    96
100
AcDbLine
 10
650.381811
 20
26.454308
 30
0.0
 11
650.381811
 21
18.757122
 31
0.0
  0
LINE
  5
B4
100
AcDbEntity
  8
15
370
    30
  6
Continuous
 62
    96
100
AcDbLine
 10
647.748557
 20
26.454308
 30
0.0
 11
650.381811
 21
26.454308
 31
0.0
  0
LINE
  5
B5
100
AcDbEntity
  8
15
370
    30
  6
Continuous
 62
    96
100
AcDbLine
 10
647.748557
 20
28.884994
 30
0.0
 11
647.748557
 21
26.454308
 31
0.0
  0
LINE
  5
B6
100
AcDbEntity
  8
15
370
    30
  6
Continuous
 62
    96
100
AcDbLine
 10
655.850855
 20
28.884994
 30
0.0
 11
647.748557
 21
28.884994
 31
0.0
  0
LINE
  5
B7
100
AcDbEntity
  8
15
370
    30
  6
Continuous
 62
    96
100
AcDbLine
 10
645.115316
 20
22.082028
 30
0.0
 11
648.677712
 21
18.757122
 31
0.0
  0
ARC
  5
B8
100
AcDbEntity
  8
15
370
    30
  6
Continuous
 62
    96
100
AcDbCircle
 10
644.283758
 20
25.441519
 30
0.0
 40
3.464798
100
AcDbArc
 50
-76.055153
 51
83.640296
  0
LINE
  5
B9
100
AcDbEntity
  8
15
370
    30
  6
Continuous
 62
    96
100
AcDbLine
 10
639.848817
 20
28.884994
 30
0.0
 11
644.667557
 21
28.884994
 31
0.0
  0
LINE
  5
BA
100
AcDbEntity
  8
15
370
    30
  6
Continuous
 62
    96
100
AcDbLine
 10
639.848817
 20
28.884994
 30
0.0
 11
639.848817
 21
26.454308
 31
0.0
  0
LINE
  5
BB
100
AcDbEntity
  8
15
370
    30
  6
Continuous
 62
    96
100
AcDbLine
 10
639.848817
 20
26.454308
 30
0.0
 11
643.899968
 21
26.454308
 31
0.0
  0
LINE
  5
BC
100
AcDbEntity
  8
15
370
    30
  6
Continuous
 62
    96
100
AcDbLine
 10
639.038582
 20
24.42873
 30
0.0
 11
643.899968
 21
24.42873
 31
0.0
  0
ARC
  5
BD
100
AcDbEntity
  8
15
370
    30
  6
Continuous
 62
    96
100
AcDbCircle
 10
643.899968
 20
25.441519
 30
0.0
 40
1.012789
100
AcDbArc
 50
-90.0
 51
90.0
  0
LINE
  5
BE
100
AcDbEntity
  8
15
370
    30
  6
Continuous
 62
    96
100
AcDbLine
 10
639.038582
 20
24.42873
 30
0.0
 11
645.115316
 21
18.757122
 31
0.0
  0
LINE
  5
BF
100
AcDbEntity
  8
15
370
    30
  6
Continuous
 62
    96
100
AcDbLine
 10
634.78488
 20
23.010828
 30
0.0
 11
630.328616
 21
23.010828
 31
0.0
  0
LINE
  5
C0
100
AcDbEntity
  8
15
370
    30
  6
Continuous
 62
    96
100
AcDbLine
 10
634.78488
 20
28.530296
 30
0.0
 11
634.78488
 21
23.010828
 31
0.0
  0
LINE
  5
C1
100
AcDbEntity
  8
15
370
    30
  6
Continuous
 62
    96
100
AcDbLine
 10
624.913974
 20
18.757122
 30
0.0
 11
634.78488
 21
28.530296
 31
0.0
  0
TEXT
  5
C2
100
AcDbEntity
  8
15
370
     9
  6
Continuous
 62
    96
100
AcDbText
 10
610.99844
 20
119.127426
 30
0.0
 40
5.0
  1
現場名
 41
0.855556
 11
610.99844
 21
119.127426
 31
0.0
100
AcDbText
 73
     1
  0
LINE
  5
C3
100
AcDbEntity
  8
15
370
    30
  6
Continuous
 62
    96
100
AcDbLine
 10
630.328616
 20
23.010828
 30
0.0
 11
630.328616
 21
18.757122
 31
0.0
  0
LINE
  5
C4
100
AcDbEntity
  8
15
370
    30
  6
Continuous
 62
    96
100
AcDbLine
 10
630.328616
 20
18.757122
 30
0.0
 11
639.038582
 21
18.757122
 31
0.0
  0
LINE
  5
C5
100
AcDbEntity
  8
15
370
    30
  6
Continuous
 62
    96
100
AcDbLine
 10
648.677712
 20
18.757122
 30
0.0
 11
645.115316
 21
18.757122
 31
0.0
  0
LINE
  5
C6
100
AcDbEntity
  8
15
370
    30
  6
Continuous
 62
    96
100
AcDbLine
 10
650.381811
 20
18.757122
 30
0.0
 11
653.217619
 21
18.757122
 31
0.0
  0
LINE
  5
C7
100
AcDbEntity
  8
15
370
    30
  6
Continuous
 62
    96
100
AcDbLine
 10
653.217619
 20
18.757122
 30
0.0
 11
653.217619
 21
26.454308
 31
0.0
  0
LINE
  5
C8
100
AcDbEntity
  8
15
370
    30
  6
Continuous
 62
    96
100
AcDbLine
 10
653.217619
 20
26.454308
 30
0.0
 11
655.850855
 21
26.454308
 31
0.0
  0
LINE
  5
C9
100
AcDbEntity
  8
15
370
    30
  6
Continuous
 62
    96
100
AcDbLine
 10
655.850855
 20
26.454308
 30
0.0
 11
655.850855
 21
28.884994
 31
0.0
  0
LINE
  5
CA
100
AcDbEntity
  8
15
370
    30
  6
Continuous
 62
    96
100
AcDbLine
 10
618.580269
 20
18.757122
 30
0.0
 11
624.913974
 21
18.757122
 31
0.0
  0
TEXT
  5
CB
100
AcDbEntity
  8
15
370
     9
  6
Continuous
 62
    96
100
AcDbText
 10
658.362267
 20
18.618157
 30
0.0
 40
7.2
  1
株式会社
 41
1.753472
 11
658.362267
 21
18.618157
 31
0.0
100
AcDbText
 73
     1
  0
TEXT
  5
CC
100
AcDbEntity
  8
15
370
     9
  6
Continuous
 62
    96
100
AcDbText
 10
658.221151
 20
26.379516
 30
0.0
 40
3.6
  1
出入管理システム
 41
1.018519
 11
658.221151
 21
26.379516
 31
0.0
100
AcDbText
 73
     1
  0
LINE
  5
CD
100
AcDbEntity
  8
15
370
     9
  6
Continuous
 62
    96
100
AcDbLine
 10
718.672962
 20
28.400192
 30
0.0
 11
693.747637
 21
28.400192
 31
0.0
  0
LINE
  5
CE
100
AcDbEntity
  8
15
370
    50
  6
Continuous
 62
    96
100
AcDbLine
 10
790.0
 20
531.0
 30
0.0
 11
790.0
 21
17.0
 31
0.0
  0
LINE
  5
CF
100
AcDbEntity
  8
15
370
    50
  6
Continuous
 62
    96
100
AcDbLine
 10
20.0
 20
531.0
 30
0.0
 11
790.0
 21
531.0
 31
0.0
  0
LINE
  5
D0
100
AcDbEntity
  8
15
370
    50
  6
Continuous
 62
    96
100
AcDbLine
 10
20.0
 20
17.0
 30
0.0
 11
790.0
 21
17.0
 31
0.0
  0
LINE
  5
D1
100
AcDbEntity
  8
15
370
    50
  6
Continuous
 62
    96
100
AcDbLine
 10
20.0
 20
531.0
 30
0.0
 11
20.0
 21
17.0
 31
0.0
  0
TEXT
  5
D2
100
AcDbEntity
  8
15
370
     9
  6
PHANTOM
 62
    96
100
AcDbText
 10
716.0
 20
500.5
 30
0.0
 40
6.0
  1
２４Ｖ
 41
0.833333
 11
716.0
 21
500.5
 31
0.0
100
AcDbText
 73
     1
  0
LINE
  5
D3
100
AcDbEntity
  8
1
370
    30
  6
Continuous
 62
     7
100
AcDbLine
 10
297.700599
 20
351.048859
 30
0.0
 11
297.700599
 21
401.548859
 31
0.0
  0
LINE
  5
D4
100
AcDbEntity
  8
1
370
    30
  6
Continuous
 62
     7
100
AcDbLine
 10
297.700599
 20
351.048859
 30
0.0
 11
96.700599
 21
351.048859
 31
0.0
  0
LINE
  5
D5
100
AcDbEntity
  8
1
370
    30
  6
Continuous
 62
     7
100
AcDbLine
 10
96.700599
 20
401.548859
 30
0.0
 11
96.700599
 21
351.048859
 31
0.0
  0
LINE
  5
D6
100
AcDbEntity
  8
1
370
    30
  6
Continuous
 62
     7
100
AcDbLine
 10
97.173929
 20
300.718572
 30
0.0
 11
96.700599
 21
288.718563
 31
0.0
  0
ARC
  5
D7
100
AcDbEntity
  8
1
370
    30
  6
Continuous
 62
     7
100
AcDbCircle
 10
98.173929
 20
300.718572
 30
0.0
 40
1.0
100
AcDbArc
 50
90.0
 51
180.0
  0
LINE
  5
D8
100
AcDbEntity
  8
1
370
    30
  6
Continuous
 62
     7
100
AcDbLine
 10
98.175449
 20
301.718563
 30
0.0
 11
296.592904
 21
301.718563
 31
0.0
  0
LINE
  5
D9
100
AcDbEntity
  8
1
370
    30
  6
Continuous
 62
     7
100
AcDbLine
 10
297.700599
 20
274.718563
 30
0.0
 11
297.592904
 21
300.718563
 31
0.0
  0
ARC
  5
DA
100
AcDbEntity
  8
1
370
    30
  6
Continuous
 62
     7
100
AcDbCircle
 10
296.592904
 20
300.718563
 30
0.0
 40
1.0
100
AcDbArc
 50
0.0
 51
90.0
  0
LINE
  5
DB
100
AcDbEntity
  8
1
370
    30
  6
Continuous
 62
     7
100
AcDbLine
 10
96.700599
 20
274.718563
 30
0.0
 11
96.700599
 21
286.718563
 31
0.0
  0
ARC
  5
DC
100
AcDbEntity
  8
1
370
     9
  6
Continuous
 62
     7
100
AcDbCircle
 10
95.865368
 20
287.718563
 30
0.0
 40
1.302924
100
AcDbArc
 50
-50.130335
 51
50.130335
  0
LINE
  5
DD
100
AcDbEntity
  8
1
370
     9
  6
Continuous
 62
     7
100
AcDbLine
 10
285.700599
 20
286.718563
 30
0.0
 11
96.700599
 21
286.718563
 31
0.0
  0
LINE
  5
DE
100
AcDbEntity
  8
1
370
     9
  6
Continuous
 62
     7
100
AcDbLine
 10
96.700599
 20
288.718563
 30
0.0
 11
285.700599
 21
288.718563
 31
0.0
  0
LINE
  5
DF
100
AcDbEntity
  8
1
370
     9
  6
Continuous
 62
     7
100
AcDbLine
 10
285.700599
 20
287.082069
 30
0.0
 11
292.85501
 21
287.082069
 31
0.0
  0
LINE
  5
E0
100
AcDbEntity
  8
1
370
     9
  6
Continuous
 62
     7
100
AcDbLine
 10
285.700599
 20
288.718563
 30
0.0
 11
285.700599
 21
286.718563
 31
0.0
  0
LINE
  5
E1
100
AcDbEntity
  8
1
370
    30
  6
Continuous
 62
     7
100
AcDbLine
 10
95.500599
 20
400.348859
 30
0.0
 11
95.500599
 21
349.848859
 31
0.0
  0
LINE
  5
E2
100
AcDbEntity
  8
1
370
    30
  6
Continuous
 62
     7
100
AcDbLine
 10
95.500599
 20
349.848859
 30
0.0
 11
298.900599
 21
349.848859
 31
0.0
  0
LINE
  5
E3
100
AcDbEntity
  8
1
370
    30
  6
Continuous
 62
     7
100
AcDbLine
 10
95.500599
 20
274.71215
 30
0.0
 11
95.500599
 21
240.71215
 31
0.0
  0
LINE
  5
E4
100
AcDbEntity
  8
1
370
    30
  6
Continuous
 62
     7
100
AcDbLine
 10
95.500599
 20
240.718563
 30
0.0
 11
95.700599
 21
240.718563
 31
0.0
  0
LINE
  5
E5
100
AcDbEntity
  8
1
370
    30
  6
Continuous
 62
     7
100
AcDbLine
 10
96.700599
 20
239.718563
 30
0.0
 11
96.700599
 21
239.518563
 31
0.0
  0
ARC
  5
E6
100
AcDbEntity
  8
1
370
    30
  6
Continuous
 62
     7
100
AcDbCircle
 10
95.700599
 20
239.718563
 30
0.0
 40
1.0
100
AcDbArc
 50
0.0
 51
90.0
  0
LINE
  5
E7
100
AcDbEntity
  8
1
370
    30
  6
Continuous
 62
     7
100
AcDbLine
 10
96.700599
 20
239.518563
 30
0.0
 11
297.700599
 21
239.518563
 31
0.0
  0
LINE
  5
E8
100
AcDbEntity
  8
1
370
    30
  6
Continuous
 62
     7
100
AcDbLine
 10
298.900599
 20
240.718563
 30
0.0
 11
298.900599
 21
274.724976
 31
0.0
  0
LINE
  5
E9
100
AcDbEntity
  8
1
370
    30
  6
Continuous
 62
     7
100
AcDbLine
 10
298.900599
 20
274.718563
 30
0.0
 11
95.500599
 21
274.718563
 31
0.0
  0
CIRCLE
  5
EA
100
AcDbEntity
  8
1
370
    30
  6
Continuous
 62
     7
100
AcDbCircle
 10
305.650599
 20
267.118563
 30
0.0
 40
1.75
  0
INSERT
  5
F4
100
AcDbEntity
  8
0
370
     9
  6
Continuous
 62
     7
100
AcDbBlockReference
  2
*G2
 10
0.0
 20
0.0
 30
0.0
  0
CIRCLE
  5
F5
100
AcDbEntity
  8
1
370
    30
  6
Continuous
 62
     7
100
AcDbCircle
 10
88.750599
 20
267.118563
 30
0.0
 40
1.75
  0
INSERT
  5
FF
100
AcDbEntity
  8
0
370
     9
  6
Continuous
 62
     7
100
AcDbBlockReference
  2
*G3
 10
0.0
 20
0.0
 30
0.0
  0
LINE
  5
100
100
AcDbEntity
  8
1
370
    30
  6
Continuous
 62
     7
100
AcDbLine
 10
308.800599
 20
401.548859
 30
0.0
 11
297.698045
 21
401.548859
 31
0.0
  0
LINE
  5
101
100
AcDbEntity
  8
1
370
    30
  6
Continuous
 62
     7
100
AcDbLine
 10
308.800599
 20
400.348859
 30
0.0
 11
298.898045
 21
400.348859
 31
0.0
  0
INSERT
  5
109
100
AcDbEntity
  8
0
370
     9
  6
Continuous
 62
     7
100
AcDbBlockReference
  2
*G4
 10
0.0
 20
0.0
 30
0.0
  0
LINE
  5
10A
100
AcDbEntity
  8
1
370
    30
  6
Continuous
 62
     7
100
AcDbLine
 10
85.600599
 20
401.548859
 30
0.0
 11
96.700599
 21
401.548859
 31
0.0
  0
LINE
  5
10B
100
AcDbEntity
  8
1
370
    30
  6
Continuous
 62
     7
100
AcDbLine
 10
85.600599
 20
400.348859
 30
0.0
 11
95.500599
 21
400.348859
 31
0.0
  0
INSERT
  5
113
100
AcDbEntity
  8
0
370
     9
  6
Continuous
 62
     7
100
AcDbBlockReference
  2
*G5
 10
0.0
 20
0.0
 30
0.0
  0
LINE
  5
114
100
AcDbEntity
  8
1
370
    30
  6
Continuous
 62
     7
100
AcDbLine
 10
85.600599
 20
141.017216
 30
0.0
 11
95.500599
 21
141.017216
 31
0.0
  0
LINE
  5
115
100
AcDbEntity
  8
1
370
    30
  6
Continuous
 62
     7
100
AcDbLine
 10
308.801
 20
141.017216
 30
0.0
 11
298.901
 21
141.017216
 31
0.0
  0
LINE
  5
116
100
AcDbEntity
  8
1
370
    30
  6
Continuous
 62
     7
100
AcDbLine
 10
297.700599
 20
239.518563
 30
0.0
 11
297.700599
 21
239.718563
 31
0.0
  0
LINE
  5
117
100
AcDbEntity
  8
1
370
    30
  6
Continuous
 62
     7
100
AcDbLine
 10
298.900599
 20
240.718563
 30
0.0
 11
298.700599
 21
240.718563
 31
0.0
  0
ARC
  5
118
100
AcDbEntity
  8
1
370
    30
  6
Continuous
 62
     7
100
AcDbCircle
 10
298.700599
 20
239.718563
 30
0.0
 40
1.0
100
AcDbArc
 50
90.0
 51
180.0
  0
INSERT
  5
120
100
AcDbEntity
  8
0
370
     9
  6
Continuous
 62
     7
100
AcDbBlockReference
  2
*G6
 10
0.0
 20
0.0
 30
0.0
  0
LINE
  5
121
100
AcDbEntity
  8
1
370
    30
  6
Continuous
 62
     7
100
AcDbLine
 10
85.600599
 20
139.817216
 30
0.0
 11
308.806299
 21
139.817216
 31
0.0
  0
LINE
  5
122
100
AcDbEntity
  8
1
370
    30
  6
Continuous
 62
     7
100
AcDbLine
 10
96.700599
 20
191.517216
 30
0.0
 11
96.700599
 21
139.817216
 31
0.0
  0
LINE
  5
123
100
AcDbEntity
  8
1
370
    30
  6
Continuous
 62
     7
100
AcDbLine
 10
297.700599
 20
191.517216
 30
0.0
 11
297.700599
 21
139.817216
 31
0.0
  0
INSERT
  5
12B
100
AcDbEntity
  8
0
370
     9
  6
Continuous
 62
     7
100
AcDbBlockReference
  2
*G7
 10
0.0
 20
0.0
 30
0.0
  0
LINE
  5
12C
100
AcDbEntity
  8
1
370
    30
  6
Continuous
 62
     7
100
AcDbLine
 10
298.900599
 20
141.017216
 30
0.0
 11
298.900599
 21
190.517216
 31
0.0
  0
ARC
  5
12D
100
AcDbEntity
  8
1
370
    30
  6
Continuous
 62
     7
100
AcDbCircle
 10
297.900599
 20
190.517216
 30
0.0
 40
1.0
100
AcDbArc
 50
0.0
 51
90.0
  0
LINE
  5
12E
100
AcDbEntity
  8
1
370
    30
  6
Continuous
 62
     7
100
AcDbLine
 10
95.500599
 20
139.817216
 30
0.0
 11
95.500599
 21
190.517216
 31
0.0
  0
LINE
  5
12F
100
AcDbEntity
  8
1
370
    30
  6
Continuous
 62
     7
100
AcDbLine
 10
96.500599
 20
191.517216
 30
0.0
 11
297.900599
 21
191.517216
 31
0.0
  0
ARC
  5
130
100
AcDbEntity
  8
1
370
    30
  6
Continuous
 62
     7
100
AcDbCircle
 10
96.500599
 20
190.517216
 30
0.0
 40
1.0
100
AcDbArc
 50
90.0
 51
180.0
  0
LINE
  5
131
100
AcDbEntity
  8
1
370
    30
  6
Continuous
 62
     7
100
AcDbLine
 10
96.700599
 20
401.548859
 30
0.0
 11
297.700599
 21
401.548859
 31
0.0
  0
INSERT
  5
13D
100
AcDbEntity
  8
0
370
     9
  6
Continuous
 62
     7
100
AcDbBlockReference
  2
*G8
 10
0.0
 20
0.0
 30
0.0
  0
INSERT
  5
149
100
AcDbEntity
  8
0
370
     9
  6
Continuous
 62
     7
100
AcDbBlockReference
  2
*G9
 10
0.0
 20
0.0
 30
0.0
  0
INSERT
  5
156
100
AcDbEntity
  8
0
370
     9
  6
Continuous
 62
     7
100
AcDbBlockReference
  2
*G10
 10
0.0
 20
0.0
 30
0.0
  0
INSERT
  5
163
100
AcDbEntity
  8
0
370
     9
  6
Continuous
 62
     7
100
AcDbBlockReference
  2
*G11
 10
0.0
 20
0.0
 30
0.0
  0
INSERT
  5
16F
100
AcDbEntity
  8
0
370
     9
  6
Continuous
 62
     7
100
AcDbBlockReference
  2
*G12
 10
0.0
 20
0.0
 30
0.0
  0
INSERT
  5
17B
100
AcDbEntity
  8
0
370
     9
  6
Continuous
 62
     7
100
AcDbBlockReference
  2
*G13
 10
0.0
 20
0.0
 30
0.0
  0
LINE
  5
17C
100
AcDbEntity
  8
1
370
    30
  6
Continuous
 62
     7
100
AcDbLine
 10
297.700599
 20
392.048859
 30
0.0
 11
437.700599
 21
392.048859
 31
0.0
  0
LINE
  5
17D
100
AcDbEntity
  8
1
370
    30
  6
Continuous
 62
     7
100
AcDbLine
 10
297.700599
 20
389.048859
 30
0.0
 11
437.700599
 21
389.048859
 31
0.0
  0
LINE
  5
17E
100
AcDbEntity
  8
1
370
    30
  6
Continuous
 62
     7
100
AcDbLine
 10
297.700599
 20
363.048859
 30
0.0
 11
437.700599
 21
363.048859
 31
0.0
  0
LINE
  5
17F
100
AcDbEntity
  8
1
370
    30
  6
Continuous
 62
     7
100
AcDbLine
 10
297.700599
 20
360.048859
 30
0.0
 11
437.700599
 21
360.048859
 31
0.0
  0
LINE
  5
180
100
AcDbEntity
  8
1
370
    30
  6
Continuous
 62
     7
100
AcDbLine
 10
298.900599
 20
349.848859
 30
0.0
 11
298.900599
 21
360.048859
 31
0.0
  0
LINE
  5
181
100
AcDbEntity
  8
1
370
    30
  6
Continuous
 62
     7
100
AcDbLine
 10
298.900599
 20
363.048859
 30
0.0
 11
298.900599
 21
389.048859
 31
0.0
  0
LINE
  5
182
100
AcDbEntity
  8
1
370
    30
  6
Continuous
 62
     7
100
AcDbLine
 10
298.900599
 20
392.048859
 30
0.0
 11
298.900599
 21
400.348859
 31
0.0
  0
LINE
  5
183
100
AcDbEntity
  8
1
370
    30
  6
Continuous
 62
     7
100
AcDbLine
 10
437.700599
 20
392.048859
 30
0.0
 11
437.700599
 21
389.048859
 31
0.0
  0
LINE
  5
184
100
AcDbEntity
  8
1
370
    30
  6
Continuous
 62
     7
100
AcDbLine
 10
437.700599
 20
363.048859
 30
0.0
 11
437.700599
 21
360.048859
 31
0.0
  0
LINE
  5
185
100
AcDbEntity
  8
1
370
    30
  6
Continuous
 62
     7
100
AcDbLine
 10
437.700599
 20
362.771681
 30
0.0
 11
438.487331
 21
362.771681
 31
0.0
  0
LINE
  5
186
100
AcDbEntity
  8
1
370
    30
  6
Continuous
 62
     7
100
AcDbLine
 10
437.700599
 20
361.771681
 30
0.0
 11
439.267104
 21
361.771681
 31
0.0
  0
LINE
  5
187
100
AcDbEntity
  8
1
370
    30
  6
Continuous
 62
     7
100
AcDbLine
 10
439.267104
 20
361.771681
 30
0.0
 11
446.329104
 21
389.870681
 31
0.0
  0
LINE
  5
188
100
AcDbEntity
  8
1
370
    30
  6
Continuous
 62
     7
100
AcDbLine
 10
447.700599
 20
395.170681
 30
0.0
 11
454.200599
 21
394.870681
 31
0.0
  0
LINE
  5
189
100
AcDbEntity
  8
1
370
    30
  6
Continuous
 62
     7
100
AcDbLine
 10
454.200599
 20
386.870681
 30
0.0
 11
447.700599
 21
386.570681
 31
0.0
  0
LINE
  5
18A
100
AcDbEntity
  8
1
370
    30
  6
Continuous
 62
     7
100
AcDbLine
 10
456.200599
 20
392.870681
 30
0.0
 11
456.200599
 21
392.866127
 31
0.0
  0
ARC
  5
18B
100
AcDbEntity
  8
1
370
    30
  6
Continuous
 62
     7
100
AcDbCircle
 10
460.300556
 20
391.520871
 30
0.0
 40
1.1
100
AcDbArc
 50
95.194429
 51
180.0
  0
ARC
  5
18C
100
AcDbEntity
  8
1
370
    30
  6
Continuous
 62
     7
100
AcDbCircle
 10
460.300527
 20
390.220139
 30
0.0
 40
1.1
100
AcDbArc
 50
180.0
 51
-95.215909
  0
LINE
  5
18D
100
AcDbEntity
  8
1
370
    30
  6
Continuous
 62
     7
100
AcDbLine
 10
460.200967
 20
392.616353
 30
0.0
 11
463.700967
 21
392.870681
 31
0.0
  0
LINE
  5
18E
100
AcDbEntity
  8
1
370
    30
  6
Continuous
 62
     7
100
AcDbLine
 10
460.200527
 20
389.124693
 30
0.0
 11
463.700967
 21
388.870681
 31
0.0
  0
ARC
  5
18F
100
AcDbEntity
  8
1
370
    30
  6
Continuous
 62
     7
100
AcDbCircle
 10
463.700967
 20
390.870681
 30
0.0
 40
2.0
100
AcDbArc
 50
-90.0
 51
90.0
  0
ARC
  5
190
100
AcDbEntity
  8
1
370
    30
  6
Continuous
 62
     7
100
AcDbCircle
 10
454.200599
 20
392.870681
 30
0.0
 40
2.0
100
AcDbArc
 50
0.0
 51
90.0
  0
ARC
  5
191
100
AcDbEntity
  8
1
370
    30
  6
Continuous
 62
     7
100
AcDbCircle
 10
454.200599
 20
388.870681
 30
0.0
 40
2.0
100
AcDbArc
 50
-90.0
 51
0.0
  0
ARC
  5
192
100
AcDbEntity
  8
1
370
    30
  6
Continuous
 62
     7
100
AcDbCircle
 10
456.086113
 20
391.611342
 30
0.0
 40
1.259996
100
AcDbArc
 50
0.0
 51
84.805571
  0
ARC
  5
193
100
AcDbEntity
  8
1
370
    30
  6
Continuous
 62
     7
100
AcDbCircle
 10
456.086264
 20
390.12771
 30
0.0
 40
1.257682
100
AcDbArc
 50
-84.784091
 51
0.0
  0
LINE
  5
194
100
AcDbEntity
  8
1
370
    30
  6
Continuous
 62
     7
100
AcDbLine
 10
457.345698
 20
391.613426
 30
0.0
 11
459.200599
 21
391.520681
 31
0.0
  0
LINE
  5
195
100
AcDbEntity
  8
1
370
    30
  6
Continuous
 62
     7
100
AcDbLine
 10
457.343555
 20
390.127829
 30
0.0
 11
459.200599
 21
390.220681
 31
0.0
  0
LINE
  5
196
100
AcDbEntity
  8
1
370
    30
  6
Continuous
 62
     7
100
AcDbLine
 10
472.700599
 20
365.398859
 30
0.0
 11
486.200599
 21
365.398859
 31
0.0
  0
LINE
  5
197
100
AcDbEntity
  8
1
370
    30
  6
Continuous
 62
     7
100
AcDbLine
 10
486.200599
 20
357.698859
 30
0.0
 11
472.700599
 21
357.698859
 31
0.0
  0
LINE
  5
198
100
AcDbEntity
  8
1
370
    30
  6
Continuous
 62
     7
100
AcDbLine
 10
472.700599
 20
357.698859
 30
0.0
 11
472.700599
 21
365.398859
 31
0.0
  0
LINE
  5
199
100
AcDbEntity
  8
1
370
    30
  6
Continuous
 62
     7
100
AcDbLine
 10
437.700599
 20
390.474681
 30
0.0
 11
438.979296
 21
390.474681
 31
0.0
  0
LINE
  5
19A
100
AcDbEntity
  8
1
370
    30
  6
Continuous
 62
     7
100
AcDbLine
 10
437.700599
 20
389.474681
 30
0.0
 11
438.542331
 21
389.474681
 31
0.0
  0
LINE
  5
19B
100
AcDbEntity
  8
1
370
    30
  6
Continuous
 62
     7
100
AcDbLine
 10
438.487331
 20
362.771681
 30
0.0
 11
443.777307
 21
383.819972
 31
0.0
  0
LINE
  5
19C
100
AcDbEntity
  8
1
370
    30
  6
Continuous
 62
     7
100
AcDbLine
 10
444.068269
 20
384.977682
 30
0.0
 11
445.549331
 21
390.870681
 31
0.0
  0
LINE
  5
19D
100
AcDbEntity
  8
1
370
    30
  6
Continuous
 62
     7
100
AcDbLine
 10
480.000599
 20
365.398859
 30
0.0
 11
480.000599
 21
364.398859
 31
0.0
  0
LINE
  5
19E
100
AcDbEntity
  8
1
370
    30
  6
Continuous
 62
     7
100
AcDbLine
 10
480.000599
 20
357.698859
 30
0.0
 11
480.000599
 21
358.698859
 31
0.0
  0
LINE
  5
19F
100
AcDbEntity
  8
1
370
    30
  6
Continuous
 62
     7
100
AcDbLine
 10
486.200599
 20
358.198859
 30
0.0
 11
486.200599
 21
357.698859
 31
0.0
  0
LINE
  5
1A0
100
AcDbEntity
  8
1
370
    30
  6
Continuous
 62
     7
100
AcDbLine
 10
480.000599
 20
358.698859
 30
0.0
 11
485.200599
 21
358.698859
 31
0.0
  0
LINE
  5
1A1
100
AcDbEntity
  8
1
370
    30
  6
Continuous
 62
     7
100
AcDbLine
 10
485.200599
 20
358.698859
 30
0.0
 11
486.200599
 21
358.198859
 31
0.0
  0
LINE
  5
1A2
100
AcDbEntity
  8
1
370
    30
  6
Continuous
 62
     7
100
AcDbLine
 10
480.000599
 20
364.398859
 30
0.0
 11
485.200599
 21
364.398859
 31
0.0
  0
LINE
  5
1A3
100
AcDbEntity
  8
1
370
    30
  6
Continuous
 62
     7
100
AcDbLine
 10
486.200599
 20
365.398859
 30
0.0
 11
486.200599
 21
364.898859
 31
0.0
  0
LINE
  5
1A4
100
AcDbEntity
  8
1
370
    30
  6
Continuous
 62
     7
100
AcDbLine
 10
485.200599
 20
364.398859
 30
0.0
 11
486.200599
 21
364.898859
 31
0.0
  0
LINE
  5
1A5
100
AcDbEntity
  8
1
370
    30
  6
Continuous
 62
     7
100
AcDbLine
 10
486.200599
 20
364.898859
 30
0.0
 11
486.200599
 21
358.198859
 31
0.0
  0
LINE
  5
1A6
100
AcDbEntity
  8
1
370
    30
  6
Continuous
 62
     7
100
AcDbLine
 10
444.584702
 20
360.548859
 30
0.0
 11
437.700599
 21
360.548859
 31
0.0
  0
LINE
  5
1A7
100
AcDbEntity
  8
1
370
    30
  6
Continuous
 62
     7
100
AcDbLine
 10
484.200599
 20
363.398859
 30
0.0
 11
484.200599
 21
359.698859
 31
0.0
  0
LINE
  5
1A8
100
AcDbEntity
  8
1
370
    30
  6
Continuous
 62
     7
100
AcDbLine
 10
484.200599
 20
363.398859
 30
0.0
 11
474.400599
 21
363.398859
 31
0.0
  0
LINE
  5
1A9
100
AcDbEntity
  8
1
370
    30
  6
Continuous
 62
     7
100
AcDbLine
 10
474.400599
 20
363.398859
 30
0.0
 11
474.400599
 21
359.698859
 31
0.0
  0
LINE
  5
1AA
100
AcDbEntity
  8
1
370
    30
  6
Continuous
 62
     7
100
AcDbLine
 10
474.400599
 20
359.698859
 30
0.0
 11
484.200599
 21
359.698859
 31
0.0
  0
LINE
  5
1AB
100
AcDbEntity
  8
1
370
    30
  6
Continuous
 62
     7
100
AcDbLine
 10
475.400599
 20
361.948859
 30
0.0
 11
475.400599
 21
361.148859
 31
0.0
  0
LINE
  5
1AC
100
AcDbEntity
  8
1
370
    30
  6
Continuous
 62
     7
100
AcDbLine
 10
475.400599
 20
363.398859
 30
0.0
 11
475.400599
 21
359.698859
 31
0.0
  0
LINE
  5
1AD
100
AcDbEntity
  8
1
370
    30
  6
Continuous
 62
     7
100
AcDbLine
 10
483.900599
 20
361.948859
 30
0.0
 11
475.400599
 21
361.948859
 31
0.0
  0
LINE
  5
1AE
100
AcDbEntity
  8
1
370
    30
  6
Continuous
 62
     7
100
AcDbLine
 10
475.400599
 20
361.148859
 30
0.0
 11
483.900599
 21
361.148859
 31
0.0
  0
LINE
  5
1AF
100
AcDbEntity
  8
1
370
    30
  6
Continuous
 62
     7
100
AcDbLine
 10
483.900599
 20
361.948859
 30
0.0
 11
483.900599
 21
361.148859
 31
0.0
  0
LINE
  5
1B0
100
AcDbEntity
  8
1
370
    30
  6
Continuous
 62
     7
100
AcDbLine
 10
474.400599
 20
362.148859
 30
0.0
 11
472.700599
 21
362.148859
 31
0.0
  0
LINE
  5
1B1
100
AcDbEntity
  8
1
370
    30
  6
Continuous
 62
     7
100
AcDbLine
 10
472.700599
 20
363.398859
 30
0.0
 11
474.400599
 21
363.398859
 31
0.0
  0
LINE
  5
1B2
100
AcDbEntity
  8
1
370
    30
  6
Continuous
 62
     7
100
AcDbLine
 10
474.400599
 20
360.948859
 30
0.0
 11
472.700599
 21
360.948859
 31
0.0
  0
LINE
  5
1B3
100
AcDbEntity
  8
1
370
    30
  6
Continuous
 62
     7
100
AcDbLine
 10
474.400599
 20
359.698859
 30
0.0
 11
472.700599
 21
359.698859
 31
0.0
  0
LINE
  5
1B4
100
AcDbEntity
  8
1
370
    30
  6
Continuous
 62
     7
100
AcDbLine
 10
438.979296
 20
390.474681
 30
0.0
 11
463.638179
 21
363.838681
 31
0.0
  0
LINE
  5
1B5
100
AcDbEntity
  8
1
370
    30
  6
Continuous
 62
     7
100
AcDbLine
 10
463.638179
 20
363.838681
 30
0.0
 11
472.700889
 21
363.838681
 31
0.0
  0
LINE
  5
1B6
100
AcDbEntity
  8
1
370
    30
  6
Continuous
 62
     7
100
AcDbLine
 10
438.542331
 20
389.474681
 30
0.0
 11
463.202577
 21
362.837209
 31
0.0
  0
LINE
  5
1B7
100
AcDbEntity
  8
1
370
    30
  6
Continuous
 62
     7
100
AcDbLine
 10
463.201214
 20
362.838681
 30
0.0
 11
472.700889
 21
362.838681
 31
0.0
  0
LINE
  5
1B8
100
AcDbEntity
  8
1
370
    30
  6
Continuous
 62
     7
100
AcDbLine
 10
463.681779
 20
360.253681
 30
0.0
 11
472.681411
 21
360.253681
 31
0.0
  0
LINE
  5
1B9
100
AcDbEntity
  8
1
370
    30
  6
Continuous
 62
     7
100
AcDbLine
 10
463.671995
 20
359.253681
 30
0.0
 11
472.681411
 21
359.253681
 31
0.0
  0
LINE
  5
1BA
100
AcDbEntity
  8
1
370
    30
  6
Continuous
 62
     7
100
AcDbLine
 10
444.652402
 20
361.546565
 30
0.0
 11
463.739695
 21
360.251387
 31
0.0
  0
LINE
  5
1BB
100
AcDbEntity
  8
1
370
    30
  6
Continuous
 62
     7
100
AcDbLine
 10
444.584702
 20
360.548859
 30
0.0
 11
463.671995
 21
359.253681
 31
0.0
  0
LINE
  5
1BC
100
AcDbEntity
  8
1
370
    30
  6
Continuous
 62
     7
100
AcDbLine
 10
444.652402
 20
361.548859
 30
0.0
 11
437.700599
 21
361.548859
 31
0.0
  0
LINE
  5
1BD
100
AcDbEntity
  8
1
370
     9
  6
Continuous
 62
     7
100
AcDbLine
 10
292.85501
 20
287.082069
 30
0.0
 11
295.737387
 21
293.718563
 31
0.0
  0
LINE
  5
1BE
100
AcDbEntity
  8
1
370
    30
  6
Continuous
 62
     7
100
AcDbLine
 10
437.678382
 20
150.017216
 30
0.0
 11
437.678382
 21
153.017216
 31
0.0
  0
LINE
  5
1BF
100
AcDbEntity
  8
1
370
    30
  6
Continuous
 62
     7
100
AcDbLine
 10
437.678382
 20
179.017216
 30
0.0
 11
437.678382
 21
182.017216
 31
0.0
  0
LINE
  5
1C0
100
AcDbEntity
  8
1
370
    30
  6
Continuous
 62
     7
100
AcDbLine
 10
437.678382
 20
151.195393
 30
0.0
 11
447.678382
 21
151.195393
 31
0.0
  0
LINE
  5
1C1
100
AcDbEntity
  8
1
370
    30
  6
Continuous
 62
     7
100
AcDbLine
 10
437.678382
 20
179.294393
 30
0.0
 11
438.465115
 21
179.294393
 31
0.0
  0
LINE
  5
1C2
100
AcDbEntity
  8
1
370
    30
  6
Continuous
 62
     7
100
AcDbLine
 10
437.678382
 20
180.294393
 30
0.0
 11
439.244888
 21
180.294393
 31
0.0
  0
LINE
  5
1C3
100
AcDbEntity
  8
1
370
    30
  6
Continuous
 62
     7
100
AcDbLine
 10
439.244888
 20
180.294393
 30
0.0
 11
446.306888
 21
152.195393
 31
0.0
  0
LINE
  5
1C4
100
AcDbEntity
  8
1
370
    30
  6
Continuous
 62
     7
100
AcDbLine
 10
447.678382
 20
146.895393
 30
0.0
 11
454.178382
 21
147.195393
 31
0.0
  0
LINE
  5
1C5
100
AcDbEntity
  8
1
370
    30
  6
Continuous
 62
     7
100
AcDbLine
 10
454.178382
 20
155.195393
 30
0.0
 11
447.678382
 21
155.495393
 31
0.0
  0
LINE
  5
1C6
100
AcDbEntity
  8
1
370
    30
  6
Continuous
 62
     7
100
AcDbLine
 10
456.178382
 20
149.195393
 30
0.0
 11
456.178382
 21
149.199948
 31
0.0
  0
ARC
  5
1C7
100
AcDbEntity
  8
1
370
    30
  6
Continuous
 62
     7
100
AcDbCircle
 10
460.27834
 20
150.545204
 30
0.0
 40
1.1
100
AcDbArc
 50
180.0
 51
-95.194429
  0
ARC
  5
1C8
100
AcDbEntity
  8
1
370
    30
  6
Continuous
 62
     7
100
AcDbCircle
 10
460.278311
 20
151.845936
 30
0.0
 40
1.1
100
AcDbArc
 50
95.215909
 51
180.0
  0
LINE
  5
1C9
100
AcDbEntity
  8
1
370
    30
  6
Continuous
 62
     7
100
AcDbLine
 10
460.17875
 20
149.449722
 30
0.0
 11
463.67875
 21
149.195393
 31
0.0
  0
LINE
  5
1CA
100
AcDbEntity
  8
1
370
    30
  6
Continuous
 62
     7
100
AcDbLine
 10
460.178311
 20
152.941381
 30
0.0
 11
463.67875
 21
153.195393
 31
0.0
  0
ARC
  5
1CB
100
AcDbEntity
  8
1
370
    30
  6
Continuous
 62
     7
100
AcDbCircle
 10
463.67875
 20
151.195393
 30
0.0
 40
2.0
100
AcDbArc
 50
-90.0
 51
90.0
  0
ARC
  5
1CC
100
AcDbEntity
  8
1
370
    30
  6
Continuous
 62
     7
100
AcDbCircle
 10
454.178382
 20
149.195393
 30
0.0
 40
2.0
100
AcDbArc
 50
-90.0
 51
0.0
  0
ARC
  5
1CD
100
AcDbEntity
  8
1
370
    30
  6
Continuous
 62
     7
100
AcDbCircle
 10
454.178382
 20
153.195393
 30
0.0
 40
2.0
100
AcDbArc
 50
0.0
 51
90.0
  0
ARC
  5
1CE
100
AcDbEntity
  8
1
370
    30
  6
Continuous
 62
     7
100
AcDbCircle
 10
456.063897
 20
150.454733
 30
0.0
 40
1.259996
100
AcDbArc
 50
-84.805571
 51
0.0
  0
ARC
  5
1CF
100
AcDbEntity
  8
1
370
    30
  6
Continuous
 62
     7
100
AcDbCircle
 10
456.064048
 20
151.938365
 30
0.0
 40
1.257682
100
AcDbArc
 50
0.0
 51
84.784091
  0
LINE
  5
1D0
100
AcDbEntity
  8
1
370
    30
  6
Continuous
 62
     7
100
AcDbLine
 10
457.323482
 20
150.452648
 30
0.0
 11
459.178382
 21
150.545393
 31
0.0
  0
LINE
  5
1D1
100
AcDbEntity
  8
1
370
    30
  6
Continuous
 62
     7
100
AcDbLine
 10
457.321338
 20
151.938246
 30
0.0
 11
459.178382
 21
151.845393
 31
0.0
  0
LINE
  5
1D2
100
AcDbEntity
  8
1
370
    30
  6
Continuous
 62
     7
100
AcDbLine
 10
437.678382
 20
151.591393
 30
0.0
 11
438.95708
 21
151.591393
 31
0.0
  0
LINE
  5
1D3
100
AcDbEntity
  8
1
370
    30
  6
Continuous
 62
     7
100
AcDbLine
 10
437.678382
 20
152.591393
 30
0.0
 11
438.520115
 21
152.591393
 31
0.0
  0
LINE
  5
1D4
100
AcDbEntity
  8
1
370
    30
  6
Continuous
 62
     7
100
AcDbLine
 10
438.465115
 20
179.294393
 30
0.0
 11
443.75509
 21
158.246103
 31
0.0
  0
LINE
  5
1D5
100
AcDbEntity
  8
1
370
    30
  6
Continuous
 62
     7
100
AcDbLine
 10
444.046052
 20
157.088393
 30
0.0
 11
445.527115
 21
151.195393
 31
0.0
  0
LINE
  5
1D6
100
AcDbEntity
  8
1
370
    30
  6
Continuous
 62
     7
100
AcDbLine
 10
444.562485
 20
181.517216
 30
0.0
 11
437.678382
 21
181.517216
 31
0.0
  0
LINE
  5
1D7
100
AcDbEntity
  8
1
370
    30
  6
Continuous
 62
     7
100
AcDbLine
 10
438.95708
 20
151.591393
 30
0.0
 11
463.615963
 21
178.227393
 31
0.0
  0
LINE
  5
1D8
100
AcDbEntity
  8
1
370
    30
  6
Continuous
 62
     7
100
AcDbLine
 10
438.520115
 20
152.591393
 30
0.0
 11
463.18036
 21
179.228866
 31
0.0
  0
LINE
  5
1D9
100
AcDbEntity
  8
1
370
    30
  6
Continuous
 62
     7
100
AcDbLine
 10
444.630185
 20
180.51951
 30
0.0
 11
463.717478
 21
181.814688
 31
0.0
  0
LINE
  5
1DA
100
AcDbEntity
  8
1
370
    30
  6
Continuous
 62
     7
100
AcDbLine
 10
444.562485
 20
181.517216
 30
0.0
 11
463.649778
 21
182.812393
 31
0.0
  0
LINE
  5
1DB
100
AcDbEntity
  8
1
370
    30
  6
Continuous
 62
     7
100
AcDbLine
 10
444.630185
 20
180.517216
 30
0.0
 11
437.678382
 21
180.517216
 31
0.0
  0
LINE
  5
1DC
100
AcDbEntity
  8
1
370
    30
  6
Continuous
 62
     7
100
AcDbLine
 10
298.900599
 20
182.017216
 30
0.0
 11
437.678382
 21
182.017216
 31
0.0
  0
LINE
  5
1DD
100
AcDbEntity
  8
1
370
    30
  6
Continuous
 62
     7
100
AcDbLine
 10
298.900599
 20
179.017216
 30
0.0
 11
437.678382
 21
179.017216
 31
0.0
  0
LINE
  5
1DE
100
AcDbEntity
  8
1
370
    30
  6
Continuous
 62
     7
100
AcDbLine
 10
298.900599
 20
153.017216
 30
0.0
 11
437.678382
 21
153.017216
 31
0.0
  0
LINE
  5
1DF
100
AcDbEntity
  8
1
370
    30
  6
Continuous
 62
     7
100
AcDbLine
 10
298.900599
 20
150.017216
 30
0.0
 11
437.678382
 21
150.017216
 31
0.0
  0
LINE
  5
1E0
100
AcDbEntity
  8
1
370
    30
  6
Continuous
 62
     7
100
AcDbLine
 10
297.634337
 20
290.716681
 30
0.0
 11
437.700299
 21
290.716681
 31
0.0
  0
LINE
  5
1E1
100
AcDbEntity
  8
1
370
    30
  6
Continuous
 62
     7
100
AcDbLine
 10
297.621906
 20
293.716681
 30
0.0
 11
437.700299
 21
293.716681
 31
0.0
  0
LINE
  5
1E2
100
AcDbEntity
  8
1
370
     9
  6
Continuous
 62
     7
100
AcDbLine
 10
295.737387
 20
293.718563
 30
0.0
 11
297.621907
 21
293.718563
 31
0.0
  0
LINE
  5
1E3
100
AcDbEntity
  8
1
370
    30
  6
Continuous
 62
     7
100
AcDbLine
 10
437.700299
 20
290.716681
 30
0.0
 11
437.700299
 21
293.716681
 31
0.0
  0
LINE
  5
1E4
100
AcDbEntity
  8
1
370
    30
  6
Continuous
 62
     7
100
AcDbLine
 10
445.549331
 20
390.870681
 30
0.0
 11
447.272248
 21
390.870681
 31
0.0
  0
LINE
  5
1E5
100
AcDbEntity
  8
1
370
    30
  6
Continuous
 62
     7
100
AcDbLine
 10
437.700599
 20
391.870681
 30
0.0
 11
448.11701
 21
391.870681
 31
0.0
  0
LINE
  5
1E6
100
AcDbEntity
  8
1
370
    30
  6
Continuous
 62
     7
100
AcDbLine
 10
437.700599
 20
390.870681
 30
0.0
 11
448.12895
 21
390.870681
 31
0.0
  0
LINE
  5
1E7
100
AcDbEntity
  8
1
370
    30
  6
Continuous
 62
     7
100
AcDbLine
 10
446.329104
 20
389.870681
 30
0.0
 11
448.11699
 21
389.870681
 31
0.0
  0
LINE
  5
1E8
100
AcDbEntity
  8
1
370
    30
  6
Continuous
 62
     7
100
AcDbLine
 10
446.306888
 20
152.195393
 30
0.0
 11
448.116528
 21
152.195393
 31
0.0
  0
LINE
  5
1E9
100
AcDbEntity
  8
1
370
    30
  6
Continuous
 62
     7
100
AcDbLine
 10
445.527115
 20
151.195393
 30
0.0
 11
448.128951
 21
151.195393
 31
0.0
  0
LINE
  5
1EA
100
AcDbEntity
  8
1
370
    30
  6
Continuous
 62
     7
100
AcDbLine
 10
437.678382
 20
150.195393
 30
0.0
 11
448.117222
 21
150.195393
 31
0.0
  0
ELLIPSE
  5
1EB
100
AcDbEntity
  8
1
370
    30
  6
Continuous
 62
     7
100
AcDbEllipse
 10
447.700599
 20
151.192681
 30
0.0
 11
0.0000000000003029
 21
4.2999999999999261
 31
0.0
210
0.0
220
0.0
230
1.0
 40
0.099616
 41
1.8048550121563063
 42
1.3354406839304749
  0
ELLIPSE
  5
1EC
100
AcDbEntity
  8
1
370
    30
  6
Continuous
 62
     7
100
AcDbEllipse
 10
447.700599
 20
390.870681
 30
0.0
 11
0.0000000000003029
 21
4.2999999999999261
 31
0.0
210
0.0
220
0.0
230
1.0
 40
0.099616
 41
1.805503440631117
 42
1.3360892129587836
  0
LINE
  5
1ED
100
AcDbEntity
  8
1
370
    30
  6
Continuous
 62
     7
100
AcDbLine
 10
456.178382
 20
153.195393
 30
0.0
 11
456.178382
 21
153.190839
 31
0.0
  0
LINE
  5
1EE
100
AcDbEntity
  8
1
370
    30
  6
Continuous
 62
     7
100
AcDbLine
 10
447.700599
 20
286.718563
 30
0.0
 11
454.200599
 21
286.418563
 31
0.0
  0
LINE
  5
1EF
100
AcDbEntity
  8
1
370
    30
  6
Continuous
 62
     7
100
AcDbLine
 10
454.200599
 20
278.418563
 30
0.0
 11
447.700599
 21
278.118563
 31
0.0
  0
LINE
  5
1F0
100
AcDbEntity
  8
1
370
    30
  6
Continuous
 62
     7
100
AcDbLine
 10
456.200599
 20
284.418563
 30
0.0
 11
456.200599
 21
284.414008
 31
0.0
  0
ARC
  5
1F1
100
AcDbEntity
  8
1
370
    30
  6
Continuous
 62
     7
100
AcDbCircle
 10
463.700967
 20
282.418563
 30
0.0
 40
2.0
100
AcDbArc
 50
-90.0
 51
90.0
  0
ARC
  5
1F2
100
AcDbEntity
  8
1
370
    30
  6
Continuous
 62
     7
100
AcDbCircle
 10
454.200599
 20
284.418563
 30
0.0
 40
2.0
100
AcDbArc
 50
0.0
 51
90.0
  0
ARC
  5
1F3
100
AcDbEntity
  8
1
370
    30
  6
Continuous
 62
     7
100
AcDbCircle
 10
454.200599
 20
280.418563
 30
0.0
 40
2.0
100
AcDbArc
 50
-90.0
 51
0.0
  0
POLYLINE
  5
1F4
100
AcDbEntity
  8
1
370
    30
  6
Continuous
 62
     7
100
AcDb2dPolyline
 66
     1
 10
0.0
 20
0.0
 30
0.0
 70
     2
  0
VERTEX
  5
1F5
100
AcDbEntity
  8
1
370
    30
  6
Continuous
 62
     7
100
AcDbVertex
100
AcDb2dVertex
 10
456.200599
 20
284.418563
 30
0.0
  0
VERTEX
  5
1F6
100
AcDbEntity
  8
1
370
    30
  6
Continuous
 62
     7
100
AcDbVertex
100
AcDb2dVertex
 10
456.198553
 20
284.404924
 30
0.0
  0
VERTEX
  5
1F7
100
AcDbEntity
  8
1
370
    30
  6
Continuous
 62
     7
100
AcDbVertex
100
AcDb2dVertex
 10
456.192474
 20
284.36438
 30
0.0
  0
VERTEX
  5
1F8
100
AcDbEntity
  8
1
370
    30
  6
Continuous
 62
     7
100
AcDbVertex
100
AcDb2dVertex
 10
456.182542
 20
284.298037
 30
0.0
  0
VERTEX
  5
1F9
100
AcDbEntity
  8
1
370
    30
  6
Continuous
 62
     7
100
AcDbVertex
100
AcDb2dVertex
 10
456.169087
 20
284.207703
 30
0.0
  0
VERTEX
  5
1FA
100
AcDbEntity
  8
1
370
    30
  6
Continuous
 62
     7
100
AcDbVertex
100
AcDb2dVertex
 10
456.152611
 20
284.095844
 30
0.0
  0
VERTEX
  5
1FB
100
AcDbEntity
  8
1
370
    30
  6
Continuous
 62
     7
100
AcDbVertex
100
AcDb2dVertex
 10
456.133804
 20
283.965511
 30
0.0
  0
VERTEX
  5
1FC
100
AcDbEntity
  8
1
370
    30
  6
Continuous
 62
     7
100
AcDbVertex
100
AcDb2dVertex
 10
456.11353
 20
283.820258
 30
0.0
  0
VERTEX
  5
1FD
100
AcDbEntity
  8
1
370
    30
  6
Continuous
 62
     7
100
AcDbVertex
100
AcDb2dVertex
 10
456.092791
 20
283.664048
 30
0.0
  0
VERTEX
  5
1FE
100
AcDbEntity
  8
1
370
    30
  6
Continuous
 62
     7
100
AcDbVertex
100
AcDb2dVertex
 10
456.072638
 20
283.501142
 30
0.0
  0
VERTEX
  5
1FF
100
AcDbEntity
  8
1
370
    30
  6
Continuous
 62
     7
100
AcDbVertex
100
AcDb2dVertex
 10
456.054072
 20
283.335984
 30
0.0
  0
VERTEX
  5
200
100
AcDbEntity
  8
1
370
    30
  6
Continuous
 62
     7
100
AcDbVertex
100
AcDb2dVertex
 10
456.037927
 20
283.173077
 30
0.0
  0
VERTEX
  5
201
100
AcDbEntity
  8
1
370
    30
  6
Continuous
 62
     7
100
AcDbVertex
100
AcDb2dVertex
 10
456.024769
 20
283.016867
 30
0.0
  0
VERTEX
  5
202
100
AcDbEntity
  8
1
370
    30
  6
Continuous
 62
     7
100
AcDbVertex
100
AcDb2dVertex
 10
456.014831
 20
282.871615
 30
0.0
  0
VERTEX
  5
203
100
AcDbEntity
  8
1
370
    30
  6
Continuous
 62
     7
100
AcDbVertex
100
AcDb2dVertex
 10
456.00799
 20
282.741281
 30
0.0
  0
VERTEX
  5
204
100
AcDbEntity
  8
1
370
    30
  6
Continuous
 62
     7
100
AcDbVertex
100
AcDb2dVertex
 10
456.003816
 20
282.629422
 30
0.0
  0
VERTEX
  5
205
100
AcDbEntity
  8
1
370
    30
  6
Continuous
 62
     7
100
AcDbVertex
100
AcDb2dVertex
 10
456.001667
 20
282.539089
 30
0.0
  0
VERTEX
  5
206
100
AcDbEntity
  8
1
370
    30
  6
Continuous
 62
     7
100
AcDbVertex
100
AcDb2dVertex
 10
456.000817
 20
282.472746
 30
0.0
  0
VERTEX
  5
207
100
AcDbEntity
  8
1
370
    30
  6
Continuous
 62
     7
100
AcDbVertex
100
AcDb2dVertex
 10
456.000613
 20
282.432202
 30
0.0
  0
VERTEX
  5
208
100
AcDbEntity
  8
1
370
    30
  6
Continuous
 62
     7
100
AcDbVertex
100
AcDb2dVertex
 10
456.000599
 20
282.418563
 30
0.0
  0
VERTEX
  5
209
100
AcDbEntity
  8
1
370
    30
  6
Continuous
 62
     7
100
AcDbVertex
100
AcDb2dVertex
 10
456.000613
 20
282.404924
 30
0.0
  0
VERTEX
  5
20A
100
AcDbEntity
  8
1
370
    30
  6
Continuous
 62
     7
100
AcDbVertex
100
AcDb2dVertex
 10
456.000817
 20
282.36438
 30
0.0
  0
VERTEX
  5
20B
100
AcDbEntity
  8
1
370
    30
  6
Continuous
 62
     7
100
AcDbVertex
100
AcDb2dVertex
 10
456.001667
 20
282.298037
 30
0.0
  0
VERTEX
  5
20C
100
AcDbEntity
  8
1
370
    30
  6
Continuous
 62
     7
100
AcDbVertex
100
AcDb2dVertex
 10
456.003816
 20
282.207703
 30
0.0
  0
VERTEX
  5
20D
100
AcDbEntity
  8
1
370
    30
  6
Continuous
 62
     7
100
AcDbVertex
100
AcDb2dVertex
 10
456.00799
 20
282.095844
 30
0.0
  0
VERTEX
  5
20E
100
AcDbEntity
  8
1
370
    30
  6
Continuous
 62
     7
100
AcDbVertex
100
AcDb2dVertex
 10
456.014831
 20
281.965511
 30
0.0
  0
VERTEX
  5
20F
100
AcDbEntity
  8
1
370
    30
  6
Continuous
 62
     7
100
AcDbVertex
100
AcDb2dVertex
 10
456.024769
 20
281.820258
 30
0.0
  0
VERTEX
  5
210
100
AcDbEntity
  8
1
370
    30
  6
Continuous
 62
     7
100
AcDbVertex
100
AcDb2dVertex
 10
456.037927
 20
281.664048
 30
0.0
  0
VERTEX
  5
211
100
AcDbEntity
  8
1
370
    30
  6
Continuous
 62
     7
100
AcDbVertex
100
AcDb2dVertex
 10
456.054072
 20
281.501142
 30
0.0
  0
VERTEX
  5
212
100
AcDbEntity
  8
1
370
    30
  6
Continuous
 62
     7
100
AcDbVertex
100
AcDb2dVertex
 10
456.072638
 20
281.335984
 30
0.0
  0
VERTEX
  5
213
100
AcDbEntity
  8
1
370
    30
  6
Continuous
 62
     7
100
AcDbVertex
100
AcDb2dVertex
 10
456.092791
 20
281.173077
 30
0.0
  0
VERTEX
  5
214
100
AcDbEntity
  8
1
370
    30
  6
Continuous
 62
     7
100
AcDbVertex
100
AcDb2dVertex
 10
456.11353
 20
281.016867
 30
0.0
  0
VERTEX
  5
215
100
AcDbEntity
  8
1
370
    30
  6
Continuous
 62
     7
100
AcDbVertex
100
AcDb2dVertex
 10
456.133804
 20
280.871615
 30
0.0
  0
VERTEX
  5
216
100
AcDbEntity
  8
1
370
    30
  6
Continuous
 62
     7
100
AcDbVertex
100
AcDb2dVertex
 10
456.152611
 20
280.741281
 30
0.0
  0
VERTEX
  5
217
100
AcDbEntity
  8
1
370
    30
  6
Continuous
 62
     7
100
AcDbVertex
100
AcDb2dVertex
 10
456.169087
 20
280.629422
 30
0.0
  0
VERTEX
  5
218
100
AcDbEntity
  8
1
370
    30
  6
Continuous
 62
     7
100
AcDbVertex
100
AcDb2dVertex
 10
456.182542
 20
280.539089
 30
0.0
  0
VERTEX
  5
219
100
AcDbEntity
  8
1
370
    30
  6
Continuous
 62
     7
100
AcDbVertex
100
AcDb2dVertex
 10
456.192474
 20
280.472746
 30
0.0
  0
VERTEX
  5
21A
100
AcDbEntity
  8
1
370
    30
  6
Continuous
 62
     7
100
AcDbVertex
100
AcDb2dVertex
 10
456.198553
 20
280.432202
 30
0.0
  0
VERTEX
  5
21B
100
AcDbEntity
  8
1
370
    30
  6
Continuous
 62
     7
100
AcDbVertex
100
AcDb2dVertex
 10
456.200599
 20
280.418563
 30
0.0
  0
SEQEND
  5
21C
100
AcDbEntity
  8
1
370
    30
  6
Continuous
 62
     7
  0
ELLIPSE
  5
21D
100
AcDbEntity
  8
1
370
    30
  6
Continuous
 62
     7
100
AcDbEllipse
 10
456.700599
 20
284.413945
 30
0.0
 11
0.5
 21
0.0
 31
0.0
210
0.0
220
0.0
230
1.0
 40
0.391881
 41
0.0
 42
3.1415926535897851
  0
ELLIPSE
  5
21E
100
AcDbEntity
  8
1
370
    30
  6
Continuous
 62
     7
100
AcDbEllipse
 10
456.701174
 20
280.422083
 30
0.0
 11
0.5
 21
0.0
 31
0.0
210
0.0
220
0.0
230
1.0
 40
0.391881
 41
-3.1415926535897851
 42
0.0
  0
LINE
  5
21F
100
AcDbEntity
  8
1
370
    30
  6
Continuous
 62
     7
100
AcDbLine
 10
457.200599
 20
280.423118
 30
0.0
 11
457.200599
 21
280.426607
 31
0.0
  0
LINE
  5
220
100
AcDbEntity
  8
1
370
    30
  6
Continuous
 62
     7
100
AcDbLine
 10
459.699655
 20
284.597852
 30
0.0
 11
463.700967
 21
284.418563
 31
0.0
  0
LINE
  5
221
100
AcDbEntity
  8
1
370
    30
  6
Continuous
 62
     7
100
AcDbLine
 10
459.700783
 20
280.227949
 30
0.0
 11
463.700967
 21
280.418563
 31
0.0
  0
ELLIPSE
  5
222
100
AcDbEntity
  8
1
370
    30
  6
Continuous
 62
     7
100
AcDbEllipse
 10
459.699838
 20
280.423889
 30
0.0
 11
0.5
 21
0.0
 31
0.0
210
0.0
220
0.0
230
1.0
 40
0.391881
 41
-3.1415926535897851
 42
-1.3553251542170139
  0
ELLIPSE
  5
223
100
AcDbEntity
  8
1
370
    30
  6
Continuous
 62
     7
100
AcDbEllipse
 10
459.699655
 20
284.401911
 30
0.0
 11
0.5
 21
0.0
 31
0.0
210
0.0
220
0.0
230
1.0
 40
0.391881
 41
1.5685401112044639
 42
3.0801406012582082
  0
POLYLINE
  5
224
100
AcDbEntity
  8
1
370
     9
  6
Continuous
 62
     7
100
AcDb2dPolyline
 66
     1
 10
0.0
 20
0.0
 30
0.0
 70
     2
  0
VERTEX
  5
225
100
AcDbEntity
  8
1
370
     9
  6
Continuous
 62
     7
100
AcDbVertex
100
AcDb2dVertex
 10
457.344544
 20
390.113331
 30
0.0
  0
VERTEX
  5
226
100
AcDbEntity
  8
1
370
     9
  6
Continuous
 62
     7
100
AcDbVertex
100
AcDb2dVertex
 10
457.345311
 20
390.118444
 30
0.0
  0
VERTEX
  5
227
100
AcDbEntity
  8
1
370
     9
  6
Continuous
 62
     7
100
AcDbVertex
100
AcDb2dVertex
 10
457.34759
 20
390.133641
 30
0.0
  0
VERTEX
  5
228
100
AcDbEntity
  8
1
370
     9
  6
Continuous
 62
     7
100
AcDbVertex
100
AcDb2dVertex
 10
457.351312
 20
390.158509
 30
0.0
  0
VERTEX
  5
229
100
AcDbEntity
  8
1
370
     9
  6
Continuous
 62
     7
100
AcDbVertex
100
AcDb2dVertex
 10
457.356356
 20
390.192368
 30
0.0
  0
VERTEX
  5
22A
100
AcDbEntity
  8
1
370
     9
  6
Continuous
 62
     7
100
AcDbVertex
100
AcDb2dVertex
 10
457.362531
 20
390.234296
 30
0.0
  0
VERTEX
  5
22B
100
AcDbEntity
  8
1
370
     9
  6
Continuous
 62
     7
100
AcDbVertex
100
AcDb2dVertex
 10
457.369581
 20
390.28315
 30
0.0
  0
VERTEX
  5
22C
100
AcDbEntity
  8
1
370
     9
  6
Continuous
 62
     7
100
AcDbVertex
100
AcDb2dVertex
 10
457.37718
 20
390.337595
 30
0.0
  0
VERTEX
  5
22D
100
AcDbEntity
  8
1
370
     9
  6
Continuous
 62
     7
100
AcDbVertex
100
AcDb2dVertex
 10
457.384954
 20
390.396147
 30
0.0
  0
VERTEX
  5
22E
100
AcDbEntity
  8
1
370
     9
  6
Continuous
 62
     7
100
AcDbVertex
100
AcDb2dVertex
 10
457.392508
 20
390.45721
 30
0.0
  0
VERTEX
  5
22F
100
AcDbEntity
  8
1
370
     9
  6
Continuous
 62
     7
100
AcDbVertex
100
AcDb2dVertex
 10
457.399467
 20
390.519116
 30
0.0
  0
VERTEX
  5
230
100
AcDbEntity
  8
1
370
     9
  6
Continuous
 62
     7
100
AcDbVertex
100
AcDb2dVertex
 10
457.405519
 20
390.580178
 30
0.0
  0
VERTEX
  5
231
100
AcDbEntity
  8
1
370
     9
  6
Continuous
 62
     7
100
AcDbVertex
100
AcDb2dVertex
 10
457.41045
 20
390.638731
 30
0.0
  0
VERTEX
  5
232
100
AcDbEntity
  8
1
370
     9
  6
Continuous
 62
     7
100
AcDbVertex
100
AcDb2dVertex
 10
457.414176
 20
390.693176
 30
0.0
  0
VERTEX
  5
233
100
AcDbEntity
  8
1
370
     9
  6
Continuous
 62
     7
100
AcDbVertex
100
AcDb2dVertex
 10
457.41674
 20
390.742029
 30
0.0
  0
VERTEX
  5
234
100
AcDbEntity
  8
1
370
     9
  6
Continuous
 62
     7
100
AcDbVertex
100
AcDb2dVertex
 10
457.418304
 20
390.783957
 30
0.0
  0
VERTEX
  5
235
100
AcDbEntity
  8
1
370
     9
  6
Continuous
 62
     7
100
AcDbVertex
100
AcDb2dVertex
 10
457.41911
 20
390.817817
 30
0.0
  0
VERTEX
  5
236
100
AcDbEntity
  8
1
370
     9
  6
Continuous
 62
     7
100
AcDbVertex
100
AcDb2dVertex
 10
457.419428
 20
390.842685
 30
0.0
  0
VERTEX
  5
237
100
AcDbEntity
  8
1
370
     9
  6
Continuous
 62
     7
100
AcDbVertex
100
AcDb2dVertex
 10
457.419505
 20
390.857882
 30
0.0
  0
VERTEX
  5
238
100
AcDbEntity
  8
1
370
     9
  6
Continuous
 62
     7
100
AcDbVertex
100
AcDb2dVertex
 10
457.41951
 20
390.862994
 30
0.0
  0
VERTEX
  5
239
100
AcDbEntity
  8
1
370
     9
  6
Continuous
 62
     7
100
AcDbVertex
100
AcDb2dVertex
 10
457.419505
 20
390.868106
 30
0.0
  0
VERTEX
  5
23A
100
AcDbEntity
  8
1
370
     9
  6
Continuous
 62
     7
100
AcDbVertex
100
AcDb2dVertex
 10
457.419428
 20
390.883304
 30
0.0
  0
VERTEX
  5
23B
100
AcDbEntity
  8
1
370
     9
  6
Continuous
 62
     7
100
AcDbVertex
100
AcDb2dVertex
 10
457.41911
 20
390.908171
 30
0.0
  0
VERTEX
  5
23C
100
AcDbEntity
  8
1
370
     9
  6
Continuous
 62
     7
100
AcDbVertex
100
AcDb2dVertex
 10
457.418304
 20
390.942031
 30
0.0
  0
VERTEX
  5
23D
100
AcDbEntity
  8
1
370
     9
  6
Continuous
 62
     7
100
AcDbVertex
100
AcDb2dVertex
 10
457.41674
 20
390.983959
 30
0.0
  0
VERTEX
  5
23E
100
AcDbEntity
  8
1
370
     9
  6
Continuous
 62
     7
100
AcDbVertex
100
AcDb2dVertex
 10
457.414176
 20
391.032812
 30
0.0
  0
VERTEX
  5
23F
100
AcDbEntity
  8
1
370
     9
  6
Continuous
 62
     7
100
AcDbVertex
100
AcDb2dVertex
 10
457.41045
 20
391.087257
 30
0.0
  0
VERTEX
  5
240
100
AcDbEntity
  8
1
370
     9
  6
Continuous
 62
     7
100
AcDbVertex
100
AcDb2dVertex
 10
457.405519
 20
391.14581
 30
0.0
  0
VERTEX
  5
241
100
AcDbEntity
  8
1
370
     9
  6
Continuous
 62
     7
100
AcDbVertex
100
AcDb2dVertex
 10
457.399467
 20
391.206872
 30
0.0
  0
VERTEX
  5
242
100
AcDbEntity
  8
1
370
     9
  6
Continuous
 62
     7
100
AcDbVertex
100
AcDb2dVertex
 10
457.392508
 20
391.268779
 30
0.0
  0
VERTEX
  5
243
100
AcDbEntity
  8
1
370
     9
  6
Continuous
 62
     7
100
AcDbVertex
100
AcDb2dVertex
 10
457.384954
 20
391.329841
 30
0.0
  0
VERTEX
  5
244
100
AcDbEntity
  8
1
370
     9
  6
Continuous
 62
     7
100
AcDbVertex
100
AcDb2dVertex
 10
457.37718
 20
391.388394
 30
0.0
  0
VERTEX
  5
245
100
AcDbEntity
  8
1
370
     9
  6
Continuous
 62
     7
100
AcDbVertex
100
AcDb2dVertex
 10
457.369581
 20
391.442839
 30
0.0
  0
VERTEX
  5
246
100
AcDbEntity
  8
1
370
     9
  6
Continuous
 62
     7
100
AcDbVertex
100
AcDb2dVertex
 10
457.362531
 20
391.491692
 30
0.0
  0
VERTEX
  5
247
100
AcDbEntity
  8
1
370
     9
  6
Continuous
 62
     7
100
AcDbVertex
100
AcDb2dVertex
 10
457.356356
 20
391.53362
 30
0.0
  0
VERTEX
  5
248
100
AcDbEntity
  8
1
370
     9
  6
Continuous
 62
     7
100
AcDbVertex
100
AcDb2dVertex
 10
457.351312
 20
391.56748
 30
0.0
  0
VERTEX
  5
249
100
AcDbEntity
  8
1
370
     9
  6
Continuous
 62
     7
100
AcDbVertex
100
AcDb2dVertex
 10
457.34759
 20
391.592347
 30
0.0
  0
VERTEX
  5
24A
100
AcDbEntity
  8
1
370
     9
  6
Continuous
 62
     7
100
AcDbVertex
100
AcDb2dVertex
 10
457.345311
 20
391.607545
 30
0.0
  0
VERTEX
  5
24B
100
AcDbEntity
  8
1
370
     9
  6
Continuous
 62
     7
100
AcDbVertex
100
AcDb2dVertex
 10
457.344544
 20
391.612657
 30
0.0
  0
SEQEND
  5
24C
100
AcDbEntity
  8
1
370
     9
  6
Continuous
 62
     7
  0
POLYLINE
  5
24D
100
AcDbEntity
  8
1
370
     9
  6
Continuous
 62
     7
100
AcDb2dPolyline
 66
     1
 10
0.0
 20
0.0
 30
0.0
 70
     2
  0
VERTEX
  5
24E
100
AcDbEntity
  8
1
370
     9
  6
Continuous
 62
     7
100
AcDbVertex
100
AcDb2dVertex
 10
456.200599
 20
392.870681
 30
0.0
  0
VERTEX
  5
24F
100
AcDbEntity
  8
1
370
     9
  6
Continuous
 62
     7
100
AcDbVertex
100
AcDb2dVertex
 10
456.202645
 20
392.857043
 30
0.0
  0
VERTEX
  5
250
100
AcDbEntity
  8
1
370
     9
  6
Continuous
 62
     7
100
AcDbVertex
100
AcDb2dVertex
 10
456.208725
 20
392.816499
 30
0.0
  0
VERTEX
  5
251
100
AcDbEntity
  8
1
370
     9
  6
Continuous
 62
     7
100
AcDbVertex
100
AcDb2dVertex
 10
456.218656
 20
392.750155
 30
0.0
  0
VERTEX
  5
252
100
AcDbEntity
  8
1
370
     9
  6
Continuous
 62
     7
100
AcDbVertex
100
AcDb2dVertex
 10
456.232111
 20
392.659822
 30
0.0
  0
VERTEX
  5
253
100
AcDbEntity
  8
1
370
     9
  6
Continuous
 62
     7
100
AcDbVertex
100
AcDb2dVertex
 10
456.248587
 20
392.547963
 30
0.0
  0
VERTEX
  5
254
100
AcDbEntity
  8
1
370
     9
  6
Continuous
 62
     7
100
AcDbVertex
100
AcDb2dVertex
 10
456.267394
 20
392.41763
 30
0.0
  0
VERTEX
  5
255
100
AcDbEntity
  8
1
370
     9
  6
Continuous
 62
     7
100
AcDbVertex
100
AcDb2dVertex
 10
456.287668
 20
392.272377
 30
0.0
  0
VERTEX
  5
256
100
AcDbEntity
  8
1
370
     9
  6
Continuous
 62
     7
100
AcDbVertex
100
AcDb2dVertex
 10
456.308407
 20
392.116167
 30
0.0
  0
VERTEX
  5
257
100
AcDbEntity
  8
1
370
     9
  6
Continuous
 62
     7
100
AcDbVertex
100
AcDb2dVertex
 10
456.32856
 20
391.953261
 30
0.0
  0
VERTEX
  5
258
100
AcDbEntity
  8
1
370
     9
  6
Continuous
 62
     7
100
AcDbVertex
100
AcDb2dVertex
 10
456.347127
 20
391.788102
 30
0.0
  0
VERTEX
  5
259
100
AcDbEntity
  8
1
370
     9
  6
Continuous
 62
     7
100
AcDbVertex
100
AcDb2dVertex
 10
456.363271
 20
391.625196
 30
0.0
  0
VERTEX
  5
25A
100
AcDbEntity
  8
1
370
     9
  6
Continuous
 62
     7
100
AcDbVertex
100
AcDb2dVertex
 10
456.376429
 20
391.468986
 30
0.0
  0
VERTEX
  5
25B
100
AcDbEntity
  8
1
370
     9
  6
Continuous
 62
     7
100
AcDbVertex
100
AcDb2dVertex
 10
456.386367
 20
391.323733
 30
0.0
  0
VERTEX
  5
25C
100
AcDbEntity
  8
1
370
     9
  6
Continuous
 62
     7
100
AcDbVertex
100
AcDb2dVertex
 10
456.393208
 20
391.1934
 30
0.0
  0
VERTEX
  5
25D
100
AcDbEntity
  8
1
370
     9
  6
Continuous
 62
     7
100
AcDbVertex
100
AcDb2dVertex
 10
456.397382
 20
391.081541
 30
0.0
  0
VERTEX
  5
25E
100
AcDbEntity
  8
1
370
     9
  6
Continuous
 62
     7
100
AcDbVertex
100
AcDb2dVertex
 10
456.399532
 20
390.991208
 30
0.0
  0
VERTEX
  5
25F
100
AcDbEntity
  8
1
370
     9
  6
Continuous
 62
     7
100
AcDbVertex
100
AcDb2dVertex
 10
456.400381
 20
390.924864
 30
0.0
  0
VERTEX
  5
260
100
AcDbEntity
  8
1
370
     9
  6
Continuous
 62
     7
100
AcDbVertex
100
AcDb2dVertex
 10
456.400585
 20
390.88432
 30
0.0
  0
VERTEX
  5
261
100
AcDbEntity
  8
1
370
     9
  6
Continuous
 62
     7
100
AcDbVertex
100
AcDb2dVertex
 10
456.400599
 20
390.870681
 30
0.0
  0
VERTEX
  5
262
100
AcDbEntity
  8
1
370
     9
  6
Continuous
 62
     7
100
AcDbVertex
100
AcDb2dVertex
 10
456.400585
 20
390.857043
 30
0.0
  0
VERTEX
  5
263
100
AcDbEntity
  8
1
370
     9
  6
Continuous
 62
     7
100
AcDbVertex
100
AcDb2dVertex
 10
456.400381
 20
390.816499
 30
0.0
  0
VERTEX
  5
264
100
AcDbEntity
  8
1
370
     9
  6
Continuous
 62
     7
100
AcDbVertex
100
AcDb2dVertex
 10
456.399532
 20
390.750155
 30
0.0
  0
VERTEX
  5
265
100
AcDbEntity
  8
1
370
     9
  6
Continuous
 62
     7
100
AcDbVertex
100
AcDb2dVertex
 10
456.397382
 20
390.659822
 30
0.0
  0
VERTEX
  5
266
100
AcDbEntity
  8
1
370
     9
  6
Continuous
 62
     7
100
AcDbVertex
100
AcDb2dVertex
 10
456.393208
 20
390.547963
 30
0.0
  0
VERTEX
  5
267
100
AcDbEntity
  8
1
370
     9
  6
Continuous
 62
     7
100
AcDbVertex
100
AcDb2dVertex
 10
456.386367
 20
390.41763
 30
0.0
  0
VERTEX
  5
268
100
AcDbEntity
  8
1
370
     9
  6
Continuous
 62
     7
100
AcDbVertex
100
AcDb2dVertex
 10
456.376429
 20
390.272377
 30
0.0
  0
VERTEX
  5
269
100
AcDbEntity
  8
1
370
     9
  6
Continuous
 62
     7
100
AcDbVertex
100
AcDb2dVertex
 10
456.363271
 20
390.116167
 30
0.0
  0
VERTEX
  5
26A
100
AcDbEntity
  8
1
370
     9
  6
Continuous
 62
     7
100
AcDbVertex
100
AcDb2dVertex
 10
456.347127
 20
389.953261
 30
0.0
  0
VERTEX
  5
26B
100
AcDbEntity
  8
1
370
     9
  6
Continuous
 62
     7
100
AcDbVertex
100
AcDb2dVertex
 10
456.32856
 20
389.788102
 30
0.0
  0
VERTEX
  5
26C
100
AcDbEntity
  8
1
370
     9
  6
Continuous
 62
     7
100
AcDbVertex
100
AcDb2dVertex
 10
456.308407
 20
389.625196
 30
0.0
  0
VERTEX
  5
26D
100
AcDbEntity
  8
1
370
     9
  6
Continuous
 62
     7
100
AcDbVertex
100
AcDb2dVertex
 10
456.287668
 20
389.468986
 30
0.0
  0
VERTEX
  5
26E
100
AcDbEntity
  8
1
370
     9
  6
Continuous
 62
     7
100
AcDbVertex
100
AcDb2dVertex
 10
456.267394
 20
389.323733
 30
0.0
  0
VERTEX
  5
26F
100
AcDbEntity
  8
1
370
     9
  6
Continuous
 62
     7
100
AcDbVertex
100
AcDb2dVertex
 10
456.248587
 20
389.1934
 30
0.0
  0
VERTEX
  5
270
100
AcDbEntity
  8
1
370
     9
  6
Continuous
 62
     7
100
AcDbVertex
100
AcDb2dVertex
 10
456.232111
 20
389.081541
 30
0.0
  0
VERTEX
  5
271
100
AcDbEntity
  8
1
370
     9
  6
Continuous
 62
     7
100
AcDbVertex
100
AcDb2dVertex
 10
456.218656
 20
388.991208
 30
0.0
  0
VERTEX
  5
272
100
AcDbEntity
  8
1
370
     9
  6
Continuous
 62
     7
100
AcDbVertex
100
AcDb2dVertex
 10
456.208725
 20
388.924864
 30
0.0
  0
VERTEX
  5
273
100
AcDbEntity
  8
1
370
     9
  6
Continuous
 62
     7
100
AcDbVertex
100
AcDb2dVertex
 10
456.202645
 20
388.88432
 30
0.0
  0
VERTEX
  5
274
100
AcDbEntity
  8
1
370
     9
  6
Continuous
 62
     7
100
AcDbVertex
100
AcDb2dVertex
 10
456.200599
 20
388.870681
 30
0.0
  0
SEQEND
  5
275
100
AcDbEntity
  8
1
370
     9
  6
Continuous
 62
     7
  0
POLYLINE
  5
276
100
AcDbEntity
  8
1
370
     9
  6
Continuous
 62
     7
100
AcDb2dPolyline
 66
     1
 10
0.0
 20
0.0
 30
0.0
 70
     2
  0
VERTEX
  5
277
100
AcDbEntity
  8
1
370
     9
  6
Continuous
 62
     7
100
AcDbVertex
100
AcDb2dVertex
 10
459.200538
 20
390.217728
 30
0.0
  0
VERTEX
  5
278
100
AcDbEntity
  8
1
370
     9
  6
Continuous
 62
     7
100
AcDbVertex
100
AcDb2dVertex
 10
459.201205
 20
390.222172
 30
0.0
  0
VERTEX
  5
279
100
AcDbEntity
  8
1
370
     9
  6
Continuous
 62
     7
100
AcDbVertex
100
AcDb2dVertex
 10
459.203186
 20
390.235383
 30
0.0
  0
VERTEX
  5
27A
100
AcDbEntity
  8
1
370
     9
  6
Continuous
 62
     7
100
AcDbVertex
100
AcDb2dVertex
 10
459.206422
 20
390.257
 30
0.0
  0
VERTEX
  5
27B
100
AcDbEntity
  8
1
370
     9
  6
Continuous
 62
     7
100
AcDbVertex
100
AcDb2dVertex
 10
459.210806
 20
390.286434
 30
0.0
  0
VERTEX
  5
27C
100
AcDbEntity
  8
1
370
     9
  6
Continuous
 62
     7
100
AcDbVertex
100
AcDb2dVertex
 10
459.216174
 20
390.322882
 30
0.0
  0
VERTEX
  5
27D
100
AcDbEntity
  8
1
370
     9
  6
Continuous
 62
     7
100
AcDbVertex
100
AcDb2dVertex
 10
459.222303
 20
390.36535
 30
0.0
  0
VERTEX
  5
27E
100
AcDbEntity
  8
1
370
     9
  6
Continuous
 62
     7
100
AcDbVertex
100
AcDb2dVertex
 10
459.228908
 20
390.412679
 30
0.0
  0
VERTEX
  5
27F
100
AcDbEntity
  8
1
370
     9
  6
Continuous
 62
     7
100
AcDbVertex
100
AcDb2dVertex
 10
459.235666
 20
390.463578
 30
0.0
  0
VERTEX
  5
280
100
AcDbEntity
  8
1
370
     9
  6
Continuous
 62
     7
100
AcDbVertex
100
AcDb2dVertex
 10
459.242233
 20
390.51666
 30
0.0
  0
VERTEX
  5
281
100
AcDbEntity
  8
1
370
     9
  6
Continuous
 62
     7
100
AcDbVertex
100
AcDb2dVertex
 10
459.248283
 20
390.570475
 30
0.0
  0
VERTEX
  5
282
100
AcDbEntity
  8
1
370
     9
  6
Continuous
 62
     7
100
AcDbVertex
100
AcDb2dVertex
 10
459.253543
 20
390.623556
 30
0.0
  0
VERTEX
  5
283
100
AcDbEntity
  8
1
370
     9
  6
Continuous
 62
     7
100
AcDbVertex
100
AcDb2dVertex
 10
459.25783
 20
390.674456
 30
0.0
  0
VERTEX
  5
284
100
AcDbEntity
  8
1
370
     9
  6
Continuous
 62
     7
100
AcDbVertex
100
AcDb2dVertex
 10
459.261069
 20
390.721785
 30
0.0
  0
VERTEX
  5
285
100
AcDbEntity
  8
1
370
     9
  6
Continuous
 62
     7
100
AcDbVertex
100
AcDb2dVertex
 10
459.263298
 20
390.764252
 30
0.0
  0
VERTEX
  5
286
100
AcDbEntity
  8
1
370
     9
  6
Continuous
 62
     7
100
AcDbVertex
100
AcDb2dVertex
 10
459.264658
 20
390.800701
 30
0.0
  0
VERTEX
  5
287
100
AcDbEntity
  8
1
370
     9
  6
Continuous
 62
     7
100
AcDbVertex
100
AcDb2dVertex
 10
459.265358
 20
390.830135
 30
0.0
  0
VERTEX
  5
288
100
AcDbEntity
  8
1
370
     9
  6
Continuous
 62
     7
100
AcDbVertex
100
AcDb2dVertex
 10
459.265635
 20
390.851752
 30
0.0
  0
VERTEX
  5
289
100
AcDbEntity
  8
1
370
     9
  6
Continuous
 62
     7
100
AcDbVertex
100
AcDb2dVertex
 10
459.265701
 20
390.864963
 30
0.0
  0
VERTEX
  5
28A
100
AcDbEntity
  8
1
370
     9
  6
Continuous
 62
     7
100
AcDbVertex
100
AcDb2dVertex
 10
459.265706
 20
390.869407
 30
0.0
  0
VERTEX
  5
28B
100
AcDbEntity
  8
1
370
     9
  6
Continuous
 62
     7
100
AcDbVertex
100
AcDb2dVertex
 10
459.265701
 20
390.873851
 30
0.0
  0
VERTEX
  5
28C
100
AcDbEntity
  8
1
370
     9
  6
Continuous
 62
     7
100
AcDbVertex
100
AcDb2dVertex
 10
459.265635
 20
390.887062
 30
0.0
  0
VERTEX
  5
28D
100
AcDbEntity
  8
1
370
     9
  6
Continuous
 62
     7
100
AcDbVertex
100
AcDb2dVertex
 10
459.265358
 20
390.908679
 30
0.0
  0
VERTEX
  5
28E
100
AcDbEntity
  8
1
370
     9
  6
Continuous
 62
     7
100
AcDbVertex
100
AcDb2dVertex
 10
459.264658
 20
390.938113
 30
0.0
  0
VERTEX
  5
28F
100
AcDbEntity
  8
1
370
     9
  6
Continuous
 62
     7
100
AcDbVertex
100
AcDb2dVertex
 10
459.263298
 20
390.974561
 30
0.0
  0
VERTEX
  5
290
100
AcDbEntity
  8
1
370
     9
  6
Continuous
 62
     7
100
AcDbVertex
100
AcDb2dVertex
 10
459.261069
 20
391.017029
 30
0.0
  0
VERTEX
  5
291
100
AcDbEntity
  8
1
370
     9
  6
Continuous
 62
     7
100
AcDbVertex
100
AcDb2dVertex
 10
459.25783
 20
391.064358
 30
0.0
  0
VERTEX
  5
292
100
AcDbEntity
  8
1
370
     9
  6
Continuous
 62
     7
100
AcDbVertex
100
AcDb2dVertex
 10
459.253543
 20
391.115258
 30
0.0
  0
VERTEX
  5
293
100
AcDbEntity
  8
1
370
     9
  6
Continuous
 62
     7
100
AcDbVertex
100
AcDb2dVertex
 10
459.248283
 20
391.168339
 30
0.0
  0
VERTEX
  5
294
100
AcDbEntity
  8
1
370
     9
  6
Continuous
 62
     7
100
AcDbVertex
100
AcDb2dVertex
 10
459.242233
 20
391.222154
 30
0.0
  0
VERTEX
  5
295
100
AcDbEntity
  8
1
370
     9
  6
Continuous
 62
     7
100
AcDbVertex
100
AcDb2dVertex
 10
459.235666
 20
391.275235
 30
0.0
  0
VERTEX
  5
296
100
AcDbEntity
  8
1
370
     9
  6
Continuous
 62
     7
100
AcDbVertex
100
AcDb2dVertex
 10
459.228908
 20
391.326135
 30
0.0
  0
VERTEX
  5
297
100
AcDbEntity
  8
1
370
     9
  6
Continuous
 62
     7
100
AcDbVertex
100
AcDb2dVertex
 10
459.222303
 20
391.373464
 30
0.0
  0
VERTEX
  5
298
100
AcDbEntity
  8
1
370
     9
  6
Continuous
 62
     7
100
AcDbVertex
100
AcDb2dVertex
 10
459.216174
 20
391.415932
 30
0.0
  0
VERTEX
  5
299
100
AcDbEntity
  8
1
370
     9
  6
Continuous
 62
     7
100
AcDbVertex
100
AcDb2dVertex
 10
459.210806
 20
391.45238
 30
0.0
  0
VERTEX
  5
29A
100
AcDbEntity
  8
1
370
     9
  6
Continuous
 62
     7
100
AcDbVertex
100
AcDb2dVertex
 10
459.206422
 20
391.481814
 30
0.0
  0
VERTEX
  5
29B
100
AcDbEntity
  8
1
370
     9
  6
Continuous
 62
     7
100
AcDbVertex
100
AcDb2dVertex
 10
459.203186
 20
391.503431
 30
0.0
  0
VERTEX
  5
29C
100
AcDbEntity
  8
1
370
     9
  6
Continuous
 62
     7
100
AcDbVertex
100
AcDb2dVertex
 10
459.201205
 20
391.516642
 30
0.0
  0
VERTEX
  5
29D
100
AcDbEntity
  8
1
370
     9
  6
Continuous
 62
     7
100
AcDbVertex
100
AcDb2dVertex
 10
459.200538
 20
391.521086
 30
0.0
  0
SEQEND
  5
29E
100
AcDbEntity
  8
1
370
     9
  6
Continuous
 62
     7
  0
POLYLINE
  5
29F
100
AcDbEntity
  8
1
370
     9
  6
Continuous
 62
     7
100
AcDb2dPolyline
 66
     1
 10
0.0
 20
0.0
 30
0.0
 70
     2
  0
VERTEX
  5
2A0
100
AcDbEntity
  8
1
370
     9
  6
Continuous
 62
     7
100
AcDbVertex
100
AcDb2dVertex
 10
457.321563
 20
151.938858
 30
0.0
  0
VERTEX
  5
2A1
100
AcDbEntity
  8
1
370
     9
  6
Continuous
 62
     7
100
AcDbVertex
100
AcDb2dVertex
 10
457.32233
 20
151.933746
 30
0.0
  0
VERTEX
  5
2A2
100
AcDbEntity
  8
1
370
     9
  6
Continuous
 62
     7
100
AcDbVertex
100
AcDb2dVertex
 10
457.324608
 20
151.918549
 30
0.0
  0
VERTEX
  5
2A3
100
AcDbEntity
  8
1
370
     9
  6
Continuous
 62
     7
100
AcDbVertex
100
AcDb2dVertex
 10
457.328331
 20
151.893681
 30
0.0
  0
VERTEX
  5
2A4
100
AcDbEntity
  8
1
370
     9
  6
Continuous
 62
     7
100
AcDbVertex
100
AcDb2dVertex
 10
457.333374
 20
151.859822
 30
0.0
  0
VERTEX
  5
2A5
100
AcDbEntity
  8
1
370
     9
  6
Continuous
 62
     7
100
AcDbVertex
100
AcDb2dVertex
 10
457.33955
 20
151.817893
 30
0.0
  0
VERTEX
  5
2A6
100
AcDbEntity
  8
1
370
     9
  6
Continuous
 62
     7
100
AcDbVertex
100
AcDb2dVertex
 10
457.3466
 20
151.76904
 30
0.0
  0
VERTEX
  5
2A7
100
AcDbEntity
  8
1
370
     9
  6
Continuous
 62
     7
100
AcDbVertex
100
AcDb2dVertex
 10
457.354199
 20
151.714595
 30
0.0
  0
VERTEX
  5
2A8
100
AcDbEntity
  8
1
370
     9
  6
Continuous
 62
     7
100
AcDbVertex
100
AcDb2dVertex
 10
457.361973
 20
151.656043
 30
0.0
  0
VERTEX
  5
2A9
100
AcDbEntity
  8
1
370
     9
  6
Continuous
 62
     7
100
AcDbVertex
100
AcDb2dVertex
 10
457.369527
 20
151.59498
 30
0.0
  0
VERTEX
  5
2AA
100
AcDbEntity
  8
1
370
     9
  6
Continuous
 62
     7
100
AcDbVertex
100
AcDb2dVertex
 10
457.376486
 20
151.533074
 30
0.0
  0
VERTEX
  5
2AB
100
AcDbEntity
  8
1
370
     9
  6
Continuous
 62
     7
100
AcDbVertex
100
AcDb2dVertex
 10
457.382537
 20
151.472011
 30
0.0
  0
VERTEX
  5
2AC
100
AcDbEntity
  8
1
370
     9
  6
Continuous
 62
     7
100
AcDbVertex
100
AcDb2dVertex
 10
457.387469
 20
151.413459
 30
0.0
  0
VERTEX
  5
2AD
100
AcDbEntity
  8
1
370
     9
  6
Continuous
 62
     7
100
AcDbVertex
100
AcDb2dVertex
 10
457.391194
 20
151.359014
 30
0.0
  0
VERTEX
  5
2AE
100
AcDbEntity
  8
1
370
     9
  6
Continuous
 62
     7
100
AcDbVertex
100
AcDb2dVertex
 10
457.393759
 20
151.310161
 30
0.0
  0
VERTEX
  5
2AF
100
AcDbEntity
  8
1
370
     9
  6
Continuous
 62
     7
100
AcDbVertex
100
AcDb2dVertex
 10
457.395323
 20
151.268232
 30
0.0
  0
VERTEX
  5
2B0
100
AcDbEntity
  8
1
370
     9
  6
Continuous
 62
     7
100
AcDbVertex
100
AcDb2dVertex
 10
457.396129
 20
151.234373
 30
0.0
  0
VERTEX
  5
2B1
100
AcDbEntity
  8
1
370
     9
  6
Continuous
 62
     7
100
AcDbVertex
100
AcDb2dVertex
 10
457.396447
 20
151.209505
 30
0.0
  0
VERTEX
  5
2B2
100
AcDbEntity
  8
1
370
     9
  6
Continuous
 62
     7
100
AcDbVertex
100
AcDb2dVertex
 10
457.396524
 20
151.194308
 30
0.0
  0
VERTEX
  5
2B3
100
AcDbEntity
  8
1
370
     9
  6
Continuous
 62
     7
100
AcDbVertex
100
AcDb2dVertex
 10
457.396529
 20
151.189196
 30
0.0
  0
VERTEX
  5
2B4
100
AcDbEntity
  8
1
370
     9
  6
Continuous
 62
     7
100
AcDbVertex
100
AcDb2dVertex
 10
457.396524
 20
151.184084
 30
0.0
  0
VERTEX
  5
2B5
100
AcDbEntity
  8
1
370
     9
  6
Continuous
 62
     7
100
AcDbVertex
100
AcDb2dVertex
 10
457.396447
 20
151.168886
 30
0.0
  0
VERTEX
  5
2B6
100
AcDbEntity
  8
1
370
     9
  6
Continuous
 62
     7
100
AcDbVertex
100
AcDb2dVertex
 10
457.396129
 20
151.144019
 30
0.0
  0
VERTEX
  5
2B7
100
AcDbEntity
  8
1
370
     9
  6
Continuous
 62
     7
100
AcDbVertex
100
AcDb2dVertex
 10
457.395323
 20
151.110159
 30
0.0
  0
VERTEX
  5
2B8
100
AcDbEntity
  8
1
370
     9
  6
Continuous
 62
     7
100
AcDbVertex
100
AcDb2dVertex
 10
457.393759
 20
151.068231
 30
0.0
  0
VERTEX
  5
2B9
100
AcDbEntity
  8
1
370
     9
  6
Continuous
 62
     7
100
AcDbVertex
100
AcDb2dVertex
 10
457.391194
 20
151.019378
 30
0.0
  0
VERTEX
  5
2BA
100
AcDbEntity
  8
1
370
     9
  6
Continuous
 62
     7
100
AcDbVertex
100
AcDb2dVertex
 10
457.387469
 20
150.964932
 30
0.0
  0
VERTEX
  5
2BB
100
AcDbEntity
  8
1
370
     9
  6
Continuous
 62
     7
100
AcDbVertex
100
AcDb2dVertex
 10
457.382537
 20
150.90638
 30
0.0
  0
VERTEX
  5
2BC
100
AcDbEntity
  8
1
370
     9
  6
Continuous
 62
     7
100
AcDbVertex
100
AcDb2dVertex
 10
457.376486
 20
150.845318
 30
0.0
  0
VERTEX
  5
2BD
100
AcDbEntity
  8
1
370
     9
  6
Continuous
 62
     7
100
AcDbVertex
100
AcDb2dVertex
 10
457.369527
 20
150.783411
 30
0.0
  0
VERTEX
  5
2BE
100
AcDbEntity
  8
1
370
     9
  6
Continuous
 62
     7
100
AcDbVertex
100
AcDb2dVertex
 10
457.361973
 20
150.722349
 30
0.0
  0
VERTEX
  5
2BF
100
AcDbEntity
  8
1
370
     9
  6
Continuous
 62
     7
100
AcDbVertex
100
AcDb2dVertex
 10
457.354199
 20
150.663796
 30
0.0
  0
VERTEX
  5
2C0
100
AcDbEntity
  8
1
370
     9
  6
Continuous
 62
     7
100
AcDbVertex
100
AcDb2dVertex
 10
457.3466
 20
150.609351
 30
0.0
  0
VERTEX
  5
2C1
100
AcDbEntity
  8
1
370
     9
  6
Continuous
 62
     7
100
AcDbVertex
100
AcDb2dVertex
 10
457.33955
 20
150.560498
 30
0.0
  0
VERTEX
  5
2C2
100
AcDbEntity
  8
1
370
     9
  6
Continuous
 62
     7
100
AcDbVertex
100
AcDb2dVertex
 10
457.333374
 20
150.51857
 30
0.0
  0
VERTEX
  5
2C3
100
AcDbEntity
  8
1
370
     9
  6
Continuous
 62
     7
100
AcDbVertex
100
AcDb2dVertex
 10
457.328331
 20
150.48471
 30
0.0
  0
VERTEX
  5
2C4
100
AcDbEntity
  8
1
370
     9
  6
Continuous
 62
     7
100
AcDbVertex
100
AcDb2dVertex
 10
457.324608
 20
150.459842
 30
0.0
  0
VERTEX
  5
2C5
100
AcDbEntity
  8
1
370
     9
  6
Continuous
 62
     7
100
AcDbVertex
100
AcDb2dVertex
 10
457.32233
 20
150.444645
 30
0.0
  0
VERTEX
  5
2C6
100
AcDbEntity
  8
1
370
     9
  6
Continuous
 62
     7
100
AcDbVertex
100
AcDb2dVertex
 10
457.321563
 20
150.439533
 30
0.0
  0
SEQEND
  5
2C7
100
AcDbEntity
  8
1
370
     9
  6
Continuous
 62
     7
  0
POLYLINE
  5
2C8
100
AcDbEntity
  8
1
370
     9
  6
Continuous
 62
     7
100
AcDb2dPolyline
 66
     1
 10
0.0
 20
0.0
 30
0.0
 70
     2
  0
VERTEX
  5
2C9
100
AcDbEntity
  8
1
370
     9
  6
Continuous
 62
     7
100
AcDbVertex
100
AcDb2dVertex
 10
456.178443
 20
153.1906
 30
0.0
  0
VERTEX
  5
2CA
100
AcDbEntity
  8
1
370
     9
  6
Continuous
 62
     7
100
AcDbVertex
100
AcDb2dVertex
 10
456.180489
 20
153.176961
 30
0.0
  0
VERTEX
  5
2CB
100
AcDbEntity
  8
1
370
     9
  6
Continuous
 62
     7
100
AcDbVertex
100
AcDb2dVertex
 10
456.186569
 20
153.136417
 30
0.0
  0
VERTEX
  5
2CC
100
AcDbEntity
  8
1
370
     9
  6
Continuous
 62
     7
100
AcDbVertex
100
AcDb2dVertex
 10
456.1965
 20
153.070073
 30
0.0
  0
VERTEX
  5
2CD
100
AcDbEntity
  8
1
370
     9
  6
Continuous
 62
     7
100
AcDbVertex
100
AcDb2dVertex
 10
456.209955
 20
152.97974
 30
0.0
  0
VERTEX
  5
2CE
100
AcDbEntity
  8
1
370
     9
  6
Continuous
 62
     7
100
AcDbVertex
100
AcDb2dVertex
 10
456.226431
 20
152.867881
 30
0.0
  0
VERTEX
  5
2CF
100
AcDbEntity
  8
1
370
     9
  6
Continuous
 62
     7
100
AcDbVertex
100
AcDb2dVertex
 10
456.245239
 20
152.737548
 30
0.0
  0
VERTEX
  5
2D0
100
AcDbEntity
  8
1
370
     9
  6
Continuous
 62
     7
100
AcDbVertex
100
AcDb2dVertex
 10
456.265512
 20
152.592295
 30
0.0
  0
VERTEX
  5
2D1
100
AcDbEntity
  8
1
370
     9
  6
Continuous
 62
     7
100
AcDbVertex
100
AcDb2dVertex
 10
456.286251
 20
152.436085
 30
0.0
  0
VERTEX
  5
2D2
100
AcDbEntity
  8
1
370
     9
  6
Continuous
 62
     7
100
AcDbVertex
100
AcDb2dVertex
 10
456.306405
 20
152.273179
 30
0.0
  0
VERTEX
  5
2D3
100
AcDbEntity
  8
1
370
     9
  6
Continuous
 62
     7
100
AcDbVertex
100
AcDb2dVertex
 10
456.324971
 20
152.10802
 30
0.0
  0
VERTEX
  5
2D4
100
AcDbEntity
  8
1
370
     9
  6
Continuous
 62
     7
100
AcDbVertex
100
AcDb2dVertex
 10
456.341116
 20
151.945114
 30
0.0
  0
VERTEX
  5
2D5
100
AcDbEntity
  8
1
370
     9
  6
Continuous
 62
     7
100
AcDbVertex
100
AcDb2dVertex
 10
456.354273
 20
151.788904
 30
0.0
  0
VERTEX
  5
2D6
100
AcDbEntity
  8
1
370
     9
  6
Continuous
 62
     7
100
AcDbVertex
100
AcDb2dVertex
 10
456.364212
 20
151.643652
 30
0.0
  0
VERTEX
  5
2D7
100
AcDbEntity
  8
1
370
     9
  6
Continuous
 62
     7
100
AcDbVertex
100
AcDb2dVertex
 10
456.371052
 20
151.513318
 30
0.0
  0
VERTEX
  5
2D8
100
AcDbEntity
  8
1
370
     9
  6
Continuous
 62
     7
100
AcDbVertex
100
AcDb2dVertex
 10
456.375226
 20
151.401459
 30
0.0
  0
VERTEX
  5
2D9
100
AcDbEntity
  8
1
370
     9
  6
Continuous
 62
     7
100
AcDbVertex
100
AcDb2dVertex
 10
456.377376
 20
151.311126
 30
0.0
  0
VERTEX
  5
2DA
100
AcDbEntity
  8
1
370
     9
  6
Continuous
 62
     7
100
AcDbVertex
100
AcDb2dVertex
 10
456.378225
 20
151.244782
 30
0.0
  0
VERTEX
  5
2DB
100
AcDbEntity
  8
1
370
     9
  6
Continuous
 62
     7
100
AcDbVertex
100
AcDb2dVertex
 10
456.378429
 20
151.204238
 30
0.0
  0
VERTEX
  5
2DC
100
AcDbEntity
  8
1
370
     9
  6
Continuous
 62
     7
100
AcDbVertex
100
AcDb2dVertex
 10
456.378443
 20
151.1906
 30
0.0
  0
VERTEX
  5
2DD
100
AcDbEntity
  8
1
370
     9
  6
Continuous
 62
     7
100
AcDbVertex
100
AcDb2dVertex
 10
456.378429
 20
151.176961
 30
0.0
  0
VERTEX
  5
2DE
100
AcDbEntity
  8
1
370
     9
  6
Continuous
 62
     7
100
AcDbVertex
100
AcDb2dVertex
 10
456.378225
 20
151.136417
 30
0.0
  0
VERTEX
  5
2DF
100
AcDbEntity
  8
1
370
     9
  6
Continuous
 62
     7
100
AcDbVertex
100
AcDb2dVertex
 10
456.377376
 20
151.070073
 30
0.0
  0
VERTEX
  5
2E0
100
AcDbEntity
  8
1
370
     9
  6
Continuous
 62
     7
100
AcDbVertex
100
AcDb2dVertex
 10
456.375226
 20
150.97974
 30
0.0
  0
VERTEX
  5
2E1
100
AcDbEntity
  8
1
370
     9
  6
Continuous
 62
     7
100
AcDbVertex
100
AcDb2dVertex
 10
456.371052
 20
150.867881
 30
0.0
  0
VERTEX
  5
2E2
100
AcDbEntity
  8
1
370
     9
  6
Continuous
 62
     7
100
AcDbVertex
100
AcDb2dVertex
 10
456.364212
 20
150.737548
 30
0.0
  0
VERTEX
  5
2E3
100
AcDbEntity
  8
1
370
     9
  6
Continuous
 62
     7
100
AcDbVertex
100
AcDb2dVertex
 10
456.354273
 20
150.592295
 30
0.0
  0
VERTEX
  5
2E4
100
AcDbEntity
  8
1
370
     9
  6
Continuous
 62
     7
100
AcDbVertex
100
AcDb2dVertex
 10
456.341116
 20
150.436085
 30
0.0
  0
VERTEX
  5
2E5
100
AcDbEntity
  8
1
370
     9
  6
Continuous
 62
     7
100
AcDbVertex
100
AcDb2dVertex
 10
456.324971
 20
150.273179
 30
0.0
  0
VERTEX
  5
2E6
100
AcDbEntity
  8
1
370
     9
  6
Continuous
 62
     7
100
AcDbVertex
100
AcDb2dVertex
 10
456.306405
 20
150.10802
 30
0.0
  0
VERTEX
  5
2E7
100
AcDbEntity
  8
1
370
     9
  6
Continuous
 62
     7
100
AcDbVertex
100
AcDb2dVertex
 10
456.286251
 20
149.945114
 30
0.0
  0
VERTEX
  5
2E8
100
AcDbEntity
  8
1
370
     9
  6
Continuous
 62
     7
100
AcDbVertex
100
AcDb2dVertex
 10
456.265512
 20
149.788904
 30
0.0
  0
VERTEX
  5
2E9
100
AcDbEntity
  8
1
370
     9
  6
Continuous
 62
     7
100
AcDbVertex
100
AcDb2dVertex
 10
456.245239
 20
149.643652
 30
0.0
  0
VERTEX
  5
2EA
100
AcDbEntity
  8
1
370
     9
  6
Continuous
 62
     7
100
AcDbVertex
100
AcDb2dVertex
 10
456.226431
 20
149.513318
 30
0.0
  0
VERTEX
  5
2EB
100
AcDbEntity
  8
1
370
     9
  6
Continuous
 62
     7
100
AcDbVertex
100
AcDb2dVertex
 10
456.209955
 20
149.401459
 30
0.0
  0
VERTEX
  5
2EC
100
AcDbEntity
  8
1
370
     9
  6
Continuous
 62
     7
100
AcDbVertex
100
AcDb2dVertex
 10
456.1965
 20
149.311126
 30
0.0
  0
VERTEX
  5
2ED
100
AcDbEntity
  8
1
370
     9
  6
Continuous
 62
     7
100
AcDbVertex
100
AcDb2dVertex
 10
456.186569
 20
149.244782
 30
0.0
  0
VERTEX
  5
2EE
100
AcDbEntity
  8
1
370
     9
  6
Continuous
 62
     7
100
AcDbVertex
100
AcDb2dVertex
 10
456.180489
 20
149.204238
 30
0.0
  0
VERTEX
  5
2EF
100
AcDbEntity
  8
1
370
     9
  6
Continuous
 62
     7
100
AcDbVertex
100
AcDb2dVertex
 10
456.178443
 20
149.1906
 30
0.0
  0
SEQEND
  5
2F0
100
AcDbEntity
  8
1
370
     9
  6
Continuous
 62
     7
  0
POLYLINE
  5
2F1
100
AcDbEntity
  8
1
370
     9
  6
Continuous
 62
     7
100
AcDb2dPolyline
 66
     1
 10
0.0
 20
0.0
 30
0.0
 70
     2
  0
VERTEX
  5
2F2
100
AcDbEntity
  8
1
370
     9
  6
Continuous
 62
     7
100
AcDbVertex
100
AcDb2dVertex
 10
459.178411
 20
151.845194
 30
0.0
  0
VERTEX
  5
2F3
100
AcDbEntity
  8
1
370
     9
  6
Continuous
 62
     7
100
AcDbVertex
100
AcDb2dVertex
 10
459.179077
 20
151.84075
 30
0.0
  0
VERTEX
  5
2F4
100
AcDbEntity
  8
1
370
     9
  6
Continuous
 62
     7
100
AcDbVertex
100
AcDb2dVertex
 10
459.181058
 20
151.827539
 30
0.0
  0
VERTEX
  5
2F5
100
AcDbEntity
  8
1
370
     9
  6
Continuous
 62
     7
100
AcDbVertex
100
AcDb2dVertex
 10
459.184294
 20
151.805922
 30
0.0
  0
VERTEX
  5
2F6
100
AcDbEntity
  8
1
370
     9
  6
Continuous
 62
     7
100
AcDbVertex
100
AcDb2dVertex
 10
459.188679
 20
151.776488
 30
0.0
  0
VERTEX
  5
2F7
100
AcDbEntity
  8
1
370
     9
  6
Continuous
 62
     7
100
AcDbVertex
100
AcDb2dVertex
 10
459.194047
 20
151.74004
 30
0.0
  0
VERTEX
  5
2F8
100
AcDbEntity
  8
1
370
     9
  6
Continuous
 62
     7
100
AcDbVertex
100
AcDb2dVertex
 10
459.200175
 20
151.697572
 30
0.0
  0
VERTEX
  5
2F9
100
AcDbEntity
  8
1
370
     9
  6
Continuous
 62
     7
100
AcDbVertex
100
AcDb2dVertex
 10
459.206781
 20
151.650243
 30
0.0
  0
VERTEX
  5
2FA
100
AcDbEntity
  8
1
370
     9
  6
Continuous
 62
     7
100
AcDbVertex
100
AcDb2dVertex
 10
459.213539
 20
151.599343
 30
0.0
  0
VERTEX
  5
2FB
100
AcDbEntity
  8
1
370
     9
  6
Continuous
 62
     7
100
AcDbVertex
100
AcDb2dVertex
 10
459.220106
 20
151.546262
 30
0.0
  0
VERTEX
  5
2FC
100
AcDbEntity
  8
1
370
     9
  6
Continuous
 62
     7
100
AcDbVertex
100
AcDb2dVertex
 10
459.226155
 20
151.492447
 30
0.0
  0
VERTEX
  5
2FD
100
AcDbEntity
  8
1
370
     9
  6
Continuous
 62
     7
100
AcDbVertex
100
AcDb2dVertex
 10
459.231416
 20
151.439366
 30
0.0
  0
VERTEX
  5
2FE
100
AcDbEntity
  8
1
370
     9
  6
Continuous
 62
     7
100
AcDbVertex
100
AcDb2dVertex
 10
459.235703
 20
151.388466
 30
0.0
  0
VERTEX
  5
2FF
100
AcDbEntity
  8
1
370
     9
  6
Continuous
 62
     7
100
AcDbVertex
100
AcDb2dVertex
 10
459.238941
 20
151.341137
 30
0.0
  0
VERTEX
  5
300
100
AcDbEntity
  8
1
370
     9
  6
Continuous
 62
     7
100
AcDbVertex
100
AcDb2dVertex
 10
459.24117
 20
151.298669
 30
0.0
  0
VERTEX
  5
301
100
AcDbEntity
  8
1
370
     9
  6
Continuous
 62
     7
100
AcDbVertex
100
AcDb2dVertex
 10
459.24253
 20
151.262221
 30
0.0
  0
VERTEX
  5
302
100
AcDbEntity
  8
1
370
     9
  6
Continuous
 62
     7
100
AcDbVertex
100
AcDb2dVertex
 10
459.243231
 20
151.232787
 30
0.0
  0
VERTEX
  5
303
100
AcDbEntity
  8
1
370
     9
  6
Continuous
 62
     7
100
AcDbVertex
100
AcDb2dVertex
 10
459.243508
 20
151.21117
 30
0.0
  0
VERTEX
  5
304
100
AcDbEntity
  8
1
370
     9
  6
Continuous
 62
     7
100
AcDbVertex
100
AcDb2dVertex
 10
459.243574
 20
151.197959
 30
0.0
  0
VERTEX
  5
305
100
AcDbEntity
  8
1
370
     9
  6
Continuous
 62
     7
100
AcDbVertex
100
AcDb2dVertex
 10
459.243579
 20
151.193515
 30
0.0
  0
VERTEX
  5
306
100
AcDbEntity
  8
1
370
     9
  6
Continuous
 62
     7
100
AcDbVertex
100
AcDb2dVertex
 10
459.243574
 20
151.189071
 30
0.0
  0
VERTEX
  5
307
100
AcDbEntity
  8
1
370
     9
  6
Continuous
 62
     7
100
AcDbVertex
100
AcDb2dVertex
 10
459.243508
 20
151.17586
 30
0.0
  0
VERTEX
  5
308
100
AcDbEntity
  8
1
370
     9
  6
Continuous
 62
     7
100
AcDbVertex
100
AcDb2dVertex
 10
459.243231
 20
151.154243
 30
0.0
  0
VERTEX
  5
309
100
AcDbEntity
  8
1
370
     9
  6
Continuous
 62
     7
100
AcDbVertex
100
AcDb2dVertex
 10
459.24253
 20
151.124809
 30
0.0
  0
VERTEX
  5
30A
100
AcDbEntity
  8
1
370
     9
  6
Continuous
 62
     7
100
AcDbVertex
100
AcDb2dVertex
 10
459.24117
 20
151.088361
 30
0.0
  0
VERTEX
  5
30B
100
AcDbEntity
  8
1
370
     9
  6
Continuous
 62
     7
100
AcDbVertex
100
AcDb2dVertex
 10
459.238941
 20
151.045893
 30
0.0
  0
VERTEX
  5
30C
100
AcDbEntity
  8
1
370
     9
  6
Continuous
 62
     7
100
AcDbVertex
100
AcDb2dVertex
 10
459.235703
 20
150.998564
 30
0.0
  0
VERTEX
  5
30D
100
AcDbEntity
  8
1
370
     9
  6
Continuous
 62
     7
100
AcDbVertex
100
AcDb2dVertex
 10
459.231416
 20
150.947664
 30
0.0
  0
VERTEX
  5
30E
100
AcDbEntity
  8
1
370
     9
  6
Continuous
 62
     7
100
AcDbVertex
100
AcDb2dVertex
 10
459.226155
 20
150.894583
 30
0.0
  0
VERTEX
  5
30F
100
AcDbEntity
  8
1
370
     9
  6
Continuous
 62
     7
100
AcDbVertex
100
AcDb2dVertex
 10
459.220106
 20
150.840768
 30
0.0
  0
VERTEX
  5
310
100
AcDbEntity
  8
1
370
     9
  6
Continuous
 62
     7
100
AcDbVertex
100
AcDb2dVertex
 10
459.213539
 20
150.787687
 30
0.0
  0
VERTEX
  5
311
100
AcDbEntity
  8
1
370
     9
  6
Continuous
 62
     7
100
AcDbVertex
100
AcDb2dVertex
 10
459.206781
 20
150.736787
 30
0.0
  0
VERTEX
  5
312
100
AcDbEntity
  8
1
370
     9
  6
Continuous
 62
     7
100
AcDbVertex
100
AcDb2dVertex
 10
459.200175
 20
150.689458
 30
0.0
  0
VERTEX
  5
313
100
AcDbEntity
  8
1
370
     9
  6
Continuous
 62
     7
100
AcDbVertex
100
AcDb2dVertex
 10
459.194047
 20
150.64699
 30
0.0
  0
VERTEX
  5
314
100
AcDbEntity
  8
1
370
     9
  6
Continuous
 62
     7
100
AcDbVertex
100
AcDb2dVertex
 10
459.188679
 20
150.610542
 30
0.0
  0
VERTEX
  5
315
100
AcDbEntity
  8
1
370
     9
  6
Continuous
 62
     7
100
AcDbVertex
100
AcDb2dVertex
 10
459.184294
 20
150.581108
 30
0.0
  0
VERTEX
  5
316
100
AcDbEntity
  8
1
370
     9
  6
Continuous
 62
     7
100
AcDbVertex
100
AcDb2dVertex
 10
459.181058
 20
150.559491
 30
0.0
  0
VERTEX
  5
317
100
AcDbEntity
  8
1
370
     9
  6
Continuous
 62
     7
100
AcDbVertex
100
AcDb2dVertex
 10
459.179077
 20
150.54628
 30
0.0
  0
VERTEX
  5
318
100
AcDbEntity
  8
1
370
     9
  6
Continuous
 62
     7
100
AcDbVertex
100
AcDb2dVertex
 10
459.178411
 20
150.541836
 30
0.0
  0
SEQEND
  5
319
100
AcDbEntity
  8
1
370
     9
  6
Continuous
 62
     7
  0
LINE
  5
31A
100
AcDbEntity
  8
1
370
    30
  6
Continuous
 62
     7
100
AcDbLine
 10
457.200599
 20
280.423118
 30
0.0
 11
459.200599
 21
280.423118
 31
0.0
  0
LINE
  5
31B
100
AcDbEntity
  8
1
370
    30
  6
Continuous
 62
     7
100
AcDbLine
 10
457.200599
 20
284.413945
 30
0.0
 11
459.200947
 21
284.413945
 31
0.0
  0
ELLIPSE
  5
31C
100
AcDbEntity
  8
1
370
     9
  6
Continuous
 62
     7
100
AcDbEllipse
 10
458.218934
 20
280.827605
 30
0.0
 11
2.0134949149986254
 21
0.0
 31
0.0
210
0.0
220
0.0
230
1.0
 40
0.176769
 41
-2.105205021406908
 42
-1.0566932584180355
  0
ELLIPSE
  5
31D
100
AcDbEntity
  8
1
370
     9
  6
Continuous
 62
     7
100
AcDbEllipse
 10
459.209079
 20
282.43031
 30
0.0
 11
0.0000000000000031
 21
1.9126203204047871
 31
0.0
210
0.0
220
0.0
230
1.0
 40
0.437093
 41
3.1354610098809248
 42
0.005837412147099
  0
ELLIPSE
  5
31E
100
AcDbEntity
  8
1
370
     9
  6
Continuous
 62
     7
100
AcDbEllipse
 10
458.22531
 20
284.035012
 30
0.0
 11
2.0005303178495524
 21
0.0
 31
0.0
210
0.0
220
0.0
230
1.0
 40
0.176769
 41
1.0566932584180355
 42
2.105205021406908
  0
ELLIPSE
  5
31F
100
AcDbEntity
  8
1
370
     9
  6
Continuous
 62
     7
100
AcDbEllipse
 10
457.212151
 20
282.426762
 30
0.0
 11
-0.0000000000000029
 21
-1.9126203204047871
 31
0.0
210
0.0
220
0.0
230
1.0
 40
0.437093
 41
3.1357552414426912
 42
0.0061316437088654
  0
LINE
  5
320
100
AcDbEntity
  8
1
370
    30
  6
Continuous
 62
     7
100
AcDbLine
 10
437.700299
 20
291.772681
 30
0.0
 11
438.772331
 21
291.772681
 31
0.0
  0
LINE
  5
321
100
AcDbEntity
  8
1
370
    30
  6
Continuous
 62
     7
100
AcDbLine
 10
437.700299
 20
290.772681
 30
0.0
 11
438.344248
 21
290.772681
 31
0.0
  0
LINE
  5
322
100
AcDbEntity
  8
1
370
    30
  6
Continuous
 62
     7
100
AcDbLine
 10
438.772331
 20
291.772681
 30
0.0
 11
446.728331
 21
283.432681
 31
0.0
  0
LINE
  5
323
100
AcDbEntity
  8
1
370
    30
  6
Continuous
 62
     7
100
AcDbLine
 10
438.344248
 20
290.772681
 30
0.0
 11
446.300248
 21
282.432681
 31
0.0
  0
LINE
  5
324
100
AcDbEntity
  8
1
370
    30
  6
Continuous
 62
     7
100
AcDbLine
 10
446.728331
 20
283.432681
 30
0.0
 11
448.116866
 21
283.432681
 31
0.0
  0
LINE
  5
325
100
AcDbEntity
  8
1
370
    30
  6
Continuous
 62
     7
100
AcDbLine
 10
446.300248
 20
282.432681
 30
0.0
 11
448.116866
 21
282.432681
 31
0.0
  0
LINE
  5
326
100
AcDbEntity
  8
1
370
    30
  6
Continuous
 62
     7
100
AcDbLine
 10
437.700599
 20
290.772681
 30
0.0
 11
445.654904
 21
282.441997
 31
0.0
  0
LINE
  5
327
100
AcDbEntity
  8
1
370
    30
  6
Continuous
 62
     7
100
AcDbLine
 10
445.654911
 20
282.432681
 30
0.0
 11
448.12895
 21
282.432681
 31
0.0
  0
LINE
  5
328
100
AcDbEntity
  8
1
370
    30
  6
Continuous
 62
     7
100
AcDbLine
 10
445.227095
 20
281.432681
 30
0.0
 11
448.117539
 21
281.432681
 31
0.0
  0
LINE
  5
329
100
AcDbEntity
  8
1
370
    30
  6
Continuous
 62
     7
100
AcDbLine
 10
447.283992
 20
281.418563
 30
0.0
 11
447.28386
 21
281.432681
 31
0.0
  0
ELLIPSE
  5
32A
100
AcDbEntity
  8
1
370
    30
  6
Continuous
 62
     7
100
AcDbEllipse
 10
447.700599
 20
282.418563
 30
0.0
 11
0.0000000000003029
 21
4.2999999999999261
 31
0.0
210
0.0
220
0.0
230
1.0
 40
0.099616
 41
1.805503440631117
 42
1.3327119004634225
  0
LINE
  5
32B
100
AcDbEntity
  8
1
370
    30
  6
Continuous
 62
     7
100
AcDbLine
 10
436.371433
 20
290.716681
 30
0.0
 11
445.227088
 21
281.441997
 31
0.0
  0
LINE
  5
32C
100
AcDbEntity
  8
1
370
    30
  6
Continuous
 62
     7
100
AcDbLine
 10
437.700299
 20
293.147681
 30
0.0
 11
472.700599
 21
293.147681
 31
0.0
  0
LINE
  5
32D
100
AcDbEntity
  8
1
370
    30
  6
Continuous
 62
     7
100
AcDbLine
 10
437.700299
 20
292.147681
 30
0.0
 11
472.700599
 21
292.147681
 31
0.0
  0
LINE
  5
32E
100
AcDbEntity
  8
1
370
    30
  6
Continuous
 62
     7
100
AcDbLine
 10
472.700599
 20
290.947681
 30
0.0
 11
486.200599
 21
290.947681
 31
0.0
  0
LINE
  5
32F
100
AcDbEntity
  8
1
370
    30
  6
Continuous
 62
     7
100
AcDbLine
 10
486.200599
 20
290.947681
 30
0.0
 11
486.200599
 21
298.147681
 31
0.0
  0
LINE
  5
330
100
AcDbEntity
  8
1
370
    30
  6
Continuous
 62
     7
100
AcDbLine
 10
486.200599
 20
298.147681
 30
0.0
 11
480.000599
 21
298.147681
 31
0.0
  0
LINE
  5
331
100
AcDbEntity
  8
1
370
    30
  6
Continuous
 62
     7
100
AcDbLine
 10
472.700599
 20
296.447681
 30
0.0
 11
472.700599
 21
290.947681
 31
0.0
  0
LINE
  5
332
100
AcDbEntity
  8
1
370
    30
  6
Continuous
 62
     7
100
AcDbLine
 10
472.700599
 20
296.447681
 30
0.0
 11
480.000599
 21
296.447681
 31
0.0
  0
LINE
  5
333
100
AcDbEntity
  8
1
370
    30
  6
Continuous
 62
     7
100
AcDbLine
 10
472.700599
 20
290.947681
 30
0.0
 11
472.700599
 21
289.947681
 31
0.0
  0
LINE
  5
334
100
AcDbEntity
  8
1
370
    30
  6
Continuous
 62
     7
100
AcDbLine
 10
472.700599
 20
289.947681
 30
0.0
 11
473.700599
 21
289.947681
 31
0.0
  0
LINE
  5
335
100
AcDbEntity
  8
1
370
    30
  6
Continuous
 62
     7
100
AcDbLine
 10
473.700599
 20
289.947681
 30
0.0
 11
473.700599
 21
290.947681
 31
0.0
  0
ARC
  5
336
100
AcDbEntity
  8
1
370
    30
  6
Continuous
 62
     7
100
AcDbCircle
 10
480.000599
 20
297.697681
 30
0.0
 40
0.75
100
AcDbArc
 50
90.0
 51
-90.0
  0
LINE
  5
337
100
AcDbEntity
  8
1
370
    30
  6
Continuous
 62
     7
100
AcDbLine
 10
483.900599
 20
361.148859
 30
0.0
 11
484.200599
 21
361.148859
 31
0.0
  0
LINE
  5
338
100
AcDbEntity
  8
1
370
    30
  6
Continuous
 62
     7
100
AcDbLine
 10
480.000599
 20
298.447681
 30
0.0
 11
484.200599
 21
298.447681
 31
0.0
  0
LINE
  5
339
100
AcDbEntity
  8
1
370
    30
  6
Continuous
 62
     7
100
AcDbLine
 10
484.200599
 20
298.447681
 30
0.0
 11
484.200599
 21
299.447681
 31
0.0
  0
LINE
  5
33A
100
AcDbEntity
  8
1
370
    30
  6
Continuous
 62
     7
100
AcDbLine
 10
484.200599
 20
299.447681
 30
0.0
 11
483.900599
 21
300.147681
 31
0.0
  0
ARC
  5
33B
100
AcDbEntity
  8
1
370
    30
  6
Continuous
 62
     7
100
AcDbCircle
 10
477.701306
 20
297.697573
 30
0.0
 40
0.75
100
AcDbArc
 50
-90.0
 51
90.0
  0
LINE
  5
33C
100
AcDbEntity
  8
1
370
    30
  6
Continuous
 62
     7
100
AcDbLine
 10
477.701306
 20
298.447573
 30
0.0
 11
474.400599
 21
298.447573
 31
0.0
  0
LINE
  5
33D
100
AcDbEntity
  8
1
370
    30
  6
Continuous
 62
     7
100
AcDbLine
 10
483.900599
 20
300.147681
 30
0.0
 11
475.400599
 21
300.147681
 31
0.0
  0
LINE
  5
33E
100
AcDbEntity
  8
1
370
    30
  6
Continuous
 62
     7
100
AcDbLine
 10
484.200599
 20
299.447681
 30
0.0
 11
475.400599
 21
299.447681
 31
0.0
  0
LINE
  5
33F
100
AcDbEntity
  8
1
370
    30
  6
Continuous
 62
     7
100
AcDbLine
 10
474.400599
 20
298.447573
 30
0.0
 11
474.400599
 21
300.447681
 31
0.0
  0
LINE
  5
340
100
AcDbEntity
  8
1
370
    30
  6
Continuous
 62
     7
100
AcDbLine
 10
475.400599
 20
300.447681
 30
0.0
 11
475.400599
 21
299.447681
 31
0.0
  0
LINE
  5
341
100
AcDbEntity
  8
1
370
    30
  6
Continuous
 62
     7
100
AcDbLine
 10
484.200599
 20
298.447681
 30
0.0
 11
483.600599
 21
298.147681
 31
0.0
  0
LINE
  5
342
100
AcDbEntity
  8
1
370
    30
  6
Continuous
 62
     7
100
AcDbLine
 10
483.500599
 20
298.147681
 30
0.0
 11
483.500599
 21
298.447681
 31
0.0
  0
LINE
  5
343
100
AcDbEntity
  8
1
370
    30
  6
Continuous
 62
     7
100
AcDbLine
 10
486.200599
 20
176.667216
 30
0.0
 11
486.200599
 21
184.367216
 31
0.0
  0
LINE
  5
344
100
AcDbEntity
  8
1
370
    30
  6
Continuous
 62
     7
100
AcDbLine
 10
485.700599
 20
183.367216
 30
0.0
 11
485.700599
 21
181.642216
 31
0.0
  0
LINE
  5
345
100
AcDbEntity
  8
1
370
    30
  6
Continuous
 62
     7
100
AcDbLine
 10
485.700599
 20
179.392216
 30
0.0
 11
485.700599
 21
177.667216
 31
0.0
  0
LINE
  5
346
100
AcDbEntity
  8
1
370
    30
  6
Continuous
 62
     7
100
AcDbLine
 10
486.200599
 20
179.392216
 30
0.0
 11
480.000599
 21
179.392216
 31
0.0
  0
LINE
  5
347
100
AcDbEntity
  8
1
370
    30
  6
Continuous
 62
     7
100
AcDbLine
 10
480.000599
 20
177.667216
 30
0.0
 11
486.200599
 21
177.667216
 31
0.0
  0
LINE
  5
348
100
AcDbEntity
  8
1
370
    30
  6
Continuous
 62
     7
100
AcDbLine
 10
480.000599
 20
181.642216
 30
0.0
 11
486.200599
 21
181.642216
 31
0.0
  0
LINE
  5
349
100
AcDbEntity
  8
1
370
    30
  6
Continuous
 62
     7
100
AcDbLine
 10
486.200599
 20
183.367216
 30
0.0
 11
480.000599
 21
183.367216
 31
0.0
  0
LINE
  5
34A
100
AcDbEntity
  8
1
370
    30
  6
Continuous
 62
     7
100
AcDbLine
 10
480.000599
 20
177.667216
 30
0.0
 11
480.000599
 21
179.392216
 31
0.0
  0
LINE
  5
34B
100
AcDbEntity
  8
1
370
    30
  6
Continuous
 62
     7
100
AcDbLine
 10
480.000599
 20
181.642216
 30
0.0
 11
480.000599
 21
183.367216
 31
0.0
  0
LINE
  5
34C
100
AcDbEntity
  8
1
370
     9
  6
Continuous
 62
     7
100
AcDbLine
 10
480.300599
 20
179.142216
 30
0.0
 11
480.300599
 21
177.917216
 31
0.0
  0
LINE
  5
34D
100
AcDbEntity
  8
1
370
     9
  6
Continuous
 62
     7
100
AcDbLine
 10
480.300599
 20
183.117216
 30
0.0
 11
480.300599
 21
181.892216
 31
0.0
  0
LINE
  5
34E
100
AcDbEntity
  8
1
370
     9
  6
Continuous
 62
     7
100
AcDbLine
 10
480.300599
 20
181.892216
 30
0.0
 11
483.900599
 21
181.742216
 31
0.0
  0
LINE
  5
34F
100
AcDbEntity
  8
1
370
     9
  6
Continuous
 62
     7
100
AcDbLine
 10
483.900599
 20
183.267216
 30
0.0
 11
480.300599
 21
183.117216
 31
0.0
  0
LINE
  5
350
100
AcDbEntity
  8
1
370
     9
  6
Continuous
 62
     7
100
AcDbLine
 10
483.900599
 20
179.292216
 30
0.0
 11
480.300599
 21
179.142216
 31
0.0
  0
LINE
  5
351
100
AcDbEntity
  8
1
370
     9
  6
Continuous
 62
     7
100
AcDbLine
 10
480.300599
 20
177.917216
 30
0.0
 11
483.900599
 21
177.767216
 31
0.0
  0
LINE
  5
352
100
AcDbEntity
  8
1
370
     9
  6
Continuous
 62
     7
100
AcDbLine
 10
485.200599
 20
179.342216
 30
0.0
 11
485.200599
 21
177.717216
 31
0.0
  0
LINE
  5
353
100
AcDbEntity
  8
1
370
     9
  6
Continuous
 62
     7
100
AcDbLine
 10
483.900599
 20
179.292216
 30
0.0
 11
484.200599
 21
179.342216
 31
0.0
  0
LINE
  5
354
100
AcDbEntity
  8
1
370
     9
  6
Continuous
 62
     7
100
AcDbLine
 10
484.200599
 20
179.342216
 30
0.0
 11
485.200599
 21
179.342216
 31
0.0
  0
LINE
  5
355
100
AcDbEntity
  8
1
370
     9
  6
Continuous
 62
     7
100
AcDbLine
 10
485.200599
 20
177.717216
 30
0.0
 11
484.200599
 21
177.717216
 31
0.0
  0
LINE
  5
356
100
AcDbEntity
  8
1
370
     9
  6
Continuous
 62
     7
100
AcDbLine
 10
483.900599
 20
177.767216
 30
0.0
 11
484.200599
 21
177.717216
 31
0.0
  0
LINE
  5
357
100
AcDbEntity
  8
1
370
     9
  6
Continuous
 62
     7
100
AcDbLine
 10
483.900599
 20
181.742216
 30
0.0
 11
484.200599
 21
181.692216
 31
0.0
  0
LINE
  5
358
100
AcDbEntity
  8
1
370
     9
  6
Continuous
 62
     7
100
AcDbLine
 10
483.900599
 20
183.267216
 30
0.0
 11
484.200599
 21
183.317216
 31
0.0
  0
LINE
  5
359
100
AcDbEntity
  8
1
370
     9
  6
Continuous
 62
     7
100
AcDbLine
 10
485.200599
 20
183.317216
 30
0.0
 11
485.200599
 21
181.692216
 31
0.0
  0
LINE
  5
35A
100
AcDbEntity
  8
1
370
     9
  6
Continuous
 62
     7
100
AcDbLine
 10
484.200599
 20
181.692216
 30
0.0
 11
485.200599
 21
181.692216
 31
0.0
  0
LINE
  5
35B
100
AcDbEntity
  8
1
370
     9
  6
Continuous
 62
     7
100
AcDbLine
 10
485.200599
 20
183.317216
 30
0.0
 11
484.200599
 21
183.317216
 31
0.0
  0
LINE
  5
35C
100
AcDbEntity
  8
1
370
    30
  6
Continuous
 62
     7
100
AcDbLine
 10
472.700599
 20
176.667216
 30
0.0
 11
486.200599
 21
176.667216
 31
0.0
  0
LINE
  5
35D
100
AcDbEntity
  8
1
370
    30
  6
Continuous
 62
     7
100
AcDbLine
 10
472.700599
 20
184.367216
 30
0.0
 11
472.700599
 21
176.667216
 31
0.0
  0
LINE
  5
35E
100
AcDbEntity
  8
1
370
    30
  6
Continuous
 62
     7
100
AcDbLine
 10
463.615963
 20
178.227393
 30
0.0
 11
472.700599
 21
178.227393
 31
0.0
  0
LINE
  5
35F
100
AcDbEntity
  8
1
370
    30
  6
Continuous
 62
     7
100
AcDbLine
 10
463.178997
 20
179.227393
 30
0.0
 11
472.700602
 21
179.227393
 31
0.0
  0
LINE
  5
360
100
AcDbEntity
  8
1
370
    30
  6
Continuous
 62
     7
100
AcDbLine
 10
463.659562
 20
181.812393
 30
0.0
 11
472.700599
 21
181.812393
 31
0.0
  0
LINE
  5
361
100
AcDbEntity
  8
1
370
    30
  6
Continuous
 62
     7
100
AcDbLine
 10
463.649778
 20
182.812393
 30
0.0
 11
472.700599
 21
182.812393
 31
0.0
  0
LINE
  5
362
100
AcDbEntity
  8
1
370
    30
  6
Continuous
 62
     7
100
AcDbLine
 10
486.200632
 20
184.367216
 30
0.0
 11
472.700599
 21
184.367216
 31
0.0
  0
LINE
  5
363
100
AcDbEntity
  8
1
370
    30
  6
Continuous
 62
     7
100
AcDbLine
 10
472.700599
 20
177.667216
 30
0.0
 11
473.600599
 21
177.667216
 31
0.0
  0
LINE
  5
364
100
AcDbEntity
  8
1
370
    30
  6
Continuous
 62
     7
100
AcDbLine
 10
473.600599
 20
177.667216
 30
0.0
 11
473.600599
 21
183.367216
 31
0.0
  0
LINE
  5
365
100
AcDbEntity
  8
1
370
    30
  6
Continuous
 62
     7
100
AcDbLine
 10
473.600599
 20
183.367216
 30
0.0
 11
472.700599
 21
183.367216
 31
0.0
  0
LINE
  5
366
100
AcDbEntity
  8
1
370
    30
  6
Continuous
 62
     7
100
AcDbLine
 10
483.900599
 20
361.948859
 30
0.0
 11
484.200599
 21
361.948859
 31
0.0
  0
LINE
  5
367
100
AcDbEntity
  8
1
370
    30
  6
Continuous
 62
     7
100
AcDbLine
 10
542.032331
 20
274.718563
 30
0.0
 11
542.032331
 21
240.518563
 31
0.0
  0
ARC
  5
368
100
AcDbEntity
  8
1
370
    30
  6
Continuous
 62
     7
100
AcDbCircle
 10
543.032331
 20
240.518563
 30
0.0
 40
1.0
100
AcDbArc
 50
180.0
 51
-90.0
  0
ARC
  5
369
100
AcDbEntity
  8
1
370
    30
  6
Continuous
 62
     7
100
AcDbCircle
 10
566.732886
 20
300.719277
 30
0.0
 40
1.0
100
AcDbArc
 50
0.0
 51
90.0
  0
ARC
  5
36A
100
AcDbEntity
  8
1
370
    30
  6
Continuous
 62
     7
100
AcDbCircle
 10
570.031547
 20
300.719277
 30
0.0
 40
1.0
100
AcDbArc
 50
90.0
 51
180.0
  0
LINE
  5
36B
100
AcDbEntity
  8
1
370
    30
  6
Continuous
 62
     7
100
AcDbLine
 10
568.232331
 20
288.718563
 30
0.0
 11
568.232331
 21
274.718563
 31
0.0
  0
LINE
  5
36C
100
AcDbEntity
  8
1
370
    30
  6
Continuous
 62
     7
100
AcDbLine
 10
543.032331
 20
239.518563
 30
0.0
 11
594.032331
 21
239.518563
 31
0.0
  0
LINE
  5
36D
100
AcDbEntity
  8
1
370
    30
  6
Continuous
 62
     7
100
AcDbLine
 10
594.032331
 20
239.518563
 30
0.0
 11
594.032331
 21
274.716103
 31
0.0
  0
LINE
  5
36E
100
AcDbEntity
  8
1
370
    30
  6
Continuous
 62
     7
100
AcDbLine
 10
592.832331
 20
259.518563
 30
0.0
 11
594.032331
 21
259.518563
 31
0.0
  0
LINE
  5
36F
100
AcDbEntity
  8
1
370
    30
  6
Continuous
 62
     7
100
AcDbLine
 10
592.832331
 20
274.718563
 30
0.0
 11
592.832331
 21
259.518563
 31
0.0
  0
LINE
  5
370
100
AcDbEntity
  8
1
370
    30
  6
Continuous
 62
     7
100
AcDbLine
 10
592.832331
 20
261.318563
 30
0.0
 11
594.032331
 21
261.318563
 31
0.0
  0
LINE
  5
371
100
AcDbEntity
  8
1
370
    30
  6
Continuous
 62
     7
100
AcDbLine
 10
592.832331
 20
272.918563
 30
0.0
 11
594.032331
 21
272.918563
 31
0.0
  0
LINE
  5
372
100
AcDbEntity
  8
1
370
    30
  6
Continuous
 62
     7
100
AcDbLine
 10
542.032331
 20
274.718563
 30
0.0
 11
594.032331
 21
274.718563
 31
0.0
  0
LINE
  5
373
100
AcDbEntity
  8
1
370
    30
  6
Continuous
 62
     7
100
AcDbLine
 10
570.031547
 20
301.719277
 30
0.0
 11
592.332331
 21
301.719277
 31
0.0
  0
ARC
  5
374
100
AcDbEntity
  8
1
370
    30
  6
Continuous
 62
     7
100
AcDbCircle
 10
592.332331
 20
300.719277
 30
0.0
 40
1.0
100
AcDbArc
 50
0.0
 51
90.0
  0
LINE
  5
375
100
AcDbEntity
  8
1
370
    30
  6
Continuous
 62
     7
100
AcDbLine
 10
593.332331
 20
300.719277
 30
0.0
 11
594.032331
 21
288.718563
 31
0.0
  0
LINE
  5
376
100
AcDbEntity
  8
1
370
    30
  6
Continuous
 62
     7
100
AcDbLine
 10
594.032331
 20
288.718563
 30
0.0
 11
594.032331
 21
274.718563
 31
0.0
  0
ARC
  5
377
100
AcDbEntity
  8
1
370
    30
  6
Continuous
 62
     7
100
AcDbCircle
 10
544.73215
 20
300.718598
 30
0.0
 40
1.0
100
AcDbArc
 50
90.0
 51
180.0
  0
LINE
  5
378
100
AcDbEntity
  8
1
370
    30
  6
Continuous
 62
     7
100
AcDbLine
 10
544.71242
 20
301.718563
 30
0.0
 11
566.770681
 21
301.718563
 31
0.0
  0
LINE
  5
379
100
AcDbEntity
  8
1
370
    30
  6
Continuous
 62
     7
100
AcDbLine
 10
543.232331
 20
288.718563
 30
0.0
 11
543.732331
 21
300.737629
 31
0.0
  0
LINE
  5
37A
100
AcDbEntity
  8
1
370
    30
  6
Continuous
 62
     7
100
AcDbLine
 10
543.232331
 20
288.718563
 30
0.0
 11
543.232331
 21
274.718563
 31
0.0
  0
LINE
  5
37B
100
AcDbEntity
  8
1
370
     9
  6
Continuous
 62
     7
100
AcDbLine
 10
552.232331
 20
293.718563
 30
0.0
 11
552.232331
 21
290.716681
 31
0.0
  0
LINE
  5
37C
100
AcDbEntity
  8
1
370
     9
  6
Continuous
 62
     7
100
AcDbLine
 10
555.232331
 20
290.716681
 30
0.0
 11
555.232331
 21
293.718563
 31
0.0
  0
LINE
  5
37D
100
AcDbEntity
  8
1
370
     9
  6
Continuous
 62
     7
100
AcDbLine
 10
552.232331
 20
290.716681
 30
0.0
 11
555.232331
 21
290.716681
 31
0.0
  0
LINE
  5
37E
100
AcDbEntity
  8
1
370
     9
  6
Continuous
 62
     7
100
AcDbLine
 10
576.732331
 20
293.718563
 30
0.0
 11
576.732331
 21
290.716681
 31
0.0
  0
LINE
  5
37F
100
AcDbEntity
  8
1
370
     9
  6
Continuous
 62
     7
100
AcDbLine
 10
576.732331
 20
290.716681
 30
0.0
 11
579.732331
 21
290.716681
 31
0.0
  0
LINE
  5
380
100
AcDbEntity
  8
1
370
     9
  6
Continuous
 62
     7
100
AcDbLine
 10
579.732331
 20
290.716681
 30
0.0
 11
579.732331
 21
293.718563
 31
0.0
  0
LINE
  5
381
100
AcDbEntity
  8
1
370
    30
  6
Continuous
 62
     7
100
AcDbLine
 10
474.400599
 20
300.447681
 30
0.0
 11
475.400599
 21
300.447681
 31
0.0
  0
LINE
  5
382
100
AcDbEntity
  8
1
370
    30
  6
Continuous
 62
     7
100
AcDbLine
 10
594.032331
 20
240.718563
 30
0.0
 11
542.032331
 21
240.718563
 31
0.0
  0
LINE
  5
383
100
AcDbEntity
  8
1
370
    30
  6
Continuous
 62
     7
100
AcDbLine
 10
480.000599
 20
296.147642
 30
0.0
 11
480.000599
 21
298.147681
 31
0.0
  0
LINE
  5
384
100
AcDbEntity
  8
1
370
    30
  6
Continuous
 62
     7
100
AcDbLine
 10
480.000599
 20
296.147681
 30
0.0
 11
472.700599
 21
296.147681
 31
0.0
  0
LINE
  5
385
100
AcDbEntity
  8
1
370
    30
  6
Continuous
 62
     7
100
AcDbLine
 10
569.031547
 20
300.719277
 30
0.0
 11
568.231983
 21
288.718586
 31
0.0
  0
LINE
  5
386
100
AcDbEntity
  8
1
370
    30
  6
Continuous
 62
     7
100
AcDbLine
 10
567.732634
 20
300.741738
 30
0.0
 11
568.232663
 21
288.718577
 31
0.0
  0
LINE
  5
387
100
AcDbEntity
  8
1
370
     9
  6
Continuous
 62
     7
100
AcDbLine
 10
568.565114
 20
293.718563
 30
0.0
 11
593.740682
 21
293.718563
 31
0.0
  0
LINE
  5
388
100
AcDbEntity
  8
1
370
     9
  6
Continuous
 62
     7
100
AcDbLine
 10
543.440334
 20
293.718563
 30
0.0
 11
568.023429
 21
293.718563
 31
0.0
  0
LINE
  5
389
100
AcDbEntity
  8
1
370
    30
  6
Continuous
 62
     7
100
AcDbLine
 10
472.700599
 20
296.447681
 30
0.0
 11
472.700599
 21
296.947681
 31
0.0
  0
LINE
  5
38A
100
AcDbEntity
  8
1
370
    30
  6
Continuous
 62
     7
100
AcDbLine
 10
472.700599
 20
296.947681
 30
0.0
 11
477.714059
 21
296.947681
 31
0.0
  0
LINE
  5
38B
100
AcDbEntity
  8
3
370
     9
  6
CENTER
 62
   214
100
AcDbLine
 10
197.200599
 20
339.848859
 30
0.0
 11
197.200599
 21
411.548859
 31
0.0
  0
LINE
  5
38C
100
AcDbEntity
  8
3
370
     9
  6
CENTER
 62
   214
100
AcDbLine
 10
312.43128
 20
267.118563
 30
0.0
 11
297.162095
 21
267.118563
 31
0.0
  0
LINE
  5
38D
100
AcDbEntity
  8
3
370
     9
  6
CENTER
 62
   214
100
AcDbLine
 10
305.650599
 20
276.271855
 30
0.0
 11
305.650599
 21
257.940207
 31
0.0
  0
LINE
  5
38E
100
AcDbEntity
  8
3
370
     9
  6
CENTER
 62
   214
100
AcDbLine
 10
81.969918
 20
267.118563
 30
0.0
 11
97.239102
 21
267.118563
 31
0.0
  0
LINE
  5
38F
100
AcDbEntity
  8
3
370
     9
  6
CENTER
 62
   214
100
AcDbLine
 10
88.750599
 20
276.271855
 30
0.0
 11
88.750599
 21
257.940207
 31
0.0
  0
LINE
  5
390
100
AcDbEntity
  8
3
370
     9
  6
CENTER
 62
   214
100
AcDbLine
 10
197.200599
 20
229.518563
 30
0.0
 11
197.200599
 21
311.718563
 31
0.0
  0
LINE
  5
391
100
AcDbEntity
  8
3
370
     9
  6
CENTER
 62
   214
100
AcDbLine
 10
197.200599
 20
129.817216
 30
0.0
 11
197.200599
 21
201.517216
 31
0.0
  0
DIMENSION
  5
39D
100
AcDbEntity
  8
2
370
     9
  6
Continuous
 62
   134
100
AcDbDimension
  2
*D14
 10
54.135331
 20
401.048859
 30
0.0
 11
53.385331
 21
376.048859
 31
0.0
 71
     5
 72
     1
 41
1.0
 42
0.0
  1
50
100
AcDbAlignedDimension
 13
97.148639
 23
401.048859
 33
0.0
 14
97.148639
 24
351.048859
 34
0.0
 50
90.0
100
AcDbRotatedDimension
  0
DIMENSION
  5
3A9
100
AcDbEntity
  8
2
370
     9
  6
Continuous
 62
   134
100
AcDbDimension
  2
*D15
 10
542.032331
 20
215.129681
 30
0.0
 11
568.03233
 21
215.879681
 31
0.0
 71
     5
 72
     1
 41
1.0
 42
0.0
  1
52
100
AcDbAlignedDimension
 13
542.032331
 23
237.997454
 33
0.0
 14
594.032328
 24
237.997454
 34
0.0
100
AcDbRotatedDimension
  0
DIMENSION
  5
3B5
100
AcDbEntity
  8
2
370
     9
  6
Continuous
 62
   134
100
AcDbDimension
  2
*D16
 10
83.800599
 20
423.225889
 30
0.0
 11
197.200599
 21
423.975889
 31
0.0
 71
     5
 72
     1
 41
1.0
 42
0.0
  1
(227)
100
AcDbAlignedDimension
 13
83.800599
 23
402.948202
 33
0.0
 14
310.600599
 24
402.948202
 34
0.0
100
AcDbRotatedDimension
  0
DIMENSION
  5
3C1
100
AcDbEntity
  8
2
370
     9
  6
Continuous
 62
   134
100
AcDbDimension
  2
*D17
 10
297.700599
 20
437.058225
 30
0.0
 11
385.200599
 21
437.808225
 31
0.0
 71
     5
 72
     1
 41
1.0
 42
0.0
  1
(190)
100
AcDbAlignedDimension
 13
297.700599
 23
367.048859
 33
0.0
 14
472.700599
 24
367.048859
 34
0.0
100
AcDbRotatedDimension
  0
DIMENSION
  5
3CD
100
AcDbEntity
  8
2
370
     9
  6
Continuous
 62
   134
100
AcDbDimension
  2
*D18
 10
54.165745
 20
139.817216
 30
0.0
 11
53.415745
 21
165.667216
 31
0.0
 71
     5
 72
     1
 41
1.0
 42
0.0
  1
(52)
100
AcDbAlignedDimension
 13
92.700599
 23
139.817216
 33
0.0
 14
92.700599
 24
191.517216
 34
0.0
 50
90.0
100
AcDbRotatedDimension
  0
LINE
  5
3CE
100
AcDbEntity
  8
2
370
     9
  6
Continuous
 62
   134
100
AcDbLine
 10
305.650599
 20
267.118563
 30
0.0
 11
309.61947
 21
264.418922
 31
0.0
  0
LINE
  5
3CF
100
AcDbEntity
  8
2
370
     9
  6
Continuous
 62
   134
100
AcDbLine
 10
305.650599
 20
267.118563
 30
0.0
 11
307.737922
 21
262.79617
 31
0.0
  0
POLYLINE
  5
3D0
100
AcDbEntity
  8
2
370
     9
  6
Continuous
 62
   134
100
AcDb2dPolyline
 66
     1
 10
0.0
 20
0.0
 30
0.0
  0
VERTEX
  5
3D1
100
AcDbEntity
  8
2
370
     9
  6
Continuous
 62
   134
100
AcDbVertex
100
AcDb2dVertex
 10
305.650599
 20
267.118563
 30
0.0
  0
VERTEX
  5
3D2
100
AcDbEntity
  8
2
370
     9
  6
Continuous
 62
   134
100
AcDbVertex
100
AcDb2dVertex
 10
319.432212
 20
251.139063
 30
0.0
  0
VERTEX
  5
3D3
100
AcDbEntity
  8
2
370
     9
  6
Continuous
 62
   134
100
AcDbVertex
100
AcDb2dVertex
 10
355.12323
 20
251.139063
 30
0.0
  0
SEQEND
  5
3D4
100
AcDbEntity
  8
2
370
     9
  6
Continuous
 62
   134
  0
TEXT
  5
3D5
100
AcDbEntity
  8
2
370
     9
  6
Continuous
 62
   134
100
AcDbText
 10
322.72323
 20
251.704931
 30
0.0
 40
6.0
  1
2-M3タップ
 41
0.710526
 11
322.72323
 21
251.704931
 31
0.0
100
AcDbText
 73
     1
  0
TEXT
  5
3D6
100
AcDbEntity
  8
5
370
     9
  6
Continuous
 62
    94
100
AcDbText
 10
542.811762
 20
311.018822
 30
0.0
 40
7.5
  1
側面
 41
0.833333
 11
542.811762
 21
311.018822
 31
0.0
100
AcDbText
 73
     1
  0
TEXT
  5
3D7
100
AcDbEntity
  8
5
370
     9
  6
Continuous
 62
    94
100
AcDbText
 10
88.895636
 20
433.923709
 30
0.0
 40
7.5
  1
平面
 41
0.833333
 11
88.895636
 21
433.923709
 31
0.0
100
AcDbText
 73
     1
  0
TEXT
  5
3D8
100
AcDbEntity
  8
5
370
     9
  6
Continuous
 62
    94
100
AcDbText
 10
89.833138
 20
311.031326
 30
0.0
 40
7.5
  1
正面
 41
0.833333
 11
89.833138
 21
311.031326
 31
0.0
100
AcDbText
 73
     1
  0
LINE
  5
3D9
100
AcDbEntity
  8
2
370
     9
  6
Continuous
 62
   134
100
AcDbLine
 10
477.171557
 20
288.055689
 30
0.0
 11
481.140428
 21
285.356048
 31
0.0
  0
LINE
  5
3DA
100
AcDbEntity
  8
2
370
     9
  6
Continuous
 62
   134
100
AcDbLine
 10
477.171557
 20
288.055689
 30
0.0
 11
479.25888
 21
283.733295
 31
0.0
  0
POLYLINE
  5
3DB
100
AcDbEntity
  8
2
370
     9
  6
Continuous
 62
   134
100
AcDb2dPolyline
 66
     1
 10
0.0
 20
0.0
 30
0.0
  0
VERTEX
  5
3DC
100
AcDbEntity
  8
2
370
     9
  6
Continuous
 62
   134
100
AcDbVertex
100
AcDb2dVertex
 10
477.171557
 20
288.055689
 30
0.0
  0
VERTEX
  5
3DD
100
AcDbEntity
  8
2
370
     9
  6
Continuous
 62
   134
100
AcDbVertex
100
AcDb2dVertex
 10
490.953171
 20
272.076189
 30
0.0
  0
VERTEX
  5
3DE
100
AcDbEntity
  8
2
370
     9
  6
Continuous
 62
   134
100
AcDbVertex
100
AcDb2dVertex
 10
529.075925
 20
272.076189
 30
0.0
  0
SEQEND
  5
3DF
100
AcDbEntity
  8
2
370
     9
  6
Continuous
 62
   134
  0
TEXT
  5
3E0
100
AcDbEntity
  8
2
370
     9
  6
Continuous
 62
   134
100
AcDbText
 10
494.075925
 20
272.076189
 30
0.0
 40
6.0
  1
（%%p2ピン）
 41
0.857843
 11
494.075925
 21
272.076189
 31
0.0
100
AcDbText
 73
     1
  0
DIMENSION
  5
3EC
100
AcDbEntity
  8
2
370
     9
  6
Continuous
 62
   134
100
AcDbDimension
  2
*D19
 10
88.750599
 20
218.067207
 30
0.0
 11
197.141793
 21
219.067207
 31
0.0
 71
     5
 72
     1
 41
1.0
 42
0.0
  1
217
100
AcDbAlignedDimension
 13
88.750599
 23
263.118563
 33
0.0
 14
305.650599
 24
263.118563
 34
0.0
100
AcDbRotatedDimension
  0
TEXT
  5
3ED
100
AcDbEntity
  8
15
370
     9
  6
Continuous
 62
    96
100
AcDbText
 10
757.453623
 20
56.129681
 30
0.0
 40
10.0
  1
森山
 41
0.85
 11
757.453623
 21
56.129681
 31
0.0
100
AcDbText
 73
     1
  0
TEXT
  5
3EE
100
AcDbEntity
  8
15
370
     9
  6
Continuous
 62
    96
100
AcDbText
 10
704.786956
 20
56.129681
 30
0.0
 40
10.0
  1
仲代
 41
0.85
 11
704.786956
 21
56.129681
 31
0.0
100
AcDbText
 73
     1
  0
TEXT
  5
3EF
100
AcDbEntity
  8
15
370
     9
  6
Continuous
 62
    96
100
AcDbText
 10
660.153354
 20
44.000006
 30
0.0
 40
6.0
  1
G00057-03-06913
 41
0.5
 11
660.153354
 21
44.000006
 31
0.0
100
AcDbText
 73
     1
  0
TEXT
  5
3F0
100
AcDbEntity
  8
15
370
     9
  6
Continuous
 62
    96
100
AcDbText
 10
745.715024
 20
43.880087
 30
0.0
 40
6.0
  1
2006年09月13日
 41
0.603448
 11
745.715024
 21
43.880087
 31
0.0
100
AcDbText
 73
     1
  0
TEXT
  5
3F1
100
AcDbEntity
  8
15
370
     9
  6
PHANTOM
 62
    96
100
AcDbText
 10
703.748503
 20
522.128743
 30
0.0
 40
6.0
  1
０１０６０５７
 41
0.833333
 11
703.748503
 21
522.128743
 31
0.0
100
AcDbText
 73
     1
  0
TEXT
  5
3F2
100
AcDbEntity
  8
15
370
     9
  6
Continuous
 62
    96
100
AcDbText
 10
628.538922
 20
75.0
 30
0.0
 40
10.0
  1
ＶＡ－０２(－ＬＡＮ)用バッテリ
 41
0.829787
 11
628.538922
 21
75.0
 31
0.0
100
AcDbText
 73
     1
  0
TEXT
  5
3F3
100
AcDbEntity
  8
5
370
     9
  6
Continuous
 62
    94
100
AcDbText
 10
91.037003
 20
197.884572
 30
0.0
 40
7.5
  1
底面
 41
0.833333
 11
91.037003
 21
197.884572
 31
0.0
100
AcDbText
 73
     1
  0
ENDSEC
  0
SECTION
  2
OBJECTS
  0
DICTIONARY
  5
19
100
AcDbDictionary
280
     0
281
     1
  3
ACAD_GROUP
350
1A
  3
ACAD_MLINESTYLE
350
1B
  3
ACAD_LAYOUT
350
1E
  3
ACAD_PLOTSETTINGS
350
22
  3
ACAD_PLOTSTYLENAME
350
1F
  3
ACAD_WIPEOUT_VARS
350
23
  0
DICTIONARY
  5
1A
102
{ACAD_REACTORS
330
19
102
}
100
AcDbDictionary
280
     0
281
     1
  0
DICTIONARY
  5
1B
102
{ACAD_REACTORS
330
19
102
}
100
AcDbDictionary
280
     0
281
     1
  3
Standard
350
1C
  0
MLINESTYLE
  5
1C
102
{ACAD_REACTORS
330
1B
102
}
100
AcDbMlineStyle
  2
Standard
 70
     0
  3

 62
     0
 51
90.0
 52
90.0
 71
     2
 49
0.5
 62
   256
  6
ByLayer
 49
-0.5
 62
   256
  6
ByLayer
  0
ACDBDICTIONARYWDFLT
  5
1F
102
{ACAD_REACTORS
330
19
102
}
100
AcDbDictionary
281
     1
  3
Normal
350
1D
100
AcDbDictionaryWithDefault
340
1D
  0
ACDBPLACEHOLDER
  5
1D
102
{ACAD_REACTORS
330
1F
102
}
  0
LAYOUT
  5
20
102
{ACAD_REACTORS
330
1E
102
}
100
AcDbPlotSettings
  1

  2

  4

  6

 40
0.0
 41
0.0
 42
0.0
 43
0.0
 44
0.0
 45
0.0
 46
0.0
 47
0.0
 48
0.0
 49
0.0
140
0.0
141
0.0
142
1.0
143
1.0
 70
  1024
 72
     0
 73
     0
 74
     0
  7

 75
     0
147
1.0
148
0.0
149
0.0
100
AcDbLayout
  1
Model
 70
     0
 71
     0
 10
0.0
 20
0.0
 11
0.0
 21
0.0
 12
0.0
 22
0.0
 32
0.0
 14
0.0
 24
0.0
 34
0.0
 15
0.0
 25
0.0
 35
0.0
146
0.0
 13
0.0
 23
0.0
 33
0.0
 16
0.0
 26
0.0
 36
0.0
 17
0.0
 27
0.0
 37
0.0
 76
     0
330
A
331
0
345
0
346
0
  0
LAYOUT
  5
21
102
{ACAD_REACTORS
330
1E
102
}
100
AcDbPlotSettings
  1

  2

  4

  6

 40
0.0
 41
0.0
 42
0.0
 43
0.0
 44
0.0
 45
0.0
 46
0.0
 47
0.0
 48
0.0
 49
0.0
140
0.0
141
0.0
142
1.0
143
1.0
 70
     0
 72
     0
 73
     0
 74
     0
  7

 75
     0
147
1.0
148
0.0
149
0.0
100
AcDbLayout
  1
Layout1
 70
     0
 71
     0
 10
0.0
 20
0.0
 11
0.0
 21
0.0
 12
0.0
 22
0.0
 32
0.0
 14
0.0
 24
0.0
 34
0.0
 15
0.0
 25
0.0
 35
0.0
146
0.0
 13
0.0
 23
0.0
 33
0.0
 16
0.0
 26
0.0
 36
0.0
 17
0.0
 27
0.0
 37
0.0
 76
     0
330
B
331
0
345
0
346
0
  0
DICTIONARY
  5
1E
102
{ACAD_REACTORS
330
19
102
}
100
AcDbDictionary
280
     0
281
     1
  3
Layout1
350
21
  3
Model
350
20
  0
DICTIONARY
  5
22
102
{ACAD_REACTORS
330
19
102
}
100
AcDbDictionary
280
     0
281
     1
  0
WIPEOUTVARIABLES
  5
23
100
AcDbWipeoutVariables
 70
     1
  0
ENDSEC
  0
EOF
