  0
SECTION
  2
HEADER
  9
$ACADVER
  1
AC1015
  9
$ACADMAINTVER
 70
     6
  9
$DWGCODEPAGE
  3
DOS932
  9
$INSBASE
 10
0.0
 20
0.0
 30
0.0
  9
$EXTMIN
 10
0.0
 20
0.0
 30
0.0
  9
$EXTMAX
 10
420.0
 20
297.0
 30
0.0
  9
$LIMMIN
 10
0.0
 20
0.0
  9
$LIMMAX
 10
420.0
 20
297.0
  9
$ORTHOMODE
 70
     0
  9
$REGENMODE
 70
     1
  9
$FILLMODE
 70
     1
  9
$QTEXTMODE
 70
     0
  9
$MIRRTEXT
 70
     1
  9
$LTSCALE
 40
0.25
  9
$ATTMODE
 70
     1
  9
$TEXTSIZE
 40
3.0
  9
$TRACEWID
 40
0.05
  9
$TEXTSTYLE
  7
Standard
  9
$CLAYER
  8
0
  9
$CELTYPE
  6
Continuous
  9
$CECOLOR
 62
   256
  9
$CELTSCALE
 40
1.0
  9
$DISPSILH
 70
     0
  9
$DIMSCALE
 40
1.0
  9
$DIMASZ
 40
2.4
  9
$DIMEXO
 40
2.0
  9
$DIMDLI
 40
10.0
  9
$DIMRND
 40
0.0
  9
$DIMDLE
 40
0.0
  9
$DIMEXE
 40
2.0
  9
$DIMTP
 40
0.0
  9
$DIMTM
 40
0.0
  9
$DIMTXT
 40
3.0
  9
$DIMCEN
 40
0.09
  9
$DIMTSZ
 40
0.0
  9
$DIMTOL
 70
     0
  9
$DIMLIM
 70
     0
  9
$DIMTIH
 70
     0
  9
$DIMTOH
 70
     0
  9
$DIMSE1
 70
     0
  9
$DIMSE2
 70
     0
  9
$DIMTAD
 70
     3
  9
$DIMZIN
 70
     0
  9
$DIMBLK
  1

  9
$DIMASO
 70
     1
  9
$DIMSHO
 70
     1
  9
$DIMPOST
  1

  9
$DIMAPOST
  1

  9
$DIMALT
 70
     0
  9
$DIMALTD
 70
     2
  9
$DIMALTF
 40
25.4
  9
$DIMLFAC
 40
1.0
  9
$DIMTOFL
 70
     1
  9
$DIMTVP
 40
0.7
  9
$DIMTIX
 70
     0
  9
$DIMSOXD
 70
     0
  9
$DIMSAH
 70
     0
  9
$DIMBLK1
  1

  9
$DIMBLK2
  1

  9
$DIMSTYLE
  2
Standard
  9
$DIMCLRD
 70
     0
  9
$DIMCLRE
 70
     0
  9
$DIMCLRT
 70
     0
  9
$DIMTFAC
 40
0.5
  9
$DIMGAP
 40
0.5
  9
$DIMJUST
 70
     0
  9
$DIMSD1
 70
     0
  9
$DIMSD2
 70
     0
  9
$DIMTOLJ
 70
     1
  9
$DIMTZIN
 70
     0
  9
$DIMALTZ
 70
     0
  9
$DIMALTTZ
 70
     0
  9
$DIMUPT
 70
     0
  9
$DIMDEC
 70
     2
  9
$DIMTDEC
 70
     4
  9
$DIMALTU
 70
     2
  9
$DIMALTTD
 70
     2
  9
$DIMTXSTY
  7
Standard
  9
$DIMAUNIT
 70
     0
  9
$DIMADEC
 70
     0
  9
$DIMALTRND
 40
0.0
  9
$DIMAZIN
 70
     0
  9
$DIMDSEP
 70
     0
  9
$DIMATFIT
 70
     3
  9
$DIMFRAC
 70
     0
  9
$DIMLDRBLK
  1

  9
$DIMLUNIT
 70
     2
  9
$DIMLWD
 70
     0
  9
$DIMLWE
 70
     0
  9
$DIMTMOVE
 70
     0
  9
$LUNITS
 70
     2
  9
$LUPREC
 70
     4
  9
$SKETCHINC
 40
0.1
  9
$FILLETRAD
 40
0.0
  9
$AUNITS
 70
     0
  9
$AUPREC
 70
     0
  9
$MENU
  1
acad
  9
$ELEVATION
 40
0.0
  9
$PELEVATION
 40
0.0
  9
$THICKNESS
 40
0.0
  9
$LIMCHECK
 70
     0
  9
$CHAMFERA
 40
0.0
  9
$CHAMFERB
 40
0.0
  9
$CHAMFERC
 40
0.0
  9
$CHAMFERD
 40
0.0
  9
$SKPOLY
 70
     0
  9
$TDCREATE
 40
2457701.491053241
  9
$TDUCREATE
 40
0.000000000
  9
$TDUPDATE
 40
2457701.491053241
  9
$TDUUPDATE
 40
0.000000000
  9
$TDINDWG
 40
0.0000000000
  9
$TDUSRTIMER
 40
0.0000000000
  9
$USRTIMER
 70
     1
  9
$ANGBASE
 50
0.0
  9
$ANGDIR
 70
     0
  9
$PDMODE
 70
     0
  9
$PDSIZE
 40
0.0
  9
$PLINEWID
 40
0.0
  9
$SPLFRAME
 70
     0
  9
$SPLINETYPE
 70
     6
  9
$SPLINESEGS
 70
     8
  9
$HANDSEED
  5
14E
  9
$SURFTAB1
 70
     6
  9
$SURFTAB2
 70
     6
  9
$SURFTYPE
 70
     6
  9
$SURFU
 70
     6
  9
$SURFV
 70
     6
  9
$UCSBASE
  2

  9
$UCSNAME
  2

  9
$UCSORG
 10
0.0
 20
0.0
 30
0.0
  9
$UCSXDIR
 10
1.0
 20
0.0
 30
0.0
  9
$UCSYDIR
 10
0.0
 20
1.0
 30
0.0
  9
$UCSORTHOREF
  2

  9
$UCSORTHOVIEW
 70
     0
  9
$UCSORGTOP
 10
0.0
 20
0.0
 30
0.0
  9
$UCSORGBOTTOM
 10
0.0
 20
0.0
 30
0.0
  9
$UCSORGLEFT
 10
0.0
 20
0.0
 30
0.0
  9
$UCSORGRIGHT
 10
0.0
 20
0.0
 30
0.0
  9
$UCSORGFRONT
 10
0.0
 20
0.0
 30
0.0
  9
$UCSORGBACK
 10
0.0
 20
0.0
 30
0.0
  9
$PUCSBASE
  2

  9
$PUCSNAME
  2

  9
$PUCSORG
 10
0.0
 20
0.0
 30
0.0
  9
$PUCSXDIR
 10
1.0
 20
0.0
 30
0.0
  9
$PUCSYDIR
 10
0.0
 20
1.0
 30
0.0
  9
$PUCSORTHOREF
  2

  9
$PUCSORTHOVIEW
 70
     0
  9
$PUCSORGTOP
 10
0.0
 20
0.0
 30
0.0
  9
$PUCSORGBOTTOM
 10
0.0
 20
0.0
 30
0.0
  9
$PUCSORGLEFT
 10
0.0
 20
0.0
 30
0.0
  9
$PUCSORGRIGHT
 10
0.0
 20
0.0
 30
0.0
  9
$PUCSORGFRONT
 10
0.0
 20
0.0
 30
0.0
  9
$PUCSORGBACK
 10
0.0
 20
0.0
 30
0.0
  9
$USERI1
 70
     0
  9
$USERI2
 70
     0
  9
$USERI3
 70
     0
  9
$USERI4
 70
     0
  9
$USERI5
 70
     0
  9
$USERR1
 40
0.0
  9
$USERR2
 40
0.0
  9
$USERR3
 40
0.0
  9
$USERR4
 40
0.0
  9
$USERR5
 40
0.0
  9
$WORLDVIEW
 70
     1
  9
$SHADEDGE
 70
     3
  9
$SHADEDIF
 70
    70
  9
$TILEMODE
 70
     1
  9
$MAXACTVP
 70
    16
  9
$PINSBASE
 10
0.0
 20
0.0
 30
0.0
  9
$PLIMCHECK
 70
     0
  9
$PEXTMIN
 10
0.0
 20
0.0
 30
0.0
  9
$PEXTMAX
 10
420.0
 20
297.0
 30
0.0
  9
$PLIMMIN
 10
0.0
 20
0.0
  9
$PLIMMAX
 10
420.0
 20
297.0
  9
$UNITMODE
 70
     0
  9
$VISRETAIN
 70
     0
  9
$PLINEGEN
 70
     1
  9
$PSLTSCALE
 70
     0
  9
$TREEDEPTH
 70
  3020
  9
$CMLSTYLE
  2
Standard
  9
$CMLJUST
 70
     0
  9
$CMLSCALE
 40
1.0
  9
$PROXYGRAPHICS
 70
     0
  9
$MEASUREMENT
 70
     0
  9
$CELWEIGHT
370
     0
  9
$ENDCAPS
280
     0
  9
$JOINSTYLE
280
     0
  9
$LWDISPLAY
290
     0
  9
$INSUNITS
 70
     0
  9
$HYPERLINKBASE
  1

  9
$STYLESHEET
  1

  9
$XEDIT
290
     1
  9
$CEPSNTYPE
380
     0
  9
$PSTYLEMODE
290
     1
  9
$FINGERPRINTGUID
  2

  9
$VERSIONGUID
  2

  9
$EXTNAMES
290
     1
  9
$PSVPSCALE
 40
0.0
  0
ENDSEC
  0
SECTION
  2
CLASSES
  0
CLASS
  1
LWPOLYLINE
  2
AcDbPolyline
  3
AutoCAD 2000
 90
    32768
280
     0
281
     1
  0
CLASS
  1
IMAGE
  2
AcDbRasterImage
  3
ISM
 90
    32895
280
     0
281
     1
  0
CLASS
  1
OLE2FRAME
  2
AcDbOle2Frame
  3
AutoCAD 2000
 90
    32768
280
     0
281
     1
  0
CLASS
  1
HATCH
  2
AcDbHatch
  3
AutoCAD 2000
 90
    32768
280
     0
281
     1
  0
CLASS
  1
DICTIONARYVAR
  2
AcDbDictionaryVar
  3
AutoCAD 2000
 90
    32768
280
     0
281
     0
  0
CLASS
  1
RASTERVARIABLES
  2
AcDbRasterVariables
  3
ISM
 90
    32768
280
     0
281
     0
  0
CLASS
  1
IMAGEDEF
  2
AcDbRasterImageDef
  3
ISM
 90
    32768
280
     0
281
     0
  0
CLASS
  1
IMAGEDEF_REACTOR
  2
AcDbRasterImageDefReactor
  3
ISM
 90
    32769
280
     0
281
     0
  0
CLASS
  1
IDBUFFER
  2
AcDbIdBuffer
  3
AutoCAD 2000
 90
    32768
280
     0
281
     0
  0
CLASS
  1
SPATIAL_FILTER
  2
AcDbSpatialFilter
  3
AutoCAD 2000
 90
    32768
280
     0
281
     0
  0
CLASS
  1
XRECORD
  2
AcDbXrecord
  3
AutoCAD 2000
 90
    32768
280
     0
281
     0
  0
CLASS
  1
SORTENTSTABLE
  2
AcDbSortentsTable
  3
AutoCAD 2000
 90
    32768
280
     0
281
     0
  0
CLASS
  1
LAYER_INDEX
  2
AcDbLayerIndex
  3
AutoCAD 2000
 90
    32768
280
     0
281
     0
  0
CLASS
  1
SPATIAL_INDEX
  2
AcDbSpatialIndex
  3
AutoCAD 2000
 90
    32768
280
     0
281
     0
  0
CLASS
  1
OBJECT_PTR
  2
CAseDLPNTableRecord
  3
"ASE-LPNTableRecord"
 90
    32769
280
     0
281
     0
  0
CLASS
  1
LAYOUT
  2
AcDbLayout
  3
AutoCAD 2000
 90
        0
280
     0
281
     0
  0
CLASS
  1
PLOTSETTINGS
  2
AcDbPlotSettings
  3
AutoCAD 2000
 90
    32768
280
     0
281
     0
  0
CLASS
  1
ACDBDICTIONARYWDFLT
  2
AcDbDictionaryWithDefault
  3
AutoCAD 2000
 90
        0
280
     0
281
     0
  0
CLASS
  1
ACDBPLACEHOLDER
  2
AcDbPlaceHolder
  3
AutoCAD 2000
 90
        0
280
     0
281
     0
  0
CLASS
  1
VBA_PROJECT
  2
AcDbVbaProject
  3
acadvba
 90
    32768
280
     0
281
     0
  0
CLASS
  1
WIPEOUT
  2
AcDbWipeout
  3
WipeOut|AutoCAD Express Tool|expresstools@autodesk.com
 90
    32895
280
     0
281
     1
  0
CLASS
  1
WIPEOUTVARIABLES
  2
AcDbWipeoutVariables
  3
WipeOut|AutoCAD Express Tool|expresstools@autodesk.com
 90
        0
280
     0
281
     0
  0
CLASS
  1
RTEXT
  2
RText
  3
RText|AutoCAD Express Tool|expresstools@autodesk.com
 90
    32768
280
     0
281
     1
  0
CLASS
  1
ARCALIGNEDTEXT
  2
AcDbArcAlignedText
  3
ATEXT|AutoCAD Express Tool|expresstools@autodesk.com
 90
    32768
280
     0
281
     1
  0
ENDSEC
  0
SECTION
  2
TABLES
  0
TABLE
  2
VPORT
  5
7
100
AcDbSymbolTable
 70
     1
  0
VPORT
  5
15
100
AcDbSymbolTableRecord
100
AcDbViewportTableRecord
  2
*ACTIVE
 70
     0
 10
0.0
 20
0.0
 11
1.0
 21
1.0
 12
6.591288
 22
4.579184
 13
0.0
 23
0.0
 14
1.0
 24
1.0
 15
0.0
 25
0.0
 16
0.0
 26
0.0
 36
1.0
 17
0.0
 27
0.0
 37
0.0
 40
9.158369
 41
0.688564
 42
50.0
 43
0.0
 44
0.0
 50
0.0
 51
0.0
 71
     0
 72
   100
 73
     1
 74
     1
 75
     0
 76
     0
 77
     0
 78
     0
281
     0
 65
     0
110
0.0
120
0.0
130
0.0
111
1.0
121
0.0
131
0.0
112
0.0
122
1.0
132
0.0
345
0
346
0
 79
     0
146
0.0
  0
ENDTAB
  0
TABLE
  2
LTYPE
  5
4
100
AcDbSymbolTable
 70
     9
  0
LTYPE
  5
11
100
AcDbSymbolTableRecord
100
AcDbLinetypeTableRecord
  2
ByBlock
 70
    64
  3

 72
    65
 73
     0
 40
0.0
  0
LTYPE
  5
12
100
AcDbSymbolTableRecord
100
AcDbLinetypeTableRecord
  2
ByLayer
 70
    64
  3

 72
    65
 73
     0
 40
0.0
  0
LTYPE
  5
13
100
AcDbSymbolTableRecord
100
AcDbLinetypeTableRecord
  2
Continuous
 70
    64
  3
Solid line
 72
    65
 73
     0
 40
0.0
  0
LTYPE
  5
25
100
AcDbSymbolTableRecord
100
AcDbLinetypeTableRecord
  2
HIDDEN
 70
    64
  3
- - - - - - - - 
 72
    65
 73
     2
 40
12.6
 49
8.4
 74
     0
 49
-4.2
 74
     0
  0
LTYPE
  5
26
100
AcDbSymbolTableRecord
100
AcDbLinetypeTableRecord
  2
DOT
 70
    64
  3
･ ･ ･ ･ ･ ･ ･ ･ 
 72
    65
 73
     2
 40
8.0
 49
6.0
 74
     0
 49
-2.0
 74
     0
  0
LTYPE
  5
27
100
AcDbSymbolTableRecord
100
AcDbLinetypeTableRecord
  2
CENTER
 70
    64
  3
- ･ - ･ - ･ - ･ 
 72
    65
 73
     4
 40
50.5
 49
30.0
 74
     0
 49
-9.0
 74
     0
 49
2.5
 74
     0
 49
-9.0
 74
     0
  0
LTYPE
  5
28
100
AcDbSymbolTableRecord
100
AcDbLinetypeTableRecord
  2
PHANTOM
 70
    64
  3
- ･･ - ･･ - ･･ - ･･ 
 72
    65
 73
     6
 40
58.0
 49
30.0
 74
     0
 49
-9.0
 74
     0
 49
2.5
 74
     0
 49
-5.0
 74
     0
 49
2.5
 74
     0
 49
-9.0
 74
     0
  0
LTYPE
  5
29
100
AcDbSymbolTableRecord
100
AcDbLinetypeTableRecord
  2
ACAD_ISO06W100
 70
    64
  3
____ ... ____ ... ____
 72
    65
 73
     8
 40
37.5
 49
24.0
 74
     0
 49
-3.0
 74
     0
 49
0.5
 74
     0
 49
-3.0
 74
     0
 49
0.5
 74
     0
 49
-3.0
 74
     0
 49
0.5
 74
     0
 49
-3.0
 74
     0
  0
LTYPE
  5
2A
100
AcDbSymbolTableRecord
100
AcDbLinetypeTableRecord
  2
ACAD_ISO14W100
 70
    64
  3
__ . . . __ . . . __ . . . 
 72
    65
 73
     8
 40
25.5
 49
12.0
 74
     0
 49
-3.0
 74
     0
 49
0.5
 74
     0
 49
-3.0
 74
     0
 49
0.5
 74
     0
 49
-3.0
 74
     0
 49
0.5
 74
     0
 49
-3.0
 74
     0
  0
ENDTAB
  0
TABLE
  2
LAYER
  5
2
100
AcDbSymbolTable
 70
    31
  0
LAYER
  5
14
100
AcDbSymbolTableRecord
100
AcDbLayerTableRecord
  2
0
 70
     0
 62
     7
  6
Continuous
290
     1
370
    -3
390
1D
  0
LAYER
  5
2B
100
AcDbSymbolTableRecord
100
AcDbLayerTableRecord
  2
1
 70
     0
 62
     7
  6
Continuous
290
     1
370
    -3
390
1D
  0
LAYER
  5
2C
100
AcDbSymbolTableRecord
100
AcDbLayerTableRecord
  2
2
 70
     0
 62
   214
  6
Continuous
290
     1
370
    -3
390
1D
  0
LAYER
  5
2D
100
AcDbSymbolTableRecord
100
AcDbLayerTableRecord
  2
3
 70
     0
 62
   216
  6
Continuous
290
     1
370
    -3
390
1D
  0
LAYER
  5
2E
100
AcDbSymbolTableRecord
100
AcDbLayerTableRecord
  2
4
 70
     0
 62
    54
  6
Continuous
290
     1
370
    -3
390
1D
  0
LAYER
  5
2F
100
AcDbSymbolTableRecord
100
AcDbLayerTableRecord
  2
5
 70
     0
 62
    94
  6
Continuous
290
     1
370
    -3
390
1D
  0
LAYER
  5
30
100
AcDbSymbolTableRecord
100
AcDbLayerTableRecord
  2
6
 70
     0
 62
    14
  6
Continuous
290
     1
370
    -3
390
1D
  0
LAYER
  5
31
100
AcDbSymbolTableRecord
100
AcDbLayerTableRecord
  2
7
 70
     0
 62
     4
  6
Continuous
290
     1
370
    -3
390
1D
  0
LAYER
  5
32
100
AcDbSymbolTableRecord
100
AcDbLayerTableRecord
  2
8
 70
     0
 62
     6
  6
Continuous
290
     1
370
    -3
390
1D
  0
LAYER
  5
33
100
AcDbSymbolTableRecord
100
AcDbLayerTableRecord
  2
9
 70
     0
 62
     2
  6
Continuous
290
     1
370
    -3
390
1D
  0
LAYER
  5
34
100
AcDbSymbolTableRecord
100
AcDbLayerTableRecord
  2
10
 70
     0
 62
     3
  6
Continuous
290
     1
370
    -3
390
1D
  0
LAYER
  5
35
100
AcDbSymbolTableRecord
100
AcDbLayerTableRecord
  2
11
 70
     0
 62
   251
  6
Continuous
290
     1
370
    -3
390
1D
  0
LAYER
  5
36
100
AcDbSymbolTableRecord
100
AcDbLayerTableRecord
  2
12
 70
     0
 62
   136
  6
Continuous
290
     1
370
    -3
390
1D
  0
LAYER
  5
37
100
AcDbSymbolTableRecord
100
AcDbLayerTableRecord
  2
13
 70
     0
 62
     7
  6
Continuous
290
     1
370
    -3
390
1D
  0
LAYER
  5
38
100
AcDbSymbolTableRecord
100
AcDbLayerTableRecord
  2
14
 70
     0
 62
    56
  6
Continuous
290
     1
370
    -3
390
1D
  0
LAYER
  5
39
100
AcDbSymbolTableRecord
100
AcDbLayerTableRecord
  2
15
 70
     0
 62
    96
  6
Continuous
290
     1
370
    -3
390
1D
  0
LAYER
  5
3A
100
AcDbSymbolTableRecord
100
AcDbLayerTableRecord
  2
16
 70
     0
 62
    16
  6
Continuous
290
     1
370
    -3
390
1D
  0
LAYER
  5
3B
100
AcDbSymbolTableRecord
100
AcDbLayerTableRecord
  2
17
 70
     0
 62
   132
  6
Continuous
290
     1
370
    -3
390
1D
  0
LAYER
  5
3C
100
AcDbSymbolTableRecord
100
AcDbLayerTableRecord
  2
18
 70
     0
 62
   212
  6
Continuous
290
     1
370
    -3
390
1D
  0
LAYER
  5
3D
100
AcDbSymbolTableRecord
100
AcDbLayerTableRecord
  2
19
 70
     0
 62
    52
  6
Continuous
290
     1
370
    -3
390
1D
  0
LAYER
  5
3E
100
AcDbSymbolTableRecord
100
AcDbLayerTableRecord
  2
20
 70
     0
 62
   250
  6
Continuous
290
     1
370
    -3
390
1D
  0
LAYER
  5
3F
100
AcDbSymbolTableRecord
100
AcDbLayerTableRecord
  2
22
 70
     0
 62
     7
  6
Continuous
290
     1
370
    -3
390
1D
  0
LAYER
  5
40
100
AcDbSymbolTableRecord
100
AcDbLayerTableRecord
  2
24
 70
     0
 62
     7
  6
Continuous
290
     1
370
    -3
390
1D
  0
LAYER
  5
41
100
AcDbSymbolTableRecord
100
AcDbLayerTableRecord
  2
25
 70
     0
 62
     7
  6
Continuous
290
     1
370
    -3
390
1D
  0
LAYER
  5
42
100
AcDbSymbolTableRecord
100
AcDbLayerTableRecord
  2
128
 70
     0
 62
     7
  6
Continuous
290
     1
370
    -3
390
1D
  0
LAYER
  5
43
100
AcDbSymbolTableRecord
100
AcDbLayerTableRecord
  2
129
 70
     0
 62
     7
  6
Continuous
290
     1
370
    -3
390
1D
  0
LAYER
  5
44
100
AcDbSymbolTableRecord
100
AcDbLayerTableRecord
  2
130
 70
     0
 62
     7
  6
Continuous
290
     1
370
    -3
390
1D
  0
LAYER
  5
45
100
AcDbSymbolTableRecord
100
AcDbLayerTableRecord
  2
131
 70
     0
 62
     7
  6
Continuous
290
     1
370
    -3
390
1D
  0
LAYER
  5
46
100
AcDbSymbolTableRecord
100
AcDbLayerTableRecord
  2
258
 70
     0
 62
     7
  6
Continuous
290
     1
370
    -3
390
1D
  0
LAYER
  5
47
100
AcDbSymbolTableRecord
100
AcDbLayerTableRecord
  2
260
 70
     0
 62
     7
  6
Continuous
290
     1
370
    -3
390
1D
  0
LAYER
  5
48
100
AcDbSymbolTableRecord
100
AcDbLayerTableRecord
  2
261
 70
     0
 62
     5
  6
Continuous
290
     1
370
    -3
390
1D
  0
ENDTAB
  0
TABLE
  2
STYLE
  5
3
100
AcDbSymbolTable
 70
     2
  0
STYLE
  5
17
100
AcDbSymbolTableRecord
100
AcDbTextStyleTableRecord
  2
Standard
 70
     0
 40
0.0
 41
1.0
 50
0.0
 71
     0
 42
0.0
  3
txt
  4
bigfont
  0
STYLE
  5
24
100
AcDbSymbolTableRecord
100
AcDbTextStyleTableRecord
  2
T_STANDARD
 70
    68
 40
10.0
 41
1.0
 50
0.0
 71
     0
 42
10.0
  3
txt
  4
bigfont
  0
ENDTAB
  0
TABLE
  2
VIEW
  5
5
100
AcDbSymbolTable
 70
     0
  0
ENDTAB
  0
TABLE
  2
UCS
  5
6
100
AcDbSymbolTable
 70
     0
  0
ENDTAB
  0
TABLE
  2
APPID
  5
8
100
AcDbSymbolTable
 70
     1
  0
APPID
  5
16
100
AcDbSymbolTableRecord
100
AcDbRegAppTableRecord
  2
ACAD
 70
     0
  0
ENDTAB
  0
TABLE
  2
DIMSTYLE
  5
9
100
AcDbSymbolTable
 70
     1
100
AcDbDimStyleTable
 71
     0
  0
DIMSTYLE
105
18
100
AcDbSymbolTableRecord
100
AcDbDimStyleTableRecord
  2
Standard
 70
     0
  3

  4

 40
1.0
 41
0.18
 42
0.0625
 43
0.38
 44
0.18
 45
0.0
 46
0.0
 47
0.0
 48
0.0
 71
     0
 72
     0
 73
     1
 74
     1
 75
     0
 76
     0
 77
     0
 78
     0
 79
     0
140
0.18
141
0.09
142
0.0
143
25.4
144
1.0
145
0.0
146
1.0
147
0.09
148
0.0
170
     0
171
     2
172
     0
173
     0
174
     0
175
     0
176
     0
177
     0
178
     0
179
     0
271
     4
272
     4
273
     2
274
     2
275
     0
276
     0
277
     2
278
    46
279
     0
280
     0
281
     0
282
     0
283
     1
284
     0
285
     0
286
     0
288
     0
340
17
341
0
342
0
343
0
344
0
371
    -2
372
    -2
  0
ENDTAB
  0
TABLE
  2
BLOCK_RECORD
  5
1
100
AcDbSymbolTable
 70
     6
  0
BLOCK_RECORD
  5
A
100
AcDbSymbolTableRecord
100
AcDbBlockTableRecord
  2
*MODEL_SPACE
340
20
  0
BLOCK_RECORD
  5
B
100
AcDbSymbolTableRecord
100
AcDbBlockTableRecord
  2
*PAPER_SPACE
340
21
  0
BLOCK_RECORD
  5
49
100
AcDbSymbolTableRecord
100
AcDbBlockTableRecord
  2
*G0
340
0
102
{BLKREFS
331
4C
102
}
  0
BLOCK_RECORD
  5
75
100
AcDbSymbolTableRecord
100
AcDbBlockTableRecord
  2
*G1
340
0
102
{BLKREFS
331
79
102
}
  0
BLOCK_RECORD
  5
10A
100
AcDbSymbolTableRecord
100
AcDbBlockTableRecord
  2
*D2
340
0
  0
BLOCK_RECORD
  5
116
100
AcDbSymbolTableRecord
100
AcDbBlockTableRecord
  2
*D3
340
0
  0
BLOCK_RECORD
  5
122
100
AcDbSymbolTableRecord
100
AcDbBlockTableRecord
  2
*D4
340
0
  0
BLOCK_RECORD
  5
12E
100
AcDbSymbolTableRecord
100
AcDbBlockTableRecord
  2
*D5
340
0
  0
ENDTAB
  0
ENDSEC
  0
SECTION
  2
BLOCKS
  0
BLOCK
  5
D
100
AcDbEntity
  8
0
100
AcDbBlockBegin
  2
*MODEL_SPACE
 70
     0
 10
0.0
 20
0.0
 30
0.0
  3
*MODEL_SPACE
  1

  0
ENDBLK
  5
E
100
AcDbEntity
  8
0
100
AcDbBlockEnd
  0
BLOCK
  5
F
100
AcDbEntity
 67
     1
  8
0
100
AcDbBlockBegin
  2
*PAPER_SPACE
 70
     0
 10
0.0
 20
0.0
 30
0.0
  3
*PAPER_SPACE
  1

  0
ENDBLK
  5
10
100
AcDbEntity
 67
     1
  8
0
100
AcDbBlockEnd
  0
BLOCK
  5
4A
100
AcDbEntity
  8
0
370
     9
  6
Continuous
 62
     7
100
AcDbBlockBegin
  2
*G0
 70
     0
 10
0.0
 20
0.0
 30
0.0
  3
*G0
  1

  0
ENDBLK
  5
4B
100
AcDbEntity
  8
0
100
AcDbBlockEnd
  0
BLOCK
  5
76
100
AcDbEntity
  8
0
370
     9
  6
Continuous
 62
     7
100
AcDbBlockBegin
  2
*G1
 70
     0
 10
0.0
 20
0.0
 30
0.0
  3
*G1
  1

  0
LINE
  5
77
100
AcDbEntity
  8
15
370
     9
  6
Continuous
 62
    96
100
AcDbLine
 10
327.946733
 20
26.293009
 30
0.0
 11
328.213309
 21
26.293009
 31
0.0
  0
ENDBLK
  5
78
100
AcDbEntity
  8
0
100
AcDbBlockEnd
  0
BLOCK
  5
10B
100
AcDbEntity
  8
1
370
     9
  6
Continuous
 62
     7
100
AcDbBlockBegin
  2
*D2
 70
     0
 10
0.0
 20
0.0
 30
0.0
  3
*D2
  1

  0
LINE
  5
10C
100
AcDbEntity
  8
1
370
     9
  6
Continuous
 62
     7
100
AcDbLine
 10
47.167581
 20
157.689043
 30
0.0
 11
197.167581
 21
157.689043
 31
0.0
  0
LINE
  5
10D
100
AcDbEntity
  8
1
370
     9
  6
Continuous
 62
     7
100
AcDbLine
 10
47.167581
 20
159.689043
 30
0.0
 11
47.167581
 21
148.722455
 31
0.0
  0
LINE
  5
10E
100
AcDbEntity
  8
1
370
     9
  6
Continuous
 62
     7
100
AcDbLine
 10
197.167581
 20
159.689043
 30
0.0
 11
197.167581
 21
148.722455
 31
0.0
  0
LINE
  5
10F
100
AcDbEntity
  8
1
370
     9
  6
Continuous
 62
     7
100
AcDbLine
 10
47.167581
 20
157.689043
 30
0.0
 11
49.485803
 21
158.310209
 31
0.0
  0
LINE
  5
110
100
AcDbEntity
  8
1
370
     9
  6
Continuous
 62
     7
100
AcDbLine
 10
47.167581
 20
157.689043
 30
0.0
 11
49.485803
 21
157.067877
 31
0.0
  0
LINE
  5
111
100
AcDbEntity
  8
1
370
     9
  6
Continuous
 62
     7
100
AcDbLine
 10
197.167581
 20
157.689043
 30
0.0
 11
194.849359
 21
157.067877
 31
0.0
  0
LINE
  5
112
100
AcDbEntity
  8
1
370
     9
  6
Continuous
 62
     7
100
AcDbLine
 10
197.167581
 20
157.689043
 30
0.0
 11
194.849359
 21
158.310209
 31
0.0
  0
TEXT
  5
113
100
AcDbEntity
  8
1
370
     9
  6
Continuous
 62
     7
100
AcDbText
 10
110.073578
 20
158.261685
 30
0.0
 40
3.0
  1
150%%p1.5
 41
0.666667
 11
110.073578
 21
158.261685
 31
0.0
100
AcDbText
 73
     1
  0
ENDBLK
  5
114
100
AcDbEntity
  8
1
370
     9
  6
Continuous
 62
     7
100
AcDbBlockEnd
  0
BLOCK
  5
117
100
AcDbEntity
  8
1
370
     9
  6
Continuous
 62
     7
100
AcDbBlockBegin
  2
*D3
 70
     0
 10
0.0
 20
0.0
 30
0.0
  3
*D3
  1

  0
LINE
  5
118
100
AcDbEntity
  8
1
370
     9
  6
Continuous
 62
     7
100
AcDbLine
 10
197.167581
 20
157.779902
 30
0.0
 11
231.638866
 21
157.779902
 31
0.0
  0
LINE
  5
119
100
AcDbEntity
  8
1
370
     9
  6
Continuous
 62
     7
100
AcDbLine
 10
197.167581
 20
159.779902
 30
0.0
 11
197.167581
 21
148.722455
 31
0.0
  0
LINE
  5
11A
100
AcDbEntity
  8
1
370
     9
  6
Continuous
 62
     7
100
AcDbLine
 10
231.638866
 20
159.779902
 30
0.0
 11
231.638866
 21
148.722455
 31
0.0
  0
LINE
  5
11B
100
AcDbEntity
  8
1
370
     9
  6
Continuous
 62
     7
100
AcDbLine
 10
197.167581
 20
157.779902
 30
0.0
 11
199.485803
 21
158.401068
 31
0.0
  0
LINE
  5
11C
100
AcDbEntity
  8
1
370
     9
  6
Continuous
 62
     7
100
AcDbLine
 10
197.167581
 20
157.779902
 30
0.0
 11
199.485803
 21
157.158736
 31
0.0
  0
LINE
  5
11D
100
AcDbEntity
  8
1
370
     9
  6
Continuous
 62
     7
100
AcDbLine
 10
231.638866
 20
157.779902
 30
0.0
 11
229.320644
 21
157.158736
 31
0.0
  0
LINE
  5
11E
100
AcDbEntity
  8
1
370
     9
  6
Continuous
 62
     7
100
AcDbLine
 10
231.638866
 20
157.779902
 30
0.0
 11
229.320644
 21
158.401068
 31
0.0
  0
TEXT
  5
11F
100
AcDbEntity
  8
1
370
     9
  6
Continuous
 62
     7
100
AcDbText
 10
208.653223
 20
157.779902
 30
0.0
 40
3.0
  1
150%%p10
 41
0.638889
 11
208.653223
 21
157.779902
 31
0.0
100
AcDbText
 73
     1
  0
ENDBLK
  5
120
100
AcDbEntity
  8
1
370
     9
  6
Continuous
 62
     7
100
AcDbBlockEnd
  0
BLOCK
  5
123
100
AcDbEntity
  8
1
370
     9
  6
Continuous
 62
     7
100
AcDbBlockBegin
  2
*D4
 70
     0
 10
0.0
 20
0.0
 30
0.0
  3
*D4
  1

  0
LINE
  5
124
100
AcDbEntity
  8
1
370
     9
  6
Continuous
 62
     7
100
AcDbLine
 10
37.74892
 20
146.722455
 30
0.0
 11
37.74892
 21
94.722455
 31
0.0
  0
LINE
  5
125
100
AcDbEntity
  8
1
370
     9
  6
Continuous
 62
     7
100
AcDbLine
 10
35.74892
 20
146.722455
 30
0.0
 11
45.167581
 21
146.722455
 31
0.0
  0
LINE
  5
126
100
AcDbEntity
  8
1
370
     9
  6
Continuous
 62
     7
100
AcDbLine
 10
35.74892
 20
94.722455
 30
0.0
 11
45.167581
 21
94.722455
 31
0.0
  0
LINE
  5
127
100
AcDbEntity
  8
1
370
     9
  6
Continuous
 62
     7
100
AcDbLine
 10
37.74892
 20
146.722455
 30
0.0
 11
38.370086
 21
144.404233
 31
0.0
  0
LINE
  5
128
100
AcDbEntity
  8
1
370
     9
  6
Continuous
 62
     7
100
AcDbLine
 10
37.74892
 20
146.722455
 30
0.0
 11
37.127754
 21
144.404233
 31
0.0
  0
LINE
  5
129
100
AcDbEntity
  8
1
370
     9
  6
Continuous
 62
     7
100
AcDbLine
 10
37.74892
 20
94.722455
 30
0.0
 11
37.127754
 21
97.040677
 31
0.0
  0
LINE
  5
12A
100
AcDbEntity
  8
1
370
     9
  6
Continuous
 62
     7
100
AcDbLine
 10
37.74892
 20
94.722455
 30
0.0
 11
38.370086
 21
97.040677
 31
0.0
  0
TEXT
  5
12B
100
AcDbEntity
  8
1
370
     9
  6
Continuous
 62
     7
100
AcDbText
 10
37.24892
 20
116.572455
 30
0.0
 40
3.0
  1
52Max
 50
90.0
 41
0.553333
 11
37.24892
 21
116.572455
 31
0.0
100
AcDbText
 73
     1
  0
ENDBLK
  5
12C
100
AcDbEntity
  8
1
370
     9
  6
Continuous
 62
     7
100
AcDbBlockEnd
  0
BLOCK
  5
12F
100
AcDbEntity
  8
1
370
     9
  6
Continuous
 62
     7
100
AcDbBlockBegin
  2
*D5
 70
     0
 10
0.0
 20
0.0
 30
0.0
  3
*D5
  1

  0
LINE
  5
130
100
AcDbEntity
  8
1
370
     9
  6
Continuous
 62
     7
100
AcDbLine
 10
38.24892
 20
220.184166
 30
0.0
 11
38.24892
 21
193.186866
 31
0.0
  0
LINE
  5
131
100
AcDbEntity
  8
1
370
     9
  6
Continuous
 62
     7
100
AcDbLine
 10
36.24892
 20
220.184166
 30
0.0
 11
51.73173
 21
220.184166
 31
0.0
  0
LINE
  5
132
100
AcDbEntity
  8
1
370
     9
  6
Continuous
 62
     7
100
AcDbLine
 10
36.24892
 20
193.186866
 30
0.0
 11
59.58961
 21
193.186866
 31
0.0
  0
LINE
  5
133
100
AcDbEntity
  8
1
370
     9
  6
Continuous
 62
     7
100
AcDbLine
 10
38.24892
 20
220.184166
 30
0.0
 11
38.870086
 21
217.865944
 31
0.0
  0
LINE
  5
134
100
AcDbEntity
  8
1
370
     9
  6
Continuous
 62
     7
100
AcDbLine
 10
38.24892
 20
220.184166
 30
0.0
 11
37.627754
 21
217.865944
 31
0.0
  0
LINE
  5
135
100
AcDbEntity
  8
1
370
     9
  6
Continuous
 62
     7
100
AcDbLine
 10
38.24892
 20
193.186866
 30
0.0
 11
37.627754
 21
195.505088
 31
0.0
  0
LINE
  5
136
100
AcDbEntity
  8
1
370
     9
  6
Continuous
 62
     7
100
AcDbLine
 10
38.24892
 20
193.186866
 30
0.0
 11
38.870086
 21
195.505088
 31
0.0
  0
TEXT
  5
137
100
AcDbEntity
  8
1
370
     9
  6
Continuous
 62
     7
100
AcDbText
 10
36.512021
 20
202.635516
 30
0.0
 40
3.0
  1
27%%p1
 50
90.0
 41
0.675
 11
36.512021
 21
202.635516
 31
0.0
100
AcDbText
 73
     1
  0
ENDBLK
  5
138
100
AcDbEntity
  8
1
370
     9
  6
Continuous
 62
     7
100
AcDbBlockEnd
  0
ENDSEC
  0
SECTION
  2
ENTITIES
  0
INSERT
  5
4C
100
AcDbEntity
  8
0
370
     9
  6
Continuous
 62
     7
100
AcDbBlockReference
  2
*G0
 10
0.0
 20
0.0
 30
0.0
  0
LINE
  5
4D
100
AcDbEntity
  8
15
370
    50
  6
Continuous
 62
    96
100
AcDbLine
 10
18.694019
 20
272.550511
 30
0.0
 11
18.694019
 21
15.550511
 31
0.0
  0
LINE
  5
4E
100
AcDbEntity
  8
15
370
    50
  6
Continuous
 62
    96
100
AcDbLine
 10
18.694019
 20
15.550511
 30
0.0
 11
403.694019
 21
15.550511
 31
0.0
  0
LINE
  5
4F
100
AcDbEntity
  8
15
370
    50
  6
Continuous
 62
    96
100
AcDbLine
 10
18.694019
 20
272.550511
 30
0.0
 11
403.694019
 21
272.550511
 31
0.0
  0
LINE
  5
50
100
AcDbEntity
  8
15
370
    50
  6
Continuous
 62
    96
100
AcDbLine
 10
403.694019
 20
272.550511
 30
0.0
 11
403.694019
 21
15.550511
 31
0.0
  0
LINE
  5
51
100
AcDbEntity
  8
15
370
     9
  6
Continuous
 62
    96
100
AcDbLine
 10
368.0305
 20
21.250607
 30
0.0
 11
355.567837
 21
21.250607
 31
0.0
  0
TEXT
  5
52
100
AcDbEntity
  8
15
370
     9
  6
Continuous
 62
    96
100
AcDbText
 10
337.804594
 20
20.240269
 30
0.0
 40
1.8
  1
出入管理システム
 41
1.018519
 11
337.804594
 21
20.240269
 31
0.0
100
AcDbText
 73
     1
  0
TEXT
  5
53
100
AcDbEntity
  8
15
370
     9
  6
Continuous
 62
    96
100
AcDbText
 10
337.875152
 20
16.35959
 30
0.0
 40
3.6
  1
株式会社
 41
1.753472
 11
337.875152
 21
16.35959
 31
0.0
100
AcDbText
 73
     1
  0
LINE
  5
54
100
AcDbEntity
  8
15
370
    30
  6
Continuous
 62
    96
100
AcDbLine
 10
317.984153
 20
16.429072
 30
0.0
 11
321.151005
 21
16.429072
 31
0.0
  0
LINE
  5
55
100
AcDbEntity
  8
15
370
    30
  6
Continuous
 62
    96
100
AcDbLine
 10
336.619446
 20
20.277665
 30
0.0
 11
336.619446
 21
21.493008
 31
0.0
  0
LINE
  5
56
100
AcDbEntity
  8
15
370
    30
  6
Continuous
 62
    96
100
AcDbLine
 10
335.302828
 20
20.277665
 30
0.0
 11
336.619446
 21
20.277665
 31
0.0
  0
LINE
  5
57
100
AcDbEntity
  8
15
370
    30
  6
Continuous
 62
    96
100
AcDbLine
 10
335.302828
 20
16.429072
 30
0.0
 11
335.302828
 21
20.277665
 31
0.0
  0
LINE
  5
58
100
AcDbEntity
  8
15
370
    30
  6
Continuous
 62
    96
100
AcDbLine
 10
333.884924
 20
16.429072
 30
0.0
 11
335.302828
 21
16.429072
 31
0.0
  0
LINE
  5
59
100
AcDbEntity
  8
15
370
    30
  6
Continuous
 62
    96
100
AcDbLine
 10
333.032875
 20
16.429072
 30
0.0
 11
331.251677
 21
16.429072
 31
0.0
  0
LINE
  5
5A
100
AcDbEntity
  8
15
370
    30
  6
Continuous
 62
    96
100
AcDbLine
 10
323.858327
 20
16.429072
 30
0.0
 11
328.213309
 21
16.429072
 31
0.0
  0
LINE
  5
5B
100
AcDbEntity
  8
15
370
    30
  6
Continuous
 62
    96
100
AcDbLine
 10
323.858327
 20
18.555925
 30
0.0
 11
323.858327
 21
16.429072
 31
0.0
  0
LINE
  5
5C
100
AcDbEntity
  8
15
370
    30
  6
Continuous
 62
    96
100
AcDbLine
 10
321.151005
 20
16.429072
 30
0.0
 11
326.086459
 21
21.315659
 31
0.0
  0
LINE
  5
5D
100
AcDbEntity
  8
15
370
    30
  6
Continuous
 62
    96
100
AcDbLine
 10
326.086459
 20
21.315659
 30
0.0
 11
326.086459
 21
18.555925
 31
0.0
  0
LINE
  5
5E
100
AcDbEntity
  8
15
370
    30
  6
Continuous
 62
    96
100
AcDbLine
 10
326.086459
 20
18.555925
 30
0.0
 11
323.858327
 21
18.555925
 31
0.0
  0
LINE
  5
5F
100
AcDbEntity
  8
15
370
    30
  6
Continuous
 62
    96
100
AcDbLine
 10
328.213309
 20
19.264876
 30
0.0
 11
331.251677
 21
16.429072
 31
0.0
  0
ARC
  5
60
100
AcDbEntity
  8
15
370
    30
  6
Continuous
 62
    96
100
AcDbCircle
 10
330.644003
 20
19.77127
 30
0.0
 40
0.506395
100
AcDbArc
 50
-90.0
 51
90.0
  0
LINE
  5
61
100
AcDbEntity
  8
15
370
    30
  6
Continuous
 62
    96
100
AcDbLine
 10
328.213309
 20
19.264876
 30
0.0
 11
330.644003
 21
19.264876
 31
0.0
  0
LINE
  5
62
100
AcDbEntity
  8
15
370
    30
  6
Continuous
 62
    96
100
AcDbLine
 10
328.618427
 20
20.277665
 30
0.0
 11
330.644003
 21
20.277665
 31
0.0
  0
LINE
  5
63
100
AcDbEntity
  8
15
370
    30
  6
Continuous
 62
    96
100
AcDbLine
 10
328.618427
 20
21.493008
 30
0.0
 11
328.618427
 21
20.277665
 31
0.0
  0
LINE
  5
64
100
AcDbEntity
  8
15
370
    30
  6
Continuous
 62
    96
100
AcDbLine
 10
328.618427
 20
21.493008
 30
0.0
 11
331.027797
 21
21.493008
 31
0.0
  0
ARC
  5
65
100
AcDbEntity
  8
15
370
    30
  6
Continuous
 62
    96
100
AcDbCircle
 10
330.835898
 20
19.77127
 30
0.0
 40
1.732399
100
AcDbArc
 50
-76.055153
 51
83.640296
  0
LINE
  5
66
100
AcDbEntity
  8
15
370
    30
  6
Continuous
 62
    96
100
AcDbLine
 10
331.251677
 20
18.091525
 30
0.0
 11
333.032875
 21
16.429072
 31
0.0
  0
LINE
  5
67
100
AcDbEntity
  8
15
370
    30
  6
Continuous
 62
    96
100
AcDbLine
 10
336.619446
 20
21.493008
 30
0.0
 11
332.568297
 21
21.493008
 31
0.0
  0
LINE
  5
68
100
AcDbEntity
  8
15
370
    30
  6
Continuous
 62
    96
100
AcDbLine
 10
332.568297
 20
21.493008
 30
0.0
 11
332.568297
 21
20.277665
 31
0.0
  0
LINE
  5
69
100
AcDbEntity
  8
15
370
    30
  6
Continuous
 62
    96
100
AcDbLine
 10
332.568297
 20
20.277665
 30
0.0
 11
333.884924
 21
20.277665
 31
0.0
  0
LINE
  5
6A
100
AcDbEntity
  8
15
370
    30
  6
Continuous
 62
    96
100
AcDbLine
 10
333.884924
 20
20.277665
 30
0.0
 11
333.884924
 21
16.429072
 31
0.0
  0
TEXT
  5
6B
100
AcDbEntity
  8
15
370
    30
  6
Continuous
 62
    96
100
AcDbText
 10
314.125045
 20
57.666093
 30
0.0
 40
2.5
  1
型　式
 41
0.855556
 11
314.125045
 21
57.666093
 31
0.0
100
AcDbText
 73
     1
  0
TEXT
  5
6C
100
AcDbEntity
  8
15
370
    30
  6
Continuous
 62
    96
100
AcDbText
 10
314.125045
 20
48.505136
 30
0.0
 40
2.5
  1
製品名
 41
0.855556
 11
314.125045
 21
48.505136
 31
0.0
100
AcDbText
 73
     1
  0
LINE
  5
6D
100
AcDbEntity
  8
15
370
    30
  6
Continuous
 62
    96
100
AcDbLine
 10
313.694019
 20
15.550511
 30
0.0
 11
313.694019
 21
60.550518
 31
0.0
  0
LINE
  5
6E
100
AcDbEntity
  8
15
370
     9
  6
Continuous
 62
    96
100
AcDbLine
 10
313.694019
 20
51.550518
 30
0.0
 11
403.694019
 21
51.550518
 31
0.0
  0
LINE
  5
6F
100
AcDbEntity
  8
15
370
     9
  6
Continuous
 62
    96
100
AcDbLine
 10
313.694019
 20
51.550511
 30
0.0
 11
403.694019
 21
51.550518
 31
0.0
  0
LINE
  5
70
100
AcDbEntity
  8
15
370
     9
  6
Continuous
 62
    96
100
AcDbLine
 10
403.694019
 20
27.550518
 30
0.0
 11
313.694019
 21
27.550511
 31
0.0
  0
LINE
  5
71
100
AcDbEntity
  8
15
370
     9
  6
Continuous
 62
    96
100
AcDbLine
 10
313.694019
 20
42.550511
 30
0.0
 11
403.392576
 21
42.550511
 31
0.0
  0
LINE
  5
72
100
AcDbEntity
  8
15
370
     9
  6
Continuous
 62
    96
100
AcDbLine
 10
313.694019
 20
60.550518
 30
0.0
 11
403.694019
 21
60.550518
 31
0.0
  0
LINE
  5
73
100
AcDbEntity
  8
15
370
     9
  6
Continuous
 62
    96
100
AcDbLine
 10
328.213309
 20
16.429072
 30
0.0
 11
328.213309
 21
26.556947
 31
0.0
  0
LINE
  5
74
100
AcDbEntity
  8
15
370
     9
  6
Continuous
 62
    96
100
AcDbLine
 10
328.213309
 20
26.556947
 30
0.0
 11
317.984153
 21
16.429072
 31
0.0
  0
INSERT
  5
79
100
AcDbEntity
  8
0
370
     9
  6
Continuous
 62
     7
100
AcDbBlockReference
  2
*G1
 10
0.0
 20
0.0
 30
0.0
  0
TEXT
  5
7A
100
AcDbEntity
  8
15
370
     9
  6
Continuous
 62
    96
100
AcDbText
 10
370.202838
 20
15.937389
 30
0.0
 40
10.0
  1
アート
 41
0.833333
 11
370.202838
 21
15.937389
 31
0.0
100
AcDbText
 73
     1
  0
LINE
  5
7B
100
AcDbEntity
  8
15
370
     9
  6
Continuous
 62
    96
100
AcDbLine
 10
338.694019
 20
272.550511
 30
0.0
 11
338.694019
 21
267.050511
 31
0.0
  0
LINE
  5
7C
100
AcDbEntity
  8
15
370
    30
  6
Continuous
 62
    96
100
AcDbLine
 10
313.694019
 20
267.050511
 30
0.0
 11
403.694019
 21
267.050511
 31
0.0
  0
LINE
  5
7D
100
AcDbEntity
  8
15
370
    30
  6
Continuous
 62
    96
100
AcDbLine
 10
313.694019
 20
261.550511
 30
0.0
 11
403.694019
 21
261.550511
 31
0.0
  0
TEXT
  5
7E
100
AcDbEntity
  8
15
370
     9
  6
PHANTOM
 62
    96
100
AcDbText
 10
318.694019
 20
268.300511
 30
0.0
 40
3.0
  1
商品コード
 41
0.833333
 11
318.694019
 21
268.300511
 31
0.0
100
AcDbText
 73
     1
  0
TEXT
  5
7F
100
AcDbEntity
  8
15
370
     9
  6
PHANTOM
 62
    96
100
AcDbText
 10
348.194019
 20
262.800511
 30
0.0
 40
3.0
  1
定　　　　　格
 41
0.833333
 11
348.194019
 21
262.800511
 31
0.0
100
AcDbText
 73
     1
  0
LINE
  5
80
100
AcDbEntity
  8
15
370
    30
  6
Continuous
 62
    96
100
AcDbLine
 10
313.694019
 20
60.550518
 30
0.0
 11
403.694019
 21
60.550518
 31
0.0
  0
LINE
  5
81
100
AcDbEntity
  8
15
370
    30
  6
Continuous
 62
    96
100
AcDbLine
 10
313.694019
 20
66.050518
 30
0.0
 11
403.694019
 21
66.050518
 31
0.0
  0
LINE
  5
82
100
AcDbEntity
  8
15
370
     9
  6
Continuous
 62
    96
100
AcDbLine
 10
338.694019
 20
66.050518
 30
0.0
 11
338.694019
 21
60.550518
 31
0.0
  0
TEXT
  5
83
100
AcDbEntity
  8
15
370
     9
  6
Continuous
 62
    96
100
AcDbText
 10
319.894019
 20
61.800518
 30
0.0
 40
3.0
  1
図面履歴
 41
0.875
 11
319.894019
 21
61.800518
 31
0.0
100
AcDbText
 73
     1
  0
LINE
  5
84
100
AcDbEntity
  8
15
370
    30
  6
Continuous
 62
    96
100
AcDbLine
 10
313.694019
 20
272.550511
 30
0.0
 11
313.694019
 21
64.050518
 31
0.0
  0
LINE
  5
85
100
AcDbEntity
  8
15
370
    30
  6
Continuous
 62
    96
100
AcDbLine
 10
313.694019
 20
60.550518
 30
0.0
 11
313.694019
 21
64.050518
 31
0.0
  0
LINE
  5
86
100
AcDbEntity
  8
15
370
    30
  6
Continuous
 62
    96
100
AcDbLine
 10
403.694019
 20
64.043721
 30
0.0
 11
403.694019
 21
111.475157
 31
0.0
  0
LINE
  5
87
100
AcDbEntity
  8
15
370
    30
  6
Continuous
 62
    96
100
AcDbLine
 10
403.694019
 20
64.050518
 30
0.0
 11
403.694019
 21
111.72898
 31
0.0
  0
TEXT
  5
88
100
AcDbEntity
  8
15
370
     9
  6
Continuous
 62
    96
100
AcDbText
 10
314.413468
 20
39.635498
 30
0.0
 40
2.500737
  1
縮尺（Ａ３）
 41
0.861111
 11
314.413468
 21
39.635498
 31
0.0
100
AcDbText
 73
     1
  0
LINE
  5
89
100
AcDbEntity
  8
15
370
     9
  6
Continuous
 62
    96
100
AcDbLine
 10
328.6719
 20
33.552282
 30
0.0
 11
328.6719
 21
27.550512
 31
0.0
  0
TEXT
  5
8A
100
AcDbEntity
  8
15
370
     9
  6
Continuous
 62
    96
100
AcDbText
 10
315.805713
 20
29.060355
 30
0.0
 40
2.500737
  1
図面番号
 41
0.858333
 11
315.805713
 21
29.060355
 31
0.0
100
AcDbText
 73
     1
  0
TEXT
  5
8B
100
AcDbEntity
  8
15
370
     9
  6
Continuous
 62
    96
100
AcDbText
 10
379.740598
 20
39.402842
 30
0.0
 40
2.500737
  1
作図
 41
0.85
 11
379.740598
 21
39.402842
 31
0.0
100
AcDbText
 73
     1
  0
LINE
  5
8C
100
AcDbEntity
  8
15
370
     9
  6
Continuous
 62
    96
100
AcDbLine
 10
328.6719
 20
42.554935
 30
0.0
 11
328.6719
 21
33.552282
 31
0.0
  0
LINE
  5
8D
100
AcDbEntity
  8
15
370
     9
  6
Continuous
 62
    96
100
AcDbLine
 10
353.679273
 20
42.554935
 30
0.0
 11
353.679273
 21
33.552284
 31
0.0
  0
LINE
  5
8E
100
AcDbEntity
  8
15
370
     9
  6
Continuous
 62
    96
100
AcDbLine
 10
378.686646
 20
42.554935
 30
0.0
 11
378.686646
 21
33.552285
 31
0.0
  0
LINE
  5
8F
100
AcDbEntity
  8
15
370
     9
  6
Continuous
 62
    96
100
AcDbLine
 10
358.700979
 20
33.550514
 30
0.0
 11
358.700979
 21
27.550514
 31
0.0
  0
LINE
  5
90
100
AcDbEntity
  8
15
370
     9
  6
Continuous
 62
    96
100
AcDbLine
 10
365.700979
 20
33.550519
 30
0.0
 11
365.700979
 21
27.550519
 31
0.0
  0
TEXT
  5
91
100
AcDbEntity
  8
15
370
     9
  6
Continuous
 62
    96
100
AcDbText
 10
359.712645
 20
29.168452
 30
0.0
 40
2.5
  1
日付
 41
0.85
 11
359.712645
 21
29.168452
 31
0.0
100
AcDbText
 73
     1
  0
LINE
  5
92
100
AcDbEntity
  8
15
370
     9
  6
Continuous
 62
    96
100
AcDbLine
 10
391.694019
 20
33.550517
 30
0.0
 11
391.694019
 21
27.550517
 31
0.0
  0
LINE
  5
93
100
AcDbEntity
  8
15
370
     9
  6
Continuous
 62
    96
100
AcDbLine
 10
394.744708
 20
32.790517
 30
0.0
 11
394.744708
 21
28.310517
 31
0.0
  0
CIRCLE
  5
94
100
AcDbEntity
  8
15
370
     9
  6
Continuous
 62
    96
100
AcDbCircle
 10
394.744708
 20
30.550517
 30
0.0
 40
0.96
  0
CIRCLE
  5
95
100
AcDbEntity
  8
15
370
     9
  6
Continuous
 62
    96
100
AcDbCircle
 10
394.744708
 20
30.550517
 30
0.0
 40
1.6
  0
LINE
  5
96
100
AcDbEntity
  8
15
370
     9
  6
Continuous
 62
    96
100
AcDbLine
 10
397.383979
 20
31.510517
 30
0.0
 11
397.383979
 21
29.590517
 31
0.0
  0
LINE
  5
97
100
AcDbEntity
  8
15
370
     9
  6
Continuous
 62
    96
100
AcDbLine
 10
402.503979
 20
32.150517
 30
0.0
 11
402.503979
 21
28.950517
 31
0.0
  0
LINE
  5
98
100
AcDbEntity
  8
15
370
     9
  6
Continuous
 62
    96
100
AcDbLine
 10
397.383979
 20
31.510517
 30
0.0
 11
402.503979
 21
32.150517
 31
0.0
  0
LINE
  5
99
100
AcDbEntity
  8
15
370
     9
  6
Continuous
 62
    96
100
AcDbLine
 10
397.383979
 20
29.590517
 30
0.0
 11
402.503979
 21
28.950517
 31
0.0
  0
LINE
  5
9A
100
AcDbEntity
  8
15
370
     9
  6
Continuous
 62
    96
100
AcDbLine
 10
392.504708
 20
30.550517
 30
0.0
 11
403.049979
 21
30.550517
 31
0.0
  0
TEXT
  5
9B
100
AcDbEntity
  8
15
370
     9
  6
Continuous
 62
    96
100
AcDbText
 10
329.38306
 20
39.729941
 30
0.0
 40
2.500737
  1
承認
 41
0.85
 11
329.38306
 21
39.729941
 31
0.0
100
AcDbText
 73
     1
  0
TEXT
  5
9C
100
AcDbEntity
  8
15
370
     9
  6
Continuous
 62
    96
100
AcDbText
 10
354.390432
 20
39.729941
 30
0.0
 40
2.500737
  1
検図
 41
0.85
 11
354.390432
 21
39.729941
 31
0.0
100
AcDbText
 73
     1
  0
LINE
  5
9D
100
AcDbEntity
  8
15
370
     9
  6
Continuous
 62
    96
100
AcDbLine
 10
403.694278
 20
33.552287
 30
0.0
 11
313.667477
 21
33.55228
 31
0.0
  0
TEXT
  5
9E
100
AcDbEntity
  8
15
370
     9
  6
Continuous
 62
    96
100
AcDbText
 10
316.502342
 20
35.06218
 30
0.0
 40
3.000885
  1
１：１
 41
0.833333
 11
316.502342
 21
35.06218
 31
0.0
100
AcDbText
 73
     1
  0
TEXT
  5
9F
100
AcDbEntity
  8
15
370
     9
  6
Continuous
 62
    96
100
AcDbText
 10
205.730019
 20
17.699511
 30
0.0
 40
3.0
  1
*　記載されている会社名、製品名は、登録 商標または商標です。
 41
0.878026
 11
205.730019
 21
17.699511
 31
0.0
100
AcDbText
 73
     1
  0
ARC
  5
A0
100
AcDbEntity
  8
1
370
    30
  6
Continuous
 62
     7
100
AcDbCircle
 10
54.166881
 20
143.630442
 30
0.0
 40
6.9993
100
AcDbArc
 50
-180.0
 51
-150.651856
  0
ARC
  5
A1
100
AcDbEntity
  8
1
370
    30
  6
Continuous
 62
     7
100
AcDbCircle
 10
54.166881
 20
97.809268
 30
0.0
 40
6.9993
100
AcDbArc
 50
150.651856
 51
180.0
  0
ARC
  5
A2
100
AcDbEntity
  8
1
370
    30
  6
Continuous
 62
     7
100
AcDbCircle
 10
13.420956
 20
120.719855
 30
0.0
 40
39.746025
100
AcDbArc
 50
-29.348144
 51
29.348144
  0
ARC
  5
A3
100
AcDbEntity
  8
1
370
    30
  6
Continuous
 62
     7
100
AcDbCircle
 10
55.166781
 20
213.168927
 30
0.0
 40
7.9992
100
AcDbArc
 50
180.0
 51
-150.876479
  0
ARC
  5
A4
100
AcDbEntity
  8
1
370
    30
  6
Continuous
 62
     7
100
AcDbCircle
 10
54.166881
 20
213.184866
 30
0.0
 40
6.9993
100
AcDbArc
 50
90.0
 51
180.0
  0
LINE
  5
A5
100
AcDbEntity
  8
1
370
    30
  6
Continuous
 62
     7
100
AcDbLine
 10
48.1789
 20
209.275764
 30
0.0
 11
55.140869
 21
196.779648
 31
0.0
  0
ARC
  5
A6
100
AcDbEntity
  8
1
370
    30
  6
Continuous
 62
     7
100
AcDbCircle
 10
61.255265
 20
200.186166
 30
0.0
 40
6.9993
100
AcDbArc
 50
-150.876479
 51
-90.0
  0
LINE
  5
A7
100
AcDbEntity
  8
1
370
    30
  6
Continuous
 62
     7
100
AcDbLine
 10
190.153281
 20
193.186866
 30
0.0
 11
61.255265
 21
193.186866
 31
0.0
  0
LINE
  5
A8
100
AcDbEntity
  8
1
370
    30
  6
Continuous
 62
     7
100
AcDbLine
 10
197.152581
 20
200.186166
 30
0.0
 11
197.152581
 21
200.397567
 31
0.0
  0
ARC
  5
A9
100
AcDbEntity
  8
1
370
    30
  6
Continuous
 62
     7
100
AcDbCircle
 10
190.153281
 20
200.186166
 30
0.0
 40
6.9993
100
AcDbArc
 50
-90.0
 51
0.0
  0
LINE
  5
AA
100
AcDbEntity
  8
1
370
    30
  6
Continuous
 62
     7
100
AcDbLine
 10
54.166881
 20
220.184166
 30
0.0
 11
183.091934
 21
220.184166
 31
0.0
  0
ARC
  5
AB
100
AcDbEntity
  8
1
370
    30
  6
Continuous
 62
     7
100
AcDbCircle
 10
183.091934
 20
213.184866
 30
0.0
 40
6.9993
100
AcDbArc
 50
28.908167
 51
90.0
  0
ARC
  5
AC
100
AcDbEntity
  8
1
370
    30
  6
Continuous
 62
     7
100
AcDbCircle
 10
190.153281
 20
200.397567
 30
0.0
 40
6.9993
100
AcDbArc
 50
0.0
 51
28.908167
  0
LINE
  5
AD
100
AcDbEntity
  8
1
370
    30
  6
Continuous
 62
     7
100
AcDbLine
 10
189.188576
 20
216.623058
 30
0.0
 11
196.365177
 21
203.623069
 31
0.0
  0
LINE
  5
AE
100
AcDbEntity
  8
1
370
    30
  6
Continuous
 62
     7
100
AcDbLine
 10
193.572876
 20
208.684166
 30
0.0
 11
210.856081
 21
208.684166
 31
0.0
  0
LINE
  5
AF
100
AcDbEntity
  8
1
370
    30
  6
Continuous
 62
     7
100
AcDbLine
 10
197.152581
 20
146.169703
 30
0.0
 11
214.120551
 21
146.169703
 31
0.0
  0
LINE
  5
B0
100
AcDbEntity
  8
1
370
    30
  6
Continuous
 62
     7
100
AcDbLine
 10
197.152548
 20
144.669703
 30
0.0
 11
214.357599
 21
144.669703
 31
0.0
  0
LINE
  5
B1
100
AcDbEntity
  8
1
370
    30
  6
Continuous
 62
     7
100
AcDbLine
 10
215.620551
 20
146.169703
 30
0.0
 11
231.638866
 21
146.169703
 31
0.0
  0
LINE
  5
B2
100
AcDbEntity
  8
1
370
    30
  6
Continuous
 62
     7
100
AcDbLine
 10
215.857599
 20
144.669703
 30
0.0
 11
231.638866
 21
144.669703
 31
0.0
  0
ARC
  5
B3
100
AcDbEntity
  8
1
370
    30
  6
Continuous
 62
     7
100
AcDbCircle
 10
211.897613
 20
142.872738
 30
0.0
 40
3.0
100
AcDbArc
 50
-26.565051
 51
26.565051
  0
LINE
  5
B4
100
AcDbEntity
  8
1
370
    30
  6
Continuous
 62
     7
100
AcDbLine
 10
214.580895
 20
141.531097
 30
0.0
 11
214.422536
 21
141.214379
 31
0.0
  0
ARC
  5
B5
100
AcDbEntity
  8
1
370
    30
  6
Continuous
 62
     7
100
AcDbCircle
 10
213.397613
 20
142.872738
 30
0.0
 40
3.0
100
AcDbArc
 50
-26.565051
 51
26.565051
  0
LINE
  5
B6
100
AcDbEntity
  8
1
370
    30
  6
Continuous
 62
     7
100
AcDbLine
 10
216.080895
 20
141.531097
 30
0.0
 11
215.922536
 21
141.214379
 31
0.0
  0
LINE
  5
B7
100
AcDbEntity
  8
1
370
    30
  6
Continuous
 62
     7
100
AcDbLine
 10
214.580895
 20
147.531097
 30
0.0
 11
214.422536
 21
147.214379
 31
0.0
  0
ARC
  5
B8
100
AcDbEntity
  8
1
370
    30
  6
Continuous
 62
     7
100
AcDbCircle
 10
217.105817
 20
145.872738
 30
0.0
 40
3.0
100
AcDbArc
 50
153.434949
 51
-153.434949
  0
LINE
  5
B9
100
AcDbEntity
  8
1
370
    30
  6
Continuous
 62
     7
100
AcDbLine
 10
216.080895
 20
147.531097
 30
0.0
 11
215.922536
 21
147.214379
 31
0.0
  0
ARC
  5
BA
100
AcDbEntity
  8
1
370
    30
  6
Continuous
 62
     7
100
AcDbCircle
 10
218.605817
 20
145.872738
 30
0.0
 40
3.0
100
AcDbArc
 50
153.434949
 51
-153.434949
  0
LINE
  5
BB
100
AcDbEntity
  8
1
370
    30
  6
Continuous
 62
     7
100
AcDbLine
 10
214.422536
 20
144.531097
 30
0.0
 11
214.580895
 21
144.214379
 31
0.0
  0
LINE
  5
BC
100
AcDbEntity
  8
1
370
    30
  6
Continuous
 62
     7
100
AcDbLine
 10
215.922536
 20
144.531097
 30
0.0
 11
216.091459
 21
144.193251
 31
0.0
  0
LINE
  5
BD
100
AcDbEntity
  8
22
370
    30
  6
Continuous
 62
     7
100
AcDbLine
 10
244.938866
 20
202.876097
 30
0.0
 11
244.938866
 21
210.736097
 31
0.0
  0
LINE
  5
BE
100
AcDbEntity
  8
22
370
    30
  6
Continuous
 62
     7
100
AcDbLine
 10
243.938866
 20
209.936097
 30
0.0
 11
243.938866
 21
203.676097
 31
0.0
  0
LINE
  5
BF
100
AcDbEntity
  8
22
370
    30
  6
Continuous
 62
     7
100
AcDbLine
 10
244.938866
 20
210.736097
 30
0.0
 11
231.638866
 21
210.736097
 31
0.0
  0
LINE
  5
C0
100
AcDbEntity
  8
22
370
    30
  6
Continuous
 62
     7
100
AcDbLine
 10
244.938866
 20
209.936097
 30
0.0
 11
243.938866
 21
209.936097
 31
0.0
  0
LINE
  5
C1
100
AcDbEntity
  8
22
370
    30
  6
Continuous
 62
     7
100
AcDbLine
 10
231.638866
 20
209.636097
 30
0.0
 11
237.838866
 21
209.636097
 31
0.0
  0
LINE
  5
C2
100
AcDbEntity
  8
22
370
    30
  6
Continuous
 62
     7
100
AcDbLine
 10
237.838866
 20
208.336097
 30
0.0
 11
231.638866
 21
208.336097
 31
0.0
  0
LINE
  5
C3
100
AcDbEntity
  8
22
370
    30
  6
Continuous
 62
     7
100
AcDbLine
 10
237.838866
 20
208.336097
 30
0.0
 11
237.838866
 21
209.636097
 31
0.0
  0
LINE
  5
C4
100
AcDbEntity
  8
22
370
    30
  6
Continuous
 62
     7
100
AcDbLine
 10
237.838866
 20
205.276097
 30
0.0
 11
237.838866
 21
203.976097
 31
0.0
  0
LINE
  5
C5
100
AcDbEntity
  8
22
370
    30
  6
Continuous
 62
     7
100
AcDbLine
 10
231.638866
 20
205.276097
 30
0.0
 11
237.838866
 21
205.276097
 31
0.0
  0
LINE
  5
C6
100
AcDbEntity
  8
22
370
    30
  6
Continuous
 62
     7
100
AcDbLine
 10
237.838866
 20
203.976097
 30
0.0
 11
231.638866
 21
203.976097
 31
0.0
  0
LINE
  5
C7
100
AcDbEntity
  8
22
370
    30
  6
Continuous
 62
     7
100
AcDbLine
 10
243.938866
 20
203.676097
 30
0.0
 11
244.938866
 21
203.676097
 31
0.0
  0
LINE
  5
C8
100
AcDbEntity
  8
22
370
    30
  6
Continuous
 62
     7
100
AcDbLine
 10
231.638866
 20
202.876097
 30
0.0
 11
244.938866
 21
202.876097
 31
0.0
  0
LINE
  5
C9
100
AcDbEntity
  8
22
370
    30
  6
Continuous
 62
     7
100
AcDbLine
 10
231.638866
 20
202.876097
 30
0.0
 11
231.638866
 21
210.736097
 31
0.0
  0
ARC
  5
CA
100
AcDbEntity
  8
1
370
    30
  6
Continuous
 62
     7
100
AcDbCircle
 10
208.633142
 20
205.387201
 30
0.0
 40
3.0
100
AcDbArc
 50
-26.565051
 51
26.565051
  0
LINE
  5
CB
100
AcDbEntity
  8
1
370
    30
  6
Continuous
 62
     7
100
AcDbLine
 10
211.316424
 20
204.04556
 30
0.0
 11
211.158065
 21
203.728842
 31
0.0
  0
ARC
  5
CC
100
AcDbEntity
  8
1
370
    30
  6
Continuous
 62
     7
100
AcDbCircle
 10
210.133142
 20
205.387201
 30
0.0
 40
3.0
100
AcDbArc
 50
-26.565051
 51
26.565051
  0
LINE
  5
CD
100
AcDbEntity
  8
1
370
    30
  6
Continuous
 62
     7
100
AcDbLine
 10
212.816424
 20
204.04556
 30
0.0
 11
212.658065
 21
203.728842
 31
0.0
  0
LINE
  5
CE
100
AcDbEntity
  8
1
370
    30
  6
Continuous
 62
     7
100
AcDbLine
 10
211.316424
 20
210.04556
 30
0.0
 11
211.158065
 21
209.728842
 31
0.0
  0
ARC
  5
CF
100
AcDbEntity
  8
1
370
    30
  6
Continuous
 62
     7
100
AcDbCircle
 10
213.841346
 20
208.387201
 30
0.0
 40
3.0
100
AcDbArc
 50
153.434949
 51
-153.434949
  0
LINE
  5
D0
100
AcDbEntity
  8
1
370
    30
  6
Continuous
 62
     7
100
AcDbLine
 10
212.816424
 20
210.04556
 30
0.0
 11
212.658065
 21
209.728842
 31
0.0
  0
ARC
  5
D1
100
AcDbEntity
  8
1
370
    30
  6
Continuous
 62
     7
100
AcDbCircle
 10
215.341346
 20
208.387201
 30
0.0
 40
3.0
100
AcDbArc
 50
153.434949
 51
-153.434949
  0
LINE
  5
D2
100
AcDbEntity
  8
1
370
    30
  6
Continuous
 62
     7
100
AcDbLine
 10
211.158065
 20
207.04556
 30
0.0
 11
211.316424
 21
206.728842
 31
0.0
  0
LINE
  5
D3
100
AcDbEntity
  8
1
370
    30
  6
Continuous
 62
     7
100
AcDbLine
 10
212.658065
 20
207.04556
 30
0.0
 11
212.826988
 21
206.707714
 31
0.0
  0
LINE
  5
D4
100
AcDbEntity
  8
1
370
    30
  6
Continuous
 62
     7
100
AcDbLine
 10
194.401199
 20
207.184166
 30
0.0
 11
211.087625
 21
207.184166
 31
0.0
  0
LINE
  5
D5
100
AcDbEntity
  8
1
370
    30
  6
Continuous
 62
     7
100
AcDbLine
 10
194.951332
 20
206.184166
 30
0.0
 11
211.527649
 21
206.184166
 31
0.0
  0
LINE
  5
D6
100
AcDbEntity
  8
1
370
    30
  6
Continuous
 62
     7
100
AcDbLine
 10
195.779402
 20
204.684166
 30
0.0
 11
211.549603
 21
204.684166
 31
0.0
  0
LINE
  5
D7
100
AcDbEntity
  8
1
370
    30
  6
Continuous
 62
     7
100
AcDbLine
 10
212.357742
 20
208.684166
 30
0.0
 11
231.638866
 21
208.684166
 31
0.0
  0
LINE
  5
D8
100
AcDbEntity
  8
1
370
    30
  6
Continuous
 62
     7
100
AcDbLine
 10
212.600027
 20
207.184166
 30
0.0
 11
231.638968
 21
207.184166
 31
0.0
  0
LINE
  5
D9
100
AcDbEntity
  8
1
370
    30
  6
Continuous
 62
     7
100
AcDbLine
 10
213.026728
 20
206.184166
 30
0.0
 11
231.638866
 21
206.184166
 31
0.0
  0
LINE
  5
DA
100
AcDbEntity
  8
1
370
    30
  6
Continuous
 62
     7
100
AcDbLine
 10
213.049603
 20
204.684166
 30
0.0
 11
231.638866
 21
204.684166
 31
0.0
  0
LINE
  5
DB
100
AcDbEntity
  8
1
370
    30
  6
Continuous
 62
     7
100
AcDbLine
 10
47.167581
 20
146.722455
 30
0.0
 11
47.167581
 21
94.722455
 31
0.0
  0
LINE
  5
DC
100
AcDbEntity
  8
1
370
    30
  6
Continuous
 62
     7
100
AcDbLine
 10
197.167581
 20
146.722455
 30
0.0
 11
197.167581
 21
94.722455
 31
0.0
  0
LINE
  5
DD
100
AcDbEntity
  8
1
370
    30
  6
Continuous
 62
     7
100
AcDbLine
 10
47.167581
 20
146.722455
 30
0.0
 11
197.167581
 21
146.722455
 31
0.0
  0
LINE
  5
DE
100
AcDbEntity
  8
1
370
    30
  6
Continuous
 62
     7
100
AcDbLine
 10
197.167581
 20
94.722455
 30
0.0
 11
47.167581
 21
94.722455
 31
0.0
  0
ARC
  5
DF
100
AcDbEntity
  8
1
370
    30
  6
Continuous
 62
     7
100
AcDbCircle
 10
190.168281
 20
143.011257
 30
0.0
 40
6.9993
100
AcDbArc
 50
-20.344066
 51
0.0
  0
ARC
  5
E0
100
AcDbEntity
  8
1
370
    30
  6
Continuous
 62
     7
100
AcDbCircle
 10
190.168281
 20
98.428722
 30
0.0
 40
6.9993
100
AcDbArc
 50
0.0
 51
20.344066
  0
ARC
  5
E1
100
AcDbEntity
  8
1
370
    30
  6
Continuous
 62
     7
100
AcDbCircle
 10
250.287268
 20
120.719989
 30
0.0
 40
57.119287
100
AcDbArc
 50
159.655934
 51
-159.625335
  0
CIRCLE
  5
E2
100
AcDbEntity
  8
1
370
     9
  6
HIDDEN
 62
     7
100
AcDbCircle
 10
183.003996
 20
213.034881
 30
0.0
 40
7.149285
  0
CIRCLE
  5
E3
100
AcDbEntity
  8
1
370
     9
  6
HIDDEN
 62
     7
100
AcDbCircle
 10
168.705426
 20
213.034881
 30
0.0
 40
7.149285
  0
CIRCLE
  5
E4
100
AcDbEntity
  8
1
370
     9
  6
HIDDEN
 62
     7
100
AcDbCircle
 10
154.406856
 20
213.034881
 30
0.0
 40
7.149285
  0
CIRCLE
  5
E5
100
AcDbEntity
  8
1
370
     9
  6
HIDDEN
 62
     7
100
AcDbCircle
 10
140.108286
 20
213.034881
 30
0.0
 40
7.149285
  0
CIRCLE
  5
E6
100
AcDbEntity
  8
1
370
     9
  6
HIDDEN
 62
     7
100
AcDbCircle
 10
111.511146
 20
213.034881
 30
0.0
 40
7.149285
  0
CIRCLE
  5
E7
100
AcDbEntity
  8
1
370
     9
  6
HIDDEN
 62
     7
100
AcDbCircle
 10
125.809716
 20
213.034881
 30
0.0
 40
7.149285
  0
CIRCLE
  5
E8
100
AcDbEntity
  8
1
370
     9
  6
HIDDEN
 62
     7
100
AcDbCircle
 10
97.212576
 20
213.034881
 30
0.0
 40
7.149285
  0
CIRCLE
  5
E9
100
AcDbEntity
  8
1
370
     9
  6
HIDDEN
 62
     7
100
AcDbCircle
 10
82.914006
 20
213.034881
 30
0.0
 40
7.149285
  0
CIRCLE
  5
EA
100
AcDbEntity
  8
1
370
     9
  6
HIDDEN
 62
     7
100
AcDbCircle
 10
68.615436
 20
213.034881
 30
0.0
 40
7.149285
  0
CIRCLE
  5
EB
100
AcDbEntity
  8
1
370
     9
  6
HIDDEN
 62
     7
100
AcDbCircle
 10
54.316866
 20
213.034881
 30
0.0
 40
7.149285
  0
CIRCLE
  5
EC
100
AcDbEntity
  8
1
370
     9
  6
HIDDEN
 62
     7
100
AcDbCircle
 10
190.003296
 20
200.336151
 30
0.0
 40
7.149285
  0
CIRCLE
  5
ED
100
AcDbEntity
  8
1
370
     9
  6
HIDDEN
 62
     7
100
AcDbCircle
 10
175.704726
 20
200.336151
 30
0.0
 40
7.149285
  0
CIRCLE
  5
EE
100
AcDbEntity
  8
1
370
     9
  6
HIDDEN
 62
     7
100
AcDbCircle
 10
161.406156
 20
200.336151
 30
0.0
 40
7.149285
  0
CIRCLE
  5
EF
100
AcDbEntity
  8
1
370
     9
  6
HIDDEN
 62
     7
100
AcDbCircle
 10
147.107586
 20
200.336151
 30
0.0
 40
7.149285
  0
CIRCLE
  5
F0
100
AcDbEntity
  8
1
370
     9
  6
HIDDEN
 62
     7
100
AcDbCircle
 10
132.809016
 20
200.336151
 30
0.0
 40
7.149285
  0
CIRCLE
  5
F1
100
AcDbEntity
  8
1
370
     9
  6
HIDDEN
 62
     7
100
AcDbCircle
 10
118.510446
 20
200.336151
 30
0.0
 40
7.149285
  0
CIRCLE
  5
F2
100
AcDbEntity
  8
1
370
     9
  6
HIDDEN
 62
     7
100
AcDbCircle
 10
104.211876
 20
200.336151
 30
0.0
 40
7.149285
  0
CIRCLE
  5
F3
100
AcDbEntity
  8
1
370
     9
  6
HIDDEN
 62
     7
100
AcDbCircle
 10
89.913306
 20
200.336151
 30
0.0
 40
7.149285
  0
CIRCLE
  5
F4
100
AcDbEntity
  8
1
370
     9
  6
HIDDEN
 62
     7
100
AcDbCircle
 10
75.614736
 20
200.336151
 30
0.0
 40
7.149285
  0
CIRCLE
  5
F5
100
AcDbEntity
  8
1
370
     9
  6
HIDDEN
 62
     7
100
AcDbCircle
 10
61.316166
 20
200.336151
 30
0.0
 40
7.149285
  0
LINE
  5
F6
100
AcDbEntity
  8
22
370
    30
  6
Continuous
 62
     7
100
AcDbLine
 10
244.938866
 20
143.975207
 30
0.0
 11
244.938866
 21
151.175207
 31
0.0
  0
LINE
  5
F7
100
AcDbEntity
  8
22
370
    30
  6
Continuous
 62
     7
100
AcDbLine
 10
233.138866
 20
153.475207
 30
0.0
 11
234.138866
 21
153.475207
 31
0.0
  0
LINE
  5
F8
100
AcDbEntity
  8
22
370
    30
  6
Continuous
 62
     7
100
AcDbLine
 10
234.138866
 20
152.975207
 30
0.0
 11
242.838866
 21
152.975207
 31
0.0
  0
LINE
  5
F9
100
AcDbEntity
  8
22
370
    30
  6
Continuous
 62
     7
100
AcDbLine
 10
234.138866
 20
152.475207
 30
0.0
 11
242.838866
 21
152.475207
 31
0.0
  0
LINE
  5
FA
100
AcDbEntity
  8
22
370
    30
  6
Continuous
 62
     7
100
AcDbLine
 10
242.838866
 20
152.975207
 30
0.0
 11
242.838866
 21
151.175207
 31
0.0
  0
LINE
  5
FB
100
AcDbEntity
  8
22
370
    30
  6
Continuous
 62
     7
100
AcDbLine
 10
237.338866
 20
151.475207
 30
0.0
 11
233.138866
 21
151.475207
 31
0.0
  0
LINE
  5
FC
100
AcDbEntity
  8
22
370
    30
  6
Continuous
 62
     7
100
AcDbLine
 10
242.838866
 20
151.475207
 30
0.0
 11
238.238866
 21
151.475207
 31
0.0
  0
LINE
  5
FD
100
AcDbEntity
  8
22
370
    30
  6
Continuous
 62
     7
100
AcDbLine
 10
238.738866
 20
151.175207
 30
0.0
 11
244.938866
 21
151.175207
 31
0.0
  0
LINE
  5
FE
100
AcDbEntity
  8
22
370
    30
  6
Continuous
 62
     7
100
AcDbLine
 10
241.338866
 20
151.175207
 30
0.0
 11
241.338866
 21
151.475207
 31
0.0
  0
LINE
  5
FF
100
AcDbEntity
  8
22
370
    30
  6
Continuous
 62
     7
100
AcDbLine
 10
231.638866
 20
150.275207
 30
0.0
 11
237.338866
 21
150.275207
 31
0.0
  0
LINE
  5
100
100
AcDbEntity
  8
22
370
    30
  6
Continuous
 62
     7
100
AcDbLine
 10
231.638866
 20
149.675207
 30
0.0
 11
238.738866
 21
149.675207
 31
0.0
  0
LINE
  5
101
100
AcDbEntity
  8
22
370
    30
  6
Continuous
 62
     7
100
AcDbLine
 10
238.738866
 20
149.675207
 30
0.0
 11
238.738866
 21
151.175207
 31
0.0
  0
LINE
  5
102
100
AcDbEntity
  8
22
370
    30
  6
Continuous
 62
     7
100
AcDbLine
 10
238.238866
 20
151.475207
 30
0.0
 11
238.238866
 21
149.675207
 31
0.0
  0
LINE
  5
103
100
AcDbEntity
  8
22
370
    30
  6
Continuous
 62
     7
100
AcDbLine
 10
237.338866
 20
150.275207
 30
0.0
 11
237.338866
 21
151.475207
 31
0.0
  0
LINE
  5
104
100
AcDbEntity
  8
22
370
    30
  6
Continuous
 62
     7
100
AcDbLine
 10
244.938866
 20
143.975207
 30
0.0
 11
231.638866
 21
143.975207
 31
0.0
  0
LINE
  5
105
100
AcDbEntity
  8
22
370
    30
  6
Continuous
 62
     7
100
AcDbLine
 10
234.138866
 20
153.475207
 30
0.0
 11
234.138866
 21
152.475207
 31
0.0
  0
LINE
  5
106
100
AcDbEntity
  8
22
370
    30
  6
Continuous
 62
     7
100
AcDbLine
 10
232.638866
 20
142.975207
 30
0.0
 11
231.638866
 21
142.975207
 31
0.0
  0
LINE
  5
107
100
AcDbEntity
  8
22
370
    30
  6
Continuous
 62
     7
100
AcDbLine
 10
233.138866
 20
151.475207
 30
0.0
 11
233.138866
 21
153.475207
 31
0.0
  0
LINE
  5
108
100
AcDbEntity
  8
22
370
    30
  6
Continuous
 62
     7
100
AcDbLine
 10
232.638866
 20
142.975207
 30
0.0
 11
232.638866
 21
143.975207
 31
0.0
  0
LINE
  5
109
100
AcDbEntity
  8
22
370
    30
  6
Continuous
 62
     7
100
AcDbLine
 10
231.638866
 20
142.975207
 30
0.0
 11
231.638866
 21
150.275207
 31
0.0
  0
DIMENSION
  5
115
100
AcDbEntity
  8
1
370
     9
  6
Continuous
 62
     7
100
AcDbDimension
  2
*D2
 10
47.167581
 20
157.689043
 30
0.0
 11
116.673578
 21
158.261685
 31
0.0
 71
     5
 72
     1
 41
1.0
 42
0.0
  1
150±1.5
100
AcDbAlignedDimension
 13
47.167581
 23
148.722455
 33
0.0
 14
197.167581
 24
148.722455
 34
0.0
100
AcDbRotatedDimension
  0
DIMENSION
  5
121
100
AcDbEntity
  8
1
370
     9
  6
Continuous
 62
     7
100
AcDbDimension
  2
*D3
 10
197.167581
 20
157.779902
 30
0.0
 11
214.403223
 21
157.779902
 31
0.0
 71
     5
 72
     1
 41
1.0
 42
0.0
  1
150±10
100
AcDbAlignedDimension
 13
197.167581
 23
148.722455
 33
0.0
 14
231.638866
 24
148.722455
 34
0.0
100
AcDbRotatedDimension
  0
DIMENSION
  5
12D
100
AcDbEntity
  8
1
370
     9
  6
Continuous
 62
     7
100
AcDbDimension
  2
*D4
 10
37.74892
 20
146.722455
 30
0.0
 11
37.24892
 21
120.722455
 31
0.0
 71
     5
 72
     1
 41
1.0
 42
0.0
  1
52Max
100
AcDbAlignedDimension
 13
45.167581
 23
146.722455
 33
0.0
 14
45.167581
 24
94.722455
 34
0.0
 50
90.0
100
AcDbRotatedDimension
  0
DIMENSION
  5
139
100
AcDbEntity
  8
1
370
     9
  6
Continuous
 62
     7
100
AcDbDimension
  2
*D5
 10
38.24892
 20
220.184166
 30
0.0
 11
36.512021
 21
206.685516
 31
0.0
 71
     5
 72
     1
 41
1.0
 42
0.0
  1
27±1
100
AcDbAlignedDimension
 13
51.73173
 23
220.184166
 33
0.0
 14
59.58961
 24
193.186866
 34
0.0
 50
90.0
100
AcDbRotatedDimension
  0
TEXT
  5
13A
100
AcDbEntity
  8
15
370
     9
  6
Continuous
 62
    96
100
AcDbText
 10
360.694019
 20
268.300511
 30
0.0
 40
3.0
  1
０１０６０７３
 41
0.833333
 11
360.694019
 21
268.300511
 31
0.0
100
AcDbText
 73
     1
  0
TEXT
  5
13B
100
AcDbEntity
  8
15
370
     9
  6
PHANTOM
 62
    96
100
AcDbText
 10
320.194019
 20
257.300511
 30
0.0
 40
3.0
  1
定格電圧
 41
0.833333
 11
320.194019
 21
257.300511
 31
0.0
100
AcDbText
 73
     1
  0
TEXT
  5
13C
100
AcDbEntity
  8
15
370
     9
  6
PHANTOM
 62
    96
100
AcDbText
 10
320.194019
 20
251.800511
 30
0.0
 40
3.0
  1
定格容量
 41
0.833333
 11
320.194019
 21
251.800511
 31
0.0
100
AcDbText
 73
     1
  0
TEXT
  5
13D
100
AcDbEntity
  8
15
370
     9
  6
PHANTOM
 62
    96
100
AcDbText
 10
321.694019
 20
246.300511
 30
0.0
 40
3.0
  1
重　量
 41
0.833333
 11
321.694019
 21
246.300511
 31
0.0
100
AcDbText
 73
     1
  0
LINE
  5
13E
100
AcDbEntity
  8
15
370
     9
  6
Continuous
 62
    96
100
AcDbLine
 10
403.694019
 20
245.050511
 30
0.0
 11
313.694019
 21
245.050511
 31
0.0
  0
LINE
  5
13F
100
AcDbEntity
  8
15
370
    30
  6
Continuous
 62
    96
100
AcDbLine
 10
403.687058
 20
245.050511
 30
0.0
 11
313.687058
 21
245.050511
 31
0.0
  0
LINE
  5
140
100
AcDbEntity
  8
15
370
     9
  6
Continuous
 62
    96
100
AcDbLine
 10
338.694019
 20
261.550561
 30
0.0
 11
338.694019
 21
245.050511
 31
0.0
  0
LINE
  5
141
100
AcDbEntity
  8
15
370
     9
  6
Continuous
 62
    96
100
AcDbLine
 10
313.694019
 20
250.550511
 30
0.0
 11
403.694019
 21
250.550511
 31
0.0
  0
LINE
  5
142
100
AcDbEntity
  8
15
370
     9
  6
Continuous
 62
    96
100
AcDbLine
 10
313.694019
 20
256.050511
 30
0.0
 11
403.694019
 21
256.050511
 31
0.0
  0
TEXT
  5
143
100
AcDbEntity
  8
15
370
     9
  6
PHANTOM
 62
    96
100
AcDbText
 10
367.444019
 20
257.300511
 30
0.0
 40
3.0
  1
DC24V
 41
0.5
 11
367.444019
 21
257.300511
 31
0.0
100
AcDbText
 73
     1
  0
TEXT
  5
144
100
AcDbEntity
  8
15
370
     9
  6
PHANTOM
 62
    96
100
AcDbText
 10
366.694019
 20
251.800511
 30
0.0
 40
3.0
  1
600mAh
 41
0.5
 11
366.694019
 21
251.800511
 31
0.0
100
AcDbText
 73
     1
  0
TEXT
  5
145
100
AcDbEntity
  8
15
370
     9
  6
PHANTOM
 62
    96
100
AcDbText
 10
365.944019
 20
246.300511
 30
0.0
 40
3.0
  1
約400ｇ
 41
0.648148
 11
365.944019
 21
246.300511
 31
0.0
100
AcDbText
 73
     1
  0
TEXT
  5
146
100
AcDbEntity
  8
15
370
     9
  6
PHANTOM
 62
    96
100
AcDbText
 10
314.535214
 20
241.008058
 30
0.0
 40
3.0
  1
※PW-24内に格納可能です。
 41
0.735294
 11
314.535214
 21
241.008058
 31
0.0
100
AcDbText
 73
     1
  0
TEXT
  5
147
100
AcDbEntity
  8
15
370
     9
  6
Continuous
 62
    96
100
AcDbText
 10
330.864819
 20
28.810302
 30
0.0
 40
3.5
  1
G05021-01-16527
 41
0.5
 11
330.864819
 21
28.810302
 31
0.0
100
AcDbText
 73
     1
  0
TEXT
  5
148
100
AcDbEntity
  8
15
370
     9
  6
Continuous
 62
    96
100
AcDbText
 10
367.986
 20
28.990929
 30
0.0
 40
3.000885
  1
2016年05月27日
 41
0.603448
 11
367.986
 21
28.990929
 31
0.0
100
AcDbText
 73
     1
  0
TEXT
  5
149
100
AcDbEntity
  8
15
370
     9
  6
Continuous
 62
    96
100
AcDbText
 10
387.416031
 20
35.117582
 30
0.0
 40
5.001475
  1
太田
 41
0.85
 11
387.416031
 21
35.117582
 31
0.0
100
AcDbText
 73
     1
  0
TEXT
  5
14A
100
AcDbEntity
  8
15
370
     9
  6
Continuous
 62
    96
100
AcDbText
 10
363.998031
 20
35.117582
 30
0.0
 40
5.001475
  1
辻
 41
0.833333
 11
363.998031
 21
35.117582
 31
0.0
100
AcDbText
 73
     1
  0
TEXT
  5
14B
100
AcDbEntity
  8
15
370
     9
  6
Continuous
 62
    96
100
AcDbText
 10
336.067559
 20
35.117582
 30
0.0
 40
5.001475
  1
加川
 41
0.85
 11
336.067559
 21
35.117582
 31
0.0
100
AcDbText
 73
     1
  0
TEXT
  5
14C
100
AcDbEntity
  8
15
370
     9
  6
Continuous
 62
    96
100
AcDbText
 10
337.994019
 20
53.550518
 30
0.0
 40
5.0
  1
ＰＷ－ＢＵ６００
 41
0.8625
 11
337.994019
 21
53.550518
 31
0.0
100
AcDbText
 73
     1
  0
TEXT
  5
14D
100
AcDbEntity
  8
15
370
     9
  6
Continuous
 62
    96
100
AcDbText
 10
345.794019
 20
44.550511
 30
0.0
 40
5.0
  1
バッテリー
 41
0.86
 11
345.794019
 21
44.550511
 31
0.0
100
AcDbText
 73
     1
  0
ENDSEC
  0
SECTION
  2
OBJECTS
  0
DICTIONARY
  5
19
100
AcDbDictionary
280
     0
281
     1
  3
ACAD_GROUP
350
1A
  3
ACAD_MLINESTYLE
350
1B
  3
ACAD_LAYOUT
350
1E
  3
ACAD_PLOTSETTINGS
350
22
  3
ACAD_PLOTSTYLENAME
350
1F
  3
ACAD_WIPEOUT_VARS
350
23
  0
DICTIONARY
  5
1A
102
{ACAD_REACTORS
330
19
102
}
100
AcDbDictionary
280
     0
281
     1
  0
DICTIONARY
  5
1B
102
{ACAD_REACTORS
330
19
102
}
100
AcDbDictionary
280
     0
281
     1
  3
Standard
350
1C
  0
MLINESTYLE
  5
1C
102
{ACAD_REACTORS
330
1B
102
}
100
AcDbMlineStyle
  2
Standard
 70
     0
  3

 62
     0
 51
90.0
 52
90.0
 71
     2
 49
0.5
 62
   256
  6
ByLayer
 49
-0.5
 62
   256
  6
ByLayer
  0
ACDBDICTIONARYWDFLT
  5
1F
102
{ACAD_REACTORS
330
19
102
}
100
AcDbDictionary
281
     1
  3
Normal
350
1D
100
AcDbDictionaryWithDefault
340
1D
  0
ACDBPLACEHOLDER
  5
1D
102
{ACAD_REACTORS
330
1F
102
}
  0
LAYOUT
  5
20
102
{ACAD_REACTORS
330
1E
102
}
100
AcDbPlotSettings
  1

  2

  4

  6

 40
0.0
 41
0.0
 42
0.0
 43
0.0
 44
0.0
 45
0.0
 46
0.0
 47
0.0
 48
0.0
 49
0.0
140
0.0
141
0.0
142
1.0
143
1.0
 70
  1024
 72
     0
 73
     0
 74
     0
  7

 75
     0
147
1.0
148
0.0
149
0.0
100
AcDbLayout
  1
Model
 70
     0
 71
     0
 10
0.0
 20
0.0
 11
0.0
 21
0.0
 12
0.0
 22
0.0
 32
0.0
 14
0.0
 24
0.0
 34
0.0
 15
0.0
 25
0.0
 35
0.0
146
0.0
 13
0.0
 23
0.0
 33
0.0
 16
0.0
 26
0.0
 36
0.0
 17
0.0
 27
0.0
 37
0.0
 76
     0
330
A
331
0
345
0
346
0
  0
LAYOUT
  5
21
102
{ACAD_REACTORS
330
1E
102
}
100
AcDbPlotSettings
  1

  2

  4

  6

 40
0.0
 41
0.0
 42
0.0
 43
0.0
 44
0.0
 45
0.0
 46
0.0
 47
0.0
 48
0.0
 49
0.0
140
0.0
141
0.0
142
1.0
143
1.0
 70
     0
 72
     0
 73
     0
 74
     0
  7

 75
     0
147
1.0
148
0.0
149
0.0
100
AcDbLayout
  1
Layout1
 70
     0
 71
     0
 10
0.0
 20
0.0
 11
0.0
 21
0.0
 12
0.0
 22
0.0
 32
0.0
 14
0.0
 24
0.0
 34
0.0
 15
0.0
 25
0.0
 35
0.0
146
0.0
 13
0.0
 23
0.0
 33
0.0
 16
0.0
 26
0.0
 36
0.0
 17
0.0
 27
0.0
 37
0.0
 76
     0
330
B
331
0
345
0
346
0
  0
DICTIONARY
  5
1E
102
{ACAD_REACTORS
330
19
102
}
100
AcDbDictionary
280
     0
281
     1
  3
Layout1
350
21
  3
Model
350
20
  0
DICTIONARY
  5
22
102
{ACAD_REACTORS
330
19
102
}
100
AcDbDictionary
280
     0
281
     1
  0
WIPEOUTVARIABLES
  5
23
100
AcDbWipeoutVariables
 70
     1
  0
ENDSEC
  0
EOF
