  0
SECTION
  2
HEADER
  9
$ACADVER
  1
AC1015
  9
$ACADMAINTVER
 70
     6
  9
$DWGCODEPAGE
  3
DOS932
  9
$INSBASE
 10
0.0
 20
0.0
 30
0.0
  9
$EXTMIN
 10
0.0
 20
0.0
 30
0.0
  9
$EXTMAX
 10
420.0
 20
297.0
 30
0.0
  9
$LIMMIN
 10
0.0
 20
0.0
  9
$LIMMAX
 10
420.0
 20
297.0
  9
$ORTHOMODE
 70
     0
  9
$REGENMODE
 70
     1
  9
$FILLMODE
 70
     1
  9
$QTEXTMODE
 70
     0
  9
$MIRRTEXT
 70
     1
  9
$LTSCALE
 40
0.25
  9
$ATTMODE
 70
     1
  9
$TEXTSIZE
 40
5.0
  9
$TRACEWID
 40
0.05
  9
$TEXTSTYLE
  7
Standard
  9
$CLAYER
  8
0
  9
$CELTYPE
  6
Continuous
  9
$CECOLOR
 62
   256
  9
$CELTSCALE
 40
1.0
  9
$DISPSILH
 70
     0
  9
$DIMSCALE
 40
1.0
  9
$DIMASZ
 40
4.0
  9
$DIMEXO
 40
2.0
  9
$DIMDLI
 40
10.0
  9
$DIMRND
 40
0.0
  9
$DIMDLE
 40
0.0
  9
$DIMEXE
 40
2.0
  9
$DIMTP
 40
0.0
  9
$DIMTM
 40
0.0
  9
$DIMTXT
 40
4.0
  9
$DIMCEN
 40
0.09
  9
$DIMTSZ
 40
0.0
  9
$DIMTOL
 70
     0
  9
$DIMLIM
 70
     0
  9
$DIMTIH
 70
     0
  9
$DIMTOH
 70
     0
  9
$DIMSE1
 70
     0
  9
$DIMSE2
 70
     0
  9
$DIMTAD
 70
     3
  9
$DIMZIN
 70
     0
  9
$DIMBLK
  1

  9
$DIMASO
 70
     1
  9
$DIMSHO
 70
     1
  9
$DIMPOST
  1

  9
$DIMAPOST
  1

  9
$DIMALT
 70
     0
  9
$DIMALTD
 70
     2
  9
$DIMALTF
 40
25.4
  9
$DIMLFAC
 40
1.0
  9
$DIMTOFL
 70
     1
  9
$DIMTVP
 40
0.7
  9
$DIMTIX
 70
     0
  9
$DIMSOXD
 70
     0
  9
$DIMSAH
 70
     0
  9
$DIMBLK1
  1

  9
$DIMBLK2
  1

  9
$DIMSTYLE
  2
Standard
  9
$DIMCLRD
 70
     0
  9
$DIMCLRE
 70
     0
  9
$DIMCLRT
 70
     0
  9
$DIMTFAC
 40
0.5
  9
$DIMGAP
 40
0.0
  9
$DIMJUST
 70
     0
  9
$DIMSD1
 70
     0
  9
$DIMSD2
 70
     0
  9
$DIMTOLJ
 70
     1
  9
$DIMTZIN
 70
     0
  9
$DIMALTZ
 70
     0
  9
$DIMALTTZ
 70
     0
  9
$DIMUPT
 70
     0
  9
$DIMDEC
 70
     2
  9
$DIMTDEC
 70
     4
  9
$DIMALTU
 70
     2
  9
$DIMALTTD
 70
     2
  9
$DIMTXSTY
  7
Standard
  9
$DIMAUNIT
 70
     0
  9
$DIMADEC
 70
     0
  9
$DIMALTRND
 40
0.0
  9
$DIMAZIN
 70
     0
  9
$DIMDSEP
 70
     0
  9
$DIMATFIT
 70
     3
  9
$DIMFRAC
 70
     0
  9
$DIMLDRBLK
  1

  9
$DIMLUNIT
 70
     2
  9
$DIMLWD
 70
     0
  9
$DIMLWE
 70
     0
  9
$DIMTMOVE
 70
     0
  9
$LUNITS
 70
     2
  9
$LUPREC
 70
     4
  9
$SKETCHINC
 40
0.1
  9
$FILLETRAD
 40
0.0
  9
$AUNITS
 70
     0
  9
$AUPREC
 70
     0
  9
$MENU
  1
acad
  9
$ELEVATION
 40
0.0
  9
$PELEVATION
 40
0.0
  9
$THICKNESS
 40
0.0
  9
$LIMCHECK
 70
     0
  9
$CHAMFERA
 40
0.0
  9
$CHAMFERB
 40
0.0
  9
$CHAMFERC
 40
0.0
  9
$CHAMFERD
 40
0.0
  9
$SKPOLY
 70
     0
  9
$TDCREATE
 40
2458381.561504629
  9
$TDUCREATE
 40
0.000000000
  9
$TDUPDATE
 40
2458381.561504629
  9
$TDUUPDATE
 40
0.000000000
  9
$TDINDWG
 40
0.0000000000
  9
$TDUSRTIMER
 40
0.0000000000
  9
$USRTIMER
 70
     1
  9
$ANGBASE
 50
0.0
  9
$ANGDIR
 70
     0
  9
$PDMODE
 70
     0
  9
$PDSIZE
 40
0.0
  9
$PLINEWID
 40
0.0
  9
$SPLFRAME
 70
     0
  9
$SPLINETYPE
 70
     6
  9
$SPLINESEGS
 70
     8
  9
$HANDSEED
  5
35E
  9
$SURFTAB1
 70
     6
  9
$SURFTAB2
 70
     6
  9
$SURFTYPE
 70
     6
  9
$SURFU
 70
     6
  9
$SURFV
 70
     6
  9
$UCSBASE
  2

  9
$UCSNAME
  2

  9
$UCSORG
 10
0.0
 20
0.0
 30
0.0
  9
$UCSXDIR
 10
1.0
 20
0.0
 30
0.0
  9
$UCSYDIR
 10
0.0
 20
1.0
 30
0.0
  9
$UCSORTHOREF
  2

  9
$UCSORTHOVIEW
 70
     0
  9
$UCSORGTOP
 10
0.0
 20
0.0
 30
0.0
  9
$UCSORGBOTTOM
 10
0.0
 20
0.0
 30
0.0
  9
$UCSORGLEFT
 10
0.0
 20
0.0
 30
0.0
  9
$UCSORGRIGHT
 10
0.0
 20
0.0
 30
0.0
  9
$UCSORGFRONT
 10
0.0
 20
0.0
 30
0.0
  9
$UCSORGBACK
 10
0.0
 20
0.0
 30
0.0
  9
$PUCSBASE
  2

  9
$PUCSNAME
  2

  9
$PUCSORG
 10
0.0
 20
0.0
 30
0.0
  9
$PUCSXDIR
 10
1.0
 20
0.0
 30
0.0
  9
$PUCSYDIR
 10
0.0
 20
1.0
 30
0.0
  9
$PUCSORTHOREF
  2

  9
$PUCSORTHOVIEW
 70
     0
  9
$PUCSORGTOP
 10
0.0
 20
0.0
 30
0.0
  9
$PUCSORGBOTTOM
 10
0.0
 20
0.0
 30
0.0
  9
$PUCSORGLEFT
 10
0.0
 20
0.0
 30
0.0
  9
$PUCSORGRIGHT
 10
0.0
 20
0.0
 30
0.0
  9
$PUCSORGFRONT
 10
0.0
 20
0.0
 30
0.0
  9
$PUCSORGBACK
 10
0.0
 20
0.0
 30
0.0
  9
$USERI1
 70
     0
  9
$USERI2
 70
     0
  9
$USERI3
 70
     0
  9
$USERI4
 70
     0
  9
$USERI5
 70
     0
  9
$USERR1
 40
0.0
  9
$USERR2
 40
0.0
  9
$USERR3
 40
0.0
  9
$USERR4
 40
0.0
  9
$USERR5
 40
0.0
  9
$WORLDVIEW
 70
     1
  9
$SHADEDGE
 70
     3
  9
$SHADEDIF
 70
    70
  9
$TILEMODE
 70
     1
  9
$MAXACTVP
 70
    16
  9
$PINSBASE
 10
0.0
 20
0.0
 30
0.0
  9
$PLIMCHECK
 70
     0
  9
$PEXTMIN
 10
0.0
 20
0.0
 30
0.0
  9
$PEXTMAX
 10
420.0
 20
297.0
 30
0.0
  9
$PLIMMIN
 10
0.0
 20
0.0
  9
$PLIMMAX
 10
420.0
 20
297.0
  9
$UNITMODE
 70
     0
  9
$VISRETAIN
 70
     0
  9
$PLINEGEN
 70
     1
  9
$PSLTSCALE
 70
     0
  9
$TREEDEPTH
 70
  3020
  9
$CMLSTYLE
  2
Standard
  9
$CMLJUST
 70
     0
  9
$CMLSCALE
 40
1.0
  9
$PROXYGRAPHICS
 70
     0
  9
$MEASUREMENT
 70
     0
  9
$CELWEIGHT
370
     0
  9
$ENDCAPS
280
     0
  9
$JOINSTYLE
280
     0
  9
$LWDISPLAY
290
     0
  9
$INSUNITS
 70
     0
  9
$HYPERLINKBASE
  1

  9
$STYLESHEET
  1

  9
$XEDIT
290
     1
  9
$CEPSNTYPE
380
     0
  9
$PSTYLEMODE
290
     1
  9
$FINGERPRINTGUID
  2

  9
$VERSIONGUID
  2

  9
$EXTNAMES
290
     1
  9
$PSVPSCALE
 40
0.0
  0
ENDSEC
  0
SECTION
  2
CLASSES
  0
CLASS
  1
LWPOLYLINE
  2
AcDbPolyline
  3
AutoCAD 2000
 90
    32768
280
     0
281
     1
  0
CLASS
  1
IMAGE
  2
AcDbRasterImage
  3
ISM
 90
    32895
280
     0
281
     1
  0
CLASS
  1
OLE2FRAME
  2
AcDbOle2Frame
  3
AutoCAD 2000
 90
    32768
280
     0
281
     1
  0
CLASS
  1
HATCH
  2
AcDbHatch
  3
AutoCAD 2000
 90
    32768
280
     0
281
     1
  0
CLASS
  1
DICTIONARYVAR
  2
AcDbDictionaryVar
  3
AutoCAD 2000
 90
    32768
280
     0
281
     0
  0
CLASS
  1
RASTERVARIABLES
  2
AcDbRasterVariables
  3
ISM
 90
    32768
280
     0
281
     0
  0
CLASS
  1
IMAGEDEF
  2
AcDbRasterImageDef
  3
ISM
 90
    32768
280
     0
281
     0
  0
CLASS
  1
IMAGEDEF_REACTOR
  2
AcDbRasterImageDefReactor
  3
ISM
 90
    32769
280
     0
281
     0
  0
CLASS
  1
IDBUFFER
  2
AcDbIdBuffer
  3
AutoCAD 2000
 90
    32768
280
     0
281
     0
  0
CLASS
  1
SPATIAL_FILTER
  2
AcDbSpatialFilter
  3
AutoCAD 2000
 90
    32768
280
     0
281
     0
  0
CLASS
  1
XRECORD
  2
AcDbXrecord
  3
AutoCAD 2000
 90
    32768
280
     0
281
     0
  0
CLASS
  1
SORTENTSTABLE
  2
AcDbSortentsTable
  3
AutoCAD 2000
 90
    32768
280
     0
281
     0
  0
CLASS
  1
LAYER_INDEX
  2
AcDbLayerIndex
  3
AutoCAD 2000
 90
    32768
280
     0
281
     0
  0
CLASS
  1
SPATIAL_INDEX
  2
AcDbSpatialIndex
  3
AutoCAD 2000
 90
    32768
280
     0
281
     0
  0
CLASS
  1
OBJECT_PTR
  2
CAseDLPNTableRecord
  3
"ASE-LPNTableRecord"
 90
    32769
280
     0
281
     0
  0
CLASS
  1
LAYOUT
  2
AcDbLayout
  3
AutoCAD 2000
 90
        0
280
     0
281
     0
  0
CLASS
  1
PLOTSETTINGS
  2
AcDbPlotSettings
  3
AutoCAD 2000
 90
    32768
280
     0
281
     0
  0
CLASS
  1
ACDBDICTIONARYWDFLT
  2
AcDbDictionaryWithDefault
  3
AutoCAD 2000
 90
        0
280
     0
281
     0
  0
CLASS
  1
ACDBPLACEHOLDER
  2
AcDbPlaceHolder
  3
AutoCAD 2000
 90
        0
280
     0
281
     0
  0
CLASS
  1
VBA_PROJECT
  2
AcDbVbaProject
  3
acadvba
 90
    32768
280
     0
281
     0
  0
CLASS
  1
WIPEOUT
  2
AcDbWipeout
  3
WipeOut|AutoCAD Express Tool|expresstools@autodesk.com
 90
    32895
280
     0
281
     1
  0
CLASS
  1
WIPEOUTVARIABLES
  2
AcDbWipeoutVariables
  3
WipeOut|AutoCAD Express Tool|expresstools@autodesk.com
 90
        0
280
     0
281
     0
  0
CLASS
  1
RTEXT
  2
RText
  3
RText|AutoCAD Express Tool|expresstools@autodesk.com
 90
    32768
280
     0
281
     1
  0
CLASS
  1
ARCALIGNEDTEXT
  2
AcDbArcAlignedText
  3
ATEXT|AutoCAD Express Tool|expresstools@autodesk.com
 90
    32768
280
     0
281
     1
  0
ENDSEC
  0
SECTION
  2
TABLES
  0
TABLE
  2
VPORT
  5
7
100
AcDbSymbolTable
 70
     1
  0
VPORT
  5
15
100
AcDbSymbolTableRecord
100
AcDbViewportTableRecord
  2
*ACTIVE
 70
     0
 10
0.0
 20
0.0
 11
1.0
 21
1.0
 12
6.591288
 22
4.579184
 13
0.0
 23
0.0
 14
1.0
 24
1.0
 15
0.0
 25
0.0
 16
0.0
 26
0.0
 36
1.0
 17
0.0
 27
0.0
 37
0.0
 40
9.158369
 41
0.688564
 42
50.0
 43
0.0
 44
0.0
 50
0.0
 51
0.0
 71
     0
 72
   100
 73
     1
 74
     1
 75
     0
 76
     0
 77
     0
 78
     0
281
     0
 65
     0
110
0.0
120
0.0
130
0.0
111
1.0
121
0.0
131
0.0
112
0.0
122
1.0
132
0.0
345
0
346
0
 79
     0
146
0.0
  0
ENDTAB
  0
TABLE
  2
LTYPE
  5
4
100
AcDbSymbolTable
 70
     9
  0
LTYPE
  5
11
100
AcDbSymbolTableRecord
100
AcDbLinetypeTableRecord
  2
ByBlock
 70
    64
  3

 72
    65
 73
     0
 40
0.0
  0
LTYPE
  5
12
100
AcDbSymbolTableRecord
100
AcDbLinetypeTableRecord
  2
ByLayer
 70
    64
  3

 72
    65
 73
     0
 40
0.0
  0
LTYPE
  5
13
100
AcDbSymbolTableRecord
100
AcDbLinetypeTableRecord
  2
Continuous
 70
    64
  3
Solid line
 72
    65
 73
     0
 40
0.0
  0
LTYPE
  5
25
100
AcDbSymbolTableRecord
100
AcDbLinetypeTableRecord
  2
HIDDEN
 70
    64
  3
- - - - - - - - 
 72
    65
 73
     2
 40
12.6
 49
8.4
 74
     0
 49
-4.2
 74
     0
  0
LTYPE
  5
26
100
AcDbSymbolTableRecord
100
AcDbLinetypeTableRecord
  2
DOT
 70
    64
  3
･ ･ ･ ･ ･ ･ ･ ･ 
 72
    65
 73
     2
 40
8.0
 49
6.0
 74
     0
 49
-2.0
 74
     0
  0
LTYPE
  5
27
100
AcDbSymbolTableRecord
100
AcDbLinetypeTableRecord
  2
CENTER
 70
    64
  3
- ･ - ･ - ･ - ･ 
 72
    65
 73
     4
 40
50.5
 49
30.0
 74
     0
 49
-9.0
 74
     0
 49
2.5
 74
     0
 49
-9.0
 74
     0
  0
LTYPE
  5
28
100
AcDbSymbolTableRecord
100
AcDbLinetypeTableRecord
  2
PHANTOM
 70
    64
  3
- ･･ - ･･ - ･･ - ･･ 
 72
    65
 73
     6
 40
58.0
 49
30.0
 74
     0
 49
-9.0
 74
     0
 49
2.5
 74
     0
 49
-5.0
 74
     0
 49
2.5
 74
     0
 49
-9.0
 74
     0
  0
LTYPE
  5
29
100
AcDbSymbolTableRecord
100
AcDbLinetypeTableRecord
  2
ACAD_ISO06W100
 70
    64
  3
____ ... ____ ... ____
 72
    65
 73
     8
 40
37.5
 49
24.0
 74
     0
 49
-3.0
 74
     0
 49
0.5
 74
     0
 49
-3.0
 74
     0
 49
0.5
 74
     0
 49
-3.0
 74
     0
 49
0.5
 74
     0
 49
-3.0
 74
     0
  0
LTYPE
  5
2A
100
AcDbSymbolTableRecord
100
AcDbLinetypeTableRecord
  2
ACAD_ISO14W100
 70
    64
  3
__ . . . __ . . . __ . . . 
 72
    65
 73
     8
 40
25.5
 49
12.0
 74
     0
 49
-3.0
 74
     0
 49
0.5
 74
     0
 49
-3.0
 74
     0
 49
0.5
 74
     0
 49
-3.0
 74
     0
 49
0.5
 74
     0
 49
-3.0
 74
     0
  0
ENDTAB
  0
TABLE
  2
LAYER
  5
2
100
AcDbSymbolTable
 70
    32
  0
LAYER
  5
14
100
AcDbSymbolTableRecord
100
AcDbLayerTableRecord
  2
0
 70
     0
 62
     7
  6
Continuous
290
     1
370
    -3
390
1D
  0
LAYER
  5
2B
100
AcDbSymbolTableRecord
100
AcDbLayerTableRecord
  2
1
 70
     0
 62
     7
  6
Continuous
290
     1
370
    -3
390
1D
  0
LAYER
  5
2C
100
AcDbSymbolTableRecord
100
AcDbLayerTableRecord
  2
2
 70
     0
 62
   134
  6
Continuous
290
     1
370
    -3
390
1D
  0
LAYER
  5
2D
100
AcDbSymbolTableRecord
100
AcDbLayerTableRecord
  2
3
 70
     0
 62
   134
  6
Continuous
290
     1
370
    -3
390
1D
  0
LAYER
  5
2E
100
AcDbSymbolTableRecord
100
AcDbLayerTableRecord
  2
4
 70
     0
 62
     7
  6
Continuous
290
     1
370
    -3
390
1D
  0
LAYER
  5
2F
100
AcDbSymbolTableRecord
100
AcDbLayerTableRecord
  2
5
 70
     0
 62
    94
  6
Continuous
290
     1
370
    -3
390
1D
  0
LAYER
  5
30
100
AcDbSymbolTableRecord
100
AcDbLayerTableRecord
  2
6
 70
     0
 62
    14
  6
Continuous
290
     1
370
    -3
390
1D
  0
LAYER
  5
31
100
AcDbSymbolTableRecord
100
AcDbLayerTableRecord
  2
7
 70
     0
 62
     4
  6
Continuous
290
     1
370
    -3
390
1D
  0
LAYER
  5
32
100
AcDbSymbolTableRecord
100
AcDbLayerTableRecord
  2
8
 70
     0
 62
     6
  6
Continuous
290
     1
370
    -3
390
1D
  0
LAYER
  5
33
100
AcDbSymbolTableRecord
100
AcDbLayerTableRecord
  2
9
 70
     0
 62
     2
  6
Continuous
290
     1
370
    -3
390
1D
  0
LAYER
  5
34
100
AcDbSymbolTableRecord
100
AcDbLayerTableRecord
  2
10
 70
     0
 62
     3
  6
Continuous
290
     1
370
    -3
390
1D
  0
LAYER
  5
35
100
AcDbSymbolTableRecord
100
AcDbLayerTableRecord
  2
11
 70
     0
 62
   251
  6
Continuous
290
     1
370
    -3
390
1D
  0
LAYER
  5
36
100
AcDbSymbolTableRecord
100
AcDbLayerTableRecord
  2
12
 70
     0
 62
   136
  6
Continuous
290
     1
370
    -3
390
1D
  0
LAYER
  5
37
100
AcDbSymbolTableRecord
100
AcDbLayerTableRecord
  2
13
 70
     0
 62
   216
  6
Continuous
290
     1
370
    -3
390
1D
  0
LAYER
  5
38
100
AcDbSymbolTableRecord
100
AcDbLayerTableRecord
  2
14
 70
     0
 62
    56
  6
Continuous
290
     1
370
    -3
390
1D
  0
LAYER
  5
39
100
AcDbSymbolTableRecord
100
AcDbLayerTableRecord
  2
15
 70
     0
 62
    96
  6
Continuous
290
     1
370
    -3
390
1D
  0
LAYER
  5
3A
100
AcDbSymbolTableRecord
100
AcDbLayerTableRecord
  2
16
 70
     0
 62
    16
  6
Continuous
290
     1
370
    -3
390
1D
  0
LAYER
  5
3B
100
AcDbSymbolTableRecord
100
AcDbLayerTableRecord
  2
17
 70
     0
 62
   132
  6
Continuous
290
     1
370
    -3
390
1D
  0
LAYER
  5
3C
100
AcDbSymbolTableRecord
100
AcDbLayerTableRecord
  2
18
 70
     0
 62
   212
  6
Continuous
290
     1
370
    -3
390
1D
  0
LAYER
  5
3D
100
AcDbSymbolTableRecord
100
AcDbLayerTableRecord
  2
19
 70
     0
 62
    52
  6
Continuous
290
     1
370
    -3
390
1D
  0
LAYER
  5
3E
100
AcDbSymbolTableRecord
100
AcDbLayerTableRecord
  2
20
 70
     0
 62
   250
  6
Continuous
290
     1
370
    -3
390
1D
  0
LAYER
  5
3F
100
AcDbSymbolTableRecord
100
AcDbLayerTableRecord
  2
102
 70
     0
 62
     7
  6
Continuous
290
     1
370
    -3
390
1D
  0
LAYER
  5
40
100
AcDbSymbolTableRecord
100
AcDbLayerTableRecord
  2
103
 70
     0
 62
     7
  6
Continuous
290
     1
370
    -3
390
1D
  0
LAYER
  5
41
100
AcDbSymbolTableRecord
100
AcDbLayerTableRecord
  2
104
 70
     0
 62
     7
  6
Continuous
290
     1
370
    -3
390
1D
  0
LAYER
  5
42
100
AcDbSymbolTableRecord
100
AcDbLayerTableRecord
  2
105
 70
     0
 62
     7
  6
Continuous
290
     1
370
    -3
390
1D
  0
LAYER
  5
43
100
AcDbSymbolTableRecord
100
AcDbLayerTableRecord
  2
106
 70
     0
 62
     7
  6
Continuous
290
     1
370
    -3
390
1D
  0
LAYER
  5
44
100
AcDbSymbolTableRecord
100
AcDbLayerTableRecord
  2
128
 70
     0
 62
     7
  6
Continuous
290
     1
370
    -3
390
1D
  0
LAYER
  5
45
100
AcDbSymbolTableRecord
100
AcDbLayerTableRecord
  2
129
 70
     0
 62
     7
  6
Continuous
290
     1
370
    -3
390
1D
  0
LAYER
  5
46
100
AcDbSymbolTableRecord
100
AcDbLayerTableRecord
  2
130
 70
     0
 62
     7
  6
Continuous
290
     1
370
    -3
390
1D
  0
LAYER
  5
47
100
AcDbSymbolTableRecord
100
AcDbLayerTableRecord
  2
131
 70
     0
 62
     7
  6
Continuous
290
     1
370
    -3
390
1D
  0
LAYER
  5
48
100
AcDbSymbolTableRecord
100
AcDbLayerTableRecord
  2
200
 70
     0
 62
     7
  6
Continuous
290
     1
370
    -3
390
1D
  0
LAYER
  5
49
100
AcDbSymbolTableRecord
100
AcDbLayerTableRecord
  2
400
 70
     0
 62
     7
  6
Continuous
290
     1
370
    -3
390
1D
  0
ENDTAB
  0
TABLE
  2
STYLE
  5
3
100
AcDbSymbolTable
 70
     2
  0
STYLE
  5
17
100
AcDbSymbolTableRecord
100
AcDbTextStyleTableRecord
  2
Standard
 70
     0
 40
0.0
 41
1.0
 50
0.0
 71
     0
 42
0.0
  3
txt
  4
bigfont
  0
STYLE
  5
24
100
AcDbSymbolTableRecord
100
AcDbTextStyleTableRecord
  2
T_STANDARD
 70
    68
 40
10.0
 41
1.0
 50
0.0
 71
     0
 42
10.0
  3
txt
  4
bigfont
  0
ENDTAB
  0
TABLE
  2
VIEW
  5
5
100
AcDbSymbolTable
 70
     0
  0
ENDTAB
  0
TABLE
  2
UCS
  5
6
100
AcDbSymbolTable
 70
     0
  0
ENDTAB
  0
TABLE
  2
APPID
  5
8
100
AcDbSymbolTable
 70
     1
  0
APPID
  5
16
100
AcDbSymbolTableRecord
100
AcDbRegAppTableRecord
  2
ACAD
 70
     0
  0
ENDTAB
  0
TABLE
  2
DIMSTYLE
  5
9
100
AcDbSymbolTable
 70
     1
100
AcDbDimStyleTable
 71
     0
  0
DIMSTYLE
105
18
100
AcDbSymbolTableRecord
100
AcDbDimStyleTableRecord
  2
Standard
 70
     0
  3

  4

 40
1.0
 41
0.18
 42
0.0625
 43
0.38
 44
0.18
 45
0.0
 46
0.0
 47
0.0
 48
0.0
 71
     0
 72
     0
 73
     1
 74
     1
 75
     0
 76
     0
 77
     0
 78
     0
 79
     0
140
0.18
141
0.09
142
0.0
143
25.4
144
1.0
145
0.0
146
1.0
147
0.09
148
0.0
170
     0
171
     2
172
     0
173
     0
174
     0
175
     0
176
     0
177
     0
178
     0
179
     0
271
     4
272
     4
273
     2
274
     2
275
     0
276
     0
277
     2
278
    46
279
     0
280
     0
281
     0
282
     0
283
     1
284
     0
285
     0
286
     0
288
     0
340
17
341
0
342
0
343
0
344
0
371
    -2
372
    -2
  0
ENDTAB
  0
TABLE
  2
BLOCK_RECORD
  5
1
100
AcDbSymbolTable
 70
     9
  0
BLOCK_RECORD
  5
A
100
AcDbSymbolTableRecord
100
AcDbBlockTableRecord
  2
*MODEL_SPACE
340
20
  0
BLOCK_RECORD
  5
B
100
AcDbSymbolTableRecord
100
AcDbBlockTableRecord
  2
*PAPER_SPACE
340
21
  0
BLOCK_RECORD
  5
4A
100
AcDbSymbolTableRecord
100
AcDbBlockTableRecord
  2
*G0
340
0
102
{BLKREFS
331
4D
102
}
  0
BLOCK_RECORD
  5
76
100
AcDbSymbolTableRecord
100
AcDbBlockTableRecord
  2
*G1
340
0
102
{BLKREFS
331
7A
102
}
  0
BLOCK_RECORD
  5
B8
100
AcDbSymbolTableRecord
100
AcDbBlockTableRecord
  2
*D2
340
0
  0
BLOCK_RECORD
  5
C4
100
AcDbSymbolTableRecord
100
AcDbBlockTableRecord
  2
*D3
340
0
  0
BLOCK_RECORD
  5
D0
100
AcDbSymbolTableRecord
100
AcDbBlockTableRecord
  2
*D4
340
0
  0
BLOCK_RECORD
  5
194
100
AcDbSymbolTableRecord
100
AcDbBlockTableRecord
  2
*D5
340
0
  0
BLOCK_RECORD
  5
326
100
AcDbSymbolTableRecord
100
AcDbBlockTableRecord
  2
*D6
340
0
  0
BLOCK_RECORD
  5
332
100
AcDbSymbolTableRecord
100
AcDbBlockTableRecord
  2
*D7
340
0
  0
BLOCK_RECORD
  5
354
100
AcDbSymbolTableRecord
100
AcDbBlockTableRecord
  2
*G8
340
0
102
{BLKREFS
331
35B
102
}
  0
ENDTAB
  0
ENDSEC
  0
SECTION
  2
BLOCKS
  0
BLOCK
  5
D
100
AcDbEntity
  8
0
100
AcDbBlockBegin
  2
*MODEL_SPACE
 70
     0
 10
0.0
 20
0.0
 30
0.0
  3
*MODEL_SPACE
  1

  0
ENDBLK
  5
E
100
AcDbEntity
  8
0
100
AcDbBlockEnd
  0
BLOCK
  5
F
100
AcDbEntity
 67
     1
  8
0
100
AcDbBlockBegin
  2
*PAPER_SPACE
 70
     0
 10
0.0
 20
0.0
 30
0.0
  3
*PAPER_SPACE
  1

  0
ENDBLK
  5
10
100
AcDbEntity
 67
     1
  8
0
100
AcDbBlockEnd
  0
BLOCK
  5
4B
100
AcDbEntity
  8
0
370
     9
  6
Continuous
 62
     7
100
AcDbBlockBegin
  2
*G0
 70
     0
 10
0.0
 20
0.0
 30
0.0
  3
*G0
  1

  0
ENDBLK
  5
4C
100
AcDbEntity
  8
0
100
AcDbBlockEnd
  0
BLOCK
  5
77
100
AcDbEntity
  8
0
370
     9
  6
Continuous
 62
     7
100
AcDbBlockBegin
  2
*G1
 70
     0
 10
0.0
 20
0.0
 30
0.0
  3
*G1
  1

  0
LINE
  5
78
100
AcDbEntity
  8
15
370
     9
  6
Continuous
 62
    96
100
AcDbLine
 10
324.252714
 20
25.742498
 30
0.0
 11
324.519291
 21
25.742498
 31
0.0
  0
ENDBLK
  5
79
100
AcDbEntity
  8
0
100
AcDbBlockEnd
  0
BLOCK
  5
B9
100
AcDbEntity
  8
1
370
     9
  6
Continuous
 62
     7
100
AcDbBlockBegin
  2
*D2
 70
     0
 10
0.0
 20
0.0
 30
0.0
  3
*D2
  1

  0
LINE
  5
BA
100
AcDbEntity
  8
1
370
     9
  6
Continuous
 62
     7
100
AcDbLine
 10
205.255184
 20
220.746
 30
0.0
 11
205.255184
 21
164.014
 31
0.0
  0
LINE
  5
BB
100
AcDbEntity
  8
1
370
     9
  6
Continuous
 62
     7
100
AcDbLine
 10
207.255184
 20
209.014
 30
0.0
 11
186.72
 21
209.014
 31
0.0
  0
LINE
  5
BC
100
AcDbEntity
  8
1
370
     9
  6
Continuous
 62
     7
100
AcDbLine
 10
207.255184
 20
172.014
 30
0.0
 11
186.317
 21
172.014
 31
0.0
  0
LINE
  5
BD
100
AcDbEntity
  8
1
370
     9
  6
Continuous
 62
     7
100
AcDbLine
 10
205.255184
 20
209.014
 30
0.0
 11
204.219908
 21
212.877703
 31
0.0
  0
LINE
  5
BE
100
AcDbEntity
  8
1
370
     9
  6
Continuous
 62
     7
100
AcDbLine
 10
205.255184
 20
209.014
 30
0.0
 11
206.29046
 21
212.877703
 31
0.0
  0
LINE
  5
BF
100
AcDbEntity
  8
1
370
     9
  6
Continuous
 62
     7
100
AcDbLine
 10
205.255184
 20
172.014
 30
0.0
 11
206.29046
 21
168.150297
 31
0.0
  0
LINE
  5
C0
100
AcDbEntity
  8
1
370
     9
  6
Continuous
 62
     7
100
AcDbLine
 10
205.255184
 20
172.014
 30
0.0
 11
204.219908
 21
168.150297
 31
0.0
  0
TEXT
  5
C1
100
AcDbEntity
  8
1
370
     9
  6
Continuous
 62
     7
100
AcDbText
 10
204.755184
 20
214.746
 30
0.0
 40
3.0
  1
(37)
 50
90.0
 41
0.5
 11
204.755184
 21
214.746
 31
0.0
100
AcDbText
 73
     1
  0
ENDBLK
  5
C2
100
AcDbEntity
  8
1
370
     9
  6
Continuous
 62
     7
100
AcDbBlockEnd
  0
BLOCK
  5
C5
100
AcDbEntity
  8
1
370
     9
  6
Continuous
 62
     7
100
AcDbBlockBegin
  2
*D3
 70
     0
 10
0.0
 20
0.0
 30
0.0
  3
*D3
  1

  0
LINE
  5
C6
100
AcDbEntity
  8
1
370
     9
  6
Continuous
 62
     7
100
AcDbLine
 10
115.25
 20
142.59
 30
0.0
 11
190.25
 21
142.59
 31
0.0
  0
LINE
  5
C7
100
AcDbEntity
  8
1
370
     9
  6
Continuous
 62
     7
100
AcDbLine
 10
115.25
 20
140.59
 30
0.0
 11
115.25
 21
174.014
 31
0.0
  0
LINE
  5
C8
100
AcDbEntity
  8
1
370
     9
  6
Continuous
 62
     7
100
AcDbLine
 10
190.25
 20
140.59
 30
0.0
 11
190.25
 21
174.014
 31
0.0
  0
LINE
  5
C9
100
AcDbEntity
  8
1
370
     9
  6
Continuous
 62
     7
100
AcDbLine
 10
115.25
 20
142.59
 30
0.0
 11
117.568222
 21
143.211166
 31
0.0
  0
LINE
  5
CA
100
AcDbEntity
  8
1
370
     9
  6
Continuous
 62
     7
100
AcDbLine
 10
115.25
 20
142.59
 30
0.0
 11
117.568222
 21
141.968834
 31
0.0
  0
LINE
  5
CB
100
AcDbEntity
  8
1
370
     9
  6
Continuous
 62
     7
100
AcDbLine
 10
190.25
 20
142.59
 30
0.0
 11
187.931778
 21
141.968834
 31
0.0
  0
LINE
  5
CC
100
AcDbEntity
  8
1
370
     9
  6
Continuous
 62
     7
100
AcDbLine
 10
190.25
 20
142.59
 30
0.0
 11
187.931778
 21
143.211166
 31
0.0
  0
TEXT
  5
CD
100
AcDbEntity
  8
1
370
     9
  6
Continuous
 62
     7
100
AcDbText
 10
149.45
 20
143.09
 30
0.0
 40
3.0
  1
(75)
 41
0.55
 11
149.45
 21
143.09
 31
0.0
100
AcDbText
 73
     1
  0
ENDBLK
  5
CE
100
AcDbEntity
  8
1
370
     9
  6
Continuous
 62
     7
100
AcDbBlockEnd
  0
BLOCK
  5
D1
100
AcDbEntity
  8
1
370
     9
  6
Continuous
 62
     7
100
AcDbBlockBegin
  2
*D4
 70
     0
 10
0.0
 20
0.0
 30
0.0
  3
*D4
  1

  0
LINE
  5
D2
100
AcDbEntity
  8
1
370
     9
  6
Continuous
 62
     7
100
AcDbLine
 10
86.65
 20
107.814
 30
0.0
 11
86.65
 21
92.814
 31
0.0
  0
LINE
  5
D3
100
AcDbEntity
  8
1
370
     9
  6
Continuous
 62
     7
100
AcDbLine
 10
84.65
 20
107.814
 30
0.0
 11
118.25
 21
107.814
 31
0.0
  0
LINE
  5
D4
100
AcDbEntity
  8
1
370
     9
  6
Continuous
 62
     7
100
AcDbLine
 10
84.65
 20
92.814
 30
0.0
 11
115.25
 21
92.814
 31
0.0
  0
LINE
  5
D5
100
AcDbEntity
  8
1
370
     9
  6
Continuous
 62
     7
100
AcDbLine
 10
86.65
 20
107.814
 30
0.0
 11
87.271166
 21
105.495778
 31
0.0
  0
LINE
  5
D6
100
AcDbEntity
  8
1
370
     9
  6
Continuous
 62
     7
100
AcDbLine
 10
86.65
 20
107.814
 30
0.0
 11
86.028834
 21
105.495778
 31
0.0
  0
LINE
  5
D7
100
AcDbEntity
  8
1
370
     9
  6
Continuous
 62
     7
100
AcDbLine
 10
86.65
 20
92.814
 30
0.0
 11
86.028834
 21
95.132222
 31
0.0
  0
LINE
  5
D8
100
AcDbEntity
  8
1
370
     9
  6
Continuous
 62
     7
100
AcDbLine
 10
86.65
 20
92.814
 30
0.0
 11
87.271166
 21
95.132222
 31
0.0
  0
TEXT
  5
D9
100
AcDbEntity
  8
1
370
     9
  6
Continuous
 62
     7
100
AcDbText
 10
86.15
 20
97.014
 30
0.0
 40
3.0
  1
(15)
 50
90.0
 41
0.55
 11
86.15
 21
97.014
 31
0.0
100
AcDbText
 73
     1
  0
ENDBLK
  5
DA
100
AcDbEntity
  8
1
370
     9
  6
Continuous
 62
     7
100
AcDbBlockEnd
  0
BLOCK
  5
195
100
AcDbEntity
  8
1
370
     9
  6
Continuous
 62
     7
100
AcDbBlockBegin
  2
*D5
 70
     0
 10
0.0
 20
0.0
 30
0.0
  3
*D5
  1

  0
LINE
  5
196
100
AcDbEntity
  8
1
370
     9
  6
Continuous
 62
     7
100
AcDbLine
 10
268.75
 20
142.576
 30
0.0
 11
190.25
 21
142.576
 31
0.0
  0
LINE
  5
197
100
AcDbEntity
  8
1
370
     9
  6
Continuous
 62
     7
100
AcDbLine
 10
268.75
 20
140.576
 30
0.0
 11
268.75
 21
172.99845
 31
0.0
  0
LINE
  5
198
100
AcDbEntity
  8
1
370
     9
  6
Continuous
 62
     7
100
AcDbLine
 10
190.25
 20
140.576
 30
0.0
 11
190.25
 21
174.014
 31
0.0
  0
LINE
  5
199
100
AcDbEntity
  8
1
370
     9
  6
Continuous
 62
     7
100
AcDbLine
 10
268.75
 20
142.576
 30
0.0
 11
266.431778
 21
141.954834
 31
0.0
  0
LINE
  5
19A
100
AcDbEntity
  8
1
370
     9
  6
Continuous
 62
     7
100
AcDbLine
 10
268.75
 20
142.576
 30
0.0
 11
266.431778
 21
143.197166
 31
0.0
  0
LINE
  5
19B
100
AcDbEntity
  8
1
370
     9
  6
Continuous
 62
     7
100
AcDbLine
 10
190.25
 20
142.576
 30
0.0
 11
192.568222
 21
143.197166
 31
0.0
  0
LINE
  5
19C
100
AcDbEntity
  8
1
370
     9
  6
Continuous
 62
     7
100
AcDbLine
 10
190.25
 20
142.576
 30
0.0
 11
192.568222
 21
141.954834
 31
0.0
  0
TEXT
  5
19D
100
AcDbEntity
  8
1
370
     9
  6
Continuous
 62
     7
100
AcDbText
 10
225.35
 20
143.076
 30
0.0
 40
3.0
  1
(118)
 41
0.553333
 11
225.35
 21
143.076
 31
0.0
100
AcDbText
 73
     1
  0
ENDBLK
  5
19E
100
AcDbEntity
  8
1
370
     9
  6
Continuous
 62
     7
100
AcDbBlockEnd
  0
BLOCK
  5
327
100
AcDbEntity
  8
1
370
     9
  6
Continuous
 62
     7
100
AcDbBlockBegin
  2
*D6
 70
     0
 10
0.0
 20
0.0
 30
0.0
  3
*D6
  1

  0
LINE
  5
328
100
AcDbEntity
  8
1
370
     9
  6
Continuous
 62
     7
100
AcDbLine
 10
40.75
 20
142.603
 30
0.0
 11
48.75
 21
142.603
 31
0.0
  0
LINE
  5
329
100
AcDbEntity
  8
1
370
     9
  6
Continuous
 62
     7
100
AcDbLine
 10
40.75
 20
140.603
 30
0.0
 11
40.75
 21
177.812635
 31
0.0
  0
LINE
  5
32A
100
AcDbEntity
  8
1
370
     9
  6
Continuous
 62
     7
100
AcDbLine
 10
48.75
 20
140.603
 30
0.0
 11
48.75
 21
177.56262
 31
0.0
  0
LINE
  5
32B
100
AcDbEntity
  8
1
370
     9
  6
Continuous
 62
     7
100
AcDbLine
 10
40.75
 20
142.603
 30
0.0
 11
43.068222
 21
143.224166
 31
0.0
  0
LINE
  5
32C
100
AcDbEntity
  8
1
370
     9
  6
Continuous
 62
     7
100
AcDbLine
 10
40.75
 20
142.603
 30
0.0
 11
43.068222
 21
141.981834
 31
0.0
  0
LINE
  5
32D
100
AcDbEntity
  8
1
370
     9
  6
Continuous
 62
     7
100
AcDbLine
 10
48.75
 20
142.603
 30
0.0
 11
46.431778
 21
141.981834
 31
0.0
  0
LINE
  5
32E
100
AcDbEntity
  8
1
370
     9
  6
Continuous
 62
     7
100
AcDbLine
 10
48.75
 20
142.603
 30
0.0
 11
46.431778
 21
143.224166
 31
0.0
  0
TEXT
  5
32F
100
AcDbEntity
  8
1
370
     9
  6
Continuous
 62
     7
100
AcDbText
 10
42.3
 20
143.103
 30
0.0
 40
3.0
  1
(8)
 41
0.544444
 11
42.3
 21
143.103
 31
0.0
100
AcDbText
 73
     1
  0
ENDBLK
  5
330
100
AcDbEntity
  8
1
370
     9
  6
Continuous
 62
     7
100
AcDbBlockEnd
  0
BLOCK
  5
333
100
AcDbEntity
  8
1
370
     9
  6
Continuous
 62
     7
100
AcDbBlockBegin
  2
*D7
 70
     0
 10
0.0
 20
0.0
 30
0.0
  3
*D7
  1

  0
LINE
  5
334
100
AcDbEntity
  8
1
370
     9
  6
Continuous
 62
     7
100
AcDbLine
 10
268.75
 20
130.057
 30
0.0
 11
40.75
 21
130.057
 31
0.0
  0
LINE
  5
335
100
AcDbEntity
  8
1
370
     9
  6
Continuous
 62
     7
100
AcDbLine
 10
268.75
 20
128.057
 30
0.0
 11
268.75
 21
172.99845
 31
0.0
  0
LINE
  5
336
100
AcDbEntity
  8
1
370
     9
  6
Continuous
 62
     7
100
AcDbLine
 10
40.75
 20
128.057
 30
0.0
 11
40.75
 21
177.812635
 31
0.0
  0
LINE
  5
337
100
AcDbEntity
  8
1
370
     9
  6
Continuous
 62
     7
100
AcDbLine
 10
268.75
 20
130.057
 30
0.0
 11
266.431778
 21
129.435834
 31
0.0
  0
LINE
  5
338
100
AcDbEntity
  8
1
370
     9
  6
Continuous
 62
     7
100
AcDbLine
 10
268.75
 20
130.057
 30
0.0
 11
266.431778
 21
130.678166
 31
0.0
  0
LINE
  5
339
100
AcDbEntity
  8
1
370
     9
  6
Continuous
 62
     7
100
AcDbLine
 10
40.75
 20
130.057
 30
0.0
 11
43.068222
 21
130.678166
 31
0.0
  0
LINE
  5
33A
100
AcDbEntity
  8
1
370
     9
  6
Continuous
 62
     7
100
AcDbLine
 10
40.75
 20
130.057
 30
0.0
 11
43.068222
 21
129.435834
 31
0.0
  0
TEXT
  5
33B
100
AcDbEntity
  8
1
370
     9
  6
Continuous
 62
     7
100
AcDbText
 10
150.6
 20
130.557
 30
0.0
 40
3.0
  1
(291)
 41
0.553333
 11
150.6
 21
130.557
 31
0.0
100
AcDbText
 73
     1
  0
ENDBLK
  5
33C
100
AcDbEntity
  8
1
370
     9
  6
Continuous
 62
     7
100
AcDbBlockEnd
  0
BLOCK
  5
355
100
AcDbEntity
  8
0
370
     9
  6
Continuous
 62
     7
100
AcDbBlockBegin
  2
*G8
 70
     0
 10
0.0
 20
0.0
 30
0.0
  3
*G8
  1

  0
LINE
  5
356
100
AcDbEntity
  8
1
370
     9
  6
Continuous
 62
     7
100
AcDbLine
 10
132.75
 20
196.514
 30
0.0
 11
132.75
 21
184.514
 31
0.0
  0
LINE
  5
357
100
AcDbEntity
  8
1
370
     9
  6
Continuous
 62
     7
100
AcDbLine
 10
132.75
 20
184.514
 30
0.0
 11
172.75
 21
184.514
 31
0.0
  0
LINE
  5
358
100
AcDbEntity
  8
1
370
     9
  6
Continuous
 62
     7
100
AcDbLine
 10
172.75
 20
184.514
 30
0.0
 11
172.75
 21
196.514
 31
0.0
  0
LINE
  5
359
100
AcDbEntity
  8
1
370
     9
  6
Continuous
 62
     7
100
AcDbLine
 10
172.75
 20
196.514
 30
0.0
 11
132.75
 21
196.514
 31
0.0
  0
ENDBLK
  5
35A
100
AcDbEntity
  8
0
100
AcDbBlockEnd
  0
ENDSEC
  0
SECTION
  2
ENTITIES
  0
INSERT
  5
4D
100
AcDbEntity
  8
0
370
     9
  6
Continuous
 62
     7
100
AcDbBlockReference
  2
*G0
 10
0.0
 20
0.0
 30
0.0
  0
LINE
  5
4E
100
AcDbEntity
  8
15
370
    50
  6
Continuous
 62
    96
100
AcDbLine
 10
15.0
 20
272.0
 30
0.0
 11
15.0
 21
15.0
 31
0.0
  0
LINE
  5
4F
100
AcDbEntity
  8
15
370
    50
  6
Continuous
 62
    96
100
AcDbLine
 10
15.0
 20
15.0
 30
0.0
 11
400.0
 21
15.0
 31
0.0
  0
LINE
  5
50
100
AcDbEntity
  8
15
370
    50
  6
Continuous
 62
    96
100
AcDbLine
 10
15.0
 20
272.0
 30
0.0
 11
400.0
 21
272.0
 31
0.0
  0
LINE
  5
51
100
AcDbEntity
  8
15
370
    50
  6
Continuous
 62
    96
100
AcDbLine
 10
400.0
 20
272.0
 30
0.0
 11
400.0
 21
15.0
 31
0.0
  0
LINE
  5
52
100
AcDbEntity
  8
15
370
     9
  6
Continuous
 62
    96
100
AcDbLine
 10
364.336481
 20
20.700096
 30
0.0
 11
351.873818
 21
20.700096
 31
0.0
  0
TEXT
  5
53
100
AcDbEntity
  8
15
370
     9
  6
Continuous
 62
    96
100
AcDbText
 10
334.110576
 20
19.689758
 30
0.0
 40
1.8
  1
出入管理システム
 41
1.018519
 11
334.110576
 21
19.689758
 31
0.0
100
AcDbText
 73
     1
  0
TEXT
  5
54
100
AcDbEntity
  8
15
370
     9
  6
Continuous
 62
    96
100
AcDbText
 10
334.181133
 20
15.809079
 30
0.0
 40
3.6
  1
株式会社
 41
1.753472
 11
334.181133
 21
15.809079
 31
0.0
100
AcDbText
 73
     1
  0
LINE
  5
55
100
AcDbEntity
  8
15
370
    30
  6
Continuous
 62
    96
100
AcDbLine
 10
314.290135
 20
15.878561
 30
0.0
 11
317.456987
 21
15.878561
 31
0.0
  0
LINE
  5
56
100
AcDbEntity
  8
15
370
    30
  6
Continuous
 62
    96
100
AcDbLine
 10
332.925428
 20
19.727154
 30
0.0
 11
332.925428
 21
20.942497
 31
0.0
  0
LINE
  5
57
100
AcDbEntity
  8
15
370
    30
  6
Continuous
 62
    96
100
AcDbLine
 10
331.60881
 20
19.727154
 30
0.0
 11
332.925428
 21
19.727154
 31
0.0
  0
LINE
  5
58
100
AcDbEntity
  8
15
370
    30
  6
Continuous
 62
    96
100
AcDbLine
 10
331.60881
 20
15.878561
 30
0.0
 11
331.60881
 21
19.727154
 31
0.0
  0
LINE
  5
59
100
AcDbEntity
  8
15
370
    30
  6
Continuous
 62
    96
100
AcDbLine
 10
330.190905
 20
15.878561
 30
0.0
 11
331.60881
 21
15.878561
 31
0.0
  0
LINE
  5
5A
100
AcDbEntity
  8
15
370
    30
  6
Continuous
 62
    96
100
AcDbLine
 10
329.338856
 20
15.878561
 30
0.0
 11
327.557658
 21
15.878561
 31
0.0
  0
LINE
  5
5B
100
AcDbEntity
  8
15
370
    30
  6
Continuous
 62
    96
100
AcDbLine
 10
320.164308
 20
15.878561
 30
0.0
 11
324.519291
 21
15.878561
 31
0.0
  0
LINE
  5
5C
100
AcDbEntity
  8
15
370
    30
  6
Continuous
 62
    96
100
AcDbLine
 10
320.164308
 20
18.005414
 30
0.0
 11
320.164308
 21
15.878561
 31
0.0
  0
LINE
  5
5D
100
AcDbEntity
  8
15
370
    30
  6
Continuous
 62
    96
100
AcDbLine
 10
317.456987
 20
15.878561
 30
0.0
 11
322.39244
 21
20.765148
 31
0.0
  0
LINE
  5
5E
100
AcDbEntity
  8
15
370
    30
  6
Continuous
 62
    96
100
AcDbLine
 10
322.39244
 20
20.765148
 30
0.0
 11
322.39244
 21
18.005414
 31
0.0
  0
LINE
  5
5F
100
AcDbEntity
  8
15
370
    30
  6
Continuous
 62
    96
100
AcDbLine
 10
322.39244
 20
18.005414
 30
0.0
 11
320.164308
 21
18.005414
 31
0.0
  0
LINE
  5
60
100
AcDbEntity
  8
15
370
    30
  6
Continuous
 62
    96
100
AcDbLine
 10
324.519291
 20
18.714365
 30
0.0
 11
327.557658
 21
15.878561
 31
0.0
  0
ARC
  5
61
100
AcDbEntity
  8
15
370
    30
  6
Continuous
 62
    96
100
AcDbCircle
 10
326.949984
 20
19.220759
 30
0.0
 40
0.506395
100
AcDbArc
 50
-90.0
 51
90.0
  0
LINE
  5
62
100
AcDbEntity
  8
15
370
    30
  6
Continuous
 62
    96
100
AcDbLine
 10
324.519291
 20
18.714365
 30
0.0
 11
326.949984
 21
18.714365
 31
0.0
  0
LINE
  5
63
100
AcDbEntity
  8
15
370
    30
  6
Continuous
 62
    96
100
AcDbLine
 10
324.924408
 20
19.727154
 30
0.0
 11
326.949984
 21
19.727154
 31
0.0
  0
LINE
  5
64
100
AcDbEntity
  8
15
370
    30
  6
Continuous
 62
    96
100
AcDbLine
 10
324.924408
 20
20.942497
 30
0.0
 11
324.924408
 21
19.727154
 31
0.0
  0
LINE
  5
65
100
AcDbEntity
  8
15
370
    30
  6
Continuous
 62
    96
100
AcDbLine
 10
324.924408
 20
20.942497
 30
0.0
 11
327.333779
 21
20.942497
 31
0.0
  0
ARC
  5
66
100
AcDbEntity
  8
15
370
    30
  6
Continuous
 62
    96
100
AcDbCircle
 10
327.141879
 20
19.220759
 30
0.0
 40
1.732399
100
AcDbArc
 50
-76.055153
 51
83.640296
  0
LINE
  5
67
100
AcDbEntity
  8
15
370
    30
  6
Continuous
 62
    96
100
AcDbLine
 10
327.557658
 20
17.541014
 30
0.0
 11
329.338856
 21
15.878561
 31
0.0
  0
LINE
  5
68
100
AcDbEntity
  8
15
370
    30
  6
Continuous
 62
    96
100
AcDbLine
 10
332.925428
 20
20.942497
 30
0.0
 11
328.874278
 21
20.942497
 31
0.0
  0
LINE
  5
69
100
AcDbEntity
  8
15
370
    30
  6
Continuous
 62
    96
100
AcDbLine
 10
328.874278
 20
20.942497
 30
0.0
 11
328.874278
 21
19.727154
 31
0.0
  0
LINE
  5
6A
100
AcDbEntity
  8
15
370
    30
  6
Continuous
 62
    96
100
AcDbLine
 10
328.874278
 20
19.727154
 30
0.0
 11
330.190905
 21
19.727154
 31
0.0
  0
LINE
  5
6B
100
AcDbEntity
  8
15
370
    30
  6
Continuous
 62
    96
100
AcDbLine
 10
330.190905
 20
19.727154
 30
0.0
 11
330.190905
 21
15.878561
 31
0.0
  0
TEXT
  5
6C
100
AcDbEntity
  8
15
370
    30
  6
Continuous
 62
    96
100
AcDbText
 10
310.431027
 20
57.115582
 30
0.0
 40
2.5
  1
型　式
 41
0.855556
 11
310.431027
 21
57.115582
 31
0.0
100
AcDbText
 73
     1
  0
TEXT
  5
6D
100
AcDbEntity
  8
15
370
    30
  6
Continuous
 62
    96
100
AcDbText
 10
310.431027
 20
47.954625
 30
0.0
 40
2.5
  1
製品名
 41
0.855556
 11
310.431027
 21
47.954625
 31
0.0
100
AcDbText
 73
     1
  0
LINE
  5
6E
100
AcDbEntity
  8
15
370
    30
  6
Continuous
 62
    96
100
AcDbLine
 10
310.0
 20
15.0
 30
0.0
 11
310.0
 21
60.000007
 31
0.0
  0
LINE
  5
6F
100
AcDbEntity
  8
15
370
     9
  6
Continuous
 62
    96
100
AcDbLine
 10
310.0
 20
51.000007
 30
0.0
 11
400.0
 21
51.000007
 31
0.0
  0
LINE
  5
70
100
AcDbEntity
  8
15
370
     9
  6
Continuous
 62
    96
100
AcDbLine
 10
310.0
 20
51.0
 30
0.0
 11
400.0
 21
51.000007
 31
0.0
  0
LINE
  5
71
100
AcDbEntity
  8
15
370
     9
  6
Continuous
 62
    96
100
AcDbLine
 10
400.0
 20
27.000007
 30
0.0
 11
310.0
 21
27.0
 31
0.0
  0
LINE
  5
72
100
AcDbEntity
  8
15
370
     9
  6
Continuous
 62
    96
100
AcDbLine
 10
310.0
 20
42.0
 30
0.0
 11
399.698557
 21
42.0
 31
0.0
  0
LINE
  5
73
100
AcDbEntity
  8
15
370
     9
  6
Continuous
 62
    96
100
AcDbLine
 10
310.0
 20
60.000007
 30
0.0
 11
400.0
 21
60.000007
 31
0.0
  0
LINE
  5
74
100
AcDbEntity
  8
15
370
     9
  6
Continuous
 62
    96
100
AcDbLine
 10
324.519291
 20
15.878561
 30
0.0
 11
324.519291
 21
26.006435
 31
0.0
  0
LINE
  5
75
100
AcDbEntity
  8
15
370
     9
  6
Continuous
 62
    96
100
AcDbLine
 10
324.519291
 20
26.006435
 30
0.0
 11
314.290135
 21
15.878561
 31
0.0
  0
INSERT
  5
7A
100
AcDbEntity
  8
0
370
     9
  6
Continuous
 62
     7
100
AcDbBlockReference
  2
*G1
 10
0.0
 20
0.0
 30
0.0
  0
TEXT
  5
7B
100
AcDbEntity
  8
15
370
     9
  6
Continuous
 62
    96
100
AcDbText
 10
366.508819
 20
15.386878
 30
0.0
 40
10.0
  1
アート
 41
0.833333
 11
366.508819
 21
15.386878
 31
0.0
100
AcDbText
 73
     1
  0
LINE
  5
7C
100
AcDbEntity
  8
15
370
     9
  6
Continuous
 62
    96
100
AcDbLine
 10
335.0
 20
272.0
 30
0.0
 11
335.0
 21
266.5
 31
0.0
  0
LINE
  5
7D
100
AcDbEntity
  8
15
370
    30
  6
Continuous
 62
    96
100
AcDbLine
 10
310.0
 20
266.5
 30
0.0
 11
400.0
 21
266.5
 31
0.0
  0
LINE
  5
7E
100
AcDbEntity
  8
15
370
    30
  6
Continuous
 62
    96
100
AcDbLine
 10
310.0
 20
261.0
 30
0.0
 11
400.0
 21
261.0
 31
0.0
  0
LINE
  5
7F
100
AcDbEntity
  8
15
370
     9
  6
Continuous
 62
    96
100
AcDbLine
 10
310.0
 20
255.5
 30
0.0
 11
400.0
 21
255.5
 31
0.0
  0
LINE
  5
80
100
AcDbEntity
  8
15
370
     9
  6
Continuous
 62
    96
100
AcDbLine
 10
400.0
 20
250.0
 30
0.0
 11
310.0
 21
250.0
 31
0.0
  0
LINE
  5
81
100
AcDbEntity
  8
15
370
    50
  6
Continuous
 62
    96
100
AcDbLine
 10
400.0
 20
113.000021
 30
0.0
 11
400.0
 21
100.200016
 31
0.0
  0
TEXT
  5
82
100
AcDbEntity
  8
15
370
     9
  6
PHANTOM
 62
    96
100
AcDbText
 10
315.0
 20
267.75
 30
0.0
 40
3.0
  1
商品コード
 41
0.833333
 11
315.0
 21
267.75
 31
0.0
100
AcDbText
 73
     1
  0
TEXT
  5
83
100
AcDbEntity
  8
15
370
     9
  6
PHANTOM
 62
    96
100
AcDbText
 10
344.5
 20
262.25
 30
0.0
 40
3.0
  1
定　　　　　格
 41
0.833333
 11
344.5
 21
262.25
 31
0.0
100
AcDbText
 73
     1
  0
LINE
  5
84
100
AcDbEntity
  8
15
370
    30
  6
Continuous
 62
    96
100
AcDbLine
 10
310.0
 20
60.000007
 30
0.0
 11
400.0
 21
60.000007
 31
0.0
  0
LINE
  5
85
100
AcDbEntity
  8
15
370
    30
  6
Continuous
 62
    96
100
AcDbLine
 10
310.0
 20
65.500007
 30
0.0
 11
400.0
 21
65.500007
 31
0.0
  0
LINE
  5
86
100
AcDbEntity
  8
15
370
     9
  6
Continuous
 62
    96
100
AcDbLine
 10
335.0
 20
65.500007
 30
0.0
 11
335.0
 21
60.000007
 31
0.0
  0
TEXT
  5
87
100
AcDbEntity
  8
15
370
     9
  6
Continuous
 62
    96
100
AcDbText
 10
316.2
 20
61.250007
 30
0.0
 40
3.0
  1
図面履歴
 41
0.875
 11
316.2
 21
61.250007
 31
0.0
100
AcDbText
 73
     1
  0
LINE
  5
88
100
AcDbEntity
  8
15
370
    30
  6
Continuous
 62
    96
100
AcDbLine
 10
310.0
 20
272.0
 30
0.0
 11
310.0
 21
63.500007
 31
0.0
  0
LINE
  5
89
100
AcDbEntity
  8
15
370
    30
  6
Continuous
 62
    96
100
AcDbLine
 10
310.0
 20
60.000007
 30
0.0
 11
310.0
 21
63.500007
 31
0.0
  0
LINE
  5
8A
100
AcDbEntity
  8
15
370
    30
  6
Continuous
 62
    96
100
AcDbLine
 10
400.0
 20
63.49321
 30
0.0
 11
400.0
 21
110.924646
 31
0.0
  0
LINE
  5
8B
100
AcDbEntity
  8
15
370
    30
  6
Continuous
 62
    96
100
AcDbLine
 10
400.0
 20
63.500007
 30
0.0
 11
400.0
 21
111.178469
 31
0.0
  0
TEXT
  5
8C
100
AcDbEntity
  8
15
370
     9
  6
Continuous
 62
    96
100
AcDbText
 10
310.71945
 20
39.084987
 30
0.0
 40
2.500737
  1
縮尺（Ａ３）
 41
0.861111
 11
310.71945
 21
39.084987
 31
0.0
100
AcDbText
 73
     1
  0
LINE
  5
8D
100
AcDbEntity
  8
15
370
     9
  6
Continuous
 62
    96
100
AcDbLine
 10
324.977882
 20
33.001771
 30
0.0
 11
324.977882
 21
27.000001
 31
0.0
  0
TEXT
  5
8E
100
AcDbEntity
  8
15
370
     9
  6
Continuous
 62
    96
100
AcDbText
 10
312.111695
 20
28.509844
 30
0.0
 40
2.500737
  1
図面番号
 41
0.858333
 11
312.111695
 21
28.509844
 31
0.0
100
AcDbText
 73
     1
  0
TEXT
  5
8F
100
AcDbEntity
  8
15
370
     9
  6
Continuous
 62
    96
100
AcDbText
 10
376.04658
 20
38.852331
 30
0.0
 40
2.500737
  1
作図
 41
0.85
 11
376.04658
 21
38.852331
 31
0.0
100
AcDbText
 73
     1
  0
LINE
  5
90
100
AcDbEntity
  8
15
370
     9
  6
Continuous
 62
    96
100
AcDbLine
 10
324.977882
 20
42.004424
 30
0.0
 11
324.977882
 21
33.001771
 31
0.0
  0
LINE
  5
91
100
AcDbEntity
  8
15
370
     9
  6
Continuous
 62
    96
100
AcDbLine
 10
349.985254
 20
42.004424
 30
0.0
 11
349.985254
 21
33.001773
 31
0.0
  0
LINE
  5
92
100
AcDbEntity
  8
15
370
     9
  6
Continuous
 62
    96
100
AcDbLine
 10
374.992627
 20
42.004424
 30
0.0
 11
374.992627
 21
33.001774
 31
0.0
  0
LINE
  5
93
100
AcDbEntity
  8
15
370
     9
  6
Continuous
 62
    96
100
AcDbLine
 10
355.006961
 20
33.000003
 30
0.0
 11
355.006961
 21
27.000003
 31
0.0
  0
LINE
  5
94
100
AcDbEntity
  8
15
370
     9
  6
Continuous
 62
    96
100
AcDbLine
 10
362.006961
 20
33.000008
 30
0.0
 11
362.006961
 21
27.000008
 31
0.0
  0
TEXT
  5
95
100
AcDbEntity
  8
15
370
     9
  6
Continuous
 62
    96
100
AcDbText
 10
356.018627
 20
28.617941
 30
0.0
 40
2.5
  1
日付
 41
0.85
 11
356.018627
 21
28.617941
 31
0.0
100
AcDbText
 73
     1
  0
LINE
  5
96
100
AcDbEntity
  8
15
370
     9
  6
Continuous
 62
    96
100
AcDbLine
 10
388.0
 20
33.000006
 30
0.0
 11
388.0
 21
27.000006
 31
0.0
  0
LINE
  5
97
100
AcDbEntity
  8
15
370
     9
  6
Continuous
 62
    96
100
AcDbLine
 10
391.050689
 20
32.240006
 30
0.0
 11
391.050689
 21
27.760006
 31
0.0
  0
CIRCLE
  5
98
100
AcDbEntity
  8
15
370
     9
  6
Continuous
 62
    96
100
AcDbCircle
 10
391.050689
 20
30.000006
 30
0.0
 40
0.96
  0
CIRCLE
  5
99
100
AcDbEntity
  8
15
370
     9
  6
Continuous
 62
    96
100
AcDbCircle
 10
391.050689
 20
30.000006
 30
0.0
 40
1.6
  0
LINE
  5
9A
100
AcDbEntity
  8
15
370
     9
  6
Continuous
 62
    96
100
AcDbLine
 10
393.689961
 20
30.960006
 30
0.0
 11
393.689961
 21
29.040006
 31
0.0
  0
LINE
  5
9B
100
AcDbEntity
  8
15
370
     9
  6
Continuous
 62
    96
100
AcDbLine
 10
398.809961
 20
31.600006
 30
0.0
 11
398.809961
 21
28.400006
 31
0.0
  0
LINE
  5
9C
100
AcDbEntity
  8
15
370
     9
  6
Continuous
 62
    96
100
AcDbLine
 10
393.689961
 20
30.960006
 30
0.0
 11
398.809961
 21
31.600006
 31
0.0
  0
LINE
  5
9D
100
AcDbEntity
  8
15
370
     9
  6
Continuous
 62
    96
100
AcDbLine
 10
393.689961
 20
29.040006
 30
0.0
 11
398.809961
 21
28.400006
 31
0.0
  0
LINE
  5
9E
100
AcDbEntity
  8
15
370
     9
  6
Continuous
 62
    96
100
AcDbLine
 10
388.810689
 20
30.000006
 30
0.0
 11
399.355961
 21
30.000006
 31
0.0
  0
TEXT
  5
9F
100
AcDbEntity
  8
15
370
     9
  6
Continuous
 62
    96
100
AcDbText
 10
325.689041
 20
39.17943
 30
0.0
 40
2.500737
  1
承認
 41
0.85
 11
325.689041
 21
39.17943
 31
0.0
100
AcDbText
 73
     1
  0
TEXT
  5
A0
100
AcDbEntity
  8
15
370
     9
  6
Continuous
 62
    96
100
AcDbText
 10
350.696414
 20
39.17943
 30
0.0
 40
2.500737
  1
検図
 41
0.85
 11
350.696414
 21
39.17943
 31
0.0
100
AcDbText
 73
     1
  0
LINE
  5
A1
100
AcDbEntity
  8
15
370
     9
  6
Continuous
 62
    96
100
AcDbLine
 10
400.000259
 20
33.001776
 30
0.0
 11
309.973458
 21
33.001769
 31
0.0
  0
TEXT
  5
A2
100
AcDbEntity
  8
15
370
     9
  6
Continuous
 62
    96
100
AcDbText
 10
312.808324
 20
34.511669
 30
0.0
 40
3.000885
  1
１：１
 41
0.833333
 11
312.808324
 21
34.511669
 31
0.0
100
AcDbText
 73
     1
  0
TEXT
  5
A3
100
AcDbEntity
  8
15
370
     9
  6
Continuous
 62
    96
100
AcDbText
 10
202.036
 20
17.149
 30
0.0
 40
3.0
  1
*　記載されている会社名、製品名は、登録 商標または商標です。
 41
0.878026
 11
202.036
 21
17.149
 31
0.0
100
AcDbText
 73
     1
  0
TEXT
  5
A4
100
AcDbEntity
  8
15
370
     9
  6
PHANTOM
 62
    96
100
AcDbText
 10
318.0
 20
251.25
 30
0.0
 40
3.0
  1
重　量
 41
0.833333
 11
318.0
 21
251.25
 31
0.0
100
AcDbText
 73
     1
  0
TEXT
  5
A5
100
AcDbEntity
  8
15
370
     9
  6
PHANTOM
 62
    96
100
AcDbText
 10
318.0
 20
256.75
 30
0.0
 40
3.0
  1
彩　色
 41
0.833333
 11
318.0
 21
256.75
 31
0.0
100
AcDbText
 73
     1
  0
LINE
  5
A6
100
AcDbEntity
  8
15
370
     9
  6
Continuous
 62
    96
100
AcDbLine
 10
335.0
 20
261.00005
 30
0.0
 11
335.0
 21
250.0
 31
0.0
  0
LINE
  5
A7
100
AcDbEntity
  8
15
370
    30
  6
Continuous
 62
    96
100
AcDbLine
 10
399.993039
 20
250.0
 30
0.0
 11
309.993039
 21
250.0
 31
0.0
  0
TEXT
  5
A8
100
AcDbEntity
  8
15
370
     9
  6
Continuous
 62
    96
100
AcDbText
 10
332.37354
 20
34.567071
 30
0.0
 40
5.001475
  1
仲代
 41
0.85
 11
332.37354
 21
34.567071
 31
0.0
100
AcDbText
 73
     1
  0
TEXT
  5
A9
100
AcDbEntity
  8
15
370
     9
  6
Continuous
 62
    96
100
AcDbText
 10
359.069052
 20
34.568836
 30
0.0
 40
5.001475
  1
加川
 41
0.85
 11
359.069052
 21
34.568836
 31
0.0
100
AcDbText
 73
     1
  0
TEXT
  5
AA
100
AcDbEntity
  8
15
370
     9
  6
Continuous
 62
    96
100
AcDbText
 10
385.516012
 20
34.565302
 30
0.0
 40
5.001475
  1
辻
 41
0.833333
 11
385.516012
 21
34.565302
 31
0.0
100
AcDbText
 73
     1
  0
TEXT
  5
AB
100
AcDbEntity
  8
15
370
     9
  6
PHANTOM
 62
    96
100
AcDbText
 10
363.0
 20
251.25
 30
0.0
 40
3.0
  1
約30ｇ
 41
0.681818
 11
363.0
 21
251.25
 31
0.0
100
AcDbText
 73
     1
  0
TEXT
  5
AC
100
AcDbEntity
  8
15
370
     9
  6
PHANTOM
 62
    96
100
AcDbText
 10
351.0
 20
256.75
 30
0.0
 40
3.0
  1
黒（本体収縮チューブ）
 41
0.833333
 11
351.0
 21
256.75
 31
0.0
100
AcDbText
 73
     1
  0
TEXT
  5
AD
100
AcDbEntity
  8
15
370
     9
  6
Continuous
 62
    96
100
AcDbText
 10
357.0
 20
267.75
 30
0.0
 40
3.0
  1
０１３６０３１
 41
0.833333
 11
357.0
 21
267.75
 31
0.0
100
AcDbText
 73
     1
  0
TEXT
  5
AE
100
AcDbEntity
  8
15
370
     9
  6
Continuous
 62
    96
100
AcDbText
 10
344.3
 20
53.000007
 30
0.0
 40
5.0
  1
TS-OP-4W
 41
0.535
 11
344.3
 21
53.000007
 31
0.0
100
AcDbText
 73
     1
  0
TEXT
  5
AF
100
AcDbEntity
  8
15
370
     9
  6
Continuous
 62
    96
100
AcDbText
 10
329.1
 20
44.0
 30
0.0
 40
5.0
  1
操作表示器アダプター
 41
0.863333
 11
329.1
 21
44.0
 31
0.0
100
AcDbText
 73
     1
  0
LINE
  5
B0
100
AcDbEntity
  8
1
370
     9
  6
Continuous
 62
     7
100
AcDbLine
 10
136.511184
 20
209.014
 30
0.0
 11
137.193407
 21
211.314994
 31
0.0
  0
LINE
  5
B1
100
AcDbEntity
  8
1
370
     9
  6
Continuous
 62
     7
100
AcDbLine
 10
136.511184
 20
209.014
 30
0.0
 11
138.252503
 21
210.665607
 31
0.0
  0
POLYLINE
  5
B2
100
AcDbEntity
  8
1
370
     9
  6
Continuous
 62
     7
100
AcDb2dPolyline
 66
     1
 10
0.0
 20
0.0
 30
0.0
  0
VERTEX
  5
B3
100
AcDbEntity
  8
1
370
     9
  6
Continuous
 62
     7
100
AcDbVertex
100
AcDb2dVertex
 10
136.511184
 20
209.014
 30
0.0
  0
VERTEX
  5
B4
100
AcDbEntity
  8
1
370
     9
  6
Continuous
 62
     7
100
AcDbVertex
100
AcDb2dVertex
 10
144.807484
 20
222.544589
 30
0.0
  0
VERTEX
  5
B5
100
AcDbEntity
  8
1
370
     9
  6
Continuous
 62
     7
100
AcDbVertex
100
AcDb2dVertex
 10
176.607484
 20
222.544589
 30
0.0
  0
SEQEND
  5
B6
100
AcDbEntity
  8
1
370
     9
  6
Continuous
 62
     7
  0
TEXT
  5
B7
100
AcDbEntity
  8
1
370
     9
  6
Continuous
 62
     7
100
AcDbText
 10
144.807484
 20
223.044589
 30
0.0
 40
3.0
  1
収縮チューブ（黒色）
 41
0.883333
 11
144.807484
 21
223.044589
 31
0.0
100
AcDbText
 73
     1
  0
DIMENSION
  5
C3
100
AcDbEntity
  8
1
370
     9
  6
Continuous
 62
     7
100
AcDbDimension
  2
*D2
 10
205.255184
 20
209.014
 30
0.0
 11
204.755184
 21
217.746
 31
0.0
 71
     5
 72
     1
 41
1.0
 42
0.0
  1
(37)
100
AcDbAlignedDimension
 13
186.72
 23
209.014
 33
0.0
 14
186.317
 24
172.014
 34
0.0
 50
90.0
100
AcDbRotatedDimension
  0
DIMENSION
  5
CF
100
AcDbEntity
  8
1
370
     9
  6
Continuous
 62
     7
100
AcDbDimension
  2
*D3
 10
115.25
 20
142.59
 30
0.0
 11
152.75
 21
143.09
 31
0.0
 71
     5
 72
     1
 41
1.0
 42
0.0
  1
(75)
100
AcDbAlignedDimension
 13
115.25
 23
174.014
 33
0.0
 14
190.25
 24
174.014
 34
0.0
100
AcDbRotatedDimension
  0
DIMENSION
  5
DB
100
AcDbEntity
  8
1
370
     9
  6
Continuous
 62
     7
100
AcDbDimension
  2
*D4
 10
86.65
 20
107.814
 30
0.0
 11
86.15
 21
100.314
 31
0.0
 71
     5
 72
     1
 41
1.0
 42
0.0
  1
(15)
100
AcDbAlignedDimension
 13
118.25
 23
107.814
 33
0.0
 14
115.25
 24
92.814
 34
0.0
 50
90.0
100
AcDbRotatedDimension
  0
LINE
  5
DC
100
AcDbEntity
  8
1
370
     9
  6
HIDDEN
 62
     7
100
AcDbLine
 10
120.25
 20
208.014
 30
0.0
 11
185.25
 21
208.014
 31
0.0
  0
LINE
  5
DD
100
AcDbEntity
  8
1
370
     9
  6
HIDDEN
 62
     7
100
AcDbLine
 10
120.25
 20
173.014
 30
0.0
 11
120.25
 21
208.014
 31
0.0
  0
LINE
  5
DE
100
AcDbEntity
  8
1
370
     9
  6
HIDDEN
 62
     7
100
AcDbLine
 10
185.25
 20
173.014
 30
0.0
 11
185.25
 21
208.014
 31
0.0
  0
LINE
  5
DF
100
AcDbEntity
  8
1
370
     9
  6
HIDDEN
 62
     7
100
AcDbLine
 10
120.370485
 20
173.014
 30
0.0
 11
185.25
 21
173.014
 31
0.0
  0
LINE
  5
E0
100
AcDbEntity
  8
1
370
    30
  6
Continuous
 62
     7
100
AcDbLine
 10
190.25
 20
176.014
 30
0.0
 11
190.25
 21
205.014
 31
0.0
  0
ARC
  5
E1
100
AcDbEntity
  8
1
370
    30
  6
Continuous
 62
     7
100
AcDbCircle
 10
190.25
 20
172.014
 30
0.0
 40
4.0
100
AcDbArc
 50
90.0
 51
168.463041
  0
ARC
  5
E2
100
AcDbEntity
  8
1
370
    30
  6
Continuous
 62
     7
100
AcDbCircle
 10
185.351021
 20
173.014
 30
0.0
 40
1.0
100
AcDbArc
 50
-90.0
 51
-11.536959
  0
ARC
  5
E3
100
AcDbEntity
  8
1
370
    30
  6
Continuous
 62
     7
100
AcDbCircle
 10
190.25
 20
209.014
 30
0.0
 40
4.0
100
AcDbArc
 50
-168.463041
 51
-90.0
  0
ARC
  5
E4
100
AcDbEntity
  8
1
370
    30
  6
Continuous
 62
     7
100
AcDbCircle
 10
185.351021
 20
208.014
 30
0.0
 40
1.0
100
AcDbArc
 50
11.536959
 51
90.0
  0
ARC
  5
E5
100
AcDbEntity
  8
1
370
    30
  6
Continuous
 62
     7
100
AcDbCircle
 10
115.25
 20
209.014
 30
0.0
 40
4.0
100
AcDbArc
 50
-90.0
 51
-11.536959
  0
LINE
  5
E6
100
AcDbEntity
  8
1
370
    30
  6
Continuous
 62
     7
100
AcDbLine
 10
185.351021
 20
209.014
 30
0.0
 11
120.148979
 21
209.014
 31
0.0
  0
ARC
  5
E7
100
AcDbEntity
  8
1
370
    30
  6
Continuous
 62
     7
100
AcDbCircle
 10
120.148979
 20
208.014
 30
0.0
 40
1.0
100
AcDbArc
 50
90.0
 51
168.463041
  0
ARC
  5
E8
100
AcDbEntity
  8
1
370
    30
  6
Continuous
 62
     7
100
AcDbCircle
 10
115.25
 20
172.014
 30
0.0
 40
4.0
100
AcDbArc
 50
11.536959
 51
90.0
  0
LINE
  5
E9
100
AcDbEntity
  8
1
370
    30
  6
Continuous
 62
     7
100
AcDbLine
 10
185.351021
 20
172.014
 30
0.0
 11
120.148979
 21
172.014
 31
0.0
  0
ARC
  5
EA
100
AcDbEntity
  8
1
370
    30
  6
Continuous
 62
     7
100
AcDbCircle
 10
120.148979
 20
173.014
 30
0.0
 40
1.0
100
AcDbArc
 50
-168.463041
 51
-90.0
  0
LINE
  5
EB
100
AcDbEntity
  8
1
370
    30
  6
Continuous
 62
     7
100
AcDbLine
 10
115.25
 20
205.014
 30
0.0
 11
115.25
 21
176.014
 31
0.0
  0
LINE
  5
EC
100
AcDbEntity
  8
1
370
    30
  6
Continuous
 62
     7
100
AcDbLine
 10
249.75189
 20
179.308435
 30
0.0
 11
217.961635
 21
179.90927
 31
0.0
  0
LINE
  5
ED
100
AcDbEntity
  8
1
370
    30
  6
Continuous
 62
     7
100
AcDbLine
 10
215.951655
 20
179.94726
 30
0.0
 11
190.25
 21
180.43302
 31
0.0
  0
LINE
  5
EE
100
AcDbEntity
  8
1
370
    30
  6
Continuous
 62
     7
100
AcDbLine
 10
218.34521
 20
187.122995
 30
0.0
 11
190.25
 21
187.1539
 31
0.0
  0
LINE
  5
EF
100
AcDbEntity
  8
1
370
    30
  6
Continuous
 62
     7
100
AcDbLine
 10
249.75
 20
187.08845
 30
0.0
 11
220.346045
 21
187.120795
 31
0.0
  0
LINE
  5
F0
100
AcDbEntity
  8
1
370
    30
  6
Continuous
 62
     7
100
AcDbLine
 10
190.25
 20
177.993
 30
0.0
 11
216.89483
 21
178.02231
 31
0.0
  0
LINE
  5
F1
100
AcDbEntity
  8
1
370
    30
  6
Continuous
 62
     7
100
AcDbLine
 10
218.893305
 20
178.02451
 30
0.0
 11
249.75
 21
178.05845
 31
0.0
  0
LINE
  5
F2
100
AcDbEntity
  8
1
370
    30
  6
Continuous
 62
     7
100
AcDbLine
 10
218.16396
 20
179.323705
 30
0.0
 11
249.75
 21
179.35845
 31
0.0
  0
LINE
  5
F3
100
AcDbEntity
  8
1
370
    30
  6
Continuous
 62
     7
100
AcDbLine
 10
190.25
 20
179.293
 30
0.0
 11
216.16488
 21
179.32151
 31
0.0
  0
LINE
  5
F4
100
AcDbEntity
  8
1
370
    30
  6
Continuous
 62
     7
100
AcDbLine
 10
190.25
 20
183.24845
 30
0.0
 11
217.09752
 21
183.24845
 31
0.0
  0
LINE
  5
F5
100
AcDbEntity
  8
1
370
    30
  6
Continuous
 62
     7
100
AcDbLine
 10
190.25
 20
181.94845
 30
0.0
 11
216.15645
 21
181.94845
 31
0.0
  0
LINE
  5
F6
100
AcDbEntity
  8
1
370
    30
  6
Continuous
 62
     7
100
AcDbLine
 10
218.15645
 20
181.94845
 30
0.0
 11
249.75
 21
181.94845
 31
0.0
  0
LINE
  5
F7
100
AcDbEntity
  8
1
370
    30
  6
Continuous
 62
     7
100
AcDbLine
 10
219.09752
 20
183.24845
 30
0.0
 11
249.75
 21
183.24845
 31
0.0
  0
LINE
  5
F8
100
AcDbEntity
  8
1
370
    30
  6
Continuous
 62
     7
100
AcDbLine
 10
218.45869
 20
185.24702
 30
0.0
 11
190.25
 21
184.713875
 31
0.0
  0
LINE
  5
F9
100
AcDbEntity
  8
1
370
    30
  6
Continuous
 62
     7
100
AcDbLine
 10
190.25
 20
186.01393
 30
0.0
 11
218.51614
 21
186.54816
 31
0.0
  0
LINE
  5
FA
100
AcDbEntity
  8
1
370
    30
  6
Continuous
 62
     7
100
AcDbLine
 10
220.50804
 20
186.585805
 30
0.0
 11
249.75
 21
187.13848
 31
0.0
  0
LINE
  5
FB
100
AcDbEntity
  8
1
370
    30
  6
Continuous
 62
     7
100
AcDbLine
 10
249.75
 20
185.838425
 30
0.0
 11
220.47128
 21
185.285055
 31
0.0
  0
LINE
  5
FC
100
AcDbEntity
  8
1
370
    30
  6
Continuous
 62
     7
100
AcDbLine
 10
218.02384
 20
187.807905
 30
0.0
 11
190.25
 21
188.393935
 31
0.0
  0
LINE
  5
FD
100
AcDbEntity
  8
1
370
    30
  6
Continuous
 62
     7
100
AcDbLine
 10
249.75
 20
187.138485
 30
0.0
 11
220.047245
 21
187.765215
 31
0.0
  0
POLYLINE
  5
FE
100
AcDbEntity
  8
1
370
    30
  6
Continuous
 62
     7
100
AcDb2dPolyline
 66
     1
 10
0.0
 20
0.0
 30
0.0
 70
     2
  0
VERTEX
  5
FF
100
AcDbEntity
  8
1
370
    30
  6
Continuous
 62
     7
100
AcDbVertex
100
AcDb2dVertex
 10
218.293774
 20
176.372799
 30
0.0
  0
VERTEX
  5
100
100
AcDbEntity
  8
1
370
    30
  6
Continuous
 62
     7
100
AcDbVertex
100
AcDb2dVertex
 10
218.266318
 20
176.408455
 30
0.0
  0
VERTEX
  5
101
100
AcDbEntity
  8
1
370
    30
  6
Continuous
 62
     7
100
AcDbVertex
100
AcDb2dVertex
 10
218.184729
 20
176.514446
 30
0.0
  0
VERTEX
  5
102
100
AcDbEntity
  8
1
370
    30
  6
Continuous
 62
     7
100
AcDbVertex
100
AcDb2dVertex
 10
218.051498
 20
176.687841
 30
0.0
  0
VERTEX
  5
103
100
AcDbEntity
  8
1
370
    30
  6
Continuous
 62
     7
100
AcDbVertex
100
AcDb2dVertex
 10
217.871219
 20
176.923769
 30
0.0
  0
VERTEX
  5
104
100
AcDbEntity
  8
1
370
    30
  6
Continuous
 62
     7
100
AcDbVertex
100
AcDb2dVertex
 10
217.651037
 20
177.215462
 30
0.0
  0
VERTEX
  5
105
100
AcDbEntity
  8
1
370
    30
  6
Continuous
 62
     7
100
AcDbVertex
100
AcDb2dVertex
 10
217.400927
 20
177.554378
 30
0.0
  0
VERTEX
  5
106
100
AcDbEntity
  8
1
370
    30
  6
Continuous
 62
     7
100
AcDbVertex
100
AcDb2dVertex
 10
217.133554
 20
177.930402
 30
0.0
  0
VERTEX
  5
107
100
AcDbEntity
  8
1
370
    30
  6
Continuous
 62
     7
100
AcDbVertex
100
AcDb2dVertex
 10
216.863585
 20
178.332186
 30
0.0
  0
VERTEX
  5
108
100
AcDbEntity
  8
1
370
    30
  6
Continuous
 62
     7
100
AcDbVertex
100
AcDb2dVertex
 10
216.606433
 20
178.747575
 30
0.0
  0
VERTEX
  5
109
100
AcDbEntity
  8
1
370
    30
  6
Continuous
 62
     7
100
AcDbVertex
100
AcDb2dVertex
 10
216.376568
 20
179.164133
 30
0.0
  0
VERTEX
  5
10A
100
AcDbEntity
  8
1
370
    30
  6
Continuous
 62
     7
100
AcDbVertex
100
AcDb2dVertex
 10
216.185683
 20
179.569694
 30
0.0
  0
VERTEX
  5
10B
100
AcDbEntity
  8
1
370
    30
  6
Continuous
 62
     7
100
AcDbVertex
100
AcDb2dVertex
 10
216.041066
 20
179.952885
 30
0.0
  0
VERTEX
  5
10C
100
AcDbEntity
  8
1
370
    30
  6
Continuous
 62
     7
100
AcDbVertex
100
AcDb2dVertex
 10
215.944546
 20
180.303567
 30
0.0
  0
VERTEX
  5
10D
100
AcDbEntity
  8
1
370
    30
  6
Continuous
 62
     7
100
AcDbVertex
100
AcDb2dVertex
 10
215.892277
 20
180.613138
 30
0.0
  0
VERTEX
  5
10E
100
AcDbEntity
  8
1
370
    30
  6
Continuous
 62
     7
100
AcDbVertex
100
AcDb2dVertex
 10
215.875485
 20
180.874664
 30
0.0
  0
VERTEX
  5
10F
100
AcDbEntity
  8
1
370
    30
  6
Continuous
 62
     7
100
AcDbVertex
100
AcDb2dVertex
 10
215.882102
 20
181.08287
 30
0.0
  0
VERTEX
  5
110
100
AcDbEntity
  8
1
370
    30
  6
Continuous
 62
     7
100
AcDbVertex
100
AcDb2dVertex
 10
215.899022
 20
181.233994
 30
0.0
  0
VERTEX
  5
111
100
AcDbEntity
  8
1
370
    30
  6
Continuous
 62
     7
100
AcDbVertex
100
AcDb2dVertex
 10
215.914567
 20
181.325578
 30
0.0
  0
VERTEX
  5
112
100
AcDbEntity
  8
1
370
    30
  6
Continuous
 62
     7
100
AcDbVertex
100
AcDb2dVertex
 10
215.920702
 20
181.356251
 30
0.0
  0
VERTEX
  5
113
100
AcDbEntity
  8
1
370
    30
  6
Continuous
 62
     7
100
AcDbVertex
100
AcDb2dVertex
 10
215.927297
 20
181.386857
 30
0.0
  0
VERTEX
  5
114
100
AcDbEntity
  8
1
370
    30
  6
Continuous
 62
     7
100
AcDbVertex
100
AcDb2dVertex
 10
215.949564
 20
181.477441
 30
0.0
  0
VERTEX
  5
115
100
AcDbEntity
  8
1
370
    30
  6
Continuous
 62
     7
100
AcDbVertex
100
AcDb2dVertex
 10
215.994245
 20
181.624429
 30
0.0
  0
VERTEX
  5
116
100
AcDbEntity
  8
1
370
    30
  6
Continuous
 62
     7
100
AcDbVertex
100
AcDb2dVertex
 10
216.070393
 20
181.822235
 30
0.0
  0
VERTEX
  5
117
100
AcDbEntity
  8
1
370
    30
  6
Continuous
 62
     7
100
AcDbVertex
100
AcDb2dVertex
 10
216.186659
 20
182.063749
 30
0.0
  0
VERTEX
  5
118
100
AcDbEntity
  8
1
370
    30
  6
Continuous
 62
     7
100
AcDbVertex
100
AcDb2dVertex
 10
216.348488
 20
182.340884
 30
0.0
  0
VERTEX
  5
119
100
AcDbEntity
  8
1
370
    30
  6
Continuous
 62
     7
100
AcDbVertex
100
AcDb2dVertex
 10
216.555904
 20
182.645101
 30
0.0
  0
VERTEX
  5
11A
100
AcDbEntity
  8
1
370
    30
  6
Continuous
 62
     7
100
AcDbVertex
100
AcDb2dVertex
 10
216.802461
 20
182.96781
 30
0.0
  0
VERTEX
  5
11B
100
AcDbEntity
  8
1
370
    30
  6
Continuous
 62
     7
100
AcDbVertex
100
AcDb2dVertex
 10
217.075617
 20
183.300627
 30
0.0
  0
VERTEX
  5
11C
100
AcDbEntity
  8
1
370
    30
  6
Continuous
 62
     7
100
AcDbVertex
100
AcDb2dVertex
 10
217.35849
 20
183.635459
 30
0.0
  0
VERTEX
  5
11D
100
AcDbEntity
  8
1
370
    30
  6
Continuous
 62
     7
100
AcDbVertex
100
AcDb2dVertex
 10
217.632597
 20
183.964471
 30
0.0
  0
VERTEX
  5
11E
100
AcDbEntity
  8
1
370
    30
  6
Continuous
 62
     7
100
AcDbVertex
100
AcDb2dVertex
 10
217.880953
 20
184.279983
 30
0.0
  0
VERTEX
  5
11F
100
AcDbEntity
  8
1
370
    30
  6
Continuous
 62
     7
100
AcDbVertex
100
AcDb2dVertex
 10
218.090822
 20
184.57439
 30
0.0
  0
VERTEX
  5
120
100
AcDbEntity
  8
1
370
    30
  6
Continuous
 62
     7
100
AcDbVertex
100
AcDb2dVertex
 10
218.25549
 20
184.840166
 30
0.0
  0
VERTEX
  5
121
100
AcDbEntity
  8
1
370
    30
  6
Continuous
 62
     7
100
AcDbVertex
100
AcDb2dVertex
 10
218.374676
 20
185.070002
 30
0.0
  0
VERTEX
  5
122
100
AcDbEntity
  8
1
370
    30
  6
Continuous
 62
     7
100
AcDbVertex
100
AcDb2dVertex
 10
218.453506
 20
185.257077
 30
0.0
  0
VERTEX
  5
123
100
AcDbEntity
  8
1
370
    30
  6
Continuous
 62
     7
100
AcDbVertex
100
AcDb2dVertex
 10
218.500343
 20
185.395444
 30
0.0
  0
VERTEX
  5
124
100
AcDbEntity
  8
1
370
    30
  6
Continuous
 62
     7
100
AcDbVertex
100
AcDb2dVertex
 10
218.524005
 20
185.480452
 30
0.0
  0
VERTEX
  5
125
100
AcDbEntity
  8
1
370
    30
  6
Continuous
 62
     7
100
AcDbVertex
100
AcDb2dVertex
 10
218.531082
 20
185.509128
 30
0.0
  0
VERTEX
  5
126
100
AcDbEntity
  8
1
370
    30
  6
Continuous
 62
     7
100
AcDbVertex
100
AcDb2dVertex
 10
218.537706
 20
185.537847
 30
0.0
  0
VERTEX
  5
127
100
AcDbEntity
  8
1
370
    30
  6
Continuous
 62
     7
100
AcDbVertex
100
AcDb2dVertex
 10
218.554742
 20
185.623464
 30
0.0
  0
VERTEX
  5
128
100
AcDbEntity
  8
1
370
    30
  6
Continuous
 62
     7
100
AcDbVertex
100
AcDb2dVertex
 10
218.574225
 20
185.764335
 30
0.0
  0
VERTEX
  5
129
100
AcDbEntity
  8
1
370
    30
  6
Continuous
 62
     7
100
AcDbVertex
100
AcDb2dVertex
 10
218.584568
 20
185.957639
 30
0.0
  0
VERTEX
  5
12A
100
AcDbEntity
  8
1
370
    30
  6
Continuous
 62
     7
100
AcDbVertex
100
AcDb2dVertex
 10
218.572748
 20
186.199276
 30
0.0
  0
VERTEX
  5
12B
100
AcDbEntity
  8
1
370
    30
  6
Continuous
 62
     7
100
AcDbVertex
100
AcDb2dVertex
 10
218.526741
 20
186.483795
 30
0.0
  0
VERTEX
  5
12C
100
AcDbEntity
  8
1
370
    30
  6
Continuous
 62
     7
100
AcDbVertex
100
AcDb2dVertex
 10
218.43775
 20
186.804362
 30
0.0
  0
VERTEX
  5
12D
100
AcDbEntity
  8
1
370
    30
  6
Continuous
 62
     7
100
AcDbVertex
100
AcDb2dVertex
 10
218.301817
 20
187.152822
 30
0.0
  0
VERTEX
  5
12E
100
AcDbEntity
  8
1
370
    30
  6
Continuous
 62
     7
100
AcDbVertex
100
AcDb2dVertex
 10
218.120561
 20
187.519862
 30
0.0
  0
VERTEX
  5
12F
100
AcDbEntity
  8
1
370
    30
  6
Continuous
 62
     7
100
AcDbVertex
100
AcDb2dVertex
 10
217.900981
 20
187.89528
 30
0.0
  0
VERTEX
  5
130
100
AcDbEntity
  8
1
370
    30
  6
Continuous
 62
     7
100
AcDbVertex
100
AcDb2dVertex
 10
217.654411
 20
188.268344
 30
0.0
  0
VERTEX
  5
131
100
AcDbEntity
  8
1
370
    30
  6
Continuous
 62
     7
100
AcDbVertex
100
AcDb2dVertex
 10
217.394924
 20
188.6282
 30
0.0
  0
VERTEX
  5
132
100
AcDbEntity
  8
1
370
    30
  6
Continuous
 62
     7
100
AcDbVertex
100
AcDb2dVertex
 10
217.137532
 20
188.964299
 30
0.0
  0
VERTEX
  5
133
100
AcDbEntity
  8
1
370
    30
  6
Continuous
 62
     7
100
AcDbVertex
100
AcDb2dVertex
 10
216.896524
 20
189.266804
 30
0.0
  0
VERTEX
  5
134
100
AcDbEntity
  8
1
370
    30
  6
Continuous
 62
     7
100
AcDbVertex
100
AcDb2dVertex
 10
216.684235
 20
189.526931
 30
0.0
  0
VERTEX
  5
135
100
AcDbEntity
  8
1
370
    30
  6
Continuous
 62
     7
100
AcDbVertex
100
AcDb2dVertex
 10
216.510364
 20
189.737225
 30
0.0
  0
VERTEX
  5
136
100
AcDbEntity
  8
1
370
    30
  6
Continuous
 62
     7
100
AcDbVertex
100
AcDb2dVertex
 10
216.381851
 20
189.891747
 30
0.0
  0
VERTEX
  5
137
100
AcDbEntity
  8
1
370
    30
  6
Continuous
 62
     7
100
AcDbVertex
100
AcDb2dVertex
 10
216.303148
 20
189.986194
 30
0.0
  0
VERTEX
  5
138
100
AcDbEntity
  8
1
370
    30
  6
Continuous
 62
     7
100
AcDbVertex
100
AcDb2dVertex
 10
216.276663
 20
190.017966
 30
0.0
  0
SEQEND
  5
139
100
AcDbEntity
  8
1
370
    30
  6
Continuous
 62
     7
  0
POLYLINE
  5
13A
100
AcDbEntity
  8
1
370
    30
  6
Continuous
 62
     7
100
AcDb2dPolyline
 66
     1
 10
0.0
 20
0.0
 30
0.0
 70
     2
  0
VERTEX
  5
13B
100
AcDbEntity
  8
1
370
    30
  6
Continuous
 62
     7
100
AcDbVertex
100
AcDb2dVertex
 10
220.293774
 20
176.372799
 30
0.0
  0
VERTEX
  5
13C
100
AcDbEntity
  8
1
370
    30
  6
Continuous
 62
     7
100
AcDbVertex
100
AcDb2dVertex
 10
220.266318
 20
176.408455
 30
0.0
  0
VERTEX
  5
13D
100
AcDbEntity
  8
1
370
    30
  6
Continuous
 62
     7
100
AcDbVertex
100
AcDb2dVertex
 10
220.184729
 20
176.514446
 30
0.0
  0
VERTEX
  5
13E
100
AcDbEntity
  8
1
370
    30
  6
Continuous
 62
     7
100
AcDbVertex
100
AcDb2dVertex
 10
220.051498
 20
176.687841
 30
0.0
  0
VERTEX
  5
13F
100
AcDbEntity
  8
1
370
    30
  6
Continuous
 62
     7
100
AcDbVertex
100
AcDb2dVertex
 10
219.871219
 20
176.923769
 30
0.0
  0
VERTEX
  5
140
100
AcDbEntity
  8
1
370
    30
  6
Continuous
 62
     7
100
AcDbVertex
100
AcDb2dVertex
 10
219.651037
 20
177.215462
 30
0.0
  0
VERTEX
  5
141
100
AcDbEntity
  8
1
370
    30
  6
Continuous
 62
     7
100
AcDbVertex
100
AcDb2dVertex
 10
219.400927
 20
177.554378
 30
0.0
  0
VERTEX
  5
142
100
AcDbEntity
  8
1
370
    30
  6
Continuous
 62
     7
100
AcDbVertex
100
AcDb2dVertex
 10
219.133554
 20
177.930402
 30
0.0
  0
VERTEX
  5
143
100
AcDbEntity
  8
1
370
    30
  6
Continuous
 62
     7
100
AcDbVertex
100
AcDb2dVertex
 10
218.863585
 20
178.332186
 30
0.0
  0
VERTEX
  5
144
100
AcDbEntity
  8
1
370
    30
  6
Continuous
 62
     7
100
AcDbVertex
100
AcDb2dVertex
 10
218.606433
 20
178.747575
 30
0.0
  0
VERTEX
  5
145
100
AcDbEntity
  8
1
370
    30
  6
Continuous
 62
     7
100
AcDbVertex
100
AcDb2dVertex
 10
218.376568
 20
179.164133
 30
0.0
  0
VERTEX
  5
146
100
AcDbEntity
  8
1
370
    30
  6
Continuous
 62
     7
100
AcDbVertex
100
AcDb2dVertex
 10
218.185683
 20
179.569694
 30
0.0
  0
VERTEX
  5
147
100
AcDbEntity
  8
1
370
    30
  6
Continuous
 62
     7
100
AcDbVertex
100
AcDb2dVertex
 10
218.041066
 20
179.952885
 30
0.0
  0
VERTEX
  5
148
100
AcDbEntity
  8
1
370
    30
  6
Continuous
 62
     7
100
AcDbVertex
100
AcDb2dVertex
 10
217.944546
 20
180.303567
 30
0.0
  0
VERTEX
  5
149
100
AcDbEntity
  8
1
370
    30
  6
Continuous
 62
     7
100
AcDbVertex
100
AcDb2dVertex
 10
217.892277
 20
180.613138
 30
0.0
  0
VERTEX
  5
14A
100
AcDbEntity
  8
1
370
    30
  6
Continuous
 62
     7
100
AcDbVertex
100
AcDb2dVertex
 10
217.875485
 20
180.874664
 30
0.0
  0
VERTEX
  5
14B
100
AcDbEntity
  8
1
370
    30
  6
Continuous
 62
     7
100
AcDbVertex
100
AcDb2dVertex
 10
217.882102
 20
181.08287
 30
0.0
  0
VERTEX
  5
14C
100
AcDbEntity
  8
1
370
    30
  6
Continuous
 62
     7
100
AcDbVertex
100
AcDb2dVertex
 10
217.899022
 20
181.233994
 30
0.0
  0
VERTEX
  5
14D
100
AcDbEntity
  8
1
370
    30
  6
Continuous
 62
     7
100
AcDbVertex
100
AcDb2dVertex
 10
217.914567
 20
181.325578
 30
0.0
  0
VERTEX
  5
14E
100
AcDbEntity
  8
1
370
    30
  6
Continuous
 62
     7
100
AcDbVertex
100
AcDb2dVertex
 10
217.920702
 20
181.356251
 30
0.0
  0
VERTEX
  5
14F
100
AcDbEntity
  8
1
370
    30
  6
Continuous
 62
     7
100
AcDbVertex
100
AcDb2dVertex
 10
217.927297
 20
181.386857
 30
0.0
  0
VERTEX
  5
150
100
AcDbEntity
  8
1
370
    30
  6
Continuous
 62
     7
100
AcDbVertex
100
AcDb2dVertex
 10
217.949564
 20
181.477441
 30
0.0
  0
VERTEX
  5
151
100
AcDbEntity
  8
1
370
    30
  6
Continuous
 62
     7
100
AcDbVertex
100
AcDb2dVertex
 10
217.994245
 20
181.624429
 30
0.0
  0
VERTEX
  5
152
100
AcDbEntity
  8
1
370
    30
  6
Continuous
 62
     7
100
AcDbVertex
100
AcDb2dVertex
 10
218.070393
 20
181.822235
 30
0.0
  0
VERTEX
  5
153
100
AcDbEntity
  8
1
370
    30
  6
Continuous
 62
     7
100
AcDbVertex
100
AcDb2dVertex
 10
218.186659
 20
182.063749
 30
0.0
  0
VERTEX
  5
154
100
AcDbEntity
  8
1
370
    30
  6
Continuous
 62
     7
100
AcDbVertex
100
AcDb2dVertex
 10
218.348488
 20
182.340884
 30
0.0
  0
VERTEX
  5
155
100
AcDbEntity
  8
1
370
    30
  6
Continuous
 62
     7
100
AcDbVertex
100
AcDb2dVertex
 10
218.555904
 20
182.645101
 30
0.0
  0
VERTEX
  5
156
100
AcDbEntity
  8
1
370
    30
  6
Continuous
 62
     7
100
AcDbVertex
100
AcDb2dVertex
 10
218.802461
 20
182.96781
 30
0.0
  0
VERTEX
  5
157
100
AcDbEntity
  8
1
370
    30
  6
Continuous
 62
     7
100
AcDbVertex
100
AcDb2dVertex
 10
219.075617
 20
183.300627
 30
0.0
  0
VERTEX
  5
158
100
AcDbEntity
  8
1
370
    30
  6
Continuous
 62
     7
100
AcDbVertex
100
AcDb2dVertex
 10
219.35849
 20
183.635459
 30
0.0
  0
VERTEX
  5
159
100
AcDbEntity
  8
1
370
    30
  6
Continuous
 62
     7
100
AcDbVertex
100
AcDb2dVertex
 10
219.632597
 20
183.964471
 30
0.0
  0
VERTEX
  5
15A
100
AcDbEntity
  8
1
370
    30
  6
Continuous
 62
     7
100
AcDbVertex
100
AcDb2dVertex
 10
219.880953
 20
184.279983
 30
0.0
  0
VERTEX
  5
15B
100
AcDbEntity
  8
1
370
    30
  6
Continuous
 62
     7
100
AcDbVertex
100
AcDb2dVertex
 10
220.090822
 20
184.57439
 30
0.0
  0
VERTEX
  5
15C
100
AcDbEntity
  8
1
370
    30
  6
Continuous
 62
     7
100
AcDbVertex
100
AcDb2dVertex
 10
220.25549
 20
184.840166
 30
0.0
  0
VERTEX
  5
15D
100
AcDbEntity
  8
1
370
    30
  6
Continuous
 62
     7
100
AcDbVertex
100
AcDb2dVertex
 10
220.374676
 20
185.070002
 30
0.0
  0
VERTEX
  5
15E
100
AcDbEntity
  8
1
370
    30
  6
Continuous
 62
     7
100
AcDbVertex
100
AcDb2dVertex
 10
220.453506
 20
185.257077
 30
0.0
  0
VERTEX
  5
15F
100
AcDbEntity
  8
1
370
    30
  6
Continuous
 62
     7
100
AcDbVertex
100
AcDb2dVertex
 10
220.500343
 20
185.395444
 30
0.0
  0
VERTEX
  5
160
100
AcDbEntity
  8
1
370
    30
  6
Continuous
 62
     7
100
AcDbVertex
100
AcDb2dVertex
 10
220.524005
 20
185.480452
 30
0.0
  0
VERTEX
  5
161
100
AcDbEntity
  8
1
370
    30
  6
Continuous
 62
     7
100
AcDbVertex
100
AcDb2dVertex
 10
220.531082
 20
185.509128
 30
0.0
  0
VERTEX
  5
162
100
AcDbEntity
  8
1
370
    30
  6
Continuous
 62
     7
100
AcDbVertex
100
AcDb2dVertex
 10
220.537706
 20
185.537847
 30
0.0
  0
VERTEX
  5
163
100
AcDbEntity
  8
1
370
    30
  6
Continuous
 62
     7
100
AcDbVertex
100
AcDb2dVertex
 10
220.554742
 20
185.623464
 30
0.0
  0
VERTEX
  5
164
100
AcDbEntity
  8
1
370
    30
  6
Continuous
 62
     7
100
AcDbVertex
100
AcDb2dVertex
 10
220.574225
 20
185.764335
 30
0.0
  0
VERTEX
  5
165
100
AcDbEntity
  8
1
370
    30
  6
Continuous
 62
     7
100
AcDbVertex
100
AcDb2dVertex
 10
220.584568
 20
185.957639
 30
0.0
  0
VERTEX
  5
166
100
AcDbEntity
  8
1
370
    30
  6
Continuous
 62
     7
100
AcDbVertex
100
AcDb2dVertex
 10
220.572748
 20
186.199276
 30
0.0
  0
VERTEX
  5
167
100
AcDbEntity
  8
1
370
    30
  6
Continuous
 62
     7
100
AcDbVertex
100
AcDb2dVertex
 10
220.526741
 20
186.483795
 30
0.0
  0
VERTEX
  5
168
100
AcDbEntity
  8
1
370
    30
  6
Continuous
 62
     7
100
AcDbVertex
100
AcDb2dVertex
 10
220.43775
 20
186.804362
 30
0.0
  0
VERTEX
  5
169
100
AcDbEntity
  8
1
370
    30
  6
Continuous
 62
     7
100
AcDbVertex
100
AcDb2dVertex
 10
220.301817
 20
187.152822
 30
0.0
  0
VERTEX
  5
16A
100
AcDbEntity
  8
1
370
    30
  6
Continuous
 62
     7
100
AcDbVertex
100
AcDb2dVertex
 10
220.120561
 20
187.519862
 30
0.0
  0
VERTEX
  5
16B
100
AcDbEntity
  8
1
370
    30
  6
Continuous
 62
     7
100
AcDbVertex
100
AcDb2dVertex
 10
219.900981
 20
187.89528
 30
0.0
  0
VERTEX
  5
16C
100
AcDbEntity
  8
1
370
    30
  6
Continuous
 62
     7
100
AcDbVertex
100
AcDb2dVertex
 10
219.654411
 20
188.268344
 30
0.0
  0
VERTEX
  5
16D
100
AcDbEntity
  8
1
370
    30
  6
Continuous
 62
     7
100
AcDbVertex
100
AcDb2dVertex
 10
219.394924
 20
188.6282
 30
0.0
  0
VERTEX
  5
16E
100
AcDbEntity
  8
1
370
    30
  6
Continuous
 62
     7
100
AcDbVertex
100
AcDb2dVertex
 10
219.137532
 20
188.964299
 30
0.0
  0
VERTEX
  5
16F
100
AcDbEntity
  8
1
370
    30
  6
Continuous
 62
     7
100
AcDbVertex
100
AcDb2dVertex
 10
218.896524
 20
189.266804
 30
0.0
  0
VERTEX
  5
170
100
AcDbEntity
  8
1
370
    30
  6
Continuous
 62
     7
100
AcDbVertex
100
AcDb2dVertex
 10
218.684235
 20
189.526931
 30
0.0
  0
VERTEX
  5
171
100
AcDbEntity
  8
1
370
    30
  6
Continuous
 62
     7
100
AcDbVertex
100
AcDb2dVertex
 10
218.510364
 20
189.737225
 30
0.0
  0
VERTEX
  5
172
100
AcDbEntity
  8
1
370
    30
  6
Continuous
 62
     7
100
AcDbVertex
100
AcDb2dVertex
 10
218.381851
 20
189.891747
 30
0.0
  0
VERTEX
  5
173
100
AcDbEntity
  8
1
370
    30
  6
Continuous
 62
     7
100
AcDbVertex
100
AcDb2dVertex
 10
218.303148
 20
189.986194
 30
0.0
  0
VERTEX
  5
174
100
AcDbEntity
  8
1
370
    30
  6
Continuous
 62
     7
100
AcDbVertex
100
AcDb2dVertex
 10
218.276663
 20
190.017966
 30
0.0
  0
SEQEND
  5
175
100
AcDbEntity
  8
1
370
    30
  6
Continuous
 62
     7
  0
LINE
  5
176
100
AcDbEntity
  8
1
370
     9
  6
Continuous
 62
     7
100
AcDbLine
 10
262.25
 20
181.99845
 30
0.0
 11
261.25
 21
181.79845
 31
0.0
  0
LINE
  5
177
100
AcDbEntity
  8
1
370
     9
  6
Continuous
 62
     7
100
AcDbLine
 10
266.75
 20
181.99845
 30
0.0
 11
262.25
 21
181.99845
 31
0.0
  0
LINE
  5
178
100
AcDbEntity
  8
1
370
     9
  6
Continuous
 62
     7
100
AcDbLine
 10
262.25
 20
183.19845
 30
0.0
 11
266.75
 21
183.19845
 31
0.0
  0
LINE
  5
179
100
AcDbEntity
  8
1
370
     9
  6
Continuous
 62
     7
100
AcDbLine
 10
261.25
 20
183.39845
 30
0.0
 11
262.25
 21
183.19845
 31
0.0
  0
ARC
  5
17A
100
AcDbEntity
  8
1
370
    30
  6
Continuous
 62
     7
100
AcDbCircle
 10
250.75
 20
178.59845
 30
0.0
 40
1.0
100
AcDbArc
 50
90.0
 51
-90.0
  0
ARC
  5
17B
100
AcDbEntity
  8
1
370
    30
  6
Continuous
 62
     7
100
AcDbCircle
 10
250.75
 20
186.59845
 30
0.0
 40
1.0
100
AcDbArc
 50
90.0
 51
-90.0
  0
LINE
  5
17C
100
AcDbEntity
  8
1
370
    30
  6
Continuous
 62
     7
100
AcDbLine
 10
259.25
 20
177.59845
 30
0.0
 11
250.75
 21
177.59845
 31
0.0
  0
LINE
  5
17D
100
AcDbEntity
  8
1
370
    30
  6
Continuous
 62
     7
100
AcDbLine
 10
259.25
 20
179.59845
 30
0.0
 11
250.75
 21
179.59845
 31
0.0
  0
LINE
  5
17E
100
AcDbEntity
  8
1
370
    30
  6
Continuous
 62
     7
100
AcDbLine
 10
259.25
 20
185.59845
 30
0.0
 11
250.75
 21
185.59845
 31
0.0
  0
LINE
  5
17F
100
AcDbEntity
  8
1
370
    30
  6
Continuous
 62
     7
100
AcDbLine
 10
259.25
 20
187.59845
 30
0.0
 11
250.75
 21
187.59845
 31
0.0
  0
LINE
  5
180
100
AcDbEntity
  8
1
370
    30
  6
Continuous
 62
     7
100
AcDbLine
 10
259.25
 20
181.09845
 30
0.0
 11
259.25
 21
174.99845
 31
0.0
  0
LINE
  5
181
100
AcDbEntity
  8
1
370
    30
  6
Continuous
 62
     7
100
AcDbLine
 10
259.25
 20
190.19845
 30
0.0
 11
259.25
 21
184.09845
 31
0.0
  0
LINE
  5
182
100
AcDbEntity
  8
1
370
    30
  6
Continuous
 62
     7
100
AcDbLine
 10
261.25
 20
184.09845
 30
0.0
 11
261.25
 21
181.09845
 31
0.0
  0
LINE
  5
183
100
AcDbEntity
  8
1
370
    30
  6
Continuous
 62
     7
100
AcDbLine
 10
266.75
 20
181.09845
 30
0.0
 11
259.25
 21
181.09845
 31
0.0
  0
LINE
  5
184
100
AcDbEntity
  8
1
370
    30
  6
Continuous
 62
     7
100
AcDbLine
 10
266.75
 20
184.09845
 30
0.0
 11
266.75
 21
181.09845
 31
0.0
  0
LINE
  5
185
100
AcDbEntity
  8
1
370
    30
  6
Continuous
 62
     7
100
AcDbLine
 10
259.25
 20
184.09845
 30
0.0
 11
266.75
 21
184.09845
 31
0.0
  0
LINE
  5
186
100
AcDbEntity
  8
1
370
    30
  6
Continuous
 62
     7
100
AcDbLine
 10
268.75
 20
190.19845
 30
0.0
 11
259.25
 21
190.19845
 31
0.0
  0
LINE
  5
187
100
AcDbEntity
  8
1
370
    30
  6
Continuous
 62
     7
100
AcDbLine
 10
268.75
 20
174.99845
 30
0.0
 11
268.75
 21
190.19845
 31
0.0
  0
LINE
  5
188
100
AcDbEntity
  8
1
370
    30
  6
Continuous
 62
     7
100
AcDbLine
 10
259.25
 20
174.99845
 30
0.0
 11
268.75
 21
174.99845
 31
0.0
  0
LINE
  5
189
100
AcDbEntity
  8
1
370
    30
  6
Continuous
 62
     7
100
AcDbLine
 10
249.75
 20
188.89845
 30
0.0
 11
259.25
 21
188.89845
 31
0.0
  0
LINE
  5
18A
100
AcDbEntity
  8
1
370
    30
  6
Continuous
 62
     7
100
AcDbLine
 10
249.75
 20
176.29845
 30
0.0
 11
259.25
 21
176.29845
 31
0.0
  0
LINE
  5
18B
100
AcDbEntity
  8
1
370
    30
  6
Continuous
 62
     7
100
AcDbLine
 10
249.75
 20
188.89845
 30
0.0
 11
249.75
 21
176.29845
 31
0.0
  0
LINE
  5
18C
100
AcDbEntity
  8
1
370
     9
  6
Continuous
 62
     7
100
AcDbLine
 10
259.828
 20
190.19845
 30
0.0
 11
260.083987
 21
192.584759
 31
0.0
  0
LINE
  5
18D
100
AcDbEntity
  8
1
370
     9
  6
Continuous
 62
     7
100
AcDbLine
 10
259.828
 20
190.19845
 30
0.0
 11
261.242845
 21
192.137061
 31
0.0
  0
POLYLINE
  5
18E
100
AcDbEntity
  8
1
370
     9
  6
Continuous
 62
     7
100
AcDb2dPolyline
 66
     1
 10
0.0
 20
0.0
 30
0.0
  0
VERTEX
  5
18F
100
AcDbEntity
  8
1
370
     9
  6
Continuous
 62
     7
100
AcDbVertex
100
AcDb2dVertex
 10
259.828
 20
190.19845
 30
0.0
  0
VERTEX
  5
190
100
AcDbEntity
  8
1
370
     9
  6
Continuous
 62
     7
100
AcDbVertex
100
AcDb2dVertex
 10
269.399863
 20
214.975055
 30
0.0
  0
VERTEX
  5
191
100
AcDbEntity
  8
1
370
     9
  6
Continuous
 62
     7
100
AcDbVertex
100
AcDb2dVertex
 10
301.099863
 20
214.975055
 30
0.0
  0
SEQEND
  5
192
100
AcDbEntity
  8
1
370
     9
  6
Continuous
 62
     7
  0
TEXT
  5
193
100
AcDbEntity
  8
1
370
     9
  6
Continuous
 62
     7
100
AcDbText
 10
269.399863
 20
215.475055
 30
0.0
 40
3.0
  1
日本MOLEX 1625-09P1
 41
0.621569
 11
269.399863
 21
215.475055
 31
0.0
100
AcDbText
 73
     1
  0
DIMENSION
  5
19F
100
AcDbEntity
  8
1
370
     9
  6
Continuous
 62
     7
100
AcDbDimension
  2
*D5
 10
268.75
 20
142.576
 30
0.0
 11
229.5
 21
143.076
 31
0.0
 71
     5
 72
     1
 41
1.0
 42
0.0
  1
(118)
100
AcDbAlignedDimension
 13
268.75
 23
172.99845
 33
0.0
 14
190.25
 24
174.014
 34
0.0
100
AcDbRotatedDimension
  0
LINE
  5
1A0
100
AcDbEntity
  8
1
370
    30
  6
Continuous
 62
     7
100
AcDbLine
 10
100.336705
 20
98.514
 30
0.0
 11
115.25
 21
98.514
 31
0.0
  0
LINE
  5
1A1
100
AcDbEntity
  8
1
370
    30
  6
Continuous
 62
     7
100
AcDbLine
 10
99.227404
 20
99.514
 30
0.0
 11
115.25
 21
99.514
 31
0.0
  0
POLYLINE
  5
1A2
100
AcDbEntity
  8
1
370
    30
  6
Continuous
 62
     7
100
AcDb2dPolyline
 66
     1
 10
0.0
 20
0.0
 30
0.0
 70
     2
  0
VERTEX
  5
1A3
100
AcDbEntity
  8
1
370
    30
  6
Continuous
 62
     7
100
AcDbVertex
100
AcDb2dVertex
 10
100.436361
 20
102.888661
 30
0.0
  0
VERTEX
  5
1A4
100
AcDbEntity
  8
1
370
    30
  6
Continuous
 62
     7
100
AcDbVertex
100
AcDb2dVertex
 10
100.416488
 20
102.869395
 30
0.0
  0
VERTEX
  5
1A5
100
AcDbEntity
  8
1
370
    30
  6
Continuous
 62
     7
100
AcDbVertex
100
AcDb2dVertex
 10
100.357433
 20
102.812127
 30
0.0
  0
VERTEX
  5
1A6
100
AcDbEntity
  8
1
370
    30
  6
Continuous
 62
     7
100
AcDbVertex
100
AcDb2dVertex
 10
100.260996
 20
102.718442
 30
0.0
  0
VERTEX
  5
1A7
100
AcDbEntity
  8
1
370
    30
  6
Continuous
 62
     7
100
AcDbVertex
100
AcDb2dVertex
 10
100.13049
 20
102.590985
 30
0.0
  0
VERTEX
  5
1A8
100
AcDbEntity
  8
1
370
    30
  6
Continuous
 62
     7
100
AcDbVertex
100
AcDb2dVertex
 10
99.971061
 20
102.433435
 30
0.0
  0
VERTEX
  5
1A9
100
AcDbEntity
  8
1
370
    30
  6
Continuous
 62
     7
100
AcDbVertex
100
AcDb2dVertex
 10
99.78988
 20
102.250455
 30
0.0
  0
VERTEX
  5
1AA
100
AcDbEntity
  8
1
370
    30
  6
Continuous
 62
     7
100
AcDbVertex
100
AcDb2dVertex
 10
99.596048
 20
102.047571
 30
0.0
  0
VERTEX
  5
1AB
100
AcDbEntity
  8
1
370
    30
  6
Continuous
 62
     7
100
AcDbVertex
100
AcDb2dVertex
 10
99.4001
 20
101.830992
 30
0.0
  0
VERTEX
  5
1AC
100
AcDbEntity
  8
1
370
    30
  6
Continuous
 62
     7
100
AcDbVertex
100
AcDb2dVertex
 10
99.213106
 20
101.607365
 30
0.0
  0
VERTEX
  5
1AD
100
AcDbEntity
  8
1
370
    30
  6
Continuous
 62
     7
100
AcDbVertex
100
AcDb2dVertex
 10
99.045474
 20
101.383472
 30
0.0
  0
VERTEX
  5
1AE
100
AcDbEntity
  8
1
370
    30
  6
Continuous
 62
     7
100
AcDbVertex
100
AcDb2dVertex
 10
98.905634
 20
101.165917
 30
0.0
  0
VERTEX
  5
1AF
100
AcDbEntity
  8
1
370
    30
  6
Continuous
 62
     7
100
AcDbVertex
100
AcDb2dVertex
 10
98.798882
 20
100.960826
 30
0.0
  0
VERTEX
  5
1B0
100
AcDbEntity
  8
1
370
    30
  6
Continuous
 62
     7
100
AcDbVertex
100
AcDb2dVertex
 10
98.726625
 20
100.773599
 30
0.0
  0
VERTEX
  5
1B1
100
AcDbEntity
  8
1
370
    30
  6
Continuous
 62
     7
100
AcDbVertex
100
AcDb2dVertex
 10
98.686222
 20
100.608749
 30
0.0
  0
VERTEX
  5
1B2
100
AcDbEntity
  8
1
370
    30
  6
Continuous
 62
     7
100
AcDbVertex
100
AcDb2dVertex
 10
98.671518
 20
100.469838
 30
0.0
  0
VERTEX
  5
1B3
100
AcDbEntity
  8
1
370
    30
  6
Continuous
 62
     7
100
AcDbVertex
100
AcDb2dVertex
 10
98.674002
 20
100.359508
 30
0.0
  0
VERTEX
  5
1B4
100
AcDbEntity
  8
1
370
    30
  6
Continuous
 62
     7
100
AcDbVertex
100
AcDb2dVertex
 10
98.684408
 20
100.279584
 30
0.0
  0
VERTEX
  5
1B5
100
AcDbEntity
  8
1
370
    30
  6
Continuous
 62
     7
100
AcDbVertex
100
AcDb2dVertex
 10
98.694471
 20
100.231217
 30
0.0
  0
VERTEX
  5
1B6
100
AcDbEntity
  8
1
370
    30
  6
Continuous
 62
     7
100
AcDbVertex
100
AcDb2dVertex
 10
98.698501
 20
100.21503
 30
0.0
  0
VERTEX
  5
1B7
100
AcDbEntity
  8
1
370
    30
  6
Continuous
 62
     7
100
AcDbVertex
100
AcDb2dVertex
 10
98.702858
 20
100.198885
 30
0.0
  0
VERTEX
  5
1B8
100
AcDbEntity
  8
1
370
    30
  6
Continuous
 62
     7
100
AcDbVertex
100
AcDb2dVertex
 10
98.717705
 20
100.151136
 30
0.0
  0
VERTEX
  5
1B9
100
AcDbEntity
  8
1
370
    30
  6
Continuous
 62
     7
100
AcDbVertex
100
AcDb2dVertex
 10
98.747878
 20
100.073771
 30
0.0
  0
VERTEX
  5
1BA
100
AcDbEntity
  8
1
370
    30
  6
Continuous
 62
     7
100
AcDbVertex
100
AcDb2dVertex
 10
98.799898
 20
99.969887
 30
0.0
  0
VERTEX
  5
1BB
100
AcDbEntity
  8
1
370
    30
  6
Continuous
 62
     7
100
AcDbVertex
100
AcDb2dVertex
 10
98.880067
 20
99.843407
 30
0.0
  0
VERTEX
  5
1BC
100
AcDbEntity
  8
1
370
    30
  6
Continuous
 62
     7
100
AcDbVertex
100
AcDb2dVertex
 10
98.99248
 20
99.698757
 30
0.0
  0
VERTEX
  5
1BD
100
AcDbEntity
  8
1
370
    30
  6
Continuous
 62
     7
100
AcDbVertex
100
AcDb2dVertex
 10
99.137454
 20
99.540565
 30
0.0
  0
VERTEX
  5
1BE
100
AcDbEntity
  8
1
370
    30
  6
Continuous
 62
     7
100
AcDbVertex
100
AcDb2dVertex
 10
99.310754
 20
99.373422
 30
0.0
  0
VERTEX
  5
1BF
100
AcDbEntity
  8
1
370
    30
  6
Continuous
 62
     7
100
AcDbVertex
100
AcDb2dVertex
 10
99.503824
 20
99.201735
 30
0.0
  0
VERTEX
  5
1C0
100
AcDbEntity
  8
1
370
    30
  6
Continuous
 62
     7
100
AcDbVertex
100
AcDb2dVertex
 10
99.704972
 20
99.029674
 30
0.0
  0
VERTEX
  5
1C1
100
AcDbEntity
  8
1
370
    30
  6
Continuous
 62
     7
100
AcDbVertex
100
AcDb2dVertex
 10
99.901257
 20
98.861202
 30
0.0
  0
VERTEX
  5
1C2
100
AcDbEntity
  8
1
370
    30
  6
Continuous
 62
     7
100
AcDbVertex
100
AcDb2dVertex
 10
100.080639
 20
98.700141
 30
0.0
  0
VERTEX
  5
1C3
100
AcDbEntity
  8
1
370
    30
  6
Continuous
 62
     7
100
AcDbVertex
100
AcDb2dVertex
 10
100.233902
 20
98.550238
 30
0.0
  0
VERTEX
  5
1C4
100
AcDbEntity
  8
1
370
    30
  6
Continuous
 62
     7
100
AcDbVertex
100
AcDb2dVertex
 10
100.355913
 20
98.415187
 30
0.0
  0
VERTEX
  5
1C5
100
AcDbEntity
  8
1
370
    30
  6
Continuous
 62
     7
100
AcDbVertex
100
AcDb2dVertex
 10
100.44595
 20
98.298574
 30
0.0
  0
VERTEX
  5
1C6
100
AcDbEntity
  8
1
370
    30
  6
Continuous
 62
     7
100
AcDbVertex
100
AcDb2dVertex
 10
100.507038
 20
98.203758
 30
0.0
  0
VERTEX
  5
1C7
100
AcDbEntity
  8
1
370
    30
  6
Continuous
 62
     7
100
AcDbVertex
100
AcDb2dVertex
 10
100.544495
 20
98.133678
 30
0.0
  0
VERTEX
  5
1C8
100
AcDbEntity
  8
1
370
    30
  6
Continuous
 62
     7
100
AcDbVertex
100
AcDb2dVertex
 10
100.564056
 20
98.090641
 30
0.0
  0
VERTEX
  5
1C9
100
AcDbEntity
  8
1
370
    30
  6
Continuous
 62
     7
100
AcDbVertex
100
AcDb2dVertex
 10
100.570042
 20
98.076126
 30
0.0
  0
VERTEX
  5
1CA
100
AcDbEntity
  8
1
370
    30
  6
Continuous
 62
     7
100
AcDbVertex
100
AcDb2dVertex
 10
100.575724
 20
98.061591
 30
0.0
  0
VERTEX
  5
1CB
100
AcDbEntity
  8
1
370
    30
  6
Continuous
 62
     7
100
AcDbVertex
100
AcDb2dVertex
 10
100.590829
 20
98.018266
 30
0.0
  0
VERTEX
  5
1CC
100
AcDbEntity
  8
1
370
    30
  6
Continuous
 62
     7
100
AcDbVertex
100
AcDb2dVertex
 10
100.609898
 20
97.947004
 30
0.0
  0
VERTEX
  5
1CD
100
AcDbEntity
  8
1
370
    30
  6
Continuous
 62
     7
100
AcDbVertex
100
AcDb2dVertex
 10
100.624975
 20
97.849267
 30
0.0
  0
VERTEX
  5
1CE
100
AcDbEntity
  8
1
370
    30
  6
Continuous
 62
     7
100
AcDbVertex
100
AcDb2dVertex
 10
100.627077
 20
97.727162
 30
0.0
  0
VERTEX
  5
1CF
100
AcDbEntity
  8
1
370
    30
  6
Continuous
 62
     7
100
AcDbVertex
100
AcDb2dVertex
 10
100.607842
 20
97.58348
 30
0.0
  0
VERTEX
  5
1D0
100
AcDbEntity
  8
1
370
    30
  6
Continuous
 62
     7
100
AcDbVertex
100
AcDb2dVertex
 10
100.561032
 20
97.421701
 30
0.0
  0
VERTEX
  5
1D1
100
AcDbEntity
  8
1
370
    30
  6
Continuous
 62
     7
100
AcDbVertex
100
AcDb2dVertex
 10
100.483627
 20
97.245957
 30
0.0
  0
VERTEX
  5
1D2
100
AcDbEntity
  8
1
370
    30
  6
Continuous
 62
     7
100
AcDbVertex
100
AcDb2dVertex
 10
100.376337
 20
97.060952
 30
0.0
  0
VERTEX
  5
1D3
100
AcDbEntity
  8
1
370
    30
  6
Continuous
 62
     7
100
AcDbVertex
100
AcDb2dVertex
 10
100.243467
 20
96.871821
 30
0.0
  0
VERTEX
  5
1D4
100
AcDbEntity
  8
1
370
    30
  6
Continuous
 62
     7
100
AcDbVertex
100
AcDb2dVertex
 10
100.092238
 20
96.683958
 30
0.0
  0
VERTEX
  5
1D5
100
AcDbEntity
  8
1
370
    30
  6
Continuous
 62
     7
100
AcDbVertex
100
AcDb2dVertex
 10
99.931719
 20
96.502809
 30
0.0
  0
VERTEX
  5
1D6
100
AcDbEntity
  8
1
370
    30
  6
Continuous
 62
     7
100
AcDbVertex
100
AcDb2dVertex
 10
99.771623
 20
96.333661
 30
0.0
  0
VERTEX
  5
1D7
100
AcDbEntity
  8
1
370
    30
  6
Continuous
 62
     7
100
AcDbVertex
100
AcDb2dVertex
 10
99.621209
 20
96.181447
 30
0.0
  0
VERTEX
  5
1D8
100
AcDbEntity
  8
1
370
    30
  6
Continuous
 62
     7
100
AcDbVertex
100
AcDb2dVertex
 10
99.488453
 20
96.050571
 30
0.0
  0
VERTEX
  5
1D9
100
AcDbEntity
  8
1
370
    30
  6
Continuous
 62
     7
100
AcDbVertex
100
AcDb2dVertex
 10
99.379607
 20
95.944774
 30
0.0
  0
VERTEX
  5
1DA
100
AcDbEntity
  8
1
370
    30
  6
Continuous
 62
     7
100
AcDbVertex
100
AcDb2dVertex
 10
99.299119
 20
95.867037
 30
0.0
  0
VERTEX
  5
1DB
100
AcDbEntity
  8
1
370
    30
  6
Continuous
 62
     7
100
AcDbVertex
100
AcDb2dVertex
 10
99.249818
 20
95.819523
 30
0.0
  0
VERTEX
  5
1DC
100
AcDbEntity
  8
1
370
    30
  6
Continuous
 62
     7
100
AcDbVertex
100
AcDb2dVertex
 10
99.233227
 20
95.80354
 30
0.0
  0
SEQEND
  5
1DD
100
AcDbEntity
  8
1
370
    30
  6
Continuous
 62
     7
  0
LINE
  5
1DE
100
AcDbEntity
  8
1
370
     9
  6
HIDDEN
 62
     7
100
AcDbLine
 10
120.25
 20
97.814
 30
0.0
 11
120.25
 21
96.214
 31
0.0
  0
LINE
  5
1DF
100
AcDbEntity
  8
1
370
     9
  6
HIDDEN
 62
     7
100
AcDbLine
 10
120.75
 20
100.614
 30
0.0
 11
120.75
 21
97.814
 31
0.0
  0
LINE
  5
1E0
100
AcDbEntity
  8
1
370
     9
  6
HIDDEN
 62
     7
100
AcDbLine
 10
125.65
 20
100.614
 30
0.0
 11
125.65
 21
97.814
 31
0.0
  0
LINE
  5
1E1
100
AcDbEntity
  8
1
370
     9
  6
HIDDEN
 62
     7
100
AcDbLine
 10
120.75
 20
100.614
 30
0.0
 11
125.65
 21
100.614
 31
0.0
  0
LINE
  5
1E2
100
AcDbEntity
  8
1
370
     9
  6
HIDDEN
 62
     7
100
AcDbLine
 10
110.25
 20
99.514
 30
0.0
 11
120.75
 21
99.514
 31
0.0
  0
LINE
  5
1E3
100
AcDbEntity
  8
1
370
     9
  6
HIDDEN
 62
     7
100
AcDbLine
 10
110.25
 20
98.514
 30
0.0
 11
120.75
 21
98.514
 31
0.0
  0
POLYLINE
  5
1E4
100
AcDbEntity
  8
1
370
     9
  6
HIDDEN
 62
     7
100
AcDb2dPolyline
 66
     1
 10
0.0
 20
0.0
 30
0.0
 70
     2
  0
VERTEX
  5
1E5
100
AcDbEntity
  8
1
370
     9
  6
HIDDEN
 62
     7
100
AcDbVertex
100
AcDb2dVertex
 10
121.456317
 20
96.214
 30
0.0
  0
VERTEX
  5
1E6
100
AcDbEntity
  8
1
370
     9
  6
HIDDEN
 62
     7
100
AcDbVertex
100
AcDb2dVertex
 10
121.463301
 20
96.197944
 30
0.0
  0
VERTEX
  5
1E7
100
AcDbEntity
  8
1
370
     9
  6
HIDDEN
 62
     7
100
AcDbVertex
100
AcDb2dVertex
 10
121.484061
 20
96.150227
 30
0.0
  0
VERTEX
  5
1E8
100
AcDbEntity
  8
1
370
     9
  6
HIDDEN
 62
     7
100
AcDbVertex
100
AcDb2dVertex
 10
121.518026
 20
96.072278
 30
0.0
  0
VERTEX
  5
1E9
100
AcDbEntity
  8
1
370
     9
  6
HIDDEN
 62
     7
100
AcDbVertex
100
AcDb2dVertex
 10
121.564256
 20
95.966678
 30
0.0
  0
VERTEX
  5
1EA
100
AcDbEntity
  8
1
370
     9
  6
HIDDEN
 62
     7
100
AcDbVertex
100
AcDb2dVertex
 10
121.621451
 20
95.837366
 30
0.0
  0
VERTEX
  5
1EB
100
AcDbEntity
  8
1
370
     9
  6
HIDDEN
 62
     7
100
AcDbVertex
100
AcDb2dVertex
 10
121.687988
 20
95.689752
 30
0.0
  0
VERTEX
  5
1EC
100
AcDbEntity
  8
1
370
     9
  6
HIDDEN
 62
     7
100
AcDbVertex
100
AcDb2dVertex
 10
121.761957
 20
95.530637
 30
0.0
  0
VERTEX
  5
1ED
100
AcDbEntity
  8
1
370
     9
  6
HIDDEN
 62
     7
100
AcDbVertex
100
AcDb2dVertex
 10
121.841218
 20
95.367862
 30
0.0
  0
VERTEX
  5
1EE
100
AcDbEntity
  8
1
370
     9
  6
HIDDEN
 62
     7
100
AcDbVertex
100
AcDb2dVertex
 10
121.92348
 20
95.209688
 30
0.0
  0
VERTEX
  5
1EF
100
AcDbEntity
  8
1
370
     9
  6
HIDDEN
 62
     7
100
AcDbVertex
100
AcDb2dVertex
 10
122.006377
 20
95.063969
 30
0.0
  0
VERTEX
  5
1F0
100
AcDbEntity
  8
1
370
     9
  6
HIDDEN
 62
     7
100
AcDbVertex
100
AcDb2dVertex
 10
122.087559
 20
94.937255
 30
0.0
  0
VERTEX
  5
1F1
100
AcDbEntity
  8
1
370
     9
  6
HIDDEN
 62
     7
100
AcDbVertex
100
AcDb2dVertex
 10
122.164777
 20
94.833989
 30
0.0
  0
VERTEX
  5
1F2
100
AcDbEntity
  8
1
370
     9
  6
HIDDEN
 62
     7
100
AcDbVertex
100
AcDb2dVertex
 10
122.235961
 20
94.755985
 30
0.0
  0
VERTEX
  5
1F3
100
AcDbEntity
  8
1
370
     9
  6
HIDDEN
 62
     7
100
AcDbVertex
100
AcDb2dVertex
 10
122.299274
 20
94.702294
 30
0.0
  0
VERTEX
  5
1F4
100
AcDbEntity
  8
1
370
     9
  6
HIDDEN
 62
     7
100
AcDbVertex
100
AcDb2dVertex
 10
122.353154
 20
94.669538
 30
0.0
  0
VERTEX
  5
1F5
100
AcDbEntity
  8
1
370
     9
  6
HIDDEN
 62
     7
100
AcDbVertex
100
AcDb2dVertex
 10
122.396338
 20
94.652665
 30
0.0
  0
VERTEX
  5
1F6
100
AcDbEntity
  8
1
370
     9
  6
HIDDEN
 62
     7
100
AcDbVertex
100
AcDb2dVertex
 10
122.427856
 20
94.645998
 30
0.0
  0
VERTEX
  5
1F7
100
AcDbEntity
  8
1
370
     9
  6
HIDDEN
 62
     7
100
AcDbVertex
100
AcDb2dVertex
 10
122.447033
 20
94.644395
 30
0.0
  0
VERTEX
  5
1F8
100
AcDbEntity
  8
1
370
     9
  6
HIDDEN
 62
     7
100
AcDbVertex
100
AcDb2dVertex
 10
122.453469
 20
94.644286
 30
0.0
  0
VERTEX
  5
1F9
100
AcDbEntity
  8
1
370
     9
  6
HIDDEN
 62
     7
100
AcDbVertex
100
AcDb2dVertex
 10
122.459898
 20
94.644395
 30
0.0
  0
VERTEX
  5
1FA
100
AcDbEntity
  8
1
370
     9
  6
HIDDEN
 62
     7
100
AcDbVertex
100
AcDb2dVertex
 10
122.478965
 20
94.645998
 30
0.0
  0
VERTEX
  5
1FB
100
AcDbEntity
  8
1
370
     9
  6
HIDDEN
 62
     7
100
AcDbVertex
100
AcDb2dVertex
 10
122.510026
 20
94.652665
 30
0.0
  0
VERTEX
  5
1FC
100
AcDbEntity
  8
1
370
     9
  6
HIDDEN
 62
     7
100
AcDbVertex
100
AcDb2dVertex
 10
122.55205
 20
94.669538
 30
0.0
  0
VERTEX
  5
1FD
100
AcDbEntity
  8
1
370
     9
  6
HIDDEN
 62
     7
100
AcDbVertex
100
AcDb2dVertex
 10
122.603682
 20
94.702294
 30
0.0
  0
VERTEX
  5
1FE
100
AcDbEntity
  8
1
370
     9
  6
HIDDEN
 62
     7
100
AcDbVertex
100
AcDb2dVertex
 10
122.663308
 20
94.755985
 30
0.0
  0
VERTEX
  5
1FF
100
AcDbEntity
  8
1
370
     9
  6
HIDDEN
 62
     7
100
AcDbVertex
100
AcDb2dVertex
 10
122.729136
 20
94.833989
 30
0.0
  0
VERTEX
  5
200
100
AcDbEntity
  8
1
370
     9
  6
HIDDEN
 62
     7
100
AcDbVertex
100
AcDb2dVertex
 10
122.799264
 20
94.937255
 30
0.0
  0
VERTEX
  5
201
100
AcDbEntity
  8
1
370
     9
  6
HIDDEN
 62
     7
100
AcDbVertex
100
AcDb2dVertex
 10
122.871746
 20
95.063969
 30
0.0
  0
VERTEX
  5
202
100
AcDbEntity
  8
1
370
     9
  6
HIDDEN
 62
     7
100
AcDbVertex
100
AcDb2dVertex
 10
122.944637
 20
95.209688
 30
0.0
  0
VERTEX
  5
203
100
AcDbEntity
  8
1
370
     9
  6
HIDDEN
 62
     7
100
AcDbVertex
100
AcDb2dVertex
 10
123.016039
 20
95.367862
 30
0.0
  0
VERTEX
  5
204
100
AcDbEntity
  8
1
370
     9
  6
HIDDEN
 62
     7
100
AcDbVertex
100
AcDb2dVertex
 10
123.084124
 20
95.530637
 30
0.0
  0
VERTEX
  5
205
100
AcDbEntity
  8
1
370
     9
  6
HIDDEN
 62
     7
100
AcDbVertex
100
AcDb2dVertex
 10
123.147167
 20
95.689752
 30
0.0
  0
VERTEX
  5
206
100
AcDbEntity
  8
1
370
     9
  6
HIDDEN
 62
     7
100
AcDbVertex
100
AcDb2dVertex
 10
123.203569
 20
95.837366
 30
0.0
  0
VERTEX
  5
207
100
AcDbEntity
  8
1
370
     9
  6
HIDDEN
 62
     7
100
AcDbVertex
100
AcDb2dVertex
 10
123.251886
 20
95.966678
 30
0.0
  0
VERTEX
  5
208
100
AcDbEntity
  8
1
370
     9
  6
HIDDEN
 62
     7
100
AcDbVertex
100
AcDb2dVertex
 10
123.290865
 20
96.072278
 30
0.0
  0
VERTEX
  5
209
100
AcDbEntity
  8
1
370
     9
  6
HIDDEN
 62
     7
100
AcDbVertex
100
AcDb2dVertex
 10
123.319478
 20
96.150227
 30
0.0
  0
VERTEX
  5
20A
100
AcDbEntity
  8
1
370
     9
  6
HIDDEN
 62
     7
100
AcDbVertex
100
AcDb2dVertex
 10
123.336962
 20
96.197944
 30
0.0
  0
VERTEX
  5
20B
100
AcDbEntity
  8
1
370
     9
  6
HIDDEN
 62
     7
100
AcDbVertex
100
AcDb2dVertex
 10
123.342843
 20
96.214
 30
0.0
  0
SEQEND
  5
20C
100
AcDbEntity
  8
1
370
     9
  6
HIDDEN
 62
     7
  0
LINE
  5
20D
100
AcDbEntity
  8
1
370
     9
  6
HIDDEN
 62
     7
100
AcDbLine
 10
185.25
 20
97.814
 30
0.0
 11
185.25
 21
96.214
 31
0.0
  0
LINE
  5
20E
100
AcDbEntity
  8
1
370
     9
  6
HIDDEN
 62
     7
100
AcDbLine
 10
179.85
 20
100.614
 30
0.0
 11
179.85
 21
97.814
 31
0.0
  0
LINE
  5
20F
100
AcDbEntity
  8
1
370
     9
  6
HIDDEN
 62
     7
100
AcDbLine
 10
184.75
 20
100.614
 30
0.0
 11
184.75
 21
97.814
 31
0.0
  0
LINE
  5
210
100
AcDbEntity
  8
1
370
     9
  6
HIDDEN
 62
     7
100
AcDbLine
 10
179.85
 20
100.614
 30
0.0
 11
184.75
 21
100.614
 31
0.0
  0
LINE
  5
211
100
AcDbEntity
  8
1
370
     9
  6
HIDDEN
 62
     7
100
AcDbLine
 10
184.75
 20
99.514
 30
0.0
 11
195.25
 21
99.514
 31
0.0
  0
LINE
  5
212
100
AcDbEntity
  8
1
370
     9
  6
HIDDEN
 62
     7
100
AcDbLine
 10
184.75
 20
98.514
 30
0.0
 11
195.25
 21
98.514
 31
0.0
  0
POLYLINE
  5
213
100
AcDbEntity
  8
1
370
     9
  6
HIDDEN
 62
     7
100
AcDb2dPolyline
 66
     1
 10
0.0
 20
0.0
 30
0.0
 70
     2
  0
VERTEX
  5
214
100
AcDbEntity
  8
1
370
     9
  6
HIDDEN
 62
     7
100
AcDbVertex
100
AcDb2dVertex
 10
182.056317
 20
96.214
 30
0.0
  0
VERTEX
  5
215
100
AcDbEntity
  8
1
370
     9
  6
HIDDEN
 62
     7
100
AcDbVertex
100
AcDb2dVertex
 10
182.063301
 20
96.197944
 30
0.0
  0
VERTEX
  5
216
100
AcDbEntity
  8
1
370
     9
  6
HIDDEN
 62
     7
100
AcDbVertex
100
AcDb2dVertex
 10
182.084061
 20
96.150227
 30
0.0
  0
VERTEX
  5
217
100
AcDbEntity
  8
1
370
     9
  6
HIDDEN
 62
     7
100
AcDbVertex
100
AcDb2dVertex
 10
182.118026
 20
96.072278
 30
0.0
  0
VERTEX
  5
218
100
AcDbEntity
  8
1
370
     9
  6
HIDDEN
 62
     7
100
AcDbVertex
100
AcDb2dVertex
 10
182.164256
 20
95.966678
 30
0.0
  0
VERTEX
  5
219
100
AcDbEntity
  8
1
370
     9
  6
HIDDEN
 62
     7
100
AcDbVertex
100
AcDb2dVertex
 10
182.221451
 20
95.837366
 30
0.0
  0
VERTEX
  5
21A
100
AcDbEntity
  8
1
370
     9
  6
HIDDEN
 62
     7
100
AcDbVertex
100
AcDb2dVertex
 10
182.287988
 20
95.689752
 30
0.0
  0
VERTEX
  5
21B
100
AcDbEntity
  8
1
370
     9
  6
HIDDEN
 62
     7
100
AcDbVertex
100
AcDb2dVertex
 10
182.361957
 20
95.530637
 30
0.0
  0
VERTEX
  5
21C
100
AcDbEntity
  8
1
370
     9
  6
HIDDEN
 62
     7
100
AcDbVertex
100
AcDb2dVertex
 10
182.441218
 20
95.367862
 30
0.0
  0
VERTEX
  5
21D
100
AcDbEntity
  8
1
370
     9
  6
HIDDEN
 62
     7
100
AcDbVertex
100
AcDb2dVertex
 10
182.52348
 20
95.209688
 30
0.0
  0
VERTEX
  5
21E
100
AcDbEntity
  8
1
370
     9
  6
HIDDEN
 62
     7
100
AcDbVertex
100
AcDb2dVertex
 10
182.606377
 20
95.063969
 30
0.0
  0
VERTEX
  5
21F
100
AcDbEntity
  8
1
370
     9
  6
HIDDEN
 62
     7
100
AcDbVertex
100
AcDb2dVertex
 10
182.687559
 20
94.937255
 30
0.0
  0
VERTEX
  5
220
100
AcDbEntity
  8
1
370
     9
  6
HIDDEN
 62
     7
100
AcDbVertex
100
AcDb2dVertex
 10
182.764777
 20
94.833989
 30
0.0
  0
VERTEX
  5
221
100
AcDbEntity
  8
1
370
     9
  6
HIDDEN
 62
     7
100
AcDbVertex
100
AcDb2dVertex
 10
182.835961
 20
94.755985
 30
0.0
  0
VERTEX
  5
222
100
AcDbEntity
  8
1
370
     9
  6
HIDDEN
 62
     7
100
AcDbVertex
100
AcDb2dVertex
 10
182.899274
 20
94.702294
 30
0.0
  0
VERTEX
  5
223
100
AcDbEntity
  8
1
370
     9
  6
HIDDEN
 62
     7
100
AcDbVertex
100
AcDb2dVertex
 10
182.953154
 20
94.669538
 30
0.0
  0
VERTEX
  5
224
100
AcDbEntity
  8
1
370
     9
  6
HIDDEN
 62
     7
100
AcDbVertex
100
AcDb2dVertex
 10
182.996338
 20
94.652665
 30
0.0
  0
VERTEX
  5
225
100
AcDbEntity
  8
1
370
     9
  6
HIDDEN
 62
     7
100
AcDbVertex
100
AcDb2dVertex
 10
183.027856
 20
94.645998
 30
0.0
  0
VERTEX
  5
226
100
AcDbEntity
  8
1
370
     9
  6
HIDDEN
 62
     7
100
AcDbVertex
100
AcDb2dVertex
 10
183.047033
 20
94.644395
 30
0.0
  0
VERTEX
  5
227
100
AcDbEntity
  8
1
370
     9
  6
HIDDEN
 62
     7
100
AcDbVertex
100
AcDb2dVertex
 10
183.053469
 20
94.644286
 30
0.0
  0
VERTEX
  5
228
100
AcDbEntity
  8
1
370
     9
  6
HIDDEN
 62
     7
100
AcDbVertex
100
AcDb2dVertex
 10
183.059898
 20
94.644395
 30
0.0
  0
VERTEX
  5
229
100
AcDbEntity
  8
1
370
     9
  6
HIDDEN
 62
     7
100
AcDbVertex
100
AcDb2dVertex
 10
183.078965
 20
94.645998
 30
0.0
  0
VERTEX
  5
22A
100
AcDbEntity
  8
1
370
     9
  6
HIDDEN
 62
     7
100
AcDbVertex
100
AcDb2dVertex
 10
183.110026
 20
94.652665
 30
0.0
  0
VERTEX
  5
22B
100
AcDbEntity
  8
1
370
     9
  6
HIDDEN
 62
     7
100
AcDbVertex
100
AcDb2dVertex
 10
183.15205
 20
94.669538
 30
0.0
  0
VERTEX
  5
22C
100
AcDbEntity
  8
1
370
     9
  6
HIDDEN
 62
     7
100
AcDbVertex
100
AcDb2dVertex
 10
183.203682
 20
94.702294
 30
0.0
  0
VERTEX
  5
22D
100
AcDbEntity
  8
1
370
     9
  6
HIDDEN
 62
     7
100
AcDbVertex
100
AcDb2dVertex
 10
183.263308
 20
94.755985
 30
0.0
  0
VERTEX
  5
22E
100
AcDbEntity
  8
1
370
     9
  6
HIDDEN
 62
     7
100
AcDbVertex
100
AcDb2dVertex
 10
183.329136
 20
94.833989
 30
0.0
  0
VERTEX
  5
22F
100
AcDbEntity
  8
1
370
     9
  6
HIDDEN
 62
     7
100
AcDbVertex
100
AcDb2dVertex
 10
183.399264
 20
94.937255
 30
0.0
  0
VERTEX
  5
230
100
AcDbEntity
  8
1
370
     9
  6
HIDDEN
 62
     7
100
AcDbVertex
100
AcDb2dVertex
 10
183.471746
 20
95.063969
 30
0.0
  0
VERTEX
  5
231
100
AcDbEntity
  8
1
370
     9
  6
HIDDEN
 62
     7
100
AcDbVertex
100
AcDb2dVertex
 10
183.544637
 20
95.209688
 30
0.0
  0
VERTEX
  5
232
100
AcDbEntity
  8
1
370
     9
  6
HIDDEN
 62
     7
100
AcDbVertex
100
AcDb2dVertex
 10
183.616039
 20
95.367862
 30
0.0
  0
VERTEX
  5
233
100
AcDbEntity
  8
1
370
     9
  6
HIDDEN
 62
     7
100
AcDbVertex
100
AcDb2dVertex
 10
183.684124
 20
95.530637
 30
0.0
  0
VERTEX
  5
234
100
AcDbEntity
  8
1
370
     9
  6
HIDDEN
 62
     7
100
AcDbVertex
100
AcDb2dVertex
 10
183.747167
 20
95.689752
 30
0.0
  0
VERTEX
  5
235
100
AcDbEntity
  8
1
370
     9
  6
HIDDEN
 62
     7
100
AcDbVertex
100
AcDb2dVertex
 10
183.803569
 20
95.837366
 30
0.0
  0
VERTEX
  5
236
100
AcDbEntity
  8
1
370
     9
  6
HIDDEN
 62
     7
100
AcDbVertex
100
AcDb2dVertex
 10
183.851886
 20
95.966678
 30
0.0
  0
VERTEX
  5
237
100
AcDbEntity
  8
1
370
     9
  6
HIDDEN
 62
     7
100
AcDbVertex
100
AcDb2dVertex
 10
183.890865
 20
96.072278
 30
0.0
  0
VERTEX
  5
238
100
AcDbEntity
  8
1
370
     9
  6
HIDDEN
 62
     7
100
AcDbVertex
100
AcDb2dVertex
 10
183.919478
 20
96.150227
 30
0.0
  0
VERTEX
  5
239
100
AcDbEntity
  8
1
370
     9
  6
HIDDEN
 62
     7
100
AcDbVertex
100
AcDb2dVertex
 10
183.936962
 20
96.197944
 30
0.0
  0
VERTEX
  5
23A
100
AcDbEntity
  8
1
370
     9
  6
HIDDEN
 62
     7
100
AcDbVertex
100
AcDb2dVertex
 10
183.942843
 20
96.214
 30
0.0
  0
SEQEND
  5
23B
100
AcDbEntity
  8
1
370
     9
  6
HIDDEN
 62
     7
  0
LINE
  5
23C
100
AcDbEntity
  8
1
370
     9
  6
HIDDEN
 62
     7
100
AcDbLine
 10
120.25
 20
96.214
 30
0.0
 11
185.25
 21
96.214
 31
0.0
  0
LINE
  5
23D
100
AcDbEntity
  8
1
370
     9
  6
HIDDEN
 62
     7
100
AcDbLine
 10
120.25
 20
97.814
 30
0.0
 11
185.25
 21
97.814
 31
0.0
  0
ARC
  5
23E
100
AcDbEntity
  8
1
370
    30
  6
Continuous
 62
     7
100
AcDbCircle
 10
114.624105
 20
90.439817
 30
0.0
 40
6.106344
100
AcDbArc
 50
22.88022
 51
84.116898
  0
POLYLINE
  5
23F
100
AcDbEntity
  8
1
370
    30
  6
Continuous
 62
     7
100
AcDb2dPolyline
 66
     1
 10
0.0
 20
0.0
 30
0.0
 70
     2
  0
VERTEX
  5
240
100
AcDbEntity
  8
1
370
    30
  6
Continuous
 62
     7
100
AcDbVertex
100
AcDb2dVertex
 10
205.436361
 20
102.888661
 30
0.0
  0
VERTEX
  5
241
100
AcDbEntity
  8
1
370
    30
  6
Continuous
 62
     7
100
AcDbVertex
100
AcDb2dVertex
 10
205.416488
 20
102.870986
 30
0.0
  0
VERTEX
  5
242
100
AcDbEntity
  8
1
370
    30
  6
Continuous
 62
     7
100
AcDbVertex
100
AcDb2dVertex
 10
205.357433
 20
102.818444
 30
0.0
  0
VERTEX
  5
243
100
AcDbEntity
  8
1
370
    30
  6
Continuous
 62
     7
100
AcDbVertex
100
AcDb2dVertex
 10
205.260996
 20
102.732453
 30
0.0
  0
VERTEX
  5
244
100
AcDbEntity
  8
1
370
    30
  6
Continuous
 62
     7
100
AcDbVertex
100
AcDb2dVertex
 10
205.13049
 20
102.615312
 30
0.0
  0
VERTEX
  5
245
100
AcDbEntity
  8
1
370
    30
  6
Continuous
 62
     7
100
AcDbVertex
100
AcDb2dVertex
 10
204.971061
 20
102.470106
 30
0.0
  0
VERTEX
  5
246
100
AcDbEntity
  8
1
370
    30
  6
Continuous
 62
     7
100
AcDbVertex
100
AcDb2dVertex
 10
204.78988
 20
102.300599
 30
0.0
  0
VERTEX
  5
247
100
AcDbEntity
  8
1
370
    30
  6
Continuous
 62
     7
100
AcDbVertex
100
AcDb2dVertex
 10
204.596048
 20
102.111126
 30
0.0
  0
VERTEX
  5
248
100
AcDbEntity
  8
1
370
    30
  6
Continuous
 62
     7
100
AcDbVertex
100
AcDb2dVertex
 10
204.4001
 20
101.906491
 30
0.0
  0
VERTEX
  5
249
100
AcDbEntity
  8
1
370
    30
  6
Continuous
 62
     7
100
AcDbVertex
100
AcDb2dVertex
 10
204.213106
 20
101.691876
 30
0.0
  0
VERTEX
  5
24A
100
AcDbEntity
  8
1
370
    30
  6
Continuous
 62
     7
100
AcDbVertex
100
AcDb2dVertex
 10
204.045474
 20
101.472767
 30
0.0
  0
VERTEX
  5
24B
100
AcDbEntity
  8
1
370
    30
  6
Continuous
 62
     7
100
AcDbVertex
100
AcDb2dVertex
 10
203.905634
 20
101.254872
 30
0.0
  0
VERTEX
  5
24C
100
AcDbEntity
  8
1
370
    30
  6
Continuous
 62
     7
100
AcDbVertex
100
AcDb2dVertex
 10
203.798882
 20
101.044033
 30
0.0
  0
VERTEX
  5
24D
100
AcDbEntity
  8
1
370
    30
  6
Continuous
 62
     7
100
AcDbVertex
100
AcDb2dVertex
 10
203.726625
 20
100.846103
 30
0.0
  0
VERTEX
  5
24E
100
AcDbEntity
  8
1
370
    30
  6
Continuous
 62
     7
100
AcDbVertex
100
AcDb2dVertex
 10
203.686222
 20
100.666804
 30
0.0
  0
VERTEX
  5
24F
100
AcDbEntity
  8
1
370
    30
  6
Continuous
 62
     7
100
AcDbVertex
100
AcDb2dVertex
 10
203.671518
 20
100.511532
 30
0.0
  0
VERTEX
  5
250
100
AcDbEntity
  8
1
370
    30
  6
Continuous
 62
     7
100
AcDbVertex
100
AcDb2dVertex
 10
203.674002
 20
100.38514
 30
0.0
  0
VERTEX
  5
251
100
AcDbEntity
  8
1
370
    30
  6
Continuous
 62
     7
100
AcDbVertex
100
AcDb2dVertex
 10
203.684408
 20
100.291718
 30
0.0
  0
VERTEX
  5
252
100
AcDbEntity
  8
1
370
    30
  6
Continuous
 62
     7
100
AcDbVertex
100
AcDb2dVertex
 10
203.694471
 20
100.234367
 30
0.0
  0
VERTEX
  5
253
100
AcDbEntity
  8
1
370
    30
  6
Continuous
 62
     7
100
AcDbVertex
100
AcDb2dVertex
 10
203.698501
 20
100.21503
 30
0.0
  0
VERTEX
  5
254
100
AcDbEntity
  8
1
370
    30
  6
Continuous
 62
     7
100
AcDbVertex
100
AcDb2dVertex
 10
203.702858
 20
100.19567
 30
0.0
  0
VERTEX
  5
255
100
AcDbEntity
  8
1
370
    30
  6
Continuous
 62
     7
100
AcDbVertex
100
AcDb2dVertex
 10
203.717705
 20
100.137989
 30
0.0
  0
VERTEX
  5
256
100
AcDbEntity
  8
1
370
    30
  6
Continuous
 62
     7
100
AcDbVertex
100
AcDb2dVertex
 10
203.747878
 20
100.043208
 30
0.0
  0
VERTEX
  5
257
100
AcDbEntity
  8
1
370
    30
  6
Continuous
 62
     7
100
AcDbVertex
100
AcDb2dVertex
 10
203.799898
 20
99.913453
 30
0.0
  0
VERTEX
  5
258
100
AcDbEntity
  8
1
370
    30
  6
Continuous
 62
     7
100
AcDbVertex
100
AcDb2dVertex
 10
203.880067
 20
99.751841
 30
0.0
  0
VERTEX
  5
259
100
AcDbEntity
  8
1
370
    30
  6
Continuous
 62
     7
100
AcDbVertex
100
AcDb2dVertex
 10
203.99248
 20
99.562549
 30
0.0
  0
VERTEX
  5
25A
100
AcDbEntity
  8
1
370
    30
  6
Continuous
 62
     7
100
AcDbVertex
100
AcDb2dVertex
 10
204.137454
 20
99.350809
 30
0.0
  0
VERTEX
  5
25B
100
AcDbEntity
  8
1
370
    30
  6
Continuous
 62
     7
100
AcDbVertex
100
AcDb2dVertex
 10
204.310754
 20
99.122799
 30
0.0
  0
VERTEX
  5
25C
100
AcDbEntity
  8
1
370
    30
  6
Continuous
 62
     7
100
AcDbVertex
100
AcDb2dVertex
 10
204.503824
 20
98.885422
 30
0.0
  0
VERTEX
  5
25D
100
AcDbEntity
  8
1
370
    30
  6
Continuous
 62
     7
100
AcDbVertex
100
AcDb2dVertex
 10
204.704972
 20
98.645987
 30
0.0
  0
VERTEX
  5
25E
100
AcDbEntity
  8
1
370
    30
  6
Continuous
 62
     7
100
AcDbVertex
100
AcDb2dVertex
 10
204.901257
 20
98.411825
 30
0.0
  0
VERTEX
  5
25F
100
AcDbEntity
  8
1
370
    30
  6
Continuous
 62
     7
100
AcDbVertex
100
AcDb2dVertex
 10
205.080639
 20
98.189896
 30
0.0
  0
VERTEX
  5
260
100
AcDbEntity
  8
1
370
    30
  6
Continuous
 62
     7
100
AcDbVertex
100
AcDb2dVertex
 10
205.233902
 20
97.986446
 30
0.0
  0
VERTEX
  5
261
100
AcDbEntity
  8
1
370
    30
  6
Continuous
 62
     7
100
AcDbVertex
100
AcDb2dVertex
 10
205.355913
 20
97.806753
 30
0.0
  0
VERTEX
  5
262
100
AcDbEntity
  8
1
370
    30
  6
Continuous
 62
     7
100
AcDbVertex
100
AcDb2dVertex
 10
205.44595
 20
97.655008
 30
0.0
  0
VERTEX
  5
263
100
AcDbEntity
  8
1
370
    30
  6
Continuous
 62
     7
100
AcDbVertex
100
AcDb2dVertex
 10
205.507038
 20
97.53432
 30
0.0
  0
VERTEX
  5
264
100
AcDbEntity
  8
1
370
    30
  6
Continuous
 62
     7
100
AcDbVertex
100
AcDb2dVertex
 10
205.544495
 20
97.446825
 30
0.0
  0
VERTEX
  5
265
100
AcDbEntity
  8
1
370
    30
  6
Continuous
 62
     7
100
AcDbVertex
100
AcDb2dVertex
 10
205.564056
 20
97.393856
 30
0.0
  0
VERTEX
  5
266
100
AcDbEntity
  8
1
370
    30
  6
Continuous
 62
     7
100
AcDbVertex
100
AcDb2dVertex
 10
205.570042
 20
97.376126
 30
0.0
  0
VERTEX
  5
267
100
AcDbEntity
  8
1
370
    30
  6
Continuous
 62
     7
100
AcDbVertex
100
AcDb2dVertex
 10
205.575724
 20
97.358441
 30
0.0
  0
VERTEX
  5
268
100
AcDbEntity
  8
1
370
    30
  6
Continuous
 62
     7
100
AcDbVertex
100
AcDb2dVertex
 10
205.590829
 20
97.306132
 30
0.0
  0
VERTEX
  5
269
100
AcDbEntity
  8
1
370
    30
  6
Continuous
 62
     7
100
AcDbVertex
100
AcDb2dVertex
 10
205.609898
 20
97.221373
 30
0.0
  0
VERTEX
  5
26A
100
AcDbEntity
  8
1
370
    30
  6
Continuous
 62
     7
100
AcDbVertex
100
AcDb2dVertex
 10
205.624975
 20
97.107574
 30
0.0
  0
VERTEX
  5
26B
100
AcDbEntity
  8
1
370
    30
  6
Continuous
 62
     7
100
AcDbVertex
100
AcDb2dVertex
 10
205.627077
 20
96.969107
 30
0.0
  0
VERTEX
  5
26C
100
AcDbEntity
  8
1
370
    30
  6
Continuous
 62
     7
100
AcDbVertex
100
AcDb2dVertex
 10
205.607842
 20
96.810976
 30
0.0
  0
VERTEX
  5
26D
100
AcDbEntity
  8
1
370
    30
  6
Continuous
 62
     7
100
AcDbVertex
100
AcDb2dVertex
 10
205.561032
 20
96.638494
 30
0.0
  0
VERTEX
  5
26E
100
AcDbEntity
  8
1
370
    30
  6
Continuous
 62
     7
100
AcDbVertex
100
AcDb2dVertex
 10
205.483627
 20
96.457002
 30
0.0
  0
VERTEX
  5
26F
100
AcDbEntity
  8
1
370
    30
  6
Continuous
 62
     7
100
AcDbVertex
100
AcDb2dVertex
 10
205.376337
 20
96.271656
 30
0.0
  0
VERTEX
  5
270
100
AcDbEntity
  8
1
370
    30
  6
Continuous
 62
     7
100
AcDbVertex
100
AcDb2dVertex
 10
205.243467
 20
96.08731
 30
0.0
  0
VERTEX
  5
271
100
AcDbEntity
  8
1
370
    30
  6
Continuous
 62
     7
100
AcDbVertex
100
AcDb2dVertex
 10
205.092238
 20
95.90846
 30
0.0
  0
VERTEX
  5
272
100
AcDbEntity
  8
1
370
    30
  6
Continuous
 62
     7
100
AcDbVertex
100
AcDb2dVertex
 10
204.931719
 20
95.739253
 30
0.0
  0
VERTEX
  5
273
100
AcDbEntity
  8
1
370
    30
  6
Continuous
 62
     7
100
AcDbVertex
100
AcDb2dVertex
 10
204.771623
 20
95.583517
 30
0.0
  0
VERTEX
  5
274
100
AcDbEntity
  8
1
370
    30
  6
Continuous
 62
     7
100
AcDbVertex
100
AcDb2dVertex
 10
204.621209
 20
95.444777
 30
0.0
  0
VERTEX
  5
275
100
AcDbEntity
  8
1
370
    30
  6
Continuous
 62
     7
100
AcDbVertex
100
AcDb2dVertex
 10
204.488453
 20
95.326244
 30
0.0
  0
VERTEX
  5
276
100
AcDbEntity
  8
1
370
    30
  6
Continuous
 62
     7
100
AcDbVertex
100
AcDb2dVertex
 10
204.379607
 20
95.230763
 30
0.0
  0
VERTEX
  5
277
100
AcDbEntity
  8
1
370
    30
  6
Continuous
 62
     7
100
AcDbVertex
100
AcDb2dVertex
 10
204.299119
 20
95.160721
 30
0.0
  0
VERTEX
  5
278
100
AcDbEntity
  8
1
370
    30
  6
Continuous
 62
     7
100
AcDbVertex
100
AcDb2dVertex
 10
204.249818
 20
95.117932
 30
0.0
  0
VERTEX
  5
279
100
AcDbEntity
  8
1
370
    30
  6
Continuous
 62
     7
100
AcDbVertex
100
AcDb2dVertex
 10
204.233227
 20
95.10354
 30
0.0
  0
SEQEND
  5
27A
100
AcDbEntity
  8
1
370
    30
  6
Continuous
 62
     7
  0
ARC
  5
27B
100
AcDbEntity
  8
1
370
    30
  6
Continuous
 62
     7
100
AcDbCircle
 10
190.875895
 20
90.439817
 30
0.0
 40
6.106344
100
AcDbArc
 50
95.883102
 51
157.11978
  0
LINE
  5
27C
100
AcDbEntity
  8
1
370
    30
  6
Continuous
 62
     7
100
AcDbLine
 10
120.25
 20
92.814
 30
0.0
 11
185.25
 21
92.814
 31
0.0
  0
LINE
  5
27D
100
AcDbEntity
  8
1
370
    30
  6
Continuous
 62
     7
100
AcDbLine
 10
190.25
 20
96.514
 30
0.0
 11
190.25
 21
105.814
 31
0.0
  0
ARC
  5
27E
100
AcDbEntity
  8
1
370
    30
  6
Continuous
 62
     7
100
AcDbCircle
 10
190.25
 20
107.814
 30
0.0
 40
2.0
100
AcDbArc
 50
180.0
 51
-90.0
  0
LINE
  5
27F
100
AcDbEntity
  8
1
370
    30
  6
Continuous
 62
     7
100
AcDbLine
 10
188.25
 20
107.814
 30
0.0
 11
117.25
 21
107.814
 31
0.0
  0
LINE
  5
280
100
AcDbEntity
  8
1
370
    30
  6
Continuous
 62
     7
100
AcDbLine
 10
115.25
 20
96.514
 30
0.0
 11
115.25
 21
105.814
 31
0.0
  0
ARC
  5
281
100
AcDbEntity
  8
1
370
    30
  6
Continuous
 62
     7
100
AcDbCircle
 10
115.25
 20
107.814
 30
0.0
 40
2.0
100
AcDbArc
 50
-90.0
 51
0.0
  0
LINE
  5
282
100
AcDbEntity
  8
1
370
    30
  6
Continuous
 62
     7
100
AcDbLine
 10
190.25
 20
98.514
 30
0.0
 11
204.81561
 21
98.514
 31
0.0
  0
LINE
  5
283
100
AcDbEntity
  8
1
370
    30
  6
Continuous
 62
     7
100
AcDbLine
 10
190.25
 20
99.514
 30
0.0
 11
204.025721
 21
99.514
 31
0.0
  0
ARC
  5
284
100
AcDbEntity
  8
1
370
    30
  6
Continuous
 62
     7
100
AcDbCircle
 10
101.15
 20
189.16265
 30
0.0
 40
0.9
100
AcDbArc
 50
180.0
 51
-90.0
  0
LINE
  5
285
100
AcDbEntity
  8
1
370
    30
  6
Continuous
 62
     7
100
AcDbLine
 10
101.15
 20
188.26265
 30
0.0
 11
115.25
 21
188.26265
 31
0.0
  0
LINE
  5
286
100
AcDbEntity
  8
1
370
    30
  6
Continuous
 62
     7
100
AcDbLine
 10
100.25
 20
189.614
 30
0.0
 11
100.25
 21
189.16265
 31
0.0
  0
ARC
  5
287
100
AcDbEntity
  8
1
370
    30
  6
Continuous
 62
     7
100
AcDbCircle
 10
101.15
 20
189.614
 30
0.0
 40
0.9
100
AcDbArc
 50
90.0
 51
180.0
  0
LINE
  5
288
100
AcDbEntity
  8
1
370
    30
  6
Continuous
 62
     7
100
AcDbLine
 10
115.25
 20
190.514
 30
0.0
 11
101.15
 21
190.514
 31
0.0
  0
ARC
  5
289
100
AcDbEntity
  8
1
370
    30
  6
Continuous
 62
     7
100
AcDbCircle
 10
101.3
 20
189.31265
 30
0.0
 40
0.35
100
AcDbArc
 50
180.0
 51
-90.0
  0
LINE
  5
28A
100
AcDbEntity
  8
1
370
    30
  6
Continuous
 62
     7
100
AcDbLine
 10
101.3
 20
188.96265
 30
0.0
 11
115.25
 21
188.96265
 31
0.0
  0
LINE
  5
28B
100
AcDbEntity
  8
1
370
    30
  6
Continuous
 62
     7
100
AcDbLine
 10
100.95
 20
189.464
 30
0.0
 11
100.95
 21
189.31265
 31
0.0
  0
ARC
  5
28C
100
AcDbEntity
  8
1
370
    30
  6
Continuous
 62
     7
100
AcDbCircle
 10
101.3
 20
189.464
 30
0.0
 40
0.35
100
AcDbArc
 50
90.0
 51
-180.0
  0
LINE
  5
28D
100
AcDbEntity
  8
1
370
    30
  6
Continuous
 62
     7
100
AcDbLine
 10
115.25
 20
189.814
 30
0.0
 11
101.3
 21
189.814
 31
0.0
  0
POLYLINE
  5
28E
100
AcDbEntity
  8
1
370
    30
  6
Continuous
 62
     7
100
AcDb2dPolyline
 66
     1
 10
0.0
 20
0.0
 30
0.0
 70
     2
  0
VERTEX
  5
28F
100
AcDbEntity
  8
1
370
    30
  6
Continuous
 62
     7
100
AcDbVertex
100
AcDb2dVertex
 10
71.82044
 20
177.562643
 30
0.0
  0
VERTEX
  5
290
100
AcDbEntity
  8
1
370
    30
  6
Continuous
 62
     7
100
AcDbVertex
100
AcDb2dVertex
 10
71.799171
 20
177.595516
 30
0.0
  0
VERTEX
  5
291
100
AcDbEntity
  8
1
370
    30
  6
Continuous
 62
     7
100
AcDbVertex
100
AcDb2dVertex
 10
71.73597
 20
177.693238
 30
0.0
  0
VERTEX
  5
292
100
AcDbEntity
  8
1
370
    30
  6
Continuous
 62
     7
100
AcDbVertex
100
AcDb2dVertex
 10
71.63277
 20
177.853129
 30
0.0
  0
VERTEX
  5
293
100
AcDbEntity
  8
1
370
    30
  6
Continuous
 62
     7
100
AcDbVertex
100
AcDb2dVertex
 10
71.493141
 20
178.070783
 30
0.0
  0
VERTEX
  5
294
100
AcDbEntity
  8
1
370
    30
  6
Continuous
 62
     7
100
AcDbVertex
100
AcDb2dVertex
 10
71.322645
 20
178.340156
 30
0.0
  0
VERTEX
  5
295
100
AcDbEntity
  8
1
370
    30
  6
Continuous
 62
     7
100
AcDbVertex
100
AcDb2dVertex
 10
71.129057
 20
178.653711
 30
0.0
  0
VERTEX
  5
296
100
AcDbEntity
  8
1
370
    30
  6
Continuous
 62
     7
100
AcDbVertex
100
AcDb2dVertex
 10
70.922255
 20
179.002615
 30
0.0
  0
VERTEX
  5
297
100
AcDbEntity
  8
1
370
    30
  6
Continuous
 62
     7
100
AcDbVertex
100
AcDb2dVertex
 10
70.713686
 20
179.376999
 30
0.0
  0
VERTEX
  5
298
100
AcDbEntity
  8
1
370
    30
  6
Continuous
 62
     7
100
AcDbVertex
100
AcDb2dVertex
 10
70.515373
 20
179.766265
 30
0.0
  0
VERTEX
  5
299
100
AcDbEntity
  8
1
370
    30
  6
Continuous
 62
     7
100
AcDbVertex
100
AcDb2dVertex
 10
70.338596
 20
180.15944
 30
0.0
  0
VERTEX
  5
29A
100
AcDbEntity
  8
1
370
    30
  6
Continuous
 62
     7
100
AcDbVertex
100
AcDb2dVertex
 10
70.192443
 20
180.545539
 30
0.0
  0
VERTEX
  5
29B
100
AcDbEntity
  8
1
370
    30
  6
Continuous
 62
     7
100
AcDbVertex
100
AcDb2dVertex
 10
70.08254
 20
180.913931
 30
0.0
  0
VERTEX
  5
29C
100
AcDbEntity
  8
1
370
    30
  6
Continuous
 62
     7
100
AcDbVertex
100
AcDb2dVertex
 10
70.01022
 20
181.254668
 30
0.0
  0
VERTEX
  5
29D
100
AcDbEntity
  8
1
370
    30
  6
Continuous
 62
     7
100
AcDbVertex
100
AcDb2dVertex
 10
69.972356
 20
181.558766
 30
0.0
  0
VERTEX
  5
29E
100
AcDbEntity
  8
1
370
    30
  6
Continuous
 62
     7
100
AcDbVertex
100
AcDb2dVertex
 10
69.961951
 20
181.818417
 30
0.0
  0
VERTEX
  5
29F
100
AcDbEntity
  8
1
370
    30
  6
Continuous
 62
     7
100
AcDbVertex
100
AcDb2dVertex
 10
69.96943
 20
182.027138
 30
0.0
  0
VERTEX
  5
2A0
100
AcDbEntity
  8
1
370
    30
  6
Continuous
 62
     7
100
AcDbVertex
100
AcDb2dVertex
 10
69.984417
 20
182.179852
 30
0.0
  0
VERTEX
  5
2A1
100
AcDbEntity
  8
1
370
    30
  6
Continuous
 62
     7
100
AcDbVertex
100
AcDb2dVertex
 10
69.997672
 20
182.27293
 30
0.0
  0
VERTEX
  5
2A2
100
AcDbEntity
  8
1
370
    30
  6
Continuous
 62
     7
100
AcDbVertex
100
AcDb2dVertex
 10
70.002844
 20
182.304197
 30
0.0
  0
VERTEX
  5
2A3
100
AcDbEntity
  8
1
370
    30
  6
Continuous
 62
     7
100
AcDbVertex
100
AcDb2dVertex
 10
70.008378
 20
182.335443
 30
0.0
  0
VERTEX
  5
2A4
100
AcDbEntity
  8
1
370
    30
  6
Continuous
 62
     7
100
AcDbVertex
100
AcDb2dVertex
 10
70.026923
 20
182.428197
 30
0.0
  0
VERTEX
  5
2A5
100
AcDbEntity
  8
1
370
    30
  6
Continuous
 62
     7
100
AcDbVertex
100
AcDb2dVertex
 10
70.063751
 20
182.579553
 30
0.0
  0
VERTEX
  5
2A6
100
AcDbEntity
  8
1
370
    30
  6
Continuous
 62
     7
100
AcDbVertex
100
AcDb2dVertex
 10
70.125911
 20
182.7848
 30
0.0
  0
VERTEX
  5
2A7
100
AcDbEntity
  8
1
370
    30
  6
Continuous
 62
     7
100
AcDbVertex
100
AcDb2dVertex
 10
70.220087
 20
183.037615
 30
0.0
  0
VERTEX
  5
2A8
100
AcDbEntity
  8
1
370
    30
  6
Continuous
 62
     7
100
AcDbVertex
100
AcDb2dVertex
 10
70.350368
 20
183.330314
 30
0.0
  0
VERTEX
  5
2A9
100
AcDbEntity
  8
1
370
    30
  6
Continuous
 62
     7
100
AcDbVertex
100
AcDb2dVertex
 10
70.51652
 20
183.654146
 30
0.0
  0
VERTEX
  5
2AA
100
AcDbEntity
  8
1
370
    30
  6
Continuous
 62
     7
100
AcDbVertex
100
AcDb2dVertex
 10
70.713163
 20
183.999615
 30
0.0
  0
VERTEX
  5
2AB
100
AcDbEntity
  8
1
370
    30
  6
Continuous
 62
     7
100
AcDbVertex
100
AcDb2dVertex
 10
70.930111
 20
184.356813
 30
0.0
  0
VERTEX
  5
2AC
100
AcDbEntity
  8
1
370
    30
  6
Continuous
 62
     7
100
AcDbVertex
100
AcDb2dVertex
 10
71.153796
 20
184.715738
 30
0.0
  0
VERTEX
  5
2AD
100
AcDbEntity
  8
1
370
    30
  6
Continuous
 62
     7
100
AcDbVertex
100
AcDb2dVertex
 10
71.369477
 20
185.0666
 30
0.0
  0
VERTEX
  5
2AE
100
AcDbEntity
  8
1
370
    30
  6
Continuous
 62
     7
100
AcDbVertex
100
AcDb2dVertex
 10
71.563724
 20
185.400085
 30
0.0
  0
VERTEX
  5
2AF
100
AcDbEntity
  8
1
370
    30
  6
Continuous
 62
     7
100
AcDbVertex
100
AcDb2dVertex
 10
71.726608
 20
185.707583
 30
0.0
  0
VERTEX
  5
2B0
100
AcDbEntity
  8
1
370
    30
  6
Continuous
 62
     7
100
AcDbVertex
100
AcDb2dVertex
 10
71.853107
 20
185.981368
 30
0.0
  0
VERTEX
  5
2B1
100
AcDbEntity
  8
1
370
    30
  6
Continuous
 62
     7
100
AcDbVertex
100
AcDb2dVertex
 10
71.943394
 20
186.21474
 30
0.0
  0
VERTEX
  5
2B2
100
AcDbEntity
  8
1
370
    30
  6
Continuous
 62
     7
100
AcDbVertex
100
AcDb2dVertex
 10
72.001981
 20
186.402119
 30
0.0
  0
VERTEX
  5
2B3
100
AcDbEntity
  8
1
370
    30
  6
Continuous
 62
     7
100
AcDbVertex
100
AcDb2dVertex
 10
72.035937
 20
186.53912
 30
0.0
  0
VERTEX
  5
2B4
100
AcDbEntity
  8
1
370
    30
  6
Continuous
 62
     7
100
AcDbVertex
100
AcDb2dVertex
 10
72.052626
 20
186.622588
 30
0.0
  0
VERTEX
  5
2B5
100
AcDbEntity
  8
1
370
    30
  6
Continuous
 62
     7
100
AcDbVertex
100
AcDb2dVertex
 10
72.057517
 20
186.650622
 30
0.0
  0
VERTEX
  5
2B6
100
AcDbEntity
  8
1
370
    30
  6
Continuous
 62
     7
100
AcDbVertex
100
AcDb2dVertex
 10
72.062038
 20
186.678634
 30
0.0
  0
VERTEX
  5
2B7
100
AcDbEntity
  8
1
370
    30
  6
Continuous
 62
     7
100
AcDbVertex
100
AcDb2dVertex
 10
72.073306
 20
186.761778
 30
0.0
  0
VERTEX
  5
2B8
100
AcDbEntity
  8
1
370
    30
  6
Continuous
 62
     7
100
AcDbVertex
100
AcDb2dVertex
 10
72.084878
 20
186.897421
 30
0.0
  0
VERTEX
  5
2B9
100
AcDbEntity
  8
1
370
    30
  6
Continuous
 62
     7
100
AcDbVertex
100
AcDb2dVertex
 10
72.087395
 20
187.081327
 30
0.0
  0
VERTEX
  5
2BA
100
AcDbEntity
  8
1
370
    30
  6
Continuous
 62
     7
100
AcDbVertex
100
AcDb2dVertex
 10
72.070367
 20
187.307863
 30
0.0
  0
VERTEX
  5
2BB
100
AcDbEntity
  8
1
370
    30
  6
Continuous
 62
     7
100
AcDbVertex
100
AcDb2dVertex
 10
72.02416
 20
187.570249
 30
0.0
  0
VERTEX
  5
2BC
100
AcDbEntity
  8
1
370
    30
  6
Continuous
 62
     7
100
AcDbVertex
100
AcDb2dVertex
 10
71.941811
 20
187.860842
 30
0.0
  0
VERTEX
  5
2BD
100
AcDbEntity
  8
1
370
    30
  6
Continuous
 62
     7
100
AcDbVertex
100
AcDb2dVertex
 10
71.820343
 20
188.171405
 30
0.0
  0
VERTEX
  5
2BE
100
AcDbEntity
  8
1
370
    30
  6
Continuous
 62
     7
100
AcDbVertex
100
AcDb2dVertex
 10
71.661363
 20
188.493365
 30
0.0
  0
VERTEX
  5
2BF
100
AcDbEntity
  8
1
370
    30
  6
Continuous
 62
     7
100
AcDbVertex
100
AcDb2dVertex
 10
71.470885
 20
188.81804
 30
0.0
  0
VERTEX
  5
2C0
100
AcDbEntity
  8
1
370
    30
  6
Continuous
 62
     7
100
AcDbVertex
100
AcDb2dVertex
 10
71.258478
 20
189.136833
 30
0.0
  0
VERTEX
  5
2C1
100
AcDbEntity
  8
1
370
    30
  6
Continuous
 62
     7
100
AcDbVertex
100
AcDb2dVertex
 10
71.035946
 20
189.441404
 30
0.0
  0
VERTEX
  5
2C2
100
AcDbEntity
  8
1
370
    30
  6
Continuous
 62
     7
100
AcDbVertex
100
AcDb2dVertex
 10
70.815849
 20
189.72383
 30
0.0
  0
VERTEX
  5
2C3
100
AcDbEntity
  8
1
370
    30
  6
Continuous
 62
     7
100
AcDbVertex
100
AcDb2dVertex
 10
70.610135
 20
189.976759
 30
0.0
  0
VERTEX
  5
2C4
100
AcDbEntity
  8
1
370
    30
  6
Continuous
 62
     7
100
AcDbVertex
100
AcDb2dVertex
 10
70.429127
 20
190.193573
 30
0.0
  0
VERTEX
  5
2C5
100
AcDbEntity
  8
1
370
    30
  6
Continuous
 62
     7
100
AcDbVertex
100
AcDb2dVertex
 10
70.280962
 20
190.368545
 30
0.0
  0
VERTEX
  5
2C6
100
AcDbEntity
  8
1
370
    30
  6
Continuous
 62
     7
100
AcDbVertex
100
AcDb2dVertex
 10
70.171476
 20
190.497011
 30
0.0
  0
VERTEX
  5
2C7
100
AcDbEntity
  8
1
370
    30
  6
Continuous
 62
     7
100
AcDbVertex
100
AcDb2dVertex
 10
70.104431
 20
190.575511
 30
0.0
  0
VERTEX
  5
2C8
100
AcDbEntity
  8
1
370
    30
  6
Continuous
 62
     7
100
AcDbVertex
100
AcDb2dVertex
 10
70.08187
 20
190.601918
 30
0.0
  0
SEQEND
  5
2C9
100
AcDbEntity
  8
1
370
    30
  6
Continuous
 62
     7
  0
POLYLINE
  5
2CA
100
AcDbEntity
  8
1
370
    30
  6
Continuous
 62
     7
100
AcDb2dPolyline
 66
     1
 10
0.0
 20
0.0
 30
0.0
 70
     2
  0
VERTEX
  5
2CB
100
AcDbEntity
  8
1
370
    30
  6
Continuous
 62
     7
100
AcDbVertex
100
AcDb2dVertex
 10
69.82044
 20
177.562643
 30
0.0
  0
VERTEX
  5
2CC
100
AcDbEntity
  8
1
370
    30
  6
Continuous
 62
     7
100
AcDbVertex
100
AcDb2dVertex
 10
69.799171
 20
177.595516
 30
0.0
  0
VERTEX
  5
2CD
100
AcDbEntity
  8
1
370
    30
  6
Continuous
 62
     7
100
AcDbVertex
100
AcDb2dVertex
 10
69.73597
 20
177.693238
 30
0.0
  0
VERTEX
  5
2CE
100
AcDbEntity
  8
1
370
    30
  6
Continuous
 62
     7
100
AcDbVertex
100
AcDb2dVertex
 10
69.63277
 20
177.853129
 30
0.0
  0
VERTEX
  5
2CF
100
AcDbEntity
  8
1
370
    30
  6
Continuous
 62
     7
100
AcDbVertex
100
AcDb2dVertex
 10
69.493141
 20
178.070783
 30
0.0
  0
VERTEX
  5
2D0
100
AcDbEntity
  8
1
370
    30
  6
Continuous
 62
     7
100
AcDbVertex
100
AcDb2dVertex
 10
69.322645
 20
178.340156
 30
0.0
  0
VERTEX
  5
2D1
100
AcDbEntity
  8
1
370
    30
  6
Continuous
 62
     7
100
AcDbVertex
100
AcDb2dVertex
 10
69.129057
 20
178.653711
 30
0.0
  0
VERTEX
  5
2D2
100
AcDbEntity
  8
1
370
    30
  6
Continuous
 62
     7
100
AcDbVertex
100
AcDb2dVertex
 10
68.922255
 20
179.002615
 30
0.0
  0
VERTEX
  5
2D3
100
AcDbEntity
  8
1
370
    30
  6
Continuous
 62
     7
100
AcDbVertex
100
AcDb2dVertex
 10
68.713686
 20
179.376999
 30
0.0
  0
VERTEX
  5
2D4
100
AcDbEntity
  8
1
370
    30
  6
Continuous
 62
     7
100
AcDbVertex
100
AcDb2dVertex
 10
68.515373
 20
179.766265
 30
0.0
  0
VERTEX
  5
2D5
100
AcDbEntity
  8
1
370
    30
  6
Continuous
 62
     7
100
AcDbVertex
100
AcDb2dVertex
 10
68.338596
 20
180.15944
 30
0.0
  0
VERTEX
  5
2D6
100
AcDbEntity
  8
1
370
    30
  6
Continuous
 62
     7
100
AcDbVertex
100
AcDb2dVertex
 10
68.192443
 20
180.545539
 30
0.0
  0
VERTEX
  5
2D7
100
AcDbEntity
  8
1
370
    30
  6
Continuous
 62
     7
100
AcDbVertex
100
AcDb2dVertex
 10
68.08254
 20
180.913931
 30
0.0
  0
VERTEX
  5
2D8
100
AcDbEntity
  8
1
370
    30
  6
Continuous
 62
     7
100
AcDbVertex
100
AcDb2dVertex
 10
68.01022
 20
181.254668
 30
0.0
  0
VERTEX
  5
2D9
100
AcDbEntity
  8
1
370
    30
  6
Continuous
 62
     7
100
AcDbVertex
100
AcDb2dVertex
 10
67.972356
 20
181.558766
 30
0.0
  0
VERTEX
  5
2DA
100
AcDbEntity
  8
1
370
    30
  6
Continuous
 62
     7
100
AcDbVertex
100
AcDb2dVertex
 10
67.961951
 20
181.818417
 30
0.0
  0
VERTEX
  5
2DB
100
AcDbEntity
  8
1
370
    30
  6
Continuous
 62
     7
100
AcDbVertex
100
AcDb2dVertex
 10
67.96943
 20
182.027138
 30
0.0
  0
VERTEX
  5
2DC
100
AcDbEntity
  8
1
370
    30
  6
Continuous
 62
     7
100
AcDbVertex
100
AcDb2dVertex
 10
67.984417
 20
182.179852
 30
0.0
  0
VERTEX
  5
2DD
100
AcDbEntity
  8
1
370
    30
  6
Continuous
 62
     7
100
AcDbVertex
100
AcDb2dVertex
 10
67.997672
 20
182.27293
 30
0.0
  0
VERTEX
  5
2DE
100
AcDbEntity
  8
1
370
    30
  6
Continuous
 62
     7
100
AcDbVertex
100
AcDb2dVertex
 10
68.002844
 20
182.304197
 30
0.0
  0
VERTEX
  5
2DF
100
AcDbEntity
  8
1
370
    30
  6
Continuous
 62
     7
100
AcDbVertex
100
AcDb2dVertex
 10
68.008378
 20
182.335443
 30
0.0
  0
VERTEX
  5
2E0
100
AcDbEntity
  8
1
370
    30
  6
Continuous
 62
     7
100
AcDbVertex
100
AcDb2dVertex
 10
68.026923
 20
182.428197
 30
0.0
  0
VERTEX
  5
2E1
100
AcDbEntity
  8
1
370
    30
  6
Continuous
 62
     7
100
AcDbVertex
100
AcDb2dVertex
 10
68.063751
 20
182.579553
 30
0.0
  0
VERTEX
  5
2E2
100
AcDbEntity
  8
1
370
    30
  6
Continuous
 62
     7
100
AcDbVertex
100
AcDb2dVertex
 10
68.125911
 20
182.7848
 30
0.0
  0
VERTEX
  5
2E3
100
AcDbEntity
  8
1
370
    30
  6
Continuous
 62
     7
100
AcDbVertex
100
AcDb2dVertex
 10
68.220087
 20
183.037615
 30
0.0
  0
VERTEX
  5
2E4
100
AcDbEntity
  8
1
370
    30
  6
Continuous
 62
     7
100
AcDbVertex
100
AcDb2dVertex
 10
68.350368
 20
183.330314
 30
0.0
  0
VERTEX
  5
2E5
100
AcDbEntity
  8
1
370
    30
  6
Continuous
 62
     7
100
AcDbVertex
100
AcDb2dVertex
 10
68.51652
 20
183.654146
 30
0.0
  0
VERTEX
  5
2E6
100
AcDbEntity
  8
1
370
    30
  6
Continuous
 62
     7
100
AcDbVertex
100
AcDb2dVertex
 10
68.713163
 20
183.999615
 30
0.0
  0
VERTEX
  5
2E7
100
AcDbEntity
  8
1
370
    30
  6
Continuous
 62
     7
100
AcDbVertex
100
AcDb2dVertex
 10
68.930111
 20
184.356813
 30
0.0
  0
VERTEX
  5
2E8
100
AcDbEntity
  8
1
370
    30
  6
Continuous
 62
     7
100
AcDbVertex
100
AcDb2dVertex
 10
69.153796
 20
184.715738
 30
0.0
  0
VERTEX
  5
2E9
100
AcDbEntity
  8
1
370
    30
  6
Continuous
 62
     7
100
AcDbVertex
100
AcDb2dVertex
 10
69.369477
 20
185.0666
 30
0.0
  0
VERTEX
  5
2EA
100
AcDbEntity
  8
1
370
    30
  6
Continuous
 62
     7
100
AcDbVertex
100
AcDb2dVertex
 10
69.563724
 20
185.400085
 30
0.0
  0
VERTEX
  5
2EB
100
AcDbEntity
  8
1
370
    30
  6
Continuous
 62
     7
100
AcDbVertex
100
AcDb2dVertex
 10
69.726608
 20
185.707583
 30
0.0
  0
VERTEX
  5
2EC
100
AcDbEntity
  8
1
370
    30
  6
Continuous
 62
     7
100
AcDbVertex
100
AcDb2dVertex
 10
69.853107
 20
185.981368
 30
0.0
  0
VERTEX
  5
2ED
100
AcDbEntity
  8
1
370
    30
  6
Continuous
 62
     7
100
AcDbVertex
100
AcDb2dVertex
 10
69.943394
 20
186.21474
 30
0.0
  0
VERTEX
  5
2EE
100
AcDbEntity
  8
1
370
    30
  6
Continuous
 62
     7
100
AcDbVertex
100
AcDb2dVertex
 10
70.001981
 20
186.402119
 30
0.0
  0
VERTEX
  5
2EF
100
AcDbEntity
  8
1
370
    30
  6
Continuous
 62
     7
100
AcDbVertex
100
AcDb2dVertex
 10
70.035937
 20
186.53912
 30
0.0
  0
VERTEX
  5
2F0
100
AcDbEntity
  8
1
370
    30
  6
Continuous
 62
     7
100
AcDbVertex
100
AcDb2dVertex
 10
70.052626
 20
186.622588
 30
0.0
  0
VERTEX
  5
2F1
100
AcDbEntity
  8
1
370
    30
  6
Continuous
 62
     7
100
AcDbVertex
100
AcDb2dVertex
 10
70.057517
 20
186.650622
 30
0.0
  0
VERTEX
  5
2F2
100
AcDbEntity
  8
1
370
    30
  6
Continuous
 62
     7
100
AcDbVertex
100
AcDb2dVertex
 10
70.062038
 20
186.678634
 30
0.0
  0
VERTEX
  5
2F3
100
AcDbEntity
  8
1
370
    30
  6
Continuous
 62
     7
100
AcDbVertex
100
AcDb2dVertex
 10
70.073306
 20
186.761778
 30
0.0
  0
VERTEX
  5
2F4
100
AcDbEntity
  8
1
370
    30
  6
Continuous
 62
     7
100
AcDbVertex
100
AcDb2dVertex
 10
70.084878
 20
186.897421
 30
0.0
  0
VERTEX
  5
2F5
100
AcDbEntity
  8
1
370
    30
  6
Continuous
 62
     7
100
AcDbVertex
100
AcDb2dVertex
 10
70.087395
 20
187.081327
 30
0.0
  0
VERTEX
  5
2F6
100
AcDbEntity
  8
1
370
    30
  6
Continuous
 62
     7
100
AcDbVertex
100
AcDb2dVertex
 10
70.070367
 20
187.307863
 30
0.0
  0
VERTEX
  5
2F7
100
AcDbEntity
  8
1
370
    30
  6
Continuous
 62
     7
100
AcDbVertex
100
AcDb2dVertex
 10
70.02416
 20
187.570249
 30
0.0
  0
VERTEX
  5
2F8
100
AcDbEntity
  8
1
370
    30
  6
Continuous
 62
     7
100
AcDbVertex
100
AcDb2dVertex
 10
69.941811
 20
187.860842
 30
0.0
  0
VERTEX
  5
2F9
100
AcDbEntity
  8
1
370
    30
  6
Continuous
 62
     7
100
AcDbVertex
100
AcDb2dVertex
 10
69.820343
 20
188.171405
 30
0.0
  0
VERTEX
  5
2FA
100
AcDbEntity
  8
1
370
    30
  6
Continuous
 62
     7
100
AcDbVertex
100
AcDb2dVertex
 10
69.661363
 20
188.493365
 30
0.0
  0
VERTEX
  5
2FB
100
AcDbEntity
  8
1
370
    30
  6
Continuous
 62
     7
100
AcDbVertex
100
AcDb2dVertex
 10
69.470885
 20
188.81804
 30
0.0
  0
VERTEX
  5
2FC
100
AcDbEntity
  8
1
370
    30
  6
Continuous
 62
     7
100
AcDbVertex
100
AcDb2dVertex
 10
69.258478
 20
189.136833
 30
0.0
  0
VERTEX
  5
2FD
100
AcDbEntity
  8
1
370
    30
  6
Continuous
 62
     7
100
AcDbVertex
100
AcDb2dVertex
 10
69.035946
 20
189.441404
 30
0.0
  0
VERTEX
  5
2FE
100
AcDbEntity
  8
1
370
    30
  6
Continuous
 62
     7
100
AcDbVertex
100
AcDb2dVertex
 10
68.815849
 20
189.72383
 30
0.0
  0
VERTEX
  5
2FF
100
AcDbEntity
  8
1
370
    30
  6
Continuous
 62
     7
100
AcDbVertex
100
AcDb2dVertex
 10
68.610135
 20
189.976759
 30
0.0
  0
VERTEX
  5
300
100
AcDbEntity
  8
1
370
    30
  6
Continuous
 62
     7
100
AcDbVertex
100
AcDb2dVertex
 10
68.429127
 20
190.193573
 30
0.0
  0
VERTEX
  5
301
100
AcDbEntity
  8
1
370
    30
  6
Continuous
 62
     7
100
AcDbVertex
100
AcDb2dVertex
 10
68.280962
 20
190.368545
 30
0.0
  0
VERTEX
  5
302
100
AcDbEntity
  8
1
370
    30
  6
Continuous
 62
     7
100
AcDbVertex
100
AcDb2dVertex
 10
68.171476
 20
190.497011
 30
0.0
  0
VERTEX
  5
303
100
AcDbEntity
  8
1
370
    30
  6
Continuous
 62
     7
100
AcDbVertex
100
AcDb2dVertex
 10
68.104431
 20
190.575511
 30
0.0
  0
VERTEX
  5
304
100
AcDbEntity
  8
1
370
    30
  6
Continuous
 62
     7
100
AcDbVertex
100
AcDb2dVertex
 10
68.08187
 20
190.601918
 30
0.0
  0
SEQEND
  5
305
100
AcDbEntity
  8
1
370
    30
  6
Continuous
 62
     7
  0
LINE
  5
306
100
AcDbEntity
  8
1
370
    30
  6
Continuous
 62
     7
100
AcDbLine
 10
115.25
 20
179.56262
 30
0.0
 11
70.619121
 21
179.56262
 31
0.0
  0
LINE
  5
307
100
AcDbEntity
  8
1
370
    30
  6
Continuous
 62
     7
100
AcDbLine
 10
70.097839
 20
180.86265
 30
0.0
 11
115.25
 21
180.86265
 31
0.0
  0
LINE
  5
308
100
AcDbEntity
  8
1
370
    30
  6
Continuous
 62
     7
100
AcDbLine
 10
115.25
 20
181.86265
 30
0.0
 11
69.963536
 21
181.86265
 31
0.0
  0
LINE
  5
309
100
AcDbEntity
  8
1
370
    30
  6
Continuous
 62
     7
100
AcDbLine
 10
70.27574
 20
183.16265
 30
0.0
 11
115.25
 21
183.16265
 31
0.0
  0
LINE
  5
30A
100
AcDbEntity
  8
1
370
    30
  6
Continuous
 62
     7
100
AcDbLine
 10
115.25
 20
184.16265
 30
0.0
 11
70.812184
 21
184.16265
 31
0.0
  0
LINE
  5
30B
100
AcDbEntity
  8
1
370
    30
  6
Continuous
 62
     7
100
AcDbLine
 10
71.596865
 20
185.46265
 30
0.0
 11
115.25
 21
185.46265
 31
0.0
  0
LINE
  5
30C
100
AcDbEntity
  8
1
370
    30
  6
Continuous
 62
     7
100
AcDbLine
 10
115.25
 20
186.46265
 30
0.0
 11
72.016984
 21
186.46265
 31
0.0
  0
LINE
  5
30D
100
AcDbEntity
  8
1
370
    30
  6
Continuous
 62
     7
100
AcDbLine
 10
71.969637
 20
187.76265
 30
0.0
 11
115.25
 21
187.76265
 31
0.0
  0
LINE
  5
30E
100
AcDbEntity
  8
1
370
    30
  6
Continuous
 62
     7
100
AcDbLine
 10
68.619121
 20
179.56262
 30
0.0
 11
48.75
 21
179.56262
 31
0.0
  0
LINE
  5
30F
100
AcDbEntity
  8
1
370
    30
  6
Continuous
 62
     7
100
AcDbLine
 10
48.75
 20
180.86265
 30
0.0
 11
48.75
 21
179.56262
 31
0.0
  0
LINE
  5
310
100
AcDbEntity
  8
1
370
    30
  6
Continuous
 62
     7
100
AcDbLine
 10
48.75
 20
180.86265
 30
0.0
 11
68.097839
 21
180.86265
 31
0.0
  0
LINE
  5
311
100
AcDbEntity
  8
1
370
    30
  6
Continuous
 62
     7
100
AcDbLine
 10
67.963536
 20
181.86265
 30
0.0
 11
48.75
 21
181.86265
 31
0.0
  0
LINE
  5
312
100
AcDbEntity
  8
1
370
    30
  6
Continuous
 62
     7
100
AcDbLine
 10
48.75
 20
181.86265
 30
0.0
 11
48.75
 21
183.16265
 31
0.0
  0
LINE
  5
313
100
AcDbEntity
  8
1
370
    30
  6
Continuous
 62
     7
100
AcDbLine
 10
48.75
 20
183.16265
 30
0.0
 11
68.27574
 21
183.16265
 31
0.0
  0
LINE
  5
314
100
AcDbEntity
  8
1
370
    30
  6
Continuous
 62
     7
100
AcDbLine
 10
68.812184
 20
184.16265
 30
0.0
 11
48.75
 21
184.16265
 31
0.0
  0
LINE
  5
315
100
AcDbEntity
  8
1
370
    30
  6
Continuous
 62
     7
100
AcDbLine
 10
48.75
 20
184.16265
 30
0.0
 11
48.75
 21
185.46265
 31
0.0
  0
LINE
  5
316
100
AcDbEntity
  8
1
370
    30
  6
Continuous
 62
     7
100
AcDbLine
 10
48.75
 20
185.46265
 30
0.0
 11
69.596865
 21
185.46265
 31
0.0
  0
LINE
  5
317
100
AcDbEntity
  8
1
370
    30
  6
Continuous
 62
     7
100
AcDbLine
 10
48.75
 20
186.46265
 30
0.0
 11
48.75
 21
187.76265
 31
0.0
  0
LINE
  5
318
100
AcDbEntity
  8
1
370
    30
  6
Continuous
 62
     7
100
AcDbLine
 10
48.75
 20
187.76265
 30
0.0
 11
69.969637
 21
187.76265
 31
0.0
  0
LINE
  5
319
100
AcDbEntity
  8
1
370
    30
  6
Continuous
 62
     7
100
AcDbLine
 10
70.016984
 20
186.46265
 30
0.0
 11
48.75
 21
186.46265
 31
0.0
  0
LINE
  5
31A
100
AcDbEntity
  8
1
370
    30
  6
Continuous
 62
     7
100
AcDbLine
 10
48.75
 20
179.812635
 30
0.0
 11
40.75
 21
179.812635
 31
0.0
  0
LINE
  5
31B
100
AcDbEntity
  8
1
370
    30
  6
Continuous
 62
     7
100
AcDbLine
 10
40.75
 20
179.812635
 30
0.0
 11
40.75
 21
180.612635
 31
0.0
  0
LINE
  5
31C
100
AcDbEntity
  8
1
370
    30
  6
Continuous
 62
     7
100
AcDbLine
 10
40.75
 20
180.612635
 30
0.0
 11
48.75
 21
180.612635
 31
0.0
  0
LINE
  5
31D
100
AcDbEntity
  8
1
370
    30
  6
Continuous
 62
     7
100
AcDbLine
 10
48.75
 20
182.112665
 30
0.0
 11
40.75
 21
182.112665
 31
0.0
  0
LINE
  5
31E
100
AcDbEntity
  8
1
370
    30
  6
Continuous
 62
     7
100
AcDbLine
 10
40.75
 20
182.112665
 30
0.0
 11
40.75
 21
182.912665
 31
0.0
  0
LINE
  5
31F
100
AcDbEntity
  8
1
370
    30
  6
Continuous
 62
     7
100
AcDbLine
 10
40.75
 20
182.912665
 30
0.0
 11
48.75
 21
182.912665
 31
0.0
  0
LINE
  5
320
100
AcDbEntity
  8
1
370
    30
  6
Continuous
 62
     7
100
AcDbLine
 10
48.75
 20
184.412665
 30
0.0
 11
40.75
 21
184.412665
 31
0.0
  0
LINE
  5
321
100
AcDbEntity
  8
1
370
    30
  6
Continuous
 62
     7
100
AcDbLine
 10
40.75
 20
184.412665
 30
0.0
 11
40.75
 21
185.212665
 31
0.0
  0
LINE
  5
322
100
AcDbEntity
  8
1
370
    30
  6
Continuous
 62
     7
100
AcDbLine
 10
40.75
 20
185.212665
 30
0.0
 11
48.75
 21
185.212665
 31
0.0
  0
LINE
  5
323
100
AcDbEntity
  8
1
370
    30
  6
Continuous
 62
     7
100
AcDbLine
 10
48.75
 20
186.712665
 30
0.0
 11
40.75
 21
186.712665
 31
0.0
  0
LINE
  5
324
100
AcDbEntity
  8
1
370
    30
  6
Continuous
 62
     7
100
AcDbLine
 10
40.75
 20
186.712665
 30
0.0
 11
40.75
 21
187.512665
 31
0.0
  0
LINE
  5
325
100
AcDbEntity
  8
1
370
    30
  6
Continuous
 62
     7
100
AcDbLine
 10
40.75
 20
187.512665
 30
0.0
 11
48.75
 21
187.512665
 31
0.0
  0
DIMENSION
  5
331
100
AcDbEntity
  8
1
370
     9
  6
Continuous
 62
     7
100
AcDbDimension
  2
*D6
 10
40.75
 20
142.603
 30
0.0
 11
44.75
 21
143.103
 31
0.0
 71
     5
 72
     1
 41
1.0
 42
0.0
  1
(8)
100
AcDbAlignedDimension
 13
40.75
 23
177.812635
 33
0.0
 14
48.75
 24
177.56262
 34
0.0
100
AcDbRotatedDimension
  0
DIMENSION
  5
33D
100
AcDbEntity
  8
1
370
     9
  6
Continuous
 62
     7
100
AcDbDimension
  2
*D7
 10
268.75
 20
130.057
 30
0.0
 11
154.75
 21
130.557
 31
0.0
 71
     5
 72
     1
 41
1.0
 42
0.0
  1
(291)
100
AcDbAlignedDimension
 13
268.75
 23
172.99845
 33
0.0
 14
40.75
 24
177.812635
 34
0.0
100
AcDbRotatedDimension
  0
LINE
  5
33E
100
AcDbEntity
  8
1
370
     9
  6
Continuous
 62
     7
100
AcDbLine
 10
44.836
 20
187.512665
 30
0.0
 11
43.054824
 21
189.121209
 31
0.0
  0
LINE
  5
33F
100
AcDbEntity
  8
1
370
     9
  6
Continuous
 62
     7
100
AcDbLine
 10
44.836
 20
187.512665
 30
0.0
 11
44.097728
 21
189.796293
 31
0.0
  0
POLYLINE
  5
340
100
AcDbEntity
  8
1
370
     9
  6
Continuous
 62
     7
100
AcDb2dPolyline
 66
     1
 10
0.0
 20
0.0
 30
0.0
  0
VERTEX
  5
341
100
AcDbEntity
  8
1
370
     9
  6
Continuous
 62
     7
100
AcDbVertex
100
AcDb2dVertex
 10
44.836
 20
187.512665
 30
0.0
  0
VERTEX
  5
342
100
AcDbEntity
  8
1
370
     9
  6
Continuous
 62
     7
100
AcDbVertex
100
AcDb2dVertex
 10
37.56
 20
198.753
 30
0.0
  0
VERTEX
  5
343
100
AcDbEntity
  8
1
370
     9
  6
Continuous
 62
     7
100
AcDbVertex
100
AcDb2dVertex
 10
21.76
 20
198.753
 30
0.0
  0
SEQEND
  5
344
100
AcDbEntity
  8
1
370
     9
  6
Continuous
 62
     7
  0
TEXT
  5
345
100
AcDbEntity
  8
1
370
     9
  6
Continuous
 62
     7
100
AcDbText
 10
21.76
 20
199.253
 30
0.0
 40
3.0
  1
ハンダ処理
 41
0.877778
 11
21.76
 21
199.253
 31
0.0
100
AcDbText
 73
     1
  0
LINE
  5
346
100
AcDbEntity
  8
1
370
     9
  6
Continuous
 62
     7
100
AcDbLine
 10
108.969
 20
190.514
 30
0.0
 11
107.227207
 21
192.165108
 31
0.0
  0
LINE
  5
347
100
AcDbEntity
  8
1
370
     9
  6
Continuous
 62
     7
100
AcDbLine
 10
108.969
 20
190.514
 30
0.0
 11
108.286117
 21
192.814798
 31
0.0
  0
POLYLINE
  5
348
100
AcDbEntity
  8
1
370
     9
  6
Continuous
 62
     7
100
AcDb2dPolyline
 66
     1
 10
0.0
 20
0.0
 30
0.0
  0
VERTEX
  5
349
100
AcDbEntity
  8
1
370
     9
  6
Continuous
 62
     7
100
AcDbVertex
100
AcDb2dVertex
 10
108.969
 20
190.514
 30
0.0
  0
VERTEX
  5
34A
100
AcDbEntity
  8
1
370
     9
  6
Continuous
 62
     7
100
AcDbVertex
100
AcDb2dVertex
 10
96.93
 20
210.136
 30
0.0
  0
VERTEX
  5
34B
100
AcDbEntity
  8
1
370
     9
  6
Continuous
 62
     7
100
AcDbVertex
100
AcDb2dVertex
 10
77.93
 20
210.136
 30
0.0
  0
SEQEND
  5
34C
100
AcDbEntity
  8
1
370
     9
  6
Continuous
 62
     7
  0
TEXT
  5
34D
100
AcDbEntity
  8
1
370
     9
  6
Continuous
 62
     7
100
AcDbText
 10
77.93
 20
210.636
 30
0.0
 40
3.0
  1
ジャンパー線
 41
0.87963
 11
77.93
 21
210.636
 31
0.0
100
AcDbText
 73
     1
  0
TEXT
  5
34E
100
AcDbEntity
  8
15
370
     9
  6
Continuous
 62
    96
100
AcDbText
 10
364.291982
 20
28.440418
 30
0.0
 40
3.000885
  1
2016年04月27日
 41
0.603448
 11
364.291982
 21
28.440418
 31
0.0
100
AcDbText
 73
     1
  0
TEXT
  5
34F
100
AcDbEntity
  8
15
370
     9
  6
Continuous
 62
    96
100
AcDbText
 10
327.1708
 20
28.259791
 30
0.0
 40
3.5
  1
G19121-01-16427
 41
0.5
 11
327.1708
 21
28.259791
 31
0.0
100
AcDbText
 73
     1
  0
TEXT
  5
350
100
AcDbEntity
  8
1
370
     9
  6
Continuous
 62
     7
100
AcDbText
 10
133.892014
 20
189.162
 30
0.0
 40
2.3
  1
型式：TS-OP-4W
 41
0.625937
 11
133.892014
 21
189.162
 31
0.0
100
AcDbText
 73
     1
  0
TEXT
  5
351
100
AcDbEntity
  8
1
370
     9
  6
Continuous
 62
     7
100
AcDbText
 10
133.892
 20
192.923
 30
0.0
 40
2.3
  1
品名：
 41
0.809179
 11
133.892
 21
192.923
 31
0.0
100
AcDbText
 73
     1
  0
TEXT
  5
352
100
AcDbEntity
  8
1
370
     9
  6
Continuous
 62
     7
100
AcDbText
 10
133.922
 20
185.478
 30
0.0
 40
2.3
  1
S/N
 41
0.557971
 11
133.922
 21
185.478
 31
0.0
100
AcDbText
 73
     1
  0
TEXT
  5
353
100
AcDbEntity
  8
1
370
     9
  6
Continuous
 62
     7
100
AcDbText
 10
138.428
 20
185.699
 30
0.0
 40
2.3
  1
：**** ******
 41
0.631909
 11
138.428
 21
185.699
 31
0.0
100
AcDbText
 73
     1
  0
INSERT
  5
35B
100
AcDbEntity
  8
0
370
     9
  6
Continuous
 62
     7
100
AcDbBlockReference
  2
*G8
 10
0.0
 20
0.0
 30
0.0
  0
TEXT
  5
35C
100
AcDbEntity
  8
1
370
     9
  6
Continuous
 62
     7
100
AcDbText
 10
140.681
 20
192.82
 30
0.0
 40
2.3
  1
4線式操作表示器アダプタ ー
 41
0.738283
 11
140.681
 21
192.82
 31
0.0
100
AcDbText
 73
     1
  0
TEXT
  5
35D
100
AcDbEntity
  8
15
370
     9
  6
Continuous
 62
    96
100
AcDbText
 10
355.4528
 20
61.032791
 30
0.0
 40
3.5
  1
G19121-01-16407
 41
0.5
 11
355.4528
 21
61.032791
 31
0.0
100
AcDbText
 73
     1
  0
ENDSEC
  0
SECTION
  2
OBJECTS
  0
DICTIONARY
  5
19
100
AcDbDictionary
280
     0
281
     1
  3
ACAD_GROUP
350
1A
  3
ACAD_MLINESTYLE
350
1B
  3
ACAD_LAYOUT
350
1E
  3
ACAD_PLOTSETTINGS
350
22
  3
ACAD_PLOTSTYLENAME
350
1F
  3
ACAD_WIPEOUT_VARS
350
23
  0
DICTIONARY
  5
1A
102
{ACAD_REACTORS
330
19
102
}
100
AcDbDictionary
280
     0
281
     1
  0
DICTIONARY
  5
1B
102
{ACAD_REACTORS
330
19
102
}
100
AcDbDictionary
280
     0
281
     1
  3
Standard
350
1C
  0
MLINESTYLE
  5
1C
102
{ACAD_REACTORS
330
1B
102
}
100
AcDbMlineStyle
  2
Standard
 70
     0
  3

 62
     0
 51
90.0
 52
90.0
 71
     2
 49
0.5
 62
   256
  6
ByLayer
 49
-0.5
 62
   256
  6
ByLayer
  0
ACDBDICTIONARYWDFLT
  5
1F
102
{ACAD_REACTORS
330
19
102
}
100
AcDbDictionary
281
     1
  3
Normal
350
1D
100
AcDbDictionaryWithDefault
340
1D
  0
ACDBPLACEHOLDER
  5
1D
102
{ACAD_REACTORS
330
1F
102
}
  0
LAYOUT
  5
20
102
{ACAD_REACTORS
330
1E
102
}
100
AcDbPlotSettings
  1

  2

  4

  6

 40
0.0
 41
0.0
 42
0.0
 43
0.0
 44
0.0
 45
0.0
 46
0.0
 47
0.0
 48
0.0
 49
0.0
140
0.0
141
0.0
142
1.0
143
1.0
 70
  1024
 72
     0
 73
     0
 74
     0
  7

 75
     0
147
1.0
148
0.0
149
0.0
100
AcDbLayout
  1
Model
 70
     0
 71
     0
 10
0.0
 20
0.0
 11
0.0
 21
0.0
 12
0.0
 22
0.0
 32
0.0
 14
0.0
 24
0.0
 34
0.0
 15
0.0
 25
0.0
 35
0.0
146
0.0
 13
0.0
 23
0.0
 33
0.0
 16
0.0
 26
0.0
 36
0.0
 17
0.0
 27
0.0
 37
0.0
 76
     0
330
A
331
0
345
0
346
0
  0
LAYOUT
  5
21
102
{ACAD_REACTORS
330
1E
102
}
100
AcDbPlotSettings
  1

  2

  4

  6

 40
0.0
 41
0.0
 42
0.0
 43
0.0
 44
0.0
 45
0.0
 46
0.0
 47
0.0
 48
0.0
 49
0.0
140
0.0
141
0.0
142
1.0
143
1.0
 70
     0
 72
     0
 73
     0
 74
     0
  7

 75
     0
147
1.0
148
0.0
149
0.0
100
AcDbLayout
  1
Layout1
 70
     0
 71
     0
 10
0.0
 20
0.0
 11
0.0
 21
0.0
 12
0.0
 22
0.0
 32
0.0
 14
0.0
 24
0.0
 34
0.0
 15
0.0
 25
0.0
 35
0.0
146
0.0
 13
0.0
 23
0.0
 33
0.0
 16
0.0
 26
0.0
 36
0.0
 17
0.0
 27
0.0
 37
0.0
 76
     0
330
B
331
0
345
0
346
0
  0
DICTIONARY
  5
1E
102
{ACAD_REACTORS
330
19
102
}
100
AcDbDictionary
280
     0
281
     1
  3
Layout1
350
21
  3
Model
350
20
  0
DICTIONARY
  5
22
102
{ACAD_REACTORS
330
19
102
}
100
AcDbDictionary
280
     0
281
     1
  0
WIPEOUTVARIABLES
  5
23
100
AcDbWipeoutVariables
 70
     1
  0
ENDSEC
  0
EOF
