  0
SECTION
  2
HEADER
  9
$ACADVER
  1
AC1015
  9
$ACADMAINTVER
 70
    13
  9
$DWGCODEPAGE
  3
ANSI_932
  9
$INSBASE
 10
0.0
 20
0.0
 30
0.0
  9
$EXTMIN
 10
14.95908246196404
 20
14.94985220586386
 30
-0.0015258207003583
  9
$EXTMAX
 10
413.6552440521663
 20
272.3166885572445
 30
0.0000000349246037
  9
$LIMMIN
 10
0.0
 20
0.0
  9
$LIMMAX
 10
420.0
 20
297.0
  9
$ORTHOMODE
 70
     0
  9
$REGENMODE
 70
     1
  9
$FILLMODE
 70
     1
  9
$QTEXTMODE
 70
     0
  9
$MIRRTEXT
 70
     1
  9
$LTSCALE
 40
0.25
  9
$ATTMODE
 70
     1
  9
$TEXTSIZE
 40
0.2
  9
$TRACEWID
 40
0.05
  9
$TEXTSTYLE
  7
STANDARD
  9
$CLAYER
  8
0
  9
$CELTYPE
  6
ByLayer
  9
$CECOLOR
 62
   256
  9
$CELTSCALE
 40
1.0
  9
$DISPSILH
 70
     0
  9
$DIMSCALE
 40
1.0
  9
$DIMASZ
 40
1.0
  9
$DIMEXO
 40
0.0
  9
$DIMDLI
 40
0.5
  9
$DIMRND
 40
0.0
  9
$DIMDLE
 40
0.0
  9
$DIMEXE
 40
0.0
  9
$DIMTP
 40
0.0
  9
$DIMTM
 40
0.0
  9
$DIMTXT
 40
0.18
  9
$DIMCEN
 40
0.0
  9
$DIMTSZ
 40
0.0
  9
$DIMTOL
 70
     0
  9
$DIMLIM
 70
     0
  9
$DIMTIH
 70
     1
  9
$DIMTOH
 70
     1
  9
$DIMSE1
 70
     0
  9
$DIMSE2
 70
     0
  9
$DIMTAD
 70
     0
  9
$DIMZIN
 70
     0
  9
$DIMBLK
  1

  9
$DIMASO
 70
     0
  9
$DIMSHO
 70
     0
  9
$DIMPOST
  1

  9
$DIMAPOST
  1

  9
$DIMALT
 70
     0
  9
$DIMALTD
 70
     0
  9
$DIMALTF
 40
25.4
  9
$DIMLFAC
 40
1.0
  9
$DIMTOFL
 70
     0
  9
$DIMTVP
 40
0.0
  9
$DIMTIX
 70
     0
  9
$DIMSOXD
 70
     0
  9
$DIMSAH
 70
     0
  9
$DIMBLK1
  1

  9
$DIMBLK2
  1

  9
$DIMSTYLE
  2
Standard
  9
$DIMCLRD
 70
     0
  9
$DIMCLRE
 70
     0
  9
$DIMCLRT
 70
     0
  9
$DIMTFAC
 40
1.0
  9
$DIMGAP
 40
0.09
  9
$DIMJUST
 70
     0
  9
$DIMSD1
 70
     0
  9
$DIMSD2
 70
     0
  9
$DIMTOLJ
 70
     1
  9
$DIMTZIN
 70
     0
  9
$DIMALTZ
 70
     0
  9
$DIMALTTZ
 70
     0
  9
$DIMUPT
 70
     0
  9
$DIMDEC
 70
     4
  9
$DIMTDEC
 70
     4
  9
$DIMALTU
 70
     2
  9
$DIMALTTD
 70
     2
  9
$DIMTXSTY
  7
STANDARD
  9
$DIMAUNIT
 70
     0
  9
$DIMADEC
 70
     0
  9
$DIMALTRND
 40
0.0
  9
$DIMAZIN
 70
     0
  9
$DIMDSEP
 70
    46
  9
$DIMATFIT
 70
     3
  9
$DIMFRAC
 70
     0
  9
$DIMLDRBLK
  1

  9
$DIMLUNIT
 70
     2
  9
$DIMLWD
 70
    -2
  9
$DIMLWE
 70
    -2
  9
$DIMTMOVE
 70
     0
  9
$LUNITS
 70
     2
  9
$LUPREC
 70
     2
  9
$SKETCHINC
 40
0.0
  9
$FILLETRAD
 40
0.0
  9
$AUNITS
 70
     1
  9
$AUPREC
 70
     2
  9
$MENU
  1
ACAD
  9
$ELEVATION
 40
0.0
  9
$PELEVATION
 40
0.0
  9
$THICKNESS
 40
0.0
  9
$LIMCHECK
 70
     1
  9
$CHAMFERA
 40
0.0
  9
$CHAMFERB
 40
0.0
  9
$CHAMFERC
 40
0.0
  9
$CHAMFERD
 40
0.0
  9
$SKPOLY
 70
     0
  9
$TDCREATE
 40
2312275.042607615
  9
$TDUCREATE
 40
2312274.667607615
  9
$TDUPDATE
 40
2456280.578897974
  9
$TDUUPDATE
 40
2456280.203897974
  9
$TDINDWG
 40
0.0004536921
  9
$TDUSRTIMER
 40
0.0004535185
  9
$USRTIMER
 70
     1
  9
$ANGBASE
 50
0.0
  9
$ANGDIR
 70
     0
  9
$PDMODE
 70
     0
  9
$PDSIZE
 40
0.0
  9
$PLINEWID
 40
0.0
  9
$SPLFRAME
 70
     0
  9
$SPLINETYPE
 70
     6
  9
$SPLINESEGS
 70
     8
  9
$HANDSEED
  5
43F
  9
$SURFTAB1
 70
     6
  9
$SURFTAB2
 70
     6
  9
$SURFTYPE
 70
     6
  9
$SURFU
 70
     6
  9
$SURFV
 70
     6
  9
$UCSBASE
  2

  9
$UCSNAME
  2

  9
$UCSORG
 10
0.0
 20
0.0
 30
0.0
  9
$UCSXDIR
 10
1.0
 20
0.0
 30
0.0
  9
$UCSYDIR
 10
0.0
 20
1.0
 30
0.0
  9
$UCSORTHOREF
  2

  9
$UCSORTHOVIEW
 70
     0
  9
$UCSORGTOP
 10
0.0
 20
0.0
 30
0.0
  9
$UCSORGBOTTOM
 10
0.0
 20
0.0
 30
0.0
  9
$UCSORGLEFT
 10
0.0
 20
0.0
 30
0.0
  9
$UCSORGRIGHT
 10
0.0
 20
0.0
 30
0.0
  9
$UCSORGFRONT
 10
0.0
 20
0.0
 30
0.0
  9
$UCSORGBACK
 10
0.0
 20
0.0
 30
0.0
  9
$PUCSBASE
  2

  9
$PUCSNAME
  2

  9
$PUCSORG
 10
0.0
 20
0.0
 30
0.0
  9
$PUCSXDIR
 10
1.0
 20
0.0
 30
0.0
  9
$PUCSYDIR
 10
0.0
 20
1.0
 30
0.0
  9
$PUCSORTHOREF
  2

  9
$PUCSORTHOVIEW
 70
     0
  9
$PUCSORGTOP
 10
0.0
 20
0.0
 30
0.0
  9
$PUCSORGBOTTOM
 10
0.0
 20
0.0
 30
0.0
  9
$PUCSORGLEFT
 10
0.0
 20
0.0
 30
0.0
  9
$PUCSORGRIGHT
 10
0.0
 20
0.0
 30
0.0
  9
$PUCSORGFRONT
 10
0.0
 20
0.0
 30
0.0
  9
$PUCSORGBACK
 10
0.0
 20
0.0
 30
0.0
  9
$USERI1
 70
     0
  9
$USERI2
 70
     0
  9
$USERI3
 70
     0
  9
$USERI4
 70
     0
  9
$USERI5
 70
     0
  9
$USERR1
 40
0.0
  9
$USERR2
 40
0.0
  9
$USERR3
 40
0.0
  9
$USERR4
 40
0.0
  9
$USERR5
 40
0.0
  9
$WORLDVIEW
 70
     1
  9
$SHADEDGE
 70
     3
  9
$SHADEDIF
 70
    70
  9
$TILEMODE
 70
     1
  9
$MAXACTVP
 70
    64
  9
$PINSBASE
 10
0.0
 20
0.0
 30
0.0
  9
$PLIMCHECK
 70
     0
  9
$PEXTMIN
 10
0.0
 20
0.0
 30
0.0
  9
$PEXTMAX
 10
420.0
 20
297.0
 30
0.0
  9
$PLIMMIN
 10
0.0
 20
0.0
  9
$PLIMMAX
 10
12.0
 20
9.0
  9
$UNITMODE
 70
     0
  9
$VISRETAIN
 70
     1
  9
$PLINEGEN
 70
     0
  9
$PSLTSCALE
 70
     1
  9
$TREEDEPTH
 70
  3020
  9
$CMLSTYLE
  2
Standard
  9
$CMLJUST
 70
     0
  9
$CMLSCALE
 40
1.0
  9
$PROXYGRAPHICS
 70
     1
  9
$MEASUREMENT
 70
     0
  9
$CELWEIGHT
370
    -1
  9
$ENDCAPS
280
     0
  9
$JOINSTYLE
280
     0
  9
$LWDISPLAY
290
     0
  9
$INSUNITS
 70
     0
  9
$HYPERLINKBASE
  1

  9
$STYLESHEET
  1

  9
$XEDIT
290
     1
  9
$CEPSNTYPE
380
     0
  9
$PSTYLEMODE
290
     1
  9
$FINGERPRINTGUID
  2
{9BC3DFF1-B356-4410-9147-259E1F7F8559}
  9
$VERSIONGUID
  2
{C569CE81-4361-4906-A1DF-9AD4D4987507}
  9
$EXTNAMES
290
     1
  9
$PSVPSCALE
 40
0.0
  9
$OLESTARTUP
290
     0
  0
ENDSEC
  0
SECTION
  2
CLASSES
  0
CLASS
  1
ACDBDICTIONARYWDFLT
  2
AcDbDictionaryWithDefault
  3
AutoCAD 2000
 90
        0
280
     0
281
     0
  0
CLASS
  1
ACDBPLACEHOLDER
  2
AcDbPlaceHolder
  3
AutoCAD 2000
 90
        0
280
     0
281
     0
  0
CLASS
  1
LAYOUT
  2
AcDbLayout
  3
AutoCAD 2000
 90
        0
280
     0
281
     0
  0
CLASS
  1
DICTIONARYVAR
  2
AcDbDictionaryVar
  3
AutoCAD 2000
 90
        0
280
     0
281
     0
  0
ENDSEC
  0
SECTION
  2
TABLES
  0
TABLE
  2
VPORT
  5
8
330
0
100
AcDbSymbolTable
 70
     2
  0
VPORT
  5
43E
330
8
100
AcDbSymbolTableRecord
100
AcDbViewportTableRecord
  2
*Active
 70
     0
 10
0.0
 20
0.0
 11
1.0
 21
1.0
 12
214.3071632570652
 22
143.6332703815542
 13
0.0
 23
0.0
 14
1.0
 24
1.0
 15
0.0
 25
0.0
 16
0.0
 26
0.0
 36
1.0
 17
0.0
 27
0.0
 37
0.0
 40
259.2922740298199
 41
1.570536828963795
 42
50.0
 43
0.0
 44
0.0
 50
0.0
 51
0.0
 71
     0
 72
   100
 73
     1
 74
     1
 75
     0
 76
     0
 77
     0
 78
     0
281
     0
 65
     1
110
0.0
120
0.0
130
0.0
111
1.0
121
0.0
131
0.0
112
0.0
122
1.0
132
0.0
 79
     0
146
0.0
  0
ENDTAB
  0
TABLE
  2
LTYPE
  5
5
330
0
100
AcDbSymbolTable
 70
     5
  0
LTYPE
  5
13
330
5
100
AcDbSymbolTableRecord
100
AcDbLinetypeTableRecord
  2
ByBlock
 70
     0
  3

 72
    65
 73
     0
 40
0.0
  0
LTYPE
  5
14
330
5
100
AcDbSymbolTableRecord
100
AcDbLinetypeTableRecord
  2
ByLayer
 70
     0
  3

 72
    65
 73
     0
 40
0.0
  0
LTYPE
  5
15
330
5
100
AcDbSymbolTableRecord
100
AcDbLinetypeTableRecord
  2
CONTINUOUS
 70
     0
  3
Solid line
 72
    65
 73
     0
 40
0.0
  0
LTYPE
  5
22
330
5
100
AcDbSymbolTableRecord
100
AcDbLinetypeTableRecord
  2
HIDDEN
 70
     0
  3
------------------------
 72
    65
 73
     2
 40
12.6
 49
8.4
 74
     0
 49
-4.2
 74
     0
  0
LTYPE
  5
23
330
5
100
AcDbSymbolTableRecord
100
AcDbLinetypeTableRecord
  2
DOT
 70
     0
  3
････････････････････････
 72
    65
 73
     2
 40
8.0
 49
6.0
 74
     0
 49
-2.0
 74
     0
  0
LTYPE
  5
24
330
5
100
AcDbSymbolTableRecord
100
AcDbLinetypeTableRecord
  2
DASHDOT
 70
     0
  3
--･--･--･--･--･--･--･--
 72
    65
 73
     4
 40
50.5
 49
30.0
 74
     0
 49
-9.0
 74
     0
 49
2.5
 74
     0
 49
-9.0
 74
     0
  0
LTYPE
  5
25
330
5
100
AcDbSymbolTableRecord
100
AcDbLinetypeTableRecord
  2
DIVIDE
 70
     0
  3
--･･--･･--･･--･･--･･--
 72
    65
 73
     6
 40
58.0
 49
30.0
 74
     0
 49
-9.0
 74
     0
 49
2.5
 74
     0
 49
-5.0
 74
     0
 49
2.5
 74
     0
 49
-9.0
 74
     0
  0
ENDTAB
  0
TABLE
  2
LAYER
  5
2
330
0
100
AcDbSymbolTable
 70
     4
  0
LAYER
  5
10
330
2
100
AcDbSymbolTableRecord
100
AcDbLayerTableRecord
  2
0
 70
     0
 62
     7
  6
CONTINUOUS
370
    -3
390
F
  0
LAYER
  5
26
330
2
100
AcDbSymbolTableRecord
100
AcDbLayerTableRecord
  2
1
 70
     0
 62
     7
  6
CONTINUOUS
370
    -3
390
F
  0
LAYER
  5
27
330
2
100
AcDbSymbolTableRecord
100
AcDbLayerTableRecord
  2
11
 70
     0
 62
   251
  6
CONTINUOUS
370
    -3
390
F
  0
LAYER
  5
28
330
2
100
AcDbSymbolTableRecord
100
AcDbLayerTableRecord
  2
15
 70
     0
 62
    96
  6
CONTINUOUS
370
    -3
390
F
  0
ENDTAB
  0
TABLE
  2
STYLE
  5
3
330
0
100
AcDbSymbolTable
 70
     2
  0
STYLE
  5
11
330
3
100
AcDbSymbolTableRecord
100
AcDbTextStyleTableRecord
  2
STANDARD
 70
     0
 40
0.0
 41
1.0
 50
0.0
 71
     0
 42
0.2
  3
TXT
  4

  0
STYLE
  5
29
330
3
100
AcDbSymbolTableRecord
100
AcDbTextStyleTableRecord
  2
KANJI
 70
     0
 40
0.0
 41
1.0
 50
0.0
 71
     0
 42
0.2
  3
TXT
  4
BIGFONT
  0
ENDTAB
  0
TABLE
  2
VIEW
  5
6
330
0
100
AcDbSymbolTable
 70
     0
  0
ENDTAB
  0
TABLE
  2
UCS
  5
7
330
0
100
AcDbSymbolTable
 70
     0
  0
ENDTAB
  0
TABLE
  2
APPID
  5
9
330
0
100
AcDbSymbolTable
 70
     1
  0
APPID
  5
12
330
9
100
AcDbSymbolTableRecord
100
AcDbRegAppTableRecord
  2
ACAD
 70
     0
  0
ENDTAB
  0
TABLE
  2
DIMSTYLE
  5
A
330
0
100
AcDbSymbolTable
 70
     1
100
AcDbDimStyleTable
 71
     0
  0
DIMSTYLE
105
43A
330
A
100
AcDbSymbolTableRecord
100
AcDbDimStyleTableRecord
  2
Standard
 70
     0
340
11
  0
ENDTAB
  0
TABLE
  2
BLOCK_RECORD
  5
1
330
0
100
AcDbSymbolTable
 70
    11
  0
BLOCK_RECORD
  5
1E
330
1
100
AcDbSymbolTableRecord
100
AcDbBlockTableRecord
  2
*Model_Space
340
21
  0
BLOCK_RECORD
  5
1A
330
1
100
AcDbSymbolTableRecord
100
AcDbBlockTableRecord
  2
*Paper_Space
340
1D
  0
BLOCK_RECORD
  5
2D
330
1
100
AcDbSymbolTableRecord
100
AcDbBlockTableRecord
  2
*D0
340
0
  0
BLOCK_RECORD
  5
38
330
1
100
AcDbSymbolTableRecord
100
AcDbBlockTableRecord
  2
*D1
340
0
  0
BLOCK_RECORD
  5
43
330
1
100
AcDbSymbolTableRecord
100
AcDbBlockTableRecord
  2
*D2
340
0
  0
BLOCK_RECORD
  5
4E
330
1
100
AcDbSymbolTableRecord
100
AcDbBlockTableRecord
  2
*D3
340
0
  0
BLOCK_RECORD
  5
59
330
1
100
AcDbSymbolTableRecord
100
AcDbBlockTableRecord
  2
*D4
340
0
  0
BLOCK_RECORD
  5
64
330
1
100
AcDbSymbolTableRecord
100
AcDbBlockTableRecord
  2
*D5
340
0
  0
BLOCK_RECORD
  5
6F
330
1
100
AcDbSymbolTableRecord
100
AcDbBlockTableRecord
  2
*D6
340
0
  0
BLOCK_RECORD
  5
7A
330
1
100
AcDbSymbolTableRecord
100
AcDbBlockTableRecord
  2
*D7
340
0
  0
BLOCK_RECORD
  5
85
330
1
100
AcDbSymbolTableRecord
100
AcDbBlockTableRecord
  2
*D8
340
0
  0
BLOCK_RECORD
  5
8E
330
1
100
AcDbSymbolTableRecord
100
AcDbBlockTableRecord
  2
*D9
340
0
  0
BLOCK_RECORD
  5
99
330
1
100
AcDbSymbolTableRecord
100
AcDbBlockTableRecord
  2
*D10
340
0
  0
ENDTAB
  0
ENDSEC
  0
SECTION
  2
BLOCKS
  0
BLOCK
  5
1F
330
1E
100
AcDbEntity
  8
0
100
AcDbBlockBegin
  2
*Model_Space
 70
     0
 10
0.0
 20
0.0
 30
0.0
  3
*Model_Space
  1

  0
ENDBLK
  5
20
330
1E
100
AcDbEntity
  8
0
100
AcDbBlockEnd
  0
BLOCK
  5
1B
330
1A
100
AcDbEntity
 67
     1
  8
0
100
AcDbBlockBegin
  2
*Paper_Space
 70
     0
 10
0.0
 20
0.0
 30
0.0
  3
*Paper_Space
  1

  0
ENDBLK
  5
1C
330
1A
100
AcDbEntity
 67
     1
  8
0
100
AcDbBlockEnd
  0
BLOCK
  5
2E
330
2D
100
AcDbEntity
  8
1
  6
Continuous
 62
     7
100
AcDbBlockBegin
  2
*D0
 70
     1
 10
0.0
 20
0.0
 30
0.0
  3
*D0
  1

  0
LINE
  5
2F
330
2D
100
AcDbEntity
  8
1
  6
Continuous
 62
     7
100
AcDbLine
 10
926.552
 20
1209.065999999999
 30
0.0
 11
898.8519999999999
 21
1209.065999999999
 31
0.0
  0
LINE
  5
30
330
2D
100
AcDbEntity
  8
1
  6
Continuous
 62
     7
100
AcDbLine
 10
926.552
 20
1211.066
 30
0.0
 11
926.552
 21
1163.066
 31
0.0
  0
LINE
  5
31
330
2D
100
AcDbEntity
  8
1
  6
Continuous
 62
     7
100
AcDbLine
 10
898.8519999999999
 20
1211.066
 30
0.0
 11
898.8519999999999
 21
1191.065999999999
 31
0.0
  0
LINE
  5
32
330
2D
100
AcDbEntity
  8
1
  6
Continuous
 62
     7
100
AcDbLine
 10
926.552
 20
1209.065999999999
 30
0.0
 11
924.2337779999999
 21
1208.444834
 31
0.0
  0
LINE
  5
33
330
2D
100
AcDbEntity
  8
1
  6
Continuous
 62
     7
100
AcDbLine
 10
926.552
 20
1209.065999999999
 30
0.0
 11
924.2337779999999
 21
1209.687166
 31
0.0
  0
LINE
  5
34
330
2D
100
AcDbEntity
  8
1
  6
Continuous
 62
     7
100
AcDbLine
 10
898.8519999999999
 20
1209.065999999999
 30
0.0
 11
901.1702220000001
 21
1209.687166
 31
0.0
  0
LINE
  5
35
330
2D
100
AcDbEntity
  8
1
  6
Continuous
 62
     7
100
AcDbLine
 10
898.8519999999999
 20
1209.065999999999
 30
0.0
 11
901.1702220000001
 21
1208.444834
 31
0.0
  0
TEXT
  5
36
330
2D
100
AcDbEntity
  8
1
  6
Continuous
 62
     7
100
AcDbText
 10
904.202
 20
1209.566
 30
0.0
 40
3.0
  1
（27.7）
 41
0.9777779999999999
  7
KANJI
100
AcDbText
  0
ENDBLK
  5
37
330
2D
100
AcDbEntity
  8
0
100
AcDbBlockEnd
  0
BLOCK
  5
39
330
38
100
AcDbEntity
  8
1
  6
Continuous
 62
     7
100
AcDbBlockBegin
  2
*D1
 70
     1
 10
0.0
 20
0.0
 30
0.0
  3
*D1
  1

  0
LINE
  5
3A
330
38
100
AcDbEntity
  8
1
  6
Continuous
 62
     7
100
AcDbLine
 10
882.052
 20
1209.065999999999
 30
0.0
 11
906.8519999999999
 21
1209.065999999999
 31
0.0
  0
LINE
  5
3B
330
38
100
AcDbEntity
  8
1
  6
Continuous
 62
     7
100
AcDbLine
 10
890.052
 20
1211.066
 30
0.0
 11
890.052
 21
1193.348999999999
 31
0.0
  0
LINE
  5
3C
330
38
100
AcDbEntity
  8
1
  6
Continuous
 62
     7
100
AcDbLine
 10
898.8519999999999
 20
1211.066
 30
0.0
 11
898.8519999999999
 21
1193.348999999999
 31
0.0
  0
LINE
  5
3D
330
38
100
AcDbEntity
  8
1
  6
Continuous
 62
     7
100
AcDbLine
 10
890.052
 20
1209.065999999999
 30
0.0
 11
887.7337779999999
 21
1208.444834
 31
0.0
  0
LINE
  5
3E
330
38
100
AcDbEntity
  8
1
  6
Continuous
 62
     7
100
AcDbLine
 10
890.052
 20
1209.065999999999
 30
0.0
 11
887.7337779999999
 21
1209.687166
 31
0.0
  0
LINE
  5
3F
330
38
100
AcDbEntity
  8
1
  6
Continuous
 62
     7
100
AcDbLine
 10
898.8519999999999
 20
1209.065999999999
 30
0.0
 11
901.1702220000001
 21
1209.687166
 31
0.0
  0
LINE
  5
40
330
38
100
AcDbEntity
  8
1
  6
Continuous
 62
     7
100
AcDbLine
 10
898.8519999999999
 20
1209.065999999999
 30
0.0
 11
901.1702220000001
 21
1208.444834
 31
0.0
  0
TEXT
  5
41
330
38
100
AcDbEntity
  8
1
  6
Continuous
 62
     7
100
AcDbText
 10
891.2519999999998
 20
1209.566
 30
0.0
 40
3.0
  1
8.8
 41
0.7333330000000001
  7
KANJI
100
AcDbText
  0
ENDBLK
  5
42
330
38
100
AcDbEntity
  8
0
100
AcDbBlockEnd
  0
BLOCK
  5
44
330
43
100
AcDbEntity
  8
1
  6
Continuous
 62
     7
100
AcDbBlockBegin
  2
*D2
 70
     1
 10
0.0
 20
0.0
 30
0.0
  3
*D2
  1

  0
LINE
  5
45
330
43
100
AcDbEntity
  8
1
  6
Continuous
 62
     7
100
AcDbLine
 10
846.564
 20
1189.066
 30
0.0
 11
846.564
 21
1069.066
 31
0.0
  0
LINE
  5
46
330
43
100
AcDbEntity
  8
1
  6
Continuous
 62
     7
100
AcDbLine
 10
848.564
 20
1189.066
 30
0.0
 11
828.5639999999999
 21
1189.066
 31
0.0
  0
LINE
  5
47
330
43
100
AcDbEntity
  8
1
  6
Continuous
 62
     7
100
AcDbLine
 10
848.564
 20
1069.066
 30
0.0
 11
828.5639999999999
 21
1069.066
 31
0.0
  0
LINE
  5
48
330
43
100
AcDbEntity
  8
1
  6
Continuous
 62
     7
100
AcDbLine
 10
846.564
 20
1189.066
 30
0.0
 11
847.185166
 21
1186.747777999999
 31
0.0
  0
LINE
  5
49
330
43
100
AcDbEntity
  8
1
  6
Continuous
 62
     7
100
AcDbLine
 10
846.564
 20
1189.066
 30
0.0
 11
845.9428339999998
 21
1186.747777999999
 31
0.0
  0
LINE
  5
4A
330
43
100
AcDbEntity
  8
1
  6
Continuous
 62
     7
100
AcDbLine
 10
846.564
 20
1069.066
 30
0.0
 11
845.9428339999998
 21
1071.384222
 31
0.0
  0
LINE
  5
4B
330
43
100
AcDbEntity
  8
1
  6
Continuous
 62
     7
100
AcDbLine
 10
846.564
 20
1069.066
 30
0.0
 11
847.185166
 21
1071.384222
 31
0.0
  0
TEXT
  5
4C
330
43
100
AcDbEntity
  8
1
  6
Continuous
 62
     7
100
AcDbText
 10
846.0639999999999
 20
1125.866
 30
0.0
 40
3.0
  1
120
 50
90.0
 41
0.7333330000000001
  7
KANJI
100
AcDbText
  0
ENDBLK
  5
4D
330
43
100
AcDbEntity
  8
0
100
AcDbBlockEnd
  0
BLOCK
  5
4F
330
4E
100
AcDbEntity
  8
1
  6
Continuous
 62
     7
100
AcDbBlockBegin
  2
*D3
 70
     1
 10
0.0
 20
0.0
 30
0.0
  3
*D3
  1

  0
LINE
  5
50
330
4E
100
AcDbEntity
  8
1
  6
Continuous
 62
     7
100
AcDbLine
 10
756.564
 20
1209.065999999999
 30
0.0
 11
826.5639999999999
 21
1209.065999999999
 31
0.0
  0
LINE
  5
51
330
4E
100
AcDbEntity
  8
1
  6
Continuous
 62
     7
100
AcDbLine
 10
756.564
 20
1211.066
 30
0.0
 11
756.564
 21
1191.065999999999
 31
0.0
  0
LINE
  5
52
330
4E
100
AcDbEntity
  8
1
  6
Continuous
 62
     7
100
AcDbLine
 10
826.5639999999999
 20
1211.066
 30
0.0
 11
826.5639999999999
 21
1191.065999999999
 31
0.0
  0
LINE
  5
53
330
4E
100
AcDbEntity
  8
1
  6
Continuous
 62
     7
100
AcDbLine
 10
756.564
 20
1209.065999999999
 30
0.0
 11
758.8822219999999
 21
1209.687166
 31
0.0
  0
LINE
  5
54
330
4E
100
AcDbEntity
  8
1
  6
Continuous
 62
     7
100
AcDbLine
 10
756.564
 20
1209.065999999999
 30
0.0
 11
758.8822219999999
 21
1208.444834
 31
0.0
  0
LINE
  5
55
330
4E
100
AcDbEntity
  8
1
  6
Continuous
 62
     7
100
AcDbLine
 10
826.5639999999999
 20
1209.065999999999
 30
0.0
 11
824.245778
 21
1208.444834
 31
0.0
  0
LINE
  5
56
330
4E
100
AcDbEntity
  8
1
  6
Continuous
 62
     7
100
AcDbLine
 10
826.5639999999999
 20
1209.065999999999
 30
0.0
 11
824.245778
 21
1209.687166
 31
0.0
  0
TEXT
  5
57
330
4E
100
AcDbEntity
  8
1
  6
Continuous
 62
     7
100
AcDbText
 10
789.464
 20
1209.566
 30
0.0
 40
3.0
  1
70
 41
0.7333330000000001
  7
KANJI
100
AcDbText
  0
ENDBLK
  5
58
330
4E
100
AcDbEntity
  8
0
100
AcDbBlockEnd
  0
BLOCK
  5
5A
330
59
100
AcDbEntity
  8
1
  6
Continuous
 62
     7
100
AcDbBlockBegin
  2
*D4
 70
     1
 10
0.0
 20
0.0
 30
0.0
  3
*D4
  1

  0
LINE
  5
5B
330
59
100
AcDbEntity
  8
1
  6
Continuous
 62
     7
100
AcDbLine
 10
115.0
 20
203.1124029999999
 30
0.0
 11
115.0
 21
83.11240299999999
 31
0.0
  0
LINE
  5
5C
330
59
100
AcDbEntity
  8
1
  6
Continuous
 62
     7
100
AcDbLine
 10
117.0
 20
203.1124029999999
 30
0.0
 11
92.682
 21
203.1124029999999
 31
0.0
  0
LINE
  5
5D
330
59
100
AcDbEntity
  8
1
  6
Continuous
 62
     7
100
AcDbLine
 10
117.0
 20
83.11240299999999
 30
0.0
 11
92.21099999999999
 21
83.11240299999999
 31
0.0
  0
LINE
  5
5E
330
59
100
AcDbEntity
  8
1
  6
Continuous
 62
     7
100
AcDbLine
 10
115.0
 20
203.1124029999999
 30
0.0
 11
115.647048
 21
200.697589
 31
0.0
  0
LINE
  5
5F
330
59
100
AcDbEntity
  8
1
  6
Continuous
 62
     7
100
AcDbLine
 10
115.0
 20
203.1124029999999
 30
0.0
 11
114.3529519999999
 21
200.697589
 31
0.0
  0
LINE
  5
60
330
59
100
AcDbEntity
  8
1
  6
Continuous
 62
     7
100
AcDbLine
 10
115.0
 20
83.11240299999999
 30
0.0
 11
114.3529519999999
 21
85.527218
 31
0.0
  0
LINE
  5
61
330
59
100
AcDbEntity
  8
1
  6
Continuous
 62
     7
100
AcDbLine
 10
115.0
 20
83.11240299999999
 30
0.0
 11
115.647048
 21
85.527218
 31
0.0
  0
TEXT
  5
62
330
59
100
AcDbEntity
  8
1
  6
Continuous
 62
     7
100
AcDbText
 10
114.5
 20
140.862403
 30
0.0
 40
3.0
  1
120
 50
90.0
 41
0.5
  7
KANJI
100
AcDbText
  0
ENDBLK
  5
63
330
59
100
AcDbEntity
  8
0
100
AcDbBlockEnd
  0
BLOCK
  5
65
330
64
100
AcDbEntity
  8
1
  6
Continuous
 62
     7
100
AcDbBlockBegin
  2
*D5
 70
     1
 10
0.0
 20
0.0
 30
0.0
  3
*D5
  1

  0
LINE
  5
66
330
64
100
AcDbEntity
  8
1
  6
Continuous
 62
     7
100
AcDbLine
 10
30.0
 20
218.1124029999999
 30
0.0
 11
100.0
 21
218.1124029999999
 31
0.0
  0
LINE
  5
67
330
64
100
AcDbEntity
  8
1
  6
Continuous
 62
     7
100
AcDbLine
 10
30.0
 20
220.1124029999999
 30
0.0
 11
30.0
 21
195.755403
 31
0.0
  0
LINE
  5
68
330
64
100
AcDbEntity
  8
1
  6
Continuous
 62
     7
100
AcDbLine
 10
100.0
 20
220.1124029999999
 30
0.0
 11
100.0
 21
195.5624029999999
 31
0.0
  0
LINE
  5
69
330
64
100
AcDbEntity
  8
1
  6
Continuous
 62
     7
100
AcDbLine
 10
30.0
 20
218.1124029999999
 30
0.0
 11
32.414815
 21
218.7594509999999
 31
0.0
  0
LINE
  5
6A
330
64
100
AcDbEntity
  8
1
  6
Continuous
 62
     7
100
AcDbLine
 10
30.0
 20
218.1124029999999
 30
0.0
 11
32.414815
 21
217.4653549999999
 31
0.0
  0
LINE
  5
6B
330
64
100
AcDbEntity
  8
1
  6
Continuous
 62
     7
100
AcDbLine
 10
100.0
 20
218.1124029999999
 30
0.0
 11
97.585185
 21
217.4653549999999
 31
0.0
  0
LINE
  5
6C
330
64
100
AcDbEntity
  8
1
  6
Continuous
 62
     7
100
AcDbLine
 10
100.0
 20
218.1124029999999
 30
0.0
 11
97.585185
 21
218.7594509999999
 31
0.0
  0
TEXT
  5
6D
330
64
100
AcDbEntity
  8
1
  6
Continuous
 62
     7
100
AcDbText
 10
63.5
 20
218.6124029999999
 30
0.0
 40
3.0
  1
70
 41
0.5
  7
KANJI
100
AcDbText
  0
ENDBLK
  5
6E
330
64
100
AcDbEntity
  8
0
100
AcDbBlockEnd
  0
BLOCK
  5
70
330
6F
100
AcDbEntity
  8
1
  6
Continuous
 62
     7
100
AcDbBlockBegin
  2
*D6
 70
     1
 10
0.0
 20
0.0
 30
0.0
  3
*D6
  1

  0
LINE
  5
71
330
6F
100
AcDbEntity
  8
1
  6
Continuous
 62
     7
100
AcDbLine
 10
186.5
 20
175.1124029999999
 30
0.0
 11
186.5
 21
109.112403
 31
0.0
  0
LINE
  5
72
330
6F
100
AcDbEntity
  8
1
  6
Continuous
 62
     7
100
AcDbLine
 10
188.4999999999999
 20
175.1124029999999
 30
0.0
 11
173.5
 21
175.1124029999999
 31
0.0
  0
LINE
  5
73
330
6F
100
AcDbEntity
  8
1
  6
Continuous
 62
     7
100
AcDbLine
 10
188.4999999999999
 20
109.112403
 30
0.0
 11
173.5
 21
109.112403
 31
0.0
  0
LINE
  5
74
330
6F
100
AcDbEntity
  8
1
  6
Continuous
 62
     7
100
AcDbLine
 10
186.5
 20
175.1124029999999
 30
0.0
 11
187.147048
 21
172.697589
 31
0.0
  0
LINE
  5
75
330
6F
100
AcDbEntity
  8
1
  6
Continuous
 62
     7
100
AcDbLine
 10
186.5
 20
175.1124029999999
 30
0.0
 11
185.8529519999999
 21
172.697589
 31
0.0
  0
LINE
  5
76
330
6F
100
AcDbEntity
  8
1
  6
Continuous
 62
     7
100
AcDbLine
 10
186.5
 20
109.112403
 30
0.0
 11
185.8529519999999
 21
111.5272179999999
 31
0.0
  0
LINE
  5
77
330
6F
100
AcDbEntity
  8
1
  6
Continuous
 62
     7
100
AcDbLine
 10
186.5
 20
109.112403
 30
0.0
 11
187.147048
 21
111.5272179999999
 31
0.0
  0
TEXT
  5
78
330
6F
100
AcDbEntity
  8
1
  6
Continuous
 62
     7
100
AcDbText
 10
186.0
 20
137.6124029999999
 30
0.0
 40
3.0
  1
（66）
 50
90.0
 41
0.75
  7
KANJI
100
AcDbText
  0
ENDBLK
  5
79
330
6F
100
AcDbEntity
  8
0
100
AcDbBlockEnd
  0
BLOCK
  5
7B
330
7A
100
AcDbEntity
  8
1
  6
Continuous
 62
     7
100
AcDbBlockBegin
  2
*D7
 70
     1
 10
0.0
 20
0.0
 30
0.0
  3
*D7
  1

  0
LINE
  5
7C
330
7A
100
AcDbEntity
  8
1
  6
Continuous
 62
     7
100
AcDbLine
 10
171.5
 20
218.1124029999999
 30
0.0
 11
143.8
 21
218.1124029999999
 31
0.0
  0
LINE
  5
7D
330
7A
100
AcDbEntity
  8
1
  6
Continuous
 62
     7
100
AcDbLine
 10
171.5
 20
220.1124029999999
 30
0.0
 11
171.5
 21
177.112403
 31
0.0
  0
LINE
  5
7E
330
7A
100
AcDbEntity
  8
1
  6
Continuous
 62
     7
100
AcDbLine
 10
143.8
 20
220.1124029999999
 30
0.0
 11
143.8
 21
205.1124029999999
 31
0.0
  0
LINE
  5
7F
330
7A
100
AcDbEntity
  8
1
  6
Continuous
 62
     7
100
AcDbLine
 10
171.5
 20
218.1124029999999
 30
0.0
 11
169.181778
 21
217.491237
 31
0.0
  0
LINE
  5
80
330
7A
100
AcDbEntity
  8
1
  6
Continuous
 62
     7
100
AcDbLine
 10
171.5
 20
218.1124029999999
 30
0.0
 11
169.181778
 21
218.7335689999999
 31
0.0
  0
LINE
  5
81
330
7A
100
AcDbEntity
  8
1
  6
Continuous
 62
     7
100
AcDbLine
 10
143.8
 20
218.1124029999999
 30
0.0
 11
146.1182219999999
 21
218.7335689999999
 31
0.0
  0
LINE
  5
82
330
7A
100
AcDbEntity
  8
1
  6
Continuous
 62
     7
100
AcDbLine
 10
143.8
 20
218.1124029999999
 30
0.0
 11
146.1182219999999
 21
217.491237
 31
0.0
  0
TEXT
  5
83
330
7A
100
AcDbEntity
  8
1
  6
Continuous
 62
     7
100
AcDbText
 10
151.15
 20
218.6124029999999
 30
0.0
 40
3.0
  1
（27.7）
 41
0.755556
  7
KANJI
100
AcDbText
  0
ENDBLK
  5
84
330
7A
100
AcDbEntity
  8
0
100
AcDbBlockEnd
  0
BLOCK
  5
86
330
85
100
AcDbEntity
  8
1
  6
Continuous
 62
     7
100
AcDbBlockBegin
  2
*D8
 70
     1
 10
0.0
 20
0.0
 30
0.0
  3
*D8
  1

  0
LINE
  5
87
330
85
100
AcDbEntity
  8
1
  6
Continuous
 62
     7
100
AcDbLine
 10
132.6
 20
218.1124029999999
 30
0.0
 11
146.1999999999999
 21
218.1124029999999
 31
0.0
  0
LINE
  5
88
330
85
100
AcDbEntity
  8
1
  6
Continuous
 62
     7
100
AcDbLine
 10
135.0
 20
220.1124029999999
 30
0.0
 11
135.0
 21
199.972858
 31
0.0
  0
LINE
  5
89
330
85
100
AcDbEntity
  8
1
  6
Continuous
 62
     7
100
AcDbLine
 10
143.8
 20
220.1124029999999
 30
0.0
 11
143.8
 21
205.1124029999999
 31
0.0
  0
LINE
  5
8A
330
85
100
AcDbEntity
  8
1
  6
Continuous
 62
     7
100
AcDbLine
 10
135.0
 20
218.1124029999999
 30
0.0
 11
132.585185
 21
217.4653549999999
 31
0.0
  0
LINE
  5
8B
330
85
100
AcDbEntity
  8
1
  6
Continuous
 62
     7
100
AcDbLine
 10
135.0
 20
218.1124029999999
 30
0.0
 11
132.585185
 21
218.7594509999999
 31
0.0
  0
TEXT
  5
8C
330
85
100
AcDbEntity
  8
1
  6
Continuous
 62
     7
100
AcDbText
 10
137.15
 20
218.6124029999999
 30
0.0
 40
3.0
  1
8.8
 41
0.5
  7
KANJI
100
AcDbText
  0
ENDBLK
  5
8D
330
85
100
AcDbEntity
  8
0
100
AcDbBlockEnd
  0
BLOCK
  5
8F
330
8E
100
AcDbEntity
  8
1
  6
Continuous
 62
     7
100
AcDbBlockBegin
  2
*D9
 70
     1
 10
0.0
 20
0.0
 30
0.0
  3
*D9
  1

  0
LINE
  5
90
330
8E
100
AcDbEntity
  8
1
  6
Continuous
 62
     7
100
AcDbLine
 10
218.5
 20
223.1124029999999
 30
0.0
 11
264.0
 21
223.1124029999999
 31
0.0
  0
LINE
  5
91
330
8E
100
AcDbEntity
  8
1
  6
Continuous
 62
     7
100
AcDbLine
 10
218.5
 20
225.1124029999999
 30
0.0
 11
218.5
 21
177.112403
 31
0.0
  0
LINE
  5
92
330
8E
100
AcDbEntity
  8
1
  6
Continuous
 62
     7
100
AcDbLine
 10
264.0
 20
225.1124029999999
 30
0.0
 11
264.0
 21
177.112403
 31
0.0
  0
LINE
  5
93
330
8E
100
AcDbEntity
  8
1
  6
Continuous
 62
     7
100
AcDbLine
 10
218.5
 20
223.1124029999999
 30
0.0
 11
220.914815
 21
223.759451
 31
0.0
  0
LINE
  5
94
330
8E
100
AcDbEntity
  8
1
  6
Continuous
 62
     7
100
AcDbLine
 10
218.5
 20
223.1124029999999
 30
0.0
 11
220.914815
 21
222.4653549999999
 31
0.0
  0
LINE
  5
95
330
8E
100
AcDbEntity
  8
1
  6
Continuous
 62
     7
100
AcDbLine
 10
264.0
 20
223.1124029999999
 30
0.0
 11
261.585185
 21
222.4653549999999
 31
0.0
  0
LINE
  5
96
330
8E
100
AcDbEntity
  8
1
  6
Continuous
 62
     7
100
AcDbLine
 10
264.0
 20
223.1124029999999
 30
0.0
 11
261.585185
 21
223.759451
 31
0.0
  0
TEXT
  5
97
330
8E
100
AcDbEntity
  8
1
  6
Continuous
 62
     7
100
AcDbText
 10
238.2499999999999
 20
223.1124029999999
 30
0.0
 40
3.0
  1
(46)
 41
0.5
  7
KANJI
100
AcDbText
  0
ENDBLK
  5
98
330
8E
100
AcDbEntity
  8
0
100
AcDbBlockEnd
  0
BLOCK
  5
9A
330
99
100
AcDbEntity
  8
1
  6
Continuous
 62
     7
100
AcDbBlockBegin
  2
*D10
 70
     1
 10
0.0
 20
0.0
 30
0.0
  3
*D10
  1

  0
LINE
  5
9B
330
99
100
AcDbEntity
  8
1
  6
Continuous
 62
     7
100
AcDbLine
 10
291.5
 20
184.612403
 30
0.0
 11
291.5
 21
101.612403
 31
0.0
  0
LINE
  5
9C
330
99
100
AcDbEntity
  8
1
  6
Continuous
 62
     7
100
AcDbLine
 10
293.5
 20
184.612403
 30
0.0
 11
253.681
 21
184.612403
 31
0.0
  0
LINE
  5
9D
330
99
100
AcDbEntity
  8
1
  6
Continuous
 62
     7
100
AcDbLine
 10
293.5
 20
101.612403
 30
0.0
 11
253.681
 21
101.612403
 31
0.0
  0
LINE
  5
9E
330
99
100
AcDbEntity
  8
1
  6
Continuous
 62
     7
100
AcDbLine
 10
291.5
 20
184.612403
 30
0.0
 11
292.1470479999999
 21
182.197589
 31
0.0
  0
LINE
  5
9F
330
99
100
AcDbEntity
  8
1
  6
Continuous
 62
     7
100
AcDbLine
 10
291.5
 20
184.612403
 30
0.0
 11
290.852952
 21
182.197589
 31
0.0
  0
LINE
  5
A0
330
99
100
AcDbEntity
  8
1
  6
Continuous
 62
     7
100
AcDbLine
 10
291.5
 20
101.612403
 30
0.0
 11
290.852952
 21
104.027218
 31
0.0
  0
LINE
  5
A1
330
99
100
AcDbEntity
  8
1
  6
Continuous
 62
     7
100
AcDbLine
 10
291.5
 20
101.612403
 30
0.0
 11
292.1470479999999
 21
104.027218
 31
0.0
  0
TEXT
  5
A2
330
99
100
AcDbEntity
  8
1
  6
Continuous
 62
     7
100
AcDbText
 10
291.0
 20
140.112403
 30
0.0
 40
3.0
  1
83.5
 50
90.0
 41
0.5
  7
KANJI
100
AcDbText
  0
ENDBLK
  5
A3
330
99
100
AcDbEntity
  8
0
100
AcDbBlockEnd
  0
ENDSEC
  0
SECTION
  2
ENTITIES
  0
TEXT
  5
237
330
1E
100
AcDbEntity
  8
15
  6
Continuous
 62
    96
100
AcDbText
 10
357.417058
 20
268.0582199999999
 30
0.0
 40
3.003658
  1
０３０３０８１
  7
KANJI
100
AcDbText
  0
LINE
  5
238
330
1E
100
AcDbEntity
  8
15
  6
Continuous
 62
    96
100
AcDbLine
 10
15.0
 20
272.313403
 30
0.0
 11
15.0
 21
15.0
 31
0.0
  0
LINE
  5
239
330
1E
100
AcDbEntity
  8
15
  6
Continuous
 62
    96
100
AcDbLine
 10
15.0
 20
15.0
 30
0.0
 11
400.469495
 21
15.0
 31
0.0
  0
LINE
  5
23A
330
1E
100
AcDbEntity
  8
15
  6
Continuous
 62
    96
100
AcDbLine
 10
15.0
 20
272.313403
 30
0.0
 11
400.469495
 21
272.313403
 31
0.0
  0
LINE
  5
23B
330
1E
100
AcDbEntity
  8
15
  6
Continuous
 62
    96
100
AcDbLine
 10
310.359743
 20
15.0
 30
0.0
 11
310.359743
 21
60.05488299999999
 31
0.0
  0
LINE
  5
23C
330
1E
100
AcDbEntity
  8
15
  6
Continuous
 62
    96
100
AcDbLine
 10
335.3902299999999
 20
272.313403
 30
0.0
 11
335.3902299999999
 21
266.8066959999999
 31
0.0
  0
LINE
  5
23D
330
1E
100
AcDbEntity
  8
15
  6
Continuous
 62
    96
100
AcDbLine
 10
310.359743
 20
272.313403
 30
0.0
 11
310.359743
 21
72.570126
 31
0.0
  0
LINE
  5
23E
330
1E
100
AcDbEntity
  8
15
  6
Continuous
 62
    96
100
AcDbLine
 10
310.359743
 20
60.05488299999999
 30
0.0
 11
310.359743
 21
72.570126
 31
0.0
  0
TEXT
  5
23F
330
1E
100
AcDbEntity
  8
15
  6
DIVIDE
 62
    96
100
AcDbText
 10
315.3658399999999
 20
268.0582199999999
 30
0.0
 40
3.003658
  1
商品コード
  7
KANJI
100
AcDbText
  0
LINE
  5
240
330
1E
100
AcDbEntity
  8
15
  6
Continuous
 62
    96
100
AcDbLine
 10
400.4660099999999
 20
145.5553549999999
 30
0.0
 11
400.4660099999999
 21
147.689391
 31
0.0
  0
LINE
  5
241
330
1E
100
AcDbEntity
  8
15
  6
Continuous
 62
    96
100
AcDbLine
 10
400.462526
 20
147.790106
 30
0.0
 11
400.462526
 21
272.313403
 31
0.0
  0
LINE
  5
242
330
1E
100
AcDbEntity
  8
15
  6
Continuous
 62
    96
100
AcDbLine
 10
364.696224
 20
20.700096
 30
0.0
 11
352.233561
 21
20.700096
 31
0.0
  0
TEXT
  5
243
330
1E
100
AcDbEntity
  8
15
  6
Continuous
 62
    96
100
AcDbText
 10
334.470318
 20
19.68975799999999
 30
0.0
 40
1.8
  1
出入管理システム
 41
1.222221999999999
  7
KANJI
100
AcDbText
  0
TEXT
  5
244
330
1E
100
AcDbEntity
  8
15
  6
Continuous
 62
    96
100
AcDbText
 10
334.5408759999999
 20
15.809079
 30
0.0
 40
3.6
  1
株式会社
 41
2.138888999999999
  7
KANJI
100
AcDbText
  0
LINE
  5
245
330
1E
100
AcDbEntity
  8
15
  6
Continuous
 62
    96
100
AcDbLine
 10
333.2851699999999
 20
19.727154
 30
0.0
 11
333.2851699999999
 21
20.942497
 31
0.0
  0
LINE
  5
246
330
1E
100
AcDbEntity
  8
15
  6
Continuous
 62
    96
100
AcDbLine
 10
331.968552
 20
19.727154
 30
0.0
 11
333.2851699999999
 21
19.727154
 31
0.0
  0
LINE
  5
247
330
1E
100
AcDbEntity
  8
15
  6
Continuous
 62
    96
100
AcDbLine
 10
331.968552
 20
15.87856099999999
 30
0.0
 11
331.968552
 21
19.727154
 31
0.0
  0
LINE
  5
248
330
1E
100
AcDbEntity
  8
15
  6
Continuous
 62
    96
100
AcDbLine
 10
317.81673
 20
15.87856099999999
 30
0.0
 11
322.752183
 21
20.76514799999999
 31
0.0
  0
LINE
  5
249
330
1E
100
AcDbEntity
  8
15
  6
Continuous
 62
    96
100
AcDbLine
 10
322.752183
 20
20.76514799999999
 30
0.0
 11
322.752183
 21
18.005414
 31
0.0
  0
LINE
  5
24A
330
1E
100
AcDbEntity
  8
15
  6
Continuous
 62
    96
100
AcDbLine
 10
324.8790339999999
 20
18.714365
 30
0.0
 11
327.9174009999999
 21
15.87856099999999
 31
0.0
  0
ARC
  5
24B
330
1E
100
AcDbEntity
  8
15
  6
Continuous
 62
    96
100
AcDbCircle
 10
327.309727
 20
19.220759
 30
0.0
 40
0.506395
100
AcDbArc
 50
270.0
 51
90.0
  0
LINE
  5
24C
330
1E
100
AcDbEntity
  8
15
  6
Continuous
 62
    96
100
AcDbLine
 10
324.8790339999999
 20
18.714365
 30
0.0
 11
327.309727
 21
18.714365
 31
0.0
  0
LINE
  5
24D
330
1E
100
AcDbEntity
  8
15
  6
Continuous
 62
    96
100
AcDbLine
 10
325.2841509999999
 20
19.727154
 30
0.0
 11
327.309727
 21
19.727154
 31
0.0
  0
LINE
  5
24E
330
1E
100
AcDbEntity
  8
15
  6
Continuous
 62
    96
100
AcDbLine
 10
325.2841509999999
 20
20.942497
 30
0.0
 11
325.2841509999999
 21
19.727154
 31
0.0
  0
LINE
  5
24F
330
1E
100
AcDbEntity
  8
15
  6
Continuous
 62
    96
100
AcDbLine
 10
325.2841509999999
 20
20.942497
 30
0.0
 11
327.6935209999999
 21
20.942497
 31
0.0
  0
ARC
  5
250
330
1E
100
AcDbEntity
  8
15
  6
Continuous
 62
    96
100
AcDbCircle
 10
327.5016219999999
 20
19.220759
 30
0.0
 40
1.732399
100
AcDbArc
 50
283.9448469999999
 51
83.640296
  0
LINE
  5
251
330
1E
100
AcDbEntity
  8
15
  6
Continuous
 62
    96
100
AcDbLine
 10
333.2851699999999
 20
20.942497
 30
0.0
 11
329.2340209999999
 21
20.942497
 31
0.0
  0
LINE
  5
252
330
1E
100
AcDbEntity
  8
15
  6
Continuous
 62
    96
100
AcDbLine
 10
329.2340209999999
 20
20.942497
 30
0.0
 11
329.2340209999999
 21
19.727154
 31
0.0
  0
LINE
  5
253
330
1E
100
AcDbEntity
  8
15
  6
Continuous
 62
    96
100
AcDbLine
 10
329.2340209999999
 20
19.727154
 30
0.0
 11
330.550648
 21
19.727154
 31
0.0
  0
LINE
  5
254
330
1E
100
AcDbEntity
  8
15
  6
Continuous
 62
    96
100
AcDbLine
 10
330.550648
 20
19.727154
 30
0.0
 11
330.550648
 21
15.87856099999999
 31
0.0
  0
TEXT
  5
255
330
1E
100
AcDbEntity
  8
15
  6
Continuous
 62
    96
100
AcDbText
 10
310.790769
 20
57.11558199999999
 30
0.0
 40
2.5
  1
型　式
 41
1.08
  7
KANJI
100
AcDbText
  0
TEXT
  5
256
330
1E
100
AcDbEntity
  8
15
  6
Continuous
 62
    96
100
AcDbText
 10
310.790769
 20
47.954625
 30
0.0
 40
2.5
  1
製品名
 41
1.08
  7
KANJI
100
AcDbText
  0
LINE
  5
257
330
1E
100
AcDbEntity
  8
15
  6
Continuous
 62
    96
100
AcDbLine
 10
310.359743
 20
51.000007
 30
0.0
 11
400.359743
 21
51.000007
 31
0.0
  0
LINE
  5
258
330
1E
100
AcDbEntity
  8
15
  6
Continuous
 62
    96
100
AcDbLine
 10
310.359743
 20
51.0
 30
0.0
 11
400.359743
 21
51.000007
 31
0.0
  0
LINE
  5
259
330
1E
100
AcDbEntity
  8
15
  6
Continuous
 62
    96
100
AcDbLine
 10
400.359743
 20
27.000007
 30
0.0
 11
310.359743
 21
27.0
 31
0.0
  0
LINE
  5
25A
330
1E
100
AcDbEntity
  8
15
  6
Continuous
 62
    96
100
AcDbLine
 10
310.359743
 20
42.0
 30
0.0
 11
400.0582999999999
 21
42.0
 31
0.0
  0
LINE
  5
25B
330
1E
100
AcDbEntity
  8
15
  6
Continuous
 62
    96
100
AcDbLine
 10
310.359743
 20
60.000007
 30
0.0
 11
400.359743
 21
60.000007
 31
0.0
  0
LINE
  5
25C
330
1E
100
AcDbEntity
  8
15
  6
Continuous
 62
    96
100
AcDbLine
 10
400.0582999999999
 20
33.000007
 30
0.0
 11
310.359743
 21
33.0
 31
0.0
  0
TEXT
  5
25D
330
1E
100
AcDbEntity
  8
15
  6
Continuous
 62
    96
100
AcDbText
 10
311.1055149999999
 20
39.081424
 30
0.0
 40
2.5
  1
縮尺（Ａ３）
 41
1.08
  7
KANJI
100
AcDbText
  0
LINE
  5
25E
330
1E
100
AcDbEntity
  8
15
  6
Continuous
 62
    96
100
AcDbLine
 10
324.8790339999999
 20
15.87856099999999
 30
0.0
 11
324.8790339999999
 21
26.006435
 31
0.0
  0
LINE
  5
25F
330
1E
100
AcDbEntity
  8
15
  6
Continuous
 62
    96
100
AcDbLine
 10
324.8790339999999
 20
26.006435
 30
0.0
 11
314.649877
 21
15.87856099999999
 31
0.0
  0
LINE
  5
260
330
1E
100
AcDbEntity
  8
15
  6
Continuous
 62
    96
100
AcDbLine
 10
324.612457
 20
25.742498
 30
0.0
 11
324.8790339999999
 21
25.742498
 31
0.0
  0
TEXT
  5
261
330
1E
100
AcDbEntity
  8
15
  6
Continuous
 62
    96
100
AcDbText
 10
366.868562
 20
15.38687799999999
 30
0.0
 40
10.0
  1
アート
  7
KANJI
100
AcDbText
  0
LINE
  5
262
330
1E
100
AcDbEntity
  8
15
  6
Continuous
 62
    96
100
AcDbLine
 10
325.359743
 20
42.0
 30
0.0
 11
325.359743
 21
33.000001
 31
0.0
  0
LINE
  5
263
330
1E
100
AcDbEntity
  8
15
  6
Continuous
 62
    96
100
AcDbLine
 10
350.359743
 20
42.0
 30
0.0
 11
350.359743
 21
33.000003
 31
0.0
  0
LINE
  5
264
330
1E
100
AcDbEntity
  8
15
  6
Continuous
 62
    96
100
AcDbLine
 10
375.359743
 20
42.0
 30
0.0
 11
375.359743
 21
33.000005
 31
0.0
  0
LINE
  5
265
330
1E
100
AcDbEntity
  8
15
  6
Continuous
 62
    96
100
AcDbLine
 10
310.359743
 20
60.000007
 30
0.0
 11
400.359743
 21
60.000007
 31
0.0
  0
LINE
  5
266
330
1E
100
AcDbEntity
  8
15
  6
Continuous
 62
    96
100
AcDbLine
 10
310.359743
 20
65.500007
 30
0.0
 11
400.359743
 21
65.500007
 31
0.0
  0
LINE
  5
267
330
1E
100
AcDbEntity
  8
15
  6
Continuous
 62
    96
100
AcDbLine
 10
335.359743
 20
65.500007
 30
0.0
 11
335.359743
 21
60.000007
 31
0.0
  0
TEXT
  5
268
330
1E
100
AcDbEntity
  8
15
  6
Continuous
 62
    96
100
AcDbText
 10
316.559743
 20
61.250007
 30
0.0
 40
3.0
  1
図面履歴
 41
1.133332999999999
  7
KANJI
100
AcDbText
  0
TEXT
  5
269
330
1E
100
AcDbEntity
  8
15
  6
Continuous
 62
    96
100
AcDbText
 10
376.413385
 20
38.848836
 30
0.0
 40
2.5
  1
作図
 41
1.08
  7
KANJI
100
AcDbText
  0
TEXT
  5
26A
330
1E
100
AcDbEntity
  8
15
  6
Continuous
 62
    96
100
AcDbText
 10
326.070693
 20
39.175841
 30
0.0
 40
2.5
  1
承認
 41
1.08
  7
KANJI
100
AcDbText
  0
TEXT
  5
26B
330
1E
100
AcDbEntity
  8
15
  6
Continuous
 62
    96
100
AcDbText
 10
333.091043
 20
35.0
 30
0.0
 40
5.0
  1
仲代
 41
1.08
  7
KANJI
100
AcDbText
  0
LINE
  5
26C
330
1E
100
AcDbEntity
  8
15
  6
Continuous
 62
    96
100
AcDbLine
 10
355.359743
 20
33.000003
 30
0.0
 11
355.359743
 21
27.000003
 31
0.0
  0
LINE
  5
26D
330
1E
100
AcDbEntity
  8
15
  6
Continuous
 62
    96
100
AcDbLine
 10
362.359743
 20
33.000008
 30
0.0
 11
362.359743
 21
27.000008
 31
0.0
  0
TEXT
  5
26E
330
1E
100
AcDbEntity
  8
15
  6
Continuous
 62
    96
100
AcDbText
 10
356.3714089999999
 20
28.617941
 30
0.0
 40
2.5
  1
日付
 41
1.08
  7
KANJI
100
AcDbText
  0
LINE
  5
26F
330
1E
100
AcDbEntity
  8
15
  6
Continuous
 62
    96
100
AcDbLine
 10
388.3527819999999
 20
33.000006
 30
0.0
 11
388.3527819999999
 21
27.000006
 31
0.0
  0
LINE
  5
270
330
1E
100
AcDbEntity
  8
15
  6
Continuous
 62
    96
100
AcDbLine
 10
391.403472
 20
32.240006
 30
0.0
 11
391.403472
 21
27.760006
 31
0.0
  0
CIRCLE
  5
271
330
1E
100
AcDbEntity
  8
15
  6
Continuous
 62
    96
100
AcDbCircle
 10
391.403472
 20
30.00000599999999
 30
0.0
 40
0.9599999999999999
  0
CIRCLE
  5
272
330
1E
100
AcDbEntity
  8
15
  6
Continuous
 62
    96
100
AcDbCircle
 10
391.403472
 20
30.00000599999999
 30
0.0
 40
1.6
  0
LINE
  5
273
330
1E
100
AcDbEntity
  8
15
  6
Continuous
 62
    96
100
AcDbLine
 10
394.042743
 20
30.96000599999999
 30
0.0
 11
394.042743
 21
29.04000599999999
 31
0.0
  0
LINE
  5
274
330
1E
100
AcDbEntity
  8
15
  6
Continuous
 62
    96
100
AcDbLine
 10
394.042743
 20
30.96000599999999
 30
0.0
 11
399.162743
 21
31.600006
 31
0.0
  0
LINE
  5
275
330
1E
100
AcDbEntity
  8
15
  6
Continuous
 62
    96
100
AcDbLine
 10
394.042743
 20
29.04000599999999
 30
0.0
 11
399.162743
 21
28.400006
 31
0.0
  0
LINE
  5
276
330
1E
100
AcDbEntity
  8
15
  6
Continuous
 62
    96
100
AcDbLine
 10
389.163472
 20
30.00000599999999
 30
0.0
 11
399.708743
 21
30.00000599999999
 31
0.0
  0
LINE
  5
277
330
1E
100
AcDbEntity
  8
15
  6
Continuous
 62
    96
100
AcDbLine
 10
325.359743
 20
33.001771
 30
0.0
 11
325.359743
 21
27.000001
 31
0.0
  0
TEXT
  5
278
330
1E
100
AcDbEntity
  8
15
  6
Continuous
 62
    96
100
AcDbText
 10
312.708224
 20
28.749631
 30
0.0
 40
2.500736999999999
  1
図面番号
 41
1.08
  7
KANJI
100
AcDbText
  0
TEXT
  5
279
330
1E
100
AcDbEntity
  8
15
  6
Continuous
 62
    96
100
AcDbText
 10
351.078143
 20
39.24389999999999
 30
0.0
 40
2.5
  1
検図
 41
1.08
  7
KANJI
100
AcDbText
  0
TEXT
  5
27A
330
1E
100
AcDbEntity
  8
15
  6
Continuous
 62
    96
100
AcDbText
 10
342.468401
 20
43.973781
 30
0.0
 40
5.006097
  1
スリーキー
 41
1.08
  7
KANJI
100
AcDbText
  0
TEXT
  5
27B
330
1E
100
AcDbEntity
  8
15
  6
Continuous
 62
    96
100
AcDbText
 10
337.26206
 20
52.984763
 30
0.0
 40
5.006097
  1
Ｔ－３３１２Ａ
 41
1.08
  7
KANJI
100
AcDbText
  0
LINE
  5
27C
330
1E
100
AcDbEntity
  8
15
  6
Continuous
 62
    96
100
AcDbLine
 10
399.26901
 20
31.603402
 30
0.0
 11
399.26901
 21
28.403402
 31
0.0
  0
LINE
  5
27D
330
1E
100
AcDbEntity
  8
15
  6
Continuous
 62
    96
100
AcDbLine
 10
400.4660099999999
 20
15.0
 30
0.0
 11
400.4660099999999
 21
187.9032809999999
 31
0.0
  0
LINE
  5
27E
330
1E
100
AcDbEntity
  8
15
  6
Continuous
 62
    96
100
AcDbLine
 10
310.359743
 20
266.813403
 30
0.0
 11
400.469495
 21
266.813403
 31
0.0
  0
LINE
  5
27F
330
1E
100
AcDbEntity
  8
15
  6
Continuous
 62
    96
100
AcDbLine
 10
310.359743
 20
261.3134029999999
 30
0.0
 11
400.469495
 21
261.3134029999999
 31
0.0
  0
TEXT
  5
280
330
1E
100
AcDbEntity
  8
15
  6
DIVIDE
 62
    96
100
AcDbText
 10
344.901814
 20
262.564927
 30
0.0
 40
3.003658
  1
定　　　　　格
  7
KANJI
100
AcDbText
  0
TEXT
  5
281
330
1E
100
AcDbEntity
  8
15
  6
DIVIDE
 62
    96
100
AcDbText
 10
363.4243749999999
 20
257.064927
 30
0.0
 40
3.003658
  1
樹　脂
  7
KANJI
100
AcDbText
  0
TEXT
  5
282
330
1E
100
AcDbEntity
  8
15
  6
DIVIDE
 62
    96
100
AcDbText
 10
318.369499
 20
257.064927
 30
0.0
 40
3.003658
  1
材　質
  7
KANJI
100
AcDbText
  0
LINE
  5
283
330
1E
100
AcDbEntity
  8
15
  6
Continuous
 62
    96
100
AcDbLine
 10
310.359743
 20
255.8134029999999
 30
0.0
 11
400.469495
 21
255.8134029999999
 31
0.0
  0
TEXT
  5
284
330
1E
100
AcDbEntity
  8
15
  6
DIVIDE
 62
    96
100
AcDbText
 10
324.632608
 20
251.2884029999999
 30
0.0
 40
3.0
  1
本　体
  7
KANJI
100
AcDbText
  0
TEXT
  5
285
330
1E
100
AcDbEntity
  8
15
  6
DIVIDE
 62
    96
100
AcDbText
 10
324.732608
 20
240.288403
 30
0.0
 40
3.0
  1
文　字
 41
0.933333
  7
KANJI
100
AcDbText
  0
TEXT
  5
286
330
1E
100
AcDbEntity
  8
15
  6
DIVIDE
 62
    96
100
AcDbText
 10
363.4726039999999
 20
240.5667569999999
 30
0.0
 40
3.0
  1
白　色
  7
KANJI
100
AcDbText
  0
LINE
  5
287
330
1E
100
AcDbEntity
  8
15
  6
Continuous
 62
    96
100
AcDbLine
 10
322.8749859999999
 20
255.8134029999999
 30
0.0
 11
322.8749859999999
 21
239.3134029999999
 31
0.0
  0
LINE
  5
288
330
1E
100
AcDbEntity
  8
15
  6
Continuous
 62
    96
100
AcDbLine
 10
400.469495
 20
239.3134029999999
 30
0.0
 11
310.359743
 21
239.3134029999999
 31
0.0
  0
TEXT
  5
289
330
1E
100
AcDbEntity
  8
15
  6
DIVIDE
 62
    96
100
AcDbText
 10
318.369499
 20
235.064927
 30
0.0
 40
3.003658
  1
パネル
  7
KANJI
100
AcDbText
  0
LINE
  5
28A
330
1E
100
AcDbEntity
  8
15
  6
Continuous
 62
    96
100
AcDbLine
 10
310.359743
 20
233.8134029999999
 30
0.0
 11
400.469495
 21
233.8134029999999
 31
0.0
  0
LINE
  5
28B
330
1E
100
AcDbEntity
  8
15
  6
Continuous
 62
    96
100
AcDbLine
 10
310.359743
 20
233.8134029999999
 30
0.0
 11
400.469495
 21
233.8134029999999
 31
0.0
  0
LINE
  5
28C
330
1E
100
AcDbEntity
  8
15
  6
Continuous
 62
    96
100
AcDbLine
 10
310.359743
 20
228.3134029999999
 30
0.0
 11
400.469495
 21
228.3134029999999
 31
0.0
  0
TEXT
  5
28D
330
1E
100
AcDbEntity
  8
15
  6
DIVIDE
 62
    96
100
AcDbText
 10
318.359743
 20
229.57011
 30
0.0
 40
3.0
  1
重　量
  7
KANJI
100
AcDbText
  0
TEXT
  5
28E
330
1E
100
AcDbEntity
  8
15
  6
DIVIDE
 62
    96
100
AcDbText
 10
318.369499
 20
224.064927
 30
0.0
 40
3.003658
  1
電　源
  7
KANJI
100
AcDbText
  0
LINE
  5
28F
330
1E
100
AcDbEntity
  8
15
  6
Continuous
 62
    96
100
AcDbLine
 10
310.359743
 20
222.8134029999999
 30
0.0
 11
400.469495
 21
222.8134029999999
 31
0.0
  0
TEXT
  5
290
330
1E
100
AcDbEntity
  8
15
  6
DIVIDE
 62
    96
100
AcDbText
 10
342.155508
 20
223.998523
 30
0.0
 40
3.003658
  1
DC24Ｖ±10％　電気錠制御盤より供給
 41
0.85
  7
KANJI
100
AcDbText
  0
TEXT
  5
291
330
1E
100
AcDbEntity
  8
15
  6
DIVIDE
 62
    96
100
AcDbText
 10
313.864011
 20
218.564927
 30
0.0
 40
3.003658
  1
仕様環境温度
  7
KANJI
100
AcDbText
  0
LINE
  5
292
330
1E
100
AcDbEntity
  8
15
  6
Continuous
 62
    96
100
AcDbLine
 10
400.469495
 20
217.3134029999999
 30
0.0
 11
310.359743
 21
217.3134029999999
 31
0.0
  0
TEXT
  5
293
330
1E
100
AcDbEntity
  8
15
  6
DIVIDE
 62
    96
100
AcDbText
 10
348.3308239999999
 20
218.564927
 30
0.0
 40
3.003658
  1
０℃～40℃（結露なきこと）
 41
0.9285709999999999
  7
KANJI
100
AcDbText
  0
LINE
  5
294
330
1E
100
AcDbEntity
  8
15
  6
Continuous
 62
    96
100
AcDbLine
 10
310.359743
 20
211.8134029999999
 30
0.0
 11
400.469495
 21
211.8134029999999
 31
0.0
  0
TEXT
  5
295
330
1E
100
AcDbEntity
  8
15
  6
DIVIDE
 62
    96
100
AcDbText
 10
316.8676689999999
 20
213.064927
 30
0.0
 40
3.003658
  1
設置場所
  7
KANJI
100
AcDbText
  0
LINE
  5
296
330
1E
100
AcDbEntity
  8
15
  6
Continuous
 62
    96
100
AcDbLine
 10
310.359743
 20
211.8134029999999
 30
0.0
 11
400.469495
 21
211.8134029999999
 31
0.0
  0
LINE
  5
297
330
1E
100
AcDbEntity
  8
15
  6
Continuous
 62
    96
100
AcDbLine
 10
310.359743
 20
211.8134029999999
 30
0.0
 11
400.469495
 21
211.8134029999999
 31
0.0
  0
LINE
  5
298
330
1E
100
AcDbEntity
  8
15
  6
Continuous
 62
    96
100
AcDbLine
 10
310.359743
 20
206.313403
 30
0.0
 11
400.469495
 21
206.313403
 31
0.0
  0
TEXT
  5
299
330
1E
100
AcDbEntity
  8
15
  6
DIVIDE
 62
    96
100
AcDbText
 10
349.773654
 20
207.5649269999999
 30
0.0
 40
3.003658
  1
解錠または施錠シール　※
  7
KANJI
100
AcDbText
  0
LINE
  5
29A
330
1E
100
AcDbEntity
  8
15
  6
Continuous
 62
    96
100
AcDbLine
 10
400.469495
 20
200.8134029999999
 30
0.0
 11
310.359743
 21
200.8134029999999
 31
0.0
  0
TEXT
  5
29B
330
1E
100
AcDbEntity
  8
15
  6
DIVIDE
 62
    96
100
AcDbText
 10
318.369499
 20
202.064927
 30
0.0
 40
3.003658
  1
表示灯
  7
KANJI
100
AcDbText
  0
TEXT
  5
29C
330
1E
100
AcDbEntity
  8
15
  6
DIVIDE
 62
    96
100
AcDbText
 10
342.385508
 20
202.064927
 30
0.0
 40
3.003658
  1
緑色（解錠または施錠時に点灯）　※
  7
KANJI
100
AcDbText
  0
TEXT
  5
29D
330
1E
100
AcDbEntity
  8
15
  6
DIVIDE
 62
    96
100
AcDbText
 10
313.8253859999999
 20
196.5675129999999
 30
0.0
 40
3.003658
  1
操作釦耐久性
  7
KANJI
100
AcDbText
  0
LINE
  5
29E
330
1E
100
AcDbEntity
  8
15
  6
Continuous
 62
    96
100
AcDbLine
 10
310.359743
 20
195.313403
 30
0.0
 11
400.469495
 21
195.313403
 31
0.0
  0
LINE
  5
29F
330
1E
100
AcDbEntity
  8
15
  6
Continuous
 62
    96
100
AcDbLine
 10
310.359743
 20
195.313403
 30
0.0
 11
400.469495
 21
195.313403
 31
0.0
  0
TEXT
  5
2A0
330
1E
100
AcDbEntity
  8
15
  6
Continuous
 62
    96
100
AcDbText
 10
318.485609
 20
190.6995949999999
 30
0.0
 40
3.0
  1
１コ用スイッチボックス（カバー付）に取付可能
 41
1.133332999999999
  7
KANJI
100
AcDbText
  0
TEXT
  5
2A1
330
1E
100
AcDbEntity
  8
15
  6
Continuous
 62
    96
100
AcDbText
 10
312.53161
 20
185.5667569999999
 30
0.0
 40
3.0
  1
※　配線により、解錠時・施錠時の表示切り替えが可能
 41
1.133332999999999
  7
KANJI
100
AcDbText
  0
LINE
  5
2A2
330
1E
100
AcDbEntity
  8
15
  6
Continuous
 62
    96
100
AcDbLine
 10
400.430869
 20
184.3134029999999
 30
0.0
 11
310.359743
 21
184.3134029999999
 31
0.0
  0
LINE
  5
2A3
330
1E
100
AcDbEntity
  8
15
  6
Continuous
 62
    96
100
AcDbLine
 10
310.359743
 20
189.8134029999999
 30
0.0
 11
400.430869
 21
189.8134029999999
 31
0.0
  0
LINE
  5
2A4
330
1E
100
AcDbEntity
  8
15
  6
Continuous
 62
    96
100
AcDbLine
 10
335.3902299999999
 20
261.3134029999999
 30
0.0
 11
335.3902299999999
 21
195.313403
 31
0.0
  0
TEXT
  5
2A5
330
1E
100
AcDbEntity
  8
15
  6
DIVIDE
 62
    96
100
AcDbText
 10
312.117364
 20
245.7884029999999
 30
0.0
 40
3.0
  1
彩　色
  7
KANJI
100
AcDbText
  0
TEXT
  5
2A6
330
1E
100
AcDbEntity
  8
15
  6
DIVIDE
 62
    96
100
AcDbText
 10
362.722604
 20
229.5667569999999
 30
0.0
 40
3.0
  1
約100ｇ
 41
0.7
  7
KANJI
100
AcDbText
  0
LINE
  5
2A7
330
1E
100
AcDbEntity
  8
15
  6
Continuous
 62
    96
100
AcDbLine
 10
322.8749859999999
 20
250.3134029999999
 30
0.0
 11
400.462526
 21
250.3134029999999
 31
0.0
  0
LINE
  5
2A8
330
1E
100
AcDbEntity
  8
15
  6
Continuous
 62
    96
100
AcDbLine
 10
322.8749859999999
 20
244.8134029999999
 30
0.0
 11
400.462526
 21
244.8134029999999
 31
0.0
  0
TEXT
  5
2A9
330
1E
100
AcDbEntity
  8
15
  6
DIVIDE
 62
    96
100
AcDbText
 10
346.9042529999999
 20
235.064927
 30
0.0
 40
3.003658
  1
スイッチプレート（WTC7101W）
 41
0.777778
  7
KANJI
100
AcDbText
  0
TEXT
  5
2AA
330
1E
100
AcDbEntity
  8
15
  6
DIVIDE
 62
    96
100
AcDbText
 10
363.4243749999999
 20
213.064927
 30
0.0
 40
3.003658
  1
屋　内
  7
KANJI
100
AcDbText
  0
TEXT
  5
2AB
330
1E
100
AcDbEntity
  8
15
  6
DASHDOT
 62
    96
100
AcDbText
 10
208.130604
 20
22.98729199999999
 30
0.0
 40
3.0
  1
＊　記載されている会社名、製品名は、登録商標または商標です。
  7
KANJI
100
AcDbText
  0
ARC
  5
2AC
330
1E
100
AcDbEntity
  8
1
  6
Continuous
 62
     7
100
AcDbCircle
 10
40.0
 20
193.112403
 30
0.0
 40
10.0
100
AcDbArc
 50
90.0
 51
180.0
  0
LINE
  5
2AD
330
1E
100
AcDbEntity
  8
1
  6
Continuous
 62
     7
100
AcDbLine
 10
30.0
 20
93.11240299999999
 30
0.0
 11
30.0
 21
193.112403
 31
0.0
  0
ARC
  5
2AE
330
1E
100
AcDbEntity
  8
1
  6
Continuous
 62
     7
100
AcDbCircle
 10
40.0
 20
93.11240299999999
 30
0.0
 40
10.0
100
AcDbArc
 50
180.0
 51
270.0
  0
LINE
  5
2AF
330
1E
100
AcDbEntity
  8
1
  6
Continuous
 62
     7
100
AcDbLine
 10
40.0
 20
203.1124029999999
 30
0.0
 11
90.0
 21
203.1124029999999
 31
0.0
  0
ARC
  5
2B0
330
1E
100
AcDbEntity
  8
1
  6
Continuous
 62
     7
100
AcDbCircle
 10
90.0
 20
193.112403
 30
0.0
 40
10.0
100
AcDbArc
 50
0.0
 51
90.0
  0
LINE
  5
2B1
330
1E
100
AcDbEntity
  8
1
  6
Continuous
 62
     7
100
AcDbLine
 10
90.0
 20
83.11240299999999
 30
0.0
 11
40.0
 21
83.11240299999999
 31
0.0
  0
LINE
  5
2B2
330
1E
100
AcDbEntity
  8
1
  6
Continuous
 62
     7
100
AcDbLine
 10
100.0
 20
193.112403
 30
0.0
 11
100.0
 21
93.11240299999999
 31
0.0
  0
ARC
  5
2B3
330
1E
100
AcDbEntity
  8
1
  6
Continuous
 62
     7
100
AcDbCircle
 10
90.0
 20
93.11240299999999
 30
0.0
 40
10.0
100
AcDbArc
 50
270.0
 51
0.0
  0
CIRCLE
  5
2B4
330
1E
100
AcDbEntity
  8
1
  6
Continuous
 62
     7
100
AcDbCircle
 10
65.0
 20
171.812403
 30
0.0
 40
1.399999999999999
  0
ARC
  5
2B5
330
1E
100
AcDbEntity
  8
1
  6
Continuous
 62
     7
100
AcDbCircle
 10
44.5
 20
188.112403
 30
0.0
 40
1.0
100
AcDbArc
 50
90.0
 51
180.0
  0
ARC
  5
2B6
330
1E
100
AcDbEntity
  8
1
  6
Continuous
 62
     7
100
AcDbCircle
 10
44.75
 20
187.812403
 30
0.0
 40
1.0
100
AcDbArc
 50
90.0
 51
180.0
  0
LINE
  5
2B7
330
1E
100
AcDbEntity
  8
1
  6
Continuous
 62
     7
100
AcDbLine
 10
85.25
 20
188.8124029999999
 30
0.0
 11
44.75
 21
188.8124029999999
 31
0.0
  0
ARC
  5
2B8
330
1E
100
AcDbEntity
  8
1
  6
Continuous
 62
     7
100
AcDbCircle
 10
85.25
 20
187.812403
 30
0.0
 40
1.0
100
AcDbArc
 50
0.0
 51
90.0
  0
LINE
  5
2B9
330
1E
100
AcDbEntity
  8
1
  6
Continuous
 62
     7
100
AcDbLine
 10
44.5
 20
189.112403
 30
0.0
 11
85.5
 21
189.112403
 31
0.0
  0
ARC
  5
2BA
330
1E
100
AcDbEntity
  8
1
  6
Continuous
 62
     7
100
AcDbCircle
 10
85.5
 20
188.112403
 30
0.0
 40
1.0
100
AcDbArc
 50
0.0
 51
90.0
  0
LINE
  5
2BB
330
1E
100
AcDbEntity
  8
1
  6
Continuous
 62
     7
100
AcDbLine
 10
86.25
 20
187.812403
 30
0.0
 11
86.25
 21
98.412403
 31
0.0
  0
ARC
  5
2BC
330
1E
100
AcDbEntity
  8
1
  6
Continuous
 62
     7
100
AcDbCircle
 10
85.25
 20
98.412403
 30
0.0
 40
1.0
100
AcDbArc
 50
270.0
 51
0.0
  0
LINE
  5
2BD
330
1E
100
AcDbEntity
  8
1
  6
Continuous
 62
     7
100
AcDbLine
 10
86.5
 20
188.112403
 30
0.0
 11
86.5
 21
98.11240300000001
 31
0.0
  0
ARC
  5
2BE
330
1E
100
AcDbEntity
  8
1
  6
Continuous
 62
     7
100
AcDbCircle
 10
85.5
 20
98.11240300000001
 30
0.0
 40
1.0
100
AcDbArc
 50
270.0
 51
0.0
  0
LINE
  5
2BF
330
1E
100
AcDbEntity
  8
1
  6
Continuous
 62
     7
100
AcDbLine
 10
43.75
 20
98.412403
 30
0.0
 11
43.75
 21
187.812403
 31
0.0
  0
LINE
  5
2C0
330
1E
100
AcDbEntity
  8
1
  6
Continuous
 62
     7
100
AcDbLine
 10
85.25
 20
97.41240300000001
 30
0.0
 11
44.75
 21
97.41240300000001
 31
0.0
  0
ARC
  5
2C1
330
1E
100
AcDbEntity
  8
1
  6
Continuous
 62
     7
100
AcDbCircle
 10
44.75
 20
98.412403
 30
0.0
 40
1.0
100
AcDbArc
 50
180.0
 51
270.0
  0
LINE
  5
2C2
330
1E
100
AcDbEntity
  8
1
  6
Continuous
 62
     7
100
AcDbLine
 10
43.5
 20
98.11240300000001
 30
0.0
 11
43.5
 21
188.112403
 31
0.0
  0
LINE
  5
2C3
330
1E
100
AcDbEntity
  8
1
  6
Continuous
 62
     7
100
AcDbLine
 10
85.5
 20
97.112403
 30
0.0
 11
44.5
 21
97.112403
 31
0.0
  0
ARC
  5
2C4
330
1E
100
AcDbEntity
  8
1
  6
Continuous
 62
     7
100
AcDbCircle
 10
44.5
 20
98.11240300000001
 30
0.0
 40
1.0
100
AcDbArc
 50
180.0
 51
270.0
  0
ARC
  5
2C5
330
1E
100
AcDbEntity
  8
1
  6
Continuous
 62
     7
100
AcDbCircle
 10
59.5
 20
160.412403
 30
0.0
 40
1.0
100
AcDbArc
 50
90.0
 51
180.0
  0
LINE
  5
2C6
330
1E
100
AcDbEntity
  8
1
  6
Continuous
 62
     7
100
AcDbLine
 10
59.5
 20
161.412403
 30
0.0
 11
70.5
 21
161.412403
 31
0.0
  0
ARC
  5
2C7
330
1E
100
AcDbEntity
  8
1
  6
Continuous
 62
     7
100
AcDbCircle
 10
70.5
 20
160.412403
 30
0.0
 40
1.0
100
AcDbArc
 50
0.0
 51
90.0
  0
LINE
  5
2C8
330
1E
100
AcDbEntity
  8
1
  6
Continuous
 62
     7
100
AcDbLine
 10
58.5
 20
149.412403
 30
0.0
 11
58.5
 21
160.412403
 31
0.0
  0
ARC
  5
2C9
330
1E
100
AcDbEntity
  8
1
  6
Continuous
 62
     7
100
AcDbCircle
 10
59.5
 20
149.412403
 30
0.0
 40
1.0
100
AcDbArc
 50
180.0
 51
270.0
  0
LINE
  5
2CA
330
1E
100
AcDbEntity
  8
1
  6
Continuous
 62
     7
100
AcDbLine
 10
70.5
 20
148.412403
 30
0.0
 11
59.5
 21
148.412403
 31
0.0
  0
LINE
  5
2CB
330
1E
100
AcDbEntity
  8
1
  6
Continuous
 62
     7
100
AcDbLine
 10
71.5
 20
160.412403
 30
0.0
 11
71.5
 21
149.412403
 31
0.0
  0
ARC
  5
2CC
330
1E
100
AcDbEntity
  8
1
  6
Continuous
 62
     7
100
AcDbCircle
 10
70.5
 20
149.412403
 30
0.0
 40
1.0
100
AcDbArc
 50
270.0
 51
0.0
  0
ARC
  5
2CD
330
1E
100
AcDbEntity
  8
1
  6
Continuous
 62
     7
100
AcDbCircle
 10
59.5
 20
142.412403
 30
0.0
 40
1.0
100
AcDbArc
 50
90.0
 51
180.0
  0
LINE
  5
2CE
330
1E
100
AcDbEntity
  8
1
  6
Continuous
 62
     7
100
AcDbLine
 10
58.5
 20
131.412403
 30
0.0
 11
58.5
 21
142.412403
 31
0.0
  0
ARC
  5
2CF
330
1E
100
AcDbEntity
  8
1
  6
Continuous
 62
     7
100
AcDbCircle
 10
59.5
 20
131.412403
 30
0.0
 40
1.0
100
AcDbArc
 50
180.0
 51
270.0
  0
LINE
  5
2D0
330
1E
100
AcDbEntity
  8
1
  6
Continuous
 62
     7
100
AcDbLine
 10
70.5
 20
130.412403
 30
0.0
 11
59.5
 21
130.412403
 31
0.0
  0
ARC
  5
2D1
330
1E
100
AcDbEntity
  8
1
  6
Continuous
 62
     7
100
AcDbCircle
 10
70.5
 20
131.412403
 30
0.0
 40
1.0
100
AcDbArc
 50
270.0
 51
0.0
  0
LINE
  5
2D2
330
1E
100
AcDbEntity
  8
1
  6
Continuous
 62
     7
100
AcDbLine
 10
59.5
 20
143.412403
 30
0.0
 11
70.5
 21
143.412403
 31
0.0
  0
LINE
  5
2D3
330
1E
100
AcDbEntity
  8
1
  6
Continuous
 62
     7
100
AcDbLine
 10
71.5
 20
142.412403
 30
0.0
 11
71.5
 21
131.412403
 31
0.0
  0
ARC
  5
2D4
330
1E
100
AcDbEntity
  8
1
  6
Continuous
 62
     7
100
AcDbCircle
 10
70.5
 20
142.412403
 30
0.0
 40
1.0
100
AcDbArc
 50
0.0
 51
90.0
  0
ARC
  5
2D5
330
1E
100
AcDbEntity
  8
1
  6
Continuous
 62
     7
100
AcDbCircle
 10
59.5
 20
124.412403
 30
0.0
 40
1.0
100
AcDbArc
 50
90.0
 51
180.0
  0
LINE
  5
2D6
330
1E
100
AcDbEntity
  8
1
  6
Continuous
 62
     7
100
AcDbLine
 10
59.5
 20
125.412403
 30
0.0
 11
70.5
 21
125.412403
 31
0.0
  0
ARC
  5
2D7
330
1E
100
AcDbEntity
  8
1
  6
Continuous
 62
     7
100
AcDbCircle
 10
70.5
 20
124.412403
 30
0.0
 40
1.0
100
AcDbArc
 50
0.0
 51
90.0
  0
LINE
  5
2D8
330
1E
100
AcDbEntity
  8
1
  6
Continuous
 62
     7
100
AcDbLine
 10
71.5
 20
124.412403
 30
0.0
 11
71.5
 21
113.4124029999999
 31
0.0
  0
ARC
  5
2D9
330
1E
100
AcDbEntity
  8
1
  6
Continuous
 62
     7
100
AcDbCircle
 10
70.5
 20
113.4124029999999
 30
0.0
 40
1.0
100
AcDbArc
 50
270.0
 51
0.0
  0
LINE
  5
2DA
330
1E
100
AcDbEntity
  8
1
  6
Continuous
 62
     7
100
AcDbLine
 10
58.5
 20
113.4124029999999
 30
0.0
 11
58.5
 21
124.412403
 31
0.0
  0
LINE
  5
2DB
330
1E
100
AcDbEntity
  8
1
  6
Continuous
 62
     7
100
AcDbLine
 10
70.5
 20
112.4124029999999
 30
0.0
 11
59.5
 21
112.4124029999999
 31
0.0
  0
ARC
  5
2DC
330
1E
100
AcDbEntity
  8
1
  6
Continuous
 62
     7
100
AcDbCircle
 10
59.5
 20
113.4124029999999
 30
0.0
 40
1.0
100
AcDbArc
 50
180.0
 51
270.0
  0
ARC
  5
2DD
330
1E
100
AcDbEntity
  8
1
  6
Continuous
 62
     7
100
AcDbCircle
 10
60.178389
 20
159.734014
 30
0.0
 40
1.0
100
AcDbArc
 50
94.23770100000002
 51
175.762299
  0
ARC
  5
2DE
330
1E
100
AcDbEntity
  8
1
  6
Continuous
 62
     7
100
AcDbCircle
 10
125.2499999999999
 20
154.912403
 30
0.0
 40
66.25
100
AcDbArc
 50
175.762299
 51
184.2377009999999
  0
ARC
  5
2DF
330
1E
100
AcDbEntity
  8
1
  6
Continuous
 62
     7
100
AcDbCircle
 10
60.178389
 20
150.0907919999999
 30
0.0
 40
1.0
100
AcDbArc
 50
184.2377009999999
 51
265.762299
  0
ARC
  5
2E0
330
1E
100
AcDbEntity
  8
1
  6
Continuous
 62
     7
100
AcDbCircle
 10
65.0
 20
215.1624029999999
 30
0.0
 40
66.25
100
AcDbArc
 50
265.762299
 51
274.2377009999999
  0
ARC
  5
2E1
330
1E
100
AcDbEntity
  8
1
  6
Continuous
 62
     7
100
AcDbCircle
 10
69.821611
 20
150.0907919999999
 30
0.0
 40
1.0
100
AcDbArc
 50
274.2377009999999
 51
355.762299
  0
ARC
  5
2E2
330
1E
100
AcDbEntity
  8
1
  6
Continuous
 62
     7
100
AcDbCircle
 10
65.0
 20
94.662403
 30
0.0
 40
66.25
100
AcDbArc
 50
85.76229899999999
 51
94.23770100000002
  0
ARC
  5
2E3
330
1E
100
AcDbEntity
  8
1
  6
Continuous
 62
     7
100
AcDbCircle
 10
4.75
 20
154.912403
 30
0.0
 40
66.25
100
AcDbArc
 50
355.762299
 51
4.237701
  0
ARC
  5
2E4
330
1E
100
AcDbEntity
  8
1
  6
Continuous
 62
     7
100
AcDbCircle
 10
69.821611
 20
159.734014
 30
0.0
 40
1.0
100
AcDbArc
 50
4.237701
 51
85.76229899999999
  0
ARC
  5
2E5
330
1E
100
AcDbEntity
  8
1
  6
Continuous
 62
     7
100
AcDbCircle
 10
60.178389
 20
141.734014
 30
0.0
 40
1.0
100
AcDbArc
 50
94.23770100000002
 51
175.762299
  0
ARC
  5
2E6
330
1E
100
AcDbEntity
  8
1
  6
Continuous
 62
     7
100
AcDbCircle
 10
125.2499999999999
 20
136.912403
 30
0.0
 40
66.25
100
AcDbArc
 50
175.762299
 51
184.2377009999999
  0
ARC
  5
2E7
330
1E
100
AcDbEntity
  8
1
  6
Continuous
 62
     7
100
AcDbCircle
 10
60.178389
 20
132.090792
 30
0.0
 40
1.0
100
AcDbArc
 50
184.2377009999999
 51
265.762299
  0
ARC
  5
2E8
330
1E
100
AcDbEntity
  8
1
  6
Continuous
 62
     7
100
AcDbCircle
 10
65.0
 20
197.162403
 30
0.0
 40
66.25
100
AcDbArc
 50
265.762299
 51
274.2377009999999
  0
ARC
  5
2E9
330
1E
100
AcDbEntity
  8
1
  6
Continuous
 62
     7
100
AcDbCircle
 10
69.821611
 20
132.090792
 30
0.0
 40
1.0
100
AcDbArc
 50
274.2377009999999
 51
355.762299
  0
ARC
  5
2EA
330
1E
100
AcDbEntity
  8
1
  6
Continuous
 62
     7
100
AcDbCircle
 10
65.0
 20
76.662403
 30
0.0
 40
66.25
100
AcDbArc
 50
85.76229899999999
 51
94.23770100000002
  0
ARC
  5
2EB
330
1E
100
AcDbEntity
  8
1
  6
Continuous
 62
     7
100
AcDbCircle
 10
4.75
 20
136.912403
 30
0.0
 40
66.25
100
AcDbArc
 50
355.762299
 51
4.237701
  0
ARC
  5
2EC
330
1E
100
AcDbEntity
  8
1
  6
Continuous
 62
     7
100
AcDbCircle
 10
69.821611
 20
141.734014
 30
0.0
 40
1.0
100
AcDbArc
 50
4.237701
 51
85.76229899999999
  0
ARC
  5
2ED
330
1E
100
AcDbEntity
  8
1
  6
Continuous
 62
     7
100
AcDbCircle
 10
60.178389
 20
123.7340139999999
 30
0.0
 40
1.0
100
AcDbArc
 50
94.23770100000002
 51
175.762299
  0
ARC
  5
2EE
330
1E
100
AcDbEntity
  8
1
  6
Continuous
 62
     7
100
AcDbCircle
 10
125.2499999999999
 20
118.912403
 30
0.0
 40
66.25
100
AcDbArc
 50
175.762299
 51
184.2377009999999
  0
ARC
  5
2EF
330
1E
100
AcDbEntity
  8
1
  6
Continuous
 62
     7
100
AcDbCircle
 10
60.178389
 20
114.0907919999999
 30
0.0
 40
1.0
100
AcDbArc
 50
184.2377009999999
 51
265.762299
  0
ARC
  5
2F0
330
1E
100
AcDbEntity
  8
1
  6
Continuous
 62
     7
100
AcDbCircle
 10
65.0
 20
179.162403
 30
0.0
 40
66.25
100
AcDbArc
 50
265.762299
 51
274.2377009999999
  0
ARC
  5
2F1
330
1E
100
AcDbEntity
  8
1
  6
Continuous
 62
     7
100
AcDbCircle
 10
69.821611
 20
114.0907919999999
 30
0.0
 40
1.0
100
AcDbArc
 50
274.2377009999999
 51
355.762299
  0
ARC
  5
2F2
330
1E
100
AcDbEntity
  8
1
  6
Continuous
 62
     7
100
AcDbCircle
 10
65.0
 20
58.66240300000001
 30
0.0
 40
66.25
100
AcDbArc
 50
85.76229899999999
 51
94.23770100000002
  0
ARC
  5
2F3
330
1E
100
AcDbEntity
  8
1
  6
Continuous
 62
     7
100
AcDbCircle
 10
4.75
 20
118.912403
 30
0.0
 40
66.25
100
AcDbArc
 50
355.762299
 51
4.237701
  0
ARC
  5
2F4
330
1E
100
AcDbEntity
  8
1
  6
Continuous
 62
     7
100
AcDbCircle
 10
69.821611
 20
123.7340139999999
 30
0.0
 40
1.0
100
AcDbArc
 50
4.237701
 51
85.76229899999999
  0
TEXT
  5
2F5
330
1E
100
AcDbEntity
  8
1
  6
Continuous
 62
     7
100
AcDbText
 10
63.5
 20
151.912403
 30
0.0
 40
6.0
  1
1
 41
0.533333
  7
KANJI
100
AcDbText
  0
TEXT
  5
2F6
330
1E
100
AcDbEntity
  8
1
  6
Continuous
 62
     7
100
AcDbText
 10
63.5
 20
133.912403
 30
0.0
 40
6.0
  1
2
 41
0.533333
  7
KANJI
100
AcDbText
  0
TEXT
  5
2F7
330
1E
100
AcDbEntity
  8
1
  6
Continuous
 62
     7
100
AcDbText
 10
63.5
 20
115.912403
 30
0.0
 40
6.0
  1
3
 41
0.533333
  7
KANJI
100
AcDbText
  0
ARC
  5
2F8
330
1E
100
AcDbEntity
  8
1
  6
Continuous
 62
     7
100
AcDbCircle
 10
58.5
 20
182.412403
 30
0.0
 40
1.0
100
AcDbArc
 50
90.0
 51
180.0
  0
LINE
  5
2F9
330
1E
100
AcDbEntity
  8
1
  6
Continuous
 62
     7
100
AcDbLine
 10
57.5
 20
182.412403
 30
0.0
 11
57.5
 21
178.912403
 31
0.0
  0
ARC
  5
2FA
330
1E
100
AcDbEntity
  8
1
  6
Continuous
 62
     7
100
AcDbCircle
 10
58.5
 20
178.912403
 30
0.0
 40
1.0
100
AcDbArc
 50
180.0
 51
270.0
  0
LINE
  5
2FB
330
1E
100
AcDbEntity
  8
1
  6
Continuous
 62
     7
100
AcDbLine
 10
58.5
 20
177.912403
 30
0.0
 11
71.5
 21
177.912403
 31
0.0
  0
ARC
  5
2FC
330
1E
100
AcDbEntity
  8
1
  6
Continuous
 62
     7
100
AcDbCircle
 10
71.5
 20
178.912403
 30
0.0
 40
1.0
100
AcDbArc
 50
270.0
 51
0.0
  0
LINE
  5
2FD
330
1E
100
AcDbEntity
  8
1
  6
Continuous
 62
     7
100
AcDbLine
 10
71.5
 20
183.412403
 30
0.0
 11
58.5
 21
183.412403
 31
0.0
  0
LINE
  5
2FE
330
1E
100
AcDbEntity
  8
1
  6
Continuous
 62
     7
100
AcDbLine
 10
72.5
 20
178.912403
 30
0.0
 11
72.5
 21
182.412403
 31
0.0
  0
ARC
  5
2FF
330
1E
100
AcDbEntity
  8
1
  6
Continuous
 62
     7
100
AcDbCircle
 10
71.5
 20
182.412403
 30
0.0
 40
1.0
100
AcDbArc
 50
0.0
 51
90.0
  0
DIMENSION
  5
300
330
1E
100
AcDbEntity
  8
1
  6
Continuous
 62
     7
100
AcDbDimension
  2
*D4
 10
115.0
 20
203.1124029999999
 30
0.0
 11
114.5
 21
143.112403
 31
0.0
  1
120
 71
     5
 42
-1.0
100
AcDbAlignedDimension
 13
92.682
 23
203.1124029999999
 33
0.0
 14
92.21099999999999
 24
83.11240299999999
 34
0.0
 50
270.0
100
AcDbRotatedDimension
  0
DIMENSION
  5
301
330
1E
100
AcDbEntity
  8
1
  6
Continuous
 62
     7
100
AcDbDimension
  2
*D5
 10
30.0
 20
218.1124029999999
 30
0.0
 11
65.0
 21
218.6124029999999
 31
0.0
  1
70
 71
     5
 42
-1.0
100
AcDbAlignedDimension
 13
30.0
 23
195.755403
 33
0.0
 14
100.0
 24
195.5624029999999
 34
0.0
100
AcDbRotatedDimension
  0
LINE
  5
302
330
1E
100
AcDbEntity
  8
1
  6
Continuous
 62
     7
100
AcDbLine
 10
143.8
 20
203.1124029999999
 30
0.0
 11
143.8
 21
83.11240299999999
 31
0.0
  0
LINE
  5
303
330
1E
100
AcDbEntity
  8
1
  6
Continuous
 62
     7
100
AcDbLine
 10
135.0
 20
188.8124029999999
 30
0.0
 11
134.4999999999999
 21
188.8124029999999
 31
0.0
  0
LINE
  5
304
330
1E
100
AcDbEntity
  8
1
  6
Continuous
 62
     7
100
AcDbLine
 10
134.4999999999999
 20
188.8124029999999
 30
0.0
 11
134.4999999999999
 21
97.41240300000001
 31
0.0
  0
LINE
  5
305
330
1E
100
AcDbEntity
  8
1
  6
Continuous
 62
     7
100
AcDbLine
 10
134.4999999999999
 20
97.41240300000001
 30
0.0
 11
135.0
 21
97.41240300000001
 31
0.0
  0
LINE
  5
306
330
1E
100
AcDbEntity
  8
1
  6
Continuous
 62
     7
100
AcDbLine
 10
134.4999999999999
 20
160.912403
 30
0.0
 11
133.0999999999999
 21
160.912403
 31
0.0
  0
LINE
  5
307
330
1E
100
AcDbEntity
  8
1
  6
Continuous
 62
     7
100
AcDbLine
 10
133.0999999999999
 20
160.912403
 30
0.0
 11
133.0999999999999
 21
148.912403
 31
0.0
  0
LINE
  5
308
330
1E
100
AcDbEntity
  8
1
  6
Continuous
 62
     7
100
AcDbLine
 10
133.0999999999999
 20
148.912403
 30
0.0
 11
134.4999999999999
 21
148.912403
 31
0.0
  0
LINE
  5
309
330
1E
100
AcDbEntity
  8
1
  6
Continuous
 62
     7
100
AcDbLine
 10
134.4999999999999
 20
142.912403
 30
0.0
 11
133.0999999999999
 21
142.912403
 31
0.0
  0
LINE
  5
30A
330
1E
100
AcDbEntity
  8
1
  6
Continuous
 62
     7
100
AcDbLine
 10
133.0999999999999
 20
142.912403
 30
0.0
 11
133.0999999999999
 21
130.912403
 31
0.0
  0
LINE
  5
30B
330
1E
100
AcDbEntity
  8
1
  6
Continuous
 62
     7
100
AcDbLine
 10
133.0999999999999
 20
130.912403
 30
0.0
 11
134.4999999999999
 21
130.912403
 31
0.0
  0
LINE
  5
30C
330
1E
100
AcDbEntity
  8
1
  6
Continuous
 62
     7
100
AcDbLine
 10
134.4999999999999
 20
124.9124029999999
 30
0.0
 11
133.0999999999999
 21
124.9124029999999
 31
0.0
  0
LINE
  5
30D
330
1E
100
AcDbEntity
  8
1
  6
Continuous
 62
     7
100
AcDbLine
 10
133.0999999999999
 20
124.9124029999999
 30
0.0
 11
133.0999999999999
 21
112.912403
 31
0.0
  0
LINE
  5
30E
330
1E
100
AcDbEntity
  8
1
  6
Continuous
 62
     7
100
AcDbLine
 10
133.0999999999999
 20
112.912403
 30
0.0
 11
134.4999999999999
 21
112.912403
 31
0.0
  0
ARC
  5
30F
330
1E
100
AcDbEntity
  8
1
  6
Continuous
 62
     7
100
AcDbCircle
 10
134.403333
 20
171.812403
 30
0.0
 40
1.403332999999999
100
AcDbArc
 50
86.050132
 51
273.949868
  0
LINE
  5
310
330
1E
100
AcDbEntity
  8
1
  6
Continuous
 62
     7
100
AcDbLine
 10
138.8
 20
203.1124029999999
 30
0.0
 11
138.717103
 21
203.1090709999999
 31
0.0
  0
LINE
  5
311
330
1E
100
AcDbEntity
  8
1
  6
Continuous
 62
     7
100
AcDbLine
 10
138.717103
 20
203.1090709999999
 30
0.0
 11
138.6342459999999
 21
203.0990779999999
 31
0.0
  0
LINE
  5
312
330
1E
100
AcDbEntity
  8
1
  6
Continuous
 62
     7
100
AcDbLine
 10
138.6342459999999
 20
203.0990779999999
 30
0.0
 11
138.5514679999999
 21
203.082428
 31
0.0
  0
LINE
  5
313
330
1E
100
AcDbEntity
  8
1
  6
Continuous
 62
     7
100
AcDbLine
 10
138.5514679999999
 20
203.082428
 30
0.0
 11
138.4688079999999
 21
203.059129
 31
0.0
  0
LINE
  5
314
330
1E
100
AcDbEntity
  8
1
  6
Continuous
 62
     7
100
AcDbLine
 10
138.4688079999999
 20
203.059129
 30
0.0
 11
138.386306
 21
203.0291919999999
 31
0.0
  0
LINE
  5
315
330
1E
100
AcDbEntity
  8
1
  6
Continuous
 62
     7
100
AcDbLine
 10
138.386306
 20
203.0291919999999
 30
0.0
 11
138.304
 21
202.992631
 31
0.0
  0
LINE
  5
316
330
1E
100
AcDbEntity
  8
1
  6
Continuous
 62
     7
100
AcDbLine
 10
138.304
 20
202.992631
 30
0.0
 11
138.221931
 21
202.9494639999999
 31
0.0
  0
LINE
  5
317
330
1E
100
AcDbEntity
  8
1
  6
Continuous
 62
     7
100
AcDbLine
 10
138.221931
 20
202.9494639999999
 30
0.0
 11
138.140137
 21
202.899712
 31
0.0
  0
LINE
  5
318
330
1E
100
AcDbEntity
  8
1
  6
Continuous
 62
     7
100
AcDbLine
 10
138.140137
 20
202.899712
 30
0.0
 11
138.058657
 21
202.843397
 31
0.0
  0
LINE
  5
319
330
1E
100
AcDbEntity
  8
1
  6
Continuous
 62
     7
100
AcDbLine
 10
138.058657
 20
202.843397
 30
0.0
 11
137.9775289999999
 21
202.7805469999999
 31
0.0
  0
LINE
  5
31A
330
1E
100
AcDbEntity
  8
1
  6
Continuous
 62
     7
100
AcDbLine
 10
137.9775289999999
 20
202.7805469999999
 30
0.0
 11
137.896794
 21
202.7111919999999
 31
0.0
  0
LINE
  5
31B
330
1E
100
AcDbEntity
  8
1
  6
Continuous
 62
     7
100
AcDbLine
 10
137.896794
 20
202.7111919999999
 30
0.0
 11
137.8164879999999
 21
202.6353649999999
 31
0.0
  0
LINE
  5
31C
330
1E
100
AcDbEntity
  8
1
  6
Continuous
 62
     7
100
AcDbLine
 10
137.8164879999999
 20
202.6353649999999
 30
0.0
 11
137.7366499999999
 21
202.5531009999999
 31
0.0
  0
LINE
  5
31D
330
1E
100
AcDbEntity
  8
1
  6
Continuous
 62
     7
100
AcDbLine
 10
137.7366499999999
 20
202.5531009999999
 30
0.0
 11
137.657318
 21
202.46444
 31
0.0
  0
LINE
  5
31E
330
1E
100
AcDbEntity
  8
1
  6
Continuous
 62
     7
100
AcDbLine
 10
137.657318
 20
202.46444
 30
0.0
 11
137.5785299999999
 21
202.369425
 31
0.0
  0
LINE
  5
31F
330
1E
100
AcDbEntity
  8
1
  6
Continuous
 62
     7
100
AcDbLine
 10
137.5785299999999
 20
202.369425
 30
0.0
 11
137.500323
 21
202.2680999999999
 31
0.0
  0
LINE
  5
320
330
1E
100
AcDbEntity
  8
1
  6
Continuous
 62
     7
100
AcDbLine
 10
137.500323
 20
202.2680999999999
 30
0.0
 11
137.422735
 21
202.1605129999999
 31
0.0
  0
LINE
  5
321
330
1E
100
AcDbEntity
  8
1
  6
Continuous
 62
     7
100
AcDbLine
 10
137.422735
 20
202.1605129999999
 30
0.0
 11
137.3458029999999
 21
202.0467169999999
 31
0.0
  0
LINE
  5
322
330
1E
100
AcDbEntity
  8
1
  6
Continuous
 62
     7
100
AcDbLine
 10
137.3458029999999
 20
202.0467169999999
 30
0.0
 11
137.2695629999999
 21
201.9267639999999
 31
0.0
  0
LINE
  5
323
330
1E
100
AcDbEntity
  8
1
  6
Continuous
 62
     7
100
AcDbLine
 10
137.2695629999999
 20
201.9267639999999
 30
0.0
 11
137.1940509999999
 21
201.800712
 31
0.0
  0
LINE
  5
324
330
1E
100
AcDbEntity
  8
1
  6
Continuous
 62
     7
100
AcDbLine
 10
137.1940509999999
 20
201.800712
 30
0.0
 11
137.119303
 21
201.668621
 31
0.0
  0
LINE
  5
325
330
1E
100
AcDbEntity
  8
1
  6
Continuous
 62
     7
100
AcDbLine
 10
137.119303
 20
201.668621
 30
0.0
 11
137.045355
 21
201.5305549999999
 31
0.0
  0
LINE
  5
326
330
1E
100
AcDbEntity
  8
1
  6
Continuous
 62
     7
100
AcDbLine
 10
137.045355
 20
201.5305549999999
 30
0.0
 11
136.9722429999999
 21
201.386578
 31
0.0
  0
LINE
  5
327
330
1E
100
AcDbEntity
  8
1
  6
Continuous
 62
     7
100
AcDbLine
 10
136.9722429999999
 20
201.386578
 30
0.0
 11
136.8999999999999
 21
201.236759
 31
0.0
  0
LINE
  5
328
330
1E
100
AcDbEntity
  8
1
  6
Continuous
 62
     7
100
AcDbLine
 10
136.8999999999999
 20
201.236759
 30
0.0
 11
136.828662
 21
201.0811689999999
 31
0.0
  0
LINE
  5
329
330
1E
100
AcDbEntity
  8
1
  6
Continuous
 62
     7
100
AcDbLine
 10
136.828662
 20
201.0811689999999
 30
0.0
 11
136.758261
 21
200.9198829999999
 31
0.0
  0
LINE
  5
32A
330
1E
100
AcDbEntity
  8
1
  6
Continuous
 62
     7
100
AcDbLine
 10
136.758261
 20
200.9198829999999
 30
0.0
 11
136.688833
 21
200.752978
 31
0.0
  0
LINE
  5
32B
330
1E
100
AcDbEntity
  8
1
  6
Continuous
 62
     7
100
AcDbLine
 10
136.688833
 20
200.752978
 30
0.0
 11
136.62041
 21
200.5805319999999
 31
0.0
  0
LINE
  5
32C
330
1E
100
AcDbEntity
  8
1
  6
Continuous
 62
     7
100
AcDbLine
 10
136.62041
 20
200.5805319999999
 30
0.0
 11
136.553023
 21
200.402628
 31
0.0
  0
LINE
  5
32D
330
1E
100
AcDbEntity
  8
1
  6
Continuous
 62
     7
100
AcDbLine
 10
136.553023
 20
200.402628
 30
0.0
 11
136.486707
 21
200.2193499999999
 31
0.0
  0
LINE
  5
32E
330
1E
100
AcDbEntity
  8
1
  6
Continuous
 62
     7
100
AcDbLine
 10
136.486707
 20
200.2193499999999
 30
0.0
 11
136.421491
 21
200.0307859999999
 31
0.0
  0
LINE
  5
32F
330
1E
100
AcDbEntity
  8
1
  6
Continuous
 62
     7
100
AcDbLine
 10
136.421491
 20
200.0307859999999
 30
0.0
 11
136.357407
 21
199.837025
 31
0.0
  0
LINE
  5
330
330
1E
100
AcDbEntity
  8
1
  6
Continuous
 62
     7
100
AcDbLine
 10
136.357407
 20
199.837025
 30
0.0
 11
136.294486
 21
199.63816
 31
0.0
  0
LINE
  5
331
330
1E
100
AcDbEntity
  8
1
  6
Continuous
 62
     7
100
AcDbLine
 10
136.294486
 20
199.63816
 30
0.0
 11
136.2327569999999
 21
199.434286
 31
0.0
  0
LINE
  5
332
330
1E
100
AcDbEntity
  8
1
  6
Continuous
 62
     7
100
AcDbLine
 10
136.2327569999999
 20
199.434286
 30
0.0
 11
136.1722499999999
 21
199.2254989999999
 31
0.0
  0
LINE
  5
333
330
1E
100
AcDbEntity
  8
1
  6
Continuous
 62
     7
100
AcDbLine
 10
136.1722499999999
 20
199.2254989999999
 30
0.0
 11
136.1129939999999
 21
199.011898
 31
0.0
  0
LINE
  5
334
330
1E
100
AcDbEntity
  8
1
  6
Continuous
 62
     7
100
AcDbLine
 10
136.1129939999999
 20
199.011898
 30
0.0
 11
136.055017
 21
198.793586
 31
0.0
  0
LINE
  5
335
330
1E
100
AcDbEntity
  8
1
  6
Continuous
 62
     7
100
AcDbLine
 10
136.055017
 20
198.793586
 30
0.0
 11
135.998346
 21
198.5706659999999
 31
0.0
  0
LINE
  5
336
330
1E
100
AcDbEntity
  8
1
  6
Continuous
 62
     7
100
AcDbLine
 10
135.998346
 20
198.5706659999999
 30
0.0
 11
135.943009
 21
198.3432439999999
 31
0.0
  0
LINE
  5
337
330
1E
100
AcDbEntity
  8
1
  6
Continuous
 62
     7
100
AcDbLine
 10
135.943009
 20
198.3432439999999
 30
0.0
 11
135.889031
 21
198.11143
 31
0.0
  0
LINE
  5
338
330
1E
100
AcDbEntity
  8
1
  6
Continuous
 62
     7
100
AcDbLine
 10
135.889031
 20
198.11143
 30
0.0
 11
135.8364389999999
 21
197.875332
 31
0.0
  0
LINE
  5
339
330
1E
100
AcDbEntity
  8
1
  6
Continuous
 62
     7
100
AcDbLine
 10
135.8364389999999
 20
197.875332
 30
0.0
 11
135.785257
 21
197.6350629999999
 31
0.0
  0
LINE
  5
33A
330
1E
100
AcDbEntity
  8
1
  6
Continuous
 62
     7
100
AcDbLine
 10
135.785257
 20
197.6350629999999
 30
0.0
 11
135.735511
 21
197.3907379999999
 31
0.0
  0
LINE
  5
33B
330
1E
100
AcDbEntity
  8
1
  6
Continuous
 62
     7
100
AcDbLine
 10
135.735511
 20
197.3907379999999
 30
0.0
 11
135.6872219999999
 21
197.142473
 31
0.0
  0
LINE
  5
33C
330
1E
100
AcDbEntity
  8
1
  6
Continuous
 62
     7
100
AcDbLine
 10
135.6872219999999
 20
197.142473
 30
0.0
 11
135.6404149999999
 21
196.890386
 31
0.0
  0
LINE
  5
33D
330
1E
100
AcDbEntity
  8
1
  6
Continuous
 62
     7
100
AcDbLine
 10
135.6404149999999
 20
196.890386
 30
0.0
 11
135.595113
 21
196.634598
 31
0.0
  0
LINE
  5
33E
330
1E
100
AcDbEntity
  8
1
  6
Continuous
 62
     7
100
AcDbLine
 10
135.595113
 20
196.634598
 30
0.0
 11
135.551335
 21
196.375229
 31
0.0
  0
LINE
  5
33F
330
1E
100
AcDbEntity
  8
1
  6
Continuous
 62
     7
100
AcDbLine
 10
135.551335
 20
196.375229
 30
0.0
 11
135.509103
 21
196.112403
 31
0.0
  0
LINE
  5
340
330
1E
100
AcDbEntity
  8
1
  6
Continuous
 62
     7
100
AcDbLine
 10
135.509103
 20
196.112403
 30
0.0
 11
135.4684379999999
 21
195.8462459999999
 31
0.0
  0
LINE
  5
341
330
1E
100
AcDbEntity
  8
1
  6
Continuous
 62
     7
100
AcDbLine
 10
135.4684379999999
 20
195.8462459999999
 30
0.0
 11
135.429359
 21
195.576884
 31
0.0
  0
LINE
  5
342
330
1E
100
AcDbEntity
  8
1
  6
Continuous
 62
     7
100
AcDbLine
 10
135.429359
 20
195.576884
 30
0.0
 11
135.391884
 21
195.3044449999999
 31
0.0
  0
LINE
  5
343
330
1E
100
AcDbEntity
  8
1
  6
Continuous
 62
     7
100
AcDbLine
 10
135.391884
 20
195.3044449999999
 30
0.0
 11
135.35603
 21
195.029059
 31
0.0
  0
LINE
  5
344
330
1E
100
AcDbEntity
  8
1
  6
Continuous
 62
     7
100
AcDbLine
 10
135.35603
 20
195.029059
 30
0.0
 11
135.3218159999999
 21
194.750857
 31
0.0
  0
LINE
  5
345
330
1E
100
AcDbEntity
  8
1
  6
Continuous
 62
     7
100
AcDbLine
 10
135.3218159999999
 20
194.750857
 30
0.0
 11
135.289258
 21
194.4699709999999
 31
0.0
  0
LINE
  5
346
330
1E
100
AcDbEntity
  8
1
  6
Continuous
 62
     7
100
AcDbLine
 10
135.289258
 20
194.4699709999999
 30
0.0
 11
135.2583699999999
 21
194.186536
 31
0.0
  0
LINE
  5
347
330
1E
100
AcDbEntity
  8
1
  6
Continuous
 62
     7
100
AcDbLine
 10
135.2583699999999
 20
194.186536
 30
0.0
 11
135.2291679999999
 21
193.900685
 31
0.0
  0
LINE
  5
348
330
1E
100
AcDbEntity
  8
1
  6
Continuous
 62
     7
100
AcDbLine
 10
135.2291679999999
 20
193.900685
 30
0.0
 11
135.2016659999999
 21
193.612556
 31
0.0
  0
LINE
  5
349
330
1E
100
AcDbEntity
  8
1
  6
Continuous
 62
     7
100
AcDbLine
 10
135.2016659999999
 20
193.612556
 30
0.0
 11
135.1758759999999
 21
193.3222839999999
 31
0.0
  0
LINE
  5
34A
330
1E
100
AcDbEntity
  8
1
  6
Continuous
 62
     7
100
AcDbLine
 10
135.1758759999999
 20
193.3222839999999
 30
0.0
 11
135.151811
 21
193.030009
 31
0.0
  0
LINE
  5
34B
330
1E
100
AcDbEntity
  8
1
  6
Continuous
 62
     7
100
AcDbLine
 10
135.151811
 20
193.030009
 30
0.0
 11
135.1294819999999
 21
192.73587
 31
0.0
  0
LINE
  5
34C
330
1E
100
AcDbEntity
  8
1
  6
Continuous
 62
     7
100
AcDbLine
 10
135.1294819999999
 20
192.73587
 30
0.0
 11
135.1088999999999
 21
192.440006
 31
0.0
  0
LINE
  5
34D
330
1E
100
AcDbEntity
  8
1
  6
Continuous
 62
     7
100
AcDbLine
 10
135.1088999999999
 20
192.440006
 30
0.0
 11
135.090075
 21
192.142558
 31
0.0
  0
LINE
  5
34E
330
1E
100
AcDbEntity
  8
1
  6
Continuous
 62
     7
100
AcDbLine
 10
135.090075
 20
192.142558
 30
0.0
 11
135.0730159999999
 21
191.8436679999999
 31
0.0
  0
LINE
  5
34F
330
1E
100
AcDbEntity
  8
1
  6
Continuous
 62
     7
100
AcDbLine
 10
135.0730159999999
 20
191.8436679999999
 30
0.0
 11
135.057731
 21
191.543478
 31
0.0
  0
LINE
  5
350
330
1E
100
AcDbEntity
  8
1
  6
Continuous
 62
     7
100
AcDbLine
 10
135.057731
 20
191.543478
 30
0.0
 11
135.044226
 21
191.24213
 31
0.0
  0
LINE
  5
351
330
1E
100
AcDbEntity
  8
1
  6
Continuous
 62
     7
100
AcDbLine
 10
135.044226
 20
191.24213
 30
0.0
 11
135.03251
 21
190.9397699999999
 31
0.0
  0
LINE
  5
352
330
1E
100
AcDbEntity
  8
1
  6
Continuous
 62
     7
100
AcDbLine
 10
135.03251
 20
190.9397699999999
 30
0.0
 11
135.022586
 21
190.6365389999999
 31
0.0
  0
LINE
  5
353
330
1E
100
AcDbEntity
  8
1
  6
Continuous
 62
     7
100
AcDbLine
 10
135.022586
 20
190.6365389999999
 30
0.0
 11
135.01446
 21
190.3325829999999
 31
0.0
  0
LINE
  5
354
330
1E
100
AcDbEntity
  8
1
  6
Continuous
 62
     7
100
AcDbLine
 10
135.01446
 20
190.3325829999999
 30
0.0
 11
135.008136
 21
190.028047
 31
0.0
  0
LINE
  5
355
330
1E
100
AcDbEntity
  8
1
  6
Continuous
 62
     7
100
AcDbLine
 10
135.008136
 20
190.028047
 30
0.0
 11
135.0036169999999
 21
189.7230739999999
 31
0.0
  0
LINE
  5
356
330
1E
100
AcDbEntity
  8
1
  6
Continuous
 62
     7
100
AcDbLine
 10
135.0036169999999
 20
189.7230739999999
 30
0.0
 11
135.0009039999999
 21
189.417811
 31
0.0
  0
LINE
  5
357
330
1E
100
AcDbEntity
  8
1
  6
Continuous
 62
     7
100
AcDbLine
 10
135.0009039999999
 20
189.417811
 30
0.0
 11
135.0
 21
189.112403
 31
0.0
  0
LINE
  5
358
330
1E
100
AcDbEntity
  8
1
  6
Continuous
 62
     7
100
AcDbLine
 10
138.8
 20
203.1124029999999
 30
0.0
 11
143.8
 21
203.1124029999999
 31
0.0
  0
LINE
  5
359
330
1E
100
AcDbEntity
  8
1
  6
Continuous
 62
     7
100
AcDbLine
 10
135.0
 20
97.112403
 30
0.0
 11
135.0009039999999
 21
96.80699500000001
 31
0.0
  0
LINE
  5
35A
330
1E
100
AcDbEntity
  8
1
  6
Continuous
 62
     7
100
AcDbLine
 10
135.0009039999999
 20
96.80699500000001
 30
0.0
 11
135.0036169999999
 21
96.50173199999999
 31
0.0
  0
LINE
  5
35B
330
1E
100
AcDbEntity
  8
1
  6
Continuous
 62
     7
100
AcDbLine
 10
135.0036169999999
 20
96.50173199999999
 30
0.0
 11
135.008136
 21
96.196759
 31
0.0
  0
LINE
  5
35C
330
1E
100
AcDbEntity
  8
1
  6
Continuous
 62
     7
100
AcDbLine
 10
135.008136
 20
96.196759
 30
0.0
 11
135.01446
 21
95.89222300000001
 31
0.0
  0
LINE
  5
35D
330
1E
100
AcDbEntity
  8
1
  6
Continuous
 62
     7
100
AcDbLine
 10
135.01446
 20
95.89222300000001
 30
0.0
 11
135.022586
 21
95.588267
 31
0.0
  0
LINE
  5
35E
330
1E
100
AcDbEntity
  8
1
  6
Continuous
 62
     7
100
AcDbLine
 10
135.022586
 20
95.588267
 30
0.0
 11
135.03251
 21
95.285036
 31
0.0
  0
LINE
  5
35F
330
1E
100
AcDbEntity
  8
1
  6
Continuous
 62
     7
100
AcDbLine
 10
135.03251
 20
95.285036
 30
0.0
 11
135.044226
 21
94.982676
 31
0.0
  0
LINE
  5
360
330
1E
100
AcDbEntity
  8
1
  6
Continuous
 62
     7
100
AcDbLine
 10
135.044226
 20
94.982676
 30
0.0
 11
135.057731
 21
94.681329
 31
0.0
  0
LINE
  5
361
330
1E
100
AcDbEntity
  8
1
  6
Continuous
 62
     7
100
AcDbLine
 10
135.057731
 20
94.681329
 30
0.0
 11
135.0730159999999
 21
94.38113900000001
 31
0.0
  0
LINE
  5
362
330
1E
100
AcDbEntity
  8
1
  6
Continuous
 62
     7
100
AcDbLine
 10
135.0730159999999
 20
94.38113900000001
 30
0.0
 11
135.090075
 21
94.08224799999999
 31
0.0
  0
LINE
  5
363
330
1E
100
AcDbEntity
  8
1
  6
Continuous
 62
     7
100
AcDbLine
 10
135.090075
 20
94.08224799999999
 30
0.0
 11
135.1088999999999
 21
93.784801
 31
0.0
  0
LINE
  5
364
330
1E
100
AcDbEntity
  8
1
  6
Continuous
 62
     7
100
AcDbLine
 10
135.1088999999999
 20
93.784801
 30
0.0
 11
135.1294819999999
 21
93.488936
 31
0.0
  0
LINE
  5
365
330
1E
100
AcDbEntity
  8
1
  6
Continuous
 62
     7
100
AcDbLine
 10
135.1294819999999
 20
93.488936
 30
0.0
 11
135.151811
 21
93.194797
 31
0.0
  0
LINE
  5
366
330
1E
100
AcDbEntity
  8
1
  6
Continuous
 62
     7
100
AcDbLine
 10
135.151811
 20
93.194797
 30
0.0
 11
135.1758759999999
 21
92.90252199999999
 31
0.0
  0
LINE
  5
367
330
1E
100
AcDbEntity
  8
1
  6
Continuous
 62
     7
100
AcDbLine
 10
135.1758759999999
 20
92.90252199999999
 30
0.0
 11
135.2016659999999
 21
92.612251
 31
0.0
  0
LINE
  5
368
330
1E
100
AcDbEntity
  8
1
  6
Continuous
 62
     7
100
AcDbLine
 10
135.2016659999999
 20
92.612251
 30
0.0
 11
135.2291679999999
 21
92.32412099999999
 31
0.0
  0
LINE
  5
369
330
1E
100
AcDbEntity
  8
1
  6
Continuous
 62
     7
100
AcDbLine
 10
135.2291679999999
 20
92.32412099999999
 30
0.0
 11
135.2583699999999
 21
92.03827099999999
 31
0.0
  0
LINE
  5
36A
330
1E
100
AcDbEntity
  8
1
  6
Continuous
 62
     7
100
AcDbLine
 10
135.2583699999999
 20
92.03827099999999
 30
0.0
 11
135.289258
 21
91.754835
 31
0.0
  0
LINE
  5
36B
330
1E
100
AcDbEntity
  8
1
  6
Continuous
 62
     7
100
AcDbLine
 10
135.289258
 20
91.754835
 30
0.0
 11
135.3218159999999
 21
91.473949
 31
0.0
  0
LINE
  5
36C
330
1E
100
AcDbEntity
  8
1
  6
Continuous
 62
     7
100
AcDbLine
 10
135.3218159999999
 20
91.473949
 30
0.0
 11
135.35603
 21
91.19574699999999
 31
0.0
  0
LINE
  5
36D
330
1E
100
AcDbEntity
  8
1
  6
Continuous
 62
     7
100
AcDbLine
 10
135.35603
 20
91.19574699999999
 30
0.0
 11
135.391884
 21
90.92036099999999
 31
0.0
  0
LINE
  5
36E
330
1E
100
AcDbEntity
  8
1
  6
Continuous
 62
     7
100
AcDbLine
 10
135.391884
 20
90.92036099999999
 30
0.0
 11
135.429359
 21
90.64792199999999
 31
0.0
  0
LINE
  5
36F
330
1E
100
AcDbEntity
  8
1
  6
Continuous
 62
     7
100
AcDbLine
 10
135.429359
 20
90.64792199999999
 30
0.0
 11
135.4684379999999
 21
90.37855999999999
 31
0.0
  0
LINE
  5
370
330
1E
100
AcDbEntity
  8
1
  6
Continuous
 62
     7
100
AcDbLine
 10
135.4684379999999
 20
90.37855999999999
 30
0.0
 11
135.509103
 21
90.112403
 31
0.0
  0
LINE
  5
371
330
1E
100
AcDbEntity
  8
1
  6
Continuous
 62
     7
100
AcDbLine
 10
135.509103
 20
90.112403
 30
0.0
 11
135.551335
 21
89.849577
 31
0.0
  0
LINE
  5
372
330
1E
100
AcDbEntity
  8
1
  6
Continuous
 62
     7
100
AcDbLine
 10
135.551335
 20
89.849577
 30
0.0
 11
135.595113
 21
89.590209
 31
0.0
  0
LINE
  5
373
330
1E
100
AcDbEntity
  8
1
  6
Continuous
 62
     7
100
AcDbLine
 10
135.595113
 20
89.590209
 30
0.0
 11
135.6404149999999
 21
89.33441999999999
 31
0.0
  0
LINE
  5
374
330
1E
100
AcDbEntity
  8
1
  6
Continuous
 62
     7
100
AcDbLine
 10
135.6404149999999
 20
89.33441999999999
 30
0.0
 11
135.6872219999999
 21
89.08233299999999
 31
0.0
  0
LINE
  5
375
330
1E
100
AcDbEntity
  8
1
  6
Continuous
 62
     7
100
AcDbLine
 10
135.6872219999999
 20
89.08233299999999
 30
0.0
 11
135.735511
 21
88.83406800000001
 31
0.0
  0
LINE
  5
376
330
1E
100
AcDbEntity
  8
1
  6
Continuous
 62
     7
100
AcDbLine
 10
135.735511
 20
88.83406800000001
 30
0.0
 11
135.785257
 21
88.58974299999999
 31
0.0
  0
LINE
  5
377
330
1E
100
AcDbEntity
  8
1
  6
Continuous
 62
     7
100
AcDbLine
 10
135.785257
 20
88.58974299999999
 30
0.0
 11
135.8364389999999
 21
88.349474
 31
0.0
  0
LINE
  5
378
330
1E
100
AcDbEntity
  8
1
  6
Continuous
 62
     7
100
AcDbLine
 10
135.8364389999999
 20
88.349474
 30
0.0
 11
135.889031
 21
88.11337700000001
 31
0.0
  0
LINE
  5
379
330
1E
100
AcDbEntity
  8
1
  6
Continuous
 62
     7
100
AcDbLine
 10
135.889031
 20
88.11337700000001
 30
0.0
 11
135.943009
 21
87.88156200000001
 31
0.0
  0
LINE
  5
37A
330
1E
100
AcDbEntity
  8
1
  6
Continuous
 62
     7
100
AcDbLine
 10
135.943009
 20
87.88156200000001
 30
0.0
 11
135.998346
 21
87.65413999999999
 31
0.0
  0
LINE
  5
37B
330
1E
100
AcDbEntity
  8
1
  6
Continuous
 62
     7
100
AcDbLine
 10
135.998346
 20
87.65413999999999
 30
0.0
 11
136.055017
 21
87.43121999999999
 31
0.0
  0
LINE
  5
37C
330
1E
100
AcDbEntity
  8
1
  6
Continuous
 62
     7
100
AcDbLine
 10
136.055017
 20
87.43121999999999
 30
0.0
 11
136.1129939999999
 21
87.212908
 31
0.0
  0
LINE
  5
37D
330
1E
100
AcDbEntity
  8
1
  6
Continuous
 62
     7
100
AcDbLine
 10
136.1129939999999
 20
87.212908
 30
0.0
 11
136.1722499999999
 21
86.999308
 31
0.0
  0
LINE
  5
37E
330
1E
100
AcDbEntity
  8
1
  6
Continuous
 62
     7
100
AcDbLine
 10
136.1722499999999
 20
86.999308
 30
0.0
 11
136.2327569999999
 21
86.79052
 31
0.0
  0
LINE
  5
37F
330
1E
100
AcDbEntity
  8
1
  6
Continuous
 62
     7
100
AcDbLine
 10
136.2327569999999
 20
86.79052
 30
0.0
 11
136.294486
 21
86.58664599999999
 31
0.0
  0
LINE
  5
380
330
1E
100
AcDbEntity
  8
1
  6
Continuous
 62
     7
100
AcDbLine
 10
136.294486
 20
86.58664599999999
 30
0.0
 11
136.357407
 21
86.38778100000001
 31
0.0
  0
LINE
  5
381
330
1E
100
AcDbEntity
  8
1
  6
Continuous
 62
     7
100
AcDbLine
 10
136.357407
 20
86.38778100000001
 30
0.0
 11
136.421491
 21
86.19401999999999
 31
0.0
  0
LINE
  5
382
330
1E
100
AcDbEntity
  8
1
  6
Continuous
 62
     7
100
AcDbLine
 10
136.421491
 20
86.19401999999999
 30
0.0
 11
136.486707
 21
86.00545600000002
 31
0.0
  0
LINE
  5
383
330
1E
100
AcDbEntity
  8
1
  6
Continuous
 62
     7
100
AcDbLine
 10
136.486707
 20
86.00545600000002
 30
0.0
 11
136.553023
 21
85.82217900000001
 31
0.0
  0
LINE
  5
384
330
1E
100
AcDbEntity
  8
1
  6
Continuous
 62
     7
100
AcDbLine
 10
136.553023
 20
85.82217900000001
 30
0.0
 11
136.62041
 21
85.64427399999999
 31
0.0
  0
LINE
  5
385
330
1E
100
AcDbEntity
  8
1
  6
Continuous
 62
     7
100
AcDbLine
 10
136.62041
 20
85.64427399999999
 30
0.0
 11
136.688833
 21
85.47182799999999
 31
0.0
  0
LINE
  5
386
330
1E
100
AcDbEntity
  8
1
  6
Continuous
 62
     7
100
AcDbLine
 10
136.688833
 20
85.47182799999999
 30
0.0
 11
136.758261
 21
85.304923
 31
0.0
  0
LINE
  5
387
330
1E
100
AcDbEntity
  8
1
  6
Continuous
 62
     7
100
AcDbLine
 10
136.758261
 20
85.304923
 30
0.0
 11
136.828662
 21
85.143637
 31
0.0
  0
LINE
  5
388
330
1E
100
AcDbEntity
  8
1
  6
Continuous
 62
     7
100
AcDbLine
 10
136.828662
 20
85.143637
 30
0.0
 11
136.8999999999999
 21
84.98804699999999
 31
0.0
  0
LINE
  5
389
330
1E
100
AcDbEntity
  8
1
  6
Continuous
 62
     7
100
AcDbLine
 10
136.8999999999999
 20
84.98804699999999
 30
0.0
 11
136.9722429999999
 21
84.838228
 31
0.0
  0
LINE
  5
38A
330
1E
100
AcDbEntity
  8
1
  6
Continuous
 62
     7
100
AcDbLine
 10
136.9722429999999
 20
84.838228
 30
0.0
 11
137.045355
 21
84.694251
 31
0.0
  0
LINE
  5
38B
330
1E
100
AcDbEntity
  8
1
  6
Continuous
 62
     7
100
AcDbLine
 10
137.045355
 20
84.694251
 30
0.0
 11
137.119303
 21
84.55618499999999
 31
0.0
  0
LINE
  5
38C
330
1E
100
AcDbEntity
  8
1
  6
Continuous
 62
     7
100
AcDbLine
 10
137.119303
 20
84.55618499999999
 30
0.0
 11
137.1940509999999
 21
84.424094
 31
0.0
  0
LINE
  5
38D
330
1E
100
AcDbEntity
  8
1
  6
Continuous
 62
     7
100
AcDbLine
 10
137.1940509999999
 20
84.424094
 30
0.0
 11
137.2695629999999
 21
84.29804200000001
 31
0.0
  0
LINE
  5
38E
330
1E
100
AcDbEntity
  8
1
  6
Continuous
 62
     7
100
AcDbLine
 10
137.2695629999999
 20
84.29804200000001
 30
0.0
 11
137.3458029999999
 21
84.17809
 31
0.0
  0
LINE
  5
38F
330
1E
100
AcDbEntity
  8
1
  6
Continuous
 62
     7
100
AcDbLine
 10
137.3458029999999
 20
84.17809
 30
0.0
 11
137.422735
 21
84.064293
 31
0.0
  0
LINE
  5
390
330
1E
100
AcDbEntity
  8
1
  6
Continuous
 62
     7
100
AcDbLine
 10
137.422735
 20
84.064293
 30
0.0
 11
137.500323
 21
83.956706
 31
0.0
  0
LINE
  5
391
330
1E
100
AcDbEntity
  8
1
  6
Continuous
 62
     7
100
AcDbLine
 10
137.500323
 20
83.956706
 30
0.0
 11
137.5785299999999
 21
83.85538100000001
 31
0.0
  0
LINE
  5
392
330
1E
100
AcDbEntity
  8
1
  6
Continuous
 62
     7
100
AcDbLine
 10
137.5785299999999
 20
83.85538100000001
 30
0.0
 11
137.657318
 21
83.760366
 31
0.0
  0
LINE
  5
393
330
1E
100
AcDbEntity
  8
1
  6
Continuous
 62
     7
100
AcDbLine
 10
137.657318
 20
83.760366
 30
0.0
 11
137.7366499999999
 21
83.671705
 31
0.0
  0
LINE
  5
394
330
1E
100
AcDbEntity
  8
1
  6
Continuous
 62
     7
100
AcDbLine
 10
137.7366499999999
 20
83.671705
 30
0.0
 11
137.8164879999999
 21
83.58944200000001
 31
0.0
  0
LINE
  5
395
330
1E
100
AcDbEntity
  8
1
  6
Continuous
 62
     7
100
AcDbLine
 10
137.8164879999999
 20
83.58944200000001
 30
0.0
 11
137.896794
 21
83.513614
 31
0.0
  0
LINE
  5
396
330
1E
100
AcDbEntity
  8
1
  6
Continuous
 62
     7
100
AcDbLine
 10
137.896794
 20
83.513614
 30
0.0
 11
137.9775289999999
 21
83.444259
 31
0.0
  0
LINE
  5
397
330
1E
100
AcDbEntity
  8
1
  6
Continuous
 62
     7
100
AcDbLine
 10
137.9775289999999
 20
83.444259
 30
0.0
 11
138.058657
 21
83.38140899999999
 31
0.0
  0
LINE
  5
398
330
1E
100
AcDbEntity
  8
1
  6
Continuous
 62
     7
100
AcDbLine
 10
138.058657
 20
83.38140899999999
 30
0.0
 11
138.140137
 21
83.32509499999998
 31
0.0
  0
LINE
  5
399
330
1E
100
AcDbEntity
  8
1
  6
Continuous
 62
     7
100
AcDbLine
 10
138.140137
 20
83.32509499999998
 30
0.0
 11
138.221931
 21
83.275342
 31
0.0
  0
LINE
  5
39A
330
1E
100
AcDbEntity
  8
1
  6
Continuous
 62
     7
100
AcDbLine
 10
138.221931
 20
83.275342
 30
0.0
 11
138.304
 21
83.232175
 31
0.0
  0
LINE
  5
39B
330
1E
100
AcDbEntity
  8
1
  6
Continuous
 62
     7
100
AcDbLine
 10
138.304
 20
83.232175
 30
0.0
 11
138.386306
 21
83.19561400000001
 31
0.0
  0
LINE
  5
39C
330
1E
100
AcDbEntity
  8
1
  6
Continuous
 62
     7
100
AcDbLine
 10
138.386306
 20
83.19561400000001
 30
0.0
 11
138.4688079999999
 21
83.165677
 31
0.0
  0
LINE
  5
39D
330
1E
100
AcDbEntity
  8
1
  6
Continuous
 62
     7
100
AcDbLine
 10
138.4688079999999
 20
83.165677
 30
0.0
 11
138.5514679999999
 21
83.142378
 31
0.0
  0
LINE
  5
39E
330
1E
100
AcDbEntity
  8
1
  6
Continuous
 62
     7
100
AcDbLine
 10
138.5514679999999
 20
83.142378
 30
0.0
 11
138.6342459999999
 21
83.12572800000001
 31
0.0
  0
LINE
  5
39F
330
1E
100
AcDbEntity
  8
1
  6
Continuous
 62
     7
100
AcDbLine
 10
138.6342459999999
 20
83.12572800000001
 30
0.0
 11
138.717103
 21
83.11573499999999
 31
0.0
  0
LINE
  5
3A0
330
1E
100
AcDbEntity
  8
1
  6
Continuous
 62
     7
100
AcDbLine
 10
138.717103
 20
83.11573499999999
 30
0.0
 11
138.8
 21
83.11240299999999
 31
0.0
  0
LINE
  5
3A1
330
1E
100
AcDbEntity
  8
1
  6
Continuous
 62
     7
100
AcDbLine
 10
135.0
 20
97.112403
 30
0.0
 11
135.0
 21
189.112403
 31
0.0
  0
LINE
  5
3A2
330
1E
100
AcDbEntity
  8
1
  6
Continuous
 62
     7
100
AcDbLine
 10
143.8
 20
83.11240299999999
 30
0.0
 11
138.8
 21
83.11240299999999
 31
0.0
  0
LINE
  5
3A3
330
1E
100
AcDbEntity
  8
1
  6
Continuous
 62
     7
100
AcDbLine
 10
151.0
 20
175.1124029999999
 30
0.0
 11
171.5
 21
175.1124029999999
 31
0.0
  0
LINE
  5
3A4
330
1E
100
AcDbEntity
  8
1
  6
Continuous
 62
     7
100
AcDbLine
 10
171.5
 20
175.1124029999999
 30
0.0
 11
171.5
 21
109.112403
 31
0.0
  0
LINE
  5
3A5
330
1E
100
AcDbEntity
  8
1
  6
Continuous
 62
     7
100
AcDbLine
 10
171.5
 20
109.112403
 30
0.0
 11
151.0
 21
109.112403
 31
0.0
  0
LINE
  5
3A6
330
1E
100
AcDbEntity
  8
1
  6
Continuous
 62
     7
100
AcDbLine
 10
151.0
 20
109.112403
 30
0.0
 11
151.0
 21
175.1124029999999
 31
0.0
  0
LINE
  5
3A7
330
1E
100
AcDbEntity
  8
1
  6
Continuous
 62
     7
100
AcDbLine
 10
148.5
 20
107.112403
 30
0.0
 11
143.8
 21
107.112403
 31
0.0
  0
ARC
  5
3A8
330
1E
100
AcDbEntity
  8
1
  6
Continuous
 62
     7
100
AcDbCircle
 10
148.5
 20
108.112403
 30
0.0
 40
1.0
100
AcDbArc
 50
270.0
 51
0.0
  0
LINE
  5
3A9
330
1E
100
AcDbEntity
  8
1
  6
Continuous
 62
     7
100
AcDbLine
 10
143.8
 20
179.1124029999999
 30
0.0
 11
148.5
 21
179.1124029999999
 31
0.0
  0
LINE
  5
3AA
330
1E
100
AcDbEntity
  8
1
  6
Continuous
 62
     7
100
AcDbLine
 10
149.5
 20
178.1124029999999
 30
0.0
 11
149.5
 21
108.112403
 31
0.0
  0
ARC
  5
3AB
330
1E
100
AcDbEntity
  8
1
  6
Continuous
 62
     7
100
AcDbCircle
 10
148.5
 20
178.1124029999999
 30
0.0
 40
1.0
100
AcDbArc
 50
0.0
 51
90.0
  0
LINE
  5
3AC
330
1E
100
AcDbEntity
  8
1
  6
Continuous
 62
     7
100
AcDbLine
 10
149.5
 20
174.612403
 30
0.0
 11
151.0
 21
174.612403
 31
0.0
  0
LINE
  5
3AD
330
1E
100
AcDbEntity
  8
1
  6
Continuous
 62
     7
100
AcDbLine
 10
151.0
 20
174.612403
 30
0.0
 11
151.0
 21
168.612403
 31
0.0
  0
LINE
  5
3AE
330
1E
100
AcDbEntity
  8
1
  6
Continuous
 62
     7
100
AcDbLine
 10
151.0
 20
168.612403
 30
0.0
 11
149.5
 21
168.612403
 31
0.0
  0
LINE
  5
3AF
330
1E
100
AcDbEntity
  8
1
  6
Continuous
 62
     7
100
AcDbLine
 10
149.5
 20
117.6124029999999
 30
0.0
 11
151.0
 21
117.6124029999999
 31
0.0
  0
LINE
  5
3B0
330
1E
100
AcDbEntity
  8
1
  6
Continuous
 62
     7
100
AcDbLine
 10
151.0
 20
117.6124029999999
 30
0.0
 11
151.0
 21
111.6124029999999
 31
0.0
  0
LINE
  5
3B1
330
1E
100
AcDbEntity
  8
1
  6
Continuous
 62
     7
100
AcDbLine
 10
151.0
 20
111.6124029999999
 30
0.0
 11
149.5
 21
111.6124029999999
 31
0.0
  0
LINE
  5
3B2
330
1E
100
AcDbEntity
  8
1
  6
DASHDOT
 62
     7
100
AcDbLine
 10
127.448
 20
143.112403
 30
0.0
 11
174.18
 21
143.112403
 31
0.0
  0
DIMENSION
  5
3B3
330
1E
100
AcDbEntity
  8
1
  6
Continuous
 62
     7
100
AcDbDimension
  2
*D6
 10
186.5
 20
175.1124029999999
 30
0.0
 11
186.0
 21
142.112403
 31
0.0
  1
（66）
 71
     5
 42
-1.0
100
AcDbAlignedDimension
 13
173.5
 23
175.1124029999999
 33
0.0
 14
173.5
 24
109.112403
 34
0.0
 50
270.0
100
AcDbRotatedDimension
  0
DIMENSION
  5
3B4
330
1E
100
AcDbEntity
  8
1
  6
Continuous
 62
     7
100
AcDbDimension
  2
*D7
 10
171.5
 20
218.1124029999999
 30
0.0
 11
157.65
 21
218.6124029999999
 31
0.0
  1
（27.7）
 71
     5
 42
-1.0
100
AcDbAlignedDimension
 13
171.5
 23
177.112403
 33
0.0
 14
143.8
 24
205.1124029999999
 34
0.0
 50
180.0
100
AcDbRotatedDimension
  0
DIMENSION
  5
3B5
330
1E
100
AcDbEntity
  8
1
  6
Continuous
 62
     7
100
AcDbDimension
  2
*D8
 10
135.0
 20
218.1124029999999
 30
0.0
 11
139.4
 21
218.6124029999999
 31
0.0
  1
8.8
 71
     5
 42
-1.0
100
AcDbAlignedDimension
 13
135.0
 23
199.972858
 33
0.0
 14
143.8
 24
205.1124029999999
 34
0.0
100
AcDbRotatedDimension
  0
LINE
  5
3B6
330
1E
100
AcDbEntity
  8
1
  6
DASHDOT
 62
     7
100
AcDbLine
 10
201.6049999999999
 20
143.112403
 30
0.0
 11
281.9859999999999
 21
143.112403
 31
0.0
  0
DIMENSION
  5
3B7
330
1E
100
AcDbEntity
  8
1
  6
Continuous
 62
     7
100
AcDbDimension
  2
*D9
 10
218.5
 20
223.1124029999999
 30
0.0
 11
241.25
 21
223.1124029999999
 31
0.0
  1
(46)
 71
     5
 42
-1.0
100
AcDbAlignedDimension
 13
218.5
 23
177.112403
 33
0.0
 14
264.0
 24
177.112403
 34
0.0
100
AcDbRotatedDimension
  0
LINE
  5
3B8
330
1E
100
AcDbEntity
  8
1
  6
DASHDOT
 62
     7
100
AcDbLine
 10
241.5
 20
212.3394029999999
 30
0.0
 11
241.5
 21
80.52040299999999
 31
0.0
  0
LINE
  5
3B9
330
1E
100
AcDbEntity
  8
1
  6
Continuous
 62
     7
100
AcDbLine
 10
264.25
 20
185.612403
 30
0.0
 11
264.25
 21
100.612403
 31
0.0
  0
LINE
  5
3BA
330
1E
100
AcDbEntity
  8
1
  6
Continuous
 62
     7
100
AcDbLine
 10
218.75
 20
100.612403
 30
0.0
 11
218.75
 21
107.112403
 31
0.0
  0
LINE
  5
3BB
330
1E
100
AcDbEntity
  8
1
  6
Continuous
 62
     7
100
AcDbLine
 10
264.25
 20
100.612403
 30
0.0
 11
264.25
 21
107.112403
 31
0.0
  0
CIRCLE
  5
3BC
330
1E
100
AcDbEntity
  8
1
  6
Continuous
 62
     7
100
AcDbCircle
 10
251.5
 20
92.612403
 30
0.0
 40
2.5
  0
CIRCLE
  5
3BD
330
1E
100
AcDbEntity
  8
1
  6
Continuous
 62
     7
100
AcDbCircle
 10
231.4999999999999
 20
92.612403
 30
0.0
 40
2.5
  0
LINE
  5
3BE
330
1E
100
AcDbEntity
  8
1
  6
DASHDOT
 62
     7
100
AcDbLine
 10
241.5
 20
89.890403
 30
0.0
 11
241.5
 21
95.50540299999999
 31
0.0
  0
LINE
  5
3BF
330
1E
100
AcDbEntity
  8
1
  6
DASHDOT
 62
     7
100
AcDbLine
 10
238.09
 20
92.612403
 30
0.0
 11
245.398
 21
92.612403
 31
0.0
  0
CIRCLE
  5
3C0
330
1E
100
AcDbEntity
  8
1
  6
Continuous
 62
     7
100
AcDbCircle
 10
241.5
 20
92.612403
 30
0.0
 40
1.5
  0
LINE
  5
3C1
330
1E
100
AcDbEntity
  8
1
  6
DASHDOT
 62
     7
100
AcDbLine
 10
241.5
 20
97.23640299999999
 30
0.0
 11
241.5
 21
105.8514029999999
 31
0.0
  0
LINE
  5
3C2
330
1E
100
AcDbEntity
  8
1
  6
DASHDOT
 62
     7
100
AcDbLine
 10
233.772
 20
101.612403
 30
0.0
 11
249.927
 21
101.612403
 31
0.0
  0
ARC
  5
3C3
330
1E
100
AcDbEntity
  8
1
  6
Continuous
 62
     7
100
AcDbCircle
 10
244.0
 20
101.612403
 30
0.0
 40
2.5
100
AcDbArc
 50
0.0
 51
90.0
  0
LINE
  5
3C4
330
1E
100
AcDbEntity
  8
1
  6
Continuous
 62
     7
100
AcDbLine
 10
239.0
 20
104.1124029999999
 30
0.0
 11
244.0
 21
104.1124029999999
 31
0.0
  0
ARC
  5
3C5
330
1E
100
AcDbEntity
  8
1
  6
Continuous
 62
     7
100
AcDbCircle
 10
244.0
 20
101.612403
 30
0.0
 40
2.5
100
AcDbArc
 50
270.0
 51
0.0
  0
LINE
  5
3C6
330
1E
100
AcDbEntity
  8
1
  6
Continuous
 62
     7
100
AcDbLine
 10
239.0
 20
99.11240300000001
 30
0.0
 11
244.0
 21
99.11240300000001
 31
0.0
  0
ARC
  5
3C7
330
1E
100
AcDbEntity
  8
1
  6
Continuous
 62
     7
100
AcDbCircle
 10
239.0
 20
101.612403
 30
0.0
 40
2.5
100
AcDbArc
 50
90.0
 51
180.0
  0
ARC
  5
3C8
330
1E
100
AcDbEntity
  8
1
  6
Continuous
 62
     7
100
AcDbCircle
 10
239.0
 20
101.612403
 30
0.0
 40
2.5
100
AcDbArc
 50
180.0
 51
270.0
  0
LINE
  5
3C9
330
1E
100
AcDbEntity
  8
1
  6
Continuous
 62
     7
100
AcDbLine
 10
220.25
 20
107.612403
 30
0.0
 11
262.7499999999999
 21
107.612403
 31
0.0
  0
LINE
  5
3CA
330
1E
100
AcDbEntity
  8
1
  6
Continuous
 62
     7
100
AcDbLine
 10
218.75
 20
107.112403
 30
0.0
 11
264.25
 21
107.112403
 31
0.0
  0
LINE
  5
3CB
330
1E
100
AcDbEntity
  8
1
  6
Continuous
 62
     7
100
AcDbLine
 10
216.5
 20
96.61240300000001
 30
0.0
 11
216.5
 21
90.61240299999999
 31
0.0
  0
LINE
  5
3CC
330
1E
100
AcDbEntity
  8
1
  6
Continuous
 62
     7
100
AcDbLine
 10
221.0
 20
88.11240299999999
 30
0.0
 11
266.5
 21
88.11240299999999
 31
0.0
  0
LINE
  5
3CD
330
1E
100
AcDbEntity
  8
1
  6
Continuous
 62
     7
100
AcDbLine
 10
221.0
 20
92.612403
 30
0.0
 11
221.0
 21
88.11240299999999
 31
0.0
  0
LINE
  5
3CE
330
1E
100
AcDbEntity
  8
1
  6
Continuous
 62
     7
100
AcDbLine
 10
218.5
 20
92.612403
 30
0.0
 11
221.0
 21
92.612403
 31
0.0
  0
LINE
  5
3CF
330
1E
100
AcDbEntity
  8
1
  6
Continuous
 62
     7
100
AcDbLine
 10
218.5
 20
90.61240299999999
 30
0.0
 11
218.5
 21
92.612403
 31
0.0
  0
LINE
  5
3D0
330
1E
100
AcDbEntity
  8
1
  6
Continuous
 62
     7
100
AcDbLine
 10
216.5
 20
90.61240299999999
 30
0.0
 11
218.5
 21
90.61240299999999
 31
0.0
  0
LINE
  5
3D1
330
1E
100
AcDbEntity
  8
1
  6
Continuous
 62
     7
100
AcDbLine
 10
262.5
 20
91.112403
 30
0.0
 11
262.5
 21
92.112403
 31
0.0
  0
LINE
  5
3D2
330
1E
100
AcDbEntity
  8
1
  6
Continuous
 62
     7
100
AcDbLine
 10
264.5
 20
91.112403
 30
0.0
 11
262.5
 21
91.112403
 31
0.0
  0
LINE
  5
3D3
330
1E
100
AcDbEntity
  8
1
  6
Continuous
 62
     7
100
AcDbLine
 10
264.5
 20
92.112403
 30
0.0
 11
264.5
 21
91.112403
 31
0.0
  0
LINE
  5
3D4
330
1E
100
AcDbEntity
  8
1
  6
Continuous
 62
     7
100
AcDbLine
 10
266.5
 20
88.11240299999999
 30
0.0
 11
266.5
 21
92.112403
 31
0.0
  0
LINE
  5
3D5
330
1E
100
AcDbEntity
  8
1
  6
Continuous
 62
     7
100
AcDbLine
 10
266.5
 20
92.112403
 30
0.0
 11
264.5
 21
92.112403
 31
0.0
  0
LINE
  5
3D6
330
1E
100
AcDbEntity
  8
1
  6
Continuous
 62
     7
100
AcDbLine
 10
262.5
 20
96.61240300000001
 30
0.0
 11
257.75
 21
96.61240300000001
 31
0.0
  0
LINE
  5
3D7
330
1E
100
AcDbEntity
  8
1
  6
Continuous
 62
     7
100
AcDbLine
 10
262.5
 20
92.112403
 30
0.0
 11
262.5
 21
96.61240300000001
 31
0.0
  0
LINE
  5
3D8
330
1E
100
AcDbEntity
  8
1
  6
Continuous
 62
     7
100
AcDbLine
 10
257.75
 20
100.612403
 30
0.0
 11
264.25
 21
100.612403
 31
0.0
  0
LINE
  5
3D9
330
1E
100
AcDbEntity
  8
1
  6
Continuous
 62
     7
100
AcDbLine
 10
257.75
 20
96.61240300000001
 30
0.0
 11
257.75
 21
100.612403
 31
0.0
  0
LINE
  5
3DA
330
1E
100
AcDbEntity
  8
1
  6
Continuous
 62
     7
100
AcDbLine
 10
225.2499999999999
 20
100.612403
 30
0.0
 11
218.75
 21
100.612403
 31
0.0
  0
LINE
  5
3DB
330
1E
100
AcDbEntity
  8
1
  6
Continuous
 62
     7
100
AcDbLine
 10
225.2499999999999
 20
96.61240300000001
 30
0.0
 11
225.2499999999999
 21
100.612403
 31
0.0
  0
LINE
  5
3DC
330
1E
100
AcDbEntity
  8
1
  6
Continuous
 62
     7
100
AcDbLine
 10
216.5
 20
96.61240300000001
 30
0.0
 11
225.2499999999999
 21
96.61240300000001
 31
0.0
  0
CIRCLE
  5
3DD
330
1E
100
AcDbEntity
  8
1
  6
Continuous
 62
     7
100
AcDbCircle
 10
251.5
 20
193.612403
 30
0.0
 40
2.5
  0
CIRCLE
  5
3DE
330
1E
100
AcDbEntity
  8
1
  6
Continuous
 62
     7
100
AcDbCircle
 10
231.4999999999999
 20
193.612403
 30
0.0
 40
2.5
  0
LINE
  5
3DF
330
1E
100
AcDbEntity
  8
1
  6
DASHDOT
 62
     7
100
AcDbLine
 10
241.5
 20
196.334403
 30
0.0
 11
241.5
 21
190.719403
 31
0.0
  0
LINE
  5
3E0
330
1E
100
AcDbEntity
  8
1
  6
DASHDOT
 62
     7
100
AcDbLine
 10
238.09
 20
193.612403
 30
0.0
 11
245.398
 21
193.612403
 31
0.0
  0
CIRCLE
  5
3E1
330
1E
100
AcDbEntity
  8
1
  6
Continuous
 62
     7
100
AcDbCircle
 10
241.5
 20
193.612403
 30
0.0
 40
1.5
  0
LINE
  5
3E2
330
1E
100
AcDbEntity
  8
1
  6
DASHDOT
 62
     7
100
AcDbLine
 10
233.772
 20
184.612403
 30
0.0
 11
249.927
 21
184.612403
 31
0.0
  0
ARC
  5
3E3
330
1E
100
AcDbEntity
  8
1
  6
Continuous
 62
     7
100
AcDbCircle
 10
244.0
 20
184.612403
 30
0.0
 40
2.5
100
AcDbArc
 50
270.0
 51
0.0
  0
LINE
  5
3E4
330
1E
100
AcDbEntity
  8
1
  6
Continuous
 62
     7
100
AcDbLine
 10
239.0
 20
182.112403
 30
0.0
 11
244.0
 21
182.112403
 31
0.0
  0
ARC
  5
3E5
330
1E
100
AcDbEntity
  8
1
  6
Continuous
 62
     7
100
AcDbCircle
 10
244.0
 20
184.612403
 30
0.0
 40
2.5
100
AcDbArc
 50
0.0
 51
90.0
  0
LINE
  5
3E6
330
1E
100
AcDbEntity
  8
1
  6
Continuous
 62
     7
100
AcDbLine
 10
239.0
 20
187.112403
 30
0.0
 11
244.0
 21
187.112403
 31
0.0
  0
ARC
  5
3E7
330
1E
100
AcDbEntity
  8
1
  6
Continuous
 62
     7
100
AcDbCircle
 10
239.0
 20
184.612403
 30
0.0
 40
2.5
100
AcDbArc
 50
180.0
 51
270.0
  0
ARC
  5
3E8
330
1E
100
AcDbEntity
  8
1
  6
Continuous
 62
     7
100
AcDbCircle
 10
239.0
 20
184.612403
 30
0.0
 40
2.5
100
AcDbArc
 50
90.0
 51
180.0
  0
LINE
  5
3E9
330
1E
100
AcDbEntity
  8
1
  6
Continuous
 62
     7
100
AcDbLine
 10
220.25
 20
178.612403
 30
0.0
 11
262.7499999999999
 21
178.612403
 31
0.0
  0
LINE
  5
3EA
330
1E
100
AcDbEntity
  8
1
  6
Continuous
 62
     7
100
AcDbLine
 10
220.25
 20
107.612403
 30
0.0
 11
262.7499999999999
 21
107.612403
 31
0.0
  0
LINE
  5
3EB
330
1E
100
AcDbEntity
  8
1
  6
Continuous
 62
     7
100
AcDbLine
 10
262.7499999999999
 20
109.112403
 30
0.0
 11
262.7499999999999
 21
107.112403
 31
0.0
  0
LINE
  5
3EC
330
1E
100
AcDbEntity
  8
1
  6
Continuous
 62
     7
100
AcDbLine
 10
218.75
 20
107.112403
 30
0.0
 11
264.25
 21
107.112403
 31
0.0
  0
LINE
  5
3ED
330
1E
100
AcDbEntity
  8
1
  6
Continuous
 62
     7
100
AcDbLine
 10
220.25
 20
109.112403
 30
0.0
 11
220.25
 21
107.112403
 31
0.0
  0
LINE
  5
3EE
330
1E
100
AcDbEntity
  8
1
  6
Continuous
 62
     7
100
AcDbLine
 10
262.7499999999999
 20
179.1124029999999
 30
0.0
 11
262.7499999999999
 21
175.1124029999999
 31
0.0
  0
LINE
  5
3EF
330
1E
100
AcDbEntity
  8
1
  6
Continuous
 62
     7
100
AcDbLine
 10
218.75
 20
179.1124029999999
 30
0.0
 11
264.25
 21
179.1124029999999
 31
0.0
  0
LINE
  5
3F0
330
1E
100
AcDbEntity
  8
1
  6
Continuous
 62
     7
100
AcDbLine
 10
220.25
 20
179.1124029999999
 30
0.0
 11
220.25
 21
175.1124029999999
 31
0.0
  0
LINE
  5
3F1
330
1E
100
AcDbEntity
  8
1
  6
Continuous
 62
     7
100
AcDbLine
 10
216.5
 20
189.612403
 30
0.0
 11
216.5
 21
195.6124029999999
 31
0.0
  0
LINE
  5
3F2
330
1E
100
AcDbEntity
  8
1
  6
Continuous
 62
     7
100
AcDbLine
 10
221.0
 20
198.112403
 30
0.0
 11
266.5
 21
198.112403
 31
0.0
  0
LINE
  5
3F3
330
1E
100
AcDbEntity
  8
1
  6
Continuous
 62
     7
100
AcDbLine
 10
221.0
 20
193.612403
 30
0.0
 11
221.0
 21
198.112403
 31
0.0
  0
LINE
  5
3F4
330
1E
100
AcDbEntity
  8
1
  6
Continuous
 62
     7
100
AcDbLine
 10
218.5
 20
193.612403
 30
0.0
 11
221.0
 21
193.612403
 31
0.0
  0
LINE
  5
3F5
330
1E
100
AcDbEntity
  8
1
  6
Continuous
 62
     7
100
AcDbLine
 10
218.5
 20
195.6124029999999
 30
0.0
 11
218.5
 21
193.612403
 31
0.0
  0
LINE
  5
3F6
330
1E
100
AcDbEntity
  8
1
  6
Continuous
 62
     7
100
AcDbLine
 10
216.5
 20
195.6124029999999
 30
0.0
 11
218.5
 21
195.6124029999999
 31
0.0
  0
LINE
  5
3F7
330
1E
100
AcDbEntity
  8
1
  6
Continuous
 62
     7
100
AcDbLine
 10
262.5
 20
195.112403
 30
0.0
 11
262.5
 21
194.112403
 31
0.0
  0
LINE
  5
3F8
330
1E
100
AcDbEntity
  8
1
  6
Continuous
 62
     7
100
AcDbLine
 10
264.5
 20
195.112403
 30
0.0
 11
262.5
 21
195.112403
 31
0.0
  0
LINE
  5
3F9
330
1E
100
AcDbEntity
  8
1
  6
Continuous
 62
     7
100
AcDbLine
 10
264.5
 20
194.112403
 30
0.0
 11
264.5
 21
195.112403
 31
0.0
  0
LINE
  5
3FA
330
1E
100
AcDbEntity
  8
1
  6
Continuous
 62
     7
100
AcDbLine
 10
266.5
 20
198.112403
 30
0.0
 11
266.5
 21
194.112403
 31
0.0
  0
LINE
  5
3FB
330
1E
100
AcDbEntity
  8
1
  6
Continuous
 62
     7
100
AcDbLine
 10
266.5
 20
194.112403
 30
0.0
 11
264.5
 21
194.112403
 31
0.0
  0
LINE
  5
3FC
330
1E
100
AcDbEntity
  8
1
  6
Continuous
 62
     7
100
AcDbLine
 10
262.5
 20
189.612403
 30
0.0
 11
257.75
 21
189.612403
 31
0.0
  0
LINE
  5
3FD
330
1E
100
AcDbEntity
  8
1
  6
Continuous
 62
     7
100
AcDbLine
 10
262.5
 20
194.112403
 30
0.0
 11
262.5
 21
189.612403
 31
0.0
  0
LINE
  5
3FE
330
1E
100
AcDbEntity
  8
1
  6
Continuous
 62
     7
100
AcDbLine
 10
257.75
 20
185.612403
 30
0.0
 11
264.25
 21
185.612403
 31
0.0
  0
LINE
  5
3FF
330
1E
100
AcDbEntity
  8
1
  6
Continuous
 62
     7
100
AcDbLine
 10
257.75
 20
189.612403
 30
0.0
 11
257.75
 21
185.612403
 31
0.0
  0
LINE
  5
400
330
1E
100
AcDbEntity
  8
1
  6
Continuous
 62
     7
100
AcDbLine
 10
218.75
 20
185.612403
 30
0.0
 11
218.75
 21
175.1124029999999
 31
0.0
  0
LINE
  5
401
330
1E
100
AcDbEntity
  8
1
  6
Continuous
 62
     7
100
AcDbLine
 10
225.2499999999999
 20
185.612403
 30
0.0
 11
218.75
 21
185.612403
 31
0.0
  0
LINE
  5
402
330
1E
100
AcDbEntity
  8
1
  6
Continuous
 62
     7
100
AcDbLine
 10
225.2499999999999
 20
189.612403
 30
0.0
 11
225.2499999999999
 21
185.612403
 31
0.0
  0
LINE
  5
403
330
1E
100
AcDbEntity
  8
1
  6
Continuous
 62
     7
100
AcDbLine
 10
216.5
 20
189.612403
 30
0.0
 11
225.2499999999999
 21
189.612403
 31
0.0
  0
CIRCLE
  5
404
330
1E
100
AcDbEntity
  8
1
  6
Continuous
 62
     7
100
AcDbCircle
 10
259.92
 20
123.612403
 30
0.0
 40
1.75
  0
CIRCLE
  5
405
330
1E
100
AcDbEntity
  8
1
  6
Continuous
 62
     7
100
AcDbCircle
 10
254.77
 20
123.612403
 30
0.0
 40
1.75
  0
CIRCLE
  5
406
330
1E
100
AcDbEntity
  8
1
  6
Continuous
 62
     7
100
AcDbCircle
 10
249.63
 20
123.612403
 30
0.0
 40
1.75
  0
CIRCLE
  5
407
330
1E
100
AcDbEntity
  8
1
  6
Continuous
 62
     7
100
AcDbCircle
 10
244.49
 20
123.612403
 30
0.0
 40
1.75
  0
CIRCLE
  5
408
330
1E
100
AcDbEntity
  8
1
  6
Continuous
 62
     7
100
AcDbCircle
 10
239.3499999999999
 20
123.612403
 30
0.0
 40
1.75
  0
CIRCLE
  5
409
330
1E
100
AcDbEntity
  8
1
  6
Continuous
 62
     7
100
AcDbCircle
 10
234.21
 20
123.612403
 30
0.0
 40
1.75
  0
CIRCLE
  5
40A
330
1E
100
AcDbEntity
  8
1
  6
Continuous
 62
     7
100
AcDbCircle
 10
229.07
 20
123.612403
 30
0.0
 40
1.75
  0
LINE
  5
40B
330
1E
100
AcDbEntity
  8
1
  6
Continuous
 62
     7
100
AcDbLine
 10
257.3399999999999
 20
133.112403
 30
0.0
 11
257.3399999999999
 21
120.112403
 31
0.0
  0
LINE
  5
40C
330
1E
100
AcDbEntity
  8
1
  6
Continuous
 62
     7
100
AcDbLine
 10
252.1999999999999
 20
133.112403
 30
0.0
 11
252.1999999999999
 21
120.112403
 31
0.0
  0
LINE
  5
40D
330
1E
100
AcDbEntity
  8
1
  6
Continuous
 62
     7
100
AcDbLine
 10
247.06
 20
133.112403
 30
0.0
 11
247.06
 21
120.112403
 31
0.0
  0
LINE
  5
40E
330
1E
100
AcDbEntity
  8
1
  6
Continuous
 62
     7
100
AcDbLine
 10
241.92
 20
133.112403
 30
0.0
 11
241.92
 21
120.112403
 31
0.0
  0
LINE
  5
40F
330
1E
100
AcDbEntity
  8
1
  6
Continuous
 62
     7
100
AcDbLine
 10
236.7799999999999
 20
133.112403
 30
0.0
 11
236.7799999999999
 21
120.112403
 31
0.0
  0
LINE
  5
410
330
1E
100
AcDbEntity
  8
1
  6
Continuous
 62
     7
100
AcDbLine
 10
231.6399999999999
 20
133.112403
 30
0.0
 11
231.6399999999999
 21
120.112403
 31
0.0
  0
LINE
  5
411
330
1E
100
AcDbEntity
  8
1
  6
Continuous
 62
     7
100
AcDbLine
 10
262.5
 20
133.112403
 30
0.0
 11
226.5
 21
133.112403
 31
0.0
  0
LINE
  5
412
330
1E
100
AcDbEntity
  8
1
  6
Continuous
 62
     7
100
AcDbLine
 10
262.5
 20
120.112403
 30
0.0
 11
262.5
 21
133.112403
 31
0.0
  0
LINE
  5
413
330
1E
100
AcDbEntity
  8
1
  6
Continuous
 62
     7
100
AcDbLine
 10
226.5
 20
120.112403
 30
0.0
 11
262.5
 21
120.112403
 31
0.0
  0
LINE
  5
414
330
1E
100
AcDbEntity
  8
1
  6
Continuous
 62
     7
100
AcDbLine
 10
226.5
 20
133.112403
 30
0.0
 11
226.5
 21
120.112403
 31
0.0
  0
LINE
  5
415
330
1E
100
AcDbEntity
  8
1
  6
Continuous
 62
     7
100
AcDbLine
 10
218.5
 20
160.112403
 30
0.0
 11
233.4999999999999
 21
160.112403
 31
0.0
  0
LINE
  5
416
330
1E
100
AcDbEntity
  8
1
  6
Continuous
 62
     7
100
AcDbLine
 10
264.0
 20
168.612403
 30
0.0
 11
233.4999999999999
 21
168.612403
 31
0.0
  0
LINE
  5
417
330
1E
100
AcDbEntity
  8
1
  6
Continuous
 62
     7
100
AcDbLine
 10
233.4999999999999
 20
168.612403
 30
0.0
 11
233.4999999999999
 21
160.112403
 31
0.0
  0
LINE
  5
418
330
1E
100
AcDbEntity
  8
1
  6
Continuous
 62
     7
100
AcDbLine
 10
226.0
 20
134.112403
 30
0.0
 11
264.0
 21
134.112403
 31
0.0
  0
LINE
  5
419
330
1E
100
AcDbEntity
  8
1
  6
Continuous
 62
     7
100
AcDbLine
 10
226.0
 20
109.112403
 30
0.0
 11
226.0
 21
134.112403
 31
0.0
  0
LINE
  5
41A
330
1E
100
AcDbEntity
  8
1
  6
Continuous
 62
     7
100
AcDbLine
 10
264.0
 20
175.1124029999999
 30
0.0
 11
218.5
 21
175.1124029999999
 31
0.0
  0
LINE
  5
41B
330
1E
100
AcDbEntity
  8
1
  6
Continuous
 62
     7
100
AcDbLine
 10
264.0
 20
109.112403
 30
0.0
 11
264.0
 21
175.1124029999999
 31
0.0
  0
LINE
  5
41C
330
1E
100
AcDbEntity
  8
1
  6
Continuous
 62
     7
100
AcDbLine
 10
218.5
 20
109.112403
 30
0.0
 11
264.0
 21
109.112403
 31
0.0
  0
LINE
  5
41D
330
1E
100
AcDbEntity
  8
1
  6
Continuous
 62
     7
100
AcDbLine
 10
218.5
 20
175.1124029999999
 30
0.0
 11
218.5
 21
109.112403
 31
0.0
  0
ARC
  5
41E
330
1E
100
AcDbEntity
  8
1
  6
Continuous
 62
     7
100
AcDbCircle
 10
216.5
 20
93.11240299999999
 30
0.0
 40
6.5
100
AcDbArc
 50
180.0
 51
270.0
  0
LINE
  5
41F
330
1E
100
AcDbEntity
  8
1
  6
Continuous
 62
     7
100
AcDbLine
 10
216.5
 20
86.61240300000001
 30
0.0
 11
266.5
 21
86.61240300000001
 31
0.0
  0
LINE
  5
420
330
1E
100
AcDbEntity
  8
1
  6
Continuous
 62
     7
100
AcDbLine
 10
210.0
 20
193.112403
 30
0.0
 11
210.0
 21
93.11240299999999
 31
0.0
  0
ARC
  5
421
330
1E
100
AcDbEntity
  8
1
  6
Continuous
 62
     7
100
AcDbCircle
 10
266.5
 20
93.11240299999999
 30
0.0
 40
6.5
100
AcDbArc
 50
270.0
 51
0.0
  0
LINE
  5
422
330
1E
100
AcDbEntity
  8
1
  6
Continuous
 62
     7
100
AcDbLine
 10
273.0
 20
93.11240299999999
 30
0.0
 11
273.0
 21
193.112403
 31
0.0
  0
ARC
  5
423
330
1E
100
AcDbEntity
  8
1
  6
Continuous
 62
     7
100
AcDbCircle
 10
266.5
 20
193.112403
 30
0.0
 40
6.5
100
AcDbArc
 50
0.0
 51
90.0
  0
LINE
  5
424
330
1E
100
AcDbEntity
  8
1
  6
Continuous
 62
     7
100
AcDbLine
 10
266.5
 20
199.612403
 30
0.0
 11
216.5
 21
199.612403
 31
0.0
  0
ARC
  5
425
330
1E
100
AcDbEntity
  8
1
  6
Continuous
 62
     7
100
AcDbCircle
 10
216.5
 20
193.112403
 30
0.0
 40
6.5
100
AcDbArc
 50
90.0
 51
180.0
  0
ARC
  5
426
330
1E
100
AcDbEntity
  8
1
  6
Continuous
 62
     7
100
AcDbCircle
 10
216.5
 20
93.11240299999999
 30
0.0
 40
10.0
100
AcDbArc
 50
180.0
 51
270.0
  0
LINE
  5
427
330
1E
100
AcDbEntity
  8
1
  6
Continuous
 62
     7
100
AcDbLine
 10
216.5
 20
83.11240299999999
 30
0.0
 11
266.5
 21
83.11240299999999
 31
0.0
  0
LINE
  5
428
330
1E
100
AcDbEntity
  8
1
  6
Continuous
 62
     7
100
AcDbLine
 10
206.4999999999999
 20
193.112403
 30
0.0
 11
206.4999999999999
 21
93.11240299999999
 31
0.0
  0
ARC
  5
429
330
1E
100
AcDbEntity
  8
1
  6
Continuous
 62
     7
100
AcDbCircle
 10
266.5
 20
93.11240299999999
 30
0.0
 40
10.0
100
AcDbArc
 50
270.0
 51
0.0
  0
LINE
  5
42A
330
1E
100
AcDbEntity
  8
1
  6
Continuous
 62
     7
100
AcDbLine
 10
276.5
 20
93.11240299999999
 30
0.0
 11
276.5
 21
193.112403
 31
0.0
  0
ARC
  5
42B
330
1E
100
AcDbEntity
  8
1
  6
Continuous
 62
     7
100
AcDbCircle
 10
266.5
 20
193.112403
 30
0.0
 40
10.0
100
AcDbArc
 50
0.0
 51
90.0
  0
LINE
  5
42C
330
1E
100
AcDbEntity
  8
1
  6
Continuous
 62
     7
100
AcDbLine
 10
266.5
 20
203.1124029999999
 30
0.0
 11
216.5
 21
203.1124029999999
 31
0.0
  0
ARC
  5
42D
330
1E
100
AcDbEntity
  8
1
  6
Continuous
 62
     7
100
AcDbCircle
 10
216.5
 20
193.112403
 30
0.0
 40
10.0
100
AcDbArc
 50
90.0
 51
180.0
  0
DIMENSION
  5
42E
330
1E
100
AcDbEntity
  8
1
  6
Continuous
 62
     7
100
AcDbDimension
  2
*D10
 10
291.5
 20
184.612403
 30
0.0
 11
291.0
 21
143.112403
 31
0.0
  1
83.5
 71
     5
 42
-1.0
100
AcDbAlignedDimension
 13
253.681
 23
184.612403
 33
0.0
 14
253.681
 24
101.612403
 34
0.0
 50
270.0
100
AcDbRotatedDimension
  0
TEXT
  5
42F
330
1E
100
AcDbEntity
  8
15
  6
Continuous
 62
    96
100
AcDbText
 10
313.193773
 20
34.50945499999999
 30
0.0
 40
3.0
  1
１：１
  7
KANJI
100
AcDbText
  0
TEXT
  5
430
330
1E
100
AcDbEntity
  8
15
  6
DIVIDE
 62
    96
100
AcDbText
 10
324.732608
 20
245.7884029999999
 30
0.0
 40
3.0
  1
操作釦
 41
0.933333
  7
KANJI
100
AcDbText
  0
TEXT
  5
431
330
1E
100
AcDbEntity
  8
15
  6
DIVIDE
 62
    96
100
AcDbText
 10
363.4726039999999
 20
251.566757
 30
0.0
 40
3.0
  1
白　色
  7
KANJI
100
AcDbText
  0
TEXT
  5
432
330
1E
100
AcDbEntity
  8
15
  6
DIVIDE
 62
    96
100
AcDbText
 10
363.4726039999999
 20
246.066757
 30
0.0
 40
3.0
  1
黒　色
  7
KANJI
100
AcDbText
  0
TEXT
  5
433
330
1E
100
AcDbEntity
  8
15
  6
DIVIDE
 62
    96
100
AcDbText
 10
318.2541159999999
 20
207.5649269999999
 30
0.0
 40
3.003658
  1
銘　板
  7
KANJI
100
AcDbText
  0
TEXT
  5
434
330
1E
100
AcDbEntity
  8
15
  6
Continuous
 62
    96
100
AcDbText
 10
384.015193
 20
35.0
 30
0.0
 40
5.0
  1
江辺
 41
1.08
  7
KANJI
100
AcDbText
  0
TEXT
  5
435
330
1E
100
AcDbEntity
  8
15
  6
DIVIDE
 62
    96
100
AcDbText
 10
364.012116
 20
196.564927
 30
0.0
 40
3.003658
  1
30万回
 41
0.75
  7
KANJI
100
AcDbText
  0
TEXT
  5
436
330
1E
100
AcDbEntity
  8
15
  6
Continuous
 62
    96
100
AcDbText
 10
352.9401169999999
 20
60.996653
 30
0.0
 40
3.5
  1
G20017-01-09X06
 41
0.5
  7
KANJI
100
AcDbText
  0
TEXT
  5
437
330
1E
100
AcDbEntity
  8
15
  6
Continuous
 62
    96
100
AcDbText
 10
327.716604
 20
28.268292
 30
0.0
 40
3.5
  1
G20017-01-12Z10
 41
0.5
  7
KANJI
100
AcDbText
  0
TEXT
  5
438
330
1E
100
AcDbEntity
  8
15
  6
Continuous
 62
    96
100
AcDbText
 10
364.5355079999999
 20
28.51784999999999
 30
0.0
 40
3.000884999999999
  1
2012年12月10日
 41
0.6363640000000001
  7
KANJI
100
AcDbText
  0
TEXT
  5
439
330
1E
100
AcDbEntity
  8
15
  6
Continuous
 62
    96
100
AcDbText
 10
357.706193
 20
35.0
 30
0.0
 40
5.0
  1
片山
 41
1.08
  7
KANJI
100
AcDbText
  0
ENDSEC
  0
SECTION
  2
OBJECTS
  0
DICTIONARY
  5
C
330
0
100
AcDbDictionary
281
     1
  3
ACAD_GROUP
350
D
  3
ACAD_LAYOUT
350
19
  3
ACAD_MLINESTYLE
350
16
  3
ACAD_PLOTSETTINGS
350
18
  3
ACAD_PLOTSTYLENAME
350
E
  3
AcDbVariableDictionary
350
43C
  0
DICTIONARY
  5
D
102
{ACAD_REACTORS
330
C
102
}
330
C
100
AcDbDictionary
281
     1
  0
DICTIONARY
  5
19
102
{ACAD_REACTORS
330
C
102
}
330
C
100
AcDbDictionary
281
     1
  3
Model
350
21
  3
ﾚｲｱｳﾄ1
350
1D
  0
DICTIONARY
  5
16
102
{ACAD_REACTORS
330
C
102
}
330
C
100
AcDbDictionary
281
     1
  3
Standard
350
17
  0
DICTIONARY
  5
18
102
{ACAD_REACTORS
330
C
102
}
330
C
100
AcDbDictionary
281
     1
  0
ACDBDICTIONARYWDFLT
  5
E
102
{ACAD_REACTORS
330
C
102
}
330
C
100
AcDbDictionary
281
     1
  3
Normal
350
F
100
AcDbDictionaryWithDefault
340
F
  0
DICTIONARY
  5
43C
102
{ACAD_REACTORS
330
C
102
}
330
C
100
AcDbDictionary
281
     1
  3
DIMASSOC
350
43D
  0
LAYOUT
  5
21
102
{ACAD_REACTORS
330
19
102
}
330
19
100
AcDbPlotSettings
  1

  2
NEC MultiWriter2360/2360N
  4

  6

 40
0.0
 41
0.0
 42
0.0
 43
0.0
 44
0.0
 45
0.0
 46
0.0
 47
0.0
 48
0.0
 49
0.0
140
0.0
141
0.0
142
1.0
143
1.0
 70
  1712
 72
     0
 73
     0
 74
     0
  7

 75
     0
147
1.0
148
0.0
149
0.0
100
AcDbLayout
  1
Model
 70
     1
 71
     0
 10
0.0
 20
0.0
 11
12.0
 21
9.0
 12
0.0
 22
0.0
 32
0.0
 14
0.0
 24
0.0
 34
0.0
 15
0.0
 25
0.0
 35
0.0
146
0.0
 13
0.0
 23
0.0
 33
0.0
 16
1.0
 26
0.0
 36
0.0
 17
0.0
 27
1.0
 37
0.0
 76
     0
330
1E
  0
LAYOUT
  5
1D
102
{ACAD_REACTORS
330
19
102
}
330
19
100
AcDbPlotSettings
  1

  2
NEC MultiWriter2360/2360N
  4

  6

 40
0.0
 41
0.0
 42
0.0
 43
0.0
 44
0.0
 45
0.0
 46
0.0
 47
0.0
 48
0.0
 49
0.0
140
0.0
141
0.0
142
1.0
143
1.0
 70
   688
 72
     0
 73
     0
 74
     5
  7

 75
    16
147
1.0
148
0.0
149
0.0
100
AcDbLayout
  1
ﾚｲｱｳﾄ1
 70
     1
 71
     1
 10
0.0
 20
0.0
 11
12.0
 21
9.0
 12
0.0
 22
0.0
 32
0.0
 14
0.0
 24
0.0
 34
0.0
 15
420.0
 25
297.0
 35
0.0
146
0.0
 13
0.0
 23
0.0
 33
0.0
 16
1.0
 26
0.0
 36
0.0
 17
0.0
 27
1.0
 37
0.0
 76
     0
330
1A
  0
MLINESTYLE
  5
17
102
{ACAD_REACTORS
330
16
102
}
330
16
100
AcDbMlineStyle
  2
STANDARD
 70
     0
  3

 62
   256
 51
90.0
 52
90.0
 71
     2
 49
0.5
 62
   256
  6
BYLAYER
 49
-0.5
 62
   256
  6
BYLAYER
  0
ACDBPLACEHOLDER
  5
F
102
{ACAD_REACTORS
330
E
102
}
330
E
  0
DICTIONARYVAR
  5
43D
102
{ACAD_REACTORS
330
43C
102
}
330
43C
100
DictionaryVariables
280
     0
  1
0
  0
ENDSEC
  0
EOF
