  0
SECTION
  2
HEADER
  9
$ACADVER
  1
AC1015
  9
$ACADMAINTVER
 70
     6
  9
$DWGCODEPAGE
  3
DOS932
  9
$INSBASE
 10
0.0
 20
0.0
 30
0.0
  9
$EXTMIN
 10
0.0
 20
0.0
 30
0.0
  9
$EXTMAX
 10
4200.0
 20
2970.0
 30
0.0
  9
$LIMMIN
 10
0.0
 20
0.0
  9
$LIMMAX
 10
4200.0
 20
2970.0
  9
$ORTHOMODE
 70
     0
  9
$REGENMODE
 70
     1
  9
$FILLMODE
 70
     1
  9
$QTEXTMODE
 70
     0
  9
$MIRRTEXT
 70
     1
  9
$LTSCALE
 40
2.5
  9
$ATTMODE
 70
     1
  9
$TEXTSIZE
 40
30.0
  9
$TRACEWID
 40
0.05
  9
$TEXTSTYLE
  7
Standard
  9
$CLAYER
  8
0
  9
$CELTYPE
  6
Continuous
  9
$CECOLOR
 62
   256
  9
$CELTSCALE
 40
1.0
  9
$DISPSILH
 70
     0
  9
$DIMSCALE
 40
10.0
  9
$DIMASZ
 40
2.4
  9
$DIMEXO
 40
2.0
  9
$DIMDLI
 40
10.0
  9
$DIMRND
 40
0.0
  9
$DIMDLE
 40
0.0
  9
$DIMEXE
 40
2.0
  9
$DIMTP
 40
0.0
  9
$DIMTM
 40
0.0
  9
$DIMTXT
 40
3.0
  9
$DIMCEN
 40
0.09
  9
$DIMTSZ
 40
0.0
  9
$DIMTOL
 70
     0
  9
$DIMLIM
 70
     0
  9
$DIMTIH
 70
     0
  9
$DIMTOH
 70
     0
  9
$DIMSE1
 70
     0
  9
$DIMSE2
 70
     0
  9
$DIMTAD
 70
     3
  9
$DIMZIN
 70
     0
  9
$DIMBLK
  1

  9
$DIMASO
 70
     1
  9
$DIMSHO
 70
     1
  9
$DIMPOST
  1

  9
$DIMAPOST
  1

  9
$DIMALT
 70
     0
  9
$DIMALTD
 70
     2
  9
$DIMALTF
 40
25.4
  9
$DIMLFAC
 40
1.0
  9
$DIMTOFL
 70
     1
  9
$DIMTVP
 40
0.7
  9
$DIMTIX
 70
     0
  9
$DIMSOXD
 70
     0
  9
$DIMSAH
 70
     0
  9
$DIMBLK1
  1

  9
$DIMBLK2
  1

  9
$DIMSTYLE
  2
Standard
  9
$DIMCLRD
 70
     0
  9
$DIMCLRE
 70
     0
  9
$DIMCLRT
 70
     0
  9
$DIMTFAC
 40
0.5
  9
$DIMGAP
 40
0.5
  9
$DIMJUST
 70
     0
  9
$DIMSD1
 70
     0
  9
$DIMSD2
 70
     0
  9
$DIMTOLJ
 70
     1
  9
$DIMTZIN
 70
     0
  9
$DIMALTZ
 70
     0
  9
$DIMALTTZ
 70
     0
  9
$DIMUPT
 70
     0
  9
$DIMDEC
 70
     2
  9
$DIMTDEC
 70
     4
  9
$DIMALTU
 70
     2
  9
$DIMALTTD
 70
     2
  9
$DIMTXSTY
  7
Standard
  9
$DIMAUNIT
 70
     0
  9
$DIMADEC
 70
     0
  9
$DIMALTRND
 40
0.0
  9
$DIMAZIN
 70
     0
  9
$DIMDSEP
 70
     0
  9
$DIMATFIT
 70
     3
  9
$DIMFRAC
 70
     0
  9
$DIMLDRBLK
  1

  9
$DIMLUNIT
 70
     2
  9
$DIMLWD
 70
     0
  9
$DIMLWE
 70
     0
  9
$DIMTMOVE
 70
     0
  9
$LUNITS
 70
     2
  9
$LUPREC
 70
     4
  9
$SKETCHINC
 40
0.1
  9
$FILLETRAD
 40
0.0
  9
$AUNITS
 70
     0
  9
$AUPREC
 70
     0
  9
$MENU
  1
acad
  9
$ELEVATION
 40
0.0
  9
$PELEVATION
 40
0.0
  9
$THICKNESS
 40
0.0
  9
$LIMCHECK
 70
     0
  9
$CHAMFERA
 40
0.0
  9
$CHAMFERB
 40
0.0
  9
$CHAMFERC
 40
0.0
  9
$CHAMFERD
 40
0.0
  9
$SKPOLY
 70
     0
  9
$TDCREATE
 40
2459082.562557871
  9
$TDUCREATE
 40
0.000000000
  9
$TDUPDATE
 40
2459082.562557871
  9
$TDUUPDATE
 40
0.000000000
  9
$TDINDWG
 40
0.0000000000
  9
$TDUSRTIMER
 40
0.0000000000
  9
$USRTIMER
 70
     1
  9
$ANGBASE
 50
0.0
  9
$ANGDIR
 70
     0
  9
$PDMODE
 70
     0
  9
$PDSIZE
 40
0.0
  9
$PLINEWID
 40
0.0
  9
$SPLFRAME
 70
     0
  9
$SPLINETYPE
 70
     6
  9
$SPLINESEGS
 70
     8
  9
$HANDSEED
  5
7ED
  9
$SURFTAB1
 70
     6
  9
$SURFTAB2
 70
     6
  9
$SURFTYPE
 70
     6
  9
$SURFU
 70
     6
  9
$SURFV
 70
     6
  9
$UCSBASE
  2

  9
$UCSNAME
  2

  9
$UCSORG
 10
0.0
 20
0.0
 30
0.0
  9
$UCSXDIR
 10
1.0
 20
0.0
 30
0.0
  9
$UCSYDIR
 10
0.0
 20
1.0
 30
0.0
  9
$UCSORTHOREF
  2

  9
$UCSORTHOVIEW
 70
     0
  9
$UCSORGTOP
 10
0.0
 20
0.0
 30
0.0
  9
$UCSORGBOTTOM
 10
0.0
 20
0.0
 30
0.0
  9
$UCSORGLEFT
 10
0.0
 20
0.0
 30
0.0
  9
$UCSORGRIGHT
 10
0.0
 20
0.0
 30
0.0
  9
$UCSORGFRONT
 10
0.0
 20
0.0
 30
0.0
  9
$UCSORGBACK
 10
0.0
 20
0.0
 30
0.0
  9
$PUCSBASE
  2

  9
$PUCSNAME
  2

  9
$PUCSORG
 10
0.0
 20
0.0
 30
0.0
  9
$PUCSXDIR
 10
1.0
 20
0.0
 30
0.0
  9
$PUCSYDIR
 10
0.0
 20
1.0
 30
0.0
  9
$PUCSORTHOREF
  2

  9
$PUCSORTHOVIEW
 70
     0
  9
$PUCSORGTOP
 10
0.0
 20
0.0
 30
0.0
  9
$PUCSORGBOTTOM
 10
0.0
 20
0.0
 30
0.0
  9
$PUCSORGLEFT
 10
0.0
 20
0.0
 30
0.0
  9
$PUCSORGRIGHT
 10
0.0
 20
0.0
 30
0.0
  9
$PUCSORGFRONT
 10
0.0
 20
0.0
 30
0.0
  9
$PUCSORGBACK
 10
0.0
 20
0.0
 30
0.0
  9
$USERI1
 70
     0
  9
$USERI2
 70
     0
  9
$USERI3
 70
     0
  9
$USERI4
 70
     0
  9
$USERI5
 70
     0
  9
$USERR1
 40
0.0
  9
$USERR2
 40
0.0
  9
$USERR3
 40
0.0
  9
$USERR4
 40
0.0
  9
$USERR5
 40
0.0
  9
$WORLDVIEW
 70
     1
  9
$SHADEDGE
 70
     3
  9
$SHADEDIF
 70
    70
  9
$TILEMODE
 70
     1
  9
$MAXACTVP
 70
    16
  9
$PINSBASE
 10
0.0
 20
0.0
 30
0.0
  9
$PLIMCHECK
 70
     0
  9
$PEXTMIN
 10
0.0
 20
0.0
 30
0.0
  9
$PEXTMAX
 10
420.0
 20
297.0
 30
0.0
  9
$PLIMMIN
 10
0.0
 20
0.0
  9
$PLIMMAX
 10
420.0
 20
297.0
  9
$UNITMODE
 70
     0
  9
$VISRETAIN
 70
     0
  9
$PLINEGEN
 70
     1
  9
$PSLTSCALE
 70
     0
  9
$TREEDEPTH
 70
  3020
  9
$CMLSTYLE
  2
Standard
  9
$CMLJUST
 70
     0
  9
$CMLSCALE
 40
1.0
  9
$PROXYGRAPHICS
 70
     0
  9
$MEASUREMENT
 70
     0
  9
$CELWEIGHT
370
     0
  9
$ENDCAPS
280
     0
  9
$JOINSTYLE
280
     0
  9
$LWDISPLAY
290
     0
  9
$INSUNITS
 70
     0
  9
$HYPERLINKBASE
  1

  9
$STYLESHEET
  1

  9
$XEDIT
290
     1
  9
$CEPSNTYPE
380
     0
  9
$PSTYLEMODE
290
     1
  9
$FINGERPRINTGUID
  2

  9
$VERSIONGUID
  2

  9
$EXTNAMES
290
     1
  9
$PSVPSCALE
 40
0.0
  0
ENDSEC
  0
SECTION
  2
CLASSES
  0
CLASS
  1
LWPOLYLINE
  2
AcDbPolyline
  3
AutoCAD 2000
 90
    32768
280
     0
281
     1
  0
CLASS
  1
IMAGE
  2
AcDbRasterImage
  3
ISM
 90
    32895
280
     0
281
     1
  0
CLASS
  1
OLE2FRAME
  2
AcDbOle2Frame
  3
AutoCAD 2000
 90
    32768
280
     0
281
     1
  0
CLASS
  1
HATCH
  2
AcDbHatch
  3
AutoCAD 2000
 90
    32768
280
     0
281
     1
  0
CLASS
  1
DICTIONARYVAR
  2
AcDbDictionaryVar
  3
AutoCAD 2000
 90
    32768
280
     0
281
     0
  0
CLASS
  1
RASTERVARIABLES
  2
AcDbRasterVariables
  3
ISM
 90
    32768
280
     0
281
     0
  0
CLASS
  1
IMAGEDEF
  2
AcDbRasterImageDef
  3
ISM
 90
    32768
280
     0
281
     0
  0
CLASS
  1
IMAGEDEF_REACTOR
  2
AcDbRasterImageDefReactor
  3
ISM
 90
    32769
280
     0
281
     0
  0
CLASS
  1
IDBUFFER
  2
AcDbIdBuffer
  3
AutoCAD 2000
 90
    32768
280
     0
281
     0
  0
CLASS
  1
SPATIAL_FILTER
  2
AcDbSpatialFilter
  3
AutoCAD 2000
 90
    32768
280
     0
281
     0
  0
CLASS
  1
XRECORD
  2
AcDbXrecord
  3
AutoCAD 2000
 90
    32768
280
     0
281
     0
  0
CLASS
  1
SORTENTSTABLE
  2
AcDbSortentsTable
  3
AutoCAD 2000
 90
    32768
280
     0
281
     0
  0
CLASS
  1
LAYER_INDEX
  2
AcDbLayerIndex
  3
AutoCAD 2000
 90
    32768
280
     0
281
     0
  0
CLASS
  1
SPATIAL_INDEX
  2
AcDbSpatialIndex
  3
AutoCAD 2000
 90
    32768
280
     0
281
     0
  0
CLASS
  1
OBJECT_PTR
  2
CAseDLPNTableRecord
  3
"ASE-LPNTableRecord"
 90
    32769
280
     0
281
     0
  0
CLASS
  1
LAYOUT
  2
AcDbLayout
  3
AutoCAD 2000
 90
        0
280
     0
281
     0
  0
CLASS
  1
PLOTSETTINGS
  2
AcDbPlotSettings
  3
AutoCAD 2000
 90
    32768
280
     0
281
     0
  0
CLASS
  1
ACDBDICTIONARYWDFLT
  2
AcDbDictionaryWithDefault
  3
AutoCAD 2000
 90
        0
280
     0
281
     0
  0
CLASS
  1
ACDBPLACEHOLDER
  2
AcDbPlaceHolder
  3
AutoCAD 2000
 90
        0
280
     0
281
     0
  0
CLASS
  1
VBA_PROJECT
  2
AcDbVbaProject
  3
acadvba
 90
    32768
280
     0
281
     0
  0
CLASS
  1
WIPEOUT
  2
AcDbWipeout
  3
WipeOut|AutoCAD Express Tool|expresstools@autodesk.com
 90
    32895
280
     0
281
     1
  0
CLASS
  1
WIPEOUTVARIABLES
  2
AcDbWipeoutVariables
  3
WipeOut|AutoCAD Express Tool|expresstools@autodesk.com
 90
        0
280
     0
281
     0
  0
CLASS
  1
RTEXT
  2
RText
  3
RText|AutoCAD Express Tool|expresstools@autodesk.com
 90
    32768
280
     0
281
     1
  0
CLASS
  1
ARCALIGNEDTEXT
  2
AcDbArcAlignedText
  3
ATEXT|AutoCAD Express Tool|expresstools@autodesk.com
 90
    32768
280
     0
281
     1
  0
ENDSEC
  0
SECTION
  2
TABLES
  0
TABLE
  2
VPORT
  5
7
100
AcDbSymbolTable
 70
     1
  0
VPORT
  5
15
100
AcDbSymbolTableRecord
100
AcDbViewportTableRecord
  2
*ACTIVE
 70
     0
 10
0.0
 20
0.0
 11
1.0
 21
1.0
 12
6.591288
 22
4.579184
 13
0.0
 23
0.0
 14
1.0
 24
1.0
 15
0.0
 25
0.0
 16
0.0
 26
0.0
 36
1.0
 17
0.0
 27
0.0
 37
0.0
 40
9.158369
 41
0.688564
 42
50.0
 43
0.0
 44
0.0
 50
0.0
 51
0.0
 71
     0
 72
   100
 73
     1
 74
     1
 75
     0
 76
     0
 77
     0
 78
     0
281
     0
 65
     0
110
0.0
120
0.0
130
0.0
111
1.0
121
0.0
131
0.0
112
0.0
122
1.0
132
0.0
345
0
346
0
 79
     0
146
0.0
  0
ENDTAB
  0
TABLE
  2
LTYPE
  5
4
100
AcDbSymbolTable
 70
     9
  0
LTYPE
  5
11
100
AcDbSymbolTableRecord
100
AcDbLinetypeTableRecord
  2
ByBlock
 70
    64
  3

 72
    65
 73
     0
 40
0.0
  0
LTYPE
  5
12
100
AcDbSymbolTableRecord
100
AcDbLinetypeTableRecord
  2
ByLayer
 70
    64
  3

 72
    65
 73
     0
 40
0.0
  0
LTYPE
  5
13
100
AcDbSymbolTableRecord
100
AcDbLinetypeTableRecord
  2
Continuous
 70
    64
  3
Solid line
 72
    65
 73
     0
 40
0.0
  0
LTYPE
  5
25
100
AcDbSymbolTableRecord
100
AcDbLinetypeTableRecord
  2
HIDDEN
 70
    64
  3
- - - - - - - - 
 72
    65
 73
     2
 40
12.6
 49
8.4
 74
     0
 49
-4.2
 74
     0
  0
LTYPE
  5
26
100
AcDbSymbolTableRecord
100
AcDbLinetypeTableRecord
  2
DOT
 70
    64
  3
･ ･ ･ ･ ･ ･ ･ ･ 
 72
    65
 73
     2
 40
8.0
 49
6.0
 74
     0
 49
-2.0
 74
     0
  0
LTYPE
  5
27
100
AcDbSymbolTableRecord
100
AcDbLinetypeTableRecord
  2
CENTER
 70
    64
  3
- ･ - ･ - ･ - ･ 
 72
    65
 73
     4
 40
50.5
 49
30.0
 74
     0
 49
-9.0
 74
     0
 49
2.5
 74
     0
 49
-9.0
 74
     0
  0
LTYPE
  5
28
100
AcDbSymbolTableRecord
100
AcDbLinetypeTableRecord
  2
PHANTOM
 70
    64
  3
- ･･ - ･･ - ･･ - ･･ 
 72
    65
 73
     6
 40
58.0
 49
30.0
 74
     0
 49
-9.0
 74
     0
 49
2.5
 74
     0
 49
-5.0
 74
     0
 49
2.5
 74
     0
 49
-9.0
 74
     0
  0
LTYPE
  5
29
100
AcDbSymbolTableRecord
100
AcDbLinetypeTableRecord
  2
ACAD_ISO06W100
 70
    64
  3
____ ... ____ ... ____
 72
    65
 73
     8
 40
37.5
 49
24.0
 74
     0
 49
-3.0
 74
     0
 49
0.5
 74
     0
 49
-3.0
 74
     0
 49
0.5
 74
     0
 49
-3.0
 74
     0
 49
0.5
 74
     0
 49
-3.0
 74
     0
  0
LTYPE
  5
2A
100
AcDbSymbolTableRecord
100
AcDbLinetypeTableRecord
  2
ACAD_ISO14W100
 70
    64
  3
__ . . . __ . . . __ . . . 
 72
    65
 73
     8
 40
25.5
 49
12.0
 74
     0
 49
-3.0
 74
     0
 49
0.5
 74
     0
 49
-3.0
 74
     0
 49
0.5
 74
     0
 49
-3.0
 74
     0
 49
0.5
 74
     0
 49
-3.0
 74
     0
  0
ENDTAB
  0
TABLE
  2
LAYER
  5
2
100
AcDbSymbolTable
 70
    31
  0
LAYER
  5
14
100
AcDbSymbolTableRecord
100
AcDbLayerTableRecord
  2
0
 70
     0
 62
     7
  6
Continuous
290
     1
370
    -3
390
1D
  0
LAYER
  5
2B
100
AcDbSymbolTableRecord
100
AcDbLayerTableRecord
  2
1
 70
     0
 62
     7
  6
Continuous
290
     1
370
    -3
390
1D
  0
LAYER
  5
2C
100
AcDbSymbolTableRecord
100
AcDbLayerTableRecord
  2
2
 70
     0
 62
   214
  6
Continuous
290
     1
370
    -3
390
1D
  0
LAYER
  5
2D
100
AcDbSymbolTableRecord
100
AcDbLayerTableRecord
  2
3
 70
     0
 62
   216
  6
Continuous
290
     1
370
    -3
390
1D
  0
LAYER
  5
2E
100
AcDbSymbolTableRecord
100
AcDbLayerTableRecord
  2
4
 70
     0
 62
    54
  6
Continuous
290
     1
370
    -3
390
1D
  0
LAYER
  5
2F
100
AcDbSymbolTableRecord
100
AcDbLayerTableRecord
  2
5
 70
     0
 62
    94
  6
Continuous
290
     1
370
    -3
390
1D
  0
LAYER
  5
30
100
AcDbSymbolTableRecord
100
AcDbLayerTableRecord
  2
6
 70
     0
 62
    14
  6
Continuous
290
     1
370
    -3
390
1D
  0
LAYER
  5
31
100
AcDbSymbolTableRecord
100
AcDbLayerTableRecord
  2
7
 70
     0
 62
     4
  6
Continuous
290
     1
370
    -3
390
1D
  0
LAYER
  5
32
100
AcDbSymbolTableRecord
100
AcDbLayerTableRecord
  2
8
 70
     0
 62
     6
  6
Continuous
290
     1
370
    -3
390
1D
  0
LAYER
  5
33
100
AcDbSymbolTableRecord
100
AcDbLayerTableRecord
  2
9
 70
     0
 62
     2
  6
Continuous
290
     1
370
    -3
390
1D
  0
LAYER
  5
34
100
AcDbSymbolTableRecord
100
AcDbLayerTableRecord
  2
10
 70
     0
 62
     3
  6
Continuous
290
     1
370
    -3
390
1D
  0
LAYER
  5
35
100
AcDbSymbolTableRecord
100
AcDbLayerTableRecord
  2
11
 70
     0
 62
   251
  6
Continuous
290
     1
370
    -3
390
1D
  0
LAYER
  5
36
100
AcDbSymbolTableRecord
100
AcDbLayerTableRecord
  2
12
 70
     0
 62
   136
  6
Continuous
290
     1
370
    -3
390
1D
  0
LAYER
  5
37
100
AcDbSymbolTableRecord
100
AcDbLayerTableRecord
  2
13
 70
     0
 62
     7
  6
Continuous
290
     1
370
    -3
390
1D
  0
LAYER
  5
38
100
AcDbSymbolTableRecord
100
AcDbLayerTableRecord
  2
14
 70
     0
 62
    56
  6
Continuous
290
     1
370
    -3
390
1D
  0
LAYER
  5
39
100
AcDbSymbolTableRecord
100
AcDbLayerTableRecord
  2
15
 70
     0
 62
    96
  6
Continuous
290
     1
370
    -3
390
1D
  0
LAYER
  5
3A
100
AcDbSymbolTableRecord
100
AcDbLayerTableRecord
  2
16
 70
     0
 62
    16
  6
Continuous
290
     1
370
    -3
390
1D
  0
LAYER
  5
3B
100
AcDbSymbolTableRecord
100
AcDbLayerTableRecord
  2
17
 70
     0
 62
   132
  6
Continuous
290
     1
370
    -3
390
1D
  0
LAYER
  5
3C
100
AcDbSymbolTableRecord
100
AcDbLayerTableRecord
  2
18
 70
     0
 62
   212
  6
Continuous
290
     1
370
    -3
390
1D
  0
LAYER
  5
3D
100
AcDbSymbolTableRecord
100
AcDbLayerTableRecord
  2
19
 70
     0
 62
    52
  6
Continuous
290
     1
370
    -3
390
1D
  0
LAYER
  5
3E
100
AcDbSymbolTableRecord
100
AcDbLayerTableRecord
  2
20
 70
     0
 62
   250
  6
Continuous
290
     1
370
    -3
390
1D
  0
LAYER
  5
3F
100
AcDbSymbolTableRecord
100
AcDbLayerTableRecord
  2
22
 70
     0
 62
     7
  6
Continuous
290
     1
370
    -3
390
1D
  0
LAYER
  5
40
100
AcDbSymbolTableRecord
100
AcDbLayerTableRecord
  2
24
 70
     0
 62
     7
  6
Continuous
290
     1
370
    -3
390
1D
  0
LAYER
  5
41
100
AcDbSymbolTableRecord
100
AcDbLayerTableRecord
  2
25
 70
     0
 62
     7
  6
Continuous
290
     1
370
    -3
390
1D
  0
LAYER
  5
42
100
AcDbSymbolTableRecord
100
AcDbLayerTableRecord
  2
128
 70
     0
 62
     7
  6
Continuous
290
     1
370
    -3
390
1D
  0
LAYER
  5
43
100
AcDbSymbolTableRecord
100
AcDbLayerTableRecord
  2
129
 70
     0
 62
     7
  6
Continuous
290
     1
370
    -3
390
1D
  0
LAYER
  5
44
100
AcDbSymbolTableRecord
100
AcDbLayerTableRecord
  2
130
 70
     0
 62
     7
  6
Continuous
290
     1
370
    -3
390
1D
  0
LAYER
  5
45
100
AcDbSymbolTableRecord
100
AcDbLayerTableRecord
  2
131
 70
     0
 62
     7
  6
Continuous
290
     1
370
    -3
390
1D
  0
LAYER
  5
46
100
AcDbSymbolTableRecord
100
AcDbLayerTableRecord
  2
258
 70
     0
 62
     7
  6
Continuous
290
     1
370
    -3
390
1D
  0
LAYER
  5
47
100
AcDbSymbolTableRecord
100
AcDbLayerTableRecord
  2
260
 70
     0
 62
     7
  6
Continuous
290
     1
370
    -3
390
1D
  0
LAYER
  5
48
100
AcDbSymbolTableRecord
100
AcDbLayerTableRecord
  2
261
 70
     0
 62
     5
  6
Continuous
290
     1
370
    -3
390
1D
  0
ENDTAB
  0
TABLE
  2
STYLE
  5
3
100
AcDbSymbolTable
 70
     2
  0
STYLE
  5
17
100
AcDbSymbolTableRecord
100
AcDbTextStyleTableRecord
  2
Standard
 70
     0
 40
0.0
 41
1.0
 50
0.0
 71
     0
 42
0.0
  3
txt
  4
bigfont
  0
STYLE
  5
24
100
AcDbSymbolTableRecord
100
AcDbTextStyleTableRecord
  2
T_STANDARD
 70
    68
 40
10.0
 41
1.0
 50
0.0
 71
     0
 42
10.0
  3
txt
  4
bigfont
  0
ENDTAB
  0
TABLE
  2
VIEW
  5
5
100
AcDbSymbolTable
 70
     0
  0
ENDTAB
  0
TABLE
  2
UCS
  5
6
100
AcDbSymbolTable
 70
     0
  0
ENDTAB
  0
TABLE
  2
APPID
  5
8
100
AcDbSymbolTable
 70
     1
  0
APPID
  5
16
100
AcDbSymbolTableRecord
100
AcDbRegAppTableRecord
  2
ACAD
 70
     0
  0
ENDTAB
  0
TABLE
  2
DIMSTYLE
  5
9
100
AcDbSymbolTable
 70
     1
100
AcDbDimStyleTable
 71
     0
  0
DIMSTYLE
105
18
100
AcDbSymbolTableRecord
100
AcDbDimStyleTableRecord
  2
Standard
 70
     0
  3

  4

 40
1.0
 41
0.18
 42
0.0625
 43
0.38
 44
0.18
 45
0.0
 46
0.0
 47
0.0
 48
0.0
 71
     0
 72
     0
 73
     1
 74
     1
 75
     0
 76
     0
 77
     0
 78
     0
 79
     0
140
0.18
141
0.09
142
0.0
143
25.4
144
1.0
145
0.0
146
1.0
147
0.09
148
0.0
170
     0
171
     2
172
     0
173
     0
174
     0
175
     0
176
     0
177
     0
178
     0
179
     0
271
     4
272
     4
273
     2
274
     2
275
     0
276
     0
277
     2
278
    46
279
     0
280
     0
281
     0
282
     0
283
     1
284
     0
285
     0
286
     0
288
     0
340
17
341
0
342
0
343
0
344
0
371
    -2
372
    -2
  0
ENDTAB
  0
TABLE
  2
BLOCK_RECORD
  5
1
100
AcDbSymbolTable
 70
   104
  0
BLOCK_RECORD
  5
A
100
AcDbSymbolTableRecord
100
AcDbBlockTableRecord
  2
*MODEL_SPACE
340
20
  0
BLOCK_RECORD
  5
B
100
AcDbSymbolTableRecord
100
AcDbBlockTableRecord
  2
*PAPER_SPACE
340
21
  0
BLOCK_RECORD
  5
49
100
AcDbSymbolTableRecord
100
AcDbBlockTableRecord
  2
*G0
340
0
102
{BLKREFS
331
4C
102
}
  0
BLOCK_RECORD
  5
71
100
AcDbSymbolTableRecord
100
AcDbBlockTableRecord
  2
*G1
340
0
102
{BLKREFS
331
75
102
}
  0
BLOCK_RECORD
  5
138
100
AcDbSymbolTableRecord
100
AcDbBlockTableRecord
  2
*D2
340
0
  0
BLOCK_RECORD
  5
1F9
100
AcDbSymbolTableRecord
100
AcDbBlockTableRecord
  2
*G3
340
0
102
{BLKREFS
331
200
102
}
  0
BLOCK_RECORD
  5
201
100
AcDbSymbolTableRecord
100
AcDbBlockTableRecord
  2
*G4
340
0
102
{BLKREFS
331
208
102
}
  0
BLOCK_RECORD
  5
20C
100
AcDbSymbolTableRecord
100
AcDbBlockTableRecord
  2
*G5
340
0
102
{BLKREFS
331
213
102
}
  0
BLOCK_RECORD
  5
221
100
AcDbSymbolTableRecord
100
AcDbBlockTableRecord
  2
*G6
340
0
102
{BLKREFS
331
228
102
}
  0
BLOCK_RECORD
  5
229
100
AcDbSymbolTableRecord
100
AcDbBlockTableRecord
  2
*G7
340
0
102
{BLKREFS
331
230
102
}
  0
BLOCK_RECORD
  5
234
100
AcDbSymbolTableRecord
100
AcDbBlockTableRecord
  2
*G8
340
0
102
{BLKREFS
331
23B
102
}
  0
BLOCK_RECORD
  5
249
100
AcDbSymbolTableRecord
100
AcDbBlockTableRecord
  2
*G9
340
0
102
{BLKREFS
331
250
102
}
  0
BLOCK_RECORD
  5
251
100
AcDbSymbolTableRecord
100
AcDbBlockTableRecord
  2
*G10
340
0
102
{BLKREFS
331
258
102
}
  0
BLOCK_RECORD
  5
25C
100
AcDbSymbolTableRecord
100
AcDbBlockTableRecord
  2
*G11
340
0
102
{BLKREFS
331
263
102
}
  0
BLOCK_RECORD
  5
271
100
AcDbSymbolTableRecord
100
AcDbBlockTableRecord
  2
*G12
340
0
102
{BLKREFS
331
278
102
}
  0
BLOCK_RECORD
  5
279
100
AcDbSymbolTableRecord
100
AcDbBlockTableRecord
  2
*G13
340
0
102
{BLKREFS
331
280
102
}
  0
BLOCK_RECORD
  5
284
100
AcDbSymbolTableRecord
100
AcDbBlockTableRecord
  2
*G14
340
0
102
{BLKREFS
331
28B
102
}
  0
BLOCK_RECORD
  5
297
100
AcDbSymbolTableRecord
100
AcDbBlockTableRecord
  2
*G15
340
0
102
{BLKREFS
331
29E
102
}
  0
BLOCK_RECORD
  5
29F
100
AcDbSymbolTableRecord
100
AcDbBlockTableRecord
  2
*G16
340
0
102
{BLKREFS
331
2A6
102
}
  0
BLOCK_RECORD
  5
2AA
100
AcDbSymbolTableRecord
100
AcDbBlockTableRecord
  2
*G17
340
0
102
{BLKREFS
331
2B1
102
}
  0
BLOCK_RECORD
  5
2C1
100
AcDbSymbolTableRecord
100
AcDbBlockTableRecord
  2
*G18
340
0
102
{BLKREFS
331
2C8
102
}
  0
BLOCK_RECORD
  5
2C9
100
AcDbSymbolTableRecord
100
AcDbBlockTableRecord
  2
*G19
340
0
102
{BLKREFS
331
2D0
102
}
  0
BLOCK_RECORD
  5
2D4
100
AcDbSymbolTableRecord
100
AcDbBlockTableRecord
  2
*G20
340
0
102
{BLKREFS
331
2DB
102
}
  0
BLOCK_RECORD
  5
2E9
100
AcDbSymbolTableRecord
100
AcDbBlockTableRecord
  2
*G21
340
0
102
{BLKREFS
331
2F0
102
}
  0
BLOCK_RECORD
  5
2F1
100
AcDbSymbolTableRecord
100
AcDbBlockTableRecord
  2
*G22
340
0
102
{BLKREFS
331
2F8
102
}
  0
BLOCK_RECORD
  5
2FC
100
AcDbSymbolTableRecord
100
AcDbBlockTableRecord
  2
*G23
340
0
102
{BLKREFS
331
303
102
}
  0
BLOCK_RECORD
  5
311
100
AcDbSymbolTableRecord
100
AcDbBlockTableRecord
  2
*G24
340
0
102
{BLKREFS
331
318
102
}
  0
BLOCK_RECORD
  5
319
100
AcDbSymbolTableRecord
100
AcDbBlockTableRecord
  2
*G25
340
0
102
{BLKREFS
331
320
102
}
  0
BLOCK_RECORD
  5
324
100
AcDbSymbolTableRecord
100
AcDbBlockTableRecord
  2
*G26
340
0
102
{BLKREFS
331
32B
102
}
  0
BLOCK_RECORD
  5
339
100
AcDbSymbolTableRecord
100
AcDbBlockTableRecord
  2
*G27
340
0
102
{BLKREFS
331
340
102
}
  0
BLOCK_RECORD
  5
341
100
AcDbSymbolTableRecord
100
AcDbBlockTableRecord
  2
*G28
340
0
102
{BLKREFS
331
348
102
}
  0
BLOCK_RECORD
  5
34C
100
AcDbSymbolTableRecord
100
AcDbBlockTableRecord
  2
*G29
340
0
102
{BLKREFS
331
353
102
}
  0
BLOCK_RECORD
  5
35F
100
AcDbSymbolTableRecord
100
AcDbBlockTableRecord
  2
*G30
340
0
102
{BLKREFS
331
366
102
}
  0
BLOCK_RECORD
  5
367
100
AcDbSymbolTableRecord
100
AcDbBlockTableRecord
  2
*G31
340
0
102
{BLKREFS
331
36E
102
}
  0
BLOCK_RECORD
  5
372
100
AcDbSymbolTableRecord
100
AcDbBlockTableRecord
  2
*G32
340
0
102
{BLKREFS
331
379
102
}
  0
BLOCK_RECORD
  5
389
100
AcDbSymbolTableRecord
100
AcDbBlockTableRecord
  2
*G33
340
0
102
{BLKREFS
331
390
102
}
  0
BLOCK_RECORD
  5
391
100
AcDbSymbolTableRecord
100
AcDbBlockTableRecord
  2
*G34
340
0
102
{BLKREFS
331
398
102
}
  0
BLOCK_RECORD
  5
39C
100
AcDbSymbolTableRecord
100
AcDbBlockTableRecord
  2
*G35
340
0
102
{BLKREFS
331
3A3
102
}
  0
BLOCK_RECORD
  5
3B1
100
AcDbSymbolTableRecord
100
AcDbBlockTableRecord
  2
*G36
340
0
102
{BLKREFS
331
3B8
102
}
  0
BLOCK_RECORD
  5
3B9
100
AcDbSymbolTableRecord
100
AcDbBlockTableRecord
  2
*G37
340
0
102
{BLKREFS
331
3C0
102
}
  0
BLOCK_RECORD
  5
3C4
100
AcDbSymbolTableRecord
100
AcDbBlockTableRecord
  2
*G38
340
0
102
{BLKREFS
331
3CB
102
}
  0
BLOCK_RECORD
  5
3D9
100
AcDbSymbolTableRecord
100
AcDbBlockTableRecord
  2
*G39
340
0
102
{BLKREFS
331
3E0
102
}
  0
BLOCK_RECORD
  5
3E1
100
AcDbSymbolTableRecord
100
AcDbBlockTableRecord
  2
*G40
340
0
102
{BLKREFS
331
3E8
102
}
  0
BLOCK_RECORD
  5
3EC
100
AcDbSymbolTableRecord
100
AcDbBlockTableRecord
  2
*G41
340
0
102
{BLKREFS
331
3F3
102
}
  0
BLOCK_RECORD
  5
401
100
AcDbSymbolTableRecord
100
AcDbBlockTableRecord
  2
*G42
340
0
102
{BLKREFS
331
408
102
}
  0
BLOCK_RECORD
  5
409
100
AcDbSymbolTableRecord
100
AcDbBlockTableRecord
  2
*G43
340
0
102
{BLKREFS
331
410
102
}
  0
BLOCK_RECORD
  5
414
100
AcDbSymbolTableRecord
100
AcDbBlockTableRecord
  2
*G44
340
0
102
{BLKREFS
331
41B
102
}
  0
BLOCK_RECORD
  5
427
100
AcDbSymbolTableRecord
100
AcDbBlockTableRecord
  2
*G45
340
0
102
{BLKREFS
331
42E
102
}
  0
BLOCK_RECORD
  5
42F
100
AcDbSymbolTableRecord
100
AcDbBlockTableRecord
  2
*G46
340
0
102
{BLKREFS
331
436
102
}
  0
BLOCK_RECORD
  5
43A
100
AcDbSymbolTableRecord
100
AcDbBlockTableRecord
  2
*G47
340
0
102
{BLKREFS
331
441
102
}
  0
BLOCK_RECORD
  5
451
100
AcDbSymbolTableRecord
100
AcDbBlockTableRecord
  2
*G48
340
0
102
{BLKREFS
331
458
102
}
  0
BLOCK_RECORD
  5
459
100
AcDbSymbolTableRecord
100
AcDbBlockTableRecord
  2
*G49
340
0
102
{BLKREFS
331
460
102
}
  0
BLOCK_RECORD
  5
464
100
AcDbSymbolTableRecord
100
AcDbBlockTableRecord
  2
*G50
340
0
102
{BLKREFS
331
46B
102
}
  0
BLOCK_RECORD
  5
479
100
AcDbSymbolTableRecord
100
AcDbBlockTableRecord
  2
*G51
340
0
102
{BLKREFS
331
480
102
}
  0
BLOCK_RECORD
  5
481
100
AcDbSymbolTableRecord
100
AcDbBlockTableRecord
  2
*G52
340
0
102
{BLKREFS
331
488
102
}
  0
BLOCK_RECORD
  5
48C
100
AcDbSymbolTableRecord
100
AcDbBlockTableRecord
  2
*G53
340
0
102
{BLKREFS
331
493
102
}
  0
BLOCK_RECORD
  5
4A1
100
AcDbSymbolTableRecord
100
AcDbBlockTableRecord
  2
*G54
340
0
102
{BLKREFS
331
4A8
102
}
  0
BLOCK_RECORD
  5
4A9
100
AcDbSymbolTableRecord
100
AcDbBlockTableRecord
  2
*G55
340
0
102
{BLKREFS
331
4B0
102
}
  0
BLOCK_RECORD
  5
4B4
100
AcDbSymbolTableRecord
100
AcDbBlockTableRecord
  2
*G56
340
0
102
{BLKREFS
331
4BB
102
}
  0
BLOCK_RECORD
  5
4C9
100
AcDbSymbolTableRecord
100
AcDbBlockTableRecord
  2
*G57
340
0
102
{BLKREFS
331
4D0
102
}
  0
BLOCK_RECORD
  5
4D1
100
AcDbSymbolTableRecord
100
AcDbBlockTableRecord
  2
*G58
340
0
102
{BLKREFS
331
4D8
102
}
  0
BLOCK_RECORD
  5
4DC
100
AcDbSymbolTableRecord
100
AcDbBlockTableRecord
  2
*G59
340
0
102
{BLKREFS
331
4E3
102
}
  0
BLOCK_RECORD
  5
4EF
100
AcDbSymbolTableRecord
100
AcDbBlockTableRecord
  2
*G60
340
0
102
{BLKREFS
331
4F6
102
}
  0
BLOCK_RECORD
  5
4F7
100
AcDbSymbolTableRecord
100
AcDbBlockTableRecord
  2
*G61
340
0
102
{BLKREFS
331
4FE
102
}
  0
BLOCK_RECORD
  5
502
100
AcDbSymbolTableRecord
100
AcDbBlockTableRecord
  2
*G62
340
0
102
{BLKREFS
331
509
102
}
  0
BLOCK_RECORD
  5
519
100
AcDbSymbolTableRecord
100
AcDbBlockTableRecord
  2
*G63
340
0
102
{BLKREFS
331
520
102
}
  0
BLOCK_RECORD
  5
521
100
AcDbSymbolTableRecord
100
AcDbBlockTableRecord
  2
*G64
340
0
102
{BLKREFS
331
528
102
}
  0
BLOCK_RECORD
  5
52C
100
AcDbSymbolTableRecord
100
AcDbBlockTableRecord
  2
*G65
340
0
102
{BLKREFS
331
533
102
}
  0
BLOCK_RECORD
  5
541
100
AcDbSymbolTableRecord
100
AcDbBlockTableRecord
  2
*G66
340
0
102
{BLKREFS
331
548
102
}
  0
BLOCK_RECORD
  5
549
100
AcDbSymbolTableRecord
100
AcDbBlockTableRecord
  2
*G67
340
0
102
{BLKREFS
331
550
102
}
  0
BLOCK_RECORD
  5
554
100
AcDbSymbolTableRecord
100
AcDbBlockTableRecord
  2
*G68
340
0
102
{BLKREFS
331
55B
102
}
  0
BLOCK_RECORD
  5
569
100
AcDbSymbolTableRecord
100
AcDbBlockTableRecord
  2
*G69
340
0
102
{BLKREFS
331
570
102
}
  0
BLOCK_RECORD
  5
571
100
AcDbSymbolTableRecord
100
AcDbBlockTableRecord
  2
*G70
340
0
102
{BLKREFS
331
578
102
}
  0
BLOCK_RECORD
  5
57C
100
AcDbSymbolTableRecord
100
AcDbBlockTableRecord
  2
*G71
340
0
102
{BLKREFS
331
583
102
}
  0
BLOCK_RECORD
  5
591
100
AcDbSymbolTableRecord
100
AcDbBlockTableRecord
  2
*G72
340
0
102
{BLKREFS
331
598
102
}
  0
BLOCK_RECORD
  5
599
100
AcDbSymbolTableRecord
100
AcDbBlockTableRecord
  2
*G73
340
0
102
{BLKREFS
331
5A0
102
}
  0
BLOCK_RECORD
  5
5A4
100
AcDbSymbolTableRecord
100
AcDbBlockTableRecord
  2
*G74
340
0
102
{BLKREFS
331
5AB
102
}
  0
BLOCK_RECORD
  5
5B7
100
AcDbSymbolTableRecord
100
AcDbBlockTableRecord
  2
*G75
340
0
102
{BLKREFS
331
5BE
102
}
  0
BLOCK_RECORD
  5
5BF
100
AcDbSymbolTableRecord
100
AcDbBlockTableRecord
  2
*G76
340
0
102
{BLKREFS
331
5C6
102
}
  0
BLOCK_RECORD
  5
5CA
100
AcDbSymbolTableRecord
100
AcDbBlockTableRecord
  2
*G77
340
0
102
{BLKREFS
331
5D1
102
}
  0
BLOCK_RECORD
  5
5D6
100
AcDbSymbolTableRecord
100
AcDbBlockTableRecord
  2
*G78
340
0
102
{BLKREFS
331
5DD
102
}
  0
BLOCK_RECORD
  5
5E0
100
AcDbSymbolTableRecord
100
AcDbBlockTableRecord
  2
*G79
340
0
102
{BLKREFS
331
5E7
102
}
  0
BLOCK_RECORD
  5
5EA
100
AcDbSymbolTableRecord
100
AcDbBlockTableRecord
  2
*G80
340
0
102
{BLKREFS
331
5F1
102
}
  0
BLOCK_RECORD
  5
5F4
100
AcDbSymbolTableRecord
100
AcDbBlockTableRecord
  2
*G81
340
0
102
{BLKREFS
331
5FB
102
}
  0
BLOCK_RECORD
  5
5FC
100
AcDbSymbolTableRecord
100
AcDbBlockTableRecord
  2
*G82
340
0
102
{BLKREFS
331
603
102
}
  0
BLOCK_RECORD
  5
614
100
AcDbSymbolTableRecord
100
AcDbBlockTableRecord
  2
*G83
340
0
102
{BLKREFS
331
61B
102
}
  0
BLOCK_RECORD
  5
61C
100
AcDbSymbolTableRecord
100
AcDbBlockTableRecord
  2
*G84
340
0
102
{BLKREFS
331
623
102
}
  0
BLOCK_RECORD
  5
627
100
AcDbSymbolTableRecord
100
AcDbBlockTableRecord
  2
*G85
340
0
102
{BLKREFS
331
62E
102
}
  0
BLOCK_RECORD
  5
631
100
AcDbSymbolTableRecord
100
AcDbBlockTableRecord
  2
*D86
340
0
  0
BLOCK_RECORD
  5
63D
100
AcDbSymbolTableRecord
100
AcDbBlockTableRecord
  2
*D87
340
0
  0
BLOCK_RECORD
  5
659
100
AcDbSymbolTableRecord
100
AcDbBlockTableRecord
  2
*D88
340
0
  0
BLOCK_RECORD
  5
665
100
AcDbSymbolTableRecord
100
AcDbBlockTableRecord
  2
*D89
340
0
  0
BLOCK_RECORD
  5
68A
100
AcDbSymbolTableRecord
100
AcDbBlockTableRecord
  2
*G90
340
0
102
{BLKREFS
331
691
102
}
  0
BLOCK_RECORD
  5
692
100
AcDbSymbolTableRecord
100
AcDbBlockTableRecord
  2
*D91
340
0
  0
BLOCK_RECORD
  5
69E
100
AcDbSymbolTableRecord
100
AcDbBlockTableRecord
  2
*D92
340
0
  0
BLOCK_RECORD
  5
6AB
100
AcDbSymbolTableRecord
100
AcDbBlockTableRecord
  2
*D93
340
0
  0
BLOCK_RECORD
  5
6E4
100
AcDbSymbolTableRecord
100
AcDbBlockTableRecord
  2
*G94
340
0
102
{BLKREFS
331
6EB
102
}
  0
BLOCK_RECORD
  5
6EC
100
AcDbSymbolTableRecord
100
AcDbBlockTableRecord
  2
*G95
340
0
102
{BLKREFS
331
6F3
102
}
  0
BLOCK_RECORD
  5
6F7
100
AcDbSymbolTableRecord
100
AcDbBlockTableRecord
  2
*G96
340
0
102
{BLKREFS
331
6FE
102
}
  0
BLOCK_RECORD
  5
73C
100
AcDbSymbolTableRecord
100
AcDbBlockTableRecord
  2
*G97
340
0
102
{BLKREFS
331
743
102
}
  0
BLOCK_RECORD
  5
744
100
AcDbSymbolTableRecord
100
AcDbBlockTableRecord
  2
*G98
340
0
102
{BLKREFS
331
74B
102
}
  0
BLOCK_RECORD
  5
74F
100
AcDbSymbolTableRecord
100
AcDbBlockTableRecord
  2
*G99
340
0
102
{BLKREFS
331
756
102
}
  0
BLOCK_RECORD
  5
788
100
AcDbSymbolTableRecord
100
AcDbBlockTableRecord
  2
*G100
340
0
102
{BLKREFS
331
78F
102
}
  0
BLOCK_RECORD
  5
793
100
AcDbSymbolTableRecord
100
AcDbBlockTableRecord
  2
*G101
340
0
102
{BLKREFS
331
79A
102
}
  0
BLOCK_RECORD
  5
79B
100
AcDbSymbolTableRecord
100
AcDbBlockTableRecord
  2
*G102
340
0
102
{BLKREFS
331
7A2
102
}
  0
BLOCK_RECORD
  5
7B5
100
AcDbSymbolTableRecord
100
AcDbBlockTableRecord
  2
*G103
340
0
102
{BLKREFS
331
7BB
102
}
  0
ENDTAB
  0
ENDSEC
  0
SECTION
  2
BLOCKS
  0
BLOCK
  5
D
100
AcDbEntity
  8
0
100
AcDbBlockBegin
  2
*MODEL_SPACE
 70
     0
 10
0.0
 20
0.0
 30
0.0
  3
*MODEL_SPACE
  1

  0
ENDBLK
  5
E
100
AcDbEntity
  8
0
100
AcDbBlockEnd
  0
BLOCK
  5
F
100
AcDbEntity
 67
     1
  8
0
100
AcDbBlockBegin
  2
*PAPER_SPACE
 70
     0
 10
0.0
 20
0.0
 30
0.0
  3
*PAPER_SPACE
  1

  0
ENDBLK
  5
10
100
AcDbEntity
 67
     1
  8
0
100
AcDbBlockEnd
  0
BLOCK
  5
4A
100
AcDbEntity
  8
0
370
     9
  6
Continuous
 62
     7
100
AcDbBlockBegin
  2
*G0
 70
     0
 10
0.0
 20
0.0
 30
0.0
  3
*G0
  1

  0
ENDBLK
  5
4B
100
AcDbEntity
  8
0
100
AcDbBlockEnd
  0
BLOCK
  5
72
100
AcDbEntity
  8
0
370
     9
  6
Continuous
 62
    96
100
AcDbBlockBegin
  2
*G1
 70
     0
 10
0.0
 20
0.0
 30
0.0
  3
*G1
  1

  0
LINE
  5
73
100
AcDbEntity
  8
15
370
     9
  6
Continuous
 62
    96
100
AcDbLine
 10
3246.02461
 20
255.902241
 30
0.0
 11
3248.692846
 21
255.902241
 31
0.0
  0
ENDBLK
  5
74
100
AcDbEntity
  8
0
100
AcDbBlockEnd
  0
BLOCK
  5
139
100
AcDbEntity
  8
2
370
     9
  6
Continuous
 62
   214
100
AcDbBlockBegin
  2
*D2
 70
     0
 10
0.0
 20
0.0
 30
0.0
  3
*D2
  1

  0
LINE
  5
13A
100
AcDbEntity
  8
2
370
     9
  6
Continuous
 62
   214
100
AcDbLine
 10
1539.233026
 20
2432.045029
 30
0.0
 11
1659.233026
 21
2432.045029
 31
0.0
  0
LINE
  5
13B
100
AcDbEntity
  8
2
370
     9
  6
Continuous
 62
   214
100
AcDbLine
 10
1539.233026
 20
2452.045029
 30
0.0
 11
1539.233026
 21
2349.827431
 31
0.0
  0
LINE
  5
13C
100
AcDbEntity
  8
2
370
     9
  6
Continuous
 62
   214
100
AcDbLine
 10
1659.233026
 20
2452.045029
 30
0.0
 11
1659.233026
 21
2350.622251
 31
0.0
  0
LINE
  5
13D
100
AcDbEntity
  8
2
370
     9
  6
Continuous
 62
   214
100
AcDbLine
 10
1539.233026
 20
2432.045029
 30
0.0
 11
1562.415246
 21
2438.256686
 31
0.0
  0
LINE
  5
13E
100
AcDbEntity
  8
2
370
     9
  6
Continuous
 62
   214
100
AcDbLine
 10
1539.233026
 20
2432.045029
 30
0.0
 11
1562.415246
 21
2425.833372
 31
0.0
  0
LINE
  5
13F
100
AcDbEntity
  8
2
370
     9
  6
Continuous
 62
   214
100
AcDbLine
 10
1659.233026
 20
2432.045029
 30
0.0
 11
1636.050806
 21
2425.833372
 31
0.0
  0
LINE
  5
140
100
AcDbEntity
  8
2
370
     9
  6
Continuous
 62
   214
100
AcDbLine
 10
1659.233026
 20
2432.045029
 30
0.0
 11
1636.050806
 21
2438.256686
 31
0.0
  0
TEXT
  5
141
100
AcDbEntity
  8
2
370
     9
  6
Continuous
 62
   214
100
AcDbText
 10
1574.733026
 20
2437.045029
 30
0.0
 40
30.0
  1
120
 41
0.544444
 11
1574.733026
 21
2437.045029
 31
0.0
100
AcDbText
 73
     1
  0
ENDBLK
  5
142
100
AcDbEntity
  8
2
370
     9
  6
Continuous
 62
   214
100
AcDbBlockEnd
  0
BLOCK
  5
1FA
100
AcDbEntity
  8
0
370
    30
  6
Continuous
 62
     7
100
AcDbBlockBegin
  2
*G3
 70
     0
 10
0.0
 20
0.0
 30
0.0
  3
*G3
  1

  0
LINE
  5
1FB
100
AcDbEntity
  8
1
370
    30
  6
Continuous
 62
     7
100
AcDbLine
 10
917.745443
 20
2139.045191
 30
0.0
 11
917.745443
 21
2126.045191
 31
0.0
  0
LINE
  5
1FC
100
AcDbEntity
  8
1
370
    30
  6
Continuous
 62
     7
100
AcDbLine
 10
917.745443
 20
2126.045191
 30
0.0
 11
930.745443
 21
2126.045191
 31
0.0
  0
LINE
  5
1FD
100
AcDbEntity
  8
1
370
    30
  6
Continuous
 62
     7
100
AcDbLine
 10
930.745443
 20
2126.045191
 30
0.0
 11
930.745443
 21
2139.045191
 31
0.0
  0
LINE
  5
1FE
100
AcDbEntity
  8
1
370
    30
  6
Continuous
 62
     7
100
AcDbLine
 10
930.745443
 20
2139.045191
 30
0.0
 11
917.745443
 21
2139.045191
 31
0.0
  0
ENDBLK
  5
1FF
100
AcDbEntity
  8
0
100
AcDbBlockEnd
  0
BLOCK
  5
202
100
AcDbEntity
  8
0
370
    30
  6
Continuous
 62
     7
100
AcDbBlockBegin
  2
*G4
 70
     0
 10
0.0
 20
0.0
 30
0.0
  3
*G4
  1

  0
LINE
  5
203
100
AcDbEntity
  8
1
370
    30
  6
Continuous
 62
     7
100
AcDbLine
 10
917.745443
 20
2164.045191
 30
0.0
 11
917.745443
 21
2151.045191
 31
0.0
  0
LINE
  5
204
100
AcDbEntity
  8
1
370
    30
  6
Continuous
 62
     7
100
AcDbLine
 10
917.745443
 20
2151.045191
 30
0.0
 11
930.745443
 21
2151.045191
 31
0.0
  0
LINE
  5
205
100
AcDbEntity
  8
1
370
    30
  6
Continuous
 62
     7
100
AcDbLine
 10
930.745443
 20
2151.045191
 30
0.0
 11
930.745443
 21
2164.045191
 31
0.0
  0
LINE
  5
206
100
AcDbEntity
  8
1
370
    30
  6
Continuous
 62
     7
100
AcDbLine
 10
930.745443
 20
2164.045191
 30
0.0
 11
917.745443
 21
2164.045191
 31
0.0
  0
ENDBLK
  5
207
100
AcDbEntity
  8
0
100
AcDbBlockEnd
  0
BLOCK
  5
20D
100
AcDbEntity
  8
0
370
    30
  6
Continuous
 62
     7
100
AcDbBlockBegin
  2
*G5
 70
     0
 10
0.0
 20
0.0
 30
0.0
  3
*G5
  1

  0
LINE
  5
20E
100
AcDbEntity
  8
1
370
    30
  6
Continuous
 62
     7
100
AcDbLine
 10
909.245443
 20
2270.045191
 30
0.0
 11
909.245443
 21
2110.045191
 31
0.0
  0
LINE
  5
20F
100
AcDbEntity
  8
1
370
    30
  6
Continuous
 62
     7
100
AcDbLine
 10
909.245443
 20
2110.045191
 30
0.0
 11
939.245443
 21
2110.045191
 31
0.0
  0
LINE
  5
210
100
AcDbEntity
  8
1
370
    30
  6
Continuous
 62
     7
100
AcDbLine
 10
939.245443
 20
2110.045191
 30
0.0
 11
939.245443
 21
2270.045191
 31
0.0
  0
LINE
  5
211
100
AcDbEntity
  8
1
370
    30
  6
Continuous
 62
     7
100
AcDbLine
 10
939.245443
 20
2270.045191
 30
0.0
 11
909.245443
 21
2270.045191
 31
0.0
  0
ENDBLK
  5
212
100
AcDbEntity
  8
0
100
AcDbBlockEnd
  0
BLOCK
  5
222
100
AcDbEntity
  8
0
370
    30
  6
Continuous
 62
     7
100
AcDbBlockBegin
  2
*G6
 70
     0
 10
0.0
 20
0.0
 30
0.0
  3
*G6
  1

  0
LINE
  5
223
100
AcDbEntity
  8
1
370
    30
  6
Continuous
 62
     7
100
AcDbLine
 10
887.745443
 20
2139.045191
 30
0.0
 11
887.745443
 21
2126.045191
 31
0.0
  0
LINE
  5
224
100
AcDbEntity
  8
1
370
    30
  6
Continuous
 62
     7
100
AcDbLine
 10
887.745443
 20
2126.045191
 30
0.0
 11
900.745443
 21
2126.045191
 31
0.0
  0
LINE
  5
225
100
AcDbEntity
  8
1
370
    30
  6
Continuous
 62
     7
100
AcDbLine
 10
900.745443
 20
2126.045191
 30
0.0
 11
900.745443
 21
2139.045191
 31
0.0
  0
LINE
  5
226
100
AcDbEntity
  8
1
370
    30
  6
Continuous
 62
     7
100
AcDbLine
 10
900.745443
 20
2139.045191
 30
0.0
 11
887.745443
 21
2139.045191
 31
0.0
  0
ENDBLK
  5
227
100
AcDbEntity
  8
0
100
AcDbBlockEnd
  0
BLOCK
  5
22A
100
AcDbEntity
  8
0
370
    30
  6
Continuous
 62
     7
100
AcDbBlockBegin
  2
*G7
 70
     0
 10
0.0
 20
0.0
 30
0.0
  3
*G7
  1

  0
LINE
  5
22B
100
AcDbEntity
  8
1
370
    30
  6
Continuous
 62
     7
100
AcDbLine
 10
887.745443
 20
2164.045191
 30
0.0
 11
887.745443
 21
2151.045191
 31
0.0
  0
LINE
  5
22C
100
AcDbEntity
  8
1
370
    30
  6
Continuous
 62
     7
100
AcDbLine
 10
887.745443
 20
2151.045191
 30
0.0
 11
900.745443
 21
2151.045191
 31
0.0
  0
LINE
  5
22D
100
AcDbEntity
  8
1
370
    30
  6
Continuous
 62
     7
100
AcDbLine
 10
900.745443
 20
2151.045191
 30
0.0
 11
900.745443
 21
2164.045191
 31
0.0
  0
LINE
  5
22E
100
AcDbEntity
  8
1
370
    30
  6
Continuous
 62
     7
100
AcDbLine
 10
900.745443
 20
2164.045191
 30
0.0
 11
887.745443
 21
2164.045191
 31
0.0
  0
ENDBLK
  5
22F
100
AcDbEntity
  8
0
100
AcDbBlockEnd
  0
BLOCK
  5
235
100
AcDbEntity
  8
0
370
    30
  6
Continuous
 62
     7
100
AcDbBlockBegin
  2
*G8
 70
     0
 10
0.0
 20
0.0
 30
0.0
  3
*G8
  1

  0
LINE
  5
236
100
AcDbEntity
  8
1
370
    30
  6
Continuous
 62
     7
100
AcDbLine
 10
879.245443
 20
2270.045191
 30
0.0
 11
879.245443
 21
2110.045191
 31
0.0
  0
LINE
  5
237
100
AcDbEntity
  8
1
370
    30
  6
Continuous
 62
     7
100
AcDbLine
 10
879.245443
 20
2110.045191
 30
0.0
 11
909.245443
 21
2110.045191
 31
0.0
  0
LINE
  5
238
100
AcDbEntity
  8
1
370
    30
  6
Continuous
 62
     7
100
AcDbLine
 10
909.245443
 20
2110.045191
 30
0.0
 11
909.245443
 21
2270.045191
 31
0.0
  0
LINE
  5
239
100
AcDbEntity
  8
1
370
    30
  6
Continuous
 62
     7
100
AcDbLine
 10
909.245443
 20
2270.045191
 30
0.0
 11
879.245443
 21
2270.045191
 31
0.0
  0
ENDBLK
  5
23A
100
AcDbEntity
  8
0
100
AcDbBlockEnd
  0
BLOCK
  5
24A
100
AcDbEntity
  8
0
370
    30
  6
Continuous
 62
     7
100
AcDbBlockBegin
  2
*G9
 70
     0
 10
0.0
 20
0.0
 30
0.0
  3
*G9
  1

  0
LINE
  5
24B
100
AcDbEntity
  8
1
370
    30
  6
Continuous
 62
     7
100
AcDbLine
 10
857.745443
 20
2139.045191
 30
0.0
 11
857.745443
 21
2126.045191
 31
0.0
  0
LINE
  5
24C
100
AcDbEntity
  8
1
370
    30
  6
Continuous
 62
     7
100
AcDbLine
 10
857.745443
 20
2126.045191
 30
0.0
 11
870.745443
 21
2126.045191
 31
0.0
  0
LINE
  5
24D
100
AcDbEntity
  8
1
370
    30
  6
Continuous
 62
     7
100
AcDbLine
 10
870.745443
 20
2126.045191
 30
0.0
 11
870.745443
 21
2139.045191
 31
0.0
  0
LINE
  5
24E
100
AcDbEntity
  8
1
370
    30
  6
Continuous
 62
     7
100
AcDbLine
 10
870.745443
 20
2139.045191
 30
0.0
 11
857.745443
 21
2139.045191
 31
0.0
  0
ENDBLK
  5
24F
100
AcDbEntity
  8
0
100
AcDbBlockEnd
  0
BLOCK
  5
252
100
AcDbEntity
  8
0
370
    30
  6
Continuous
 62
     7
100
AcDbBlockBegin
  2
*G10
 70
     0
 10
0.0
 20
0.0
 30
0.0
  3
*G10
  1

  0
LINE
  5
253
100
AcDbEntity
  8
1
370
    30
  6
Continuous
 62
     7
100
AcDbLine
 10
857.745443
 20
2164.045191
 30
0.0
 11
857.745443
 21
2151.045191
 31
0.0
  0
LINE
  5
254
100
AcDbEntity
  8
1
370
    30
  6
Continuous
 62
     7
100
AcDbLine
 10
857.745443
 20
2151.045191
 30
0.0
 11
870.745443
 21
2151.045191
 31
0.0
  0
LINE
  5
255
100
AcDbEntity
  8
1
370
    30
  6
Continuous
 62
     7
100
AcDbLine
 10
870.745443
 20
2151.045191
 30
0.0
 11
870.745443
 21
2164.045191
 31
0.0
  0
LINE
  5
256
100
AcDbEntity
  8
1
370
    30
  6
Continuous
 62
     7
100
AcDbLine
 10
870.745443
 20
2164.045191
 30
0.0
 11
857.745443
 21
2164.045191
 31
0.0
  0
ENDBLK
  5
257
100
AcDbEntity
  8
0
100
AcDbBlockEnd
  0
BLOCK
  5
25D
100
AcDbEntity
  8
0
370
    30
  6
Continuous
 62
     7
100
AcDbBlockBegin
  2
*G11
 70
     0
 10
0.0
 20
0.0
 30
0.0
  3
*G11
  1

  0
LINE
  5
25E
100
AcDbEntity
  8
1
370
    30
  6
Continuous
 62
     7
100
AcDbLine
 10
849.245443
 20
2270.045191
 30
0.0
 11
849.245443
 21
2110.045191
 31
0.0
  0
LINE
  5
25F
100
AcDbEntity
  8
1
370
    30
  6
Continuous
 62
     7
100
AcDbLine
 10
849.245443
 20
2110.045191
 30
0.0
 11
879.245443
 21
2110.045191
 31
0.0
  0
LINE
  5
260
100
AcDbEntity
  8
1
370
    30
  6
Continuous
 62
     7
100
AcDbLine
 10
879.245443
 20
2110.045191
 30
0.0
 11
879.245443
 21
2270.045191
 31
0.0
  0
LINE
  5
261
100
AcDbEntity
  8
1
370
    30
  6
Continuous
 62
     7
100
AcDbLine
 10
879.245443
 20
2270.045191
 30
0.0
 11
849.245443
 21
2270.045191
 31
0.0
  0
ENDBLK
  5
262
100
AcDbEntity
  8
0
100
AcDbBlockEnd
  0
BLOCK
  5
272
100
AcDbEntity
  8
0
370
    30
  6
Continuous
 62
     7
100
AcDbBlockBegin
  2
*G12
 70
     0
 10
0.0
 20
0.0
 30
0.0
  3
*G12
  1

  0
LINE
  5
273
100
AcDbEntity
  8
1
370
    30
  6
Continuous
 62
     7
100
AcDbLine
 10
827.745443
 20
2139.045191
 30
0.0
 11
827.745443
 21
2126.045191
 31
0.0
  0
LINE
  5
274
100
AcDbEntity
  8
1
370
    30
  6
Continuous
 62
     7
100
AcDbLine
 10
827.745443
 20
2126.045191
 30
0.0
 11
840.745443
 21
2126.045191
 31
0.0
  0
LINE
  5
275
100
AcDbEntity
  8
1
370
    30
  6
Continuous
 62
     7
100
AcDbLine
 10
840.745443
 20
2126.045191
 30
0.0
 11
840.745443
 21
2139.045191
 31
0.0
  0
LINE
  5
276
100
AcDbEntity
  8
1
370
    30
  6
Continuous
 62
     7
100
AcDbLine
 10
840.745443
 20
2139.045191
 30
0.0
 11
827.745443
 21
2139.045191
 31
0.0
  0
ENDBLK
  5
277
100
AcDbEntity
  8
0
100
AcDbBlockEnd
  0
BLOCK
  5
27A
100
AcDbEntity
  8
0
370
    30
  6
Continuous
 62
     7
100
AcDbBlockBegin
  2
*G13
 70
     0
 10
0.0
 20
0.0
 30
0.0
  3
*G13
  1

  0
LINE
  5
27B
100
AcDbEntity
  8
1
370
    30
  6
Continuous
 62
     7
100
AcDbLine
 10
827.745443
 20
2164.045191
 30
0.0
 11
827.745443
 21
2151.045191
 31
0.0
  0
LINE
  5
27C
100
AcDbEntity
  8
1
370
    30
  6
Continuous
 62
     7
100
AcDbLine
 10
827.745443
 20
2151.045191
 30
0.0
 11
840.745443
 21
2151.045191
 31
0.0
  0
LINE
  5
27D
100
AcDbEntity
  8
1
370
    30
  6
Continuous
 62
     7
100
AcDbLine
 10
840.745443
 20
2151.045191
 30
0.0
 11
840.745443
 21
2164.045191
 31
0.0
  0
LINE
  5
27E
100
AcDbEntity
  8
1
370
    30
  6
Continuous
 62
     7
100
AcDbLine
 10
840.745443
 20
2164.045191
 30
0.0
 11
827.745443
 21
2164.045191
 31
0.0
  0
ENDBLK
  5
27F
100
AcDbEntity
  8
0
100
AcDbBlockEnd
  0
BLOCK
  5
285
100
AcDbEntity
  8
0
370
    30
  6
Continuous
 62
     7
100
AcDbBlockBegin
  2
*G14
 70
     0
 10
0.0
 20
0.0
 30
0.0
  3
*G14
  1

  0
LINE
  5
286
100
AcDbEntity
  8
1
370
    30
  6
Continuous
 62
     7
100
AcDbLine
 10
819.245443
 20
2270.045191
 30
0.0
 11
819.245443
 21
2110.045191
 31
0.0
  0
LINE
  5
287
100
AcDbEntity
  8
1
370
    30
  6
Continuous
 62
     7
100
AcDbLine
 10
819.245443
 20
2110.045191
 30
0.0
 11
849.245443
 21
2110.045191
 31
0.0
  0
LINE
  5
288
100
AcDbEntity
  8
1
370
    30
  6
Continuous
 62
     7
100
AcDbLine
 10
849.245443
 20
2110.045191
 30
0.0
 11
849.245443
 21
2270.045191
 31
0.0
  0
LINE
  5
289
100
AcDbEntity
  8
1
370
    30
  6
Continuous
 62
     7
100
AcDbLine
 10
849.245443
 20
2270.045191
 30
0.0
 11
819.245443
 21
2270.045191
 31
0.0
  0
ENDBLK
  5
28A
100
AcDbEntity
  8
0
100
AcDbBlockEnd
  0
BLOCK
  5
298
100
AcDbEntity
  8
0
370
    30
  6
Continuous
 62
     7
100
AcDbBlockBegin
  2
*G15
 70
     0
 10
0.0
 20
0.0
 30
0.0
  3
*G15
  1

  0
LINE
  5
299
100
AcDbEntity
  8
1
370
    30
  6
Continuous
 62
     7
100
AcDbLine
 10
797.745443
 20
2139.045191
 30
0.0
 11
797.745443
 21
2126.045191
 31
0.0
  0
LINE
  5
29A
100
AcDbEntity
  8
1
370
    30
  6
Continuous
 62
     7
100
AcDbLine
 10
797.745443
 20
2126.045191
 30
0.0
 11
810.745443
 21
2126.045191
 31
0.0
  0
LINE
  5
29B
100
AcDbEntity
  8
1
370
    30
  6
Continuous
 62
     7
100
AcDbLine
 10
810.745443
 20
2126.045191
 30
0.0
 11
810.745443
 21
2139.045191
 31
0.0
  0
LINE
  5
29C
100
AcDbEntity
  8
1
370
    30
  6
Continuous
 62
     7
100
AcDbLine
 10
810.745443
 20
2139.045191
 30
0.0
 11
797.745443
 21
2139.045191
 31
0.0
  0
ENDBLK
  5
29D
100
AcDbEntity
  8
0
100
AcDbBlockEnd
  0
BLOCK
  5
2A0
100
AcDbEntity
  8
0
370
    30
  6
Continuous
 62
     7
100
AcDbBlockBegin
  2
*G16
 70
     0
 10
0.0
 20
0.0
 30
0.0
  3
*G16
  1

  0
LINE
  5
2A1
100
AcDbEntity
  8
1
370
    30
  6
Continuous
 62
     7
100
AcDbLine
 10
797.745443
 20
2164.045191
 30
0.0
 11
797.745443
 21
2151.045191
 31
0.0
  0
LINE
  5
2A2
100
AcDbEntity
  8
1
370
    30
  6
Continuous
 62
     7
100
AcDbLine
 10
797.745443
 20
2151.045191
 30
0.0
 11
810.745443
 21
2151.045191
 31
0.0
  0
LINE
  5
2A3
100
AcDbEntity
  8
1
370
    30
  6
Continuous
 62
     7
100
AcDbLine
 10
810.745443
 20
2151.045191
 30
0.0
 11
810.745443
 21
2164.045191
 31
0.0
  0
LINE
  5
2A4
100
AcDbEntity
  8
1
370
    30
  6
Continuous
 62
     7
100
AcDbLine
 10
810.745443
 20
2164.045191
 30
0.0
 11
797.745443
 21
2164.045191
 31
0.0
  0
ENDBLK
  5
2A5
100
AcDbEntity
  8
0
100
AcDbBlockEnd
  0
BLOCK
  5
2AB
100
AcDbEntity
  8
0
370
    30
  6
Continuous
 62
     7
100
AcDbBlockBegin
  2
*G17
 70
     0
 10
0.0
 20
0.0
 30
0.0
  3
*G17
  1

  0
LINE
  5
2AC
100
AcDbEntity
  8
1
370
    30
  6
Continuous
 62
     7
100
AcDbLine
 10
789.245443
 20
2270.045191
 30
0.0
 11
789.245443
 21
2110.045191
 31
0.0
  0
LINE
  5
2AD
100
AcDbEntity
  8
1
370
    30
  6
Continuous
 62
     7
100
AcDbLine
 10
789.245443
 20
2110.045191
 30
0.0
 11
819.245443
 21
2110.045191
 31
0.0
  0
LINE
  5
2AE
100
AcDbEntity
  8
1
370
    30
  6
Continuous
 62
     7
100
AcDbLine
 10
819.245443
 20
2110.045191
 30
0.0
 11
819.245443
 21
2270.045191
 31
0.0
  0
LINE
  5
2AF
100
AcDbEntity
  8
1
370
    30
  6
Continuous
 62
     7
100
AcDbLine
 10
819.245443
 20
2270.045191
 30
0.0
 11
789.245443
 21
2270.045191
 31
0.0
  0
ENDBLK
  5
2B0
100
AcDbEntity
  8
0
100
AcDbBlockEnd
  0
BLOCK
  5
2C2
100
AcDbEntity
  8
0
370
    30
  6
Continuous
 62
     7
100
AcDbBlockBegin
  2
*G18
 70
     0
 10
0.0
 20
0.0
 30
0.0
  3
*G18
  1

  0
LINE
  5
2C3
100
AcDbEntity
  8
1
370
    30
  6
Continuous
 62
     7
100
AcDbLine
 10
1067.745443
 20
2139.045191
 30
0.0
 11
1067.745443
 21
2126.045191
 31
0.0
  0
LINE
  5
2C4
100
AcDbEntity
  8
1
370
    30
  6
Continuous
 62
     7
100
AcDbLine
 10
1067.745443
 20
2126.045191
 30
0.0
 11
1080.745443
 21
2126.045191
 31
0.0
  0
LINE
  5
2C5
100
AcDbEntity
  8
1
370
    30
  6
Continuous
 62
     7
100
AcDbLine
 10
1080.745443
 20
2126.045191
 30
0.0
 11
1080.745443
 21
2139.045191
 31
0.0
  0
LINE
  5
2C6
100
AcDbEntity
  8
1
370
    30
  6
Continuous
 62
     7
100
AcDbLine
 10
1080.745443
 20
2139.045191
 30
0.0
 11
1067.745443
 21
2139.045191
 31
0.0
  0
ENDBLK
  5
2C7
100
AcDbEntity
  8
0
100
AcDbBlockEnd
  0
BLOCK
  5
2CA
100
AcDbEntity
  8
0
370
    30
  6
Continuous
 62
     7
100
AcDbBlockBegin
  2
*G19
 70
     0
 10
0.0
 20
0.0
 30
0.0
  3
*G19
  1

  0
LINE
  5
2CB
100
AcDbEntity
  8
1
370
    30
  6
Continuous
 62
     7
100
AcDbLine
 10
1067.745443
 20
2164.045191
 30
0.0
 11
1067.745443
 21
2151.045191
 31
0.0
  0
LINE
  5
2CC
100
AcDbEntity
  8
1
370
    30
  6
Continuous
 62
     7
100
AcDbLine
 10
1067.745443
 20
2151.045191
 30
0.0
 11
1080.745443
 21
2151.045191
 31
0.0
  0
LINE
  5
2CD
100
AcDbEntity
  8
1
370
    30
  6
Continuous
 62
     7
100
AcDbLine
 10
1080.745443
 20
2151.045191
 30
0.0
 11
1080.745443
 21
2164.045191
 31
0.0
  0
LINE
  5
2CE
100
AcDbEntity
  8
1
370
    30
  6
Continuous
 62
     7
100
AcDbLine
 10
1080.745443
 20
2164.045191
 30
0.0
 11
1067.745443
 21
2164.045191
 31
0.0
  0
ENDBLK
  5
2CF
100
AcDbEntity
  8
0
100
AcDbBlockEnd
  0
BLOCK
  5
2D5
100
AcDbEntity
  8
0
370
    30
  6
Continuous
 62
     7
100
AcDbBlockBegin
  2
*G20
 70
     0
 10
0.0
 20
0.0
 30
0.0
  3
*G20
  1

  0
LINE
  5
2D6
100
AcDbEntity
  8
1
370
    30
  6
Continuous
 62
     7
100
AcDbLine
 10
1059.245443
 20
2270.045191
 30
0.0
 11
1059.245443
 21
2110.045191
 31
0.0
  0
LINE
  5
2D7
100
AcDbEntity
  8
1
370
    30
  6
Continuous
 62
     7
100
AcDbLine
 10
1059.245443
 20
2110.045191
 30
0.0
 11
1089.245443
 21
2110.045191
 31
0.0
  0
LINE
  5
2D8
100
AcDbEntity
  8
1
370
    30
  6
Continuous
 62
     7
100
AcDbLine
 10
1089.245443
 20
2110.045191
 30
0.0
 11
1089.245443
 21
2270.045191
 31
0.0
  0
LINE
  5
2D9
100
AcDbEntity
  8
1
370
    30
  6
Continuous
 62
     7
100
AcDbLine
 10
1089.245443
 20
2270.045191
 30
0.0
 11
1059.245443
 21
2270.045191
 31
0.0
  0
ENDBLK
  5
2DA
100
AcDbEntity
  8
0
100
AcDbBlockEnd
  0
BLOCK
  5
2EA
100
AcDbEntity
  8
0
370
    30
  6
Continuous
 62
     7
100
AcDbBlockBegin
  2
*G21
 70
     0
 10
0.0
 20
0.0
 30
0.0
  3
*G21
  1

  0
LINE
  5
2EB
100
AcDbEntity
  8
1
370
    30
  6
Continuous
 62
     7
100
AcDbLine
 10
1037.745443
 20
2139.045191
 30
0.0
 11
1037.745443
 21
2126.045191
 31
0.0
  0
LINE
  5
2EC
100
AcDbEntity
  8
1
370
    30
  6
Continuous
 62
     7
100
AcDbLine
 10
1037.745443
 20
2126.045191
 30
0.0
 11
1050.745443
 21
2126.045191
 31
0.0
  0
LINE
  5
2ED
100
AcDbEntity
  8
1
370
    30
  6
Continuous
 62
     7
100
AcDbLine
 10
1050.745443
 20
2126.045191
 30
0.0
 11
1050.745443
 21
2139.045191
 31
0.0
  0
LINE
  5
2EE
100
AcDbEntity
  8
1
370
    30
  6
Continuous
 62
     7
100
AcDbLine
 10
1050.745443
 20
2139.045191
 30
0.0
 11
1037.745443
 21
2139.045191
 31
0.0
  0
ENDBLK
  5
2EF
100
AcDbEntity
  8
0
100
AcDbBlockEnd
  0
BLOCK
  5
2F2
100
AcDbEntity
  8
0
370
    30
  6
Continuous
 62
     7
100
AcDbBlockBegin
  2
*G22
 70
     0
 10
0.0
 20
0.0
 30
0.0
  3
*G22
  1

  0
LINE
  5
2F3
100
AcDbEntity
  8
1
370
    30
  6
Continuous
 62
     7
100
AcDbLine
 10
1037.745443
 20
2164.045191
 30
0.0
 11
1037.745443
 21
2151.045191
 31
0.0
  0
LINE
  5
2F4
100
AcDbEntity
  8
1
370
    30
  6
Continuous
 62
     7
100
AcDbLine
 10
1037.745443
 20
2151.045191
 30
0.0
 11
1050.745443
 21
2151.045191
 31
0.0
  0
LINE
  5
2F5
100
AcDbEntity
  8
1
370
    30
  6
Continuous
 62
     7
100
AcDbLine
 10
1050.745443
 20
2151.045191
 30
0.0
 11
1050.745443
 21
2164.045191
 31
0.0
  0
LINE
  5
2F6
100
AcDbEntity
  8
1
370
    30
  6
Continuous
 62
     7
100
AcDbLine
 10
1050.745443
 20
2164.045191
 30
0.0
 11
1037.745443
 21
2164.045191
 31
0.0
  0
ENDBLK
  5
2F7
100
AcDbEntity
  8
0
100
AcDbBlockEnd
  0
BLOCK
  5
2FD
100
AcDbEntity
  8
0
370
    30
  6
Continuous
 62
     7
100
AcDbBlockBegin
  2
*G23
 70
     0
 10
0.0
 20
0.0
 30
0.0
  3
*G23
  1

  0
LINE
  5
2FE
100
AcDbEntity
  8
1
370
    30
  6
Continuous
 62
     7
100
AcDbLine
 10
1029.245443
 20
2270.045191
 30
0.0
 11
1029.245443
 21
2110.045191
 31
0.0
  0
LINE
  5
2FF
100
AcDbEntity
  8
1
370
    30
  6
Continuous
 62
     7
100
AcDbLine
 10
1029.245443
 20
2110.045191
 30
0.0
 11
1059.245443
 21
2110.045191
 31
0.0
  0
LINE
  5
300
100
AcDbEntity
  8
1
370
    30
  6
Continuous
 62
     7
100
AcDbLine
 10
1059.245443
 20
2110.045191
 30
0.0
 11
1059.245443
 21
2270.045191
 31
0.0
  0
LINE
  5
301
100
AcDbEntity
  8
1
370
    30
  6
Continuous
 62
     7
100
AcDbLine
 10
1059.245443
 20
2270.045191
 30
0.0
 11
1029.245443
 21
2270.045191
 31
0.0
  0
ENDBLK
  5
302
100
AcDbEntity
  8
0
100
AcDbBlockEnd
  0
BLOCK
  5
312
100
AcDbEntity
  8
0
370
    30
  6
Continuous
 62
     7
100
AcDbBlockBegin
  2
*G24
 70
     0
 10
0.0
 20
0.0
 30
0.0
  3
*G24
  1

  0
LINE
  5
313
100
AcDbEntity
  8
1
370
    30
  6
Continuous
 62
     7
100
AcDbLine
 10
1007.745443
 20
2139.045191
 30
0.0
 11
1007.745443
 21
2126.045191
 31
0.0
  0
LINE
  5
314
100
AcDbEntity
  8
1
370
    30
  6
Continuous
 62
     7
100
AcDbLine
 10
1007.745443
 20
2126.045191
 30
0.0
 11
1020.745443
 21
2126.045191
 31
0.0
  0
LINE
  5
315
100
AcDbEntity
  8
1
370
    30
  6
Continuous
 62
     7
100
AcDbLine
 10
1020.745443
 20
2126.045191
 30
0.0
 11
1020.745443
 21
2139.045191
 31
0.0
  0
LINE
  5
316
100
AcDbEntity
  8
1
370
    30
  6
Continuous
 62
     7
100
AcDbLine
 10
1020.745443
 20
2139.045191
 30
0.0
 11
1007.745443
 21
2139.045191
 31
0.0
  0
ENDBLK
  5
317
100
AcDbEntity
  8
0
100
AcDbBlockEnd
  0
BLOCK
  5
31A
100
AcDbEntity
  8
0
370
    30
  6
Continuous
 62
     7
100
AcDbBlockBegin
  2
*G25
 70
     0
 10
0.0
 20
0.0
 30
0.0
  3
*G25
  1

  0
LINE
  5
31B
100
AcDbEntity
  8
1
370
    30
  6
Continuous
 62
     7
100
AcDbLine
 10
1007.745443
 20
2164.045191
 30
0.0
 11
1007.745443
 21
2151.045191
 31
0.0
  0
LINE
  5
31C
100
AcDbEntity
  8
1
370
    30
  6
Continuous
 62
     7
100
AcDbLine
 10
1007.745443
 20
2151.045191
 30
0.0
 11
1020.745443
 21
2151.045191
 31
0.0
  0
LINE
  5
31D
100
AcDbEntity
  8
1
370
    30
  6
Continuous
 62
     7
100
AcDbLine
 10
1020.745443
 20
2151.045191
 30
0.0
 11
1020.745443
 21
2164.045191
 31
0.0
  0
LINE
  5
31E
100
AcDbEntity
  8
1
370
    30
  6
Continuous
 62
     7
100
AcDbLine
 10
1020.745443
 20
2164.045191
 30
0.0
 11
1007.745443
 21
2164.045191
 31
0.0
  0
ENDBLK
  5
31F
100
AcDbEntity
  8
0
100
AcDbBlockEnd
  0
BLOCK
  5
325
100
AcDbEntity
  8
0
370
    30
  6
Continuous
 62
     7
100
AcDbBlockBegin
  2
*G26
 70
     0
 10
0.0
 20
0.0
 30
0.0
  3
*G26
  1

  0
LINE
  5
326
100
AcDbEntity
  8
1
370
    30
  6
Continuous
 62
     7
100
AcDbLine
 10
999.245443
 20
2270.045191
 30
0.0
 11
999.245443
 21
2110.045191
 31
0.0
  0
LINE
  5
327
100
AcDbEntity
  8
1
370
    30
  6
Continuous
 62
     7
100
AcDbLine
 10
999.245443
 20
2110.045191
 30
0.0
 11
1029.245443
 21
2110.045191
 31
0.0
  0
LINE
  5
328
100
AcDbEntity
  8
1
370
    30
  6
Continuous
 62
     7
100
AcDbLine
 10
1029.245443
 20
2110.045191
 30
0.0
 11
1029.245443
 21
2270.045191
 31
0.0
  0
LINE
  5
329
100
AcDbEntity
  8
1
370
    30
  6
Continuous
 62
     7
100
AcDbLine
 10
1029.245443
 20
2270.045191
 30
0.0
 11
999.245443
 21
2270.045191
 31
0.0
  0
ENDBLK
  5
32A
100
AcDbEntity
  8
0
100
AcDbBlockEnd
  0
BLOCK
  5
33A
100
AcDbEntity
  8
0
370
    30
  6
Continuous
 62
     7
100
AcDbBlockBegin
  2
*G27
 70
     0
 10
0.0
 20
0.0
 30
0.0
  3
*G27
  1

  0
LINE
  5
33B
100
AcDbEntity
  8
1
370
    30
  6
Continuous
 62
     7
100
AcDbLine
 10
977.745443
 20
2139.045191
 30
0.0
 11
977.745443
 21
2126.045191
 31
0.0
  0
LINE
  5
33C
100
AcDbEntity
  8
1
370
    30
  6
Continuous
 62
     7
100
AcDbLine
 10
977.745443
 20
2126.045191
 30
0.0
 11
990.745443
 21
2126.045191
 31
0.0
  0
LINE
  5
33D
100
AcDbEntity
  8
1
370
    30
  6
Continuous
 62
     7
100
AcDbLine
 10
990.745443
 20
2126.045191
 30
0.0
 11
990.745443
 21
2139.045191
 31
0.0
  0
LINE
  5
33E
100
AcDbEntity
  8
1
370
    30
  6
Continuous
 62
     7
100
AcDbLine
 10
990.745443
 20
2139.045191
 30
0.0
 11
977.745443
 21
2139.045191
 31
0.0
  0
ENDBLK
  5
33F
100
AcDbEntity
  8
0
100
AcDbBlockEnd
  0
BLOCK
  5
342
100
AcDbEntity
  8
0
370
    30
  6
Continuous
 62
     7
100
AcDbBlockBegin
  2
*G28
 70
     0
 10
0.0
 20
0.0
 30
0.0
  3
*G28
  1

  0
LINE
  5
343
100
AcDbEntity
  8
1
370
    30
  6
Continuous
 62
     7
100
AcDbLine
 10
977.745443
 20
2164.045191
 30
0.0
 11
977.745443
 21
2151.045191
 31
0.0
  0
LINE
  5
344
100
AcDbEntity
  8
1
370
    30
  6
Continuous
 62
     7
100
AcDbLine
 10
977.745443
 20
2151.045191
 30
0.0
 11
990.745443
 21
2151.045191
 31
0.0
  0
LINE
  5
345
100
AcDbEntity
  8
1
370
    30
  6
Continuous
 62
     7
100
AcDbLine
 10
990.745443
 20
2151.045191
 30
0.0
 11
990.745443
 21
2164.045191
 31
0.0
  0
LINE
  5
346
100
AcDbEntity
  8
1
370
    30
  6
Continuous
 62
     7
100
AcDbLine
 10
990.745443
 20
2164.045191
 30
0.0
 11
977.745443
 21
2164.045191
 31
0.0
  0
ENDBLK
  5
347
100
AcDbEntity
  8
0
100
AcDbBlockEnd
  0
BLOCK
  5
34D
100
AcDbEntity
  8
0
370
    30
  6
Continuous
 62
     7
100
AcDbBlockBegin
  2
*G29
 70
     0
 10
0.0
 20
0.0
 30
0.0
  3
*G29
  1

  0
LINE
  5
34E
100
AcDbEntity
  8
1
370
    30
  6
Continuous
 62
     7
100
AcDbLine
 10
969.245443
 20
2270.045191
 30
0.0
 11
969.245443
 21
2110.045191
 31
0.0
  0
LINE
  5
34F
100
AcDbEntity
  8
1
370
    30
  6
Continuous
 62
     7
100
AcDbLine
 10
969.245443
 20
2110.045191
 30
0.0
 11
999.245443
 21
2110.045191
 31
0.0
  0
LINE
  5
350
100
AcDbEntity
  8
1
370
    30
  6
Continuous
 62
     7
100
AcDbLine
 10
999.245443
 20
2110.045191
 30
0.0
 11
999.245443
 21
2270.045191
 31
0.0
  0
LINE
  5
351
100
AcDbEntity
  8
1
370
    30
  6
Continuous
 62
     7
100
AcDbLine
 10
999.245443
 20
2270.045191
 30
0.0
 11
969.245443
 21
2270.045191
 31
0.0
  0
ENDBLK
  5
352
100
AcDbEntity
  8
0
100
AcDbBlockEnd
  0
BLOCK
  5
360
100
AcDbEntity
  8
0
370
    30
  6
Continuous
 62
     7
100
AcDbBlockBegin
  2
*G30
 70
     0
 10
0.0
 20
0.0
 30
0.0
  3
*G30
  1

  0
LINE
  5
361
100
AcDbEntity
  8
1
370
    30
  6
Continuous
 62
     7
100
AcDbLine
 10
947.745443
 20
2139.045191
 30
0.0
 11
947.745443
 21
2126.045191
 31
0.0
  0
LINE
  5
362
100
AcDbEntity
  8
1
370
    30
  6
Continuous
 62
     7
100
AcDbLine
 10
947.745443
 20
2126.045191
 30
0.0
 11
960.745443
 21
2126.045191
 31
0.0
  0
LINE
  5
363
100
AcDbEntity
  8
1
370
    30
  6
Continuous
 62
     7
100
AcDbLine
 10
960.745443
 20
2126.045191
 30
0.0
 11
960.745443
 21
2139.045191
 31
0.0
  0
LINE
  5
364
100
AcDbEntity
  8
1
370
    30
  6
Continuous
 62
     7
100
AcDbLine
 10
960.745443
 20
2139.045191
 30
0.0
 11
947.745443
 21
2139.045191
 31
0.0
  0
ENDBLK
  5
365
100
AcDbEntity
  8
0
100
AcDbBlockEnd
  0
BLOCK
  5
368
100
AcDbEntity
  8
0
370
    30
  6
Continuous
 62
     7
100
AcDbBlockBegin
  2
*G31
 70
     0
 10
0.0
 20
0.0
 30
0.0
  3
*G31
  1

  0
LINE
  5
369
100
AcDbEntity
  8
1
370
    30
  6
Continuous
 62
     7
100
AcDbLine
 10
947.745443
 20
2164.045191
 30
0.0
 11
947.745443
 21
2151.045191
 31
0.0
  0
LINE
  5
36A
100
AcDbEntity
  8
1
370
    30
  6
Continuous
 62
     7
100
AcDbLine
 10
947.745443
 20
2151.045191
 30
0.0
 11
960.745443
 21
2151.045191
 31
0.0
  0
LINE
  5
36B
100
AcDbEntity
  8
1
370
    30
  6
Continuous
 62
     7
100
AcDbLine
 10
960.745443
 20
2151.045191
 30
0.0
 11
960.745443
 21
2164.045191
 31
0.0
  0
LINE
  5
36C
100
AcDbEntity
  8
1
370
    30
  6
Continuous
 62
     7
100
AcDbLine
 10
960.745443
 20
2164.045191
 30
0.0
 11
947.745443
 21
2164.045191
 31
0.0
  0
ENDBLK
  5
36D
100
AcDbEntity
  8
0
100
AcDbBlockEnd
  0
BLOCK
  5
373
100
AcDbEntity
  8
0
370
    30
  6
Continuous
 62
     7
100
AcDbBlockBegin
  2
*G32
 70
     0
 10
0.0
 20
0.0
 30
0.0
  3
*G32
  1

  0
LINE
  5
374
100
AcDbEntity
  8
1
370
    30
  6
Continuous
 62
     7
100
AcDbLine
 10
939.245443
 20
2270.045191
 30
0.0
 11
939.245443
 21
2110.045191
 31
0.0
  0
LINE
  5
375
100
AcDbEntity
  8
1
370
    30
  6
Continuous
 62
     7
100
AcDbLine
 10
939.245443
 20
2110.045191
 30
0.0
 11
969.245443
 21
2110.045191
 31
0.0
  0
LINE
  5
376
100
AcDbEntity
  8
1
370
    30
  6
Continuous
 62
     7
100
AcDbLine
 10
969.245443
 20
2110.045191
 30
0.0
 11
969.245443
 21
2270.045191
 31
0.0
  0
LINE
  5
377
100
AcDbEntity
  8
1
370
    30
  6
Continuous
 62
     7
100
AcDbLine
 10
969.245443
 20
2270.045191
 30
0.0
 11
939.245443
 21
2270.045191
 31
0.0
  0
ENDBLK
  5
378
100
AcDbEntity
  8
0
100
AcDbBlockEnd
  0
BLOCK
  5
38A
100
AcDbEntity
  8
0
370
    30
  6
Continuous
 62
     7
100
AcDbBlockBegin
  2
*G33
 70
     0
 10
0.0
 20
0.0
 30
0.0
  3
*G33
  1

  0
LINE
  5
38B
100
AcDbEntity
  8
1
370
    30
  6
Continuous
 62
     7
100
AcDbLine
 10
917.745443
 20
1952.045191
 30
0.0
 11
917.745443
 21
1939.045191
 31
0.0
  0
LINE
  5
38C
100
AcDbEntity
  8
1
370
    30
  6
Continuous
 62
     7
100
AcDbLine
 10
917.745443
 20
1939.045191
 30
0.0
 11
930.745443
 21
1939.045191
 31
0.0
  0
LINE
  5
38D
100
AcDbEntity
  8
1
370
    30
  6
Continuous
 62
     7
100
AcDbLine
 10
930.745443
 20
1939.045191
 30
0.0
 11
930.745443
 21
1952.045191
 31
0.0
  0
LINE
  5
38E
100
AcDbEntity
  8
1
370
    30
  6
Continuous
 62
     7
100
AcDbLine
 10
930.745443
 20
1952.045191
 30
0.0
 11
917.745443
 21
1952.045191
 31
0.0
  0
ENDBLK
  5
38F
100
AcDbEntity
  8
0
100
AcDbBlockEnd
  0
BLOCK
  5
392
100
AcDbEntity
  8
0
370
    30
  6
Continuous
 62
     7
100
AcDbBlockBegin
  2
*G34
 70
     0
 10
0.0
 20
0.0
 30
0.0
  3
*G34
  1

  0
LINE
  5
393
100
AcDbEntity
  8
1
370
    30
  6
Continuous
 62
     7
100
AcDbLine
 10
917.745443
 20
1977.045191
 30
0.0
 11
917.745443
 21
1964.045191
 31
0.0
  0
LINE
  5
394
100
AcDbEntity
  8
1
370
    30
  6
Continuous
 62
     7
100
AcDbLine
 10
917.745443
 20
1964.045191
 30
0.0
 11
930.745443
 21
1964.045191
 31
0.0
  0
LINE
  5
395
100
AcDbEntity
  8
1
370
    30
  6
Continuous
 62
     7
100
AcDbLine
 10
930.745443
 20
1964.045191
 30
0.0
 11
930.745443
 21
1977.045191
 31
0.0
  0
LINE
  5
396
100
AcDbEntity
  8
1
370
    30
  6
Continuous
 62
     7
100
AcDbLine
 10
930.745443
 20
1977.045191
 30
0.0
 11
917.745443
 21
1977.045191
 31
0.0
  0
ENDBLK
  5
397
100
AcDbEntity
  8
0
100
AcDbBlockEnd
  0
BLOCK
  5
39D
100
AcDbEntity
  8
0
370
    30
  6
Continuous
 62
     7
100
AcDbBlockBegin
  2
*G35
 70
     0
 10
0.0
 20
0.0
 30
0.0
  3
*G35
  1

  0
LINE
  5
39E
100
AcDbEntity
  8
1
370
    30
  6
Continuous
 62
     7
100
AcDbLine
 10
909.245443
 20
2083.045191
 30
0.0
 11
909.245443
 21
1923.045191
 31
0.0
  0
LINE
  5
39F
100
AcDbEntity
  8
1
370
    30
  6
Continuous
 62
     7
100
AcDbLine
 10
909.245443
 20
1923.045191
 30
0.0
 11
939.245443
 21
1923.045191
 31
0.0
  0
LINE
  5
3A0
100
AcDbEntity
  8
1
370
    30
  6
Continuous
 62
     7
100
AcDbLine
 10
939.245443
 20
1923.045191
 30
0.0
 11
939.245443
 21
2083.045191
 31
0.0
  0
LINE
  5
3A1
100
AcDbEntity
  8
1
370
    30
  6
Continuous
 62
     7
100
AcDbLine
 10
939.245443
 20
2083.045191
 30
0.0
 11
909.245443
 21
2083.045191
 31
0.0
  0
ENDBLK
  5
3A2
100
AcDbEntity
  8
0
100
AcDbBlockEnd
  0
BLOCK
  5
3B2
100
AcDbEntity
  8
0
370
    30
  6
Continuous
 62
     7
100
AcDbBlockBegin
  2
*G36
 70
     0
 10
0.0
 20
0.0
 30
0.0
  3
*G36
  1

  0
LINE
  5
3B3
100
AcDbEntity
  8
1
370
    30
  6
Continuous
 62
     7
100
AcDbLine
 10
887.745443
 20
1952.045191
 30
0.0
 11
887.745443
 21
1939.045191
 31
0.0
  0
LINE
  5
3B4
100
AcDbEntity
  8
1
370
    30
  6
Continuous
 62
     7
100
AcDbLine
 10
887.745443
 20
1939.045191
 30
0.0
 11
900.745443
 21
1939.045191
 31
0.0
  0
LINE
  5
3B5
100
AcDbEntity
  8
1
370
    30
  6
Continuous
 62
     7
100
AcDbLine
 10
900.745443
 20
1939.045191
 30
0.0
 11
900.745443
 21
1952.045191
 31
0.0
  0
LINE
  5
3B6
100
AcDbEntity
  8
1
370
    30
  6
Continuous
 62
     7
100
AcDbLine
 10
900.745443
 20
1952.045191
 30
0.0
 11
887.745443
 21
1952.045191
 31
0.0
  0
ENDBLK
  5
3B7
100
AcDbEntity
  8
0
100
AcDbBlockEnd
  0
BLOCK
  5
3BA
100
AcDbEntity
  8
0
370
    30
  6
Continuous
 62
     7
100
AcDbBlockBegin
  2
*G37
 70
     0
 10
0.0
 20
0.0
 30
0.0
  3
*G37
  1

  0
LINE
  5
3BB
100
AcDbEntity
  8
1
370
    30
  6
Continuous
 62
     7
100
AcDbLine
 10
887.745443
 20
1977.045191
 30
0.0
 11
887.745443
 21
1964.045191
 31
0.0
  0
LINE
  5
3BC
100
AcDbEntity
  8
1
370
    30
  6
Continuous
 62
     7
100
AcDbLine
 10
887.745443
 20
1964.045191
 30
0.0
 11
900.745443
 21
1964.045191
 31
0.0
  0
LINE
  5
3BD
100
AcDbEntity
  8
1
370
    30
  6
Continuous
 62
     7
100
AcDbLine
 10
900.745443
 20
1964.045191
 30
0.0
 11
900.745443
 21
1977.045191
 31
0.0
  0
LINE
  5
3BE
100
AcDbEntity
  8
1
370
    30
  6
Continuous
 62
     7
100
AcDbLine
 10
900.745443
 20
1977.045191
 30
0.0
 11
887.745443
 21
1977.045191
 31
0.0
  0
ENDBLK
  5
3BF
100
AcDbEntity
  8
0
100
AcDbBlockEnd
  0
BLOCK
  5
3C5
100
AcDbEntity
  8
0
370
    30
  6
Continuous
 62
     7
100
AcDbBlockBegin
  2
*G38
 70
     0
 10
0.0
 20
0.0
 30
0.0
  3
*G38
  1

  0
LINE
  5
3C6
100
AcDbEntity
  8
1
370
    30
  6
Continuous
 62
     7
100
AcDbLine
 10
879.245443
 20
2083.045191
 30
0.0
 11
879.245443
 21
1923.045191
 31
0.0
  0
LINE
  5
3C7
100
AcDbEntity
  8
1
370
    30
  6
Continuous
 62
     7
100
AcDbLine
 10
879.245443
 20
1923.045191
 30
0.0
 11
909.245443
 21
1923.045191
 31
0.0
  0
LINE
  5
3C8
100
AcDbEntity
  8
1
370
    30
  6
Continuous
 62
     7
100
AcDbLine
 10
909.245443
 20
1923.045191
 30
0.0
 11
909.245443
 21
2083.045191
 31
0.0
  0
LINE
  5
3C9
100
AcDbEntity
  8
1
370
    30
  6
Continuous
 62
     7
100
AcDbLine
 10
909.245443
 20
2083.045191
 30
0.0
 11
879.245443
 21
2083.045191
 31
0.0
  0
ENDBLK
  5
3CA
100
AcDbEntity
  8
0
100
AcDbBlockEnd
  0
BLOCK
  5
3DA
100
AcDbEntity
  8
0
370
    30
  6
Continuous
 62
     7
100
AcDbBlockBegin
  2
*G39
 70
     0
 10
0.0
 20
0.0
 30
0.0
  3
*G39
  1

  0
LINE
  5
3DB
100
AcDbEntity
  8
1
370
    30
  6
Continuous
 62
     7
100
AcDbLine
 10
857.745443
 20
1952.045191
 30
0.0
 11
857.745443
 21
1939.045191
 31
0.0
  0
LINE
  5
3DC
100
AcDbEntity
  8
1
370
    30
  6
Continuous
 62
     7
100
AcDbLine
 10
857.745443
 20
1939.045191
 30
0.0
 11
870.745443
 21
1939.045191
 31
0.0
  0
LINE
  5
3DD
100
AcDbEntity
  8
1
370
    30
  6
Continuous
 62
     7
100
AcDbLine
 10
870.745443
 20
1939.045191
 30
0.0
 11
870.745443
 21
1952.045191
 31
0.0
  0
LINE
  5
3DE
100
AcDbEntity
  8
1
370
    30
  6
Continuous
 62
     7
100
AcDbLine
 10
870.745443
 20
1952.045191
 30
0.0
 11
857.745443
 21
1952.045191
 31
0.0
  0
ENDBLK
  5
3DF
100
AcDbEntity
  8
0
100
AcDbBlockEnd
  0
BLOCK
  5
3E2
100
AcDbEntity
  8
0
370
    30
  6
Continuous
 62
     7
100
AcDbBlockBegin
  2
*G40
 70
     0
 10
0.0
 20
0.0
 30
0.0
  3
*G40
  1

  0
LINE
  5
3E3
100
AcDbEntity
  8
1
370
    30
  6
Continuous
 62
     7
100
AcDbLine
 10
857.745443
 20
1977.045191
 30
0.0
 11
857.745443
 21
1964.045191
 31
0.0
  0
LINE
  5
3E4
100
AcDbEntity
  8
1
370
    30
  6
Continuous
 62
     7
100
AcDbLine
 10
857.745443
 20
1964.045191
 30
0.0
 11
870.745443
 21
1964.045191
 31
0.0
  0
LINE
  5
3E5
100
AcDbEntity
  8
1
370
    30
  6
Continuous
 62
     7
100
AcDbLine
 10
870.745443
 20
1964.045191
 30
0.0
 11
870.745443
 21
1977.045191
 31
0.0
  0
LINE
  5
3E6
100
AcDbEntity
  8
1
370
    30
  6
Continuous
 62
     7
100
AcDbLine
 10
870.745443
 20
1977.045191
 30
0.0
 11
857.745443
 21
1977.045191
 31
0.0
  0
ENDBLK
  5
3E7
100
AcDbEntity
  8
0
100
AcDbBlockEnd
  0
BLOCK
  5
3ED
100
AcDbEntity
  8
0
370
    30
  6
Continuous
 62
     7
100
AcDbBlockBegin
  2
*G41
 70
     0
 10
0.0
 20
0.0
 30
0.0
  3
*G41
  1

  0
LINE
  5
3EE
100
AcDbEntity
  8
1
370
    30
  6
Continuous
 62
     7
100
AcDbLine
 10
849.245443
 20
2083.045191
 30
0.0
 11
849.245443
 21
1923.045191
 31
0.0
  0
LINE
  5
3EF
100
AcDbEntity
  8
1
370
    30
  6
Continuous
 62
     7
100
AcDbLine
 10
849.245443
 20
1923.045191
 30
0.0
 11
879.245443
 21
1923.045191
 31
0.0
  0
LINE
  5
3F0
100
AcDbEntity
  8
1
370
    30
  6
Continuous
 62
     7
100
AcDbLine
 10
879.245443
 20
1923.045191
 30
0.0
 11
879.245443
 21
2083.045191
 31
0.0
  0
LINE
  5
3F1
100
AcDbEntity
  8
1
370
    30
  6
Continuous
 62
     7
100
AcDbLine
 10
879.245443
 20
2083.045191
 30
0.0
 11
849.245443
 21
2083.045191
 31
0.0
  0
ENDBLK
  5
3F2
100
AcDbEntity
  8
0
100
AcDbBlockEnd
  0
BLOCK
  5
402
100
AcDbEntity
  8
0
370
    30
  6
Continuous
 62
     7
100
AcDbBlockBegin
  2
*G42
 70
     0
 10
0.0
 20
0.0
 30
0.0
  3
*G42
  1

  0
LINE
  5
403
100
AcDbEntity
  8
1
370
    30
  6
Continuous
 62
     7
100
AcDbLine
 10
827.745443
 20
1952.045191
 30
0.0
 11
827.745443
 21
1939.045191
 31
0.0
  0
LINE
  5
404
100
AcDbEntity
  8
1
370
    30
  6
Continuous
 62
     7
100
AcDbLine
 10
827.745443
 20
1939.045191
 30
0.0
 11
840.745443
 21
1939.045191
 31
0.0
  0
LINE
  5
405
100
AcDbEntity
  8
1
370
    30
  6
Continuous
 62
     7
100
AcDbLine
 10
840.745443
 20
1939.045191
 30
0.0
 11
840.745443
 21
1952.045191
 31
0.0
  0
LINE
  5
406
100
AcDbEntity
  8
1
370
    30
  6
Continuous
 62
     7
100
AcDbLine
 10
840.745443
 20
1952.045191
 30
0.0
 11
827.745443
 21
1952.045191
 31
0.0
  0
ENDBLK
  5
407
100
AcDbEntity
  8
0
100
AcDbBlockEnd
  0
BLOCK
  5
40A
100
AcDbEntity
  8
0
370
    30
  6
Continuous
 62
     7
100
AcDbBlockBegin
  2
*G43
 70
     0
 10
0.0
 20
0.0
 30
0.0
  3
*G43
  1

  0
LINE
  5
40B
100
AcDbEntity
  8
1
370
    30
  6
Continuous
 62
     7
100
AcDbLine
 10
827.745443
 20
1977.045191
 30
0.0
 11
827.745443
 21
1964.045191
 31
0.0
  0
LINE
  5
40C
100
AcDbEntity
  8
1
370
    30
  6
Continuous
 62
     7
100
AcDbLine
 10
827.745443
 20
1964.045191
 30
0.0
 11
840.745443
 21
1964.045191
 31
0.0
  0
LINE
  5
40D
100
AcDbEntity
  8
1
370
    30
  6
Continuous
 62
     7
100
AcDbLine
 10
840.745443
 20
1964.045191
 30
0.0
 11
840.745443
 21
1977.045191
 31
0.0
  0
LINE
  5
40E
100
AcDbEntity
  8
1
370
    30
  6
Continuous
 62
     7
100
AcDbLine
 10
840.745443
 20
1977.045191
 30
0.0
 11
827.745443
 21
1977.045191
 31
0.0
  0
ENDBLK
  5
40F
100
AcDbEntity
  8
0
100
AcDbBlockEnd
  0
BLOCK
  5
415
100
AcDbEntity
  8
0
370
    30
  6
Continuous
 62
     7
100
AcDbBlockBegin
  2
*G44
 70
     0
 10
0.0
 20
0.0
 30
0.0
  3
*G44
  1

  0
LINE
  5
416
100
AcDbEntity
  8
1
370
    30
  6
Continuous
 62
     7
100
AcDbLine
 10
819.245443
 20
2083.045191
 30
0.0
 11
819.245443
 21
1923.045191
 31
0.0
  0
LINE
  5
417
100
AcDbEntity
  8
1
370
    30
  6
Continuous
 62
     7
100
AcDbLine
 10
819.245443
 20
1923.045191
 30
0.0
 11
849.245443
 21
1923.045191
 31
0.0
  0
LINE
  5
418
100
AcDbEntity
  8
1
370
    30
  6
Continuous
 62
     7
100
AcDbLine
 10
849.245443
 20
1923.045191
 30
0.0
 11
849.245443
 21
2083.045191
 31
0.0
  0
LINE
  5
419
100
AcDbEntity
  8
1
370
    30
  6
Continuous
 62
     7
100
AcDbLine
 10
849.245443
 20
2083.045191
 30
0.0
 11
819.245443
 21
2083.045191
 31
0.0
  0
ENDBLK
  5
41A
100
AcDbEntity
  8
0
100
AcDbBlockEnd
  0
BLOCK
  5
428
100
AcDbEntity
  8
0
370
    30
  6
Continuous
 62
     7
100
AcDbBlockBegin
  2
*G45
 70
     0
 10
0.0
 20
0.0
 30
0.0
  3
*G45
  1

  0
LINE
  5
429
100
AcDbEntity
  8
1
370
    30
  6
Continuous
 62
     7
100
AcDbLine
 10
797.745443
 20
1952.045191
 30
0.0
 11
797.745443
 21
1939.045191
 31
0.0
  0
LINE
  5
42A
100
AcDbEntity
  8
1
370
    30
  6
Continuous
 62
     7
100
AcDbLine
 10
797.745443
 20
1939.045191
 30
0.0
 11
810.745443
 21
1939.045191
 31
0.0
  0
LINE
  5
42B
100
AcDbEntity
  8
1
370
    30
  6
Continuous
 62
     7
100
AcDbLine
 10
810.745443
 20
1939.045191
 30
0.0
 11
810.745443
 21
1952.045191
 31
0.0
  0
LINE
  5
42C
100
AcDbEntity
  8
1
370
    30
  6
Continuous
 62
     7
100
AcDbLine
 10
810.745443
 20
1952.045191
 30
0.0
 11
797.745443
 21
1952.045191
 31
0.0
  0
ENDBLK
  5
42D
100
AcDbEntity
  8
0
100
AcDbBlockEnd
  0
BLOCK
  5
430
100
AcDbEntity
  8
0
370
    30
  6
Continuous
 62
     7
100
AcDbBlockBegin
  2
*G46
 70
     0
 10
0.0
 20
0.0
 30
0.0
  3
*G46
  1

  0
LINE
  5
431
100
AcDbEntity
  8
1
370
    30
  6
Continuous
 62
     7
100
AcDbLine
 10
797.745443
 20
1977.045191
 30
0.0
 11
797.745443
 21
1964.045191
 31
0.0
  0
LINE
  5
432
100
AcDbEntity
  8
1
370
    30
  6
Continuous
 62
     7
100
AcDbLine
 10
797.745443
 20
1964.045191
 30
0.0
 11
810.745443
 21
1964.045191
 31
0.0
  0
LINE
  5
433
100
AcDbEntity
  8
1
370
    30
  6
Continuous
 62
     7
100
AcDbLine
 10
810.745443
 20
1964.045191
 30
0.0
 11
810.745443
 21
1977.045191
 31
0.0
  0
LINE
  5
434
100
AcDbEntity
  8
1
370
    30
  6
Continuous
 62
     7
100
AcDbLine
 10
810.745443
 20
1977.045191
 30
0.0
 11
797.745443
 21
1977.045191
 31
0.0
  0
ENDBLK
  5
435
100
AcDbEntity
  8
0
100
AcDbBlockEnd
  0
BLOCK
  5
43B
100
AcDbEntity
  8
0
370
    30
  6
Continuous
 62
     7
100
AcDbBlockBegin
  2
*G47
 70
     0
 10
0.0
 20
0.0
 30
0.0
  3
*G47
  1

  0
LINE
  5
43C
100
AcDbEntity
  8
1
370
    30
  6
Continuous
 62
     7
100
AcDbLine
 10
789.245443
 20
2083.045191
 30
0.0
 11
789.245443
 21
1923.045191
 31
0.0
  0
LINE
  5
43D
100
AcDbEntity
  8
1
370
    30
  6
Continuous
 62
     7
100
AcDbLine
 10
789.245443
 20
1923.045191
 30
0.0
 11
819.245443
 21
1923.045191
 31
0.0
  0
LINE
  5
43E
100
AcDbEntity
  8
1
370
    30
  6
Continuous
 62
     7
100
AcDbLine
 10
819.245443
 20
1923.045191
 30
0.0
 11
819.245443
 21
2083.045191
 31
0.0
  0
LINE
  5
43F
100
AcDbEntity
  8
1
370
    30
  6
Continuous
 62
     7
100
AcDbLine
 10
819.245443
 20
2083.045191
 30
0.0
 11
789.245443
 21
2083.045191
 31
0.0
  0
ENDBLK
  5
440
100
AcDbEntity
  8
0
100
AcDbBlockEnd
  0
BLOCK
  5
452
100
AcDbEntity
  8
0
370
    30
  6
Continuous
 62
     7
100
AcDbBlockBegin
  2
*G48
 70
     0
 10
0.0
 20
0.0
 30
0.0
  3
*G48
  1

  0
LINE
  5
453
100
AcDbEntity
  8
1
370
    30
  6
Continuous
 62
     7
100
AcDbLine
 10
1067.745443
 20
1952.045191
 30
0.0
 11
1067.745443
 21
1939.045191
 31
0.0
  0
LINE
  5
454
100
AcDbEntity
  8
1
370
    30
  6
Continuous
 62
     7
100
AcDbLine
 10
1067.745443
 20
1939.045191
 30
0.0
 11
1080.745443
 21
1939.045191
 31
0.0
  0
LINE
  5
455
100
AcDbEntity
  8
1
370
    30
  6
Continuous
 62
     7
100
AcDbLine
 10
1080.745443
 20
1939.045191
 30
0.0
 11
1080.745443
 21
1952.045191
 31
0.0
  0
LINE
  5
456
100
AcDbEntity
  8
1
370
    30
  6
Continuous
 62
     7
100
AcDbLine
 10
1080.745443
 20
1952.045191
 30
0.0
 11
1067.745443
 21
1952.045191
 31
0.0
  0
ENDBLK
  5
457
100
AcDbEntity
  8
0
100
AcDbBlockEnd
  0
BLOCK
  5
45A
100
AcDbEntity
  8
0
370
    30
  6
Continuous
 62
     7
100
AcDbBlockBegin
  2
*G49
 70
     0
 10
0.0
 20
0.0
 30
0.0
  3
*G49
  1

  0
LINE
  5
45B
100
AcDbEntity
  8
1
370
    30
  6
Continuous
 62
     7
100
AcDbLine
 10
1067.745443
 20
1977.045191
 30
0.0
 11
1067.745443
 21
1964.045191
 31
0.0
  0
LINE
  5
45C
100
AcDbEntity
  8
1
370
    30
  6
Continuous
 62
     7
100
AcDbLine
 10
1067.745443
 20
1964.045191
 30
0.0
 11
1080.745443
 21
1964.045191
 31
0.0
  0
LINE
  5
45D
100
AcDbEntity
  8
1
370
    30
  6
Continuous
 62
     7
100
AcDbLine
 10
1080.745443
 20
1964.045191
 30
0.0
 11
1080.745443
 21
1977.045191
 31
0.0
  0
LINE
  5
45E
100
AcDbEntity
  8
1
370
    30
  6
Continuous
 62
     7
100
AcDbLine
 10
1080.745443
 20
1977.045191
 30
0.0
 11
1067.745443
 21
1977.045191
 31
0.0
  0
ENDBLK
  5
45F
100
AcDbEntity
  8
0
100
AcDbBlockEnd
  0
BLOCK
  5
465
100
AcDbEntity
  8
0
370
    30
  6
Continuous
 62
     7
100
AcDbBlockBegin
  2
*G50
 70
     0
 10
0.0
 20
0.0
 30
0.0
  3
*G50
  1

  0
LINE
  5
466
100
AcDbEntity
  8
1
370
    30
  6
Continuous
 62
     7
100
AcDbLine
 10
1059.245443
 20
2083.045191
 30
0.0
 11
1059.245443
 21
1923.045191
 31
0.0
  0
LINE
  5
467
100
AcDbEntity
  8
1
370
    30
  6
Continuous
 62
     7
100
AcDbLine
 10
1059.245443
 20
1923.045191
 30
0.0
 11
1089.245443
 21
1923.045191
 31
0.0
  0
LINE
  5
468
100
AcDbEntity
  8
1
370
    30
  6
Continuous
 62
     7
100
AcDbLine
 10
1089.245443
 20
1923.045191
 30
0.0
 11
1089.245443
 21
2083.045191
 31
0.0
  0
LINE
  5
469
100
AcDbEntity
  8
1
370
    30
  6
Continuous
 62
     7
100
AcDbLine
 10
1089.245443
 20
2083.045191
 30
0.0
 11
1059.245443
 21
2083.045191
 31
0.0
  0
ENDBLK
  5
46A
100
AcDbEntity
  8
0
100
AcDbBlockEnd
  0
BLOCK
  5
47A
100
AcDbEntity
  8
0
370
    30
  6
Continuous
 62
     7
100
AcDbBlockBegin
  2
*G51
 70
     0
 10
0.0
 20
0.0
 30
0.0
  3
*G51
  1

  0
LINE
  5
47B
100
AcDbEntity
  8
1
370
    30
  6
Continuous
 62
     7
100
AcDbLine
 10
1037.745443
 20
1952.045191
 30
0.0
 11
1037.745443
 21
1939.045191
 31
0.0
  0
LINE
  5
47C
100
AcDbEntity
  8
1
370
    30
  6
Continuous
 62
     7
100
AcDbLine
 10
1037.745443
 20
1939.045191
 30
0.0
 11
1050.745443
 21
1939.045191
 31
0.0
  0
LINE
  5
47D
100
AcDbEntity
  8
1
370
    30
  6
Continuous
 62
     7
100
AcDbLine
 10
1050.745443
 20
1939.045191
 30
0.0
 11
1050.745443
 21
1952.045191
 31
0.0
  0
LINE
  5
47E
100
AcDbEntity
  8
1
370
    30
  6
Continuous
 62
     7
100
AcDbLine
 10
1050.745443
 20
1952.045191
 30
0.0
 11
1037.745443
 21
1952.045191
 31
0.0
  0
ENDBLK
  5
47F
100
AcDbEntity
  8
0
100
AcDbBlockEnd
  0
BLOCK
  5
482
100
AcDbEntity
  8
0
370
    30
  6
Continuous
 62
     7
100
AcDbBlockBegin
  2
*G52
 70
     0
 10
0.0
 20
0.0
 30
0.0
  3
*G52
  1

  0
LINE
  5
483
100
AcDbEntity
  8
1
370
    30
  6
Continuous
 62
     7
100
AcDbLine
 10
1037.745443
 20
1977.045191
 30
0.0
 11
1037.745443
 21
1964.045191
 31
0.0
  0
LINE
  5
484
100
AcDbEntity
  8
1
370
    30
  6
Continuous
 62
     7
100
AcDbLine
 10
1037.745443
 20
1964.045191
 30
0.0
 11
1050.745443
 21
1964.045191
 31
0.0
  0
LINE
  5
485
100
AcDbEntity
  8
1
370
    30
  6
Continuous
 62
     7
100
AcDbLine
 10
1050.745443
 20
1964.045191
 30
0.0
 11
1050.745443
 21
1977.045191
 31
0.0
  0
LINE
  5
486
100
AcDbEntity
  8
1
370
    30
  6
Continuous
 62
     7
100
AcDbLine
 10
1050.745443
 20
1977.045191
 30
0.0
 11
1037.745443
 21
1977.045191
 31
0.0
  0
ENDBLK
  5
487
100
AcDbEntity
  8
0
100
AcDbBlockEnd
  0
BLOCK
  5
48D
100
AcDbEntity
  8
0
370
    30
  6
Continuous
 62
     7
100
AcDbBlockBegin
  2
*G53
 70
     0
 10
0.0
 20
0.0
 30
0.0
  3
*G53
  1

  0
LINE
  5
48E
100
AcDbEntity
  8
1
370
    30
  6
Continuous
 62
     7
100
AcDbLine
 10
1029.245443
 20
2083.045191
 30
0.0
 11
1029.245443
 21
1923.045191
 31
0.0
  0
LINE
  5
48F
100
AcDbEntity
  8
1
370
    30
  6
Continuous
 62
     7
100
AcDbLine
 10
1029.245443
 20
1923.045191
 30
0.0
 11
1059.245443
 21
1923.045191
 31
0.0
  0
LINE
  5
490
100
AcDbEntity
  8
1
370
    30
  6
Continuous
 62
     7
100
AcDbLine
 10
1059.245443
 20
1923.045191
 30
0.0
 11
1059.245443
 21
2083.045191
 31
0.0
  0
LINE
  5
491
100
AcDbEntity
  8
1
370
    30
  6
Continuous
 62
     7
100
AcDbLine
 10
1059.245443
 20
2083.045191
 30
0.0
 11
1029.245443
 21
2083.045191
 31
0.0
  0
ENDBLK
  5
492
100
AcDbEntity
  8
0
100
AcDbBlockEnd
  0
BLOCK
  5
4A2
100
AcDbEntity
  8
0
370
    30
  6
Continuous
 62
     7
100
AcDbBlockBegin
  2
*G54
 70
     0
 10
0.0
 20
0.0
 30
0.0
  3
*G54
  1

  0
LINE
  5
4A3
100
AcDbEntity
  8
1
370
    30
  6
Continuous
 62
     7
100
AcDbLine
 10
1007.745443
 20
1952.045191
 30
0.0
 11
1007.745443
 21
1939.045191
 31
0.0
  0
LINE
  5
4A4
100
AcDbEntity
  8
1
370
    30
  6
Continuous
 62
     7
100
AcDbLine
 10
1007.745443
 20
1939.045191
 30
0.0
 11
1020.745443
 21
1939.045191
 31
0.0
  0
LINE
  5
4A5
100
AcDbEntity
  8
1
370
    30
  6
Continuous
 62
     7
100
AcDbLine
 10
1020.745443
 20
1939.045191
 30
0.0
 11
1020.745443
 21
1952.045191
 31
0.0
  0
LINE
  5
4A6
100
AcDbEntity
  8
1
370
    30
  6
Continuous
 62
     7
100
AcDbLine
 10
1020.745443
 20
1952.045191
 30
0.0
 11
1007.745443
 21
1952.045191
 31
0.0
  0
ENDBLK
  5
4A7
100
AcDbEntity
  8
0
100
AcDbBlockEnd
  0
BLOCK
  5
4AA
100
AcDbEntity
  8
0
370
    30
  6
Continuous
 62
     7
100
AcDbBlockBegin
  2
*G55
 70
     0
 10
0.0
 20
0.0
 30
0.0
  3
*G55
  1

  0
LINE
  5
4AB
100
AcDbEntity
  8
1
370
    30
  6
Continuous
 62
     7
100
AcDbLine
 10
1007.745443
 20
1977.045191
 30
0.0
 11
1007.745443
 21
1964.045191
 31
0.0
  0
LINE
  5
4AC
100
AcDbEntity
  8
1
370
    30
  6
Continuous
 62
     7
100
AcDbLine
 10
1007.745443
 20
1964.045191
 30
0.0
 11
1020.745443
 21
1964.045191
 31
0.0
  0
LINE
  5
4AD
100
AcDbEntity
  8
1
370
    30
  6
Continuous
 62
     7
100
AcDbLine
 10
1020.745443
 20
1964.045191
 30
0.0
 11
1020.745443
 21
1977.045191
 31
0.0
  0
LINE
  5
4AE
100
AcDbEntity
  8
1
370
    30
  6
Continuous
 62
     7
100
AcDbLine
 10
1020.745443
 20
1977.045191
 30
0.0
 11
1007.745443
 21
1977.045191
 31
0.0
  0
ENDBLK
  5
4AF
100
AcDbEntity
  8
0
100
AcDbBlockEnd
  0
BLOCK
  5
4B5
100
AcDbEntity
  8
0
370
    30
  6
Continuous
 62
     7
100
AcDbBlockBegin
  2
*G56
 70
     0
 10
0.0
 20
0.0
 30
0.0
  3
*G56
  1

  0
LINE
  5
4B6
100
AcDbEntity
  8
1
370
    30
  6
Continuous
 62
     7
100
AcDbLine
 10
999.245443
 20
2083.045191
 30
0.0
 11
999.245443
 21
1923.045191
 31
0.0
  0
LINE
  5
4B7
100
AcDbEntity
  8
1
370
    30
  6
Continuous
 62
     7
100
AcDbLine
 10
999.245443
 20
1923.045191
 30
0.0
 11
1029.245443
 21
1923.045191
 31
0.0
  0
LINE
  5
4B8
100
AcDbEntity
  8
1
370
    30
  6
Continuous
 62
     7
100
AcDbLine
 10
1029.245443
 20
1923.045191
 30
0.0
 11
1029.245443
 21
2083.045191
 31
0.0
  0
LINE
  5
4B9
100
AcDbEntity
  8
1
370
    30
  6
Continuous
 62
     7
100
AcDbLine
 10
1029.245443
 20
2083.045191
 30
0.0
 11
999.245443
 21
2083.045191
 31
0.0
  0
ENDBLK
  5
4BA
100
AcDbEntity
  8
0
100
AcDbBlockEnd
  0
BLOCK
  5
4CA
100
AcDbEntity
  8
0
370
    30
  6
Continuous
 62
     7
100
AcDbBlockBegin
  2
*G57
 70
     0
 10
0.0
 20
0.0
 30
0.0
  3
*G57
  1

  0
LINE
  5
4CB
100
AcDbEntity
  8
1
370
    30
  6
Continuous
 62
     7
100
AcDbLine
 10
977.745443
 20
1952.045191
 30
0.0
 11
977.745443
 21
1939.045191
 31
0.0
  0
LINE
  5
4CC
100
AcDbEntity
  8
1
370
    30
  6
Continuous
 62
     7
100
AcDbLine
 10
977.745443
 20
1939.045191
 30
0.0
 11
990.745443
 21
1939.045191
 31
0.0
  0
LINE
  5
4CD
100
AcDbEntity
  8
1
370
    30
  6
Continuous
 62
     7
100
AcDbLine
 10
990.745443
 20
1939.045191
 30
0.0
 11
990.745443
 21
1952.045191
 31
0.0
  0
LINE
  5
4CE
100
AcDbEntity
  8
1
370
    30
  6
Continuous
 62
     7
100
AcDbLine
 10
990.745443
 20
1952.045191
 30
0.0
 11
977.745443
 21
1952.045191
 31
0.0
  0
ENDBLK
  5
4CF
100
AcDbEntity
  8
0
100
AcDbBlockEnd
  0
BLOCK
  5
4D2
100
AcDbEntity
  8
0
370
    30
  6
Continuous
 62
     7
100
AcDbBlockBegin
  2
*G58
 70
     0
 10
0.0
 20
0.0
 30
0.0
  3
*G58
  1

  0
LINE
  5
4D3
100
AcDbEntity
  8
1
370
    30
  6
Continuous
 62
     7
100
AcDbLine
 10
977.745443
 20
1977.045191
 30
0.0
 11
977.745443
 21
1964.045191
 31
0.0
  0
LINE
  5
4D4
100
AcDbEntity
  8
1
370
    30
  6
Continuous
 62
     7
100
AcDbLine
 10
977.745443
 20
1964.045191
 30
0.0
 11
990.745443
 21
1964.045191
 31
0.0
  0
LINE
  5
4D5
100
AcDbEntity
  8
1
370
    30
  6
Continuous
 62
     7
100
AcDbLine
 10
990.745443
 20
1964.045191
 30
0.0
 11
990.745443
 21
1977.045191
 31
0.0
  0
LINE
  5
4D6
100
AcDbEntity
  8
1
370
    30
  6
Continuous
 62
     7
100
AcDbLine
 10
990.745443
 20
1977.045191
 30
0.0
 11
977.745443
 21
1977.045191
 31
0.0
  0
ENDBLK
  5
4D7
100
AcDbEntity
  8
0
100
AcDbBlockEnd
  0
BLOCK
  5
4DD
100
AcDbEntity
  8
0
370
    30
  6
Continuous
 62
     7
100
AcDbBlockBegin
  2
*G59
 70
     0
 10
0.0
 20
0.0
 30
0.0
  3
*G59
  1

  0
LINE
  5
4DE
100
AcDbEntity
  8
1
370
    30
  6
Continuous
 62
     7
100
AcDbLine
 10
969.245443
 20
2083.045191
 30
0.0
 11
969.245443
 21
1923.045191
 31
0.0
  0
LINE
  5
4DF
100
AcDbEntity
  8
1
370
    30
  6
Continuous
 62
     7
100
AcDbLine
 10
969.245443
 20
1923.045191
 30
0.0
 11
999.245443
 21
1923.045191
 31
0.0
  0
LINE
  5
4E0
100
AcDbEntity
  8
1
370
    30
  6
Continuous
 62
     7
100
AcDbLine
 10
999.245443
 20
1923.045191
 30
0.0
 11
999.245443
 21
2083.045191
 31
0.0
  0
LINE
  5
4E1
100
AcDbEntity
  8
1
370
    30
  6
Continuous
 62
     7
100
AcDbLine
 10
999.245443
 20
2083.045191
 30
0.0
 11
969.245443
 21
2083.045191
 31
0.0
  0
ENDBLK
  5
4E2
100
AcDbEntity
  8
0
100
AcDbBlockEnd
  0
BLOCK
  5
4F0
100
AcDbEntity
  8
0
370
    30
  6
Continuous
 62
     7
100
AcDbBlockBegin
  2
*G60
 70
     0
 10
0.0
 20
0.0
 30
0.0
  3
*G60
  1

  0
LINE
  5
4F1
100
AcDbEntity
  8
1
370
    30
  6
Continuous
 62
     7
100
AcDbLine
 10
947.745443
 20
1952.045191
 30
0.0
 11
947.745443
 21
1939.045191
 31
0.0
  0
LINE
  5
4F2
100
AcDbEntity
  8
1
370
    30
  6
Continuous
 62
     7
100
AcDbLine
 10
947.745443
 20
1939.045191
 30
0.0
 11
960.745443
 21
1939.045191
 31
0.0
  0
LINE
  5
4F3
100
AcDbEntity
  8
1
370
    30
  6
Continuous
 62
     7
100
AcDbLine
 10
960.745443
 20
1939.045191
 30
0.0
 11
960.745443
 21
1952.045191
 31
0.0
  0
LINE
  5
4F4
100
AcDbEntity
  8
1
370
    30
  6
Continuous
 62
     7
100
AcDbLine
 10
960.745443
 20
1952.045191
 30
0.0
 11
947.745443
 21
1952.045191
 31
0.0
  0
ENDBLK
  5
4F5
100
AcDbEntity
  8
0
100
AcDbBlockEnd
  0
BLOCK
  5
4F8
100
AcDbEntity
  8
0
370
    30
  6
Continuous
 62
     7
100
AcDbBlockBegin
  2
*G61
 70
     0
 10
0.0
 20
0.0
 30
0.0
  3
*G61
  1

  0
LINE
  5
4F9
100
AcDbEntity
  8
1
370
    30
  6
Continuous
 62
     7
100
AcDbLine
 10
947.745443
 20
1977.045191
 30
0.0
 11
947.745443
 21
1964.045191
 31
0.0
  0
LINE
  5
4FA
100
AcDbEntity
  8
1
370
    30
  6
Continuous
 62
     7
100
AcDbLine
 10
947.745443
 20
1964.045191
 30
0.0
 11
960.745443
 21
1964.045191
 31
0.0
  0
LINE
  5
4FB
100
AcDbEntity
  8
1
370
    30
  6
Continuous
 62
     7
100
AcDbLine
 10
960.745443
 20
1964.045191
 30
0.0
 11
960.745443
 21
1977.045191
 31
0.0
  0
LINE
  5
4FC
100
AcDbEntity
  8
1
370
    30
  6
Continuous
 62
     7
100
AcDbLine
 10
960.745443
 20
1977.045191
 30
0.0
 11
947.745443
 21
1977.045191
 31
0.0
  0
ENDBLK
  5
4FD
100
AcDbEntity
  8
0
100
AcDbBlockEnd
  0
BLOCK
  5
503
100
AcDbEntity
  8
0
370
    30
  6
Continuous
 62
     7
100
AcDbBlockBegin
  2
*G62
 70
     0
 10
0.0
 20
0.0
 30
0.0
  3
*G62
  1

  0
LINE
  5
504
100
AcDbEntity
  8
1
370
    30
  6
Continuous
 62
     7
100
AcDbLine
 10
939.245443
 20
2083.045191
 30
0.0
 11
939.245443
 21
1923.045191
 31
0.0
  0
LINE
  5
505
100
AcDbEntity
  8
1
370
    30
  6
Continuous
 62
     7
100
AcDbLine
 10
939.245443
 20
1923.045191
 30
0.0
 11
969.245443
 21
1923.045191
 31
0.0
  0
LINE
  5
506
100
AcDbEntity
  8
1
370
    30
  6
Continuous
 62
     7
100
AcDbLine
 10
969.245443
 20
1923.045191
 30
0.0
 11
969.245443
 21
2083.045191
 31
0.0
  0
LINE
  5
507
100
AcDbEntity
  8
1
370
    30
  6
Continuous
 62
     7
100
AcDbLine
 10
969.245443
 20
2083.045191
 30
0.0
 11
939.245443
 21
2083.045191
 31
0.0
  0
ENDBLK
  5
508
100
AcDbEntity
  8
0
100
AcDbBlockEnd
  0
BLOCK
  5
51A
100
AcDbEntity
  8
0
370
    30
  6
Continuous
 62
     7
100
AcDbBlockBegin
  2
*G63
 70
     0
 10
0.0
 20
0.0
 30
0.0
  3
*G63
  1

  0
LINE
  5
51B
100
AcDbEntity
  8
1
370
    30
  6
Continuous
 62
     7
100
AcDbLine
 10
917.745443
 20
1765.045191
 30
0.0
 11
917.745443
 21
1752.045191
 31
0.0
  0
LINE
  5
51C
100
AcDbEntity
  8
1
370
    30
  6
Continuous
 62
     7
100
AcDbLine
 10
917.745443
 20
1752.045191
 30
0.0
 11
930.745443
 21
1752.045191
 31
0.0
  0
LINE
  5
51D
100
AcDbEntity
  8
1
370
    30
  6
Continuous
 62
     7
100
AcDbLine
 10
930.745443
 20
1752.045191
 30
0.0
 11
930.745443
 21
1765.045191
 31
0.0
  0
LINE
  5
51E
100
AcDbEntity
  8
1
370
    30
  6
Continuous
 62
     7
100
AcDbLine
 10
930.745443
 20
1765.045191
 30
0.0
 11
917.745443
 21
1765.045191
 31
0.0
  0
ENDBLK
  5
51F
100
AcDbEntity
  8
0
100
AcDbBlockEnd
  0
BLOCK
  5
522
100
AcDbEntity
  8
0
370
    30
  6
Continuous
 62
     7
100
AcDbBlockBegin
  2
*G64
 70
     0
 10
0.0
 20
0.0
 30
0.0
  3
*G64
  1

  0
LINE
  5
523
100
AcDbEntity
  8
1
370
    30
  6
Continuous
 62
     7
100
AcDbLine
 10
917.745443
 20
1790.045191
 30
0.0
 11
917.745443
 21
1777.045191
 31
0.0
  0
LINE
  5
524
100
AcDbEntity
  8
1
370
    30
  6
Continuous
 62
     7
100
AcDbLine
 10
917.745443
 20
1777.045191
 30
0.0
 11
930.745443
 21
1777.045191
 31
0.0
  0
LINE
  5
525
100
AcDbEntity
  8
1
370
    30
  6
Continuous
 62
     7
100
AcDbLine
 10
930.745443
 20
1777.045191
 30
0.0
 11
930.745443
 21
1790.045191
 31
0.0
  0
LINE
  5
526
100
AcDbEntity
  8
1
370
    30
  6
Continuous
 62
     7
100
AcDbLine
 10
930.745443
 20
1790.045191
 30
0.0
 11
917.745443
 21
1790.045191
 31
0.0
  0
ENDBLK
  5
527
100
AcDbEntity
  8
0
100
AcDbBlockEnd
  0
BLOCK
  5
52D
100
AcDbEntity
  8
0
370
    30
  6
Continuous
 62
     7
100
AcDbBlockBegin
  2
*G65
 70
     0
 10
0.0
 20
0.0
 30
0.0
  3
*G65
  1

  0
LINE
  5
52E
100
AcDbEntity
  8
1
370
    30
  6
Continuous
 62
     7
100
AcDbLine
 10
909.245443
 20
1896.045191
 30
0.0
 11
909.245443
 21
1736.045191
 31
0.0
  0
LINE
  5
52F
100
AcDbEntity
  8
1
370
    30
  6
Continuous
 62
     7
100
AcDbLine
 10
909.245443
 20
1736.045191
 30
0.0
 11
939.245443
 21
1736.045191
 31
0.0
  0
LINE
  5
530
100
AcDbEntity
  8
1
370
    30
  6
Continuous
 62
     7
100
AcDbLine
 10
939.245443
 20
1736.045191
 30
0.0
 11
939.245443
 21
1896.045191
 31
0.0
  0
LINE
  5
531
100
AcDbEntity
  8
1
370
    30
  6
Continuous
 62
     7
100
AcDbLine
 10
939.245443
 20
1896.045191
 30
0.0
 11
909.245443
 21
1896.045191
 31
0.0
  0
ENDBLK
  5
532
100
AcDbEntity
  8
0
100
AcDbBlockEnd
  0
BLOCK
  5
542
100
AcDbEntity
  8
0
370
    30
  6
Continuous
 62
     7
100
AcDbBlockBegin
  2
*G66
 70
     0
 10
0.0
 20
0.0
 30
0.0
  3
*G66
  1

  0
LINE
  5
543
100
AcDbEntity
  8
1
370
    30
  6
Continuous
 62
     7
100
AcDbLine
 10
887.745443
 20
1765.045191
 30
0.0
 11
887.745443
 21
1752.045191
 31
0.0
  0
LINE
  5
544
100
AcDbEntity
  8
1
370
    30
  6
Continuous
 62
     7
100
AcDbLine
 10
887.745443
 20
1752.045191
 30
0.0
 11
900.745443
 21
1752.045191
 31
0.0
  0
LINE
  5
545
100
AcDbEntity
  8
1
370
    30
  6
Continuous
 62
     7
100
AcDbLine
 10
900.745443
 20
1752.045191
 30
0.0
 11
900.745443
 21
1765.045191
 31
0.0
  0
LINE
  5
546
100
AcDbEntity
  8
1
370
    30
  6
Continuous
 62
     7
100
AcDbLine
 10
900.745443
 20
1765.045191
 30
0.0
 11
887.745443
 21
1765.045191
 31
0.0
  0
ENDBLK
  5
547
100
AcDbEntity
  8
0
100
AcDbBlockEnd
  0
BLOCK
  5
54A
100
AcDbEntity
  8
0
370
    30
  6
Continuous
 62
     7
100
AcDbBlockBegin
  2
*G67
 70
     0
 10
0.0
 20
0.0
 30
0.0
  3
*G67
  1

  0
LINE
  5
54B
100
AcDbEntity
  8
1
370
    30
  6
Continuous
 62
     7
100
AcDbLine
 10
887.745443
 20
1790.045191
 30
0.0
 11
887.745443
 21
1777.045191
 31
0.0
  0
LINE
  5
54C
100
AcDbEntity
  8
1
370
    30
  6
Continuous
 62
     7
100
AcDbLine
 10
887.745443
 20
1777.045191
 30
0.0
 11
900.745443
 21
1777.045191
 31
0.0
  0
LINE
  5
54D
100
AcDbEntity
  8
1
370
    30
  6
Continuous
 62
     7
100
AcDbLine
 10
900.745443
 20
1777.045191
 30
0.0
 11
900.745443
 21
1790.045191
 31
0.0
  0
LINE
  5
54E
100
AcDbEntity
  8
1
370
    30
  6
Continuous
 62
     7
100
AcDbLine
 10
900.745443
 20
1790.045191
 30
0.0
 11
887.745443
 21
1790.045191
 31
0.0
  0
ENDBLK
  5
54F
100
AcDbEntity
  8
0
100
AcDbBlockEnd
  0
BLOCK
  5
555
100
AcDbEntity
  8
0
370
    30
  6
Continuous
 62
     7
100
AcDbBlockBegin
  2
*G68
 70
     0
 10
0.0
 20
0.0
 30
0.0
  3
*G68
  1

  0
LINE
  5
556
100
AcDbEntity
  8
1
370
    30
  6
Continuous
 62
     7
100
AcDbLine
 10
879.245443
 20
1896.045191
 30
0.0
 11
879.245443
 21
1736.045191
 31
0.0
  0
LINE
  5
557
100
AcDbEntity
  8
1
370
    30
  6
Continuous
 62
     7
100
AcDbLine
 10
879.245443
 20
1736.045191
 30
0.0
 11
909.245443
 21
1736.045191
 31
0.0
  0
LINE
  5
558
100
AcDbEntity
  8
1
370
    30
  6
Continuous
 62
     7
100
AcDbLine
 10
909.245443
 20
1736.045191
 30
0.0
 11
909.245443
 21
1896.045191
 31
0.0
  0
LINE
  5
559
100
AcDbEntity
  8
1
370
    30
  6
Continuous
 62
     7
100
AcDbLine
 10
909.245443
 20
1896.045191
 30
0.0
 11
879.245443
 21
1896.045191
 31
0.0
  0
ENDBLK
  5
55A
100
AcDbEntity
  8
0
100
AcDbBlockEnd
  0
BLOCK
  5
56A
100
AcDbEntity
  8
0
370
    30
  6
Continuous
 62
     7
100
AcDbBlockBegin
  2
*G69
 70
     0
 10
0.0
 20
0.0
 30
0.0
  3
*G69
  1

  0
LINE
  5
56B
100
AcDbEntity
  8
1
370
    30
  6
Continuous
 62
     7
100
AcDbLine
 10
857.745443
 20
1765.045191
 30
0.0
 11
857.745443
 21
1752.045191
 31
0.0
  0
LINE
  5
56C
100
AcDbEntity
  8
1
370
    30
  6
Continuous
 62
     7
100
AcDbLine
 10
857.745443
 20
1752.045191
 30
0.0
 11
870.745443
 21
1752.045191
 31
0.0
  0
LINE
  5
56D
100
AcDbEntity
  8
1
370
    30
  6
Continuous
 62
     7
100
AcDbLine
 10
870.745443
 20
1752.045191
 30
0.0
 11
870.745443
 21
1765.045191
 31
0.0
  0
LINE
  5
56E
100
AcDbEntity
  8
1
370
    30
  6
Continuous
 62
     7
100
AcDbLine
 10
870.745443
 20
1765.045191
 30
0.0
 11
857.745443
 21
1765.045191
 31
0.0
  0
ENDBLK
  5
56F
100
AcDbEntity
  8
0
100
AcDbBlockEnd
  0
BLOCK
  5
572
100
AcDbEntity
  8
0
370
    30
  6
Continuous
 62
     7
100
AcDbBlockBegin
  2
*G70
 70
     0
 10
0.0
 20
0.0
 30
0.0
  3
*G70
  1

  0
LINE
  5
573
100
AcDbEntity
  8
1
370
    30
  6
Continuous
 62
     7
100
AcDbLine
 10
857.745443
 20
1790.045191
 30
0.0
 11
857.745443
 21
1777.045191
 31
0.0
  0
LINE
  5
574
100
AcDbEntity
  8
1
370
    30
  6
Continuous
 62
     7
100
AcDbLine
 10
857.745443
 20
1777.045191
 30
0.0
 11
870.745443
 21
1777.045191
 31
0.0
  0
LINE
  5
575
100
AcDbEntity
  8
1
370
    30
  6
Continuous
 62
     7
100
AcDbLine
 10
870.745443
 20
1777.045191
 30
0.0
 11
870.745443
 21
1790.045191
 31
0.0
  0
LINE
  5
576
100
AcDbEntity
  8
1
370
    30
  6
Continuous
 62
     7
100
AcDbLine
 10
870.745443
 20
1790.045191
 30
0.0
 11
857.745443
 21
1790.045191
 31
0.0
  0
ENDBLK
  5
577
100
AcDbEntity
  8
0
100
AcDbBlockEnd
  0
BLOCK
  5
57D
100
AcDbEntity
  8
0
370
    30
  6
Continuous
 62
     7
100
AcDbBlockBegin
  2
*G71
 70
     0
 10
0.0
 20
0.0
 30
0.0
  3
*G71
  1

  0
LINE
  5
57E
100
AcDbEntity
  8
1
370
    30
  6
Continuous
 62
     7
100
AcDbLine
 10
849.245443
 20
1896.045191
 30
0.0
 11
849.245443
 21
1736.045191
 31
0.0
  0
LINE
  5
57F
100
AcDbEntity
  8
1
370
    30
  6
Continuous
 62
     7
100
AcDbLine
 10
849.245443
 20
1736.045191
 30
0.0
 11
879.245443
 21
1736.045191
 31
0.0
  0
LINE
  5
580
100
AcDbEntity
  8
1
370
    30
  6
Continuous
 62
     7
100
AcDbLine
 10
879.245443
 20
1736.045191
 30
0.0
 11
879.245443
 21
1896.045191
 31
0.0
  0
LINE
  5
581
100
AcDbEntity
  8
1
370
    30
  6
Continuous
 62
     7
100
AcDbLine
 10
879.245443
 20
1896.045191
 30
0.0
 11
849.245443
 21
1896.045191
 31
0.0
  0
ENDBLK
  5
582
100
AcDbEntity
  8
0
100
AcDbBlockEnd
  0
BLOCK
  5
592
100
AcDbEntity
  8
0
370
    30
  6
Continuous
 62
     7
100
AcDbBlockBegin
  2
*G72
 70
     0
 10
0.0
 20
0.0
 30
0.0
  3
*G72
  1

  0
LINE
  5
593
100
AcDbEntity
  8
1
370
    30
  6
Continuous
 62
     7
100
AcDbLine
 10
827.745443
 20
1765.045191
 30
0.0
 11
827.745443
 21
1752.045191
 31
0.0
  0
LINE
  5
594
100
AcDbEntity
  8
1
370
    30
  6
Continuous
 62
     7
100
AcDbLine
 10
827.745443
 20
1752.045191
 30
0.0
 11
840.745443
 21
1752.045191
 31
0.0
  0
LINE
  5
595
100
AcDbEntity
  8
1
370
    30
  6
Continuous
 62
     7
100
AcDbLine
 10
840.745443
 20
1752.045191
 30
0.0
 11
840.745443
 21
1765.045191
 31
0.0
  0
LINE
  5
596
100
AcDbEntity
  8
1
370
    30
  6
Continuous
 62
     7
100
AcDbLine
 10
840.745443
 20
1765.045191
 30
0.0
 11
827.745443
 21
1765.045191
 31
0.0
  0
ENDBLK
  5
597
100
AcDbEntity
  8
0
100
AcDbBlockEnd
  0
BLOCK
  5
59A
100
AcDbEntity
  8
0
370
    30
  6
Continuous
 62
     7
100
AcDbBlockBegin
  2
*G73
 70
     0
 10
0.0
 20
0.0
 30
0.0
  3
*G73
  1

  0
LINE
  5
59B
100
AcDbEntity
  8
1
370
    30
  6
Continuous
 62
     7
100
AcDbLine
 10
827.745443
 20
1790.045191
 30
0.0
 11
827.745443
 21
1777.045191
 31
0.0
  0
LINE
  5
59C
100
AcDbEntity
  8
1
370
    30
  6
Continuous
 62
     7
100
AcDbLine
 10
827.745443
 20
1777.045191
 30
0.0
 11
840.745443
 21
1777.045191
 31
0.0
  0
LINE
  5
59D
100
AcDbEntity
  8
1
370
    30
  6
Continuous
 62
     7
100
AcDbLine
 10
840.745443
 20
1777.045191
 30
0.0
 11
840.745443
 21
1790.045191
 31
0.0
  0
LINE
  5
59E
100
AcDbEntity
  8
1
370
    30
  6
Continuous
 62
     7
100
AcDbLine
 10
840.745443
 20
1790.045191
 30
0.0
 11
827.745443
 21
1790.045191
 31
0.0
  0
ENDBLK
  5
59F
100
AcDbEntity
  8
0
100
AcDbBlockEnd
  0
BLOCK
  5
5A5
100
AcDbEntity
  8
0
370
    30
  6
Continuous
 62
     7
100
AcDbBlockBegin
  2
*G74
 70
     0
 10
0.0
 20
0.0
 30
0.0
  3
*G74
  1

  0
LINE
  5
5A6
100
AcDbEntity
  8
1
370
    30
  6
Continuous
 62
     7
100
AcDbLine
 10
819.245443
 20
1896.045191
 30
0.0
 11
819.245443
 21
1736.045191
 31
0.0
  0
LINE
  5
5A7
100
AcDbEntity
  8
1
370
    30
  6
Continuous
 62
     7
100
AcDbLine
 10
819.245443
 20
1736.045191
 30
0.0
 11
849.245443
 21
1736.045191
 31
0.0
  0
LINE
  5
5A8
100
AcDbEntity
  8
1
370
    30
  6
Continuous
 62
     7
100
AcDbLine
 10
849.245443
 20
1736.045191
 30
0.0
 11
849.245443
 21
1896.045191
 31
0.0
  0
LINE
  5
5A9
100
AcDbEntity
  8
1
370
    30
  6
Continuous
 62
     7
100
AcDbLine
 10
849.245443
 20
1896.045191
 30
0.0
 11
819.245443
 21
1896.045191
 31
0.0
  0
ENDBLK
  5
5AA
100
AcDbEntity
  8
0
100
AcDbBlockEnd
  0
BLOCK
  5
5B8
100
AcDbEntity
  8
0
370
    30
  6
Continuous
 62
     7
100
AcDbBlockBegin
  2
*G75
 70
     0
 10
0.0
 20
0.0
 30
0.0
  3
*G75
  1

  0
LINE
  5
5B9
100
AcDbEntity
  8
1
370
    30
  6
Continuous
 62
     7
100
AcDbLine
 10
797.745443
 20
1765.045191
 30
0.0
 11
797.745443
 21
1752.045191
 31
0.0
  0
LINE
  5
5BA
100
AcDbEntity
  8
1
370
    30
  6
Continuous
 62
     7
100
AcDbLine
 10
797.745443
 20
1752.045191
 30
0.0
 11
810.745443
 21
1752.045191
 31
0.0
  0
LINE
  5
5BB
100
AcDbEntity
  8
1
370
    30
  6
Continuous
 62
     7
100
AcDbLine
 10
810.745443
 20
1752.045191
 30
0.0
 11
810.745443
 21
1765.045191
 31
0.0
  0
LINE
  5
5BC
100
AcDbEntity
  8
1
370
    30
  6
Continuous
 62
     7
100
AcDbLine
 10
810.745443
 20
1765.045191
 30
0.0
 11
797.745443
 21
1765.045191
 31
0.0
  0
ENDBLK
  5
5BD
100
AcDbEntity
  8
0
100
AcDbBlockEnd
  0
BLOCK
  5
5C0
100
AcDbEntity
  8
0
370
    30
  6
Continuous
 62
     7
100
AcDbBlockBegin
  2
*G76
 70
     0
 10
0.0
 20
0.0
 30
0.0
  3
*G76
  1

  0
LINE
  5
5C1
100
AcDbEntity
  8
1
370
    30
  6
Continuous
 62
     7
100
AcDbLine
 10
797.745443
 20
1790.045191
 30
0.0
 11
797.745443
 21
1777.045191
 31
0.0
  0
LINE
  5
5C2
100
AcDbEntity
  8
1
370
    30
  6
Continuous
 62
     7
100
AcDbLine
 10
797.745443
 20
1777.045191
 30
0.0
 11
810.745443
 21
1777.045191
 31
0.0
  0
LINE
  5
5C3
100
AcDbEntity
  8
1
370
    30
  6
Continuous
 62
     7
100
AcDbLine
 10
810.745443
 20
1777.045191
 30
0.0
 11
810.745443
 21
1790.045191
 31
0.0
  0
LINE
  5
5C4
100
AcDbEntity
  8
1
370
    30
  6
Continuous
 62
     7
100
AcDbLine
 10
810.745443
 20
1790.045191
 30
0.0
 11
797.745443
 21
1790.045191
 31
0.0
  0
ENDBLK
  5
5C5
100
AcDbEntity
  8
0
100
AcDbBlockEnd
  0
BLOCK
  5
5CB
100
AcDbEntity
  8
0
370
    30
  6
Continuous
 62
     7
100
AcDbBlockBegin
  2
*G77
 70
     0
 10
0.0
 20
0.0
 30
0.0
  3
*G77
  1

  0
LINE
  5
5CC
100
AcDbEntity
  8
1
370
    30
  6
Continuous
 62
     7
100
AcDbLine
 10
789.245443
 20
1896.045191
 30
0.0
 11
789.245443
 21
1736.045191
 31
0.0
  0
LINE
  5
5CD
100
AcDbEntity
  8
1
370
    30
  6
Continuous
 62
     7
100
AcDbLine
 10
789.245443
 20
1736.045191
 30
0.0
 11
819.245443
 21
1736.045191
 31
0.0
  0
LINE
  5
5CE
100
AcDbEntity
  8
1
370
    30
  6
Continuous
 62
     7
100
AcDbLine
 10
819.245443
 20
1736.045191
 30
0.0
 11
819.245443
 21
1896.045191
 31
0.0
  0
LINE
  5
5CF
100
AcDbEntity
  8
1
370
    30
  6
Continuous
 62
     7
100
AcDbLine
 10
819.245443
 20
1896.045191
 30
0.0
 11
789.245443
 21
1896.045191
 31
0.0
  0
ENDBLK
  5
5D0
100
AcDbEntity
  8
0
100
AcDbBlockEnd
  0
BLOCK
  5
5D7
100
AcDbEntity
  8
0
370
    30
  6
Continuous
 62
     7
100
AcDbBlockBegin
  2
*G78
 70
     0
 10
0.0
 20
0.0
 30
0.0
  3
*G78
  1

  0
LINE
  5
5D8
100
AcDbEntity
  8
1
370
    30
  6
Continuous
 62
     7
100
AcDbLine
 10
1059.245443
 20
1896.045191
 30
0.0
 11
1059.245443
 21
1736.045191
 31
0.0
  0
LINE
  5
5D9
100
AcDbEntity
  8
1
370
    30
  6
Continuous
 62
     7
100
AcDbLine
 10
1059.245443
 20
1736.045191
 30
0.0
 11
1089.245443
 21
1736.045191
 31
0.0
  0
LINE
  5
5DA
100
AcDbEntity
  8
1
370
    30
  6
Continuous
 62
     7
100
AcDbLine
 10
1089.245443
 20
1736.045191
 30
0.0
 11
1089.245443
 21
1896.045191
 31
0.0
  0
LINE
  5
5DB
100
AcDbEntity
  8
1
370
    30
  6
Continuous
 62
     7
100
AcDbLine
 10
1089.245443
 20
1896.045191
 30
0.0
 11
1059.245443
 21
1896.045191
 31
0.0
  0
ENDBLK
  5
5DC
100
AcDbEntity
  8
0
100
AcDbBlockEnd
  0
BLOCK
  5
5E1
100
AcDbEntity
  8
0
370
    30
  6
Continuous
 62
     7
100
AcDbBlockBegin
  2
*G79
 70
     0
 10
0.0
 20
0.0
 30
0.0
  3
*G79
  1

  0
LINE
  5
5E2
100
AcDbEntity
  8
1
370
    30
  6
Continuous
 62
     7
100
AcDbLine
 10
1029.245443
 20
1896.045191
 30
0.0
 11
1029.245443
 21
1736.045191
 31
0.0
  0
LINE
  5
5E3
100
AcDbEntity
  8
1
370
    30
  6
Continuous
 62
     7
100
AcDbLine
 10
1029.245443
 20
1736.045191
 30
0.0
 11
1059.245443
 21
1736.045191
 31
0.0
  0
LINE
  5
5E4
100
AcDbEntity
  8
1
370
    30
  6
Continuous
 62
     7
100
AcDbLine
 10
1059.245443
 20
1736.045191
 30
0.0
 11
1059.245443
 21
1896.045191
 31
0.0
  0
LINE
  5
5E5
100
AcDbEntity
  8
1
370
    30
  6
Continuous
 62
     7
100
AcDbLine
 10
1059.245443
 20
1896.045191
 30
0.0
 11
1029.245443
 21
1896.045191
 31
0.0
  0
ENDBLK
  5
5E6
100
AcDbEntity
  8
0
100
AcDbBlockEnd
  0
BLOCK
  5
5EB
100
AcDbEntity
  8
0
370
    30
  6
Continuous
 62
     7
100
AcDbBlockBegin
  2
*G80
 70
     0
 10
0.0
 20
0.0
 30
0.0
  3
*G80
  1

  0
LINE
  5
5EC
100
AcDbEntity
  8
1
370
    30
  6
Continuous
 62
     7
100
AcDbLine
 10
999.245443
 20
1896.045191
 30
0.0
 11
999.245443
 21
1736.045191
 31
0.0
  0
LINE
  5
5ED
100
AcDbEntity
  8
1
370
    30
  6
Continuous
 62
     7
100
AcDbLine
 10
999.245443
 20
1736.045191
 30
0.0
 11
1029.245443
 21
1736.045191
 31
0.0
  0
LINE
  5
5EE
100
AcDbEntity
  8
1
370
    30
  6
Continuous
 62
     7
100
AcDbLine
 10
1029.245443
 20
1736.045191
 30
0.0
 11
1029.245443
 21
1896.045191
 31
0.0
  0
LINE
  5
5EF
100
AcDbEntity
  8
1
370
    30
  6
Continuous
 62
     7
100
AcDbLine
 10
1029.245443
 20
1896.045191
 30
0.0
 11
999.245443
 21
1896.045191
 31
0.0
  0
ENDBLK
  5
5F0
100
AcDbEntity
  8
0
100
AcDbBlockEnd
  0
BLOCK
  5
5F5
100
AcDbEntity
  8
0
370
    30
  6
Continuous
 62
     7
100
AcDbBlockBegin
  2
*G81
 70
     0
 10
0.0
 20
0.0
 30
0.0
  3
*G81
  1

  0
LINE
  5
5F6
100
AcDbEntity
  8
1
370
    30
  6
Continuous
 62
     7
100
AcDbLine
 10
969.245443
 20
1896.045191
 30
0.0
 11
969.245443
 21
1736.045191
 31
0.0
  0
LINE
  5
5F7
100
AcDbEntity
  8
1
370
    30
  6
Continuous
 62
     7
100
AcDbLine
 10
969.245443
 20
1736.045191
 30
0.0
 11
999.245443
 21
1736.045191
 31
0.0
  0
LINE
  5
5F8
100
AcDbEntity
  8
1
370
    30
  6
Continuous
 62
     7
100
AcDbLine
 10
999.245443
 20
1736.045191
 30
0.0
 11
999.245443
 21
1896.045191
 31
0.0
  0
LINE
  5
5F9
100
AcDbEntity
  8
1
370
    30
  6
Continuous
 62
     7
100
AcDbLine
 10
999.245443
 20
1896.045191
 30
0.0
 11
969.245443
 21
1896.045191
 31
0.0
  0
ENDBLK
  5
5FA
100
AcDbEntity
  8
0
100
AcDbBlockEnd
  0
BLOCK
  5
5FD
100
AcDbEntity
  8
0
370
    30
  6
Continuous
 62
     7
100
AcDbBlockBegin
  2
*G82
 70
     0
 10
0.0
 20
0.0
 30
0.0
  3
*G82
  1

  0
LINE
  5
5FE
100
AcDbEntity
  8
1
370
    30
  6
Continuous
 62
     7
100
AcDbLine
 10
939.245443
 20
1896.045191
 30
0.0
 11
939.245443
 21
1736.045191
 31
0.0
  0
LINE
  5
5FF
100
AcDbEntity
  8
1
370
    30
  6
Continuous
 62
     7
100
AcDbLine
 10
939.245443
 20
1736.045191
 30
0.0
 11
969.245443
 21
1736.045191
 31
0.0
  0
LINE
  5
600
100
AcDbEntity
  8
1
370
    30
  6
Continuous
 62
     7
100
AcDbLine
 10
969.245443
 20
1736.045191
 30
0.0
 11
969.245443
 21
1896.045191
 31
0.0
  0
LINE
  5
601
100
AcDbEntity
  8
1
370
    30
  6
Continuous
 62
     7
100
AcDbLine
 10
969.245443
 20
1896.045191
 30
0.0
 11
939.245443
 21
1896.045191
 31
0.0
  0
ENDBLK
  5
602
100
AcDbEntity
  8
0
100
AcDbBlockEnd
  0
BLOCK
  5
615
100
AcDbEntity
  8
0
370
    30
  6
Continuous
 62
     7
100
AcDbBlockBegin
  2
*G83
 70
     0
 10
0.0
 20
0.0
 30
0.0
  3
*G83
  1

  0
LINE
  5
616
100
AcDbEntity
  8
1
370
    30
  6
Continuous
 62
     7
100
AcDbLine
 10
1060.245443
 20
1695.545191
 30
0.0
 11
1073.245443
 21
1695.545191
 31
0.0
  0
LINE
  5
617
100
AcDbEntity
  8
1
370
    30
  6
Continuous
 62
     7
100
AcDbLine
 10
1073.245443
 20
1695.545191
 30
0.0
 11
1073.245443
 21
1708.545191
 31
0.0
  0
LINE
  5
618
100
AcDbEntity
  8
1
370
    30
  6
Continuous
 62
     7
100
AcDbLine
 10
1073.245443
 20
1708.545191
 30
0.0
 11
1060.245443
 21
1708.545191
 31
0.0
  0
LINE
  5
619
100
AcDbEntity
  8
1
370
    30
  6
Continuous
 62
     7
100
AcDbLine
 10
1060.245443
 20
1708.545191
 30
0.0
 11
1060.245443
 21
1695.545191
 31
0.0
  0
ENDBLK
  5
61A
100
AcDbEntity
  8
0
100
AcDbBlockEnd
  0
BLOCK
  5
61D
100
AcDbEntity
  8
0
370
    30
  6
Continuous
 62
     7
100
AcDbBlockBegin
  2
*G84
 70
     0
 10
0.0
 20
0.0
 30
0.0
  3
*G84
  1

  0
LINE
  5
61E
100
AcDbEntity
  8
1
370
    30
  6
Continuous
 62
     7
100
AcDbLine
 10
1035.245443
 20
1695.545191
 30
0.0
 11
1048.245443
 21
1695.545191
 31
0.0
  0
LINE
  5
61F
100
AcDbEntity
  8
1
370
    30
  6
Continuous
 62
     7
100
AcDbLine
 10
1048.245443
 20
1695.545191
 30
0.0
 11
1048.245443
 21
1708.545191
 31
0.0
  0
LINE
  5
620
100
AcDbEntity
  8
1
370
    30
  6
Continuous
 62
     7
100
AcDbLine
 10
1048.245443
 20
1708.545191
 30
0.0
 11
1035.245443
 21
1708.545191
 31
0.0
  0
LINE
  5
621
100
AcDbEntity
  8
1
370
    30
  6
Continuous
 62
     7
100
AcDbLine
 10
1035.245443
 20
1708.545191
 30
0.0
 11
1035.245443
 21
1695.545191
 31
0.0
  0
ENDBLK
  5
622
100
AcDbEntity
  8
0
100
AcDbBlockEnd
  0
BLOCK
  5
628
100
AcDbEntity
  8
0
370
    30
  6
Continuous
 62
     7
100
AcDbBlockBegin
  2
*G85
 70
     0
 10
0.0
 20
0.0
 30
0.0
  3
*G85
  1

  0
LINE
  5
629
100
AcDbEntity
  8
1
370
    30
  6
Continuous
 62
     7
100
AcDbLine
 10
929.245443
 20
1687.045191
 30
0.0
 11
1089.245443
 21
1687.045191
 31
0.0
  0
LINE
  5
62A
100
AcDbEntity
  8
1
370
    30
  6
Continuous
 62
     7
100
AcDbLine
 10
1089.245443
 20
1687.045191
 30
0.0
 11
1089.245443
 21
1717.045191
 31
0.0
  0
LINE
  5
62B
100
AcDbEntity
  8
1
370
    30
  6
Continuous
 62
     7
100
AcDbLine
 10
1089.245443
 20
1717.045191
 30
0.0
 11
929.245443
 21
1717.045191
 31
0.0
  0
LINE
  5
62C
100
AcDbEntity
  8
1
370
    30
  6
Continuous
 62
     7
100
AcDbLine
 10
929.245443
 20
1717.045191
 30
0.0
 11
929.245443
 21
1687.045191
 31
0.0
  0
ENDBLK
  5
62D
100
AcDbEntity
  8
0
100
AcDbBlockEnd
  0
BLOCK
  5
632
100
AcDbEntity
  8
2
370
     9
  6
Continuous
 62
   214
100
AcDbBlockBegin
  2
*D86
 70
     0
 10
0.0
 20
0.0
 30
0.0
  3
*D86
  1

  0
LINE
  5
633
100
AcDbEntity
  8
2
370
     9
  6
Continuous
 62
   214
100
AcDbLine
 10
689.245443
 20
2432.045029
 30
0.0
 11
1189.245443
 21
2432.045029
 31
0.0
  0
LINE
  5
634
100
AcDbEntity
  8
2
370
     9
  6
Continuous
 62
   214
100
AcDbLine
 10
689.245443
 20
2452.045029
 30
0.0
 11
689.245443
 21
2344.985436
 31
0.0
  0
LINE
  5
635
100
AcDbEntity
  8
2
370
     9
  6
Continuous
 62
   214
100
AcDbLine
 10
1189.245443
 20
2452.045029
 30
0.0
 11
1189.245443
 21
2344.985436
 31
0.0
  0
LINE
  5
636
100
AcDbEntity
  8
2
370
     9
  6
Continuous
 62
   214
100
AcDbLine
 10
689.245443
 20
2432.045029
 30
0.0
 11
712.427663
 21
2438.256686
 31
0.0
  0
LINE
  5
637
100
AcDbEntity
  8
2
370
     9
  6
Continuous
 62
   214
100
AcDbLine
 10
689.245443
 20
2432.045029
 30
0.0
 11
712.427663
 21
2425.833372
 31
0.0
  0
LINE
  5
638
100
AcDbEntity
  8
2
370
     9
  6
Continuous
 62
   214
100
AcDbLine
 10
1189.245443
 20
2432.045029
 30
0.0
 11
1166.063223
 21
2425.833372
 31
0.0
  0
LINE
  5
639
100
AcDbEntity
  8
2
370
     9
  6
Continuous
 62
   214
100
AcDbLine
 10
1189.245443
 20
2432.045029
 30
0.0
 11
1166.063223
 21
2438.256686
 31
0.0
  0
TEXT
  5
63A
100
AcDbEntity
  8
2
370
     9
  6
Continuous
 62
   214
100
AcDbText
 10
914.745443
 20
2437.045029
 30
0.0
 40
30.0
  1
500
 41
0.544444
 11
914.745443
 21
2437.045029
 31
0.0
100
AcDbText
 73
     1
  0
ENDBLK
  5
63B
100
AcDbEntity
  8
2
370
     9
  6
Continuous
 62
   214
100
AcDbBlockEnd
  0
BLOCK
  5
63E
100
AcDbEntity
  8
2
370
     9
  6
Continuous
 62
   214
100
AcDbBlockBegin
  2
*D87
 70
     0
 10
0.0
 20
0.0
 30
0.0
  3
*D87
  1

  0
LINE
  5
63F
100
AcDbEntity
  8
2
370
     9
  6
Continuous
 62
   214
100
AcDbLine
 10
1289.245443
 20
2332.045029
 30
0.0
 11
1289.245443
 21
1632.045029
 31
0.0
  0
LINE
  5
640
100
AcDbEntity
  8
2
370
     9
  6
Continuous
 62
   214
100
AcDbLine
 10
1309.245443
 20
2332.045029
 30
0.0
 11
1196.502269
 21
2332.045029
 31
0.0
  0
LINE
  5
641
100
AcDbEntity
  8
2
370
     9
  6
Continuous
 62
   214
100
AcDbLine
 10
1309.245443
 20
1632.045029
 30
0.0
 11
1194.252612
 21
1632.045029
 31
0.0
  0
LINE
  5
642
100
AcDbEntity
  8
2
370
     9
  6
Continuous
 62
   214
100
AcDbLine
 10
1289.245443
 20
2332.045029
 30
0.0
 11
1295.4571
 21
2308.862809
 31
0.0
  0
LINE
  5
643
100
AcDbEntity
  8
2
370
     9
  6
Continuous
 62
   214
100
AcDbLine
 10
1289.245443
 20
2332.045029
 30
0.0
 11
1283.033786
 21
2308.862809
 31
0.0
  0
LINE
  5
644
100
AcDbEntity
  8
2
370
     9
  6
Continuous
 62
   214
100
AcDbLine
 10
1289.245443
 20
1632.045029
 30
0.0
 11
1283.033786
 21
1655.227249
 31
0.0
  0
LINE
  5
645
100
AcDbEntity
  8
2
370
     9
  6
Continuous
 62
   214
100
AcDbLine
 10
1289.245443
 20
1632.045029
 30
0.0
 11
1295.4571
 21
1655.227249
 31
0.0
  0
TEXT
  5
646
100
AcDbEntity
  8
2
370
     9
  6
Continuous
 62
   214
100
AcDbText
 10
1284.245443
 20
1957.545029
 30
0.0
 40
30.0
  1
700
 50
90.0
 41
0.544444
 11
1284.245443
 21
1957.545029
 31
0.0
100
AcDbText
 73
     1
  0
ENDBLK
  5
647
100
AcDbEntity
  8
2
370
     9
  6
Continuous
 62
   214
100
AcDbBlockEnd
  0
BLOCK
  5
65A
100
AcDbEntity
  8
2
370
     9
  6
Continuous
 62
   214
100
AcDbBlockBegin
  2
*D88
 70
     0
 10
0.0
 20
0.0
 30
0.0
  3
*D88
  1

  0
LINE
  5
65B
100
AcDbEntity
  8
2
370
     9
  6
Continuous
 62
   214
100
AcDbLine
 10
2059.27472
 20
2432.045029
 30
0.0
 11
2519.27472
 21
2432.045029
 31
0.0
  0
LINE
  5
65C
100
AcDbEntity
  8
2
370
     9
  6
Continuous
 62
   214
100
AcDbLine
 10
2059.27472
 20
2452.045029
 30
0.0
 11
2059.27472
 21
2309.233348
 31
0.0
  0
LINE
  5
65D
100
AcDbEntity
  8
2
370
     9
  6
Continuous
 62
   214
100
AcDbLine
 10
2519.27472
 20
2452.045029
 30
0.0
 11
2519.27472
 21
2308.097719
 31
0.0
  0
LINE
  5
65E
100
AcDbEntity
  8
2
370
     9
  6
Continuous
 62
   214
100
AcDbLine
 10
2059.27472
 20
2432.045029
 30
0.0
 11
2082.45694
 21
2438.256686
 31
0.0
  0
LINE
  5
65F
100
AcDbEntity
  8
2
370
     9
  6
Continuous
 62
   214
100
AcDbLine
 10
2059.27472
 20
2432.045029
 30
0.0
 11
2082.45694
 21
2425.833372
 31
0.0
  0
LINE
  5
660
100
AcDbEntity
  8
2
370
     9
  6
Continuous
 62
   214
100
AcDbLine
 10
2519.27472
 20
2432.045029
 30
0.0
 11
2496.0925
 21
2425.833372
 31
0.0
  0
LINE
  5
661
100
AcDbEntity
  8
2
370
     9
  6
Continuous
 62
   214
100
AcDbLine
 10
2519.27472
 20
2432.045029
 30
0.0
 11
2496.0925
 21
2438.256686
 31
0.0
  0
TEXT
  5
662
100
AcDbEntity
  8
2
370
     9
  6
Continuous
 62
   214
100
AcDbText
 10
2264.77472
 20
2437.045029
 30
0.0
 40
30.0
  1
460
 41
0.544444
 11
2264.77472
 21
2437.045029
 31
0.0
100
AcDbText
 73
     1
  0
ENDBLK
  5
663
100
AcDbEntity
  8
2
370
     9
  6
Continuous
 62
   214
100
AcDbBlockEnd
  0
BLOCK
  5
666
100
AcDbEntity
  8
2
370
     9
  6
Continuous
 62
   214
100
AcDbBlockBegin
  2
*D89
 70
     0
 10
0.0
 20
0.0
 30
0.0
  3
*D89
  1

  0
LINE
  5
667
100
AcDbEntity
  8
2
370
     9
  6
Continuous
 62
   214
100
AcDbLine
 10
2639.27472
 20
2272.045029
 30
0.0
 11
2639.27472
 21
1692.045029
 31
0.0
  0
LINE
  5
668
100
AcDbEntity
  8
2
370
     9
  6
Continuous
 62
   214
100
AcDbLine
 10
2659.27472
 20
2272.045029
 30
0.0
 11
2561.725876
 21
2272.045029
 31
0.0
  0
LINE
  5
669
100
AcDbEntity
  8
2
370
     9
  6
Continuous
 62
   214
100
AcDbLine
 10
2659.27472
 20
1692.045029
 30
0.0
 11
2562.319282
 21
1692.045029
 31
0.0
  0
LINE
  5
66A
100
AcDbEntity
  8
2
370
     9
  6
Continuous
 62
   214
100
AcDbLine
 10
2639.27472
 20
2272.045029
 30
0.0
 11
2645.486377
 21
2248.862809
 31
0.0
  0
LINE
  5
66B
100
AcDbEntity
  8
2
370
     9
  6
Continuous
 62
   214
100
AcDbLine
 10
2639.27472
 20
2272.045029
 30
0.0
 11
2633.063063
 21
2248.862809
 31
0.0
  0
LINE
  5
66C
100
AcDbEntity
  8
2
370
     9
  6
Continuous
 62
   214
100
AcDbLine
 10
2639.27472
 20
1692.045029
 30
0.0
 11
2633.063063
 21
1715.227249
 31
0.0
  0
LINE
  5
66D
100
AcDbEntity
  8
2
370
     9
  6
Continuous
 62
   214
100
AcDbLine
 10
2639.27472
 20
1692.045029
 30
0.0
 11
2645.486377
 21
1715.227249
 31
0.0
  0
TEXT
  5
66E
100
AcDbEntity
  8
2
370
     9
  6
Continuous
 62
   214
100
AcDbText
 10
2634.27472
 20
1957.545029
 30
0.0
 40
30.0
  1
580
 50
90.0
 41
0.544444
 11
2634.27472
 21
1957.545029
 31
0.0
100
AcDbText
 73
     1
  0
ENDBLK
  5
66F
100
AcDbEntity
  8
2
370
     9
  6
Continuous
 62
   214
100
AcDbBlockEnd
  0
BLOCK
  5
68B
100
AcDbEntity
  8
0
370
    30
  6
Continuous
 62
    14
100
AcDbBlockBegin
  2
*G90
 70
     0
 10
0.0
 20
0.0
 30
0.0
  3
*G90
  1

  0
LINE
  5
68C
100
AcDbEntity
  8
1
370
    30
  6
Continuous
 62
     7
100
AcDbLine
 10
2189.274737
 20
1657.045029
 30
0.0
 11
2389.274737
 21
1657.045029
 31
0.0
  0
LINE
  5
68D
100
AcDbEntity
  8
1
370
    30
  6
Continuous
 62
     7
100
AcDbLine
 10
2389.274737
 20
1657.045029
 30
0.0
 11
2389.274737
 21
1697.045029
 31
0.0
  0
LINE
  5
68E
100
AcDbEntity
  8
1
370
    30
  6
Continuous
 62
     7
100
AcDbLine
 10
2389.274737
 20
1697.045029
 30
0.0
 11
2189.274737
 21
1697.045029
 31
0.0
  0
LINE
  5
68F
100
AcDbEntity
  8
1
370
    30
  6
Continuous
 62
     7
100
AcDbLine
 10
2189.274737
 20
1697.045029
 30
0.0
 11
2189.274737
 21
1657.045029
 31
0.0
  0
ENDBLK
  5
690
100
AcDbEntity
  8
0
100
AcDbBlockEnd
  0
BLOCK
  5
693
100
AcDbEntity
  8
2
370
     9
  6
Continuous
 62
   214
100
AcDbBlockBegin
  2
*D91
 70
     0
 10
0.0
 20
0.0
 30
0.0
  3
*D91
  1

  0
LINE
  5
694
100
AcDbEntity
  8
2
370
     9
  6
Continuous
 62
   214
100
AcDbLine
 10
1916.028591
 20
1697.045029
 30
0.0
 11
1916.028591
 21
1657.045029
 31
0.0
  0
LINE
  5
695
100
AcDbEntity
  8
2
370
     9
  6
Continuous
 62
   214
100
AcDbLine
 10
1896.028591
 20
1697.045029
 30
0.0
 11
2173.925254
 21
1697.045029
 31
0.0
  0
LINE
  5
696
100
AcDbEntity
  8
2
370
     9
  6
Continuous
 62
   214
100
AcDbLine
 10
1896.028591
 20
1657.045029
 30
0.0
 11
2174.51053
 21
1657.045029
 31
0.0
  0
LINE
  5
697
100
AcDbEntity
  8
2
370
     9
  6
Continuous
 62
   214
100
AcDbLine
 10
1916.028591
 20
1697.045029
 30
0.0
 11
1909.816934
 21
1720.227249
 31
0.0
  0
LINE
  5
698
100
AcDbEntity
  8
2
370
     9
  6
Continuous
 62
   214
100
AcDbLine
 10
1916.028591
 20
1697.045029
 30
0.0
 11
1922.240249
 21
1720.227249
 31
0.0
  0
LINE
  5
699
100
AcDbEntity
  8
2
370
     9
  6
Continuous
 62
   214
100
AcDbLine
 10
1916.028591
 20
1657.045029
 30
0.0
 11
1922.240249
 21
1633.862809
 31
0.0
  0
LINE
  5
69A
100
AcDbEntity
  8
2
370
     9
  6
Continuous
 62
   214
100
AcDbLine
 10
1916.028591
 20
1657.045029
 30
0.0
 11
1909.816934
 21
1633.862809
 31
0.0
  0
TEXT
  5
69B
100
AcDbEntity
  8
2
370
     9
  6
Continuous
 62
   214
100
AcDbText
 10
1911.028591
 20
1661.045029
 30
0.0
 40
30.0
  1
40
 50
90.0
 41
0.533333
 11
1911.028591
 21
1661.045029
 31
0.0
100
AcDbText
 73
     1
  0
ENDBLK
  5
69C
100
AcDbEntity
  8
2
370
     9
  6
Continuous
 62
   214
100
AcDbBlockEnd
  0
BLOCK
  5
69F
100
AcDbEntity
  8
2
370
     9
  6
Continuous
 62
   214
100
AcDbBlockBegin
  2
*D92
 70
     0
 10
0.0
 20
0.0
 30
0.0
  3
*D92
  1

  0
LINE
  5
6A0
100
AcDbEntity
  8
2
370
     9
  6
Continuous
 62
   214
100
AcDbLine
 10
2189.274737
 20
1573.05003
 30
0.0
 11
2389.274737
 21
1573.05003
 31
0.0
  0
LINE
  5
6A1
100
AcDbEntity
  8
2
370
     9
  6
Continuous
 62
   214
100
AcDbLine
 10
2189.274737
 20
1553.05003
 30
0.0
 11
2189.274737
 21
1638.879764
 31
0.0
  0
LINE
  5
6A2
100
AcDbEntity
  8
2
370
     9
  6
Continuous
 62
   214
100
AcDbLine
 10
2389.274737
 20
1553.05003
 30
0.0
 11
2389.274737
 21
1638.41913
 31
0.0
  0
LINE
  5
6A3
100
AcDbEntity
  8
2
370
     9
  6
Continuous
 62
   214
100
AcDbLine
 10
2189.274737
 20
1573.05003
 30
0.0
 11
2212.456957
 21
1579.261687
 31
0.0
  0
LINE
  5
6A4
100
AcDbEntity
  8
2
370
     9
  6
Continuous
 62
   214
100
AcDbLine
 10
2189.274737
 20
1573.05003
 30
0.0
 11
2212.456957
 21
1566.838373
 31
0.0
  0
LINE
  5
6A5
100
AcDbEntity
  8
2
370
     9
  6
Continuous
 62
   214
100
AcDbLine
 10
2389.274737
 20
1573.05003
 30
0.0
 11
2366.092518
 21
1566.838373
 31
0.0
  0
LINE
  5
6A6
100
AcDbEntity
  8
2
370
     9
  6
Continuous
 62
   214
100
AcDbLine
 10
2389.274737
 20
1573.05003
 30
0.0
 11
2366.092518
 21
1579.261687
 31
0.0
  0
TEXT
  5
6A7
100
AcDbEntity
  8
2
370
     9
  6
Continuous
 62
   214
100
AcDbText
 10
2264.774737
 20
1578.05003
 30
0.0
 40
30.0
  1
200
 41
0.544444
 11
2264.774737
 21
1578.05003
 31
0.0
100
AcDbText
 73
     1
  0
ENDBLK
  5
6A8
100
AcDbEntity
  8
2
370
     9
  6
Continuous
 62
   214
100
AcDbBlockEnd
  0
BLOCK
  5
6AC
100
AcDbEntity
  8
2
370
     9
  6
Continuous
 62
   214
100
AcDbBlockBegin
  2
*D93
 70
     0
 10
0.0
 20
0.0
 30
0.0
  3
*D93
  1

  0
LINE
  5
6AD
100
AcDbEntity
  8
2
370
     9
  6
Continuous
 62
   214
100
AcDbLine
 10
2443.403131
 20
1677.045029
 30
0.0
 11
2443.403131
 21
1632.045029
 31
0.0
  0
LINE
  5
6AE
100
AcDbEntity
  8
2
370
     9
  6
Continuous
 62
   214
100
AcDbLine
 10
2463.403131
 20
1677.045029
 30
0.0
 11
2423.864443
 21
1677.045029
 31
0.0
  0
LINE
  5
6AF
100
AcDbEntity
  8
2
370
     9
  6
Continuous
 62
   214
100
AcDbLine
 10
2463.403131
 20
1632.045029
 30
0.0
 11
2423.864443
 21
1632.045029
 31
0.0
  0
LINE
  5
6B0
100
AcDbEntity
  8
2
370
     9
  6
Continuous
 62
   214
100
AcDbLine
 10
2443.403131
 20
1677.045029
 30
0.0
 11
2437.191474
 21
1700.227249
 31
0.0
  0
LINE
  5
6B1
100
AcDbEntity
  8
2
370
     9
  6
Continuous
 62
   214
100
AcDbLine
 10
2443.403131
 20
1677.045029
 30
0.0
 11
2449.614788
 21
1700.227249
 31
0.0
  0
LINE
  5
6B2
100
AcDbEntity
  8
2
370
     9
  6
Continuous
 62
   214
100
AcDbLine
 10
2443.403131
 20
1632.045029
 30
0.0
 11
2449.614788
 21
1608.862809
 31
0.0
  0
LINE
  5
6B3
100
AcDbEntity
  8
2
370
     9
  6
Continuous
 62
   214
100
AcDbLine
 10
2443.403131
 20
1632.045029
 30
0.0
 11
2437.191474
 21
1608.862809
 31
0.0
  0
TEXT
  5
6B4
100
AcDbEntity
  8
2
370
     9
  6
Continuous
 62
   214
100
AcDbText
 10
2438.403131
 20
1638.545029
 30
0.0
 40
30.0
  1
45
 50
90.0
 41
0.533333
 11
2438.403131
 21
1638.545029
 31
0.0
100
AcDbText
 73
     1
  0
ENDBLK
  5
6B5
100
AcDbEntity
  8
2
370
     9
  6
Continuous
 62
   214
100
AcDbBlockEnd
  0
BLOCK
  5
6E5
100
AcDbEntity
  8
0
370
    30
  6
Continuous
 62
     7
100
AcDbBlockBegin
  2
*G94
 70
     0
 10
0.0
 20
0.0
 30
0.0
  3
*G94
  1

  0
LINE
  5
6E6
100
AcDbEntity
  8
2
370
    30
  6
Continuous
 62
   214
100
AcDbLine
 10
578.391771
 20
734.792121
 30
0.0
 11
578.391771
 21
691.457401
 31
0.0
  0
LINE
  5
6E7
100
AcDbEntity
  8
2
370
    30
  6
Continuous
 62
   214
100
AcDbLine
 10
578.391771
 20
691.457401
 30
0.0
 11
621.726491
 21
691.457401
 31
0.0
  0
LINE
  5
6E8
100
AcDbEntity
  8
2
370
    30
  6
Continuous
 62
   214
100
AcDbLine
 10
621.726491
 20
691.457401
 30
0.0
 11
621.726491
 21
734.792121
 31
0.0
  0
LINE
  5
6E9
100
AcDbEntity
  8
2
370
    30
  6
Continuous
 62
   214
100
AcDbLine
 10
621.726491
 20
734.792121
 30
0.0
 11
578.391771
 21
734.792121
 31
0.0
  0
ENDBLK
  5
6EA
100
AcDbEntity
  8
0
100
AcDbBlockEnd
  0
BLOCK
  5
6ED
100
AcDbEntity
  8
0
370
    30
  6
Continuous
 62
     7
100
AcDbBlockBegin
  2
*G95
 70
     0
 10
0.0
 20
0.0
 30
0.0
  3
*G95
  1

  0
LINE
  5
6EE
100
AcDbEntity
  8
2
370
    30
  6
Continuous
 62
   214
100
AcDbLine
 10
578.391771
 20
818.128121
 30
0.0
 11
578.391771
 21
774.793401
 31
0.0
  0
LINE
  5
6EF
100
AcDbEntity
  8
2
370
    30
  6
Continuous
 62
   214
100
AcDbLine
 10
578.391771
 20
774.793401
 30
0.0
 11
621.726491
 21
774.793401
 31
0.0
  0
LINE
  5
6F0
100
AcDbEntity
  8
2
370
    30
  6
Continuous
 62
   214
100
AcDbLine
 10
621.726491
 20
774.793401
 30
0.0
 11
621.726491
 21
818.128121
 31
0.0
  0
LINE
  5
6F1
100
AcDbEntity
  8
2
370
    30
  6
Continuous
 62
   214
100
AcDbLine
 10
621.726491
 20
818.128121
 30
0.0
 11
578.391771
 21
818.128121
 31
0.0
  0
ENDBLK
  5
6F2
100
AcDbEntity
  8
0
100
AcDbBlockEnd
  0
BLOCK
  5
6F8
100
AcDbEntity
  8
0
370
    30
  6
Continuous
 62
     7
100
AcDbBlockBegin
  2
*G96
 70
     0
 10
0.0
 20
0.0
 30
0.0
  3
*G96
  1

  0
LINE
  5
6F9
100
AcDbEntity
  8
2
370
    30
  6
Continuous
 62
   214
100
AcDbLine
 10
550.057531
 20
1171.472761
 30
0.0
 11
550.057531
 21
638.122361
 31
0.0
  0
LINE
  5
6FA
100
AcDbEntity
  8
2
370
    30
  6
Continuous
 62
   214
100
AcDbLine
 10
550.057531
 20
638.122361
 30
0.0
 11
650.060731
 21
638.122361
 31
0.0
  0
LINE
  5
6FB
100
AcDbEntity
  8
2
370
    30
  6
Continuous
 62
   214
100
AcDbLine
 10
650.060731
 20
638.122361
 30
0.0
 11
650.060731
 21
1171.472761
 31
0.0
  0
LINE
  5
6FC
100
AcDbEntity
  8
2
370
    30
  6
Continuous
 62
   214
100
AcDbLine
 10
650.060731
 20
1171.472761
 30
0.0
 11
550.057531
 21
1171.472761
 31
0.0
  0
ENDBLK
  5
6FD
100
AcDbEntity
  8
0
100
AcDbBlockEnd
  0
BLOCK
  5
73D
100
AcDbEntity
  8
0
370
    30
  6
Continuous
 62
     7
100
AcDbBlockBegin
  2
*G97
 70
     0
 10
0.0
 20
0.0
 30
0.0
  3
*G97
  1

  0
LINE
  5
73E
100
AcDbEntity
  8
2
370
    30
  6
Continuous
 62
   214
100
AcDbLine
 10
1382.075819
 20
734.792121
 30
0.0
 11
1382.075819
 21
691.457401
 31
0.0
  0
LINE
  5
73F
100
AcDbEntity
  8
2
370
    30
  6
Continuous
 62
   214
100
AcDbLine
 10
1382.075819
 20
691.457401
 30
0.0
 11
1425.410539
 21
691.457401
 31
0.0
  0
LINE
  5
740
100
AcDbEntity
  8
2
370
    30
  6
Continuous
 62
   214
100
AcDbLine
 10
1425.410539
 20
691.457401
 30
0.0
 11
1425.410539
 21
734.792121
 31
0.0
  0
LINE
  5
741
100
AcDbEntity
  8
2
370
    30
  6
Continuous
 62
   214
100
AcDbLine
 10
1425.410539
 20
734.792121
 30
0.0
 11
1382.075819
 21
734.792121
 31
0.0
  0
ENDBLK
  5
742
100
AcDbEntity
  8
0
100
AcDbBlockEnd
  0
BLOCK
  5
745
100
AcDbEntity
  8
0
370
    30
  6
Continuous
 62
     7
100
AcDbBlockBegin
  2
*G98
 70
     0
 10
0.0
 20
0.0
 30
0.0
  3
*G98
  1

  0
LINE
  5
746
100
AcDbEntity
  8
2
370
    30
  6
Continuous
 62
   214
100
AcDbLine
 10
1382.075819
 20
818.128121
 30
0.0
 11
1382.075819
 21
774.793401
 31
0.0
  0
LINE
  5
747
100
AcDbEntity
  8
2
370
    30
  6
Continuous
 62
   214
100
AcDbLine
 10
1382.075819
 20
774.793401
 30
0.0
 11
1425.410539
 21
774.793401
 31
0.0
  0
LINE
  5
748
100
AcDbEntity
  8
2
370
    30
  6
Continuous
 62
   214
100
AcDbLine
 10
1425.410539
 20
774.793401
 30
0.0
 11
1425.410539
 21
818.128121
 31
0.0
  0
LINE
  5
749
100
AcDbEntity
  8
2
370
    30
  6
Continuous
 62
   214
100
AcDbLine
 10
1425.410539
 20
818.128121
 30
0.0
 11
1382.075819
 21
818.128121
 31
0.0
  0
ENDBLK
  5
74A
100
AcDbEntity
  8
0
100
AcDbBlockEnd
  0
BLOCK
  5
750
100
AcDbEntity
  8
0
370
    30
  6
Continuous
 62
     7
100
AcDbBlockBegin
  2
*G99
 70
     0
 10
0.0
 20
0.0
 30
0.0
  3
*G99
  1

  0
LINE
  5
751
100
AcDbEntity
  8
2
370
    30
  6
Continuous
 62
   214
100
AcDbLine
 10
1353.741579
 20
1171.472761
 30
0.0
 11
1353.741579
 21
638.122361
 31
0.0
  0
LINE
  5
752
100
AcDbEntity
  8
2
370
    30
  6
Continuous
 62
   214
100
AcDbLine
 10
1353.741579
 20
638.122361
 30
0.0
 11
1453.744779
 21
638.122361
 31
0.0
  0
LINE
  5
753
100
AcDbEntity
  8
2
370
    30
  6
Continuous
 62
   214
100
AcDbLine
 10
1453.744779
 20
638.122361
 30
0.0
 11
1453.744779
 21
1171.472761
 31
0.0
  0
LINE
  5
754
100
AcDbEntity
  8
2
370
    30
  6
Continuous
 62
   214
100
AcDbLine
 10
1453.744779
 20
1171.472761
 30
0.0
 11
1353.741579
 21
1171.472761
 31
0.0
  0
ENDBLK
  5
755
100
AcDbEntity
  8
0
100
AcDbBlockEnd
  0
BLOCK
  5
789
100
AcDbEntity
  8
0
370
    30
  6
Continuous
 62
     7
100
AcDbBlockBegin
  2
*G100
 70
     0
 10
0.0
 20
0.0
 30
0.0
  3
*G100
  1

  0
LINE
  5
78A
100
AcDbEntity
  8
2
370
    30
  6
Continuous
 62
   214
100
AcDbLine
 10
2114.504622
 20
757.665051
 30
0.0
 11
2647.855022
 21
757.665051
 31
0.0
  0
LINE
  5
78B
100
AcDbEntity
  8
2
370
    30
  6
Continuous
 62
   214
100
AcDbLine
 10
2647.855022
 20
757.665051
 30
0.0
 11
2647.855022
 21
857.668251
 31
0.0
  0
LINE
  5
78C
100
AcDbEntity
  8
2
370
    30
  6
Continuous
 62
   214
100
AcDbLine
 10
2647.855022
 20
857.668251
 30
0.0
 11
2114.504622
 21
857.668251
 31
0.0
  0
LINE
  5
78D
100
AcDbEntity
  8
2
370
    30
  6
Continuous
 62
   214
100
AcDbLine
 10
2114.504622
 20
857.668251
 30
0.0
 11
2114.504622
 21
757.665051
 31
0.0
  0
ENDBLK
  5
78E
100
AcDbEntity
  8
0
100
AcDbBlockEnd
  0
BLOCK
  5
794
100
AcDbEntity
  8
0
370
    30
  6
Continuous
 62
     7
100
AcDbBlockBegin
  2
*G101
 70
     0
 10
0.0
 20
0.0
 30
0.0
  3
*G101
  1

  0
LINE
  5
795
100
AcDbEntity
  8
2
370
    30
  6
Continuous
 62
   214
100
AcDbLine
 10
2467.849262
 20
785.999291
 30
0.0
 11
2511.183982
 21
785.999291
 31
0.0
  0
LINE
  5
796
100
AcDbEntity
  8
2
370
    30
  6
Continuous
 62
   214
100
AcDbLine
 10
2511.183982
 20
785.999291
 30
0.0
 11
2511.183982
 21
829.334011
 31
0.0
  0
LINE
  5
797
100
AcDbEntity
  8
2
370
    30
  6
Continuous
 62
   214
100
AcDbLine
 10
2511.183982
 20
829.334011
 30
0.0
 11
2467.849262
 21
829.334011
 31
0.0
  0
LINE
  5
798
100
AcDbEntity
  8
2
370
    30
  6
Continuous
 62
   214
100
AcDbLine
 10
2467.849262
 20
829.334011
 30
0.0
 11
2467.849262
 21
785.999291
 31
0.0
  0
ENDBLK
  5
799
100
AcDbEntity
  8
0
100
AcDbBlockEnd
  0
BLOCK
  5
79C
100
AcDbEntity
  8
0
370
    30
  6
Continuous
 62
     7
100
AcDbBlockBegin
  2
*G102
 70
     0
 10
0.0
 20
0.0
 30
0.0
  3
*G102
  1

  0
LINE
  5
79D
100
AcDbEntity
  8
2
370
    30
  6
Continuous
 62
   214
100
AcDbLine
 10
2551.185262
 20
785.999291
 30
0.0
 11
2594.519982
 21
785.999291
 31
0.0
  0
LINE
  5
79E
100
AcDbEntity
  8
2
370
    30
  6
Continuous
 62
   214
100
AcDbLine
 10
2594.519982
 20
785.999291
 30
0.0
 11
2594.519982
 21
829.334011
 31
0.0
  0
LINE
  5
79F
100
AcDbEntity
  8
2
370
    30
  6
Continuous
 62
   214
100
AcDbLine
 10
2594.519982
 20
829.334011
 30
0.0
 11
2551.185262
 21
829.334011
 31
0.0
  0
LINE
  5
7A0
100
AcDbEntity
  8
2
370
    30
  6
Continuous
 62
   214
100
AcDbLine
 10
2551.185262
 20
829.334011
 30
0.0
 11
2551.185262
 21
785.999291
 31
0.0
  0
ENDBLK
  5
7A1
100
AcDbEntity
  8
0
100
AcDbBlockEnd
  0
BLOCK
  5
7B6
100
AcDbEntity
  8
0
370
    30
  6
Continuous
 62
     7
100
AcDbBlockBegin
  2
*G103
 70
     0
 10
0.0
 20
0.0
 30
0.0
  3
*G103
  1

  0
LINE
  5
7B7
100
AcDbEntity
  8
2
370
    30
  6
Continuous
 62
   214
100
AcDbLine
 10
2625.441832
 20
757.665051
 30
0.0
 11
2647.879468
 21
757.665051
 31
0.0
  0
LINE
  5
7B8
100
AcDbEntity
  8
2
370
    30
  6
Continuous
 62
   214
100
AcDbLine
 10
2647.879468
 20
757.665051
 30
0.0
 11
2647.879468
 21
857.668251
 31
0.0
  0
LINE
  5
7B9
100
AcDbEntity
  8
2
370
    30
  6
Continuous
 62
   214
100
AcDbLine
 10
2647.879468
 20
857.668251
 30
0.0
 11
2625.441832
 21
857.668251
 31
0.0
  0
ENDBLK
  5
7BA
100
AcDbEntity
  8
0
100
AcDbBlockEnd
  0
ENDSEC
  0
SECTION
  2
ENTITIES
  0
INSERT
  5
4C
100
AcDbEntity
  8
0
370
     9
  6
Continuous
 62
     7
100
AcDbBlockReference
  2
*G0
 10
0.0
 20
0.0
 30
0.0
  0
LINE
  5
4D
100
AcDbEntity
  8
15
370
     9
  6
Continuous
 62
    96
100
AcDbLine
 10
3103.36547
 20
2225.299487
 30
0.0
 11
4004.198986
 21
2225.299487
 31
0.0
  0
LINE
  5
4E
100
AcDbEntity
  8
15
370
    50
  6
Continuous
 62
    96
100
AcDbLine
 10
150.63339
 20
2720.757921
 30
0.0
 11
150.63339
 21
148.37777
 31
0.0
  0
LINE
  5
4F
100
AcDbEntity
  8
15
370
    50
  6
Continuous
 62
    96
100
AcDbLine
 10
150.63339
 20
148.37777
 30
0.0
 11
4004.198986
 21
148.37777
 31
0.0
  0
LINE
  5
50
100
AcDbEntity
  8
15
370
     9
  6
Continuous
 62
    96
100
AcDbLine
 10
3647.233507
 20
205.431518
 30
0.0
 11
3522.49146
 21
205.431518
 31
0.0
  0
TEXT
  5
51
100
AcDbEntity
  8
15
370
     9
  6
Continuous
 62
    96
100
AcDbText
 10
3344.694521
 20
195.318782
 30
0.0
 40
18.01667
  1
出入管理システム
 41
1.018519
 11
3344.694521
 21
195.318782
 31
0.0
100
AcDbText
 73
     1
  0
TEXT
  5
52
100
AcDbEntity
  8
15
370
     9
  6
Continuous
 62
    96
100
AcDbText
 10
3345.400753
 20
156.476049
 30
0.0
 40
36.033341
  1
株式会社
 41
1.753472
 11
3345.400753
 21
156.476049
 31
0.0
100
AcDbText
 73
     1
  0
LINE
  5
53
100
AcDbEntity
  8
15
370
    30
  6
Continuous
 62
    96
100
AcDbLine
 10
3146.306549
 20
157.171516
 30
0.0
 11
3178.004399
 21
157.171516
 31
0.0
  0
LINE
  5
54
100
AcDbEntity
  8
15
370
    30
  6
Continuous
 62
    96
100
AcDbLine
 10
3332.832066
 20
195.693088
 30
0.0
 11
3332.832066
 21
207.857776
 31
0.0
  0
LINE
  5
55
100
AcDbEntity
  8
15
370
    30
  6
Continuous
 62
    96
100
AcDbLine
 10
3319.653691
 20
195.693088
 30
0.0
 11
3332.832066
 21
195.693088
 31
0.0
  0
LINE
  5
56
100
AcDbEntity
  8
15
370
    30
  6
Continuous
 62
    96
100
AcDbLine
 10
3319.653691
 20
157.171516
 30
0.0
 11
3319.653691
 21
195.693088
 31
0.0
  0
LINE
  5
57
100
AcDbEntity
  8
15
370
    30
  6
Continuous
 62
    96
100
AcDbLine
 10
3305.461518
 20
157.171516
 30
0.0
 11
3319.653691
 21
157.171516
 31
0.0
  0
LINE
  5
58
100
AcDbEntity
  8
15
370
    30
  6
Continuous
 62
    96
100
AcDbLine
 10
3296.933134
 20
157.171516
 30
0.0
 11
3279.104656
 21
157.171516
 31
0.0
  0
LINE
  5
59
100
AcDbEntity
  8
15
370
    30
  6
Continuous
 62
    96
100
AcDbLine
 10
3205.102684
 20
157.171516
 30
0.0
 11
3248.692846
 21
157.171516
 31
0.0
  0
LINE
  5
5A
100
AcDbEntity
  8
15
370
    30
  6
Continuous
 62
    96
100
AcDbLine
 10
3205.102684
 20
178.459742
 30
0.0
 11
3205.102684
 21
157.171516
 31
0.0
  0
LINE
  5
5B
100
AcDbEntity
  8
15
370
    30
  6
Continuous
 62
    96
100
AcDbLine
 10
3178.004399
 20
157.171516
 30
0.0
 11
3227.404642
 21
206.082641
 31
0.0
  0
LINE
  5
5C
100
AcDbEntity
  8
15
370
    30
  6
Continuous
 62
    96
100
AcDbLine
 10
3227.404642
 20
206.082641
 30
0.0
 11
3227.404642
 21
178.459742
 31
0.0
  0
LINE
  5
5D
100
AcDbEntity
  8
15
370
    30
  6
Continuous
 62
    96
100
AcDbLine
 10
3227.404642
 20
178.459742
 30
0.0
 11
3205.102684
 21
178.459742
 31
0.0
  0
LINE
  5
5E
100
AcDbEntity
  8
15
370
    30
  6
Continuous
 62
    96
100
AcDbLine
 10
3248.692846
 20
185.555818
 30
0.0
 11
3279.104656
 21
157.171516
 31
0.0
  0
ARC
  5
5F
100
AcDbEntity
  8
15
370
    30
  6
Continuous
 62
    96
100
AcDbCircle
 10
3273.022289
 20
190.624453
 30
0.0
 40
5.068635
100
AcDbArc
 50
-90.0
 51
90.0
  0
LINE
  5
60
100
AcDbEntity
  8
15
370
    30
  6
Continuous
 62
    96
100
AcDbLine
 10
3248.692846
 20
185.555818
 30
0.0
 11
3273.022289
 21
185.555818
 31
0.0
  0
LINE
  5
61
100
AcDbEntity
  8
15
370
    30
  6
Continuous
 62
    96
100
AcDbLine
 10
3252.747772
 20
195.693088
 30
0.0
 11
3273.022289
 21
195.693088
 31
0.0
  0
LINE
  5
62
100
AcDbEntity
  8
15
370
    30
  6
Continuous
 62
    96
100
AcDbLine
 10
3252.747772
 20
207.857776
 30
0.0
 11
3252.747772
 21
195.693088
 31
0.0
  0
LINE
  5
63
100
AcDbEntity
  8
15
370
    30
  6
Continuous
 62
    96
100
AcDbLine
 10
3252.747772
 20
207.857776
 30
0.0
 11
3276.863789
 21
207.857776
 31
0.0
  0
ARC
  5
64
100
AcDbEntity
  8
15
370
    30
  6
Continuous
 62
    96
100
AcDbCircle
 10
3274.943017
 20
190.624453
 30
0.0
 40
17.340036
100
AcDbArc
 50
-76.055153
 51
83.640296
  0
LINE
  5
65
100
AcDbEntity
  8
15
370
    30
  6
Continuous
 62
    96
100
AcDbLine
 10
3279.104656
 20
173.811443
 30
0.0
 11
3296.933134
 21
157.171516
 31
0.0
  0
LINE
  5
66
100
AcDbEntity
  8
15
370
    30
  6
Continuous
 62
    96
100
AcDbLine
 10
3332.832066
 20
207.857776
 30
0.0
 11
3292.283053
 21
207.857776
 31
0.0
  0
LINE
  5
67
100
AcDbEntity
  8
15
370
    30
  6
Continuous
 62
    96
100
AcDbLine
 10
3292.283053
 20
207.857776
 30
0.0
 11
3292.283053
 21
195.693088
 31
0.0
  0
LINE
  5
68
100
AcDbEntity
  8
15
370
    30
  6
Continuous
 62
    96
100
AcDbLine
 10
3292.283053
 20
195.693088
 30
0.0
 11
3305.461518
 21
195.693088
 31
0.0
  0
LINE
  5
69
100
AcDbEntity
  8
15
370
    30
  6
Continuous
 62
    96
100
AcDbLine
 10
3305.461518
 20
195.693088
 30
0.0
 11
3305.461518
 21
157.171516
 31
0.0
  0
LINE
  5
6A
100
AcDbEntity
  8
15
370
    30
  6
Continuous
 62
    96
100
AcDbLine
 10
3103.36547
 20
148.37777
 30
0.0
 11
3103.36547
 21
598.794596
 31
0.0
  0
LINE
  5
6B
100
AcDbEntity
  8
15
370
     9
  6
Continuous
 62
    96
100
AcDbLine
 10
3103.36547
 20
508.711245
 30
0.0
 11
4004.198986
 21
508.711245
 31
0.0
  0
LINE
  5
6C
100
AcDbEntity
  8
15
370
     9
  6
Continuous
 62
    96
100
AcDbLine
 10
3103.36547
 20
508.711176
 30
0.0
 11
4004.198986
 21
508.711245
 31
0.0
  0
LINE
  5
6D
100
AcDbEntity
  8
15
370
     9
  6
Continuous
 62
    96
100
AcDbLine
 10
4004.198986
 20
268.488974
 30
0.0
 11
3103.36547
 21
268.488905
 31
0.0
  0
LINE
  5
6E
100
AcDbEntity
  8
15
370
     9
  6
Continuous
 62
    96
100
AcDbLine
 10
3253.504389
 20
328.544485
 30
0.0
 11
3253.504389
 21
268.488917
 31
0.0
  0
LINE
  5
6F
100
AcDbEntity
  8
15
370
     9
  6
Continuous
 62
    96
100
AcDbLine
 10
3248.692846
 20
157.171516
 30
0.0
 11
3248.692846
 21
258.544058
 31
0.0
  0
LINE
  5
70
100
AcDbEntity
  8
15
370
     9
  6
Continuous
 62
    96
100
AcDbLine
 10
3248.692846
 20
258.544058
 30
0.0
 11
3146.306549
 21
157.171516
 31
0.0
  0
INSERT
  5
75
100
AcDbEntity
  8
0
370
     9
  6
Continuous
 62
    96
100
AcDbBlockReference
  2
*G1
 10
0.0
 20
0.0
 30
0.0
  0
TEXT
  5
76
100
AcDbEntity
  8
15
370
     9
  6
Continuous
 62
    96
100
AcDbText
 10
3668.977008
 20
152.250134
 30
0.0
 40
100.092613
  1
アート
 41
0.833333
 11
3668.977008
 21
152.250134
 31
0.0
100
AcDbText
 73
     1
  0
LINE
  5
77
100
AcDbEntity
  8
15
370
     9
  6
Continuous
 62
    96
100
AcDbLine
 10
3253.504389
 20
418.627824
 30
0.0
 11
3253.504389
 21
328.544485
 31
0.0
  0
LINE
  5
78
100
AcDbEntity
  8
15
370
     9
  6
Continuous
 62
    96
100
AcDbLine
 10
3503.735922
 20
418.627824
 30
0.0
 11
3503.735922
 21
328.544504
 31
0.0
  0
LINE
  5
79
100
AcDbEntity
  8
15
370
     9
  6
Continuous
 62
    96
100
AcDbLine
 10
3753.967454
 20
418.627824
 30
0.0
 11
3753.967454
 21
328.544523
 31
0.0
  0
LINE
  5
7A
100
AcDbEntity
  8
15
370
    30
  6
Continuous
 62
    96
100
AcDbLine
 10
3103.36547
 20
2665.706984
 30
0.0
 11
4004.198986
 21
2665.706984
 31
0.0
  0
LINE
  5
7B
100
AcDbEntity
  8
15
370
    30
  6
Continuous
 62
    96
100
AcDbLine
 10
3103.36547
 20
2610.656047
 30
0.0
 11
4004.198986
 21
2610.656047
 31
0.0
  0
LINE
  5
7C
100
AcDbEntity
  8
15
370
     9
  6
Continuous
 62
    96
100
AcDbLine
 10
3103.36547
 20
2555.605109
 30
0.0
 11
4004.198986
 21
2555.605109
 31
0.0
  0
LINE
  5
7D
100
AcDbEntity
  8
15
370
     9
  6
Continuous
 62
    96
100
AcDbLine
 10
4004.198986
 20
2500.554172
 30
0.0
 11
3103.36547
 21
2500.554172
 31
0.0
  0
LINE
  5
7E
100
AcDbEntity
  8
15
370
     9
  6
Continuous
 62
    96
100
AcDbLine
 10
3103.36547
 20
2280.350424
 30
0.0
 11
4004.198986
 21
2280.350424
 31
0.0
  0
LINE
  5
7F
100
AcDbEntity
  8
15
370
    30
  6
Continuous
 62
    96
100
AcDbLine
 10
3103.36547
 20
2720.757921
 30
0.0
 11
3103.36547
 21
723.910362
 31
0.0
  0
LINE
  5
80
100
AcDbEntity
  8
15
370
    30
  6
Continuous
 62
    96
100
AcDbLine
 10
3103.36547
 20
598.794596
 30
0.0
 11
3103.36547
 21
723.910362
 31
0.0
  0
LINE
  5
81
100
AcDbEntity
  8
15
370
     9
  6
Continuous
 62
    96
100
AcDbLine
 10
3103.36547
 20
2170.24855
 30
0.0
 11
4004.198986
 21
2170.24855
 31
0.0
  0
LINE
  5
82
100
AcDbEntity
  8
15
370
    50
  6
Continuous
 62
    96
100
AcDbLine
 10
150.63339
 20
2720.757921
 30
0.0
 11
4004.201581
 21
2720.757921
 31
0.0
  0
LINE
  5
83
100
AcDbEntity
  8
15
370
    50
  6
Continuous
 62
    96
100
AcDbLine
 10
4004.201581
 20
148.374539
 30
0.0
 11
4004.201581
 21
2720.75469
 31
0.0
  0
LINE
  5
84
100
AcDbEntity
  8
15
370
     9
  6
Continuous
 62
    96
100
AcDbLine
 10
3103.360256
 20
593.789897
 30
0.0
 11
4004.193772
 21
593.789897
 31
0.0
  0
LINE
  5
85
100
AcDbEntity
  8
15
370
     9
  6
Continuous
 62
    96
100
AcDbLine
 10
3352.178963
 20
2720.757921
 30
0.0
 11
3352.178963
 21
2665.706984
 31
0.0
  0
LINE
  5
86
100
AcDbEntity
  8
15
370
    30
  6
Continuous
 62
    96
100
AcDbLine
 10
3103.360256
 20
648.840834
 30
0.0
 11
4004.193772
 21
648.840834
 31
0.0
  0
LINE
  5
87
100
AcDbEntity
  8
15
370
    30
  6
Continuous
 62
    96
100
AcDbLine
 10
3103.360256
 20
593.789897
 30
0.0
 11
4004.193772
 21
593.789897
 31
0.0
  0
LINE
  5
88
100
AcDbEntity
  8
15
370
     9
  6
Continuous
 62
    96
100
AcDbLine
 10
3353.591788
 20
648.840834
 30
0.0
 11
3353.591788
 21
593.789897
 31
0.0
  0
LINE
  5
89
100
AcDbEntity
  8
15
370
    30
  6
Continuous
 62
    96
100
AcDbLine
 10
3103.360256
 20
593.789897
 30
0.0
 11
4004.193772
 21
593.789897
 31
0.0
  0
LINE
  5
8A
100
AcDbEntity
  8
15
370
     9
  6
Continuous
 62
    96
100
AcDbLine
 10
3553.984671
 20
328.526801
 30
0.0
 11
3553.984671
 21
268.488939
 31
0.0
  0
LINE
  5
8B
100
AcDbEntity
  8
15
370
     9
  6
Continuous
 62
    96
100
AcDbLine
 10
3624.028844
 20
328.526851
 30
0.0
 11
3624.028844
 21
268.488989
 31
0.0
  0
LINE
  5
8C
100
AcDbEntity
  8
15
370
     9
  6
Continuous
 62
    96
100
AcDbLine
 10
3884.123262
 20
328.526826
 30
0.0
 11
3884.123262
 21
268.488964
 31
0.0
  0
LINE
  5
8D
100
AcDbEntity
  8
15
370
     9
  6
Continuous
 62
    96
100
AcDbLine
 10
3914.649406
 20
320.922031
 30
0.0
 11
3914.649406
 21
276.09376
 31
0.0
  0
CIRCLE
  5
8E
100
AcDbEntity
  8
15
370
     9
  6
Continuous
 62
    96
100
AcDbCircle
 10
3914.649406
 20
298.507895
 30
0.0
 40
9.606058
  0
CIRCLE
  5
8F
100
AcDbEntity
  8
15
370
     9
  6
Continuous
 62
    96
100
AcDbCircle
 10
3914.649406
 20
298.507895
 30
0.0
 40
16.010097
  0
LINE
  5
90
100
AcDbEntity
  8
15
370
     9
  6
Continuous
 62
    96
100
AcDbLine
 10
3941.058773
 20
308.113953
 30
0.0
 11
3941.058773
 21
288.901838
 31
0.0
  0
LINE
  5
91
100
AcDbEntity
  8
15
370
     9
  6
Continuous
 62
    96
100
AcDbLine
 10
3992.291082
 20
314.517992
 30
0.0
 11
3992.291082
 21
282.497799
 31
0.0
  0
LINE
  5
92
100
AcDbEntity
  8
15
370
     9
  6
Continuous
 62
    96
100
AcDbLine
 10
3941.058773
 20
308.113953
 30
0.0
 11
3992.291082
 21
314.517992
 31
0.0
  0
LINE
  5
93
100
AcDbEntity
  8
15
370
     9
  6
Continuous
 62
    96
100
AcDbLine
 10
3941.058773
 20
288.901838
 30
0.0
 11
3992.291082
 21
282.497799
 31
0.0
  0
LINE
  5
94
100
AcDbEntity
  8
15
370
     9
  6
Continuous
 62
    96
100
AcDbLine
 10
3892.235271
 20
298.507895
 30
0.0
 11
3997.754528
 21
298.507895
 31
0.0
  0
LINE
  5
95
100
AcDbEntity
  8
15
370
     9
  6
Continuous
 62
    96
100
AcDbLine
 10
4004.201581
 20
328.544541
 30
0.0
 11
3103.36547
 21
328.544473
 31
0.0
  0
LINE
  5
96
100
AcDbEntity
  8
15
370
     9
  6
Continuous
 62
    96
100
AcDbLine
 10
3103.36547
 20
418.627824
 30
0.0
 11
4004.201581
 21
418.627824
 31
0.0
  0
LINE
  5
97
100
AcDbEntity
  8
15
370
     9
  6
Continuous
 62
    96
100
AcDbLine
 10
3227.772216
 20
2390.452298
 30
0.0
 11
4004.198986
 21
2390.452298
 31
0.0
  0
LINE
  5
98
100
AcDbEntity
  8
15
370
    30
  6
Continuous
 62
    96
100
AcDbLine
 10
4005.654456
 20
1453.54882
 30
0.0
 11
4005.654456
 21
1474.88292
 31
0.0
  0
TEXT
  5
99
100
AcDbEntity
  8
15
370
     9
  6
PHANTOM
 62
    96
100
AcDbText
 10
3149.431385
 20
2678.222987
 30
0.0
 40
30.018931
  1
商品コード
 41
0.877778
 11
3149.431385
 21
2678.222987
 31
0.0
100
AcDbText
 73
     1
  0
TEXT
  5
9A
100
AcDbEntity
  8
15
370
     9
  6
PHANTOM
 62
    96
100
AcDbText
 10
3442.712183
 20
2623.17205
 30
0.0
 40
30.018931
  1
定　　　　　格
 41
0.880952
 11
3442.712183
 21
2623.17205
 31
0.0
100
AcDbText
 73
     1
  0
TEXT
  5
9B
100
AcDbEntity
  8
15
370
    30
  6
Continuous
 62
    96
100
AcDbText
 10
3109.387805
 20
477.802455
 30
0.0
 40
25.015776
  1
製品名
 41
0.855562
 11
3109.387805
 21
477.802455
 31
0.0
100
AcDbText
 73
     1
  0
TEXT
  5
9C
100
AcDbEntity
  8
15
370
    30
  6
Continuous
 62
    96
100
AcDbText
 10
3108.528553
 20
563.35345
 30
0.0
 40
25.015776
  1
型　式
 41
0.877778
 11
3108.528553
 21
563.35345
 31
0.0
100
AcDbText
 73
     1
  0
TEXT
  5
9D
100
AcDbEntity
  8
15
370
     9
  6
Continuous
 62
    96
100
AcDbText
 10
3165.436267
 20
606.3059
 30
0.0
 40
30.018931
  1
図面履歴
 41
0.875
 11
3165.436267
 21
606.3059
 31
0.0
100
AcDbText
 73
     1
  0
TEXT
  5
9E
100
AcDbEntity
  8
15
370
     9
  6
Continuous
 62
    96
100
AcDbText
 10
3118.356411
 20
283.276174
 30
0.0
 40
30.018931
  1
図面番号
 41
0.875
 11
3118.356411
 21
283.276174
 31
0.0
100
AcDbText
 73
     1
  0
TEXT
  5
9F
100
AcDbEntity
  8
15
370
     9
  6
Continuous
 62
    96
100
AcDbText
 10
3556.918184
 20
283.183579
 30
0.0
 40
30.018931
  1
日付
 41
0.861111
 11
3556.918184
 21
283.183579
 31
0.0
100
AcDbText
 73
     1
  0
TEXT
  5
A0
100
AcDbEntity
  8
15
370
     9
  6
Continuous
 62
    96
100
AcDbText
 10
3764.513629
 20
387.087004
 30
0.0
 40
25.015776
  1
作図
 41
0.866667
 11
3764.513629
 21
387.087004
 31
0.0
100
AcDbText
 73
     1
  0
TEXT
  5
A1
100
AcDbEntity
  8
15
370
     9
  6
Continuous
 62
    96
100
AcDbText
 10
3510.947063
 20
387.180553
 30
0.0
 40
25.015776
  1
検図
 41
0.866667
 11
3510.947063
 21
387.180553
 31
0.0
100
AcDbText
 73
     1
  0
TEXT
  5
A2
100
AcDbEntity
  8
15
370
     9
  6
Continuous
 62
    96
100
AcDbText
 10
3260.620471
 20
385.662595
 30
0.0
 40
25.015776
  1
承認
 41
0.866667
 11
3260.620471
 21
385.662595
 31
0.0
100
AcDbText
 73
     1
  0
TEXT
  5
A3
100
AcDbEntity
  8
15
370
     9
  6
Continuous
 62
    96
100
AcDbText
 10
3110.830094
 20
386.014386
 30
0.0
 40
25.015776
  1
縮尺（Ａ３）
 41
0.833333
 11
3110.830094
 21
386.014386
 31
0.0
100
AcDbText
 73
     1
  0
TEXT
  5
A4
100
AcDbEntity
  8
15
370
     9
  6
Continuous
 62
    96
100
AcDbText
 10
1923.56322
 20
188.546017
 30
0.0
 40
30.018931
  1
＊　記載されている会社名、製品名は、登録商標または商標です。
 41
0.887037
 11
1923.56322
 21
188.546017
 31
0.0
100
AcDbText
 73
     1
  0
TEXT
  5
A5
100
AcDbEntity
  8
15
370
     9
  6
PHANTOM
 62
    96
100
AcDbText
 10
3181.451578
 20
2568.121112
 30
0.0
 40
30.018931
  1
筐　体
 41
0.87037
 11
3181.451578
 21
2568.121112
 31
0.0
100
AcDbText
 73
     1
  0
TEXT
  5
A6
100
AcDbEntity
  8
15
370
     9
  6
PHANTOM
 62
    96
100
AcDbText
 10
3181.451578
 20
2513.070175
 30
0.0
 40
30.018931
  1
材　質
 41
0.87037
 11
3181.451578
 21
2513.070175
 31
0.0
100
AcDbText
 73
     1
  0
LINE
  5
A7
100
AcDbEntity
  8
15
370
     9
  6
Continuous
 62
    96
100
AcDbLine
 10
3103.36547
 20
2445.503235
 30
0.0
 11
4004.198986
 21
2445.503235
 31
0.0
  0
TEXT
  5
A8
100
AcDbEntity
  8
15
370
     9
  6
PHANTOM
 62
    96
100
AcDbText
 10
3182.700492
 20
2456.577829
 30
0.0
 40
30.018931
  1
仕　上
 41
0.87037
 11
3182.700492
 21
2456.577829
 31
0.0
100
AcDbText
 73
     1
  0
LINE
  5
A9
100
AcDbEntity
  8
15
370
     9
  6
Continuous
 62
    96
100
AcDbLine
 10
3227.772216
 20
2445.503235
 30
0.0
 11
3227.772216
 21
2280.343095
 31
0.0
  0
LINE
  5
AA
100
AcDbEntity
  8
15
370
     9
  6
Continuous
 62
    96
100
AcDbLine
 10
3227.772216
 20
2335.401361
 30
0.0
 11
4004.198986
 21
2335.401361
 31
0.0
  0
TEXT
  5
AB
100
AcDbEntity
  8
15
370
     9
  6
PHANTOM
 62
    96
100
AcDbText
 10
3118.04201
 20
2347.467702
 30
0.0
 40
30.018931
  1
彩　色
 41
0.87037
 11
3118.04201
 21
2347.467702
 31
0.0
100
AcDbText
 73
     1
  0
TEXT
  5
AC
100
AcDbEntity
  8
15
370
     9
  6
PHANTOM
 62
    96
100
AcDbText
 10
3243.42466
 20
2401.526892
 30
0.0
 40
30.018931
  1
本　体
 41
0.87037
 11
3243.42466
 21
2401.526892
 31
0.0
100
AcDbText
 73
     1
  0
TEXT
  5
AD
100
AcDbEntity
  8
15
370
     9
  6
PHANTOM
 62
    96
100
AcDbText
 10
3244.145615
 20
2347.917364
 30
0.0
 40
30.018931
  1
パネル
 41
0.87037
 11
3244.145615
 21
2347.917364
 31
0.0
100
AcDbText
 73
     1
  0
TEXT
  5
AE
100
AcDbEntity
  8
15
370
     9
  6
PHANTOM
 62
    96
100
AcDbText
 10
3243.754084
 20
2292.866427
 30
0.0
 40
30.018931
  1
文　字
 41
0.87037
 11
3243.754084
 21
2292.866427
 31
0.0
100
AcDbText
 73
     1
  0
TEXT
  5
AF
100
AcDbEntity
  8
15
370
     9
  6
Continuous
 62
    96
100
AcDbText
 10
3184.845421
 20
2237.81549
 30
0.0
 40
30.018931
  1
重　量　
 41
0.875
 11
3184.845421
 21
2237.81549
 31
0.0
100
AcDbText
 73
     1
  0
TEXT
  5
B0
100
AcDbEntity
  8
15
370
     9
  6
Continuous
 62
    96
100
AcDbText
 10
3165.441481
 20
2182.764553
 30
0.0
 40
30.018931
  1
入力電源
 41
0.875
 11
3165.441481
 21
2182.764553
 31
0.0
100
AcDbText
 73
     1
  0
TEXT
  5
B1
100
AcDbEntity
  8
15
370
     9
  6
Continuous
 62
    96
100
AcDbText
 10
3165.643258
 20
2128.456975
 30
0.0
 40
30.018931
  1
消費電力
 41
0.875
 11
3165.643258
 21
2128.456975
 31
0.0
100
AcDbText
 73
     1
  0
TEXT
  5
B2
100
AcDbEntity
  8
15
370
     9
  6
PHANTOM
 62
    96
100
AcDbText
 10
3588.340886
 20
2513.070175
 30
0.0
 40
30.018931
  1
SPCC　ｔ1.6
 41
0.67037
 11
3588.340886
 21
2513.070175
 31
0.0
100
AcDbText
 73
     1
  0
TEXT
  5
B3
100
AcDbEntity
  8
15
370
     9
  6
PHANTOM
 62
    96
100
AcDbText
 10
3616.398019
 20
2458.390542
 30
0.0
 40
30.018931
  1
粉体塗装
 41
0.875
 11
3616.398019
 21
2458.390542
 31
0.0
100
AcDbText
 73
     1
  0
TEXT
  5
B4
100
AcDbEntity
  8
15
370
     9
  6
PHANTOM
 62
    96
100
AcDbText
 10
3404.705018
 20
2402.652392
 30
0.0
 40
30.018931
  1
マンセル　2.5Ｙ　9/1　近似色　半艶
 41
0.815476
 11
3404.705018
 21
2402.652392
 31
0.0
100
AcDbText
 73
     1
  0
TEXT
  5
B5
100
AcDbEntity
  8
15
370
     9
  6
PHANTOM
 62
    96
100
AcDbText
 10
3549.765498
 20
2347.627691
 30
0.0
 40
30.018931
  1
マンセル　Ｎ-3.0
 41
0.796296
 11
3549.765498
 21
2347.627691
 31
0.0
100
AcDbText
 73
     1
  0
TEXT
  5
B6
100
AcDbEntity
  8
15
370
     9
  6
PHANTOM
 62
    96
100
AcDbText
 10
3550.138233
 20
2292.866657
 30
0.0
 40
30.018931
  1
マンセル　Ｎ-8.5
 41
0.796296
 11
3550.138233
 21
2292.866657
 31
0.0
100
AcDbText
 73
     1
  0
TEXT
  5
B7
100
AcDbEntity
  8
15
370
     9
  6
Continuous
 62
    96
100
AcDbText
 10
3519.79766
 20
2182.764553
 30
0.0
 40
30.018931
  1
電気錠制御盤から供給
 41
0.883333
 11
3519.79766
 21
2182.764553
 31
0.0
100
AcDbText
 73
     1
  0
TEXT
  5
B8
100
AcDbEntity
  8
15
370
     9
  6
Continuous
 62
    96
100
AcDbText
 10
3631.987851
 20
2128.351909
 30
0.0
 40
30.018931
  1
－－－
 41
0.87037
 11
3631.987851
 21
2128.351909
 31
0.0
100
AcDbText
 73
     1
  0
LINE
  5
B9
100
AcDbEntity
  8
15
370
     9
  6
Continuous
 62
    96
100
AcDbLine
 10
3103.450197
 20
1894.993864
 30
0.0
 11
4004.214043
 21
1894.993864
 31
0.0
  0
LINE
  5
BA
100
AcDbEntity
  8
15
370
     9
  6
Continuous
 62
    96
100
AcDbLine
 10
3103.36123
 20
1950.044802
 30
0.0
 11
4004.197341
 21
1950.044802
 31
0.0
  0
LINE
  5
BB
100
AcDbEntity
  8
15
370
     9
  6
Continuous
 62
    96
100
AcDbLine
 10
3103.36123
 20
2005.095739
 30
0.0
 11
4004.197341
 21
2005.095739
 31
0.0
  0
LINE
  5
BC
100
AcDbEntity
  8
15
370
    30
  6
Continuous
 62
    96
100
AcDbLine
 10
3103.36123
 20
2060.146676
 30
0.0
 11
4004.197341
 21
2060.146676
 31
0.0
  0
LINE
  5
BD
100
AcDbEntity
  8
15
370
     9
  6
Continuous
 62
    96
100
AcDbLine
 10
3103.36547
 20
2115.197613
 30
0.0
 11
4004.201581
 21
2115.197613
 31
0.0
  0
LINE
  5
BE
100
AcDbEntity
  8
15
370
     9
  6
Continuous
 62
    96
100
AcDbLine
 10
3352.178963
 20
2610.790881
 30
0.0
 11
3352.178963
 21
2060.146676
 31
0.0
  0
TEXT
  5
BF
100
AcDbEntity
  8
15
370
     9
  6
Continuous
 62
    96
100
AcDbText
 10
3180.547273
 20
2076.24187
 30
0.0
 40
30.018931
  1
ブザー
 41
0.87037
 11
3180.547273
 21
2076.24187
 31
0.0
100
AcDbText
 73
     1
  0
TEXT
  5
C0
100
AcDbEntity
  8
15
370
     9
  6
Continuous
 62
    96
100
AcDbText
 10
3484.789639
 20
2076.136804
 30
0.0
 40
30.018931
  1
電子ブザー　ピー音　80dB
 41
0.804167
 11
3484.789639
 21
2076.136804
 31
0.0
100
AcDbText
 73
     1
  0
TEXT
  5
C1
100
AcDbEntity
  8
15
370
     9
  6
Continuous
 62
    96
100
AcDbText
 10
3241.367536
 20
2017.551423
 30
0.0
 40
30.018931
  1
外部入力　：接点容量　DC24Ｖ　0.1Ａ以下
 41
0.812661
 11
3241.367536
 21
2017.551423
 31
0.0
100
AcDbText
 73
     1
  0
TEXT
  5
C2
100
AcDbEntity
  8
15
370
     9
  6
Continuous
 62
    96
100
AcDbText
 10
3134.537414
 20
1962.560805
 30
0.0
 40
30.018931
  1
開扉表示入力
 41
0.87963
 11
3134.537414
 21
1962.560805
 31
0.0
100
AcDbText
 73
     1
  0
TEXT
  5
C3
100
AcDbEntity
  8
15
370
     9
  6
Continuous
 62
    96
100
AcDbText
 10
3139.929245
 20
1909.322531
 30
0.0
 40
30.018931
  1
解錠表示入力
 41
0.87963
 11
3139.929245
 21
1909.322531
 31
0.0
100
AcDbText
 73
     1
  0
TEXT
  5
C4
100
AcDbEntity
  8
15
370
     9
  6
Continuous
 62
    96
100
AcDbText
 10
3139.929245
 20
1855.054569
 30
0.0
 40
30.018931
  1
警報表示入力
 41
0.87963
 11
3139.929245
 21
1855.054569
 31
0.0
100
AcDbText
 73
     1
  0
TEXT
  5
C5
100
AcDbEntity
  8
15
370
     9
  6
Continuous
 62
    96
100
AcDbText
 10
3460.86412
 20
1962.560805
 30
0.0
 40
30.018931
  1
有電圧DC24Ｖ　25mA以下
 41
0.727642
 11
3460.86412
 21
1962.560805
 31
0.0
100
AcDbText
 73
     1
  0
TEXT
  5
C6
100
AcDbEntity
  8
15
370
     9
  6
Continuous
 62
    96
100
AcDbText
 10
3460.86412
 20
1907.509867
 30
0.0
 40
30.018931
  1
有電圧DC24Ｖ　25mA以下
 41
0.727642
 11
3460.86412
 21
1907.509867
 31
0.0
100
AcDbText
 73
     1
  0
TEXT
  5
C7
100
AcDbEntity
  8
15
370
     9
  6
Continuous
 62
    96
100
AcDbText
 10
3459.987431
 20
1855.803441
 30
0.0
 40
30.018931
  1
有電圧DC24Ｖ　25mA以下
 41
0.727642
 11
3459.987431
 21
1855.803441
 31
0.0
100
AcDbText
 73
     1
  0
LINE
  5
C8
100
AcDbEntity
  8
15
370
     9
  6
Continuous
 62
    96
100
AcDbLine
 10
3103.329511
 20
1619.739179
 30
0.0
 11
4004.130786
 21
1619.739179
 31
0.0
  0
LINE
  5
C9
100
AcDbEntity
  8
15
370
     9
  6
Continuous
 62
    96
100
AcDbLine
 10
3103.399181
 20
1564.688242
 30
0.0
 11
4004.200457
 21
1564.688242
 31
0.0
  0
LINE
  5
CA
100
AcDbEntity
  8
15
370
     9
  6
Continuous
 62
    96
100
AcDbLine
 10
3103.329511
 20
1509.637305
 30
0.0
 11
4004.130786
 21
1509.637305
 31
0.0
  0
TEXT
  5
CB
100
AcDbEntity
  8
15
370
     9
  6
Continuous
 62
    96
100
AcDbText
 10
3931.887709
 20
1577.373062
 30
0.0
 40
30.018931
  1
１点
 41
0.861111
 11
3931.887709
 21
1577.373062
 31
0.0
100
AcDbText
 73
     1
  0
TEXT
  5
CC
100
AcDbEntity
  8
15
370
     9
  6
Continuous
 62
    96
100
AcDbText
 10
3931.704093
 20
1521.71146
 30
0.0
 40
30.018931
  1
１点
 41
0.861111
 11
3931.704093
 21
1521.71146
 31
0.0
100
AcDbText
 73
     1
  0
TEXT
  5
CD
100
AcDbEntity
  8
15
370
     9
  6
Continuous
 62
    96
100
AcDbText
 10
3931.704093
 20
1467.933546
 30
0.0
 40
30.018931
  1
１点
 41
0.861111
 11
3931.704093
 21
1467.933546
 31
0.0
100
AcDbText
 73
     1
  0
LINE
  5
CE
100
AcDbEntity
  8
15
370
     9
  6
Continuous
 62
    96
100
AcDbLine
 10
3103.36547
 20
1839.942927
 30
0.0
 11
4004.201581
 21
1839.942927
 31
0.0
  0
LINE
  5
CF
100
AcDbEntity
  8
15
370
     9
  6
Continuous
 62
    96
100
AcDbLine
 10
3352.174723
 20
2005.095739
 30
0.0
 11
3352.174723
 21
1729.841053
 31
0.0
  0
LINE
  5
D0
100
AcDbEntity
  8
15
370
     9
  6
Continuous
 62
    96
100
AcDbLine
 10
3922.702616
 20
2005.097924
 30
0.0
 11
3922.702616
 21
1729.841053
 31
0.0
  0
TEXT
  5
D1
100
AcDbEntity
  8
15
370
     9
  6
Continuous
 62
    96
100
AcDbText
 10
3103.043062
 20
1743.834784
 30
0.0
 40
30.018931
  1
電源表示
 41
0.875
 11
3103.043062
 21
1743.834784
 31
0.0
100
AcDbText
 73
     1
  0
TEXT
  5
D2
100
AcDbEntity
  8
15
370
     9
  6
Continuous
 62
    96
100
AcDbText
 10
3133.862681
 20
1688.381432
 30
0.0
 40
30.018931
  1
入力
 41
0.861111
 11
3133.862681
 21
1688.381432
 31
0.0
100
AcDbText
 73
     1
  0
LINE
  5
D3
100
AcDbEntity
  8
15
370
     9
  6
Continuous
 62
    96
100
AcDbLine
 10
3227.770096
 20
1839.942927
 30
0.0
 11
3227.770096
 21
1619.739179
 31
0.0
  0
LINE
  5
D4
100
AcDbEntity
  8
15
370
     9
  6
Continuous
 62
    96
100
AcDbLine
 10
3227.770096
 20
1729.841053
 30
0.0
 11
4004.200457
 21
1729.841053
 31
0.0
  0
TEXT
  5
D5
100
AcDbEntity
  8
15
370
     9
  6
Continuous
 62
    96
100
AcDbText
 10
3244.32832
 20
1797.609201
 30
0.0
 40
30.018931
  1
商　用
 41
0.87037
 11
3244.32832
 21
1797.609201
 31
0.0
100
AcDbText
 73
     1
  0
TEXT
  5
D6
100
AcDbEntity
  8
15
370
     9
  6
Continuous
 62
    96
100
AcDbText
 10
3244.32832
 20
1742.13275
 30
0.0
 40
30.018931
  1
電池時
 41
0.87037
 11
3244.32832
 21
1742.13275
 31
0.0
100
AcDbText
 73
     1
  0
TEXT
  5
D7
100
AcDbEntity
  8
15
370
     9
  6
Continuous
 62
    96
100
AcDbText
 10
3244.594301
 20
1681.500092
 30
0.0
 40
30.018931
  1
鉛電池
 41
0.87037
 11
3244.594301
 21
1681.500092
 31
0.0
100
AcDbText
 73
     1
  0
TEXT
  5
D8
100
AcDbEntity
  8
15
370
     9
  6
Continuous
 62
    96
100
AcDbText
 10
3245.35076
 20
1632.29363
 30
0.0
 40
30.018931
  1
動作時
 41
0.87037
 11
3245.35076
 21
1632.29363
 31
0.0
100
AcDbText
 73
     1
  0
TEXT
  5
D9
100
AcDbEntity
  8
15
370
     9
  6
Continuous
 62
    96
100
AcDbText
 10
3933.404241
 20
1769.882525
 30
0.0
 40
30.018931
  1
１点
 41
0.861111
 11
3933.404241
 21
1769.882525
 31
0.0
100
AcDbText
 73
     1
  0
TEXT
  5
DA
100
AcDbEntity
  8
15
370
     9
  6
Continuous
 62
    96
100
AcDbText
 10
3554.996592
 20
1771.402013
 30
0.0
 40
30.018931
  1
有電圧DC24Ｖ
 41
0.734848
 11
3554.996592
 21
1771.402013
 31
0.0
100
AcDbText
 73
     1
  0
TEXT
  5
DB
100
AcDbEntity
  8
15
370
     9
  6
Continuous
 62
    96
100
AcDbText
 10
3558.839894
 20
1660.641287
 30
0.0
 40
30.018931
  1
有電圧DC24Ｖ
 41
0.734848
 11
3558.839894
 21
1660.641287
 31
0.0
100
AcDbText
 73
     1
  0
TEXT
  5
DC
100
AcDbEntity
  8
15
370
     9
  6
Continuous
 62
    96
100
AcDbText
 10
3932.086537
 20
1659.780651
 30
0.0
 40
30.018931
  1
１点
 41
0.861111
 11
3932.086537
 21
1659.780651
 31
0.0
100
AcDbText
 73
     1
  0
TEXT
  5
DD
100
AcDbEntity
  8
15
370
     9
  6
Continuous
 62
    96
100
AcDbText
 10
3105.155747
 20
1577.997383
 30
0.0
 40
29.0183
  1
非常解錠表示入力
 41
0.883621
 11
3105.155747
 21
1577.997383
 31
0.0
100
AcDbText
 73
     1
  0
TEXT
  5
DE
100
AcDbEntity
  8
15
370
     9
  6
Continuous
 62
    96
100
AcDbText
 10
3104.820387
 20
1522.627478
 30
0.0
 40
29.0183
  1
一斉解錠表示入力
 41
0.883621
 11
3104.820387
 21
1522.627478
 31
0.0
100
AcDbText
 73
     1
  0
TEXT
  5
DF
100
AcDbEntity
  8
15
370
     9
  6
Continuous
 62
    96
100
AcDbText
 10
3117.16332
 20
1467.102371
 30
0.0
 40
30.018931
  1
警報ブザー入力
 41
0.880952
 11
3117.16332
 21
1467.102371
 31
0.0
100
AcDbText
 73
     1
  0
TEXT
  5
E0
100
AcDbEntity
  8
15
370
     9
  6
Continuous
 62
    96
100
AcDbText
 10
3460.867236
 20
1577.204245
 30
0.0
 40
30.018931
  1
有電圧DC24Ｖ　25mA以下
 41
0.727642
 11
3460.867236
 21
1577.204245
 31
0.0
100
AcDbText
 73
     1
  0
TEXT
  5
E1
100
AcDbEntity
  8
15
370
     9
  6
Continuous
 62
    96
100
AcDbText
 10
3460.867236
 20
1522.153308
 30
0.0
 40
30.018931
  1
有電圧DC24Ｖ　25mA以下
 41
0.727642
 11
3460.867236
 21
1522.153308
 31
0.0
100
AcDbText
 73
     1
  0
TEXT
  5
E2
100
AcDbEntity
  8
15
370
     9
  6
Continuous
 62
    96
100
AcDbText
 10
3460.867236
 20
1467.102371
 30
0.0
 40
30.018931
  1
有電圧DC24Ｖ　25mA以下
 41
0.727642
 11
3460.867236
 21
1467.102371
 31
0.0
100
AcDbText
 73
     1
  0
TEXT
  5
E3
100
AcDbEntity
  8
15
370
     9
  6
Continuous
 62
    96
100
AcDbText
 10
3653.777881
 20
606.375013
 30
0.0
 40
30.018931
  1
---
 41
0.544444
 11
3653.777881
 21
606.375013
 31
0.0
100
AcDbText
 73
     1
  0
TEXT
  5
E4
100
AcDbEntity
  8
15
370
     9
  6
Continuous
 62
    96
100
AcDbText
 10
3450.416184
 20
438.003893
 30
0.0
 40
50.031552
  1
副制御盤
 41
0.858333
 11
3450.416184
 21
438.003893
 31
0.0
100
AcDbText
 73
     1
  0
TEXT
  5
E5
100
AcDbEntity
  8
15
370
     9
  6
Continuous
 62
    96
100
AcDbText
 10
3340.853324
 20
344.207369
 30
0.0
 40
50.031552
  1
加川
 41
0.85
 11
3340.853324
 21
344.207369
 31
0.0
100
AcDbText
 73
     1
  0
TEXT
  5
E6
100
AcDbEntity
  8
15
370
     9
  6
Continuous
 62
    96
100
AcDbText
 10
3131.732016
 20
343.652999
 30
0.0
 40
30.018931
  1
１：10
 41
0.727273
 11
3131.732016
 21
343.652999
 31
0.0
100
AcDbText
 73
     1
  0
LINE
  5
E7
100
AcDbEntity
  8
24
370
    30
  6
Continuous
 62
     7
100
AcDbLine
 10
1539.233026
 20
2332.045029
 30
0.0
 11
1659.233026
 21
2332.045029
 31
0.0
  0
LINE
  5
E8
100
AcDbEntity
  8
24
370
    30
  6
Continuous
 62
     7
100
AcDbLine
 10
1659.233026
 20
2332.045029
 30
0.0
 11
1659.233026
 21
1632.045029
 31
0.0
  0
LINE
  5
E9
100
AcDbEntity
  8
24
370
    30
  6
Continuous
 62
     7
100
AcDbLine
 10
1659.233026
 20
1632.045029
 30
0.0
 11
1539.233026
 21
1632.045029
 31
0.0
  0
LINE
  5
EA
100
AcDbEntity
  8
24
370
    30
  6
Continuous
 62
     7
100
AcDbLine
 10
1539.233026
 20
1632.045029
 30
0.0
 11
1539.233026
 21
2332.045029
 31
0.0
  0
ARC
  5
EB
100
AcDbEntity
  8
24
370
    30
  6
Continuous
 62
     7
100
AcDbCircle
 10
1539.233026
 20
1632.045029
 30
0.0
 40
0.25
100
AcDbArc
 50
0.0
 51
-180.0
  0
ARC
  5
EC
100
AcDbEntity
  8
24
370
    30
  6
Continuous
 62
     7
100
AcDbCircle
 10
1539.233026
 20
1632.045029
 30
0.0
 40
0.25
100
AcDbArc
 50
180.0
 51
0.0
  0
ARC
  5
ED
100
AcDbEntity
  8
24
370
    30
  6
Continuous
 62
     7
100
AcDbCircle
 10
1659.233026
 20
2332.045029
 30
0.0
 40
0.25
100
AcDbArc
 50
0.0
 51
180.0
  0
ARC
  5
EE
100
AcDbEntity
  8
24
370
    30
  6
Continuous
 62
     7
100
AcDbCircle
 10
1659.233026
 20
2332.045029
 30
0.0
 40
0.25
100
AcDbArc
 50
-180.0
 51
0.0
  0
LINE
  5
EF
100
AcDbEntity
  8
24
370
    30
  6
Continuous
 62
     7
100
AcDbLine
 10
1554.233026
 20
1632.045029
 30
0.0
 11
1554.233026
 21
2332.045029
 31
0.0
  0
LINE
  5
F0
100
AcDbEntity
  8
24
370
    30
  6
Continuous
 62
     7
100
AcDbLine
 10
1539.233026
 20
1940.045029
 30
0.0
 11
1539.233026
 21
2024.045029
 31
0.0
  0
LINE
  5
F1
100
AcDbEntity
  8
24
370
    30
  6
Continuous
 62
     7
100
AcDbLine
 10
1536.733026
 20
2010.045029
 30
0.0
 11
1536.733026
 21
1954.045029
 31
0.0
  0
LINE
  5
F2
100
AcDbEntity
  8
24
370
    30
  6
Continuous
 62
     7
100
AcDbLine
 10
1536.733026
 20
2017.868099
 30
0.0
 11
1536.733026
 21
2022.699969
 31
0.0
  0
LINE
  5
F3
100
AcDbEntity
  8
24
370
    30
  6
Continuous
 62
     7
100
AcDbLine
 10
1536.733026
 20
2022.699969
 30
0.0
 11
1536.733026
 21
2024.045029
 31
0.0
  0
LINE
  5
F4
100
AcDbEntity
  8
24
370
    30
  6
Continuous
 62
     7
100
AcDbLine
 10
1536.733026
 20
1940.045029
 30
0.0
 11
1536.733026
 21
1941.390089
 31
0.0
  0
LINE
  5
F5
100
AcDbEntity
  8
24
370
    30
  6
Continuous
 62
     7
100
AcDbLine
 10
1536.733026
 20
1946.221959
 30
0.0
 11
1536.733026
 21
1954.045029
 31
0.0
  0
LINE
  5
F6
100
AcDbEntity
  8
24
370
    30
  6
Continuous
 62
     7
100
AcDbLine
 10
1536.733026
 20
2010.045029
 30
0.0
 11
1536.733026
 21
2017.868099
 31
0.0
  0
LINE
  5
F7
100
AcDbEntity
  8
24
370
    30
  6
Continuous
 62
     7
100
AcDbLine
 10
1536.733026
 20
1941.390089
 30
0.0
 11
1536.733026
 21
1946.221959
 31
0.0
  0
LINE
  5
F8
100
AcDbEntity
  8
24
370
    30
  6
Continuous
 62
     7
100
AcDbLine
 10
1534.555676
 20
2001.545029
 30
0.0
 11
1534.555676
 21
1955.792509
 31
0.0
  0
LINE
  5
F9
100
AcDbEntity
  8
24
370
    30
  6
Continuous
 62
     7
100
AcDbLine
 10
1539.233026
 20
2024.045029
 30
0.0
 11
1536.725946
 21
2024.045029
 31
0.0
  0
LINE
  5
FA
100
AcDbEntity
  8
24
370
    30
  6
Continuous
 62
     7
100
AcDbLine
 10
1536.725946
 20
1940.045029
 30
0.0
 11
1539.233026
 21
1940.045029
 31
0.0
  0
LINE
  5
FB
100
AcDbEntity
  8
24
370
    30
  6
Continuous
 62
     7
100
AcDbLine
 10
1532.733026
 20
1957.895029
 30
0.0
 11
1532.733026
 21
1954.002949
 31
0.0
  0
LINE
  5
FC
100
AcDbEntity
  8
24
370
    30
  6
Continuous
 62
     7
100
AcDbLine
 10
1533.509856
 20
1956.249269
 30
0.0
 11
1533.509856
 21
1998.545029
 31
0.0
  0
LINE
  5
FD
100
AcDbEntity
  8
24
370
    30
  6
Continuous
 62
     7
100
AcDbLine
 10
1532.733026
 20
1967.545029
 30
0.0
 11
1532.733026
 21
1965.195029
 31
0.0
  0
LINE
  5
FE
100
AcDbEntity
  8
24
370
    30
  6
Continuous
 62
     7
100
AcDbLine
 10
1533.134816
 20
1957.895029
 30
0.0
 11
1533.134816
 21
1965.195029
 31
0.0
  0
LINE
  5
FF
100
AcDbEntity
  8
24
370
    30
  6
Continuous
 62
     7
100
AcDbLine
 10
1532.733026
 20
2002.544759
 30
0.0
 11
1532.733026
 21
2009.167649
 31
0.0
  0
LINE
  5
100
100
AcDbEntity
  8
24
370
    30
  6
Continuous
 62
     7
100
AcDbLine
 10
1532.733026
 20
1991.848499
 30
0.0
 11
1532.733026
 21
1977.545029
 31
0.0
  0
ARC
  5
101
100
AcDbEntity
  8
24
370
    30
  6
Continuous
 62
     7
100
AcDbCircle
 10
1538.733026
 20
1998.545029
 30
0.0
 40
12.2
100
AcDbArc
 50
114.264714
 51
119.459175
  0
ARC
  5
102
100
AcDbEntity
  8
24
370
    30
  6
Continuous
 62
     7
100
AcDbCircle
 10
1520.397076
 20
1956.938099
 30
0.0
 40
14.25597
100
AcDbArc
 50
-12.386164
 51
-10.916466
  0
ARC
  5
103
100
AcDbEntity
  8
24
370
    30
  6
Continuous
 62
     7
100
AcDbCircle
 10
1526.850776
 20
1955.788689
 30
0.0
 40
7.70201
100
AcDbArc
 50
-11.619355
 51
0.028279
  0
ARC
  5
104
100
AcDbEntity
  8
24
370
    30
  6
Continuous
 62
     7
100
AcDbCircle
 10
1496.146746
 20
2001.245709
 30
0.0
 40
38.40903
100
AcDbArc
 50
0.446574
 51
6.570908
  0
ARC
  5
105
100
AcDbEntity
  8
24
370
    30
  6
Continuous
 62
     7
100
AcDbCircle
 10
1489.142576
 20
2001.178389
 30
0.0
 40
45.37999
100
AcDbArc
 50
5.641102
 51
11.01236
  0
ARC
  5
106
100
AcDbEntity
  8
24
370
    30
  6
Continuous
 62
     7
100
AcDbCircle
 10
1542.129176
 20
1945.951089
 30
0.0
 40
8.0
100
AcDbArc
 50
-167.364087
 51
-132.41614
  0
ARC
  5
107
100
AcDbEntity
  8
24
370
    30
  6
Continuous
 62
     7
100
AcDbCircle
 10
2717.947506
 20
2240.924359
 30
0.0
 40
1206.59448
100
AcDbArc
 50
-169.05613
 51
-168.959182
  0
ARC
  5
108
100
AcDbEntity
  8
24
370
    30
  6
Continuous
 62
     7
100
AcDbCircle
 10
1578.233026
 20
1954.045029
 30
0.0
 40
45.0
100
AcDbArc
 50
-177.400626
 51
-167.364087
  0
ARC
  5
109
100
AcDbEntity
  8
24
370
    30
  6
Continuous
 62
     7
100
AcDbCircle
 10
1602.369236
 20
1891.874859
 30
0.0
 40
91.86691
100
AcDbArc
 50
137.849706
 51
138.535907
  0
ARC
  5
10A
100
AcDbEntity
  8
24
370
    30
  6
Continuous
 62
     7
100
AcDbCircle
 10
1578.233026
 20
2010.045029
 30
0.0
 40
45.0
100
AcDbArc
 50
167.364087
 51
177.406801
  0
ARC
  5
10B
100
AcDbEntity
  8
24
370
    30
  6
Continuous
 62
     7
100
AcDbCircle
 10
1542.129176
 20
2018.138969
 30
0.0
 40
8.0
100
AcDbArc
 50
132.416399
 51
167.364087
  0
ARC
  5
10C
100
AcDbEntity
  8
24
370
    30
  6
Continuous
 62
     7
100
AcDbCircle
 10
1534.278506
 20
2012.045029
 30
0.0
 40
1.0
100
AcDbArc
 50
177.935403
 51
-169.080121
  0
ARC
  5
10D
100
AcDbEntity
  8
24
370
    30
  6
Continuous
 62
     7
100
AcDbCircle
 10
1534.278506
 20
1952.045029
 30
0.0
 40
1.0
100
AcDbArc
 50
138.734051
 51
-177.653197
  0
ARC
  5
10E
100
AcDbEntity
  8
24
370
    30
  6
Continuous
 62
     7
100
AcDbCircle
 10
1632.422566
 20
1864.972659
 30
0.0
 40
132.20157
100
AcDbArc
 50
137.947719
 51
138.423264
  0
ARC
  5
10F
100
AcDbEntity
  8
24
370
    30
  6
Continuous
 62
     7
100
AcDbCircle
 10
1546.610836
 20
1994.766039
 30
0.0
 40
20.0
100
AcDbArc
 50
133.938889
 51
143.743421
  0
ARC
  5
110
100
AcDbEntity
  8
24
370
    30
  6
Continuous
 62
     7
100
AcDbCircle
 10
1536.044156
 20
1965.745029
 30
0.0
 40
12.2
100
AcDbArc
 50
-105.747857
 51
-98.34702
  0
ARC
  5
111
100
AcDbEntity
  8
24
370
    30
  6
Continuous
 62
     7
100
AcDbCircle
 10
1502.345046
 20
1972.557569
 30
0.0
 40
30.7946
100
AcDbArc
 50
-9.221411
 51
-9.106682
  0
ARC
  5
112
100
AcDbEntity
  8
24
370
    30
  6
Continuous
 62
     7
100
AcDbCircle
 10
1502.345046
 20
1972.557569
 30
0.0
 40
30.7946
100
AcDbArc
 50
-9.106682
 51
9.319386
  0
ARC
  5
113
100
AcDbEntity
  8
24
370
    30
  6
Continuous
 62
     7
100
AcDbCircle
 10
1533.133026
 20
1957.895029
 30
0.0
 40
0.4
100
AcDbArc
 50
90.000003
 51
-179.999995
  0
ARC
  5
114
100
AcDbEntity
  8
24
370
    30
  6
Continuous
 62
     7
100
AcDbCircle
 10
1533.133026
 20
1965.195029
 30
0.0
 40
0.4
100
AcDbArc
 50
-179.999995
 51
-89.999999
  0
ARC
  5
115
100
AcDbEntity
  8
24
370
    30
  6
Continuous
 62
     7
100
AcDbCircle
 10
1487.904256
 20
1999.081559
 30
0.0
 40
45.40852
100
AcDbArc
 50
-8.51059
 51
-0.046087
  0
ARC
  5
116
100
AcDbEntity
  8
24
370
    30
  6
Continuous
 62
     7
100
AcDbCircle
 10
1488.835066
 20
1999.044559
 30
0.0
 40
44.4777
100
AcDbArc
 50
0.000612
 51
2.196198
  0
ARC
  5
117
100
AcDbEntity
  8
24
370
    30
  6
Continuous
 62
     7
100
AcDbCircle
 10
1522.824606
 20
1998.545029
 30
0.0
 40
10.68526
100
AcDbArc
 50
21.982455
 51
43.882415
  0
ARC
  5
118
100
AcDbEntity
  8
24
370
    30
  6
Continuous
 62
     7
100
AcDbCircle
 10
1522.837726
 20
1998.549369
 30
0.0
 40
10.67146
100
AcDbArc
 50
14.631672
 51
21.987212
  0
ARC
  5
119
100
AcDbEntity
  8
24
370
    30
  6
Continuous
 62
     7
100
AcDbCircle
 10
1533.233026
 20
1967.545029
 30
0.0
 40
0.5
100
AcDbArc
 50
164.164007
 51
-179.999995
  0
ARC
  5
11A
100
AcDbEntity
  8
24
370
    30
  6
Continuous
 62
     7
100
AcDbCircle
 10
1533.233026
 20
1977.545029
 30
0.0
 40
0.5
100
AcDbArc
 50
-179.999995
 51
-158.703889
  0
ARC
  5
11B
100
AcDbEntity
  8
24
370
    30
  6
Continuous
 62
     7
100
AcDbCircle
 10
1530.886536
 20
2006.298439
 30
0.0
 40
0.5
100
AcDbArc
 50
143.743244
 51
-136.117587
  0
ARC
  5
11C
100
AcDbEntity
  8
24
370
    30
  6
Continuous
 62
     7
100
AcDbCircle
 10
1522.859796
 20
1998.549549
 30
0.0
 40
10.65007
100
AcDbArc
 50
-0.024314
 51
14.660742
  0
POLYLINE
  5
11D
100
AcDbEntity
  8
24
370
    30
  6
Continuous
 62
     7
100
AcDb2dPolyline
 66
     1
 10
0.0
 20
0.0
 30
0.0
  0
VERTEX
  5
11E
100
AcDbEntity
  8
24
370
    30
  6
Continuous
 62
     7
100
AcDbVertex
100
AcDb2dVertex
 10
1532.812756
 20
1992.361449
 30
0.0
  0
VERTEX
  5
11F
100
AcDbEntity
  8
24
370
    30
  6
Continuous
 62
     7
100
AcDbVertex
100
AcDb2dVertex
 10
1532.762776
 20
1992.032349
 30
0.0
  0
VERTEX
  5
120
100
AcDbEntity
  8
24
370
    30
  6
Continuous
 62
     7
100
AcDbVertex
100
AcDb2dVertex
 10
1532.739076
 20
1991.882259
 30
0.0
  0
VERTEX
  5
121
100
AcDbEntity
  8
24
370
    30
  6
Continuous
 62
     7
100
AcDbVertex
100
AcDb2dVertex
 10
1532.733026
 20
1991.845029
 30
0.0
  0
SEQEND
  5
122
100
AcDbEntity
  8
24
370
    30
  6
Continuous
 62
     7
  0
POLYLINE
  5
123
100
AcDbEntity
  8
24
370
    30
  6
Continuous
 62
     7
100
AcDb2dPolyline
 66
     1
 10
0.0
 20
0.0
 30
0.0
  0
VERTEX
  5
124
100
AcDbEntity
  8
24
370
    30
  6
Continuous
 62
     7
100
AcDbVertex
100
AcDb2dVertex
 10
1533.206106
 20
1954.417499
 30
0.0
  0
VERTEX
  5
125
100
AcDbEntity
  8
24
370
    30
  6
Continuous
 62
     7
100
AcDbVertex
100
AcDb2dVertex
 10
1533.033106
 20
1954.263349
 30
0.0
  0
VERTEX
  5
126
100
AcDbEntity
  8
24
370
    30
  6
Continuous
 62
     7
100
AcDbVertex
100
AcDb2dVertex
 10
1532.866896
 20
1954.117739
 30
0.0
  0
VERTEX
  5
127
100
AcDbEntity
  8
24
370
    30
  6
Continuous
 62
     7
100
AcDbVertex
100
AcDb2dVertex
 10
1532.766626
 20
1954.031409
 30
0.0
  0
VERTEX
  5
128
100
AcDbEntity
  8
24
370
    30
  6
Continuous
 62
     7
100
AcDbVertex
100
AcDb2dVertex
 10
1532.733026
 20
1954.002949
 30
0.0
  0
SEQEND
  5
129
100
AcDbEntity
  8
24
370
    30
  6
Continuous
 62
     7
  0
POLYLINE
  5
12A
100
AcDbEntity
  8
24
370
    30
  6
Continuous
 62
     7
100
AcDb2dPolyline
 66
     1
 10
0.0
 20
0.0
 30
0.0
  0
VERTEX
  5
12B
100
AcDbEntity
  8
24
370
    30
  6
Continuous
 62
     7
100
AcDbVertex
100
AcDb2dVertex
 10
1533.509856
 20
1956.249269
 30
0.0
  0
VERTEX
  5
12C
100
AcDbEntity
  8
24
370
    30
  6
Continuous
 62
     7
100
AcDbVertex
100
AcDb2dVertex
 10
1533.477246
 20
1955.509459
 30
0.0
  0
VERTEX
  5
12D
100
AcDbEntity
  8
24
370
    30
  6
Continuous
 62
     7
100
AcDbVertex
100
AcDb2dVertex
 10
1533.397926
 20
1954.943639
 30
0.0
  0
VERTEX
  5
12E
100
AcDbEntity
  8
24
370
    30
  6
Continuous
 62
     7
100
AcDbVertex
100
AcDb2dVertex
 10
1533.317796
 20
1954.633689
 30
0.0
  0
VERTEX
  5
12F
100
AcDbEntity
  8
24
370
    30
  6
Continuous
 62
     7
100
AcDbVertex
100
AcDb2dVertex
 10
1533.267326
 20
1954.509059
 30
0.0
  0
VERTEX
  5
130
100
AcDbEntity
  8
24
370
    30
  6
Continuous
 62
     7
100
AcDbVertex
100
AcDb2dVertex
 10
1533.228266
 20
1954.443379
 30
0.0
  0
VERTEX
  5
131
100
AcDbEntity
  8
24
370
    30
  6
Continuous
 62
     7
100
AcDbVertex
100
AcDb2dVertex
 10
1533.206106
 20
1954.417499
 30
0.0
  0
SEQEND
  5
132
100
AcDbEntity
  8
24
370
    30
  6
Continuous
 62
     7
  0
POLYLINE
  5
133
100
AcDbEntity
  8
24
370
    30
  6
Continuous
 62
     7
100
AcDb2dPolyline
 66
     1
 10
0.0
 20
0.0
 30
0.0
  0
VERTEX
  5
134
100
AcDbEntity
  8
24
370
    30
  6
Continuous
 62
     7
100
AcDbVertex
100
AcDb2dVertex
 10
1534.321266
 20
1953.880459
 30
0.0
  0
VERTEX
  5
135
100
AcDbEntity
  8
24
370
    30
  6
Continuous
 62
     7
100
AcDbVertex
100
AcDb2dVertex
 10
1534.271216
 20
1953.672369
 30
0.0
  0
VERTEX
  5
136
100
AcDbEntity
  8
24
370
    30
  6
Continuous
 62
     7
100
AcDbVertex
100
AcDb2dVertex
 10
1534.204036
 20
1953.463789
 30
0.0
  0
SEQEND
  5
137
100
AcDbEntity
  8
24
370
    30
  6
Continuous
 62
     7
  0
DIMENSION
  5
143
100
AcDbEntity
  8
2
370
     9
  6
Continuous
 62
   214
100
AcDbDimension
  2
*D2
 10
1539.233026
 20
2432.045029
 30
0.0
 11
1599.233026
 21
2437.045029
 31
0.0
 71
     5
 72
     1
 41
1.0
 42
0.0
  1
120
100
AcDbAlignedDimension
 13
1539.233026
 23
2349.827431
 33
0.0
 14
1659.233026
 24
2350.622251
 34
0.0
100
AcDbRotatedDimension
  0
LINE
  5
144
100
AcDbEntity
  8
24
370
    30
  6
Continuous
 62
     7
100
AcDbLine
 10
689.245443
 20
2332.045029
 30
0.0
 11
1189.245443
 21
2332.045029
 31
0.0
  0
LINE
  5
145
100
AcDbEntity
  8
24
370
    30
  6
Continuous
 62
     7
100
AcDbLine
 10
1189.245443
 20
2332.045029
 30
0.0
 11
1189.245443
 21
1632.045029
 31
0.0
  0
LINE
  5
146
100
AcDbEntity
  8
24
370
    30
  6
Continuous
 62
     7
100
AcDbLine
 10
1189.245443
 20
1632.045029
 30
0.0
 11
689.245443
 21
1632.045029
 31
0.0
  0
LINE
  5
147
100
AcDbEntity
  8
24
370
    30
  6
Continuous
 62
     7
100
AcDbLine
 10
689.245443
 20
1632.045029
 30
0.0
 11
689.245443
 21
2332.045029
 31
0.0
  0
ARC
  5
148
100
AcDbEntity
  8
24
370
    30
  6
Continuous
 62
     7
100
AcDbCircle
 10
689.245443
 20
1632.045029
 30
0.0
 40
0.25
100
AcDbArc
 50
0.0
 51
-180.0
  0
ARC
  5
149
100
AcDbEntity
  8
24
370
    30
  6
Continuous
 62
     7
100
AcDbCircle
 10
689.245443
 20
1632.045029
 30
0.0
 40
0.25
100
AcDbArc
 50
180.0
 51
0.0
  0
ARC
  5
14A
100
AcDbEntity
  8
24
370
    30
  6
Continuous
 62
     7
100
AcDbCircle
 10
1189.245443
 20
2332.045029
 30
0.0
 40
0.25
100
AcDbArc
 50
0.0
 51
180.0
  0
ARC
  5
14B
100
AcDbEntity
  8
24
370
    30
  6
Continuous
 62
     7
100
AcDbCircle
 10
1189.245443
 20
2332.045029
 30
0.0
 40
0.25
100
AcDbArc
 50
180.0
 51
0.0
  0
LINE
  5
14C
100
AcDbEntity
  8
24
370
    30
  6
Continuous
 62
     7
100
AcDbLine
 10
709.245443
 20
2312.045029
 30
0.0
 11
1169.245443
 21
2312.045029
 31
0.0
  0
LINE
  5
14D
100
AcDbEntity
  8
24
370
    30
  6
Continuous
 62
     7
100
AcDbLine
 10
1169.245443
 20
2312.045029
 30
0.0
 11
1169.245443
 21
1652.045029
 31
0.0
  0
LINE
  5
14E
100
AcDbEntity
  8
24
370
    30
  6
Continuous
 62
     7
100
AcDbLine
 10
1169.245443
 20
1652.045029
 30
0.0
 11
709.245443
 21
1652.045029
 31
0.0
  0
LINE
  5
14F
100
AcDbEntity
  8
24
370
    30
  6
Continuous
 62
     7
100
AcDbLine
 10
709.245443
 20
1652.045029
 30
0.0
 11
709.245443
 21
2312.045029
 31
0.0
  0
ARC
  5
150
100
AcDbEntity
  8
24
370
    30
  6
Continuous
 62
     7
100
AcDbCircle
 10
712.245443
 20
1655.045029
 30
0.0
 40
0.25
100
AcDbArc
 50
0.0
 51
180.0
  0
ARC
  5
151
100
AcDbEntity
  8
24
370
    30
  6
Continuous
 62
     7
100
AcDbCircle
 10
712.245443
 20
1655.045029
 30
0.0
 40
0.25
100
AcDbArc
 50
-180.0
 51
0.0
  0
ARC
  5
152
100
AcDbEntity
  8
24
370
    30
  6
Continuous
 62
     7
100
AcDbCircle
 10
1166.245443
 20
2309.045029
 30
0.0
 40
0.25
100
AcDbArc
 50
0.0
 51
180.0
  0
ARC
  5
153
100
AcDbEntity
  8
24
370
    30
  6
Continuous
 62
     7
100
AcDbCircle
 10
1166.245443
 20
2309.045029
 30
0.0
 40
0.25
100
AcDbArc
 50
-180.0
 51
0.0
  0
LINE
  5
154
100
AcDbEntity
  8
24
370
    30
  6
Continuous
 62
     7
100
AcDbLine
 10
755.745443
 20
2010.045029
 30
0.0
 11
755.745443
 21
1954.045029
 31
0.0
  0
LINE
  5
155
100
AcDbEntity
  8
24
370
    30
  6
Continuous
 62
     7
100
AcDbLine
 10
727.745443
 20
2010.045029
 30
0.0
 11
727.745443
 21
1954.045029
 31
0.0
  0
LINE
  5
156
100
AcDbEntity
  8
24
370
    30
  6
Continuous
 62
     7
100
AcDbLine
 10
755.745443
 20
1946.221959
 30
0.0
 11
755.745443
 21
1954.045029
 31
0.0
  0
LINE
  5
157
100
AcDbEntity
  8
24
370
    30
  6
Continuous
 62
     7
100
AcDbLine
 10
727.745443
 20
2017.868099
 30
0.0
 11
727.745443
 21
2010.045029
 31
0.0
  0
LINE
  5
158
100
AcDbEntity
  8
24
370
    30
  6
Continuous
 62
     7
100
AcDbLine
 10
755.745443
 20
2010.045029
 30
0.0
 11
755.745443
 21
2017.868099
 31
0.0
  0
LINE
  5
159
100
AcDbEntity
  8
24
370
    30
  6
Continuous
 62
     7
100
AcDbLine
 10
727.745443
 20
1954.045029
 30
0.0
 11
727.745443
 21
1946.221959
 31
0.0
  0
LINE
  5
15A
100
AcDbEntity
  8
24
370
    30
  6
Continuous
 62
     7
100
AcDbLine
 10
740.095443
 20
1969.496119
 30
0.0
 11
742.395443
 21
1969.496119
 31
0.0
  0
LINE
  5
15B
100
AcDbEntity
  8
24
370
    30
  6
Continuous
 62
     7
100
AcDbLine
 10
740.095443
 20
1976.568129
 30
0.0
 11
740.095443
 21
1969.496119
 31
0.0
  0
LINE
  5
15C
100
AcDbEntity
  8
24
370
    30
  6
Continuous
 62
     7
100
AcDbLine
 10
742.395443
 20
1969.496119
 30
0.0
 11
742.395443
 21
1976.568129
 31
0.0
  0
LINE
  5
15D
100
AcDbEntity
  8
24
370
    30
  6
Continuous
 62
     7
100
AcDbLine
 10
742.395443
 20
1976.568129
 30
0.0
 11
740.095443
 21
1976.568129
 31
0.0
  0
LINE
  5
15E
100
AcDbEntity
  8
24
370
    30
  6
Continuous
 62
     7
100
AcDbLine
 10
734.545443
 20
1999.045029
 30
0.0
 11
734.749983
 21
2000.749009
 31
0.0
  0
LINE
  5
15F
100
AcDbEntity
  8
24
370
    30
  6
Continuous
 62
     7
100
AcDbLine
 10
750.945443
 20
1956.242889
 30
0.0
 11
750.945443
 21
1956.233369
 31
0.0
  0
LINE
  5
160
100
AcDbEntity
  8
24
370
    30
  6
Continuous
 62
     7
100
AcDbLine
 10
749.560723
 20
2002.544759
 30
0.0
 11
749.899753
 21
2001.245029
 31
0.0
  0
LINE
  5
161
100
AcDbEntity
  8
24
370
    30
  6
Continuous
 62
     7
100
AcDbLine
 10
733.930163
 20
2002.544759
 30
0.0
 11
733.591133
 21
2001.245029
 31
0.0
  0
LINE
  5
162
100
AcDbEntity
  8
24
370
    30
  6
Continuous
 62
     7
100
AcDbLine
 10
749.324393
 20
1954.269599
 30
0.0
 11
749.260403
 21
1954.257299
 31
0.0
  0
LINE
  5
163
100
AcDbEntity
  8
24
370
    30
  6
Continuous
 62
     7
100
AcDbLine
 10
734.230483
 20
1954.257299
 30
0.0
 11
734.166493
 21
1954.269599
 31
0.0
  0
LINE
  5
164
100
AcDbEntity
  8
24
370
    30
  6
Continuous
 62
     7
100
AcDbLine
 10
732.545443
 20
1956.233369
 30
0.0
 11
732.545443
 21
1956.242889
 31
0.0
  0
LINE
  5
165
100
AcDbEntity
  8
24
370
    30
  6
Continuous
 62
     7
100
AcDbLine
 10
742.245443
 20
1977.045029
 30
0.0
 11
741.745443
 21
1977.045029
 31
0.0
  0
LINE
  5
166
100
AcDbEntity
  8
24
370
    30
  6
Continuous
 62
     7
100
AcDbLine
 10
743.779133
 20
2005.951839
 30
0.0
 11
742.963123
 21
2006.141309
 31
0.0
  0
LINE
  5
167
100
AcDbEntity
  8
24
370
    30
  6
Continuous
 62
     7
100
AcDbLine
 10
739.711753
 20
2005.951839
 30
0.0
 11
740.527763
 21
2006.141309
 31
0.0
  0
LINE
  5
168
100
AcDbEntity
  8
24
370
    30
  6
Continuous
 62
     7
100
AcDbLine
 10
742.963123
 20
2006.141309
 30
0.0
 11
740.527763
 21
2006.141309
 31
0.0
  0
LINE
  5
169
100
AcDbEntity
  8
24
370
    30
  6
Continuous
 62
     7
100
AcDbLine
 10
749.899753
 20
2001.245029
 30
0.0
 11
750.070803
 21
1998.545029
 31
0.0
  0
LINE
  5
16A
100
AcDbEntity
  8
24
370
    30
  6
Continuous
 62
     7
100
AcDbLine
 10
750.945443
 20
1956.242889
 30
0.0
 11
750.945443
 21
2001.245029
 31
0.0
  0
LINE
  5
16B
100
AcDbEntity
  8
24
370
    30
  6
Continuous
 62
     7
100
AcDbLine
 10
732.545443
 20
2001.245029
 30
0.0
 11
732.545443
 21
1956.242889
 31
0.0
  0
LINE
  5
16C
100
AcDbEntity
  8
24
370
    30
  6
Continuous
 62
     7
100
AcDbLine
 10
750.070803
 20
1956.249269
 30
0.0
 11
750.070803
 21
1998.545029
 31
0.0
  0
LINE
  5
16D
100
AcDbEntity
  8
24
370
    30
  6
Continuous
 62
     7
100
AcDbLine
 10
742.145443
 20
1964.795029
 30
0.0
 11
741.345443
 21
1964.795029
 31
0.0
  0
LINE
  5
16E
100
AcDbEntity
  8
24
370
    30
  6
Continuous
 62
     7
100
AcDbLine
 10
747.745443
 20
1957.895029
 30
0.0
 11
747.745443
 21
1965.195029
 31
0.0
  0
LINE
  5
16F
100
AcDbEntity
  8
24
370
    30
  6
Continuous
 62
     7
100
AcDbLine
 10
741.345443
 20
1958.295029
 30
0.0
 11
742.145443
 21
1958.295029
 31
0.0
  0
LINE
  5
170
100
AcDbEntity
  8
24
370
    30
  6
Continuous
 62
     7
100
AcDbLine
 10
733.420083
 20
1998.545029
 30
0.0
 11
733.420083
 21
1956.249269
 31
0.0
  0
LINE
  5
171
100
AcDbEntity
  8
24
370
    30
  6
Continuous
 62
     7
100
AcDbLine
 10
733.591133
 20
2001.245029
 30
0.0
 11
733.420083
 21
1998.545029
 31
0.0
  0
LINE
  5
172
100
AcDbEntity
  8
24
370
    30
  6
Continuous
 62
     7
100
AcDbLine
 10
739.645443
 20
2000.445029
 30
0.0
 11
739.645443
 21
1998.345029
 31
0.0
  0
LINE
  5
173
100
AcDbEntity
  8
24
370
    30
  6
Continuous
 62
     7
100
AcDbLine
 10
739.945443
 20
2000.445029
 30
0.0
 11
739.645443
 21
2000.445029
 31
0.0
  0
LINE
  5
174
100
AcDbEntity
  8
24
370
    30
  6
Continuous
 62
     7
100
AcDbLine
 10
741.445443
 20
1998.345029
 30
0.0
 11
741.445443
 21
2000.445029
 31
0.0
  0
LINE
  5
175
100
AcDbEntity
  8
24
370
    30
  6
Continuous
 62
     7
100
AcDbLine
 10
739.945443
 20
1998.345029
 30
0.0
 11
739.945443
 21
2000.445029
 31
0.0
  0
LINE
  5
176
100
AcDbEntity
  8
24
370
    30
  6
Continuous
 62
     7
100
AcDbLine
 10
741.145443
 20
2000.445029
 30
0.0
 11
741.145443
 21
1998.345029
 31
0.0
  0
LINE
  5
177
100
AcDbEntity
  8
24
370
    30
  6
Continuous
 62
     7
100
AcDbLine
 10
741.445443
 20
2000.445029
 30
0.0
 11
741.145443
 21
2000.445029
 31
0.0
  0
LINE
  5
178
100
AcDbEntity
  8
24
370
    30
  6
Continuous
 62
     7
100
AcDbLine
 10
744.745443
 20
1999.245029
 30
0.0
 11
744.745443
 21
2000.445029
 31
0.0
  0
LINE
  5
179
100
AcDbEntity
  8
24
370
    30
  6
Continuous
 62
     7
100
AcDbLine
 10
745.945443
 20
1999.245029
 30
0.0
 11
744.745443
 21
1999.245029
 31
0.0
  0
LINE
  5
17A
100
AcDbEntity
  8
24
370
    30
  6
Continuous
 62
     7
100
AcDbLine
 10
744.445443
 20
2000.445029
 30
0.0
 11
744.445443
 21
1997.445029
 31
0.0
  0
LINE
  5
17B
100
AcDbEntity
  8
24
370
    30
  6
Continuous
 62
     7
100
AcDbLine
 10
744.745443
 20
2000.445029
 30
0.0
 11
744.445443
 21
2000.445029
 31
0.0
  0
LINE
  5
17C
100
AcDbEntity
  8
24
370
    30
  6
Continuous
 62
     7
100
AcDbLine
 10
745.945443
 20
1998.945029
 30
0.0
 11
745.945443
 21
1997.445029
 31
0.0
  0
LINE
  5
17D
100
AcDbEntity
  8
24
370
    30
  6
Continuous
 62
     7
100
AcDbLine
 10
744.745443
 20
1998.945029
 30
0.0
 11
745.945443
 21
1998.945029
 31
0.0
  0
LINE
  5
17E
100
AcDbEntity
  8
24
370
    30
  6
Continuous
 62
     7
100
AcDbLine
 10
744.745443
 20
1997.445029
 30
0.0
 11
744.745443
 21
1998.945029
 31
0.0
  0
LINE
  5
17F
100
AcDbEntity
  8
24
370
    30
  6
Continuous
 62
     7
100
AcDbLine
 10
744.445443
 20
1997.445029
 30
0.0
 11
744.745443
 21
1997.445029
 31
0.0
  0
LINE
  5
180
100
AcDbEntity
  8
24
370
    30
  6
Continuous
 62
     7
100
AcDbLine
 10
745.945443
 20
2000.445029
 30
0.0
 11
745.945443
 21
1999.245029
 31
0.0
  0
LINE
  5
181
100
AcDbEntity
  8
24
370
    30
  6
Continuous
 62
     7
100
AcDbLine
 10
746.245443
 20
2000.445029
 30
0.0
 11
745.945443
 21
2000.445029
 31
0.0
  0
LINE
  5
182
100
AcDbEntity
  8
24
370
    30
  6
Continuous
 62
     7
100
AcDbLine
 10
746.245443
 20
1997.445029
 30
0.0
 11
746.245443
 21
2000.445029
 31
0.0
  0
LINE
  5
183
100
AcDbEntity
  8
24
370
    30
  6
Continuous
 62
     7
100
AcDbLine
 10
745.945443
 20
1997.445029
 30
0.0
 11
746.245443
 21
1997.445029
 31
0.0
  0
LINE
  5
184
100
AcDbEntity
  8
24
370
    30
  6
Continuous
 62
     7
100
AcDbLine
 10
737.545443
 20
1998.945029
 30
0.0
 11
737.545443
 21
2000.145029
 31
0.0
  0
LINE
  5
185
100
AcDbEntity
  8
24
370
    30
  6
Continuous
 62
     7
100
AcDbLine
 10
738.145443
 20
1998.945029
 30
0.0
 11
737.545443
 21
1998.945029
 31
0.0
  0
LINE
  5
186
100
AcDbEntity
  8
24
370
    30
  6
Continuous
 62
     7
100
AcDbLine
 10
737.545443
 20
2000.145029
 30
0.0
 11
738.145443
 21
2000.145029
 31
0.0
  0
LINE
  5
187
100
AcDbEntity
  8
24
370
    30
  6
Continuous
 62
     7
100
AcDbLine
 10
737.545443
 20
1998.645029
 30
0.0
 11
737.545443
 21
1997.445029
 31
0.0
  0
LINE
  5
188
100
AcDbEntity
  8
24
370
    30
  6
Continuous
 62
     7
100
AcDbLine
 10
742.045443
 20
1997.745029
 30
0.0
 11
742.225443
 21
1997.985029
 31
0.0
  0
LINE
  5
189
100
AcDbEntity
  8
24
370
    30
  6
Continuous
 62
     7
100
AcDbLine
 10
743.299873
 20
1998.595919
 30
0.0
 11
742.454733
 21
1999.026889
 31
0.0
  0
LINE
  5
18A
100
AcDbEntity
  8
24
370
    30
  6
Continuous
 62
     7
100
AcDbLine
 10
743.845443
 20
2000.145029
 30
0.0
 11
743.665443
 21
1999.905029
 31
0.0
  0
LINE
  5
18B
100
AcDbEntity
  8
24
370
    30
  6
Continuous
 62
     7
100
AcDbLine
 10
742.591013
 20
1999.294139
 30
0.0
 11
743.436153
 21
1998.863169
 31
0.0
  0
LINE
  5
18C
100
AcDbEntity
  8
24
370
    30
  6
Continuous
 62
     7
100
AcDbLine
 10
737.545443
 20
1997.445029
 30
0.0
 11
737.245443
 21
1997.445029
 31
0.0
  0
LINE
  5
18D
100
AcDbEntity
  8
24
370
    30
  6
Continuous
 62
     7
100
AcDbLine
 10
737.245443
 20
1997.445029
 30
0.0
 11
737.245443
 21
2000.445029
 31
0.0
  0
LINE
  5
18E
100
AcDbEntity
  8
24
370
    30
  6
Continuous
 62
     7
100
AcDbLine
 10
737.245443
 20
2000.445029
 30
0.0
 11
738.145443
 21
2000.445029
 31
0.0
  0
LINE
  5
18F
100
AcDbEntity
  8
24
370
    30
  6
Continuous
 62
     7
100
AcDbLine
 10
735.745443
 20
1957.895029
 30
0.0
 11
735.745443
 21
1965.195029
 31
0.0
  0
LINE
  5
190
100
AcDbEntity
  8
24
370
    30
  6
Continuous
 62
     7
100
AcDbLine
 10
738.145443
 20
1998.645029
 30
0.0
 11
737.545443
 21
1998.645029
 31
0.0
  0
LINE
  5
191
100
AcDbEntity
  8
24
370
    30
  6
Continuous
 62
     7
100
AcDbLine
 10
741.745443
 20
1968.045029
 30
0.0
 11
742.245443
 21
1968.045029
 31
0.0
  0
ARC
  5
192
100
AcDbEntity
  8
24
370
    30
  6
Continuous
 62
     7
100
AcDbCircle
 10
736.264473
 20
1998.331929
 30
0.0
 40
2.85236
100
AcDbArc
 50
122.070343
 51
175.715386
  0
ARC
  5
193
100
AcDbEntity
  8
24
370
    30
  6
Continuous
 62
     7
100
AcDbCircle
 10
735.528623
 20
1956.697229
 30
0.0
 40
2.29891
100
AcDbArc
 50
-134.161813
 51
-96.325359
  0
ARC
  5
194
100
AcDbEntity
  8
24
370
    30
  6
Continuous
 62
     7
100
AcDbCircle
 10
735.130913
 20
1956.263669
 30
0.0
 40
1.71089
100
AcDbArc
 50
179.999995
 51
-134.722941
  0
ARC
  5
195
100
AcDbEntity
  8
24
370
    30
  6
Continuous
 62
     7
100
AcDbCircle
 10
747.962263
 20
1956.697229
 30
0.0
 40
2.29891
100
AcDbArc
 50
-83.674639
 51
-45.838182
  0
ARC
  5
196
100
AcDbEntity
  8
24
370
    30
  6
Continuous
 62
     7
100
AcDbCircle
 10
748.359973
 20
1956.263669
 30
0.0
 40
1.71089
100
AcDbArc
 50
-45.277061
 51
0.0
  0
ARC
  5
197
100
AcDbEntity
  8
24
370
    30
  6
Continuous
 62
     7
100
AcDbCircle
 10
732.745443
 20
2017.868099
 30
0.0
 40
5.0
100
AcDbArc
 50
104.9006
 51
-179.999995
  0
ARC
  5
198
100
AcDbEntity
  8
24
370
    30
  6
Continuous
 62
     7
100
AcDbCircle
 10
750.745423
 20
2017.868089
 30
0.0
 40
5.00002
100
AcDbArc
 50
0.000092
 51
75.0992
  0
ARC
  5
199
100
AcDbEntity
  8
24
370
    30
  6
Continuous
 62
     7
100
AcDbCircle
 10
741.739363
 20
1983.998289
 30
0.0
 40
40.04674
100
AcDbArc
 50
75.108189
 51
89.991294
  0
ARC
  5
19A
100
AcDbEntity
  8
24
370
    30
  6
Continuous
 62
     7
100
AcDbCircle
 10
741.739373
 20
1980.091429
 30
0.0
 40
40.0464
100
AcDbArc
 50
-89.991321
 51
-75.108086
  0
ARC
  5
19B
100
AcDbEntity
  8
24
370
    30
  6
Continuous
 62
     7
100
AcDbCircle
 10
741.751513
 20
1983.998629
 30
0.0
 40
40.0464
100
AcDbArc
 50
90.008684
 51
104.891912
  0
ARC
  5
19C
100
AcDbEntity
  8
24
370
    30
  6
Continuous
 62
     7
100
AcDbCircle
 10
732.745463
 20
1946.221969
 30
0.0
 40
5.00002
100
AcDbArc
 50
-179.999909
 51
-104.900798
  0
ARC
  5
19D
100
AcDbEntity
  8
24
370
    30
  6
Continuous
 62
     7
100
AcDbCircle
 10
750.745443
 20
1946.221959
 30
0.0
 40
5.0
100
AcDbArc
 50
-75.099405
 51
0.0
  0
ARC
  5
19E
100
AcDbEntity
  8
24
370
    30
  6
Continuous
 62
     7
100
AcDbCircle
 10
741.751523
 20
1980.091769
 30
0.0
 40
40.04674
100
AcDbArc
 50
-104.891809
 51
-90.008704
  0
ARC
  5
19F
100
AcDbEntity
  8
24
370
    30
  6
Continuous
 62
     7
100
AcDbCircle
 10
734.545443
 20
1956.233369
 30
0.0
 40
2.0
100
AcDbArc
 50
-179.999995
 51
-100.922073
  0
ARC
  5
1A0
100
AcDbEntity
  8
24
370
    30
  6
Continuous
 62
     7
100
AcDbCircle
 10
748.945443
 20
1956.233369
 30
0.0
 40
2.0
100
AcDbArc
 50
-79.077929
 51
0.0
  0
ARC
  5
1A1
100
AcDbEntity
  8
24
370
    30
  6
Continuous
 62
     7
100
AcDbCircle
 10
741.745443
 20
1993.545029
 30
0.0
 40
40.0
100
AcDbArc
 50
-100.828735
 51
-79.17127
  0
ARC
  5
1A2
100
AcDbEntity
  8
24
370
    30
  6
Continuous
 62
     7
100
AcDbCircle
 10
741.745473
 20
2001.246049
 30
0.0
 40
9.19898
100
AcDbArc
 50
87.142381
 51
90.00016
  0
ARC
  5
1A3
100
AcDbEntity
  8
24
370
    30
  6
Continuous
 62
     7
100
AcDbCircle
 10
741.745413
 20
2001.246049
 30
0.0
 40
9.19898
100
AcDbArc
 50
89.999839
 51
92.857617
  0
ARC
  5
1A4
100
AcDbEntity
  8
24
370
    30
  6
Continuous
 62
     7
100
AcDbCircle
 10
741.745443
 20
1999.045029
 30
0.0
 40
7.2
100
AcDbArc
 50
-68.167535
 51
0.0
  0
ARC
  5
1A5
100
AcDbEntity
  8
24
370
    30
  6
Continuous
 62
     7
100
AcDbCircle
 10
741.745443
 20
1999.045029
 30
0.0
 40
7.2
100
AcDbArc
 50
-179.999995
 51
-111.832453
  0
ARC
  5
1A6
100
AcDbEntity
  8
24
370
    30
  6
Continuous
 62
     7
100
AcDbCircle
 10
741.745443
 20
1999.045029
 30
0.0
 40
7.2
100
AcDbArc
 50
0.0
 51
13.689704
  0
ARC
  5
1A7
100
AcDbEntity
  8
24
370
    30
  6
Continuous
 62
     7
100
AcDbCircle
 10
741.745443
 20
1999.045029
 30
0.0
 40
7.2
100
AcDbArc
 50
-111.832463
 51
-68.167535
  0
ARC
  5
1A8
100
AcDbEntity
  8
24
370
    30
  6
Continuous
 62
     7
100
AcDbCircle
 10
741.745443
 20
1999.045029
 30
0.0
 40
7.2
100
AcDbArc
 50
13.689704
 51
73.593075
  0
ARC
  5
1A9
100
AcDbEntity
  8
24
370
    30
  6
Continuous
 62
     7
100
AcDbCircle
 10
741.745443
 20
1999.045029
 30
0.0
 40
7.2
100
AcDbArc
 50
106.40693
 51
166.310298
  0
ARC
  5
1AA
100
AcDbEntity
  8
24
370
    30
  6
Continuous
 62
     7
100
AcDbCircle
 10
747.226413
 20
1998.331929
 30
0.0
 40
2.85236
100
AcDbArc
 50
4.28462
 51
57.929662
  0
ARC
  5
1AB
100
AcDbEntity
  8
24
370
    30
  6
Continuous
 62
     7
100
AcDbCircle
 10
743.048313
 20
1998.295229
 30
0.0
 40
7.77624
100
AcDbArc
 50
33.125615
 51
79.936948
  0
ARC
  5
1AC
100
AcDbEntity
  8
24
370
    30
  6
Continuous
 62
     7
100
AcDbCircle
 10
740.297313
 20
1998.514949
 30
0.0
 40
7.53525
100
AcDbArc
 50
99.26747
 51
147.66996
  0
ARC
  5
1AD
100
AcDbEntity
  8
24
370
    30
  6
Continuous
 62
     7
100
AcDbCircle
 10
742.245443
 20
1972.545029
 30
0.0
 40
4.5
100
AcDbArc
 50
-90.000003
 51
90.000003
  0
ARC
  5
1AE
100
AcDbEntity
  8
24
370
    30
  6
Continuous
 62
     7
100
AcDbCircle
 10
728.350943
 20
1945.251999
 30
0.0
 40
62.7875
100
AcDbArc
 50
75.183642
 51
77.682385
  0
ARC
  5
1AF
100
AcDbEntity
  8
24
370
    30
  6
Continuous
 62
     7
100
AcDbCircle
 10
755.139943
 20
1945.251999
 30
0.0
 40
62.7875
100
AcDbArc
 50
102.317613
 51
104.816363
  0
ARC
  5
1B0
100
AcDbEntity
  8
24
370
    30
  6
Continuous
 62
     7
100
AcDbCircle
 10
741.745443
 20
2005.262449
 30
0.0
 40
51.2601
100
AcDbArc
 50
-97.251273
 51
-82.748725
  0
ARC
  5
1B1
100
AcDbEntity
  8
24
370
    30
  6
Continuous
 62
     7
100
AcDbCircle
 10
741.745443
 20
2001.245029
 30
0.0
 40
9.2
100
AcDbArc
 50
0.0
 51
87.142538
  0
ARC
  5
1B2
100
AcDbEntity
  8
24
370
    30
  6
Continuous
 62
     7
100
AcDbCircle
 10
741.745443
 20
2001.245029
 30
0.0
 40
9.2
100
AcDbArc
 50
92.85746
 51
-179.999995
  0
ARC
  5
1B3
100
AcDbEntity
  8
24
370
    30
  6
Continuous
 62
     7
100
AcDbCircle
 10
741.745443
 20
2001.245029
 30
0.0
 40
7.92262
100
AcDbArc
 50
9.442265
 51
170.557733
  0
ARC
  5
1B4
100
AcDbEntity
  8
24
370
    30
  6
Continuous
 62
     7
100
AcDbCircle
 10
740.545443
 20
1998.345029
 30
0.0
 40
0.9
100
AcDbArc
 50
-179.999995
 51
0.00001
  0
ARC
  5
1B5
100
AcDbEntity
  8
24
370
    30
  6
Continuous
 62
     7
100
AcDbCircle
 10
740.545443
 20
1998.345029
 30
0.0
 40
0.6
100
AcDbArc
 50
-179.999995
 51
0.00001
  0
ARC
  5
1B6
100
AcDbEntity
  8
24
370
    30
  6
Continuous
 62
     7
100
AcDbCircle
 10
738.145443
 20
1999.545029
 30
0.0
 40
0.6
100
AcDbArc
 50
-90.000003
 51
90.000003
  0
ARC
  5
1B7
100
AcDbEntity
  8
24
370
    30
  6
Continuous
 62
     7
100
AcDbCircle
 10
743.095443
 20
1998.195029
 30
0.0
 40
0.75
100
AcDbArc
 50
-94.750782
 51
62.981113
  0
ARC
  5
1B8
100
AcDbEntity
  8
24
370
    30
  6
Continuous
 62
     7
100
AcDbCircle
 10
742.945443
 20
1998.945029
 30
0.0
 40
1.5
100
AcDbArc
 50
-126.869903
 51
-86.641168
  0
ARC
  5
1B9
100
AcDbEntity
  8
24
370
    30
  6
Continuous
 62
     7
100
AcDbCircle
 10
742.945443
 20
1998.945029
 30
0.0
 40
1.2
100
AcDbArc
 50
-126.869903
 51
-85.551528
  0
ARC
  5
1BA
100
AcDbEntity
  8
24
370
    30
  6
Continuous
 62
     7
100
AcDbCircle
 10
743.095443
 20
1998.195029
 30
0.0
 40
0.45
100
AcDbArc
 50
-97.267378
 51
62.981113
  0
ARC
  5
1BB
100
AcDbEntity
  8
24
370
    30
  6
Continuous
 62
     7
100
AcDbCircle
 10
742.795443
 20
1999.695029
 30
0.0
 40
0.75
100
AcDbArc
 50
85.249217
 51
-117.018889
  0
ARC
  5
1BC
100
AcDbEntity
  8
24
370
    30
  6
Continuous
 62
     7
100
AcDbCircle
 10
742.945443
 20
1998.945029
 30
0.0
 40
1.5
100
AcDbArc
 50
53.130102
 51
93.35883
  0
ARC
  5
1BD
100
AcDbEntity
  8
24
370
    30
  6
Continuous
 62
     7
100
AcDbCircle
 10
742.945443
 20
1998.945029
 30
0.0
 40
1.2
100
AcDbArc
 50
53.130102
 51
94.448477
  0
ARC
  5
1BE
100
AcDbEntity
  8
24
370
    30
  6
Continuous
 62
     7
100
AcDbCircle
 10
742.795443
 20
1999.695029
 30
0.0
 40
0.45
100
AcDbArc
 50
82.732627
 51
-117.018889
  0
ARC
  5
1BF
100
AcDbEntity
  8
24
370
    30
  6
Continuous
 62
     7
100
AcDbCircle
 10
738.145443
 20
1999.545029
 30
0.0
 40
0.9
100
AcDbArc
 50
-90.000003
 51
90.000003
  0
ARC
  5
1C0
100
AcDbEntity
  8
24
370
    30
  6
Continuous
 62
     7
100
AcDbCircle
 10
741.745443
 20
1972.545029
 30
0.0
 40
4.5
100
AcDbArc
 50
90.000003
 51
-89.999999
  0
POLYLINE
  5
1C1
100
AcDbEntity
  8
24
370
    30
  6
Continuous
 62
     7
100
AcDb2dPolyline
 66
     1
 10
0.0
 20
0.0
 30
0.0
  0
VERTEX
  5
1C2
100
AcDbEntity
  8
24
370
    30
  6
Continuous
 62
     7
100
AcDbVertex
100
AcDb2dVertex
 10
742.145443
 20
1964.795029
 30
0.0
  0
VERTEX
  5
1C3
100
AcDbEntity
  8
24
370
    30
  6
Continuous
 62
     7
100
AcDbVertex
100
AcDb2dVertex
 10
743.978543
 20
1964.798029
 30
0.0
  0
VERTEX
  5
1C4
100
AcDbEntity
  8
24
370
    30
  6
Continuous
 62
     7
100
AcDbVertex
100
AcDb2dVertex
 10
745.374823
 20
1964.822289
 30
0.0
  0
VERTEX
  5
1C5
100
AcDbEntity
  8
24
370
    30
  6
Continuous
 62
     7
100
AcDbVertex
100
AcDb2dVertex
 10
746.334013
 20
1964.870339
 30
0.0
  0
VERTEX
  5
1C6
100
AcDbEntity
  8
24
370
    30
  6
Continuous
 62
     7
100
AcDbVertex
100
AcDb2dVertex
 10
747.028983
 20
1964.942309
 30
0.0
  0
VERTEX
  5
1C7
100
AcDbEntity
  8
24
370
    30
  6
Continuous
 62
     7
100
AcDbVertex
100
AcDb2dVertex
 10
747.457423
 20
1965.025939
 30
0.0
  0
VERTEX
  5
1C8
100
AcDbEntity
  8
24
370
    30
  6
Continuous
 62
     7
100
AcDbVertex
100
AcDb2dVertex
 10
747.622653
 20
1965.082309
 30
0.0
  0
VERTEX
  5
1C9
100
AcDbEntity
  8
24
370
    30
  6
Continuous
 62
     7
100
AcDbVertex
100
AcDb2dVertex
 10
747.704233
 20
1965.125329
 30
0.0
  0
VERTEX
  5
1CA
100
AcDbEntity
  8
24
370
    30
  6
Continuous
 62
     7
100
AcDbVertex
100
AcDb2dVertex
 10
747.745443
 20
1965.195029
 30
0.0
  0
SEQEND
  5
1CB
100
AcDbEntity
  8
24
370
    30
  6
Continuous
 62
     7
  0
POLYLINE
  5
1CC
100
AcDbEntity
  8
24
370
    30
  6
Continuous
 62
     7
100
AcDb2dPolyline
 66
     1
 10
0.0
 20
0.0
 30
0.0
  0
VERTEX
  5
1CD
100
AcDbEntity
  8
24
370
    30
  6
Continuous
 62
     7
100
AcDbVertex
100
AcDb2dVertex
 10
741.345443
 20
1964.795029
 30
0.0
  0
VERTEX
  5
1CE
100
AcDbEntity
  8
24
370
    30
  6
Continuous
 62
     7
100
AcDbVertex
100
AcDb2dVertex
 10
739.512343
 20
1964.798029
 30
0.0
  0
VERTEX
  5
1CF
100
AcDbEntity
  8
24
370
    30
  6
Continuous
 62
     7
100
AcDbVertex
100
AcDb2dVertex
 10
738.116063
 20
1964.822289
 30
0.0
  0
VERTEX
  5
1D0
100
AcDbEntity
  8
24
370
    30
  6
Continuous
 62
     7
100
AcDbVertex
100
AcDb2dVertex
 10
737.156873
 20
1964.870339
 30
0.0
  0
VERTEX
  5
1D1
100
AcDbEntity
  8
24
370
    30
  6
Continuous
 62
     7
100
AcDbVertex
100
AcDb2dVertex
 10
736.461903
 20
1964.942309
 30
0.0
  0
VERTEX
  5
1D2
100
AcDbEntity
  8
24
370
    30
  6
Continuous
 62
     7
100
AcDbVertex
100
AcDb2dVertex
 10
736.033463
 20
1965.025939
 30
0.0
  0
VERTEX
  5
1D3
100
AcDbEntity
  8
24
370
    30
  6
Continuous
 62
     7
100
AcDbVertex
100
AcDb2dVertex
 10
735.868233
 20
1965.082309
 30
0.0
  0
VERTEX
  5
1D4
100
AcDbEntity
  8
24
370
    30
  6
Continuous
 62
     7
100
AcDbVertex
100
AcDb2dVertex
 10
735.786653
 20
1965.125329
 30
0.0
  0
VERTEX
  5
1D5
100
AcDbEntity
  8
24
370
    30
  6
Continuous
 62
     7
100
AcDbVertex
100
AcDb2dVertex
 10
735.745443
 20
1965.195029
 30
0.0
  0
SEQEND
  5
1D6
100
AcDbEntity
  8
24
370
    30
  6
Continuous
 62
     7
  0
POLYLINE
  5
1D7
100
AcDbEntity
  8
24
370
    30
  6
Continuous
 62
     7
100
AcDb2dPolyline
 66
     1
 10
0.0
 20
0.0
 30
0.0
  0
VERTEX
  5
1D8
100
AcDbEntity
  8
24
370
    30
  6
Continuous
 62
     7
100
AcDbVertex
100
AcDb2dVertex
 10
741.345443
 20
1958.295029
 30
0.0
  0
VERTEX
  5
1D9
100
AcDbEntity
  8
24
370
    30
  6
Continuous
 62
     7
100
AcDbVertex
100
AcDb2dVertex
 10
739.512343
 20
1958.292029
 30
0.0
  0
VERTEX
  5
1DA
100
AcDbEntity
  8
24
370
    30
  6
Continuous
 62
     7
100
AcDbVertex
100
AcDb2dVertex
 10
738.116063
 20
1958.267769
 30
0.0
  0
VERTEX
  5
1DB
100
AcDbEntity
  8
24
370
    30
  6
Continuous
 62
     7
100
AcDbVertex
100
AcDb2dVertex
 10
737.156873
 20
1958.219719
 30
0.0
  0
VERTEX
  5
1DC
100
AcDbEntity
  8
24
370
    30
  6
Continuous
 62
     7
100
AcDbVertex
100
AcDb2dVertex
 10
736.461903
 20
1958.147749
 30
0.0
  0
VERTEX
  5
1DD
100
AcDbEntity
  8
24
370
    30
  6
Continuous
 62
     7
100
AcDbVertex
100
AcDb2dVertex
 10
736.033463
 20
1958.064119
 30
0.0
  0
VERTEX
  5
1DE
100
AcDbEntity
  8
24
370
    30
  6
Continuous
 62
     7
100
AcDbVertex
100
AcDb2dVertex
 10
735.868233
 20
1958.007749
 30
0.0
  0
VERTEX
  5
1DF
100
AcDbEntity
  8
24
370
    30
  6
Continuous
 62
     7
100
AcDbVertex
100
AcDb2dVertex
 10
735.786653
 20
1957.964729
 30
0.0
  0
VERTEX
  5
1E0
100
AcDbEntity
  8
24
370
    30
  6
Continuous
 62
     7
100
AcDbVertex
100
AcDb2dVertex
 10
735.745443
 20
1957.895029
 30
0.0
  0
SEQEND
  5
1E1
100
AcDbEntity
  8
24
370
    30
  6
Continuous
 62
     7
  0
POLYLINE
  5
1E2
100
AcDbEntity
  8
24
370
    30
  6
Continuous
 62
     7
100
AcDb2dPolyline
 66
     1
 10
0.0
 20
0.0
 30
0.0
  0
VERTEX
  5
1E3
100
AcDbEntity
  8
24
370
    30
  6
Continuous
 62
     7
100
AcDbVertex
100
AcDb2dVertex
 10
742.145443
 20
1958.295029
 30
0.0
  0
VERTEX
  5
1E4
100
AcDbEntity
  8
24
370
    30
  6
Continuous
 62
     7
100
AcDbVertex
100
AcDb2dVertex
 10
743.978543
 20
1958.292029
 30
0.0
  0
VERTEX
  5
1E5
100
AcDbEntity
  8
24
370
    30
  6
Continuous
 62
     7
100
AcDbVertex
100
AcDb2dVertex
 10
745.374823
 20
1958.267769
 30
0.0
  0
VERTEX
  5
1E6
100
AcDbEntity
  8
24
370
    30
  6
Continuous
 62
     7
100
AcDbVertex
100
AcDb2dVertex
 10
746.334013
 20
1958.219719
 30
0.0
  0
VERTEX
  5
1E7
100
AcDbEntity
  8
24
370
    30
  6
Continuous
 62
     7
100
AcDbVertex
100
AcDb2dVertex
 10
747.028983
 20
1958.147749
 30
0.0
  0
VERTEX
  5
1E8
100
AcDbEntity
  8
24
370
    30
  6
Continuous
 62
     7
100
AcDbVertex
100
AcDb2dVertex
 10
747.457423
 20
1958.064119
 30
0.0
  0
VERTEX
  5
1E9
100
AcDbEntity
  8
24
370
    30
  6
Continuous
 62
     7
100
AcDbVertex
100
AcDb2dVertex
 10
747.622653
 20
1958.007749
 30
0.0
  0
VERTEX
  5
1EA
100
AcDbEntity
  8
24
370
    30
  6
Continuous
 62
     7
100
AcDbVertex
100
AcDb2dVertex
 10
747.704233
 20
1957.964729
 30
0.0
  0
VERTEX
  5
1EB
100
AcDbEntity
  8
24
370
    30
  6
Continuous
 62
     7
100
AcDbVertex
100
AcDb2dVertex
 10
747.745443
 20
1957.895029
 30
0.0
  0
SEQEND
  5
1EC
100
AcDbEntity
  8
24
370
    30
  6
Continuous
 62
     7
  0
LINE
  5
1ED
100
AcDbEntity
  8
1
370
    30
  6
Continuous
 62
     7
100
AcDbLine
 10
909.1608
 20
2112.045191
 30
0.0
 11
939.245443
 21
2112.045191
 31
0.0
  0
LINE
  5
1EE
100
AcDbEntity
  8
1
370
    30
  6
Continuous
 62
     7
100
AcDbLine
 10
938.245443
 20
2113.045191
 30
0.0
 11
938.245443
 21
2238.045191
 31
0.0
  0
LINE
  5
1EF
100
AcDbEntity
  8
1
370
    30
  6
Continuous
 62
     7
100
AcDbLine
 10
910.245443
 20
2113.045191
 30
0.0
 11
938.245443
 21
2113.045191
 31
0.0
  0
LINE
  5
1F0
100
AcDbEntity
  8
1
370
    30
  6
Continuous
 62
     7
100
AcDbLine
 10
910.245443
 20
2238.045191
 30
0.0
 11
910.245443
 21
2113.045191
 31
0.0
  0
LINE
  5
1F1
100
AcDbEntity
  8
1
370
    30
  6
Continuous
 62
     7
100
AcDbLine
 10
937.283159
 20
2266.142207
 30
0.0
 11
937.283159
 21
2241.045191
 31
0.0
  0
LINE
  5
1F2
100
AcDbEntity
  8
1
370
    30
  6
Continuous
 62
     7
100
AcDbLine
 10
911.1608
 20
2241.045191
 30
0.0
 11
937.283159
 21
2241.045191
 31
0.0
  0
LINE
  5
1F3
100
AcDbEntity
  8
1
370
    30
  6
Continuous
 62
     7
100
AcDbLine
 10
911.1608
 20
2266.142207
 30
0.0
 11
911.1608
 21
2241.045191
 31
0.0
  0
LINE
  5
1F4
100
AcDbEntity
  8
1
370
    30
  6
Continuous
 62
     7
100
AcDbLine
 10
911.1608
 20
2266.142207
 30
0.0
 11
937.283159
 21
2266.142207
 31
0.0
  0
LINE
  5
1F5
100
AcDbEntity
  8
1
370
    30
  6
Continuous
 62
     7
100
AcDbLine
 10
921.711783
 20
2240.045191
 30
0.0
 11
920.331175
 21
2241.04432
 31
0.0
  0
LINE
  5
1F6
100
AcDbEntity
  8
1
370
    30
  6
Continuous
 62
     7
100
AcDbLine
 10
927.234215
 20
2240.045191
 30
0.0
 11
928.489313
 21
2241.045191
 31
0.0
  0
LINE
  5
1F7
100
AcDbEntity
  8
1
370
    30
  6
Continuous
 62
     7
100
AcDbLine
 10
921.711783
 20
2240.045191
 30
0.0
 11
927.234215
 21
2240.045191
 31
0.0
  0
LINE
  5
1F8
100
AcDbEntity
  8
1
370
    30
  6
Continuous
 62
     7
100
AcDbLine
 10
910.245443
 20
2238.045191
 30
0.0
 11
938.245443
 21
2238.045191
 31
0.0
  0
INSERT
  5
200
100
AcDbEntity
  8
0
370
    30
  6
Continuous
 62
     7
100
AcDbBlockReference
  2
*G3
 10
0.0
 20
0.0
 30
0.0
  0
INSERT
  5
208
100
AcDbEntity
  8
0
370
    30
  6
Continuous
 62
     7
100
AcDbBlockReference
  2
*G4
 10
0.0
 20
0.0
 30
0.0
  0
CIRCLE
  5
209
100
AcDbEntity
  8
1
370
    30
  6
Continuous
 62
     7
100
AcDbCircle
 10
924.245443
 20
2182.545191
 30
0.0
 40
2.5
  0
CIRCLE
  5
20A
100
AcDbEntity
  8
1
370
    30
  6
Continuous
 62
     7
100
AcDbCircle
 10
924.245443
 20
2202.545191
 30
0.0
 40
2.5
  0
CIRCLE
  5
20B
100
AcDbEntity
  8
1
370
    30
  6
Continuous
 62
     7
100
AcDbCircle
 10
924.245443
 20
2222.545191
 30
0.0
 40
2.5
  0
INSERT
  5
213
100
AcDbEntity
  8
0
370
    30
  6
Continuous
 62
     7
100
AcDbBlockReference
  2
*G5
 10
0.0
 20
0.0
 30
0.0
  0
LINE
  5
214
100
AcDbEntity
  8
1
370
    30
  6
Continuous
 62
     7
100
AcDbLine
 10
879.1608
 20
2112.045191
 30
0.0
 11
909.245443
 21
2112.045191
 31
0.0
  0
LINE
  5
215
100
AcDbEntity
  8
1
370
    30
  6
Continuous
 62
     7
100
AcDbLine
 10
908.245443
 20
2113.045191
 30
0.0
 11
908.245443
 21
2238.045191
 31
0.0
  0
LINE
  5
216
100
AcDbEntity
  8
1
370
    30
  6
Continuous
 62
     7
100
AcDbLine
 10
880.245443
 20
2113.045191
 30
0.0
 11
908.245443
 21
2113.045191
 31
0.0
  0
LINE
  5
217
100
AcDbEntity
  8
1
370
    30
  6
Continuous
 62
     7
100
AcDbLine
 10
880.245443
 20
2238.045191
 30
0.0
 11
880.245443
 21
2113.045191
 31
0.0
  0
LINE
  5
218
100
AcDbEntity
  8
1
370
    30
  6
Continuous
 62
     7
100
AcDbLine
 10
907.283159
 20
2266.142207
 30
0.0
 11
907.283159
 21
2241.045191
 31
0.0
  0
LINE
  5
219
100
AcDbEntity
  8
1
370
    30
  6
Continuous
 62
     7
100
AcDbLine
 10
881.1608
 20
2241.045191
 30
0.0
 11
907.283159
 21
2241.045191
 31
0.0
  0
LINE
  5
21A
100
AcDbEntity
  8
1
370
    30
  6
Continuous
 62
     7
100
AcDbLine
 10
881.1608
 20
2266.142207
 30
0.0
 11
881.1608
 21
2241.045191
 31
0.0
  0
LINE
  5
21B
100
AcDbEntity
  8
1
370
    30
  6
Continuous
 62
     7
100
AcDbLine
 10
881.1608
 20
2266.142207
 30
0.0
 11
907.283159
 21
2266.142207
 31
0.0
  0
LINE
  5
21C
100
AcDbEntity
  8
1
370
    30
  6
Continuous
 62
     7
100
AcDbLine
 10
879.1608
 20
2268.1626
 30
0.0
 11
909.283159
 21
2268.1626
 31
0.0
  0
LINE
  5
21D
100
AcDbEntity
  8
1
370
    30
  6
Continuous
 62
     7
100
AcDbLine
 10
891.711783
 20
2240.045191
 30
0.0
 11
890.331175
 21
2241.04432
 31
0.0
  0
LINE
  5
21E
100
AcDbEntity
  8
1
370
    30
  6
Continuous
 62
     7
100
AcDbLine
 10
897.234215
 20
2240.045191
 30
0.0
 11
898.489313
 21
2241.045191
 31
0.0
  0
LINE
  5
21F
100
AcDbEntity
  8
1
370
    30
  6
Continuous
 62
     7
100
AcDbLine
 10
891.711783
 20
2240.045191
 30
0.0
 11
897.234215
 21
2240.045191
 31
0.0
  0
LINE
  5
220
100
AcDbEntity
  8
1
370
    30
  6
Continuous
 62
     7
100
AcDbLine
 10
880.245443
 20
2238.045191
 30
0.0
 11
908.245443
 21
2238.045191
 31
0.0
  0
INSERT
  5
228
100
AcDbEntity
  8
0
370
    30
  6
Continuous
 62
     7
100
AcDbBlockReference
  2
*G6
 10
0.0
 20
0.0
 30
0.0
  0
INSERT
  5
230
100
AcDbEntity
  8
0
370
    30
  6
Continuous
 62
     7
100
AcDbBlockReference
  2
*G7
 10
0.0
 20
0.0
 30
0.0
  0
CIRCLE
  5
231
100
AcDbEntity
  8
1
370
    30
  6
Continuous
 62
     7
100
AcDbCircle
 10
894.245443
 20
2182.545191
 30
0.0
 40
2.5
  0
CIRCLE
  5
232
100
AcDbEntity
  8
1
370
    30
  6
Continuous
 62
     7
100
AcDbCircle
 10
894.245443
 20
2202.545191
 30
0.0
 40
2.5
  0
CIRCLE
  5
233
100
AcDbEntity
  8
1
370
    30
  6
Continuous
 62
     7
100
AcDbCircle
 10
894.245443
 20
2222.545191
 30
0.0
 40
2.5
  0
INSERT
  5
23B
100
AcDbEntity
  8
0
370
    30
  6
Continuous
 62
     7
100
AcDbBlockReference
  2
*G8
 10
0.0
 20
0.0
 30
0.0
  0
LINE
  5
23C
100
AcDbEntity
  8
1
370
    30
  6
Continuous
 62
     7
100
AcDbLine
 10
849.1608
 20
2112.045191
 30
0.0
 11
879.245443
 21
2112.045191
 31
0.0
  0
LINE
  5
23D
100
AcDbEntity
  8
1
370
    30
  6
Continuous
 62
     7
100
AcDbLine
 10
878.245443
 20
2113.045191
 30
0.0
 11
878.245443
 21
2238.045191
 31
0.0
  0
LINE
  5
23E
100
AcDbEntity
  8
1
370
    30
  6
Continuous
 62
     7
100
AcDbLine
 10
850.245443
 20
2113.045191
 30
0.0
 11
878.245443
 21
2113.045191
 31
0.0
  0
LINE
  5
23F
100
AcDbEntity
  8
1
370
    30
  6
Continuous
 62
     7
100
AcDbLine
 10
850.245443
 20
2238.045191
 30
0.0
 11
850.245443
 21
2113.045191
 31
0.0
  0
LINE
  5
240
100
AcDbEntity
  8
1
370
    30
  6
Continuous
 62
     7
100
AcDbLine
 10
877.283159
 20
2266.142207
 30
0.0
 11
877.283159
 21
2241.045191
 31
0.0
  0
LINE
  5
241
100
AcDbEntity
  8
1
370
    30
  6
Continuous
 62
     7
100
AcDbLine
 10
851.1608
 20
2241.045191
 30
0.0
 11
877.283159
 21
2241.045191
 31
0.0
  0
LINE
  5
242
100
AcDbEntity
  8
1
370
    30
  6
Continuous
 62
     7
100
AcDbLine
 10
851.1608
 20
2266.142207
 30
0.0
 11
851.1608
 21
2241.045191
 31
0.0
  0
LINE
  5
243
100
AcDbEntity
  8
1
370
    30
  6
Continuous
 62
     7
100
AcDbLine
 10
851.1608
 20
2266.142207
 30
0.0
 11
877.283159
 21
2266.142207
 31
0.0
  0
LINE
  5
244
100
AcDbEntity
  8
1
370
    30
  6
Continuous
 62
     7
100
AcDbLine
 10
849.1608
 20
2268.1626
 30
0.0
 11
879.283159
 21
2268.1626
 31
0.0
  0
LINE
  5
245
100
AcDbEntity
  8
1
370
    30
  6
Continuous
 62
     7
100
AcDbLine
 10
861.711783
 20
2240.045191
 30
0.0
 11
860.331175
 21
2241.04432
 31
0.0
  0
LINE
  5
246
100
AcDbEntity
  8
1
370
    30
  6
Continuous
 62
     7
100
AcDbLine
 10
867.234215
 20
2240.045191
 30
0.0
 11
868.489313
 21
2241.045191
 31
0.0
  0
LINE
  5
247
100
AcDbEntity
  8
1
370
    30
  6
Continuous
 62
     7
100
AcDbLine
 10
861.711783
 20
2240.045191
 30
0.0
 11
867.234215
 21
2240.045191
 31
0.0
  0
LINE
  5
248
100
AcDbEntity
  8
1
370
    30
  6
Continuous
 62
     7
100
AcDbLine
 10
850.245443
 20
2238.045191
 30
0.0
 11
878.245443
 21
2238.045191
 31
0.0
  0
INSERT
  5
250
100
AcDbEntity
  8
0
370
    30
  6
Continuous
 62
     7
100
AcDbBlockReference
  2
*G9
 10
0.0
 20
0.0
 30
0.0
  0
INSERT
  5
258
100
AcDbEntity
  8
0
370
    30
  6
Continuous
 62
     7
100
AcDbBlockReference
  2
*G10
 10
0.0
 20
0.0
 30
0.0
  0
CIRCLE
  5
259
100
AcDbEntity
  8
1
370
    30
  6
Continuous
 62
     7
100
AcDbCircle
 10
864.245443
 20
2182.545191
 30
0.0
 40
2.5
  0
CIRCLE
  5
25A
100
AcDbEntity
  8
1
370
    30
  6
Continuous
 62
     7
100
AcDbCircle
 10
864.245443
 20
2202.545191
 30
0.0
 40
2.5
  0
CIRCLE
  5
25B
100
AcDbEntity
  8
1
370
    30
  6
Continuous
 62
     7
100
AcDbCircle
 10
864.245443
 20
2222.545191
 30
0.0
 40
2.5
  0
INSERT
  5
263
100
AcDbEntity
  8
0
370
    30
  6
Continuous
 62
     7
100
AcDbBlockReference
  2
*G11
 10
0.0
 20
0.0
 30
0.0
  0
LINE
  5
264
100
AcDbEntity
  8
1
370
    30
  6
Continuous
 62
     7
100
AcDbLine
 10
819.1608
 20
2112.045191
 30
0.0
 11
849.245443
 21
2112.045191
 31
0.0
  0
LINE
  5
265
100
AcDbEntity
  8
1
370
    30
  6
Continuous
 62
     7
100
AcDbLine
 10
848.245443
 20
2113.045191
 30
0.0
 11
848.245443
 21
2238.045191
 31
0.0
  0
LINE
  5
266
100
AcDbEntity
  8
1
370
    30
  6
Continuous
 62
     7
100
AcDbLine
 10
820.245443
 20
2113.045191
 30
0.0
 11
848.245443
 21
2113.045191
 31
0.0
  0
LINE
  5
267
100
AcDbEntity
  8
1
370
    30
  6
Continuous
 62
     7
100
AcDbLine
 10
820.245443
 20
2238.045191
 30
0.0
 11
820.245443
 21
2113.045191
 31
0.0
  0
LINE
  5
268
100
AcDbEntity
  8
1
370
    30
  6
Continuous
 62
     7
100
AcDbLine
 10
847.283159
 20
2266.142207
 30
0.0
 11
847.283159
 21
2241.045191
 31
0.0
  0
LINE
  5
269
100
AcDbEntity
  8
1
370
    30
  6
Continuous
 62
     7
100
AcDbLine
 10
821.1608
 20
2241.045191
 30
0.0
 11
847.283159
 21
2241.045191
 31
0.0
  0
LINE
  5
26A
100
AcDbEntity
  8
1
370
    30
  6
Continuous
 62
     7
100
AcDbLine
 10
821.1608
 20
2266.142207
 30
0.0
 11
821.1608
 21
2241.045191
 31
0.0
  0
LINE
  5
26B
100
AcDbEntity
  8
1
370
    30
  6
Continuous
 62
     7
100
AcDbLine
 10
821.1608
 20
2266.142207
 30
0.0
 11
847.283159
 21
2266.142207
 31
0.0
  0
LINE
  5
26C
100
AcDbEntity
  8
1
370
    30
  6
Continuous
 62
     7
100
AcDbLine
 10
819.1608
 20
2268.1626
 30
0.0
 11
849.283159
 21
2268.1626
 31
0.0
  0
LINE
  5
26D
100
AcDbEntity
  8
1
370
    30
  6
Continuous
 62
     7
100
AcDbLine
 10
831.711783
 20
2240.045191
 30
0.0
 11
830.331175
 21
2241.04432
 31
0.0
  0
LINE
  5
26E
100
AcDbEntity
  8
1
370
    30
  6
Continuous
 62
     7
100
AcDbLine
 10
837.234215
 20
2240.045191
 30
0.0
 11
838.489313
 21
2241.045191
 31
0.0
  0
LINE
  5
26F
100
AcDbEntity
  8
1
370
    30
  6
Continuous
 62
     7
100
AcDbLine
 10
831.711783
 20
2240.045191
 30
0.0
 11
837.234215
 21
2240.045191
 31
0.0
  0
LINE
  5
270
100
AcDbEntity
  8
1
370
    30
  6
Continuous
 62
     7
100
AcDbLine
 10
820.245443
 20
2238.045191
 30
0.0
 11
848.245443
 21
2238.045191
 31
0.0
  0
INSERT
  5
278
100
AcDbEntity
  8
0
370
    30
  6
Continuous
 62
     7
100
AcDbBlockReference
  2
*G12
 10
0.0
 20
0.0
 30
0.0
  0
INSERT
  5
280
100
AcDbEntity
  8
0
370
    30
  6
Continuous
 62
     7
100
AcDbBlockReference
  2
*G13
 10
0.0
 20
0.0
 30
0.0
  0
CIRCLE
  5
281
100
AcDbEntity
  8
1
370
    30
  6
Continuous
 62
     7
100
AcDbCircle
 10
834.245443
 20
2182.545191
 30
0.0
 40
2.5
  0
CIRCLE
  5
282
100
AcDbEntity
  8
1
370
    30
  6
Continuous
 62
     7
100
AcDbCircle
 10
834.245443
 20
2202.545191
 30
0.0
 40
2.5
  0
CIRCLE
  5
283
100
AcDbEntity
  8
1
370
    30
  6
Continuous
 62
     7
100
AcDbCircle
 10
834.245443
 20
2222.545191
 30
0.0
 40
2.5
  0
INSERT
  5
28B
100
AcDbEntity
  8
0
370
    30
  6
Continuous
 62
     7
100
AcDbBlockReference
  2
*G14
 10
0.0
 20
0.0
 30
0.0
  0
LINE
  5
28C
100
AcDbEntity
  8
1
370
    30
  6
Continuous
 62
     7
100
AcDbLine
 10
818.245443
 20
2113.045191
 30
0.0
 11
818.245443
 21
2238.045191
 31
0.0
  0
LINE
  5
28D
100
AcDbEntity
  8
1
370
    30
  6
Continuous
 62
     7
100
AcDbLine
 10
790.245443
 20
2113.045191
 30
0.0
 11
818.245443
 21
2113.045191
 31
0.0
  0
LINE
  5
28E
100
AcDbEntity
  8
1
370
    30
  6
Continuous
 62
     7
100
AcDbLine
 10
790.245443
 20
2238.045191
 30
0.0
 11
790.245443
 21
2113.045191
 31
0.0
  0
LINE
  5
28F
100
AcDbEntity
  8
1
370
    30
  6
Continuous
 62
     7
100
AcDbLine
 10
817.283159
 20
2266.142207
 30
0.0
 11
817.283159
 21
2241.045191
 31
0.0
  0
LINE
  5
290
100
AcDbEntity
  8
1
370
    30
  6
Continuous
 62
     7
100
AcDbLine
 10
791.1608
 20
2241.045191
 30
0.0
 11
817.283159
 21
2241.045191
 31
0.0
  0
LINE
  5
291
100
AcDbEntity
  8
1
370
    30
  6
Continuous
 62
     7
100
AcDbLine
 10
791.1608
 20
2266.142207
 30
0.0
 11
791.1608
 21
2241.045191
 31
0.0
  0
LINE
  5
292
100
AcDbEntity
  8
1
370
    30
  6
Continuous
 62
     7
100
AcDbLine
 10
791.1608
 20
2266.142207
 30
0.0
 11
817.283159
 21
2266.142207
 31
0.0
  0
LINE
  5
293
100
AcDbEntity
  8
1
370
    30
  6
Continuous
 62
     7
100
AcDbLine
 10
801.711783
 20
2240.045191
 30
0.0
 11
800.331175
 21
2241.04432
 31
0.0
  0
LINE
  5
294
100
AcDbEntity
  8
1
370
    30
  6
Continuous
 62
     7
100
AcDbLine
 10
807.234215
 20
2240.045191
 30
0.0
 11
808.489313
 21
2241.045191
 31
0.0
  0
LINE
  5
295
100
AcDbEntity
  8
1
370
    30
  6
Continuous
 62
     7
100
AcDbLine
 10
801.711783
 20
2240.045191
 30
0.0
 11
807.234215
 21
2240.045191
 31
0.0
  0
LINE
  5
296
100
AcDbEntity
  8
1
370
    30
  6
Continuous
 62
     7
100
AcDbLine
 10
790.245443
 20
2238.045191
 30
0.0
 11
818.245443
 21
2238.045191
 31
0.0
  0
INSERT
  5
29E
100
AcDbEntity
  8
0
370
    30
  6
Continuous
 62
     7
100
AcDbBlockReference
  2
*G15
 10
0.0
 20
0.0
 30
0.0
  0
INSERT
  5
2A6
100
AcDbEntity
  8
0
370
    30
  6
Continuous
 62
     7
100
AcDbBlockReference
  2
*G16
 10
0.0
 20
0.0
 30
0.0
  0
CIRCLE
  5
2A7
100
AcDbEntity
  8
1
370
    30
  6
Continuous
 62
     7
100
AcDbCircle
 10
804.245443
 20
2182.545191
 30
0.0
 40
2.5
  0
CIRCLE
  5
2A8
100
AcDbEntity
  8
1
370
    30
  6
Continuous
 62
     7
100
AcDbCircle
 10
804.245443
 20
2202.545191
 30
0.0
 40
2.5
  0
CIRCLE
  5
2A9
100
AcDbEntity
  8
1
370
    30
  6
Continuous
 62
     7
100
AcDbCircle
 10
804.245443
 20
2222.545191
 30
0.0
 40
2.5
  0
INSERT
  5
2B1
100
AcDbEntity
  8
0
370
    30
  6
Continuous
 62
     7
100
AcDbBlockReference
  2
*G17
 10
0.0
 20
0.0
 30
0.0
  0
LINE
  5
2B2
100
AcDbEntity
  8
1
370
    30
  6
Continuous
 62
     7
100
AcDbLine
 10
789.245443
 20
2268.1626
 30
0.0
 11
819.283159
 21
2268.1626
 31
0.0
  0
LINE
  5
2B3
100
AcDbEntity
  8
1
370
    30
  6
Continuous
 62
     7
100
AcDbLine
 10
789.245443
 20
2112.045191
 30
0.0
 11
819.245443
 21
2112.045191
 31
0.0
  0
LINE
  5
2B4
100
AcDbEntity
  8
1
370
    30
  6
Continuous
 62
     7
100
AcDbLine
 10
909.1608
 20
2268.1626
 30
0.0
 11
939.245443
 21
2268.1626
 31
0.0
  0
LINE
  5
2B5
100
AcDbEntity
  8
1
370
    30
  6
Continuous
 62
     7
100
AcDbLine
 10
1059.1608
 20
2112.045191
 30
0.0
 11
1089.245443
 21
2112.045191
 31
0.0
  0
LINE
  5
2B6
100
AcDbEntity
  8
1
370
    30
  6
Continuous
 62
     7
100
AcDbLine
 10
1088.245443
 20
2113.045191
 30
0.0
 11
1088.245443
 21
2238.045191
 31
0.0
  0
LINE
  5
2B7
100
AcDbEntity
  8
1
370
    30
  6
Continuous
 62
     7
100
AcDbLine
 10
1060.245443
 20
2113.045191
 30
0.0
 11
1088.245443
 21
2113.045191
 31
0.0
  0
LINE
  5
2B8
100
AcDbEntity
  8
1
370
    30
  6
Continuous
 62
     7
100
AcDbLine
 10
1060.245443
 20
2238.045191
 30
0.0
 11
1060.245443
 21
2113.045191
 31
0.0
  0
LINE
  5
2B9
100
AcDbEntity
  8
1
370
    30
  6
Continuous
 62
     7
100
AcDbLine
 10
1087.283159
 20
2266.142207
 30
0.0
 11
1087.283159
 21
2241.045191
 31
0.0
  0
LINE
  5
2BA
100
AcDbEntity
  8
1
370
    30
  6
Continuous
 62
     7
100
AcDbLine
 10
1061.1608
 20
2241.045191
 30
0.0
 11
1087.283159
 21
2241.045191
 31
0.0
  0
LINE
  5
2BB
100
AcDbEntity
  8
1
370
    30
  6
Continuous
 62
     7
100
AcDbLine
 10
1061.1608
 20
2266.142207
 30
0.0
 11
1061.1608
 21
2241.045191
 31
0.0
  0
LINE
  5
2BC
100
AcDbEntity
  8
1
370
    30
  6
Continuous
 62
     7
100
AcDbLine
 10
1061.1608
 20
2266.142207
 30
0.0
 11
1087.283159
 21
2266.142207
 31
0.0
  0
LINE
  5
2BD
100
AcDbEntity
  8
1
370
    30
  6
Continuous
 62
     7
100
AcDbLine
 10
1071.711783
 20
2240.045191
 30
0.0
 11
1070.331175
 21
2241.04432
 31
0.0
  0
LINE
  5
2BE
100
AcDbEntity
  8
1
370
    30
  6
Continuous
 62
     7
100
AcDbLine
 10
1077.234215
 20
2240.045191
 30
0.0
 11
1078.489313
 21
2241.045191
 31
0.0
  0
LINE
  5
2BF
100
AcDbEntity
  8
1
370
    30
  6
Continuous
 62
     7
100
AcDbLine
 10
1071.711783
 20
2240.045191
 30
0.0
 11
1077.234215
 21
2240.045191
 31
0.0
  0
LINE
  5
2C0
100
AcDbEntity
  8
1
370
    30
  6
Continuous
 62
     7
100
AcDbLine
 10
1060.245443
 20
2238.045191
 30
0.0
 11
1088.245443
 21
2238.045191
 31
0.0
  0
INSERT
  5
2C8
100
AcDbEntity
  8
0
370
    30
  6
Continuous
 62
     7
100
AcDbBlockReference
  2
*G18
 10
0.0
 20
0.0
 30
0.0
  0
INSERT
  5
2D0
100
AcDbEntity
  8
0
370
    30
  6
Continuous
 62
     7
100
AcDbBlockReference
  2
*G19
 10
0.0
 20
0.0
 30
0.0
  0
CIRCLE
  5
2D1
100
AcDbEntity
  8
1
370
    30
  6
Continuous
 62
     7
100
AcDbCircle
 10
1074.245443
 20
2182.545191
 30
0.0
 40
2.5
  0
CIRCLE
  5
2D2
100
AcDbEntity
  8
1
370
    30
  6
Continuous
 62
     7
100
AcDbCircle
 10
1074.245443
 20
2202.545191
 30
0.0
 40
2.5
  0
CIRCLE
  5
2D3
100
AcDbEntity
  8
1
370
    30
  6
Continuous
 62
     7
100
AcDbCircle
 10
1074.245443
 20
2222.545191
 30
0.0
 40
2.5
  0
INSERT
  5
2DB
100
AcDbEntity
  8
0
370
    30
  6
Continuous
 62
     7
100
AcDbBlockReference
  2
*G20
 10
0.0
 20
0.0
 30
0.0
  0
LINE
  5
2DC
100
AcDbEntity
  8
1
370
    30
  6
Continuous
 62
     7
100
AcDbLine
 10
1029.1608
 20
2112.045191
 30
0.0
 11
1059.245443
 21
2112.045191
 31
0.0
  0
LINE
  5
2DD
100
AcDbEntity
  8
1
370
    30
  6
Continuous
 62
     7
100
AcDbLine
 10
1058.245443
 20
2113.045191
 30
0.0
 11
1058.245443
 21
2238.045191
 31
0.0
  0
LINE
  5
2DE
100
AcDbEntity
  8
1
370
    30
  6
Continuous
 62
     7
100
AcDbLine
 10
1030.245443
 20
2113.045191
 30
0.0
 11
1058.245443
 21
2113.045191
 31
0.0
  0
LINE
  5
2DF
100
AcDbEntity
  8
1
370
    30
  6
Continuous
 62
     7
100
AcDbLine
 10
1030.245443
 20
2238.045191
 30
0.0
 11
1030.245443
 21
2113.045191
 31
0.0
  0
LINE
  5
2E0
100
AcDbEntity
  8
1
370
    30
  6
Continuous
 62
     7
100
AcDbLine
 10
1057.283159
 20
2266.142207
 30
0.0
 11
1057.283159
 21
2241.045191
 31
0.0
  0
LINE
  5
2E1
100
AcDbEntity
  8
1
370
    30
  6
Continuous
 62
     7
100
AcDbLine
 10
1031.1608
 20
2241.045191
 30
0.0
 11
1057.283159
 21
2241.045191
 31
0.0
  0
LINE
  5
2E2
100
AcDbEntity
  8
1
370
    30
  6
Continuous
 62
     7
100
AcDbLine
 10
1031.1608
 20
2266.142207
 30
0.0
 11
1031.1608
 21
2241.045191
 31
0.0
  0
LINE
  5
2E3
100
AcDbEntity
  8
1
370
    30
  6
Continuous
 62
     7
100
AcDbLine
 10
1031.1608
 20
2266.142207
 30
0.0
 11
1057.283159
 21
2266.142207
 31
0.0
  0
LINE
  5
2E4
100
AcDbEntity
  8
1
370
    30
  6
Continuous
 62
     7
100
AcDbLine
 10
1029.1608
 20
2268.1626
 30
0.0
 11
1059.283159
 21
2268.1626
 31
0.0
  0
LINE
  5
2E5
100
AcDbEntity
  8
1
370
    30
  6
Continuous
 62
     7
100
AcDbLine
 10
1041.711783
 20
2240.045191
 30
0.0
 11
1040.331175
 21
2241.04432
 31
0.0
  0
LINE
  5
2E6
100
AcDbEntity
  8
1
370
    30
  6
Continuous
 62
     7
100
AcDbLine
 10
1047.234215
 20
2240.045191
 30
0.0
 11
1048.489313
 21
2241.045191
 31
0.0
  0
LINE
  5
2E7
100
AcDbEntity
  8
1
370
    30
  6
Continuous
 62
     7
100
AcDbLine
 10
1041.711783
 20
2240.045191
 30
0.0
 11
1047.234215
 21
2240.045191
 31
0.0
  0
LINE
  5
2E8
100
AcDbEntity
  8
1
370
    30
  6
Continuous
 62
     7
100
AcDbLine
 10
1030.245443
 20
2238.045191
 30
0.0
 11
1058.245443
 21
2238.045191
 31
0.0
  0
INSERT
  5
2F0
100
AcDbEntity
  8
0
370
    30
  6
Continuous
 62
     7
100
AcDbBlockReference
  2
*G21
 10
0.0
 20
0.0
 30
0.0
  0
INSERT
  5
2F8
100
AcDbEntity
  8
0
370
    30
  6
Continuous
 62
     7
100
AcDbBlockReference
  2
*G22
 10
0.0
 20
0.0
 30
0.0
  0
CIRCLE
  5
2F9
100
AcDbEntity
  8
1
370
    30
  6
Continuous
 62
     7
100
AcDbCircle
 10
1044.245443
 20
2182.545191
 30
0.0
 40
2.5
  0
CIRCLE
  5
2FA
100
AcDbEntity
  8
1
370
    30
  6
Continuous
 62
     7
100
AcDbCircle
 10
1044.245443
 20
2202.545191
 30
0.0
 40
2.5
  0
CIRCLE
  5
2FB
100
AcDbEntity
  8
1
370
    30
  6
Continuous
 62
     7
100
AcDbCircle
 10
1044.245443
 20
2222.545191
 30
0.0
 40
2.5
  0
INSERT
  5
303
100
AcDbEntity
  8
0
370
    30
  6
Continuous
 62
     7
100
AcDbBlockReference
  2
*G23
 10
0.0
 20
0.0
 30
0.0
  0
LINE
  5
304
100
AcDbEntity
  8
1
370
    30
  6
Continuous
 62
     7
100
AcDbLine
 10
999.1608
 20
2112.045191
 30
0.0
 11
1029.245443
 21
2112.045191
 31
0.0
  0
LINE
  5
305
100
AcDbEntity
  8
1
370
    30
  6
Continuous
 62
     7
100
AcDbLine
 10
1028.245443
 20
2113.045191
 30
0.0
 11
1028.245443
 21
2238.045191
 31
0.0
  0
LINE
  5
306
100
AcDbEntity
  8
1
370
    30
  6
Continuous
 62
     7
100
AcDbLine
 10
1000.245443
 20
2113.045191
 30
0.0
 11
1028.245443
 21
2113.045191
 31
0.0
  0
LINE
  5
307
100
AcDbEntity
  8
1
370
    30
  6
Continuous
 62
     7
100
AcDbLine
 10
1000.245443
 20
2238.045191
 30
0.0
 11
1000.245443
 21
2113.045191
 31
0.0
  0
LINE
  5
308
100
AcDbEntity
  8
1
370
    30
  6
Continuous
 62
     7
100
AcDbLine
 10
1027.283159
 20
2266.142207
 30
0.0
 11
1027.283159
 21
2241.045191
 31
0.0
  0
LINE
  5
309
100
AcDbEntity
  8
1
370
    30
  6
Continuous
 62
     7
100
AcDbLine
 10
1001.1608
 20
2241.045191
 30
0.0
 11
1027.283159
 21
2241.045191
 31
0.0
  0
LINE
  5
30A
100
AcDbEntity
  8
1
370
    30
  6
Continuous
 62
     7
100
AcDbLine
 10
1001.1608
 20
2266.142207
 30
0.0
 11
1001.1608
 21
2241.045191
 31
0.0
  0
LINE
  5
30B
100
AcDbEntity
  8
1
370
    30
  6
Continuous
 62
     7
100
AcDbLine
 10
1001.1608
 20
2266.142207
 30
0.0
 11
1027.283159
 21
2266.142207
 31
0.0
  0
LINE
  5
30C
100
AcDbEntity
  8
1
370
    30
  6
Continuous
 62
     7
100
AcDbLine
 10
999.1608
 20
2268.1626
 30
0.0
 11
1029.283159
 21
2268.1626
 31
0.0
  0
LINE
  5
30D
100
AcDbEntity
  8
1
370
    30
  6
Continuous
 62
     7
100
AcDbLine
 10
1011.711783
 20
2240.045191
 30
0.0
 11
1010.331175
 21
2241.04432
 31
0.0
  0
LINE
  5
30E
100
AcDbEntity
  8
1
370
    30
  6
Continuous
 62
     7
100
AcDbLine
 10
1017.234215
 20
2240.045191
 30
0.0
 11
1018.489313
 21
2241.045191
 31
0.0
  0
LINE
  5
30F
100
AcDbEntity
  8
1
370
    30
  6
Continuous
 62
     7
100
AcDbLine
 10
1011.711783
 20
2240.045191
 30
0.0
 11
1017.234215
 21
2240.045191
 31
0.0
  0
LINE
  5
310
100
AcDbEntity
  8
1
370
    30
  6
Continuous
 62
     7
100
AcDbLine
 10
1000.245443
 20
2238.045191
 30
0.0
 11
1028.245443
 21
2238.045191
 31
0.0
  0
INSERT
  5
318
100
AcDbEntity
  8
0
370
    30
  6
Continuous
 62
     7
100
AcDbBlockReference
  2
*G24
 10
0.0
 20
0.0
 30
0.0
  0
INSERT
  5
320
100
AcDbEntity
  8
0
370
    30
  6
Continuous
 62
     7
100
AcDbBlockReference
  2
*G25
 10
0.0
 20
0.0
 30
0.0
  0
CIRCLE
  5
321
100
AcDbEntity
  8
1
370
    30
  6
Continuous
 62
     7
100
AcDbCircle
 10
1014.245443
 20
2182.545191
 30
0.0
 40
2.5
  0
CIRCLE
  5
322
100
AcDbEntity
  8
1
370
    30
  6
Continuous
 62
     7
100
AcDbCircle
 10
1014.245443
 20
2202.545191
 30
0.0
 40
2.5
  0
CIRCLE
  5
323
100
AcDbEntity
  8
1
370
    30
  6
Continuous
 62
     7
100
AcDbCircle
 10
1014.245443
 20
2222.545191
 30
0.0
 40
2.5
  0
INSERT
  5
32B
100
AcDbEntity
  8
0
370
    30
  6
Continuous
 62
     7
100
AcDbBlockReference
  2
*G26
 10
0.0
 20
0.0
 30
0.0
  0
LINE
  5
32C
100
AcDbEntity
  8
1
370
    30
  6
Continuous
 62
     7
100
AcDbLine
 10
969.1608
 20
2112.045191
 30
0.0
 11
999.245443
 21
2112.045191
 31
0.0
  0
LINE
  5
32D
100
AcDbEntity
  8
1
370
    30
  6
Continuous
 62
     7
100
AcDbLine
 10
998.245443
 20
2113.045191
 30
0.0
 11
998.245443
 21
2238.045191
 31
0.0
  0
LINE
  5
32E
100
AcDbEntity
  8
1
370
    30
  6
Continuous
 62
     7
100
AcDbLine
 10
970.245443
 20
2113.045191
 30
0.0
 11
998.245443
 21
2113.045191
 31
0.0
  0
LINE
  5
32F
100
AcDbEntity
  8
1
370
    30
  6
Continuous
 62
     7
100
AcDbLine
 10
970.245443
 20
2238.045191
 30
0.0
 11
970.245443
 21
2113.045191
 31
0.0
  0
LINE
  5
330
100
AcDbEntity
  8
1
370
    30
  6
Continuous
 62
     7
100
AcDbLine
 10
997.283159
 20
2266.142207
 30
0.0
 11
997.283159
 21
2241.045191
 31
0.0
  0
LINE
  5
331
100
AcDbEntity
  8
1
370
    30
  6
Continuous
 62
     7
100
AcDbLine
 10
971.1608
 20
2241.045191
 30
0.0
 11
997.283159
 21
2241.045191
 31
0.0
  0
LINE
  5
332
100
AcDbEntity
  8
1
370
    30
  6
Continuous
 62
     7
100
AcDbLine
 10
971.1608
 20
2266.142207
 30
0.0
 11
971.1608
 21
2241.045191
 31
0.0
  0
LINE
  5
333
100
AcDbEntity
  8
1
370
    30
  6
Continuous
 62
     7
100
AcDbLine
 10
971.1608
 20
2266.142207
 30
0.0
 11
997.283159
 21
2266.142207
 31
0.0
  0
LINE
  5
334
100
AcDbEntity
  8
1
370
    30
  6
Continuous
 62
     7
100
AcDbLine
 10
969.1608
 20
2268.1626
 30
0.0
 11
999.283159
 21
2268.1626
 31
0.0
  0
LINE
  5
335
100
AcDbEntity
  8
1
370
    30
  6
Continuous
 62
     7
100
AcDbLine
 10
981.711783
 20
2240.045191
 30
0.0
 11
980.331175
 21
2241.04432
 31
0.0
  0
LINE
  5
336
100
AcDbEntity
  8
1
370
    30
  6
Continuous
 62
     7
100
AcDbLine
 10
987.234215
 20
2240.045191
 30
0.0
 11
988.489313
 21
2241.045191
 31
0.0
  0
LINE
  5
337
100
AcDbEntity
  8
1
370
    30
  6
Continuous
 62
     7
100
AcDbLine
 10
981.711783
 20
2240.045191
 30
0.0
 11
987.234215
 21
2240.045191
 31
0.0
  0
LINE
  5
338
100
AcDbEntity
  8
1
370
    30
  6
Continuous
 62
     7
100
AcDbLine
 10
970.245443
 20
2238.045191
 30
0.0
 11
998.245443
 21
2238.045191
 31
0.0
  0
INSERT
  5
340
100
AcDbEntity
  8
0
370
    30
  6
Continuous
 62
     7
100
AcDbBlockReference
  2
*G27
 10
0.0
 20
0.0
 30
0.0
  0
INSERT
  5
348
100
AcDbEntity
  8
0
370
    30
  6
Continuous
 62
     7
100
AcDbBlockReference
  2
*G28
 10
0.0
 20
0.0
 30
0.0
  0
CIRCLE
  5
349
100
AcDbEntity
  8
1
370
    30
  6
Continuous
 62
     7
100
AcDbCircle
 10
984.245443
 20
2182.545191
 30
0.0
 40
2.5
  0
CIRCLE
  5
34A
100
AcDbEntity
  8
1
370
    30
  6
Continuous
 62
     7
100
AcDbCircle
 10
984.245443
 20
2202.545191
 30
0.0
 40
2.5
  0
CIRCLE
  5
34B
100
AcDbEntity
  8
1
370
    30
  6
Continuous
 62
     7
100
AcDbCircle
 10
984.245443
 20
2222.545191
 30
0.0
 40
2.5
  0
INSERT
  5
353
100
AcDbEntity
  8
0
370
    30
  6
Continuous
 62
     7
100
AcDbBlockReference
  2
*G29
 10
0.0
 20
0.0
 30
0.0
  0
LINE
  5
354
100
AcDbEntity
  8
1
370
    30
  6
Continuous
 62
     7
100
AcDbLine
 10
968.245443
 20
2113.045191
 30
0.0
 11
968.245443
 21
2238.045191
 31
0.0
  0
LINE
  5
355
100
AcDbEntity
  8
1
370
    30
  6
Continuous
 62
     7
100
AcDbLine
 10
940.245443
 20
2113.045191
 30
0.0
 11
968.245443
 21
2113.045191
 31
0.0
  0
LINE
  5
356
100
AcDbEntity
  8
1
370
    30
  6
Continuous
 62
     7
100
AcDbLine
 10
940.245443
 20
2238.045191
 30
0.0
 11
940.245443
 21
2113.045191
 31
0.0
  0
LINE
  5
357
100
AcDbEntity
  8
1
370
    30
  6
Continuous
 62
     7
100
AcDbLine
 10
967.283159
 20
2266.142207
 30
0.0
 11
967.283159
 21
2241.045191
 31
0.0
  0
LINE
  5
358
100
AcDbEntity
  8
1
370
    30
  6
Continuous
 62
     7
100
AcDbLine
 10
941.1608
 20
2241.045191
 30
0.0
 11
967.283159
 21
2241.045191
 31
0.0
  0
LINE
  5
359
100
AcDbEntity
  8
1
370
    30
  6
Continuous
 62
     7
100
AcDbLine
 10
941.1608
 20
2266.142207
 30
0.0
 11
941.1608
 21
2241.045191
 31
0.0
  0
LINE
  5
35A
100
AcDbEntity
  8
1
370
    30
  6
Continuous
 62
     7
100
AcDbLine
 10
941.1608
 20
2266.142207
 30
0.0
 11
967.283159
 21
2266.142207
 31
0.0
  0
LINE
  5
35B
100
AcDbEntity
  8
1
370
    30
  6
Continuous
 62
     7
100
AcDbLine
 10
951.711783
 20
2240.045191
 30
0.0
 11
950.331175
 21
2241.04432
 31
0.0
  0
LINE
  5
35C
100
AcDbEntity
  8
1
370
    30
  6
Continuous
 62
     7
100
AcDbLine
 10
957.234215
 20
2240.045191
 30
0.0
 11
958.489313
 21
2241.045191
 31
0.0
  0
LINE
  5
35D
100
AcDbEntity
  8
1
370
    30
  6
Continuous
 62
     7
100
AcDbLine
 10
951.711783
 20
2240.045191
 30
0.0
 11
957.234215
 21
2240.045191
 31
0.0
  0
LINE
  5
35E
100
AcDbEntity
  8
1
370
    30
  6
Continuous
 62
     7
100
AcDbLine
 10
940.245443
 20
2238.045191
 30
0.0
 11
968.245443
 21
2238.045191
 31
0.0
  0
INSERT
  5
366
100
AcDbEntity
  8
0
370
    30
  6
Continuous
 62
     7
100
AcDbBlockReference
  2
*G30
 10
0.0
 20
0.0
 30
0.0
  0
INSERT
  5
36E
100
AcDbEntity
  8
0
370
    30
  6
Continuous
 62
     7
100
AcDbBlockReference
  2
*G31
 10
0.0
 20
0.0
 30
0.0
  0
CIRCLE
  5
36F
100
AcDbEntity
  8
1
370
    30
  6
Continuous
 62
     7
100
AcDbCircle
 10
954.245443
 20
2182.545191
 30
0.0
 40
2.5
  0
CIRCLE
  5
370
100
AcDbEntity
  8
1
370
    30
  6
Continuous
 62
     7
100
AcDbCircle
 10
954.245443
 20
2202.545191
 30
0.0
 40
2.5
  0
CIRCLE
  5
371
100
AcDbEntity
  8
1
370
    30
  6
Continuous
 62
     7
100
AcDbCircle
 10
954.245443
 20
2222.545191
 30
0.0
 40
2.5
  0
INSERT
  5
379
100
AcDbEntity
  8
0
370
    30
  6
Continuous
 62
     7
100
AcDbBlockReference
  2
*G32
 10
0.0
 20
0.0
 30
0.0
  0
LINE
  5
37A
100
AcDbEntity
  8
1
370
    30
  6
Continuous
 62
     7
100
AcDbLine
 10
939.245443
 20
2268.1626
 30
0.0
 11
969.283159
 21
2268.1626
 31
0.0
  0
LINE
  5
37B
100
AcDbEntity
  8
1
370
    30
  6
Continuous
 62
     7
100
AcDbLine
 10
939.245443
 20
2112.045191
 30
0.0
 11
969.245443
 21
2112.045191
 31
0.0
  0
LINE
  5
37C
100
AcDbEntity
  8
1
370
    30
  6
Continuous
 62
     7
100
AcDbLine
 10
1059.1608
 20
2268.1626
 30
0.0
 11
1089.245443
 21
2268.1626
 31
0.0
  0
LINE
  5
37D
100
AcDbEntity
  8
1
370
    30
  6
Continuous
 62
     7
100
AcDbLine
 10
909.1608
 20
1925.045191
 30
0.0
 11
939.245443
 21
1925.045191
 31
0.0
  0
LINE
  5
37E
100
AcDbEntity
  8
1
370
    30
  6
Continuous
 62
     7
100
AcDbLine
 10
938.245443
 20
1926.045191
 30
0.0
 11
938.245443
 21
2051.045191
 31
0.0
  0
LINE
  5
37F
100
AcDbEntity
  8
1
370
    30
  6
Continuous
 62
     7
100
AcDbLine
 10
910.245443
 20
1926.045191
 30
0.0
 11
938.245443
 21
1926.045191
 31
0.0
  0
LINE
  5
380
100
AcDbEntity
  8
1
370
    30
  6
Continuous
 62
     7
100
AcDbLine
 10
910.245443
 20
2051.045191
 30
0.0
 11
910.245443
 21
1926.045191
 31
0.0
  0
LINE
  5
381
100
AcDbEntity
  8
1
370
    30
  6
Continuous
 62
     7
100
AcDbLine
 10
937.283159
 20
2079.142207
 30
0.0
 11
937.283159
 21
2054.045191
 31
0.0
  0
LINE
  5
382
100
AcDbEntity
  8
1
370
    30
  6
Continuous
 62
     7
100
AcDbLine
 10
911.1608
 20
2054.045191
 30
0.0
 11
937.283159
 21
2054.045191
 31
0.0
  0
LINE
  5
383
100
AcDbEntity
  8
1
370
    30
  6
Continuous
 62
     7
100
AcDbLine
 10
911.1608
 20
2079.142207
 30
0.0
 11
911.1608
 21
2054.045191
 31
0.0
  0
LINE
  5
384
100
AcDbEntity
  8
1
370
    30
  6
Continuous
 62
     7
100
AcDbLine
 10
911.1608
 20
2079.142207
 30
0.0
 11
937.283159
 21
2079.142207
 31
0.0
  0
LINE
  5
385
100
AcDbEntity
  8
1
370
    30
  6
Continuous
 62
     7
100
AcDbLine
 10
921.711783
 20
2053.045191
 30
0.0
 11
920.331175
 21
2054.04432
 31
0.0
  0
LINE
  5
386
100
AcDbEntity
  8
1
370
    30
  6
Continuous
 62
     7
100
AcDbLine
 10
927.234215
 20
2053.045191
 30
0.0
 11
928.489313
 21
2054.045191
 31
0.0
  0
LINE
  5
387
100
AcDbEntity
  8
1
370
    30
  6
Continuous
 62
     7
100
AcDbLine
 10
921.711783
 20
2053.045191
 30
0.0
 11
927.234215
 21
2053.045191
 31
0.0
  0
LINE
  5
388
100
AcDbEntity
  8
1
370
    30
  6
Continuous
 62
     7
100
AcDbLine
 10
910.245443
 20
2051.045191
 30
0.0
 11
938.245443
 21
2051.045191
 31
0.0
  0
INSERT
  5
390
100
AcDbEntity
  8
0
370
    30
  6
Continuous
 62
     7
100
AcDbBlockReference
  2
*G33
 10
0.0
 20
0.0
 30
0.0
  0
INSERT
  5
398
100
AcDbEntity
  8
0
370
    30
  6
Continuous
 62
     7
100
AcDbBlockReference
  2
*G34
 10
0.0
 20
0.0
 30
0.0
  0
CIRCLE
  5
399
100
AcDbEntity
  8
1
370
    30
  6
Continuous
 62
     7
100
AcDbCircle
 10
924.245443
 20
1995.545191
 30
0.0
 40
2.5
  0
CIRCLE
  5
39A
100
AcDbEntity
  8
1
370
    30
  6
Continuous
 62
     7
100
AcDbCircle
 10
924.245443
 20
2015.545191
 30
0.0
 40
2.5
  0
CIRCLE
  5
39B
100
AcDbEntity
  8
1
370
    30
  6
Continuous
 62
     7
100
AcDbCircle
 10
924.245443
 20
2035.545191
 30
0.0
 40
2.5
  0
INSERT
  5
3A3
100
AcDbEntity
  8
0
370
    30
  6
Continuous
 62
     7
100
AcDbBlockReference
  2
*G35
 10
0.0
 20
0.0
 30
0.0
  0
LINE
  5
3A4
100
AcDbEntity
  8
1
370
    30
  6
Continuous
 62
     7
100
AcDbLine
 10
879.1608
 20
1925.045191
 30
0.0
 11
909.245443
 21
1925.045191
 31
0.0
  0
LINE
  5
3A5
100
AcDbEntity
  8
1
370
    30
  6
Continuous
 62
     7
100
AcDbLine
 10
908.245443
 20
1926.045191
 30
0.0
 11
908.245443
 21
2051.045191
 31
0.0
  0
LINE
  5
3A6
100
AcDbEntity
  8
1
370
    30
  6
Continuous
 62
     7
100
AcDbLine
 10
880.245443
 20
1926.045191
 30
0.0
 11
908.245443
 21
1926.045191
 31
0.0
  0
LINE
  5
3A7
100
AcDbEntity
  8
1
370
    30
  6
Continuous
 62
     7
100
AcDbLine
 10
880.245443
 20
2051.045191
 30
0.0
 11
880.245443
 21
1926.045191
 31
0.0
  0
LINE
  5
3A8
100
AcDbEntity
  8
1
370
    30
  6
Continuous
 62
     7
100
AcDbLine
 10
907.283159
 20
2079.142207
 30
0.0
 11
907.283159
 21
2054.045191
 31
0.0
  0
LINE
  5
3A9
100
AcDbEntity
  8
1
370
    30
  6
Continuous
 62
     7
100
AcDbLine
 10
881.1608
 20
2054.045191
 30
0.0
 11
907.283159
 21
2054.045191
 31
0.0
  0
LINE
  5
3AA
100
AcDbEntity
  8
1
370
    30
  6
Continuous
 62
     7
100
AcDbLine
 10
881.1608
 20
2079.142207
 30
0.0
 11
881.1608
 21
2054.045191
 31
0.0
  0
LINE
  5
3AB
100
AcDbEntity
  8
1
370
    30
  6
Continuous
 62
     7
100
AcDbLine
 10
881.1608
 20
2079.142207
 30
0.0
 11
907.283159
 21
2079.142207
 31
0.0
  0
LINE
  5
3AC
100
AcDbEntity
  8
1
370
    30
  6
Continuous
 62
     7
100
AcDbLine
 10
879.1608
 20
2081.1626
 30
0.0
 11
909.283159
 21
2081.1626
 31
0.0
  0
LINE
  5
3AD
100
AcDbEntity
  8
1
370
    30
  6
Continuous
 62
     7
100
AcDbLine
 10
891.711783
 20
2053.045191
 30
0.0
 11
890.331175
 21
2054.04432
 31
0.0
  0
LINE
  5
3AE
100
AcDbEntity
  8
1
370
    30
  6
Continuous
 62
     7
100
AcDbLine
 10
897.234215
 20
2053.045191
 30
0.0
 11
898.489313
 21
2054.045191
 31
0.0
  0
LINE
  5
3AF
100
AcDbEntity
  8
1
370
    30
  6
Continuous
 62
     7
100
AcDbLine
 10
891.711783
 20
2053.045191
 30
0.0
 11
897.234215
 21
2053.045191
 31
0.0
  0
LINE
  5
3B0
100
AcDbEntity
  8
1
370
    30
  6
Continuous
 62
     7
100
AcDbLine
 10
880.245443
 20
2051.045191
 30
0.0
 11
908.245443
 21
2051.045191
 31
0.0
  0
INSERT
  5
3B8
100
AcDbEntity
  8
0
370
    30
  6
Continuous
 62
     7
100
AcDbBlockReference
  2
*G36
 10
0.0
 20
0.0
 30
0.0
  0
INSERT
  5
3C0
100
AcDbEntity
  8
0
370
    30
  6
Continuous
 62
     7
100
AcDbBlockReference
  2
*G37
 10
0.0
 20
0.0
 30
0.0
  0
CIRCLE
  5
3C1
100
AcDbEntity
  8
1
370
    30
  6
Continuous
 62
     7
100
AcDbCircle
 10
894.245443
 20
1995.545191
 30
0.0
 40
2.5
  0
CIRCLE
  5
3C2
100
AcDbEntity
  8
1
370
    30
  6
Continuous
 62
     7
100
AcDbCircle
 10
894.245443
 20
2015.545191
 30
0.0
 40
2.5
  0
CIRCLE
  5
3C3
100
AcDbEntity
  8
1
370
    30
  6
Continuous
 62
     7
100
AcDbCircle
 10
894.245443
 20
2035.545191
 30
0.0
 40
2.5
  0
INSERT
  5
3CB
100
AcDbEntity
  8
0
370
    30
  6
Continuous
 62
     7
100
AcDbBlockReference
  2
*G38
 10
0.0
 20
0.0
 30
0.0
  0
LINE
  5
3CC
100
AcDbEntity
  8
1
370
    30
  6
Continuous
 62
     7
100
AcDbLine
 10
849.1608
 20
1925.045191
 30
0.0
 11
879.245443
 21
1925.045191
 31
0.0
  0
LINE
  5
3CD
100
AcDbEntity
  8
1
370
    30
  6
Continuous
 62
     7
100
AcDbLine
 10
878.245443
 20
1926.045191
 30
0.0
 11
878.245443
 21
2051.045191
 31
0.0
  0
LINE
  5
3CE
100
AcDbEntity
  8
1
370
    30
  6
Continuous
 62
     7
100
AcDbLine
 10
850.245443
 20
1926.045191
 30
0.0
 11
878.245443
 21
1926.045191
 31
0.0
  0
LINE
  5
3CF
100
AcDbEntity
  8
1
370
    30
  6
Continuous
 62
     7
100
AcDbLine
 10
850.245443
 20
2051.045191
 30
0.0
 11
850.245443
 21
1926.045191
 31
0.0
  0
LINE
  5
3D0
100
AcDbEntity
  8
1
370
    30
  6
Continuous
 62
     7
100
AcDbLine
 10
877.283159
 20
2079.142207
 30
0.0
 11
877.283159
 21
2054.045191
 31
0.0
  0
LINE
  5
3D1
100
AcDbEntity
  8
1
370
    30
  6
Continuous
 62
     7
100
AcDbLine
 10
851.1608
 20
2054.045191
 30
0.0
 11
877.283159
 21
2054.045191
 31
0.0
  0
LINE
  5
3D2
100
AcDbEntity
  8
1
370
    30
  6
Continuous
 62
     7
100
AcDbLine
 10
851.1608
 20
2079.142207
 30
0.0
 11
851.1608
 21
2054.045191
 31
0.0
  0
LINE
  5
3D3
100
AcDbEntity
  8
1
370
    30
  6
Continuous
 62
     7
100
AcDbLine
 10
851.1608
 20
2079.142207
 30
0.0
 11
877.283159
 21
2079.142207
 31
0.0
  0
LINE
  5
3D4
100
AcDbEntity
  8
1
370
    30
  6
Continuous
 62
     7
100
AcDbLine
 10
849.1608
 20
2081.1626
 30
0.0
 11
879.283159
 21
2081.1626
 31
0.0
  0
LINE
  5
3D5
100
AcDbEntity
  8
1
370
    30
  6
Continuous
 62
     7
100
AcDbLine
 10
861.711783
 20
2053.045191
 30
0.0
 11
860.331175
 21
2054.04432
 31
0.0
  0
LINE
  5
3D6
100
AcDbEntity
  8
1
370
    30
  6
Continuous
 62
     7
100
AcDbLine
 10
867.234215
 20
2053.045191
 30
0.0
 11
868.489313
 21
2054.045191
 31
0.0
  0
LINE
  5
3D7
100
AcDbEntity
  8
1
370
    30
  6
Continuous
 62
     7
100
AcDbLine
 10
861.711783
 20
2053.045191
 30
0.0
 11
867.234215
 21
2053.045191
 31
0.0
  0
LINE
  5
3D8
100
AcDbEntity
  8
1
370
    30
  6
Continuous
 62
     7
100
AcDbLine
 10
850.245443
 20
2051.045191
 30
0.0
 11
878.245443
 21
2051.045191
 31
0.0
  0
INSERT
  5
3E0
100
AcDbEntity
  8
0
370
    30
  6
Continuous
 62
     7
100
AcDbBlockReference
  2
*G39
 10
0.0
 20
0.0
 30
0.0
  0
INSERT
  5
3E8
100
AcDbEntity
  8
0
370
    30
  6
Continuous
 62
     7
100
AcDbBlockReference
  2
*G40
 10
0.0
 20
0.0
 30
0.0
  0
CIRCLE
  5
3E9
100
AcDbEntity
  8
1
370
    30
  6
Continuous
 62
     7
100
AcDbCircle
 10
864.245443
 20
1995.545191
 30
0.0
 40
2.5
  0
CIRCLE
  5
3EA
100
AcDbEntity
  8
1
370
    30
  6
Continuous
 62
     7
100
AcDbCircle
 10
864.245443
 20
2015.545191
 30
0.0
 40
2.5
  0
CIRCLE
  5
3EB
100
AcDbEntity
  8
1
370
    30
  6
Continuous
 62
     7
100
AcDbCircle
 10
864.245443
 20
2035.545191
 30
0.0
 40
2.5
  0
INSERT
  5
3F3
100
AcDbEntity
  8
0
370
    30
  6
Continuous
 62
     7
100
AcDbBlockReference
  2
*G41
 10
0.0
 20
0.0
 30
0.0
  0
LINE
  5
3F4
100
AcDbEntity
  8
1
370
    30
  6
Continuous
 62
     7
100
AcDbLine
 10
819.1608
 20
1925.045191
 30
0.0
 11
849.245443
 21
1925.045191
 31
0.0
  0
LINE
  5
3F5
100
AcDbEntity
  8
1
370
    30
  6
Continuous
 62
     7
100
AcDbLine
 10
848.245443
 20
1926.045191
 30
0.0
 11
848.245443
 21
2051.045191
 31
0.0
  0
LINE
  5
3F6
100
AcDbEntity
  8
1
370
    30
  6
Continuous
 62
     7
100
AcDbLine
 10
820.245443
 20
1926.045191
 30
0.0
 11
848.245443
 21
1926.045191
 31
0.0
  0
LINE
  5
3F7
100
AcDbEntity
  8
1
370
    30
  6
Continuous
 62
     7
100
AcDbLine
 10
820.245443
 20
2051.045191
 30
0.0
 11
820.245443
 21
1926.045191
 31
0.0
  0
LINE
  5
3F8
100
AcDbEntity
  8
1
370
    30
  6
Continuous
 62
     7
100
AcDbLine
 10
847.283159
 20
2079.142207
 30
0.0
 11
847.283159
 21
2054.045191
 31
0.0
  0
LINE
  5
3F9
100
AcDbEntity
  8
1
370
    30
  6
Continuous
 62
     7
100
AcDbLine
 10
821.1608
 20
2054.045191
 30
0.0
 11
847.283159
 21
2054.045191
 31
0.0
  0
LINE
  5
3FA
100
AcDbEntity
  8
1
370
    30
  6
Continuous
 62
     7
100
AcDbLine
 10
821.1608
 20
2079.142207
 30
0.0
 11
821.1608
 21
2054.045191
 31
0.0
  0
LINE
  5
3FB
100
AcDbEntity
  8
1
370
    30
  6
Continuous
 62
     7
100
AcDbLine
 10
821.1608
 20
2079.142207
 30
0.0
 11
847.283159
 21
2079.142207
 31
0.0
  0
LINE
  5
3FC
100
AcDbEntity
  8
1
370
    30
  6
Continuous
 62
     7
100
AcDbLine
 10
819.1608
 20
2081.1626
 30
0.0
 11
849.283159
 21
2081.1626
 31
0.0
  0
LINE
  5
3FD
100
AcDbEntity
  8
1
370
    30
  6
Continuous
 62
     7
100
AcDbLine
 10
831.711783
 20
2053.045191
 30
0.0
 11
830.331175
 21
2054.04432
 31
0.0
  0
LINE
  5
3FE
100
AcDbEntity
  8
1
370
    30
  6
Continuous
 62
     7
100
AcDbLine
 10
837.234215
 20
2053.045191
 30
0.0
 11
838.489313
 21
2054.045191
 31
0.0
  0
LINE
  5
3FF
100
AcDbEntity
  8
1
370
    30
  6
Continuous
 62
     7
100
AcDbLine
 10
831.711783
 20
2053.045191
 30
0.0
 11
837.234215
 21
2053.045191
 31
0.0
  0
LINE
  5
400
100
AcDbEntity
  8
1
370
    30
  6
Continuous
 62
     7
100
AcDbLine
 10
820.245443
 20
2051.045191
 30
0.0
 11
848.245443
 21
2051.045191
 31
0.0
  0
INSERT
  5
408
100
AcDbEntity
  8
0
370
    30
  6
Continuous
 62
     7
100
AcDbBlockReference
  2
*G42
 10
0.0
 20
0.0
 30
0.0
  0
INSERT
  5
410
100
AcDbEntity
  8
0
370
    30
  6
Continuous
 62
     7
100
AcDbBlockReference
  2
*G43
 10
0.0
 20
0.0
 30
0.0
  0
CIRCLE
  5
411
100
AcDbEntity
  8
1
370
    30
  6
Continuous
 62
     7
100
AcDbCircle
 10
834.245443
 20
1995.545191
 30
0.0
 40
2.5
  0
CIRCLE
  5
412
100
AcDbEntity
  8
1
370
    30
  6
Continuous
 62
     7
100
AcDbCircle
 10
834.245443
 20
2015.545191
 30
0.0
 40
2.5
  0
CIRCLE
  5
413
100
AcDbEntity
  8
1
370
    30
  6
Continuous
 62
     7
100
AcDbCircle
 10
834.245443
 20
2035.545191
 30
0.0
 40
2.5
  0
INSERT
  5
41B
100
AcDbEntity
  8
0
370
    30
  6
Continuous
 62
     7
100
AcDbBlockReference
  2
*G44
 10
0.0
 20
0.0
 30
0.0
  0
LINE
  5
41C
100
AcDbEntity
  8
1
370
    30
  6
Continuous
 62
     7
100
AcDbLine
 10
818.245443
 20
1926.045191
 30
0.0
 11
818.245443
 21
2051.045191
 31
0.0
  0
LINE
  5
41D
100
AcDbEntity
  8
1
370
    30
  6
Continuous
 62
     7
100
AcDbLine
 10
790.245443
 20
1926.045191
 30
0.0
 11
818.245443
 21
1926.045191
 31
0.0
  0
LINE
  5
41E
100
AcDbEntity
  8
1
370
    30
  6
Continuous
 62
     7
100
AcDbLine
 10
790.245443
 20
2051.045191
 30
0.0
 11
790.245443
 21
1926.045191
 31
0.0
  0
LINE
  5
41F
100
AcDbEntity
  8
1
370
    30
  6
Continuous
 62
     7
100
AcDbLine
 10
817.283159
 20
2079.142207
 30
0.0
 11
817.283159
 21
2054.045191
 31
0.0
  0
LINE
  5
420
100
AcDbEntity
  8
1
370
    30
  6
Continuous
 62
     7
100
AcDbLine
 10
791.1608
 20
2054.045191
 30
0.0
 11
817.283159
 21
2054.045191
 31
0.0
  0
LINE
  5
421
100
AcDbEntity
  8
1
370
    30
  6
Continuous
 62
     7
100
AcDbLine
 10
791.1608
 20
2079.142207
 30
0.0
 11
791.1608
 21
2054.045191
 31
0.0
  0
LINE
  5
422
100
AcDbEntity
  8
1
370
    30
  6
Continuous
 62
     7
100
AcDbLine
 10
791.1608
 20
2079.142207
 30
0.0
 11
817.283159
 21
2079.142207
 31
0.0
  0
LINE
  5
423
100
AcDbEntity
  8
1
370
    30
  6
Continuous
 62
     7
100
AcDbLine
 10
801.711783
 20
2053.045191
 30
0.0
 11
800.331175
 21
2054.04432
 31
0.0
  0
LINE
  5
424
100
AcDbEntity
  8
1
370
    30
  6
Continuous
 62
     7
100
AcDbLine
 10
807.234215
 20
2053.045191
 30
0.0
 11
808.489313
 21
2054.045191
 31
0.0
  0
LINE
  5
425
100
AcDbEntity
  8
1
370
    30
  6
Continuous
 62
     7
100
AcDbLine
 10
801.711783
 20
2053.045191
 30
0.0
 11
807.234215
 21
2053.045191
 31
0.0
  0
LINE
  5
426
100
AcDbEntity
  8
1
370
    30
  6
Continuous
 62
     7
100
AcDbLine
 10
790.245443
 20
2051.045191
 30
0.0
 11
818.245443
 21
2051.045191
 31
0.0
  0
INSERT
  5
42E
100
AcDbEntity
  8
0
370
    30
  6
Continuous
 62
     7
100
AcDbBlockReference
  2
*G45
 10
0.0
 20
0.0
 30
0.0
  0
INSERT
  5
436
100
AcDbEntity
  8
0
370
    30
  6
Continuous
 62
     7
100
AcDbBlockReference
  2
*G46
 10
0.0
 20
0.0
 30
0.0
  0
CIRCLE
  5
437
100
AcDbEntity
  8
1
370
    30
  6
Continuous
 62
     7
100
AcDbCircle
 10
804.245443
 20
1995.545191
 30
0.0
 40
2.5
  0
CIRCLE
  5
438
100
AcDbEntity
  8
1
370
    30
  6
Continuous
 62
     7
100
AcDbCircle
 10
804.245443
 20
2015.545191
 30
0.0
 40
2.5
  0
CIRCLE
  5
439
100
AcDbEntity
  8
1
370
    30
  6
Continuous
 62
     7
100
AcDbCircle
 10
804.245443
 20
2035.545191
 30
0.0
 40
2.5
  0
INSERT
  5
441
100
AcDbEntity
  8
0
370
    30
  6
Continuous
 62
     7
100
AcDbBlockReference
  2
*G47
 10
0.0
 20
0.0
 30
0.0
  0
LINE
  5
442
100
AcDbEntity
  8
1
370
    30
  6
Continuous
 62
     7
100
AcDbLine
 10
789.245443
 20
2081.1626
 30
0.0
 11
819.283159
 21
2081.1626
 31
0.0
  0
LINE
  5
443
100
AcDbEntity
  8
1
370
    30
  6
Continuous
 62
     7
100
AcDbLine
 10
789.245443
 20
1925.045191
 30
0.0
 11
819.245443
 21
1925.045191
 31
0.0
  0
LINE
  5
444
100
AcDbEntity
  8
1
370
    30
  6
Continuous
 62
     7
100
AcDbLine
 10
909.1608
 20
2081.1626
 30
0.0
 11
939.245443
 21
2081.1626
 31
0.0
  0
LINE
  5
445
100
AcDbEntity
  8
1
370
    30
  6
Continuous
 62
     7
100
AcDbLine
 10
1059.1608
 20
1925.045191
 30
0.0
 11
1089.245443
 21
1925.045191
 31
0.0
  0
LINE
  5
446
100
AcDbEntity
  8
1
370
    30
  6
Continuous
 62
     7
100
AcDbLine
 10
1088.245443
 20
1926.045191
 30
0.0
 11
1088.245443
 21
2051.045191
 31
0.0
  0
LINE
  5
447
100
AcDbEntity
  8
1
370
    30
  6
Continuous
 62
     7
100
AcDbLine
 10
1060.245443
 20
1926.045191
 30
0.0
 11
1088.245443
 21
1926.045191
 31
0.0
  0
LINE
  5
448
100
AcDbEntity
  8
1
370
    30
  6
Continuous
 62
     7
100
AcDbLine
 10
1060.245443
 20
2051.045191
 30
0.0
 11
1060.245443
 21
1926.045191
 31
0.0
  0
LINE
  5
449
100
AcDbEntity
  8
1
370
    30
  6
Continuous
 62
     7
100
AcDbLine
 10
1087.283159
 20
2079.142207
 30
0.0
 11
1087.283159
 21
2054.045191
 31
0.0
  0
LINE
  5
44A
100
AcDbEntity
  8
1
370
    30
  6
Continuous
 62
     7
100
AcDbLine
 10
1061.1608
 20
2054.045191
 30
0.0
 11
1087.283159
 21
2054.045191
 31
0.0
  0
LINE
  5
44B
100
AcDbEntity
  8
1
370
    30
  6
Continuous
 62
     7
100
AcDbLine
 10
1061.1608
 20
2079.142207
 30
0.0
 11
1061.1608
 21
2054.045191
 31
0.0
  0
LINE
  5
44C
100
AcDbEntity
  8
1
370
    30
  6
Continuous
 62
     7
100
AcDbLine
 10
1061.1608
 20
2079.142207
 30
0.0
 11
1087.283159
 21
2079.142207
 31
0.0
  0
LINE
  5
44D
100
AcDbEntity
  8
1
370
    30
  6
Continuous
 62
     7
100
AcDbLine
 10
1071.711783
 20
2053.045191
 30
0.0
 11
1070.331175
 21
2054.04432
 31
0.0
  0
LINE
  5
44E
100
AcDbEntity
  8
1
370
    30
  6
Continuous
 62
     7
100
AcDbLine
 10
1077.234215
 20
2053.045191
 30
0.0
 11
1078.489313
 21
2054.045191
 31
0.0
  0
LINE
  5
44F
100
AcDbEntity
  8
1
370
    30
  6
Continuous
 62
     7
100
AcDbLine
 10
1071.711783
 20
2053.045191
 30
0.0
 11
1077.234215
 21
2053.045191
 31
0.0
  0
LINE
  5
450
100
AcDbEntity
  8
1
370
    30
  6
Continuous
 62
     7
100
AcDbLine
 10
1060.245443
 20
2051.045191
 30
0.0
 11
1088.245443
 21
2051.045191
 31
0.0
  0
INSERT
  5
458
100
AcDbEntity
  8
0
370
    30
  6
Continuous
 62
     7
100
AcDbBlockReference
  2
*G48
 10
0.0
 20
0.0
 30
0.0
  0
INSERT
  5
460
100
AcDbEntity
  8
0
370
    30
  6
Continuous
 62
     7
100
AcDbBlockReference
  2
*G49
 10
0.0
 20
0.0
 30
0.0
  0
CIRCLE
  5
461
100
AcDbEntity
  8
1
370
    30
  6
Continuous
 62
     7
100
AcDbCircle
 10
1074.245443
 20
1995.545191
 30
0.0
 40
2.5
  0
CIRCLE
  5
462
100
AcDbEntity
  8
1
370
    30
  6
Continuous
 62
     7
100
AcDbCircle
 10
1074.245443
 20
2015.545191
 30
0.0
 40
2.5
  0
CIRCLE
  5
463
100
AcDbEntity
  8
1
370
    30
  6
Continuous
 62
     7
100
AcDbCircle
 10
1074.245443
 20
2035.545191
 30
0.0
 40
2.5
  0
INSERT
  5
46B
100
AcDbEntity
  8
0
370
    30
  6
Continuous
 62
     7
100
AcDbBlockReference
  2
*G50
 10
0.0
 20
0.0
 30
0.0
  0
LINE
  5
46C
100
AcDbEntity
  8
1
370
    30
  6
Continuous
 62
     7
100
AcDbLine
 10
1029.1608
 20
1925.045191
 30
0.0
 11
1059.245443
 21
1925.045191
 31
0.0
  0
LINE
  5
46D
100
AcDbEntity
  8
1
370
    30
  6
Continuous
 62
     7
100
AcDbLine
 10
1058.245443
 20
1926.045191
 30
0.0
 11
1058.245443
 21
2051.045191
 31
0.0
  0
LINE
  5
46E
100
AcDbEntity
  8
1
370
    30
  6
Continuous
 62
     7
100
AcDbLine
 10
1030.245443
 20
1926.045191
 30
0.0
 11
1058.245443
 21
1926.045191
 31
0.0
  0
LINE
  5
46F
100
AcDbEntity
  8
1
370
    30
  6
Continuous
 62
     7
100
AcDbLine
 10
1030.245443
 20
2051.045191
 30
0.0
 11
1030.245443
 21
1926.045191
 31
0.0
  0
LINE
  5
470
100
AcDbEntity
  8
1
370
    30
  6
Continuous
 62
     7
100
AcDbLine
 10
1057.283159
 20
2079.142207
 30
0.0
 11
1057.283159
 21
2054.045191
 31
0.0
  0
LINE
  5
471
100
AcDbEntity
  8
1
370
    30
  6
Continuous
 62
     7
100
AcDbLine
 10
1031.1608
 20
2054.045191
 30
0.0
 11
1057.283159
 21
2054.045191
 31
0.0
  0
LINE
  5
472
100
AcDbEntity
  8
1
370
    30
  6
Continuous
 62
     7
100
AcDbLine
 10
1031.1608
 20
2079.142207
 30
0.0
 11
1031.1608
 21
2054.045191
 31
0.0
  0
LINE
  5
473
100
AcDbEntity
  8
1
370
    30
  6
Continuous
 62
     7
100
AcDbLine
 10
1031.1608
 20
2079.142207
 30
0.0
 11
1057.283159
 21
2079.142207
 31
0.0
  0
LINE
  5
474
100
AcDbEntity
  8
1
370
    30
  6
Continuous
 62
     7
100
AcDbLine
 10
1029.1608
 20
2081.1626
 30
0.0
 11
1059.283159
 21
2081.1626
 31
0.0
  0
LINE
  5
475
100
AcDbEntity
  8
1
370
    30
  6
Continuous
 62
     7
100
AcDbLine
 10
1041.711783
 20
2053.045191
 30
0.0
 11
1040.331175
 21
2054.04432
 31
0.0
  0
LINE
  5
476
100
AcDbEntity
  8
1
370
    30
  6
Continuous
 62
     7
100
AcDbLine
 10
1047.234215
 20
2053.045191
 30
0.0
 11
1048.489313
 21
2054.045191
 31
0.0
  0
LINE
  5
477
100
AcDbEntity
  8
1
370
    30
  6
Continuous
 62
     7
100
AcDbLine
 10
1041.711783
 20
2053.045191
 30
0.0
 11
1047.234215
 21
2053.045191
 31
0.0
  0
LINE
  5
478
100
AcDbEntity
  8
1
370
    30
  6
Continuous
 62
     7
100
AcDbLine
 10
1030.245443
 20
2051.045191
 30
0.0
 11
1058.245443
 21
2051.045191
 31
0.0
  0
INSERT
  5
480
100
AcDbEntity
  8
0
370
    30
  6
Continuous
 62
     7
100
AcDbBlockReference
  2
*G51
 10
0.0
 20
0.0
 30
0.0
  0
INSERT
  5
488
100
AcDbEntity
  8
0
370
    30
  6
Continuous
 62
     7
100
AcDbBlockReference
  2
*G52
 10
0.0
 20
0.0
 30
0.0
  0
CIRCLE
  5
489
100
AcDbEntity
  8
1
370
    30
  6
Continuous
 62
     7
100
AcDbCircle
 10
1044.245443
 20
1995.545191
 30
0.0
 40
2.5
  0
CIRCLE
  5
48A
100
AcDbEntity
  8
1
370
    30
  6
Continuous
 62
     7
100
AcDbCircle
 10
1044.245443
 20
2015.545191
 30
0.0
 40
2.5
  0
CIRCLE
  5
48B
100
AcDbEntity
  8
1
370
    30
  6
Continuous
 62
     7
100
AcDbCircle
 10
1044.245443
 20
2035.545191
 30
0.0
 40
2.5
  0
INSERT
  5
493
100
AcDbEntity
  8
0
370
    30
  6
Continuous
 62
     7
100
AcDbBlockReference
  2
*G53
 10
0.0
 20
0.0
 30
0.0
  0
LINE
  5
494
100
AcDbEntity
  8
1
370
    30
  6
Continuous
 62
     7
100
AcDbLine
 10
999.1608
 20
1925.045191
 30
0.0
 11
1029.245443
 21
1925.045191
 31
0.0
  0
LINE
  5
495
100
AcDbEntity
  8
1
370
    30
  6
Continuous
 62
     7
100
AcDbLine
 10
1028.245443
 20
1926.045191
 30
0.0
 11
1028.245443
 21
2051.045191
 31
0.0
  0
LINE
  5
496
100
AcDbEntity
  8
1
370
    30
  6
Continuous
 62
     7
100
AcDbLine
 10
1000.245443
 20
1926.045191
 30
0.0
 11
1028.245443
 21
1926.045191
 31
0.0
  0
LINE
  5
497
100
AcDbEntity
  8
1
370
    30
  6
Continuous
 62
     7
100
AcDbLine
 10
1000.245443
 20
2051.045191
 30
0.0
 11
1000.245443
 21
1926.045191
 31
0.0
  0
LINE
  5
498
100
AcDbEntity
  8
1
370
    30
  6
Continuous
 62
     7
100
AcDbLine
 10
1027.283159
 20
2079.142207
 30
0.0
 11
1027.283159
 21
2054.045191
 31
0.0
  0
LINE
  5
499
100
AcDbEntity
  8
1
370
    30
  6
Continuous
 62
     7
100
AcDbLine
 10
1001.1608
 20
2054.045191
 30
0.0
 11
1027.283159
 21
2054.045191
 31
0.0
  0
LINE
  5
49A
100
AcDbEntity
  8
1
370
    30
  6
Continuous
 62
     7
100
AcDbLine
 10
1001.1608
 20
2079.142207
 30
0.0
 11
1001.1608
 21
2054.045191
 31
0.0
  0
LINE
  5
49B
100
AcDbEntity
  8
1
370
    30
  6
Continuous
 62
     7
100
AcDbLine
 10
1001.1608
 20
2079.142207
 30
0.0
 11
1027.283159
 21
2079.142207
 31
0.0
  0
LINE
  5
49C
100
AcDbEntity
  8
1
370
    30
  6
Continuous
 62
     7
100
AcDbLine
 10
999.1608
 20
2081.1626
 30
0.0
 11
1029.283159
 21
2081.1626
 31
0.0
  0
LINE
  5
49D
100
AcDbEntity
  8
1
370
    30
  6
Continuous
 62
     7
100
AcDbLine
 10
1011.711783
 20
2053.045191
 30
0.0
 11
1010.331175
 21
2054.04432
 31
0.0
  0
LINE
  5
49E
100
AcDbEntity
  8
1
370
    30
  6
Continuous
 62
     7
100
AcDbLine
 10
1017.234215
 20
2053.045191
 30
0.0
 11
1018.489313
 21
2054.045191
 31
0.0
  0
LINE
  5
49F
100
AcDbEntity
  8
1
370
    30
  6
Continuous
 62
     7
100
AcDbLine
 10
1011.711783
 20
2053.045191
 30
0.0
 11
1017.234215
 21
2053.045191
 31
0.0
  0
LINE
  5
4A0
100
AcDbEntity
  8
1
370
    30
  6
Continuous
 62
     7
100
AcDbLine
 10
1000.245443
 20
2051.045191
 30
0.0
 11
1028.245443
 21
2051.045191
 31
0.0
  0
INSERT
  5
4A8
100
AcDbEntity
  8
0
370
    30
  6
Continuous
 62
     7
100
AcDbBlockReference
  2
*G54
 10
0.0
 20
0.0
 30
0.0
  0
INSERT
  5
4B0
100
AcDbEntity
  8
0
370
    30
  6
Continuous
 62
     7
100
AcDbBlockReference
  2
*G55
 10
0.0
 20
0.0
 30
0.0
  0
CIRCLE
  5
4B1
100
AcDbEntity
  8
1
370
    30
  6
Continuous
 62
     7
100
AcDbCircle
 10
1014.245443
 20
1995.545191
 30
0.0
 40
2.5
  0
CIRCLE
  5
4B2
100
AcDbEntity
  8
1
370
    30
  6
Continuous
 62
     7
100
AcDbCircle
 10
1014.245443
 20
2015.545191
 30
0.0
 40
2.5
  0
CIRCLE
  5
4B3
100
AcDbEntity
  8
1
370
    30
  6
Continuous
 62
     7
100
AcDbCircle
 10
1014.245443
 20
2035.545191
 30
0.0
 40
2.5
  0
INSERT
  5
4BB
100
AcDbEntity
  8
0
370
    30
  6
Continuous
 62
     7
100
AcDbBlockReference
  2
*G56
 10
0.0
 20
0.0
 30
0.0
  0
LINE
  5
4BC
100
AcDbEntity
  8
1
370
    30
  6
Continuous
 62
     7
100
AcDbLine
 10
969.1608
 20
1925.045191
 30
0.0
 11
999.245443
 21
1925.045191
 31
0.0
  0
LINE
  5
4BD
100
AcDbEntity
  8
1
370
    30
  6
Continuous
 62
     7
100
AcDbLine
 10
998.245443
 20
1926.045191
 30
0.0
 11
998.245443
 21
2051.045191
 31
0.0
  0
LINE
  5
4BE
100
AcDbEntity
  8
1
370
    30
  6
Continuous
 62
     7
100
AcDbLine
 10
970.245443
 20
1926.045191
 30
0.0
 11
998.245443
 21
1926.045191
 31
0.0
  0
LINE
  5
4BF
100
AcDbEntity
  8
1
370
    30
  6
Continuous
 62
     7
100
AcDbLine
 10
970.245443
 20
2051.045191
 30
0.0
 11
970.245443
 21
1926.045191
 31
0.0
  0
LINE
  5
4C0
100
AcDbEntity
  8
1
370
    30
  6
Continuous
 62
     7
100
AcDbLine
 10
997.283159
 20
2079.142207
 30
0.0
 11
997.283159
 21
2054.045191
 31
0.0
  0
LINE
  5
4C1
100
AcDbEntity
  8
1
370
    30
  6
Continuous
 62
     7
100
AcDbLine
 10
971.1608
 20
2054.045191
 30
0.0
 11
997.283159
 21
2054.045191
 31
0.0
  0
LINE
  5
4C2
100
AcDbEntity
  8
1
370
    30
  6
Continuous
 62
     7
100
AcDbLine
 10
971.1608
 20
2079.142207
 30
0.0
 11
971.1608
 21
2054.045191
 31
0.0
  0
LINE
  5
4C3
100
AcDbEntity
  8
1
370
    30
  6
Continuous
 62
     7
100
AcDbLine
 10
971.1608
 20
2079.142207
 30
0.0
 11
997.283159
 21
2079.142207
 31
0.0
  0
LINE
  5
4C4
100
AcDbEntity
  8
1
370
    30
  6
Continuous
 62
     7
100
AcDbLine
 10
969.1608
 20
2081.1626
 30
0.0
 11
999.283159
 21
2081.1626
 31
0.0
  0
LINE
  5
4C5
100
AcDbEntity
  8
1
370
    30
  6
Continuous
 62
     7
100
AcDbLine
 10
981.711783
 20
2053.045191
 30
0.0
 11
980.331175
 21
2054.04432
 31
0.0
  0
LINE
  5
4C6
100
AcDbEntity
  8
1
370
    30
  6
Continuous
 62
     7
100
AcDbLine
 10
987.234215
 20
2053.045191
 30
0.0
 11
988.489313
 21
2054.045191
 31
0.0
  0
LINE
  5
4C7
100
AcDbEntity
  8
1
370
    30
  6
Continuous
 62
     7
100
AcDbLine
 10
981.711783
 20
2053.045191
 30
0.0
 11
987.234215
 21
2053.045191
 31
0.0
  0
LINE
  5
4C8
100
AcDbEntity
  8
1
370
    30
  6
Continuous
 62
     7
100
AcDbLine
 10
970.245443
 20
2051.045191
 30
0.0
 11
998.245443
 21
2051.045191
 31
0.0
  0
INSERT
  5
4D0
100
AcDbEntity
  8
0
370
    30
  6
Continuous
 62
     7
100
AcDbBlockReference
  2
*G57
 10
0.0
 20
0.0
 30
0.0
  0
INSERT
  5
4D8
100
AcDbEntity
  8
0
370
    30
  6
Continuous
 62
     7
100
AcDbBlockReference
  2
*G58
 10
0.0
 20
0.0
 30
0.0
  0
CIRCLE
  5
4D9
100
AcDbEntity
  8
1
370
    30
  6
Continuous
 62
     7
100
AcDbCircle
 10
984.245443
 20
1995.545191
 30
0.0
 40
2.5
  0
CIRCLE
  5
4DA
100
AcDbEntity
  8
1
370
    30
  6
Continuous
 62
     7
100
AcDbCircle
 10
984.245443
 20
2015.545191
 30
0.0
 40
2.5
  0
CIRCLE
  5
4DB
100
AcDbEntity
  8
1
370
    30
  6
Continuous
 62
     7
100
AcDbCircle
 10
984.245443
 20
2035.545191
 30
0.0
 40
2.5
  0
INSERT
  5
4E3
100
AcDbEntity
  8
0
370
    30
  6
Continuous
 62
     7
100
AcDbBlockReference
  2
*G59
 10
0.0
 20
0.0
 30
0.0
  0
LINE
  5
4E4
100
AcDbEntity
  8
1
370
    30
  6
Continuous
 62
     7
100
AcDbLine
 10
968.245443
 20
1926.045191
 30
0.0
 11
968.245443
 21
2051.045191
 31
0.0
  0
LINE
  5
4E5
100
AcDbEntity
  8
1
370
    30
  6
Continuous
 62
     7
100
AcDbLine
 10
940.245443
 20
1926.045191
 30
0.0
 11
968.245443
 21
1926.045191
 31
0.0
  0
LINE
  5
4E6
100
AcDbEntity
  8
1
370
    30
  6
Continuous
 62
     7
100
AcDbLine
 10
940.245443
 20
2051.045191
 30
0.0
 11
940.245443
 21
1926.045191
 31
0.0
  0
LINE
  5
4E7
100
AcDbEntity
  8
1
370
    30
  6
Continuous
 62
     7
100
AcDbLine
 10
967.283159
 20
2079.142207
 30
0.0
 11
967.283159
 21
2054.045191
 31
0.0
  0
LINE
  5
4E8
100
AcDbEntity
  8
1
370
    30
  6
Continuous
 62
     7
100
AcDbLine
 10
941.1608
 20
2054.045191
 30
0.0
 11
967.283159
 21
2054.045191
 31
0.0
  0
LINE
  5
4E9
100
AcDbEntity
  8
1
370
    30
  6
Continuous
 62
     7
100
AcDbLine
 10
941.1608
 20
2079.142207
 30
0.0
 11
941.1608
 21
2054.045191
 31
0.0
  0
LINE
  5
4EA
100
AcDbEntity
  8
1
370
    30
  6
Continuous
 62
     7
100
AcDbLine
 10
941.1608
 20
2079.142207
 30
0.0
 11
967.283159
 21
2079.142207
 31
0.0
  0
LINE
  5
4EB
100
AcDbEntity
  8
1
370
    30
  6
Continuous
 62
     7
100
AcDbLine
 10
951.711783
 20
2053.045191
 30
0.0
 11
950.331175
 21
2054.04432
 31
0.0
  0
LINE
  5
4EC
100
AcDbEntity
  8
1
370
    30
  6
Continuous
 62
     7
100
AcDbLine
 10
957.234215
 20
2053.045191
 30
0.0
 11
958.489313
 21
2054.045191
 31
0.0
  0
LINE
  5
4ED
100
AcDbEntity
  8
1
370
    30
  6
Continuous
 62
     7
100
AcDbLine
 10
951.711783
 20
2053.045191
 30
0.0
 11
957.234215
 21
2053.045191
 31
0.0
  0
LINE
  5
4EE
100
AcDbEntity
  8
1
370
    30
  6
Continuous
 62
     7
100
AcDbLine
 10
940.245443
 20
2051.045191
 30
0.0
 11
968.245443
 21
2051.045191
 31
0.0
  0
INSERT
  5
4F6
100
AcDbEntity
  8
0
370
    30
  6
Continuous
 62
     7
100
AcDbBlockReference
  2
*G60
 10
0.0
 20
0.0
 30
0.0
  0
INSERT
  5
4FE
100
AcDbEntity
  8
0
370
    30
  6
Continuous
 62
     7
100
AcDbBlockReference
  2
*G61
 10
0.0
 20
0.0
 30
0.0
  0
CIRCLE
  5
4FF
100
AcDbEntity
  8
1
370
    30
  6
Continuous
 62
     7
100
AcDbCircle
 10
954.245443
 20
1995.545191
 30
0.0
 40
2.5
  0
CIRCLE
  5
500
100
AcDbEntity
  8
1
370
    30
  6
Continuous
 62
     7
100
AcDbCircle
 10
954.245443
 20
2015.545191
 30
0.0
 40
2.5
  0
CIRCLE
  5
501
100
AcDbEntity
  8
1
370
    30
  6
Continuous
 62
     7
100
AcDbCircle
 10
954.245443
 20
2035.545191
 30
0.0
 40
2.5
  0
INSERT
  5
509
100
AcDbEntity
  8
0
370
    30
  6
Continuous
 62
     7
100
AcDbBlockReference
  2
*G62
 10
0.0
 20
0.0
 30
0.0
  0
LINE
  5
50A
100
AcDbEntity
  8
1
370
    30
  6
Continuous
 62
     7
100
AcDbLine
 10
939.245443
 20
2081.1626
 30
0.0
 11
969.283159
 21
2081.1626
 31
0.0
  0
LINE
  5
50B
100
AcDbEntity
  8
1
370
    30
  6
Continuous
 62
     7
100
AcDbLine
 10
939.245443
 20
1925.045191
 30
0.0
 11
969.245443
 21
1925.045191
 31
0.0
  0
LINE
  5
50C
100
AcDbEntity
  8
1
370
    30
  6
Continuous
 62
     7
100
AcDbLine
 10
1059.1608
 20
2081.1626
 30
0.0
 11
1089.245443
 21
2081.1626
 31
0.0
  0
LINE
  5
50D
100
AcDbEntity
  8
1
370
    30
  6
Continuous
 62
     7
100
AcDbLine
 10
909.1608
 20
1738.045191
 30
0.0
 11
939.245443
 21
1738.045191
 31
0.0
  0
LINE
  5
50E
100
AcDbEntity
  8
1
370
    30
  6
Continuous
 62
     7
100
AcDbLine
 10
938.245443
 20
1739.045191
 30
0.0
 11
938.245443
 21
1864.045191
 31
0.0
  0
LINE
  5
50F
100
AcDbEntity
  8
1
370
    30
  6
Continuous
 62
     7
100
AcDbLine
 10
910.245443
 20
1739.045191
 30
0.0
 11
938.245443
 21
1739.045191
 31
0.0
  0
LINE
  5
510
100
AcDbEntity
  8
1
370
    30
  6
Continuous
 62
     7
100
AcDbLine
 10
910.245443
 20
1864.045191
 30
0.0
 11
910.245443
 21
1739.045191
 31
0.0
  0
LINE
  5
511
100
AcDbEntity
  8
1
370
    30
  6
Continuous
 62
     7
100
AcDbLine
 10
937.283159
 20
1892.142207
 30
0.0
 11
937.283159
 21
1867.045191
 31
0.0
  0
LINE
  5
512
100
AcDbEntity
  8
1
370
    30
  6
Continuous
 62
     7
100
AcDbLine
 10
911.1608
 20
1867.045191
 30
0.0
 11
937.283159
 21
1867.045191
 31
0.0
  0
LINE
  5
513
100
AcDbEntity
  8
1
370
    30
  6
Continuous
 62
     7
100
AcDbLine
 10
911.1608
 20
1892.142207
 30
0.0
 11
911.1608
 21
1867.045191
 31
0.0
  0
LINE
  5
514
100
AcDbEntity
  8
1
370
    30
  6
Continuous
 62
     7
100
AcDbLine
 10
911.1608
 20
1892.142207
 30
0.0
 11
937.283159
 21
1892.142207
 31
0.0
  0
LINE
  5
515
100
AcDbEntity
  8
1
370
    30
  6
Continuous
 62
     7
100
AcDbLine
 10
921.711783
 20
1866.045191
 30
0.0
 11
920.331175
 21
1867.04432
 31
0.0
  0
LINE
  5
516
100
AcDbEntity
  8
1
370
    30
  6
Continuous
 62
     7
100
AcDbLine
 10
927.234215
 20
1866.045191
 30
0.0
 11
928.489313
 21
1867.045191
 31
0.0
  0
LINE
  5
517
100
AcDbEntity
  8
1
370
    30
  6
Continuous
 62
     7
100
AcDbLine
 10
921.711783
 20
1866.045191
 30
0.0
 11
927.234215
 21
1866.045191
 31
0.0
  0
LINE
  5
518
100
AcDbEntity
  8
1
370
    30
  6
Continuous
 62
     7
100
AcDbLine
 10
910.245443
 20
1864.045191
 30
0.0
 11
938.245443
 21
1864.045191
 31
0.0
  0
INSERT
  5
520
100
AcDbEntity
  8
0
370
    30
  6
Continuous
 62
     7
100
AcDbBlockReference
  2
*G63
 10
0.0
 20
0.0
 30
0.0
  0
INSERT
  5
528
100
AcDbEntity
  8
0
370
    30
  6
Continuous
 62
     7
100
AcDbBlockReference
  2
*G64
 10
0.0
 20
0.0
 30
0.0
  0
CIRCLE
  5
529
100
AcDbEntity
  8
1
370
    30
  6
Continuous
 62
     7
100
AcDbCircle
 10
924.245443
 20
1808.545191
 30
0.0
 40
2.5
  0
CIRCLE
  5
52A
100
AcDbEntity
  8
1
370
    30
  6
Continuous
 62
     7
100
AcDbCircle
 10
924.245443
 20
1828.545191
 30
0.0
 40
2.5
  0
CIRCLE
  5
52B
100
AcDbEntity
  8
1
370
    30
  6
Continuous
 62
     7
100
AcDbCircle
 10
924.245443
 20
1848.545191
 30
0.0
 40
2.5
  0
INSERT
  5
533
100
AcDbEntity
  8
0
370
    30
  6
Continuous
 62
     7
100
AcDbBlockReference
  2
*G65
 10
0.0
 20
0.0
 30
0.0
  0
LINE
  5
534
100
AcDbEntity
  8
1
370
    30
  6
Continuous
 62
     7
100
AcDbLine
 10
879.1608
 20
1738.045191
 30
0.0
 11
909.245443
 21
1738.045191
 31
0.0
  0
LINE
  5
535
100
AcDbEntity
  8
1
370
    30
  6
Continuous
 62
     7
100
AcDbLine
 10
908.245443
 20
1739.045191
 30
0.0
 11
908.245443
 21
1864.045191
 31
0.0
  0
LINE
  5
536
100
AcDbEntity
  8
1
370
    30
  6
Continuous
 62
     7
100
AcDbLine
 10
880.245443
 20
1739.045191
 30
0.0
 11
908.245443
 21
1739.045191
 31
0.0
  0
LINE
  5
537
100
AcDbEntity
  8
1
370
    30
  6
Continuous
 62
     7
100
AcDbLine
 10
880.245443
 20
1864.045191
 30
0.0
 11
880.245443
 21
1739.045191
 31
0.0
  0
LINE
  5
538
100
AcDbEntity
  8
1
370
    30
  6
Continuous
 62
     7
100
AcDbLine
 10
907.283159
 20
1892.142207
 30
0.0
 11
907.283159
 21
1867.045191
 31
0.0
  0
LINE
  5
539
100
AcDbEntity
  8
1
370
    30
  6
Continuous
 62
     7
100
AcDbLine
 10
881.1608
 20
1867.045191
 30
0.0
 11
907.283159
 21
1867.045191
 31
0.0
  0
LINE
  5
53A
100
AcDbEntity
  8
1
370
    30
  6
Continuous
 62
     7
100
AcDbLine
 10
881.1608
 20
1892.142207
 30
0.0
 11
881.1608
 21
1867.045191
 31
0.0
  0
LINE
  5
53B
100
AcDbEntity
  8
1
370
    30
  6
Continuous
 62
     7
100
AcDbLine
 10
881.1608
 20
1892.142207
 30
0.0
 11
907.283159
 21
1892.142207
 31
0.0
  0
LINE
  5
53C
100
AcDbEntity
  8
1
370
    30
  6
Continuous
 62
     7
100
AcDbLine
 10
879.1608
 20
1894.1626
 30
0.0
 11
909.283159
 21
1894.1626
 31
0.0
  0
LINE
  5
53D
100
AcDbEntity
  8
1
370
    30
  6
Continuous
 62
     7
100
AcDbLine
 10
891.711783
 20
1866.045191
 30
0.0
 11
890.331175
 21
1867.04432
 31
0.0
  0
LINE
  5
53E
100
AcDbEntity
  8
1
370
    30
  6
Continuous
 62
     7
100
AcDbLine
 10
897.234215
 20
1866.045191
 30
0.0
 11
898.489313
 21
1867.045191
 31
0.0
  0
LINE
  5
53F
100
AcDbEntity
  8
1
370
    30
  6
Continuous
 62
     7
100
AcDbLine
 10
891.711783
 20
1866.045191
 30
0.0
 11
897.234215
 21
1866.045191
 31
0.0
  0
LINE
  5
540
100
AcDbEntity
  8
1
370
    30
  6
Continuous
 62
     7
100
AcDbLine
 10
880.245443
 20
1864.045191
 30
0.0
 11
908.245443
 21
1864.045191
 31
0.0
  0
INSERT
  5
548
100
AcDbEntity
  8
0
370
    30
  6
Continuous
 62
     7
100
AcDbBlockReference
  2
*G66
 10
0.0
 20
0.0
 30
0.0
  0
INSERT
  5
550
100
AcDbEntity
  8
0
370
    30
  6
Continuous
 62
     7
100
AcDbBlockReference
  2
*G67
 10
0.0
 20
0.0
 30
0.0
  0
CIRCLE
  5
551
100
AcDbEntity
  8
1
370
    30
  6
Continuous
 62
     7
100
AcDbCircle
 10
894.245443
 20
1808.545191
 30
0.0
 40
2.5
  0
CIRCLE
  5
552
100
AcDbEntity
  8
1
370
    30
  6
Continuous
 62
     7
100
AcDbCircle
 10
894.245443
 20
1828.545191
 30
0.0
 40
2.5
  0
CIRCLE
  5
553
100
AcDbEntity
  8
1
370
    30
  6
Continuous
 62
     7
100
AcDbCircle
 10
894.245443
 20
1848.545191
 30
0.0
 40
2.5
  0
INSERT
  5
55B
100
AcDbEntity
  8
0
370
    30
  6
Continuous
 62
     7
100
AcDbBlockReference
  2
*G68
 10
0.0
 20
0.0
 30
0.0
  0
LINE
  5
55C
100
AcDbEntity
  8
1
370
    30
  6
Continuous
 62
     7
100
AcDbLine
 10
849.1608
 20
1738.045191
 30
0.0
 11
879.245443
 21
1738.045191
 31
0.0
  0
LINE
  5
55D
100
AcDbEntity
  8
1
370
    30
  6
Continuous
 62
     7
100
AcDbLine
 10
878.245443
 20
1739.045191
 30
0.0
 11
878.245443
 21
1864.045191
 31
0.0
  0
LINE
  5
55E
100
AcDbEntity
  8
1
370
    30
  6
Continuous
 62
     7
100
AcDbLine
 10
850.245443
 20
1739.045191
 30
0.0
 11
878.245443
 21
1739.045191
 31
0.0
  0
LINE
  5
55F
100
AcDbEntity
  8
1
370
    30
  6
Continuous
 62
     7
100
AcDbLine
 10
850.245443
 20
1864.045191
 30
0.0
 11
850.245443
 21
1739.045191
 31
0.0
  0
LINE
  5
560
100
AcDbEntity
  8
1
370
    30
  6
Continuous
 62
     7
100
AcDbLine
 10
877.283159
 20
1892.142207
 30
0.0
 11
877.283159
 21
1867.045191
 31
0.0
  0
LINE
  5
561
100
AcDbEntity
  8
1
370
    30
  6
Continuous
 62
     7
100
AcDbLine
 10
851.1608
 20
1867.045191
 30
0.0
 11
877.283159
 21
1867.045191
 31
0.0
  0
LINE
  5
562
100
AcDbEntity
  8
1
370
    30
  6
Continuous
 62
     7
100
AcDbLine
 10
851.1608
 20
1892.142207
 30
0.0
 11
851.1608
 21
1867.045191
 31
0.0
  0
LINE
  5
563
100
AcDbEntity
  8
1
370
    30
  6
Continuous
 62
     7
100
AcDbLine
 10
851.1608
 20
1892.142207
 30
0.0
 11
877.283159
 21
1892.142207
 31
0.0
  0
LINE
  5
564
100
AcDbEntity
  8
1
370
    30
  6
Continuous
 62
     7
100
AcDbLine
 10
849.1608
 20
1894.1626
 30
0.0
 11
879.283159
 21
1894.1626
 31
0.0
  0
LINE
  5
565
100
AcDbEntity
  8
1
370
    30
  6
Continuous
 62
     7
100
AcDbLine
 10
861.711783
 20
1866.045191
 30
0.0
 11
860.331175
 21
1867.04432
 31
0.0
  0
LINE
  5
566
100
AcDbEntity
  8
1
370
    30
  6
Continuous
 62
     7
100
AcDbLine
 10
867.234215
 20
1866.045191
 30
0.0
 11
868.489313
 21
1867.045191
 31
0.0
  0
LINE
  5
567
100
AcDbEntity
  8
1
370
    30
  6
Continuous
 62
     7
100
AcDbLine
 10
861.711783
 20
1866.045191
 30
0.0
 11
867.234215
 21
1866.045191
 31
0.0
  0
LINE
  5
568
100
AcDbEntity
  8
1
370
    30
  6
Continuous
 62
     7
100
AcDbLine
 10
850.245443
 20
1864.045191
 30
0.0
 11
878.245443
 21
1864.045191
 31
0.0
  0
INSERT
  5
570
100
AcDbEntity
  8
0
370
    30
  6
Continuous
 62
     7
100
AcDbBlockReference
  2
*G69
 10
0.0
 20
0.0
 30
0.0
  0
INSERT
  5
578
100
AcDbEntity
  8
0
370
    30
  6
Continuous
 62
     7
100
AcDbBlockReference
  2
*G70
 10
0.0
 20
0.0
 30
0.0
  0
CIRCLE
  5
579
100
AcDbEntity
  8
1
370
    30
  6
Continuous
 62
     7
100
AcDbCircle
 10
864.245443
 20
1808.545191
 30
0.0
 40
2.5
  0
CIRCLE
  5
57A
100
AcDbEntity
  8
1
370
    30
  6
Continuous
 62
     7
100
AcDbCircle
 10
864.245443
 20
1828.545191
 30
0.0
 40
2.5
  0
CIRCLE
  5
57B
100
AcDbEntity
  8
1
370
    30
  6
Continuous
 62
     7
100
AcDbCircle
 10
864.245443
 20
1848.545191
 30
0.0
 40
2.5
  0
INSERT
  5
583
100
AcDbEntity
  8
0
370
    30
  6
Continuous
 62
     7
100
AcDbBlockReference
  2
*G71
 10
0.0
 20
0.0
 30
0.0
  0
LINE
  5
584
100
AcDbEntity
  8
1
370
    30
  6
Continuous
 62
     7
100
AcDbLine
 10
819.1608
 20
1738.045191
 30
0.0
 11
849.245443
 21
1738.045191
 31
0.0
  0
LINE
  5
585
100
AcDbEntity
  8
1
370
    30
  6
Continuous
 62
     7
100
AcDbLine
 10
848.245443
 20
1739.045191
 30
0.0
 11
848.245443
 21
1864.045191
 31
0.0
  0
LINE
  5
586
100
AcDbEntity
  8
1
370
    30
  6
Continuous
 62
     7
100
AcDbLine
 10
820.245443
 20
1739.045191
 30
0.0
 11
848.245443
 21
1739.045191
 31
0.0
  0
LINE
  5
587
100
AcDbEntity
  8
1
370
    30
  6
Continuous
 62
     7
100
AcDbLine
 10
820.245443
 20
1864.045191
 30
0.0
 11
820.245443
 21
1739.045191
 31
0.0
  0
LINE
  5
588
100
AcDbEntity
  8
1
370
    30
  6
Continuous
 62
     7
100
AcDbLine
 10
847.283159
 20
1892.142207
 30
0.0
 11
847.283159
 21
1867.045191
 31
0.0
  0
LINE
  5
589
100
AcDbEntity
  8
1
370
    30
  6
Continuous
 62
     7
100
AcDbLine
 10
821.1608
 20
1867.045191
 30
0.0
 11
847.283159
 21
1867.045191
 31
0.0
  0
LINE
  5
58A
100
AcDbEntity
  8
1
370
    30
  6
Continuous
 62
     7
100
AcDbLine
 10
821.1608
 20
1892.142207
 30
0.0
 11
821.1608
 21
1867.045191
 31
0.0
  0
LINE
  5
58B
100
AcDbEntity
  8
1
370
    30
  6
Continuous
 62
     7
100
AcDbLine
 10
821.1608
 20
1892.142207
 30
0.0
 11
847.283159
 21
1892.142207
 31
0.0
  0
LINE
  5
58C
100
AcDbEntity
  8
1
370
    30
  6
Continuous
 62
     7
100
AcDbLine
 10
819.1608
 20
1894.1626
 30
0.0
 11
849.283159
 21
1894.1626
 31
0.0
  0
LINE
  5
58D
100
AcDbEntity
  8
1
370
    30
  6
Continuous
 62
     7
100
AcDbLine
 10
831.711783
 20
1866.045191
 30
0.0
 11
830.331175
 21
1867.04432
 31
0.0
  0
LINE
  5
58E
100
AcDbEntity
  8
1
370
    30
  6
Continuous
 62
     7
100
AcDbLine
 10
837.234215
 20
1866.045191
 30
0.0
 11
838.489313
 21
1867.045191
 31
0.0
  0
LINE
  5
58F
100
AcDbEntity
  8
1
370
    30
  6
Continuous
 62
     7
100
AcDbLine
 10
831.711783
 20
1866.045191
 30
0.0
 11
837.234215
 21
1866.045191
 31
0.0
  0
LINE
  5
590
100
AcDbEntity
  8
1
370
    30
  6
Continuous
 62
     7
100
AcDbLine
 10
820.245443
 20
1864.045191
 30
0.0
 11
848.245443
 21
1864.045191
 31
0.0
  0
INSERT
  5
598
100
AcDbEntity
  8
0
370
    30
  6
Continuous
 62
     7
100
AcDbBlockReference
  2
*G72
 10
0.0
 20
0.0
 30
0.0
  0
INSERT
  5
5A0
100
AcDbEntity
  8
0
370
    30
  6
Continuous
 62
     7
100
AcDbBlockReference
  2
*G73
 10
0.0
 20
0.0
 30
0.0
  0
CIRCLE
  5
5A1
100
AcDbEntity
  8
1
370
    30
  6
Continuous
 62
     7
100
AcDbCircle
 10
834.245443
 20
1808.545191
 30
0.0
 40
2.5
  0
CIRCLE
  5
5A2
100
AcDbEntity
  8
1
370
    30
  6
Continuous
 62
     7
100
AcDbCircle
 10
834.245443
 20
1828.545191
 30
0.0
 40
2.5
  0
CIRCLE
  5
5A3
100
AcDbEntity
  8
1
370
    30
  6
Continuous
 62
     7
100
AcDbCircle
 10
834.245443
 20
1848.545191
 30
0.0
 40
2.5
  0
INSERT
  5
5AB
100
AcDbEntity
  8
0
370
    30
  6
Continuous
 62
     7
100
AcDbBlockReference
  2
*G74
 10
0.0
 20
0.0
 30
0.0
  0
LINE
  5
5AC
100
AcDbEntity
  8
1
370
    30
  6
Continuous
 62
     7
100
AcDbLine
 10
818.245443
 20
1739.045191
 30
0.0
 11
818.245443
 21
1864.045191
 31
0.0
  0
LINE
  5
5AD
100
AcDbEntity
  8
1
370
    30
  6
Continuous
 62
     7
100
AcDbLine
 10
790.245443
 20
1739.045191
 30
0.0
 11
818.245443
 21
1739.045191
 31
0.0
  0
LINE
  5
5AE
100
AcDbEntity
  8
1
370
    30
  6
Continuous
 62
     7
100
AcDbLine
 10
790.245443
 20
1864.045191
 30
0.0
 11
790.245443
 21
1739.045191
 31
0.0
  0
LINE
  5
5AF
100
AcDbEntity
  8
1
370
    30
  6
Continuous
 62
     7
100
AcDbLine
 10
817.283159
 20
1892.142207
 30
0.0
 11
817.283159
 21
1867.045191
 31
0.0
  0
LINE
  5
5B0
100
AcDbEntity
  8
1
370
    30
  6
Continuous
 62
     7
100
AcDbLine
 10
791.1608
 20
1867.045191
 30
0.0
 11
817.283159
 21
1867.045191
 31
0.0
  0
LINE
  5
5B1
100
AcDbEntity
  8
1
370
    30
  6
Continuous
 62
     7
100
AcDbLine
 10
791.1608
 20
1892.142207
 30
0.0
 11
791.1608
 21
1867.045191
 31
0.0
  0
LINE
  5
5B2
100
AcDbEntity
  8
1
370
    30
  6
Continuous
 62
     7
100
AcDbLine
 10
791.1608
 20
1892.142207
 30
0.0
 11
817.283159
 21
1892.142207
 31
0.0
  0
LINE
  5
5B3
100
AcDbEntity
  8
1
370
    30
  6
Continuous
 62
     7
100
AcDbLine
 10
801.711783
 20
1866.045191
 30
0.0
 11
800.331175
 21
1867.04432
 31
0.0
  0
LINE
  5
5B4
100
AcDbEntity
  8
1
370
    30
  6
Continuous
 62
     7
100
AcDbLine
 10
807.234215
 20
1866.045191
 30
0.0
 11
808.489313
 21
1867.045191
 31
0.0
  0
LINE
  5
5B5
100
AcDbEntity
  8
1
370
    30
  6
Continuous
 62
     7
100
AcDbLine
 10
801.711783
 20
1866.045191
 30
0.0
 11
807.234215
 21
1866.045191
 31
0.0
  0
LINE
  5
5B6
100
AcDbEntity
  8
1
370
    30
  6
Continuous
 62
     7
100
AcDbLine
 10
790.245443
 20
1864.045191
 30
0.0
 11
818.245443
 21
1864.045191
 31
0.0
  0
INSERT
  5
5BE
100
AcDbEntity
  8
0
370
    30
  6
Continuous
 62
     7
100
AcDbBlockReference
  2
*G75
 10
0.0
 20
0.0
 30
0.0
  0
INSERT
  5
5C6
100
AcDbEntity
  8
0
370
    30
  6
Continuous
 62
     7
100
AcDbBlockReference
  2
*G76
 10
0.0
 20
0.0
 30
0.0
  0
CIRCLE
  5
5C7
100
AcDbEntity
  8
1
370
    30
  6
Continuous
 62
     7
100
AcDbCircle
 10
804.245443
 20
1808.545191
 30
0.0
 40
2.5
  0
CIRCLE
  5
5C8
100
AcDbEntity
  8
1
370
    30
  6
Continuous
 62
     7
100
AcDbCircle
 10
804.245443
 20
1828.545191
 30
0.0
 40
2.5
  0
CIRCLE
  5
5C9
100
AcDbEntity
  8
1
370
    30
  6
Continuous
 62
     7
100
AcDbCircle
 10
804.245443
 20
1848.545191
 30
0.0
 40
2.5
  0
INSERT
  5
5D1
100
AcDbEntity
  8
0
370
    30
  6
Continuous
 62
     7
100
AcDbBlockReference
  2
*G77
 10
0.0
 20
0.0
 30
0.0
  0
LINE
  5
5D2
100
AcDbEntity
  8
1
370
    30
  6
Continuous
 62
     7
100
AcDbLine
 10
789.245443
 20
1894.1626
 30
0.0
 11
819.283159
 21
1894.1626
 31
0.0
  0
LINE
  5
5D3
100
AcDbEntity
  8
1
370
    30
  6
Continuous
 62
     7
100
AcDbLine
 10
789.245443
 20
1738.045191
 30
0.0
 11
819.245443
 21
1738.045191
 31
0.0
  0
LINE
  5
5D4
100
AcDbEntity
  8
1
370
    30
  6
Continuous
 62
     7
100
AcDbLine
 10
909.1608
 20
1894.1626
 30
0.0
 11
939.245443
 21
1894.1626
 31
0.0
  0
LINE
  5
5D5
100
AcDbEntity
  8
1
370
    30
  6
Continuous
 62
     7
100
AcDbLine
 10
1059.1608
 20
1738.045191
 30
0.0
 11
1089.245443
 21
1738.045191
 31
0.0
  0
INSERT
  5
5DD
100
AcDbEntity
  8
0
370
    30
  6
Continuous
 62
     7
100
AcDbBlockReference
  2
*G78
 10
0.0
 20
0.0
 30
0.0
  0
LINE
  5
5DE
100
AcDbEntity
  8
1
370
    30
  6
Continuous
 62
     7
100
AcDbLine
 10
1029.1608
 20
1738.045191
 30
0.0
 11
1059.245443
 21
1738.045191
 31
0.0
  0
LINE
  5
5DF
100
AcDbEntity
  8
1
370
    30
  6
Continuous
 62
     7
100
AcDbLine
 10
1029.1608
 20
1894.1626
 30
0.0
 11
1059.283159
 21
1894.1626
 31
0.0
  0
INSERT
  5
5E7
100
AcDbEntity
  8
0
370
    30
  6
Continuous
 62
     7
100
AcDbBlockReference
  2
*G79
 10
0.0
 20
0.0
 30
0.0
  0
LINE
  5
5E8
100
AcDbEntity
  8
1
370
    30
  6
Continuous
 62
     7
100
AcDbLine
 10
999.1608
 20
1738.045191
 30
0.0
 11
1029.245443
 21
1738.045191
 31
0.0
  0
LINE
  5
5E9
100
AcDbEntity
  8
1
370
    30
  6
Continuous
 62
     7
100
AcDbLine
 10
999.1608
 20
1894.1626
 30
0.0
 11
1029.283159
 21
1894.1626
 31
0.0
  0
INSERT
  5
5F1
100
AcDbEntity
  8
0
370
    30
  6
Continuous
 62
     7
100
AcDbBlockReference
  2
*G80
 10
0.0
 20
0.0
 30
0.0
  0
LINE
  5
5F2
100
AcDbEntity
  8
1
370
    30
  6
Continuous
 62
     7
100
AcDbLine
 10
969.1608
 20
1738.045191
 30
0.0
 11
999.245443
 21
1738.045191
 31
0.0
  0
LINE
  5
5F3
100
AcDbEntity
  8
1
370
    30
  6
Continuous
 62
     7
100
AcDbLine
 10
969.1608
 20
1894.1626
 30
0.0
 11
999.283159
 21
1894.1626
 31
0.0
  0
INSERT
  5
5FB
100
AcDbEntity
  8
0
370
    30
  6
Continuous
 62
     7
100
AcDbBlockReference
  2
*G81
 10
0.0
 20
0.0
 30
0.0
  0
INSERT
  5
603
100
AcDbEntity
  8
0
370
    30
  6
Continuous
 62
     7
100
AcDbBlockReference
  2
*G82
 10
0.0
 20
0.0
 30
0.0
  0
LINE
  5
604
100
AcDbEntity
  8
1
370
    30
  6
Continuous
 62
     7
100
AcDbLine
 10
939.245443
 20
1894.1626
 30
0.0
 11
969.283159
 21
1894.1626
 31
0.0
  0
LINE
  5
605
100
AcDbEntity
  8
1
370
    30
  6
Continuous
 62
     7
100
AcDbLine
 10
939.245443
 20
1738.045191
 30
0.0
 11
969.245443
 21
1738.045191
 31
0.0
  0
LINE
  5
606
100
AcDbEntity
  8
1
370
    30
  6
Continuous
 62
     7
100
AcDbLine
 10
1059.1608
 20
1894.1626
 30
0.0
 11
1089.245443
 21
1894.1626
 31
0.0
  0
CIRCLE
  5
607
100
AcDbEntity
  8
1
370
    30
  6
Continuous
 62
     7
100
AcDbCircle
 10
950.745443
 20
1702.045191
 30
0.0
 40
1.0
  0
CIRCLE
  5
608
100
AcDbEntity
  8
1
370
    30
  6
Continuous
 62
     7
100
AcDbCircle
 10
945.745443
 20
1697.045191
 30
0.0
 40
1.0
  0
CIRCLE
  5
609
100
AcDbEntity
  8
1
370
    30
  6
Continuous
 62
     7
100
AcDbCircle
 10
940.745443
 20
1702.045191
 30
0.0
 40
1.0
  0
CIRCLE
  5
60A
100
AcDbEntity
  8
1
370
    30
  6
Continuous
 62
     7
100
AcDbCircle
 10
945.745443
 20
1707.045191
 30
0.0
 40
1.0
  0
CIRCLE
  5
60B
100
AcDbEntity
  8
1
370
    30
  6
Continuous
 62
     7
100
AcDbCircle
 10
945.745443
 20
1702.045191
 30
0.0
 40
1.0
  0
LINE
  5
60C
100
AcDbEntity
  8
1
370
    30
  6
Continuous
 62
     7
100
AcDbLine
 10
1086.245443
 20
1716.045191
 30
0.0
 11
961.245443
 21
1716.045191
 31
0.0
  0
LINE
  5
60D
100
AcDbEntity
  8
1
370
    30
  6
Continuous
 62
     7
100
AcDbLine
 10
1086.245443
 20
1688.045191
 30
0.0
 11
1086.245443
 21
1716.045191
 31
0.0
  0
LINE
  5
60E
100
AcDbEntity
  8
1
370
    30
  6
Continuous
 62
     7
100
AcDbLine
 10
961.245443
 20
1688.045191
 30
0.0
 11
1086.245443
 21
1688.045191
 31
0.0
  0
LINE
  5
60F
100
AcDbEntity
  8
1
370
    30
  6
Continuous
 62
     7
100
AcDbLine
 10
933.148427
 20
1715.082907
 30
0.0
 11
958.245443
 21
1715.082907
 31
0.0
  0
LINE
  5
610
100
AcDbEntity
  8
1
370
    30
  6
Continuous
 62
     7
100
AcDbLine
 10
958.245443
 20
1688.960548
 30
0.0
 11
958.245443
 21
1715.082907
 31
0.0
  0
LINE
  5
611
100
AcDbEntity
  8
1
370
    30
  6
Continuous
 62
     7
100
AcDbLine
 10
933.148427
 20
1688.960548
 30
0.0
 11
958.245443
 21
1688.960548
 31
0.0
  0
LINE
  5
612
100
AcDbEntity
  8
1
370
    30
  6
Continuous
 62
     7
100
AcDbLine
 10
933.148427
 20
1688.960548
 30
0.0
 11
933.148427
 21
1715.082907
 31
0.0
  0
LINE
  5
613
100
AcDbEntity
  8
1
370
    30
  6
Continuous
 62
     7
100
AcDbLine
 10
961.245443
 20
1688.045191
 30
0.0
 11
961.245443
 21
1716.045191
 31
0.0
  0
INSERT
  5
61B
100
AcDbEntity
  8
0
370
    30
  6
Continuous
 62
     7
100
AcDbBlockReference
  2
*G83
 10
0.0
 20
0.0
 30
0.0
  0
INSERT
  5
623
100
AcDbEntity
  8
0
370
    30
  6
Continuous
 62
     7
100
AcDbBlockReference
  2
*G84
 10
0.0
 20
0.0
 30
0.0
  0
CIRCLE
  5
624
100
AcDbEntity
  8
1
370
    30
  6
Continuous
 62
     7
100
AcDbCircle
 10
1016.745443
 20
1702.045191
 30
0.0
 40
2.5
  0
CIRCLE
  5
625
100
AcDbEntity
  8
1
370
    30
  6
Continuous
 62
     7
100
AcDbCircle
 10
996.745443
 20
1702.045191
 30
0.0
 40
2.5
  0
CIRCLE
  5
626
100
AcDbEntity
  8
1
370
    30
  6
Continuous
 62
     7
100
AcDbCircle
 10
976.745443
 20
1702.045191
 30
0.0
 40
2.5
  0
INSERT
  5
62E
100
AcDbEntity
  8
0
370
    30
  6
Continuous
 62
     7
100
AcDbBlockReference
  2
*G85
 10
0.0
 20
0.0
 30
0.0
  0
LINE
  5
62F
100
AcDbEntity
  8
1
370
    30
  6
Continuous
 62
     7
100
AcDbLine
 10
931.128034
 20
1687.045191
 30
0.0
 11
931.128034
 21
1717.045191
 31
0.0
  0
LINE
  5
630
100
AcDbEntity
  8
1
370
    30
  6
Continuous
 62
     7
100
AcDbLine
 10
1087.245443
 20
1687.045191
 30
0.0
 11
1087.245443
 21
1717.045191
 31
0.0
  0
DIMENSION
  5
63C
100
AcDbEntity
  8
2
370
     9
  6
Continuous
 62
   214
100
AcDbDimension
  2
*D86
 10
689.245443
 20
2432.045029
 30
0.0
 11
939.245443
 21
2437.045029
 31
0.0
 71
     5
 72
     1
 41
1.0
 42
0.0
  1
500
100
AcDbAlignedDimension
 13
689.245443
 23
2344.985436
 33
0.0
 14
1189.245443
 24
2344.985436
 34
0.0
100
AcDbRotatedDimension
  0
DIMENSION
  5
648
100
AcDbEntity
  8
2
370
     9
  6
Continuous
 62
   214
100
AcDbDimension
  2
*D87
 10
1289.245443
 20
2332.045029
 30
0.0
 11
1284.245443
 21
1982.045029
 31
0.0
 71
     5
 72
     1
 41
1.0
 42
0.0
  1
700
100
AcDbAlignedDimension
 13
1196.502269
 23
2332.045029
 33
0.0
 14
1194.252612
 24
1632.045029
 34
0.0
 50
90.0
100
AcDbRotatedDimension
  0
LINE
  5
649
100
AcDbEntity
  8
25
370
    30
  6
Continuous
 62
     7
100
AcDbLine
 10
2039.27472
 20
2332.045029
 30
0.0
 11
2539.27472
 21
2332.045029
 31
0.0
  0
LINE
  5
64A
100
AcDbEntity
  8
25
370
    30
  6
Continuous
 62
     7
100
AcDbLine
 10
2539.27472
 20
2332.045029
 30
0.0
 11
2539.27472
 21
1632.045029
 31
0.0
  0
LINE
  5
64B
100
AcDbEntity
  8
25
370
    30
  6
Continuous
 62
     7
100
AcDbLine
 10
2539.27472
 20
1632.045029
 30
0.0
 11
2039.27472
 21
1632.045029
 31
0.0
  0
LINE
  5
64C
100
AcDbEntity
  8
25
370
    30
  6
Continuous
 62
     7
100
AcDbLine
 10
2039.27472
 20
1632.045029
 30
0.0
 11
2039.27472
 21
2332.045029
 31
0.0
  0
CIRCLE
  5
64D
100
AcDbEntity
  8
1
370
    30
  6
Continuous
 62
     7
100
AcDbCircle
 10
2059.27472
 20
1692.045029
 30
0.0
 40
8.0
  0
LINE
  5
64E
100
AcDbEntity
  8
8
370
     9
  6
CENTER
 62
     6
100
AcDbLine
 10
2059.27472
 20
1710.148983
 30
0.0
 11
2059.27472
 21
1673.951565
 31
0.0
  0
LINE
  5
64F
100
AcDbEntity
  8
8
370
     9
  6
CENTER
 62
     6
100
AcDbLine
 10
2044.923916
 20
1692.045029
 30
0.0
 11
2083.90575
 21
1692.045029
 31
0.0
  0
CIRCLE
  5
650
100
AcDbEntity
  8
1
370
    30
  6
Continuous
 62
     7
100
AcDbCircle
 10
2519.27472
 20
1692.045029
 30
0.0
 40
8.0
  0
LINE
  5
651
100
AcDbEntity
  8
8
370
     9
  6
CENTER
 62
     6
100
AcDbLine
 10
2519.27472
 20
1710.148983
 30
0.0
 11
2519.27472
 21
1673.951565
 31
0.0
  0
LINE
  5
652
100
AcDbEntity
  8
8
370
     9
  6
CENTER
 62
     6
100
AcDbLine
 10
2504.923916
 20
1692.045029
 30
0.0
 11
2543.90575
 21
1692.045029
 31
0.0
  0
CIRCLE
  5
653
100
AcDbEntity
  8
1
370
    30
  6
Continuous
 62
     7
100
AcDbCircle
 10
2059.27472
 20
2272.045029
 30
0.0
 40
8.0
  0
LINE
  5
654
100
AcDbEntity
  8
8
370
     9
  6
CENTER
 62
     6
100
AcDbLine
 10
2059.27472
 20
2290.148983
 30
0.0
 11
2059.27472
 21
2253.951565
 31
0.0
  0
LINE
  5
655
100
AcDbEntity
  8
8
370
     9
  6
CENTER
 62
     6
100
AcDbLine
 10
2044.923916
 20
2272.045029
 30
0.0
 11
2083.90575
 21
2272.045029
 31
0.0
  0
CIRCLE
  5
656
100
AcDbEntity
  8
1
370
    30
  6
Continuous
 62
     7
100
AcDbCircle
 10
2519.27472
 20
2272.045029
 30
0.0
 40
8.0
  0
LINE
  5
657
100
AcDbEntity
  8
8
370
     9
  6
CENTER
 62
     6
100
AcDbLine
 10
2519.27472
 20
2290.148983
 30
0.0
 11
2519.27472
 21
2253.951565
 31
0.0
  0
LINE
  5
658
100
AcDbEntity
  8
8
370
     9
  6
CENTER
 62
     6
100
AcDbLine
 10
2504.923916
 20
2272.045029
 30
0.0
 11
2543.90575
 21
2272.045029
 31
0.0
  0
DIMENSION
  5
664
100
AcDbEntity
  8
2
370
     9
  6
Continuous
 62
   214
100
AcDbDimension
  2
*D88
 10
2059.27472
 20
2432.045029
 30
0.0
 11
2289.27472
 21
2437.045029
 31
0.0
 71
     5
 72
     1
 41
1.0
 42
0.0
  1
460
100
AcDbAlignedDimension
 13
2059.27472
 23
2309.233348
 33
0.0
 14
2519.27472
 24
2308.097719
 34
0.0
100
AcDbRotatedDimension
  0
DIMENSION
  5
670
100
AcDbEntity
  8
2
370
     9
  6
Continuous
 62
   214
100
AcDbDimension
  2
*D89
 10
2639.27472
 20
2272.045029
 30
0.0
 11
2634.27472
 21
1982.045029
 31
0.0
 71
     5
 72
     1
 41
1.0
 42
0.0
  1
580
100
AcDbAlignedDimension
 13
2561.725876
 23
2272.045029
 33
0.0
 14
2562.319282
 24
1692.045029
 34
0.0
 50
90.0
100
AcDbRotatedDimension
  0
TEXT
  5
671
100
AcDbEntity
  8
15
370
     9
  6
PHANTOM
 62
    96
100
AcDbText
 10
3460.260114
 20
2568.121112
 30
0.0
 40
30.018931
  1
S12-57C（日東工業（株）製）
 41
0.766667
 11
3460.260114
 21
2568.121112
 31
0.0
100
AcDbText
 73
     1
  0
LINE
  5
672
100
AcDbEntity
  8
2
370
     9
  6
Continuous
 62
   214
100
AcDbLine
 10
734.476504
 20
2023.37868
 30
0.0
 11
716.732616
 21
2039.538953
 31
0.0
  0
LINE
  5
673
100
AcDbEntity
  8
2
370
     9
  6
Continuous
 62
   214
100
AcDbLine
 10
734.476504
 20
2023.37868
 30
0.0
 11
727.189983
 21
2046.245831
 31
0.0
  0
POLYLINE
  5
674
100
AcDbEntity
  8
2
370
     9
  6
Continuous
 62
   214
100
AcDb2dPolyline
 66
     1
 10
0.0
 20
0.0
 30
0.0
  0
VERTEX
  5
675
100
AcDbEntity
  8
2
370
     9
  6
Continuous
 62
   214
100
AcDbVertex
100
AcDb2dVertex
 10
734.476504
 20
2023.37868
 30
0.0
  0
VERTEX
  5
676
100
AcDbEntity
  8
2
370
     9
  6
Continuous
 62
   214
100
AcDbVertex
100
AcDb2dVertex
 10
652.263629
 20
2151.565028
 30
0.0
  0
VERTEX
  5
677
100
AcDbEntity
  8
2
370
     9
  6
Continuous
 62
   214
100
AcDbVertex
100
AcDb2dVertex
 10
462.263629
 20
2151.565028
 30
0.0
  0
SEQEND
  5
678
100
AcDbEntity
  8
2
370
     9
  6
Continuous
 62
   214
  0
TEXT
  5
679
100
AcDbEntity
  8
2
370
     9
  6
Continuous
 62
   214
100
AcDbText
 10
462.263629
 20
2156.565028
 30
0.0
 40
30.0
  1
平面ハンドル
 41
0.87963
 11
462.263629
 21
2156.565028
 31
0.0
100
AcDbText
 73
     1
  0
LINE
  5
67A
100
AcDbEntity
  8
2
370
     9
  6
Continuous
 62
   214
100
AcDbLine
 10
2525.35702
 20
2277.241723
 30
0.0
 11
2535.983663
 21
2298.760888
 31
0.0
  0
LINE
  5
67B
100
AcDbEntity
  8
2
370
     9
  6
Continuous
 62
   214
100
AcDbLine
 10
2525.35702
 20
2277.241723
 30
0.0
 11
2545.319545
 21
2290.564545
 31
0.0
  0
POLYLINE
  5
67C
100
AcDbEntity
  8
2
370
     9
  6
Continuous
 62
   214
100
AcDb2dPolyline
 66
     1
 10
0.0
 20
0.0
 30
0.0
  0
VERTEX
  5
67D
100
AcDbEntity
  8
2
370
     9
  6
Continuous
 62
   214
100
AcDbVertex
100
AcDb2dVertex
 10
2525.35702
 20
2277.241723
 30
0.0
  0
VERTEX
  5
67E
100
AcDbEntity
  8
2
370
     9
  6
Continuous
 62
   214
100
AcDbVertex
100
AcDb2dVertex
 10
2619.506427
 20
2384.480742
 30
0.0
  0
VERTEX
  5
67F
100
AcDbEntity
  8
2
370
     9
  6
Continuous
 62
   214
100
AcDbVertex
100
AcDb2dVertex
 10
2777.506427
 20
2384.480742
 30
0.0
  0
SEQEND
  5
680
100
AcDbEntity
  8
2
370
     9
  6
Continuous
 62
   214
  0
TEXT
  5
681
100
AcDbEntity
  8
2
370
     9
  6
Continuous
 62
   214
100
AcDbText
 10
2619.506427
 20
2389.480742
 30
0.0
 40
30.0
  1
４－Φ１６
 41
0.877778
 11
2619.506427
 21
2389.480742
 31
0.0
100
AcDbText
 73
     1
  0
TEXT
  5
682
100
AcDbEntity
  8
15
370
     9
  6
PHANTOM
 62
    96
100
AcDbText
 10
3567.82795
 20
2678.222987
 30
0.0
 40
30.018931
  1
０５０４２４６
 41
0.880952
 11
3567.82795
 21
2678.222987
 31
0.0
100
AcDbText
 73
     1
  0
TEXT
  5
683
100
AcDbEntity
  8
15
370
     9
  6
Continuous
 62
    96
100
AcDbText
 10
3630.867705
 20
2237.81549
 30
0.0
 40
30.018931
  1
約24kg
 41
0.615385
 11
3630.867705
 21
2237.81549
 31
0.0
100
AcDbText
 73
     1
  0
TEXT
  5
684
100
AcDbEntity
  8
15
370
     9
  6
Continuous
 62
    96
100
AcDbText
 10
3934.367964
 20
1963.727871
 30
0.0
 40
30.018931
  1
25点
 41
0.666667
 11
3934.367964
 21
1963.727871
 31
0.0
100
AcDbText
 73
     1
  0
TEXT
  5
685
100
AcDbEntity
  8
15
370
     9
  6
Continuous
 62
    96
100
AcDbText
 10
3933.503705
 20
1911.250498
 30
0.0
 40
30.018931
  1
25点
 41
0.666667
 11
3933.503705
 21
1911.250498
 31
0.0
100
AcDbText
 73
     1
  0
TEXT
  5
686
100
AcDbEntity
  8
15
370
     9
  6
Continuous
 62
    96
100
AcDbText
 10
3933.908883
 20
1851.494419
 30
0.0
 40
30.018931
  1
25点
 41
0.666667
 11
3933.908883
 21
1851.494419
 31
0.0
100
AcDbText
 73
     1
  0
TEXT
  5
687
100
AcDbEntity
  8
15
370
     9
  6
Continuous
 62
    96
100
AcDbText
 10
3320.629984
 20
523.732445
 30
0.0
 40
50.031552
  1
ＳＵＢ－Ｌ２５ＮＢ
 41
0.862963
 11
3320.629984
 21
523.732445
 31
0.0
100
AcDbText
 73
     1
  0
LINE
  5
688
100
AcDbEntity
  8
3
370
     9
  6
HIDDEN
 62
   216
100
AcDbLine
 10
2289.27472
 20
2355.732443
 30
0.0
 11
2289.27472
 21
1623.880591
 31
0.0
  0
LINE
  5
689
100
AcDbEntity
  8
3
370
     9
  6
HIDDEN
 62
   216
100
AcDbLine
 10
2000.418974
 20
1982.045029
 30
0.0
 11
2573.25848
 21
1982.045029
 31
0.0
  0
INSERT
  5
691
100
AcDbEntity
  8
0
370
    30
  6
Continuous
 62
    14
100
AcDbBlockReference
  2
*G90
 10
0.0
 20
0.0
 30
0.0
  0
DIMENSION
  5
69D
100
AcDbEntity
  8
2
370
     9
  6
Continuous
 62
   214
100
AcDbDimension
  2
*D91
 10
1916.028591
 20
1697.045029
 30
0.0
 11
1911.028591
 21
1677.045029
 31
0.0
 71
     5
 72
     1
 41
1.0
 42
0.0
  1
40
100
AcDbAlignedDimension
 13
2173.925254
 23
1697.045029
 33
0.0
 14
2174.51053
 24
1657.045029
 34
0.0
 50
90.0
100
AcDbRotatedDimension
  0
DIMENSION
  5
6A9
100
AcDbEntity
  8
2
370
     9
  6
Continuous
 62
   214
100
AcDbDimension
  2
*D92
 10
2189.274737
 20
1573.05003
 30
0.0
 11
2289.274737
 21
1578.05003
 31
0.0
 71
     5
 72
     1
 41
1.0
 42
0.0
  1
200
100
AcDbAlignedDimension
 13
2189.274737
 23
1638.879764
 33
0.0
 14
2389.274737
 24
1638.41913
 34
0.0
100
AcDbRotatedDimension
  0
LINE
  5
6AA
100
AcDbEntity
  8
3
370
     9
  6
HIDDEN
 62
   216
100
AcDbLine
 10
2179.184424
 20
1677.045029
 30
0.0
 11
2401.735864
 21
1677.045029
 31
0.0
  0
DIMENSION
  5
6B6
100
AcDbEntity
  8
2
370
     9
  6
Continuous
 62
   214
100
AcDbDimension
  2
*D93
 10
2443.403131
 20
1677.045029
 30
0.0
 11
2438.403131
 21
1654.545029
 31
0.0
 71
     5
 72
     1
 41
1.0
 42
0.0
  1
45
100
AcDbAlignedDimension
 13
2423.864443
 23
1677.045029
 33
0.0
 14
2423.864443
 24
1632.045029
 34
0.0
 50
90.0
100
AcDbRotatedDimension
  0
LINE
  5
6B7
100
AcDbEntity
  8
15
370
    30
  6
Continuous
 62
    96
100
AcDbLine
 10
3103.34868
 20
1454.586368
 30
0.0
 11
4004.149956
 21
1454.586368
 31
0.0
  0
LINE
  5
6B8
100
AcDbEntity
  8
15
370
     9
  6
Continuous
 62
    96
100
AcDbLine
 10
3103.383515
 20
1399.535431
 30
0.0
 11
4004.184791
 21
1399.535431
 31
0.0
  0
LINE
  5
6B9
100
AcDbEntity
  8
15
370
     9
  6
Continuous
 62
    96
100
AcDbLine
 10
3103.383515
 20
1344.484494
 30
0.0
 11
4004.184791
 21
1344.484494
 31
0.0
  0
LINE
  5
6BA
100
AcDbEntity
  8
15
370
     9
  6
Continuous
 62
    96
100
AcDbLine
 10
3103.313845
 20
1289.433557
 30
0.0
 11
4004.115121
 21
1289.433557
 31
0.0
  0
LINE
  5
6BB
100
AcDbEntity
  8
15
370
     9
  6
Continuous
 62
    96
100
AcDbLine
 10
3103.383515
 20
1234.382619
 30
0.0
 11
4004.184791
 21
1234.382619
 31
0.0
  0
TEXT
  5
6BC
100
AcDbEntity
  8
15
370
     9
  6
Continuous
 62
    96
100
AcDbText
 10
3931.672714
 20
1246.898622
 30
0.0
 40
30.018931
  1
１点
 41
0.861111
 11
3931.672714
 21
1246.898622
 31
0.0
100
AcDbText
 73
     1
  0
TEXT
  5
6BD
100
AcDbEntity
  8
15
370
     9
  6
Continuous
 62
    96
100
AcDbText
 10
3931.603044
 20
1191.847685
 30
0.0
 40
30.018931
  1
１点
 41
0.861111
 11
3931.603044
 21
1191.847685
 31
0.0
100
AcDbText
 73
     1
  0
LINE
  5
6BE
100
AcDbEntity
  8
15
370
     9
  6
Continuous
 62
    96
100
AcDbLine
 10
3352.177838
 20
1729.841053
 30
0.0
 11
3352.177838
 21
1454.584572
 31
0.0
  0
LINE
  5
6BF
100
AcDbEntity
  8
15
370
     9
  6
Continuous
 62
    96
100
AcDbLine
 10
3922.705732
 20
1729.841053
 30
0.0
 11
3922.705732
 21
1454.578756
 31
0.0
  0
TEXT
  5
6C0
100
AcDbEntity
  8
15
370
     9
  6
Continuous
 62
    96
100
AcDbText
 10
3237.648939
 20
1412.051434
 30
0.0
 40
30.018931
  1
外部出力　：接点容量　DC24Ｖ　0.3Ａ以下
 41
0.812661
 11
3237.648939
 21
1412.051434
 31
0.0
100
AcDbText
 73
     1
  0
TEXT
  5
6C1
100
AcDbEntity
  8
15
370
     9
  6
Continuous
 62
    96
100
AcDbText
 10
3106.470368
 20
1359.502074
 30
0.0
 40
25.015776
  1
連続解錠ボタン出力
 41
0.892593
 11
3106.470368
 21
1359.502074
 31
0.0
100
AcDbText
 73
     1
  0
TEXT
  5
6C2
100
AcDbEntity
  8
15
370
     9
  6
Continuous
 62
    96
100
AcDbText
 10
3106.400697
 20
1304.451137
 30
0.0
 40
25.015776
  1
一回解錠ボタン出力
 41
0.892593
 11
3106.400697
 21
1304.451137
 31
0.0
100
AcDbText
 73
     1
  0
TEXT
  5
6C3
100
AcDbEntity
  8
15
370
     9
  6
Continuous
 62
    96
100
AcDbText
 10
3106.470368
 20
1249.4002
 30
0.0
 40
25.015776
  1
リセットボタン出力
 41
0.892593
 11
3106.470368
 21
1249.4002
 31
0.0
100
AcDbText
 73
     1
  0
TEXT
  5
6C4
100
AcDbEntity
  8
15
370
     9
  6
Continuous
 62
    96
100
AcDbText
 10
3106.400697
 20
1194.349263
 30
0.0
 40
25.015776
  1
一斉解錠ボタン入力
 41
0.892593
 11
3106.400697
 21
1194.349263
 31
0.0
100
AcDbText
 73
     1
  0
TEXT
  5
6C5
100
AcDbEntity
  8
15
370
     9
  6
Continuous
 62
    96
100
AcDbText
 10
3496.874288
 20
1357.000497
 30
0.0
 40
30.018931
  1
無電圧ａ接点　瞬時
 41
0.882716
 11
3496.874288
 21
1357.000497
 31
0.0
100
AcDbText
 73
     1
  0
TEXT
  5
6C6
100
AcDbEntity
  8
15
370
     9
  6
Continuous
 62
    96
100
AcDbText
 10
3496.874288
 20
1301.94956
 30
0.0
 40
30.018931
  1
無電圧ａ接点　瞬時
 41
0.882716
 11
3496.874288
 21
1301.94956
 31
0.0
100
AcDbText
 73
     1
  0
TEXT
  5
6C7
100
AcDbEntity
  8
15
370
     9
  6
Continuous
 62
    96
100
AcDbText
 10
3496.874288
 20
1246.898622
 30
0.0
 40
30.018931
  1
無電圧ａ接点　瞬時
 41
0.882716
 11
3496.874288
 21
1246.898622
 31
0.0
100
AcDbText
 73
     1
  0
TEXT
  5
6C8
100
AcDbEntity
  8
15
370
     9
  6
Continuous
 62
    96
100
AcDbText
 10
3496.874288
 20
1191.847685
 30
0.0
 40
30.018931
  1
無電圧ａ接点　瞬時
 41
0.882716
 11
3496.874288
 21
1191.847685
 31
0.0
100
AcDbText
 73
     1
  0
TEXT
  5
6C9
100
AcDbEntity
  8
15
370
     9
  6
Continuous
 62
    96
100
AcDbText
 10
3930.672083
 20
1357.000497
 30
0.0
 40
30.018931
  1
25点
 41
0.666667
 11
3930.672083
 21
1357.000497
 31
0.0
100
AcDbText
 73
     1
  0
TEXT
  5
6CA
100
AcDbEntity
  8
15
370
     9
  6
Continuous
 62
    96
100
AcDbText
 10
3930.602413
 20
1301.94956
 30
0.0
 40
30.018931
  1
25点
 41
0.666667
 11
3930.602413
 21
1301.94956
 31
0.0
100
AcDbText
 73
     1
  0
LINE
  5
6CB
100
AcDbEntity
  8
15
370
    30
  6
Continuous
 62
    96
100
AcDbLine
 10
3103.364695
 20
1179.331682
 30
0.0
 11
4004.165971
 21
1179.331682
 31
0.0
  0
LINE
  5
6CC
100
AcDbEntity
  8
15
370
     9
  6
Continuous
 62
    96
100
AcDbLine
 10
3352.162173
 20
1399.535431
 30
0.0
 11
3352.162173
 21
1179.324096
 31
0.0
  0
LINE
  5
6CD
100
AcDbEntity
  8
15
370
     9
  6
Continuous
 62
    96
100
AcDbLine
 10
3922.690066
 20
1399.535431
 30
0.0
 11
3922.690066
 21
1179.330291
 31
0.0
  0
TEXT
  5
6CE
100
AcDbEntity
  8
15
370
     9
  6
Continuous
 62
    96
100
AcDbText
 10
3841.316388
 20
344.207369
 30
0.0
 40
50.031552
  1
辻
 41
0.833333
 11
3841.316388
 21
344.207369
 31
0.0
100
AcDbText
 73
     1
  0
TEXT
  5
6CF
100
AcDbEntity
  8
15
370
     9
  6
Continuous
 62
    96
100
AcDbText
 10
3591.084856
 20
344.207369
 30
0.0
 40
50.031552
  1
太田
 41
0.85
 11
3591.084856
 21
344.207369
 31
0.0
100
AcDbText
 73
     1
  0
TEXT
  5
6D0
100
AcDbEntity
  8
15
370
     9
  6
Continuous
 62
    96
100
AcDbText
 10
3273.525698
 20
281.094766
 30
0.0
 40
35.022086
  1
G13013-01-20818
 41
0.5
 11
3273.525698
 21
281.094766
 31
0.0
100
AcDbText
 73
     1
  0
TEXT
  5
6D1
100
AcDbEntity
  8
15
370
     9
  6
Continuous
 62
    96
100
AcDbText
 10
3645.612167
 20
283.534577
 30
0.0
 40
30.018931
  1
2020年08月18日
 41
0.66092
 11
3645.612167
 21
283.534577
 31
0.0
100
AcDbText
 73
     1
  0
TEXT
  5
6D2
100
AcDbEntity
  8
2
370
     9
  6
Continuous
 62
   214
100
AcDbText
 10
476.348736
 20
1240.239639
 30
0.0
 40
30.0
  1
選択パネル詳細（１：３）
 41
0.884259
 11
476.348736
 21
1240.239639
 31
0.0
100
AcDbText
 73
     1
  0
LINE
  5
6D3
100
AcDbEntity
  8
2
370
     9
  6
Continuous
 62
   214
100
AcDbLine
 10
469.364768
 20
1231.881372
 30
0.0
 11
842.827204
 21
1231.881372
 31
0.0
  0
TEXT
  5
6D4
100
AcDbEntity
  8
2
370
     9
  6
Continuous
 62
   214
100
AcDbText
 10
578.069832
 20
826.023423
 30
0.0
 40
15.00048
  1
連　続
 41
0.833333
 11
578.069832
 21
826.023423
 31
0.0
100
AcDbText
 73
     1
  0
TEXT
  5
6D5
100
AcDbEntity
  8
2
370
     9
  6
Continuous
 62
   214
100
AcDbText
 10
578.619667
 20
896.463961
 30
0.0
 40
15.00048
  1
警　報
 41
0.833333
 11
578.619667
 21
896.463961
 31
0.0
100
AcDbText
 73
     1
  0
TEXT
  5
6D6
100
AcDbEntity
  8
2
370
     9
  6
Continuous
 62
   214
100
AcDbText
 10
578.619667
 20
964.032704
 30
0.0
 40
15.00048
  1
解　錠
 41
0.833333
 11
578.619667
 21
964.032704
 31
0.0
100
AcDbText
 73
     1
  0
TEXT
  5
6D7
100
AcDbEntity
  8
2
370
     9
  6
Continuous
 62
   214
100
AcDbText
 10
578.144683
 20
1029.801561
 30
0.0
 40
15.00048
  1
開　扉
 41
0.833333
 11
578.144683
 21
1029.801561
 31
0.0
100
AcDbText
 73
     1
  0
TEXT
  5
6D8
100
AcDbEntity
  8
2
370
     9
  6
Continuous
 62
   214
100
AcDbText
 10
575.958016
 20
742.288962
 30
0.0
 40
15.00048
  1
一　回
 41
0.833333
 11
575.958016
 21
742.288962
 31
0.0
100
AcDbText
 73
     1
  0
LINE
  5
6D9
100
AcDbEntity
  8
2
370
    30
  6
Continuous
 62
   214
100
AcDbLine
 10
646.727291
 20
648.122681
 30
0.0
 11
646.727291
 21
1064.802681
 31
0.0
  0
LINE
  5
6DA
100
AcDbEntity
  8
2
370
    30
  6
Continuous
 62
   214
100
AcDbLine
 10
553.390971
 20
648.122681
 30
0.0
 11
646.727291
 21
648.122681
 31
0.0
  0
LINE
  5
6DB
100
AcDbEntity
  8
2
370
    30
  6
Continuous
 62
   214
100
AcDbLine
 10
553.390971
 20
1064.802681
 30
0.0
 11
553.390971
 21
648.122681
 31
0.0
  0
LINE
  5
6DC
100
AcDbEntity
  8
2
370
    30
  6
Continuous
 62
   214
100
AcDbLine
 10
643.519575
 20
1158.462397
 30
0.0
 11
643.519575
 21
1074.803001
 31
0.0
  0
LINE
  5
6DD
100
AcDbEntity
  8
2
370
    30
  6
Continuous
 62
   214
100
AcDbLine
 10
556.442258
 20
1074.803001
 30
0.0
 11
643.519575
 21
1074.803001
 31
0.0
  0
LINE
  5
6DE
100
AcDbEntity
  8
2
370
    30
  6
Continuous
 62
   214
100
AcDbLine
 10
556.442258
 20
1158.462397
 30
0.0
 11
556.442258
 21
1074.803001
 31
0.0
  0
LINE
  5
6DF
100
AcDbEntity
  8
2
370
    30
  6
Continuous
 62
   214
100
AcDbLine
 10
556.442258
 20
1158.462397
 30
0.0
 11
643.519575
 21
1158.462397
 31
0.0
  0
LINE
  5
6E0
100
AcDbEntity
  8
2
370
    30
  6
Continuous
 62
   214
100
AcDbLine
 10
591.613327
 20
1071.469561
 30
0.0
 11
587.011152
 21
1074.800095
 31
0.0
  0
LINE
  5
6E1
100
AcDbEntity
  8
2
370
    30
  6
Continuous
 62
   214
100
AcDbLine
 10
610.022024
 20
1071.469561
 30
0.0
 11
614.205819
 21
1074.803001
 31
0.0
  0
LINE
  5
6E2
100
AcDbEntity
  8
2
370
    30
  6
Continuous
 62
   214
100
AcDbLine
 10
591.613327
 20
1071.469561
 30
0.0
 11
610.022024
 21
1071.469561
 31
0.0
  0
LINE
  5
6E3
100
AcDbEntity
  8
2
370
    30
  6
Continuous
 62
   214
100
AcDbLine
 10
553.390971
 20
1064.802681
 30
0.0
 11
646.727291
 21
1064.802681
 31
0.0
  0
INSERT
  5
6EB
100
AcDbEntity
  8
0
370
    30
  6
Continuous
 62
     7
100
AcDbBlockReference
  2
*G94
 10
0.0
 20
0.0
 30
0.0
  0
INSERT
  5
6F3
100
AcDbEntity
  8
0
370
    30
  6
Continuous
 62
     7
100
AcDbBlockReference
  2
*G95
 10
0.0
 20
0.0
 30
0.0
  0
CIRCLE
  5
6F4
100
AcDbEntity
  8
2
370
    30
  6
Continuous
 62
   214
100
AcDbCircle
 10
600.059131
 20
879.796761
 30
0.0
 40
8.3336
  0
CIRCLE
  5
6F5
100
AcDbEntity
  8
2
370
    30
  6
Continuous
 62
   214
100
AcDbCircle
 10
600.059131
 20
946.465561
 30
0.0
 40
8.3336
  0
CIRCLE
  5
6F6
100
AcDbEntity
  8
2
370
    30
  6
Continuous
 62
   214
100
AcDbCircle
 10
600.059131
 20
1013.134361
 30
0.0
 40
8.3336
  0
INSERT
  5
6FE
100
AcDbEntity
  8
0
370
    30
  6
Continuous
 62
     7
100
AcDbBlockReference
  2
*G96
 10
0.0
 20
0.0
 30
0.0
  0
LINE
  5
6FF
100
AcDbEntity
  8
2
370
    30
  6
Continuous
 62
   214
100
AcDbLine
 10
550.057531
 20
1165.197256
 30
0.0
 11
650.060731
 21
1165.197256
 31
0.0
  0
LINE
  5
700
100
AcDbEntity
  8
2
370
    30
  6
Continuous
 62
   214
100
AcDbLine
 10
550.057531
 20
644.789241
 30
0.0
 11
650.060731
 21
644.789241
 31
0.0
  0
TEXT
  5
701
100
AcDbEntity
  8
2
370
    30
  6
Continuous
 62
   214
100
AcDbText
 10
488.528487
 20
583.08103
 30
0.0
 40
31.111111
  1
自動施錠モード用
 41
0.869792
 11
488.528487
 21
583.08103
 31
0.0
100
AcDbText
 73
     1
  0
LINE
  5
702
100
AcDbEntity
  8
2
370
     9
  6
Continuous
 62
   214
100
AcDbLine
 10
478.179846
 20
576.065573
 30
0.0
 11
752.573547
 21
576.065573
 31
0.0
  0
TEXT
  5
703
100
AcDbEntity
  8
2
370
     9
  6
Continuous
 62
   214
100
AcDbText
 10
497.181432
 20
539.930585
 30
0.0
 40
30.0
  1
（標準付属品）
 41
0.880952
 11
497.181432
 21
539.930585
 31
0.0
100
AcDbText
 73
     1
  0
LINE
  5
704
100
AcDbEntity
  8
2
370
     9
  6
Continuous
 62
   214
100
AcDbLine
 10
608.392731
 20
1013.134361
 30
0.0
 11
624.942565
 21
1030.515471
 31
0.0
  0
LINE
  5
705
100
AcDbEntity
  8
2
370
     9
  6
Continuous
 62
   214
100
AcDbLine
 10
608.392731
 20
1013.134361
 30
0.0
 11
631.415863
 21
1019.911926
 31
0.0
  0
POLYLINE
  5
706
100
AcDbEntity
  8
2
370
     9
  6
Continuous
 62
   214
100
AcDb2dPolyline
 66
     1
 10
0.0
 20
0.0
 30
0.0
  0
VERTEX
  5
707
100
AcDbEntity
  8
2
370
     9
  6
Continuous
 62
   214
100
AcDbVertex
100
AcDb2dVertex
 10
608.392731
 20
1013.134361
 30
0.0
  0
VERTEX
  5
708
100
AcDbEntity
  8
2
370
     9
  6
Continuous
 62
   214
100
AcDbVertex
100
AcDb2dVertex
 10
684.039005
 20
1059.315227
 30
0.0
  0
VERTEX
  5
709
100
AcDbEntity
  8
2
370
     9
  6
Continuous
 62
   214
100
AcDbVertex
100
AcDb2dVertex
 10
868.039005
 20
1059.315227
 30
0.0
  0
SEQEND
  5
70A
100
AcDbEntity
  8
2
370
     9
  6
Continuous
 62
   214
  0
TEXT
  5
70B
100
AcDbEntity
  8
2
370
     9
  6
Continuous
 62
   214
100
AcDbText
 10
684.039005
 20
1059.315227
 30
0.0
 40
23.0
  1
開扉表示灯（赤）
 41
0.833333
 11
684.039005
 21
1059.315227
 31
0.0
100
AcDbText
 73
     1
  0
LINE
  5
70C
100
AcDbEntity
  8
2
370
     9
  6
Continuous
 62
   214
100
AcDbLine
 10
608.392731
 20
946.465561
 30
0.0
 11
627.09451
 21
961.506953
 31
0.0
  0
LINE
  5
70D
100
AcDbEntity
  8
2
370
     9
  6
Continuous
 62
   214
100
AcDbLine
 10
608.392731
 20
946.465561
 30
0.0
 11
632.109642
 21
950.140899
 31
0.0
  0
POLYLINE
  5
70E
100
AcDbEntity
  8
2
370
     9
  6
Continuous
 62
   214
100
AcDb2dPolyline
 66
     1
 10
0.0
 20
0.0
 30
0.0
  0
VERTEX
  5
70F
100
AcDbEntity
  8
2
370
     9
  6
Continuous
 62
   214
100
AcDbVertex
100
AcDb2dVertex
 10
608.392731
 20
946.465561
 30
0.0
  0
VERTEX
  5
710
100
AcDbEntity
  8
2
370
     9
  6
Continuous
 62
   214
100
AcDbVertex
100
AcDb2dVertex
 10
684.039005
 20
979.843557
 30
0.0
  0
VERTEX
  5
711
100
AcDbEntity
  8
2
370
     9
  6
Continuous
 62
   214
100
AcDbVertex
100
AcDb2dVertex
 10
868.039005
 20
979.843557
 30
0.0
  0
SEQEND
  5
712
100
AcDbEntity
  8
2
370
     9
  6
Continuous
 62
   214
  0
TEXT
  5
713
100
AcDbEntity
  8
2
370
     9
  6
Continuous
 62
   214
100
AcDbText
 10
684.039005
 20
979.843557
 30
0.0
 40
23.0
  1
解錠表示灯（緑）
 41
0.833333
 11
684.039005
 21
979.843557
 31
0.0
100
AcDbText
 73
     1
  0
LINE
  5
714
100
AcDbEntity
  8
2
370
     9
  6
Continuous
 62
   214
100
AcDbLine
 10
608.392731
 20
879.796761
 30
0.0
 11
628.802005
 21
892.424568
 31
0.0
  0
LINE
  5
715
100
AcDbEntity
  8
2
370
     9
  6
Continuous
 62
   214
100
AcDbLine
 10
608.392731
 20
879.796761
 30
0.0
 11
632.381585
 21
880.528126
 31
0.0
  0
POLYLINE
  5
716
100
AcDbEntity
  8
2
370
     9
  6
Continuous
 62
   214
100
AcDb2dPolyline
 66
     1
 10
0.0
 20
0.0
 30
0.0
  0
VERTEX
  5
717
100
AcDbEntity
  8
2
370
     9
  6
Continuous
 62
   214
100
AcDbVertex
100
AcDb2dVertex
 10
608.392731
 20
879.796761
 30
0.0
  0
VERTEX
  5
718
100
AcDbEntity
  8
2
370
     9
  6
Continuous
 62
   214
100
AcDbVertex
100
AcDb2dVertex
 10
685.781197
 20
903.082561
 30
0.0
  0
VERTEX
  5
719
100
AcDbEntity
  8
2
370
     9
  6
Continuous
 62
   214
100
AcDbVertex
100
AcDb2dVertex
 10
869.781197
 20
903.082561
 30
0.0
  0
SEQEND
  5
71A
100
AcDbEntity
  8
2
370
     9
  6
Continuous
 62
   214
  0
TEXT
  5
71B
100
AcDbEntity
  8
2
370
     9
  6
Continuous
 62
   214
100
AcDbText
 10
685.781197
 20
903.082561
 30
0.0
 40
23.0
  1
警報表示灯（赤）
 41
0.833333
 11
685.781197
 21
903.082561
 31
0.0
100
AcDbText
 73
     1
  0
LINE
  5
71C
100
AcDbEntity
  8
2
370
     9
  6
Continuous
 62
   214
100
AcDbLine
 10
621.726491
 20
799.957558
 30
0.0
 11
641.546845
 21
813.490982
 31
0.0
  0
LINE
  5
71D
100
AcDbEntity
  8
2
370
     9
  6
Continuous
 62
   214
100
AcDbLine
 10
621.726491
 20
799.957558
 30
0.0
 11
645.658133
 21
801.76767
 31
0.0
  0
POLYLINE
  5
71E
100
AcDbEntity
  8
2
370
     9
  6
Continuous
 62
   214
100
AcDb2dPolyline
 66
     1
 10
0.0
 20
0.0
 30
0.0
  0
VERTEX
  5
71F
100
AcDbEntity
  8
2
370
     9
  6
Continuous
 62
   214
100
AcDbVertex
100
AcDb2dVertex
 10
621.726491
 20
799.957558
 30
0.0
  0
VERTEX
  5
720
100
AcDbEntity
  8
2
370
     9
  6
Continuous
 62
   214
100
AcDbVertex
100
AcDb2dVertex
 10
685.781197
 20
822.42112
 30
0.0
  0
VERTEX
  5
721
100
AcDbEntity
  8
2
370
     9
  6
Continuous
 62
   214
100
AcDbVertex
100
AcDb2dVertex
 10
927.281197
 20
822.42112
 30
0.0
  0
SEQEND
  5
722
100
AcDbEntity
  8
2
370
     9
  6
Continuous
 62
   214
  0
TEXT
  5
723
100
AcDbEntity
  8
2
370
     9
  6
Continuous
 62
   214
100
AcDbText
 10
685.781197
 20
822.42112
 30
0.0
 40
23.0
  1
連続解錠ボタン （灰）
 41
0.833333
 11
685.781197
 21
822.42112
 31
0.0
100
AcDbText
 73
     1
  0
LINE
  5
724
100
AcDbEntity
  8
2
370
     9
  6
Continuous
 62
   214
100
AcDbLine
 10
621.726491
 20
712.432033
 30
0.0
 11
641.747704
 21
725.666497
 31
0.0
  0
LINE
  5
725
100
AcDbEntity
  8
2
370
     9
  6
Continuous
 62
   214
100
AcDbLine
 10
621.726491
 20
712.432033
 30
0.0
 11
645.682602
 21
713.882808
 31
0.0
  0
POLYLINE
  5
726
100
AcDbEntity
  8
2
370
     9
  6
Continuous
 62
   214
100
AcDb2dPolyline
 66
     1
 10
0.0
 20
0.0
 30
0.0
  0
VERTEX
  5
727
100
AcDbEntity
  8
2
370
     9
  6
Continuous
 62
   214
100
AcDbVertex
100
AcDb2dVertex
 10
621.726491
 20
712.432033
 30
0.0
  0
VERTEX
  5
728
100
AcDbEntity
  8
2
370
     9
  6
Continuous
 62
   214
100
AcDbVertex
100
AcDb2dVertex
 10
685.781197
 20
733.821662
 30
0.0
  0
VERTEX
  5
729
100
AcDbEntity
  8
2
370
     9
  6
Continuous
 62
   214
100
AcDbVertex
100
AcDb2dVertex
 10
927.281197
 20
733.821662
 30
0.0
  0
SEQEND
  5
72A
100
AcDbEntity
  8
2
370
     9
  6
Continuous
 62
   214
  0
TEXT
  5
72B
100
AcDbEntity
  8
2
370
     9
  6
Continuous
 62
   214
100
AcDbText
 10
685.781197
 20
733.821662
 30
0.0
 40
23.0
  1
一回解錠ボタン （灰）
 41
0.833333
 11
685.781197
 21
733.821662
 31
0.0
100
AcDbText
 73
     1
  0
TEXT
  5
72C
100
AcDbEntity
  8
2
370
     9
  6
Continuous
 62
   214
100
AcDbText
 10
1379.642065
 20
742.288962
 30
0.0
 40
15.00048
  1
施　錠
 41
0.833333
 11
1379.642065
 21
742.288962
 31
0.0
100
AcDbText
 73
     1
  0
TEXT
  5
72D
100
AcDbEntity
  8
2
370
     9
  6
Continuous
 62
   214
100
AcDbText
 10
1381.75388
 20
826.023423
 30
0.0
 40
15.00048
  1
解　錠
 41
0.833333
 11
1381.75388
 21
826.023423
 31
0.0
100
AcDbText
 73
     1
  0
TEXT
  5
72E
100
AcDbEntity
  8
2
370
     9
  6
Continuous
 62
   214
100
AcDbText
 10
1381.242459
 20
964.032704
 30
0.0
 40
15.00048
  1
解　錠
 41
0.833333
 11
1381.242459
 21
964.032704
 31
0.0
100
AcDbText
 73
     1
  0
TEXT
  5
72F
100
AcDbEntity
  8
2
370
     9
  6
Continuous
 62
   214
100
AcDbText
 10
1382.303715
 20
896.463961
 30
0.0
 40
15.00048
  1
警　報
 41
0.833333
 11
1382.303715
 21
896.463961
 31
0.0
100
AcDbText
 73
     1
  0
TEXT
  5
730
100
AcDbEntity
  8
2
370
     9
  6
Continuous
 62
   214
100
AcDbText
 10
1381.828731
 20
1029.801561
 30
0.0
 40
15.00048
  1
開　扉
 41
0.833333
 11
1381.828731
 21
1029.801561
 31
0.0
100
AcDbText
 73
     1
  0
LINE
  5
731
100
AcDbEntity
  8
2
370
    30
  6
Continuous
 62
   214
100
AcDbLine
 10
1450.411339
 20
648.122681
 30
0.0
 11
1450.411339
 21
1064.802681
 31
0.0
  0
LINE
  5
732
100
AcDbEntity
  8
2
370
    30
  6
Continuous
 62
   214
100
AcDbLine
 10
1357.075019
 20
648.122681
 30
0.0
 11
1450.411339
 21
648.122681
 31
0.0
  0
LINE
  5
733
100
AcDbEntity
  8
2
370
    30
  6
Continuous
 62
   214
100
AcDbLine
 10
1357.075019
 20
1064.802681
 30
0.0
 11
1357.075019
 21
648.122681
 31
0.0
  0
LINE
  5
734
100
AcDbEntity
  8
2
370
    30
  6
Continuous
 62
   214
100
AcDbLine
 10
1447.203623
 20
1158.462397
 30
0.0
 11
1447.203623
 21
1074.803001
 31
0.0
  0
LINE
  5
735
100
AcDbEntity
  8
2
370
    30
  6
Continuous
 62
   214
100
AcDbLine
 10
1360.126306
 20
1074.803001
 30
0.0
 11
1447.203623
 21
1074.803001
 31
0.0
  0
LINE
  5
736
100
AcDbEntity
  8
2
370
    30
  6
Continuous
 62
   214
100
AcDbLine
 10
1360.126306
 20
1158.462397
 30
0.0
 11
1360.126306
 21
1074.803001
 31
0.0
  0
LINE
  5
737
100
AcDbEntity
  8
2
370
    30
  6
Continuous
 62
   214
100
AcDbLine
 10
1360.126306
 20
1158.462397
 30
0.0
 11
1447.203623
 21
1158.462397
 31
0.0
  0
LINE
  5
738
100
AcDbEntity
  8
2
370
    30
  6
Continuous
 62
   214
100
AcDbLine
 10
1395.297375
 20
1071.469561
 30
0.0
 11
1390.695201
 21
1074.800095
 31
0.0
  0
LINE
  5
739
100
AcDbEntity
  8
2
370
    30
  6
Continuous
 62
   214
100
AcDbLine
 10
1413.706072
 20
1071.469561
 30
0.0
 11
1417.889867
 21
1074.803001
 31
0.0
  0
LINE
  5
73A
100
AcDbEntity
  8
2
370
    30
  6
Continuous
 62
   214
100
AcDbLine
 10
1395.297375
 20
1071.469561
 30
0.0
 11
1413.706072
 21
1071.469561
 31
0.0
  0
LINE
  5
73B
100
AcDbEntity
  8
2
370
    30
  6
Continuous
 62
   214
100
AcDbLine
 10
1357.075019
 20
1064.802681
 30
0.0
 11
1450.411339
 21
1064.802681
 31
0.0
  0
INSERT
  5
743
100
AcDbEntity
  8
0
370
    30
  6
Continuous
 62
     7
100
AcDbBlockReference
  2
*G97
 10
0.0
 20
0.0
 30
0.0
  0
INSERT
  5
74B
100
AcDbEntity
  8
0
370
    30
  6
Continuous
 62
     7
100
AcDbBlockReference
  2
*G98
 10
0.0
 20
0.0
 30
0.0
  0
CIRCLE
  5
74C
100
AcDbEntity
  8
2
370
    30
  6
Continuous
 62
   214
100
AcDbCircle
 10
1403.743179
 20
879.796761
 30
0.0
 40
8.3336
  0
CIRCLE
  5
74D
100
AcDbEntity
  8
2
370
    30
  6
Continuous
 62
   214
100
AcDbCircle
 10
1403.743179
 20
946.465561
 30
0.0
 40
8.3336
  0
CIRCLE
  5
74E
100
AcDbEntity
  8
2
370
    30
  6
Continuous
 62
   214
100
AcDbCircle
 10
1403.743179
 20
1013.134361
 30
0.0
 40
8.3336
  0
INSERT
  5
756
100
AcDbEntity
  8
0
370
    30
  6
Continuous
 62
     7
100
AcDbBlockReference
  2
*G99
 10
0.0
 20
0.0
 30
0.0
  0
LINE
  5
757
100
AcDbEntity
  8
2
370
    30
  6
Continuous
 62
   214
100
AcDbLine
 10
1353.741579
 20
1165.197256
 30
0.0
 11
1453.744779
 21
1165.197256
 31
0.0
  0
LINE
  5
758
100
AcDbEntity
  8
2
370
    30
  6
Continuous
 62
   214
100
AcDbLine
 10
1353.741579
 20
644.789241
 30
0.0
 11
1453.744779
 21
644.789241
 31
0.0
  0
LINE
  5
759
100
AcDbEntity
  8
2
370
     9
  6
Continuous
 62
   214
100
AcDbLine
 10
1290.235637
 20
576.065573
 30
0.0
 11
1576.48214
 21
576.065573
 31
0.0
  0
TEXT
  5
75A
100
AcDbEntity
  8
2
370
    30
  6
Continuous
 62
   214
100
AcDbText
 10
1323.034832
 20
584.428361
 30
0.0
 40
31.111111
  1
繰返しモード用
 41
0.869048
 11
1323.034832
 21
584.428361
 31
0.0
100
AcDbText
 73
     1
  0
LINE
  5
75B
100
AcDbEntity
  8
2
370
     9
  6
Continuous
 62
   214
100
AcDbLine
 10
1412.076779
 20
1013.134361
 30
0.0
 11
1428.626613
 21
1030.515471
 31
0.0
  0
LINE
  5
75C
100
AcDbEntity
  8
2
370
     9
  6
Continuous
 62
   214
100
AcDbLine
 10
1412.076779
 20
1013.134361
 30
0.0
 11
1435.099911
 21
1019.911926
 31
0.0
  0
POLYLINE
  5
75D
100
AcDbEntity
  8
2
370
     9
  6
Continuous
 62
   214
100
AcDb2dPolyline
 66
     1
 10
0.0
 20
0.0
 30
0.0
  0
VERTEX
  5
75E
100
AcDbEntity
  8
2
370
     9
  6
Continuous
 62
   214
100
AcDbVertex
100
AcDb2dVertex
 10
1412.076779
 20
1013.134361
 30
0.0
  0
VERTEX
  5
75F
100
AcDbEntity
  8
2
370
     9
  6
Continuous
 62
   214
100
AcDbVertex
100
AcDb2dVertex
 10
1487.723054
 20
1059.315227
 30
0.0
  0
VERTEX
  5
760
100
AcDbEntity
  8
2
370
     9
  6
Continuous
 62
   214
100
AcDbVertex
100
AcDb2dVertex
 10
1671.723054
 20
1059.315227
 30
0.0
  0
SEQEND
  5
761
100
AcDbEntity
  8
2
370
     9
  6
Continuous
 62
   214
  0
TEXT
  5
762
100
AcDbEntity
  8
2
370
     9
  6
Continuous
 62
   214
100
AcDbText
 10
1487.723054
 20
1059.315227
 30
0.0
 40
23.0
  1
開扉表示灯（赤）
 41
0.833333
 11
1487.723054
 21
1059.315227
 31
0.0
100
AcDbText
 73
     1
  0
LINE
  5
763
100
AcDbEntity
  8
2
370
     9
  6
Continuous
 62
   214
100
AcDbLine
 10
1412.076779
 20
946.465561
 30
0.0
 11
1430.778558
 21
961.506953
 31
0.0
  0
LINE
  5
764
100
AcDbEntity
  8
2
370
     9
  6
Continuous
 62
   214
100
AcDbLine
 10
1412.076779
 20
946.465561
 30
0.0
 11
1435.793691
 21
950.140899
 31
0.0
  0
POLYLINE
  5
765
100
AcDbEntity
  8
2
370
     9
  6
Continuous
 62
   214
100
AcDb2dPolyline
 66
     1
 10
0.0
 20
0.0
 30
0.0
  0
VERTEX
  5
766
100
AcDbEntity
  8
2
370
     9
  6
Continuous
 62
   214
100
AcDbVertex
100
AcDb2dVertex
 10
1412.076779
 20
946.465561
 30
0.0
  0
VERTEX
  5
767
100
AcDbEntity
  8
2
370
     9
  6
Continuous
 62
   214
100
AcDbVertex
100
AcDb2dVertex
 10
1487.723054
 20
979.843557
 30
0.0
  0
VERTEX
  5
768
100
AcDbEntity
  8
2
370
     9
  6
Continuous
 62
   214
100
AcDbVertex
100
AcDb2dVertex
 10
1671.723054
 20
979.843557
 30
0.0
  0
SEQEND
  5
769
100
AcDbEntity
  8
2
370
     9
  6
Continuous
 62
   214
  0
TEXT
  5
76A
100
AcDbEntity
  8
2
370
     9
  6
Continuous
 62
   214
100
AcDbText
 10
1487.723054
 20
979.843557
 30
0.0
 40
23.0
  1
解錠表示灯（緑）
 41
0.833333
 11
1487.723054
 21
979.843557
 31
0.0
100
AcDbText
 73
     1
  0
LINE
  5
76B
100
AcDbEntity
  8
2
370
     9
  6
Continuous
 62
   214
100
AcDbLine
 10
1412.076779
 20
879.796761
 30
0.0
 11
1432.486053
 21
892.424568
 31
0.0
  0
LINE
  5
76C
100
AcDbEntity
  8
2
370
     9
  6
Continuous
 62
   214
100
AcDbLine
 10
1412.076779
 20
879.796761
 30
0.0
 11
1436.065633
 21
880.528126
 31
0.0
  0
POLYLINE
  5
76D
100
AcDbEntity
  8
2
370
     9
  6
Continuous
 62
   214
100
AcDb2dPolyline
 66
     1
 10
0.0
 20
0.0
 30
0.0
  0
VERTEX
  5
76E
100
AcDbEntity
  8
2
370
     9
  6
Continuous
 62
   214
100
AcDbVertex
100
AcDb2dVertex
 10
1412.076779
 20
879.796761
 30
0.0
  0
VERTEX
  5
76F
100
AcDbEntity
  8
2
370
     9
  6
Continuous
 62
   214
100
AcDbVertex
100
AcDb2dVertex
 10
1489.465245
 20
903.082561
 30
0.0
  0
VERTEX
  5
770
100
AcDbEntity
  8
2
370
     9
  6
Continuous
 62
   214
100
AcDbVertex
100
AcDb2dVertex
 10
1673.465245
 20
903.082561
 30
0.0
  0
SEQEND
  5
771
100
AcDbEntity
  8
2
370
     9
  6
Continuous
 62
   214
  0
TEXT
  5
772
100
AcDbEntity
  8
2
370
     9
  6
Continuous
 62
   214
100
AcDbText
 10
1489.465245
 20
903.082561
 30
0.0
 40
23.0
  1
警報表示灯（赤）
 41
0.833333
 11
1489.465245
 21
903.082561
 31
0.0
100
AcDbText
 73
     1
  0
LINE
  5
773
100
AcDbEntity
  8
2
370
     9
  6
Continuous
 62
   214
100
AcDbLine
 10
1425.410539
 20
799.957558
 30
0.0
 11
1445.230893
 21
813.490982
 31
0.0
  0
LINE
  5
774
100
AcDbEntity
  8
2
370
     9
  6
Continuous
 62
   214
100
AcDbLine
 10
1425.410539
 20
799.957558
 30
0.0
 11
1449.342181
 21
801.76767
 31
0.0
  0
POLYLINE
  5
775
100
AcDbEntity
  8
2
370
     9
  6
Continuous
 62
   214
100
AcDb2dPolyline
 66
     1
 10
0.0
 20
0.0
 30
0.0
  0
VERTEX
  5
776
100
AcDbEntity
  8
2
370
     9
  6
Continuous
 62
   214
100
AcDbVertex
100
AcDb2dVertex
 10
1425.410539
 20
799.957558
 30
0.0
  0
VERTEX
  5
777
100
AcDbEntity
  8
2
370
     9
  6
Continuous
 62
   214
100
AcDbVertex
100
AcDb2dVertex
 10
1489.465245
 20
822.42112
 30
0.0
  0
VERTEX
  5
778
100
AcDbEntity
  8
2
370
     9
  6
Continuous
 62
   214
100
AcDbVertex
100
AcDb2dVertex
 10
1684.965245
 20
822.42112
 30
0.0
  0
SEQEND
  5
779
100
AcDbEntity
  8
2
370
     9
  6
Continuous
 62
   214
  0
TEXT
  5
77A
100
AcDbEntity
  8
2
370
     9
  6
Continuous
 62
   214
100
AcDbText
 10
1489.465245
 20
822.42112
 30
0.0
 40
23.0
  1
解錠ボタン （灰）
 41
0.833333
 11
1489.465245
 21
822.42112
 31
0.0
100
AcDbText
 73
     1
  0
LINE
  5
77B
100
AcDbEntity
  8
2
370
     9
  6
Continuous
 62
   214
100
AcDbLine
 10
1425.410539
 20
712.432033
 30
0.0
 11
1445.431752
 21
725.666497
 31
0.0
  0
LINE
  5
77C
100
AcDbEntity
  8
2
370
     9
  6
Continuous
 62
   214
100
AcDbLine
 10
1425.410539
 20
712.432033
 30
0.0
 11
1449.36665
 21
713.882808
 31
0.0
  0
POLYLINE
  5
77D
100
AcDbEntity
  8
2
370
     9
  6
Continuous
 62
   214
100
AcDb2dPolyline
 66
     1
 10
0.0
 20
0.0
 30
0.0
  0
VERTEX
  5
77E
100
AcDbEntity
  8
2
370
     9
  6
Continuous
 62
   214
100
AcDbVertex
100
AcDb2dVertex
 10
1425.410539
 20
712.432033
 30
0.0
  0
VERTEX
  5
77F
100
AcDbEntity
  8
2
370
     9
  6
Continuous
 62
   214
100
AcDbVertex
100
AcDb2dVertex
 10
1489.465245
 20
733.821662
 30
0.0
  0
VERTEX
  5
780
100
AcDbEntity
  8
2
370
     9
  6
Continuous
 62
   214
100
AcDbVertex
100
AcDb2dVertex
 10
1684.965245
 20
733.821662
 30
0.0
  0
SEQEND
  5
781
100
AcDbEntity
  8
2
370
     9
  6
Continuous
 62
   214
  0
TEXT
  5
782
100
AcDbEntity
  8
2
370
     9
  6
Continuous
 62
   214
100
AcDbText
 10
1489.465245
 20
733.821662
 30
0.0
 40
23.0
  1
施錠ボタン （灰）
 41
0.833333
 11
1489.465245
 21
733.821662
 31
0.0
100
AcDbText
 73
     1
  0
TEXT
  5
783
100
AcDbEntity
  8
2
370
     9
  6
Continuous
 62
   214
100
AcDbText
 10
2317.267944
 20
832.256983
 30
0.0
 40
12.5004
  1
非　常
 41
1.0
  7
T_STANDARD
 11
2317.267944
 21
832.256983
 31
0.0
100
AcDbText
 73
     2
  0
TEXT
  5
784
100
AcDbEntity
  8
2
370
     9
  6
Continuous
 62
   214
100
AcDbText
 10
2537.531826
 20
831.729349
 30
0.0
 40
12.5004
  1
一　斉
 41
1.0
  7
T_STANDARD
 11
2537.531826
 21
831.729349
 31
0.0
100
AcDbText
 73
     2
  0
TEXT
  5
785
100
AcDbEntity
  8
2
370
     9
  6
Continuous
 62
   214
100
AcDbText
 10
2453.682142
 20
839.468066
 30
0.0
 40
12.5004
  1
リセット
 41
1.0
  7
T_STANDARD
 11
2453.682142
 21
839.468066
 31
0.0
100
AcDbText
 73
     2
  0
TEXT
  5
786
100
AcDbEntity
  8
2
370
     9
  6
Continuous
 62
   214
100
AcDbText
 10
2383.679902
 20
832.403112
 30
0.0
 40
12.5004
  1
一　斉
 41
1.0
  7
T_STANDARD
 11
2383.679902
 21
832.403112
 31
0.0
100
AcDbText
 73
     2
  0
TEXT
  5
787
100
AcDbEntity
  8
2
370
     9
  6
Continuous
 62
   214
100
AcDbText
 10
2250.313317
 20
831.536538
 30
0.0
 40
12.5004
  1
電　源
 41
1.0
  7
T_STANDARD
 11
2250.313317
 21
831.536538
 31
0.0
100
AcDbText
 73
     2
  0
INSERT
  5
78F
100
AcDbEntity
  8
0
370
    30
  6
Continuous
 62
     7
100
AcDbBlockReference
  2
*G100
 10
0.0
 20
0.0
 30
0.0
  0
CIRCLE
  5
790
100
AcDbEntity
  8
2
370
    30
  6
Continuous
 62
   214
100
AcDbCircle
 10
2272.843022
 20
807.666651
 30
0.0
 40
8.3336
  0
CIRCLE
  5
791
100
AcDbEntity
  8
2
370
    30
  6
Continuous
 62
   214
100
AcDbCircle
 10
2339.511822
 20
807.666651
 30
0.0
 40
8.3336
  0
CIRCLE
  5
792
100
AcDbEntity
  8
2
370
    30
  6
Continuous
 62
   214
100
AcDbCircle
 10
2406.180622
 20
807.666651
 30
0.0
 40
8.3336
  0
INSERT
  5
79A
100
AcDbEntity
  8
0
370
    30
  6
Continuous
 62
     7
100
AcDbBlockReference
  2
*G101
 10
0.0
 20
0.0
 30
0.0
  0
INSERT
  5
7A2
100
AcDbEntity
  8
0
370
    30
  6
Continuous
 62
     7
100
AcDbBlockReference
  2
*G102
 10
0.0
 20
0.0
 30
0.0
  0
LINE
  5
7A3
100
AcDbEntity
  8
2
370
    30
  6
Continuous
 62
   214
100
AcDbLine
 10
2221.174702
 20
760.998491
 30
0.0
 11
2221.174702
 21
854.334811
 31
0.0
  0
LINE
  5
7A4
100
AcDbEntity
  8
2
370
    30
  6
Continuous
 62
   214
100
AcDbLine
 10
2127.514985
 20
764.049778
 30
0.0
 11
2127.514985
 21
851.127094
 31
0.0
  0
LINE
  5
7A5
100
AcDbEntity
  8
2
370
    30
  6
Continuous
 62
   214
100
AcDbLine
 10
2127.514985
 20
764.049778
 30
0.0
 11
2211.174382
 21
764.049778
 31
0.0
  0
LINE
  5
7A6
100
AcDbEntity
  8
2
370
    30
  6
Continuous
 62
   214
100
AcDbLine
 10
2211.174382
 20
764.049778
 30
0.0
 11
2211.174382
 21
851.127094
 31
0.0
  0
LINE
  5
7A7
100
AcDbEntity
  8
2
370
    30
  6
Continuous
 62
   214
100
AcDbLine
 10
2127.514985
 20
851.127094
 30
0.0
 11
2211.174382
 21
851.127094
 31
0.0
  0
LINE
  5
7A8
100
AcDbEntity
  8
2
370
    30
  6
Continuous
 62
   214
100
AcDbLine
 10
2221.174702
 20
760.998491
 30
0.0
 11
2637.854702
 21
760.998491
 31
0.0
  0
LINE
  5
7A9
100
AcDbEntity
  8
2
370
    30
  6
Continuous
 62
   214
100
AcDbLine
 10
2637.854702
 20
854.334811
 30
0.0
 11
2221.174702
 21
854.334811
 31
0.0
  0
CIRCLE
  5
7AA
100
AcDbEntity
  8
2
370
    30
  6
Continuous
 62
   214
100
AcDbCircle
 10
2169.506382
 20
807.666651
 30
0.0
 40
3.33344
  0
CIRCLE
  5
7AB
100
AcDbEntity
  8
2
370
    30
  6
Continuous
 62
   214
100
AcDbCircle
 10
2169.506382
 20
824.333851
 30
0.0
 40
3.33344
  0
CIRCLE
  5
7AC
100
AcDbEntity
  8
2
370
    30
  6
Continuous
 62
   214
100
AcDbCircle
 10
2152.839182
 20
807.666651
 30
0.0
 40
3.33344
  0
CIRCLE
  5
7AD
100
AcDbEntity
  8
2
370
    30
  6
Continuous
 62
   214
100
AcDbCircle
 10
2169.506382
 20
790.999451
 30
0.0
 40
3.33344
  0
CIRCLE
  5
7AE
100
AcDbEntity
  8
2
370
    30
  6
Continuous
 62
   214
100
AcDbCircle
 10
2186.173582
 20
807.666651
 30
0.0
 40
3.33344
  0
LINE
  5
7AF
100
AcDbEntity
  8
2
370
    30
  6
Continuous
 62
   214
100
AcDbLine
 10
2120.780126
 20
757.665051
 30
0.0
 11
2120.780126
 21
857.668251
 31
0.0
  0
TEXT
  5
7B0
100
AcDbEntity
  8
2
370
    30
  6
Continuous
 62
   214
100
AcDbText
 10
2358.618142
 20
705.885448
 30
0.0
 40
31.111111
  1
一斉操作用
 41
0.866667
 11
2358.618142
 21
705.885448
 31
0.0
100
AcDbText
 73
     1
  0
LINE
  5
7B1
100
AcDbEntity
  8
2
370
     9
  6
Continuous
 62
   214
100
AcDbLine
 10
2350.458355
 20
701.996559
 30
0.0
 11
2529.076028
 21
701.996559
 31
0.0
  0
LINE
  5
7B2
100
AcDbEntity
  8
2
370
    30
  6
Continuous
 62
   214
100
AcDbLine
 10
2637.879148
 20
854.334811
 30
0.0
 11
2625.441832
 21
854.334811
 31
0.0
  0
LINE
  5
7B3
100
AcDbEntity
  8
2
370
    30
  6
Continuous
 62
   214
100
AcDbLine
 10
2637.879148
 20
760.998491
 30
0.0
 11
2637.879148
 21
854.334811
 31
0.0
  0
LINE
  5
7B4
100
AcDbEntity
  8
2
370
    30
  6
Continuous
 62
   214
100
AcDbLine
 10
2625.441832
 20
760.998491
 30
0.0
 11
2637.879148
 21
760.998491
 31
0.0
  0
INSERT
  5
7BB
100
AcDbEntity
  8
0
370
    30
  6
Continuous
 62
     7
100
AcDbBlockReference
  2
*G103
 10
0.0
 20
0.0
 30
0.0
  0
LINE
  5
7BC
100
AcDbEntity
  8
2
370
    30
  6
Continuous
 62
   214
100
AcDbLine
 10
2641.212588
 20
757.665051
 30
0.0
 11
2641.212588
 21
857.668251
 31
0.0
  0
LINE
  5
7BD
100
AcDbEntity
  8
2
370
     9
  6
Continuous
 62
   214
100
AcDbLine
 10
2169.506382
 20
827.667291
 30
0.0
 11
2170.451261
 21
851.648684
 31
0.0
  0
LINE
  5
7BE
100
AcDbEntity
  8
2
370
     9
  6
Continuous
 62
   214
100
AcDbLine
 10
2169.506382
 20
827.667291
 30
0.0
 11
2182.315367
 21
847.963347
 31
0.0
  0
POLYLINE
  5
7BF
100
AcDbEntity
  8
2
370
     9
  6
Continuous
 62
   214
100
AcDb2dPolyline
 66
     1
 10
0.0
 20
0.0
 30
0.0
  0
VERTEX
  5
7C0
100
AcDbEntity
  8
2
370
     9
  6
Continuous
 62
   214
100
AcDbVertex
100
AcDb2dVertex
 10
2169.506382
 20
827.667291
 30
0.0
  0
VERTEX
  5
7C1
100
AcDbEntity
  8
2
370
     9
  6
Continuous
 62
   214
100
AcDbVertex
100
AcDb2dVertex
 10
2199.534162
 20
924.334917
 30
0.0
  0
VERTEX
  5
7C2
100
AcDbEntity
  8
2
370
     9
  6
Continuous
 62
   214
100
AcDbVertex
100
AcDb2dVertex
 10
2291.534162
 20
924.334917
 30
0.0
  0
SEQEND
  5
7C3
100
AcDbEntity
  8
2
370
     9
  6
Continuous
 62
   214
  0
TEXT
  5
7C4
100
AcDbEntity
  8
2
370
     9
  6
Continuous
 62
   214
100
AcDbText
 10
2199.534162
 20
924.334917
 30
0.0
 40
23.0
  1
ブザー孔
 41
0.833333
 11
2199.534162
 21
924.334917
 31
0.0
100
AcDbText
 73
     1
  0
LINE
  5
7C5
100
AcDbEntity
  8
2
370
     9
  6
Continuous
 62
   214
100
AcDbLine
 10
2272.843022
 20
816.000251
 30
0.0
 11
2273.787901
 21
839.981644
 31
0.0
  0
LINE
  5
7C6
100
AcDbEntity
  8
2
370
     9
  6
Continuous
 62
   214
100
AcDbLine
 10
2272.843022
 20
816.000251
 30
0.0
 11
2285.652007
 21
836.296307
 31
0.0
  0
POLYLINE
  5
7C7
100
AcDbEntity
  8
2
370
     9
  6
Continuous
 62
   214
100
AcDb2dPolyline
 66
     1
 10
0.0
 20
0.0
 30
0.0
  0
VERTEX
  5
7C8
100
AcDbEntity
  8
2
370
     9
  6
Continuous
 62
   214
100
AcDbVertex
100
AcDb2dVertex
 10
2272.843022
 20
816.000251
 30
0.0
  0
VERTEX
  5
7C9
100
AcDbEntity
  8
2
370
     9
  6
Continuous
 62
   214
100
AcDbVertex
100
AcDb2dVertex
 10
2347.912139
 20
1057.668251
 30
0.0
  0
VERTEX
  5
7CA
100
AcDbEntity
  8
2
370
     9
  6
Continuous
 62
   214
100
AcDbVertex
100
AcDb2dVertex
 10
2577.912139
 20
1057.668251
 30
0.0
  0
SEQEND
  5
7CB
100
AcDbEntity
  8
2
370
     9
  6
Continuous
 62
   214
  0
TEXT
  5
7CC
100
AcDbEntity
  8
2
370
     9
  6
Continuous
 62
   214
100
AcDbText
 10
2347.912139
 20
1057.668251
 30
0.0
 40
23.0
  1
電源表示灯（緑／赤）
 41
0.833333
 11
2347.912139
 21
1057.668251
 31
0.0
100
AcDbText
 73
     1
  0
LINE
  5
7CD
100
AcDbEntity
  8
2
370
     9
  6
Continuous
 62
   214
100
AcDbLine
 10
2339.511822
 20
816.000251
 30
0.0
 11
2340.456701
 21
839.981644
 31
0.0
  0
LINE
  5
7CE
100
AcDbEntity
  8
2
370
     9
  6
Continuous
 62
   214
100
AcDbLine
 10
2339.511822
 20
816.000251
 30
0.0
 11
2352.320807
 21
836.296307
 31
0.0
  0
POLYLINE
  5
7CF
100
AcDbEntity
  8
2
370
     9
  6
Continuous
 62
   214
100
AcDb2dPolyline
 66
     1
 10
0.0
 20
0.0
 30
0.0
  0
VERTEX
  5
7D0
100
AcDbEntity
  8
2
370
     9
  6
Continuous
 62
   214
100
AcDbVertex
100
AcDb2dVertex
 10
2339.511822
 20
816.000251
 30
0.0
  0
VERTEX
  5
7D1
100
AcDbEntity
  8
2
370
     9
  6
Continuous
 62
   214
100
AcDbVertex
100
AcDb2dVertex
 10
2400.775201
 20
1013.223806
 30
0.0
  0
VERTEX
  5
7D2
100
AcDbEntity
  8
2
370
     9
  6
Continuous
 62
   214
100
AcDbVertex
100
AcDb2dVertex
 10
2630.775201
 20
1013.223806
 30
0.0
  0
SEQEND
  5
7D3
100
AcDbEntity
  8
2
370
     9
  6
Continuous
 62
   214
  0
TEXT
  5
7D4
100
AcDbEntity
  8
2
370
     9
  6
Continuous
 62
   214
100
AcDbText
 10
2400.775201
 20
1013.223806
 30
0.0
 40
23.0
  1
非常解錠表示灯（赤）
 41
0.833333
 11
2400.775201
 21
1013.223806
 31
0.0
100
AcDbText
 73
     1
  0
LINE
  5
7D5
100
AcDbEntity
  8
2
370
     9
  6
Continuous
 62
   214
100
AcDbLine
 10
2406.180622
 20
816.000251
 30
0.0
 11
2407.125501
 21
839.981644
 31
0.0
  0
LINE
  5
7D6
100
AcDbEntity
  8
2
370
     9
  6
Continuous
 62
   214
100
AcDbLine
 10
2406.180622
 20
816.000251
 30
0.0
 11
2418.989607
 21
836.296307
 31
0.0
  0
POLYLINE
  5
7D7
100
AcDbEntity
  8
2
370
     9
  6
Continuous
 62
   214
100
AcDb2dPolyline
 66
     1
 10
0.0
 20
0.0
 30
0.0
  0
VERTEX
  5
7D8
100
AcDbEntity
  8
2
370
     9
  6
Continuous
 62
   214
100
AcDbVertex
100
AcDb2dVertex
 10
2406.180622
 20
816.000251
 30
0.0
  0
VERTEX
  5
7D9
100
AcDbEntity
  8
2
370
     9
  6
Continuous
 62
   214
100
AcDbVertex
100
AcDb2dVertex
 10
2453.638262
 20
968.779362
 30
0.0
  0
VERTEX
  5
7DA
100
AcDbEntity
  8
2
370
     9
  6
Continuous
 62
   214
100
AcDbVertex
100
AcDb2dVertex
 10
2695.138262
 20
968.779362
 30
0.0
  0
SEQEND
  5
7DB
100
AcDbEntity
  8
2
370
     9
  6
Continuous
 62
   214
  0
TEXT
  5
7DC
100
AcDbEntity
  8
2
370
     9
  6
Continuous
 62
   214
100
AcDbText
 10
2453.638262
 20
968.779362
 30
0.0
 40
23.0
  1
一斉解錠表示灯 （赤）
 41
0.833333
 11
2453.638262
 21
968.779362
 31
0.0
100
AcDbText
 73
     1
  0
LINE
  5
7DD
100
AcDbEntity
  8
2
370
     9
  6
Continuous
 62
   214
100
AcDbLine
 10
2488.668342
 20
829.334011
 30
0.0
 11
2489.613222
 21
853.315404
 31
0.0
  0
LINE
  5
7DE
100
AcDbEntity
  8
2
370
     9
  6
Continuous
 62
   214
100
AcDbLine
 10
2488.668342
 20
829.334011
 30
0.0
 11
2501.477328
 21
849.630067
 31
0.0
  0
POLYLINE
  5
7DF
100
AcDbEntity
  8
2
370
     9
  6
Continuous
 62
   214
100
AcDb2dPolyline
 66
     1
 10
0.0
 20
0.0
 30
0.0
  0
VERTEX
  5
7E0
100
AcDbEntity
  8
2
370
     9
  6
Continuous
 62
   214
100
AcDbVertex
100
AcDb2dVertex
 10
2488.668342
 20
829.334011
 30
0.0
  0
VERTEX
  5
7E1
100
AcDbEntity
  8
2
370
     9
  6
Continuous
 62
   214
100
AcDbVertex
100
AcDb2dVertex
 10
2518.178391
 20
924.334917
 30
0.0
  0
VERTEX
  5
7E2
100
AcDbEntity
  8
2
370
     9
  6
Continuous
 62
   214
100
AcDbVertex
100
AcDb2dVertex
 10
2759.678391
 20
924.334917
 30
0.0
  0
SEQEND
  5
7E3
100
AcDbEntity
  8
2
370
     9
  6
Continuous
 62
   214
  0
TEXT
  5
7E4
100
AcDbEntity
  8
2
370
     9
  6
Continuous
 62
   214
100
AcDbText
 10
2518.178391
 20
924.334917
 30
0.0
 40
23.0
  1
リセットボタン （白）
 41
0.833333
 11
2518.178391
 21
924.334917
 31
0.0
100
AcDbText
 73
     1
  0
LINE
  5
7E5
100
AcDbEntity
  8
2
370
     9
  6
Continuous
 62
   214
100
AcDbLine
 10
2570.087365
 20
830.01564
 30
0.0
 11
2571.032244
 21
853.997033
 31
0.0
  0
LINE
  5
7E6
100
AcDbEntity
  8
2
370
     9
  6
Continuous
 62
   214
100
AcDbLine
 10
2570.087365
 20
830.01564
 30
0.0
 11
2582.896351
 21
850.311696
 31
0.0
  0
POLYLINE
  5
7E7
100
AcDbEntity
  8
2
370
     9
  6
Continuous
 62
   214
100
AcDb2dPolyline
 66
     1
 10
0.0
 20
0.0
 30
0.0
  0
VERTEX
  5
7E8
100
AcDbEntity
  8
2
370
     9
  6
Continuous
 62
   214
100
AcDbVertex
100
AcDb2dVertex
 10
2570.087365
 20
830.01564
 30
0.0
  0
VERTEX
  5
7E9
100
AcDbEntity
  8
2
370
     9
  6
Continuous
 62
   214
100
AcDbVertex
100
AcDb2dVertex
 10
2584.818626
 20
877.439593
 30
0.0
  0
VERTEX
  5
7EA
100
AcDbEntity
  8
2
370
     9
  6
Continuous
 62
   214
100
AcDbVertex
100
AcDb2dVertex
 10
2814.818626
 20
877.439593
 30
0.0
  0
SEQEND
  5
7EB
100
AcDbEntity
  8
2
370
     9
  6
Continuous
 62
   214
  0
TEXT
  5
7EC
100
AcDbEntity
  8
2
370
     9
  6
Continuous
 62
   214
100
AcDbText
 10
2584.818626
 20
877.439593
 30
0.0
 40
23.0
  1
一斉解錠ボタン（赤）
 41
0.833333
 11
2584.818626
 21
877.439593
 31
0.0
100
AcDbText
 73
     1
  0
ENDSEC
  0
SECTION
  2
OBJECTS
  0
DICTIONARY
  5
19
100
AcDbDictionary
280
     0
281
     1
  3
ACAD_GROUP
350
1A
  3
ACAD_MLINESTYLE
350
1B
  3
ACAD_LAYOUT
350
1E
  3
ACAD_PLOTSETTINGS
350
22
  3
ACAD_PLOTSTYLENAME
350
1F
  3
ACAD_WIPEOUT_VARS
350
23
  0
DICTIONARY
  5
1A
102
{ACAD_REACTORS
330
19
102
}
100
AcDbDictionary
280
     0
281
     1
  0
DICTIONARY
  5
1B
102
{ACAD_REACTORS
330
19
102
}
100
AcDbDictionary
280
     0
281
     1
  3
Standard
350
1C
  0
MLINESTYLE
  5
1C
102
{ACAD_REACTORS
330
1B
102
}
100
AcDbMlineStyle
  2
Standard
 70
     0
  3

 62
     0
 51
90.0
 52
90.0
 71
     2
 49
0.5
 62
   256
  6
ByLayer
 49
-0.5
 62
   256
  6
ByLayer
  0
ACDBDICTIONARYWDFLT
  5
1F
102
{ACAD_REACTORS
330
19
102
}
100
AcDbDictionary
281
     1
  3
Normal
350
1D
100
AcDbDictionaryWithDefault
340
1D
  0
ACDBPLACEHOLDER
  5
1D
102
{ACAD_REACTORS
330
1F
102
}
  0
LAYOUT
  5
20
102
{ACAD_REACTORS
330
1E
102
}
100
AcDbPlotSettings
  1

  2

  4

  6

 40
0.0
 41
0.0
 42
0.0
 43
0.0
 44
0.0
 45
0.0
 46
0.0
 47
0.0
 48
0.0
 49
0.0
140
0.0
141
0.0
142
1.0
143
1.0
 70
  1024
 72
     0
 73
     0
 74
     0
  7

 75
     0
147
1.0
148
0.0
149
0.0
100
AcDbLayout
  1
Model
 70
     0
 71
     0
 10
0.0
 20
0.0
 11
0.0
 21
0.0
 12
0.0
 22
0.0
 32
0.0
 14
0.0
 24
0.0
 34
0.0
 15
0.0
 25
0.0
 35
0.0
146
0.0
 13
0.0
 23
0.0
 33
0.0
 16
0.0
 26
0.0
 36
0.0
 17
0.0
 27
0.0
 37
0.0
 76
     0
330
A
331
0
345
0
346
0
  0
LAYOUT
  5
21
102
{ACAD_REACTORS
330
1E
102
}
100
AcDbPlotSettings
  1

  2

  4

  6

 40
0.0
 41
0.0
 42
0.0
 43
0.0
 44
0.0
 45
0.0
 46
0.0
 47
0.0
 48
0.0
 49
0.0
140
0.0
141
0.0
142
1.0
143
1.0
 70
     0
 72
     0
 73
     0
 74
     0
  7

 75
     0
147
1.0
148
0.0
149
0.0
100
AcDbLayout
  1
Layout1
 70
     0
 71
     0
 10
0.0
 20
0.0
 11
0.0
 21
0.0
 12
0.0
 22
0.0
 32
0.0
 14
0.0
 24
0.0
 34
0.0
 15
0.0
 25
0.0
 35
0.0
146
0.0
 13
0.0
 23
0.0
 33
0.0
 16
0.0
 26
0.0
 36
0.0
 17
0.0
 27
0.0
 37
0.0
 76
     0
330
B
331
0
345
0
346
0
  0
DICTIONARY
  5
1E
102
{ACAD_REACTORS
330
19
102
}
100
AcDbDictionary
280
     0
281
     1
  3
Layout1
350
21
  3
Model
350
20
  0
DICTIONARY
  5
22
102
{ACAD_REACTORS
330
19
102
}
100
AcDbDictionary
280
     0
281
     1
  0
WIPEOUTVARIABLES
  5
23
100
AcDbWipeoutVariables
 70
     1
  0
ENDSEC
  0
EOF
