  0
SECTION
  2
HEADER
  9
$ACADVER
  1
AC1015
  9
$ACADMAINTVER
 70
     6
  9
$DWGCODEPAGE
  3
DOS932
  9
$INSBASE
 10
0.0
 20
0.0
 30
0.0
  9
$EXTMIN
 10
0.0
 20
0.0
 30
0.0
  9
$EXTMAX
 10
2940.0
 20
2079.0
 30
0.0
  9
$LIMMIN
 10
0.0
 20
0.0
  9
$LIMMAX
 10
2940.0
 20
2079.0
  9
$ORTHOMODE
 70
     0
  9
$REGENMODE
 70
     1
  9
$FILLMODE
 70
     1
  9
$QTEXTMODE
 70
     0
  9
$MIRRTEXT
 70
     1
  9
$LTSCALE
 40
1.75
  9
$ATTMODE
 70
     1
  9
$TEXTSIZE
 40
21.0
  9
$TRACEWID
 40
0.05
  9
$TEXTSTYLE
  7
Standard
  9
$CLAYER
  8
0
  9
$CELTYPE
  6
Continuous
  9
$CECOLOR
 62
   256
  9
$CELTSCALE
 40
1.0
  9
$DISPSILH
 70
     0
  9
$DIMSCALE
 40
7.0
  9
$DIMASZ
 40
2.4
  9
$DIMEXO
 40
2.0
  9
$DIMDLI
 40
10.0
  9
$DIMRND
 40
0.0
  9
$DIMDLE
 40
0.0
  9
$DIMEXE
 40
2.0
  9
$DIMTP
 40
0.0
  9
$DIMTM
 40
0.0
  9
$DIMTXT
 40
3.0
  9
$DIMCEN
 40
0.09
  9
$DIMTSZ
 40
0.0
  9
$DIMTOL
 70
     0
  9
$DIMLIM
 70
     0
  9
$DIMTIH
 70
     0
  9
$DIMTOH
 70
     0
  9
$DIMSE1
 70
     0
  9
$DIMSE2
 70
     0
  9
$DIMTAD
 70
     3
  9
$DIMZIN
 70
     0
  9
$DIMBLK
  1

  9
$DIMASO
 70
     1
  9
$DIMSHO
 70
     1
  9
$DIMPOST
  1

  9
$DIMAPOST
  1

  9
$DIMALT
 70
     0
  9
$DIMALTD
 70
     2
  9
$DIMALTF
 40
25.4
  9
$DIMLFAC
 40
1.0
  9
$DIMTOFL
 70
     1
  9
$DIMTVP
 40
0.7
  9
$DIMTIX
 70
     0
  9
$DIMSOXD
 70
     0
  9
$DIMSAH
 70
     0
  9
$DIMBLK1
  1

  9
$DIMBLK2
  1

  9
$DIMSTYLE
  2
Standard
  9
$DIMCLRD
 70
     0
  9
$DIMCLRE
 70
     0
  9
$DIMCLRT
 70
     0
  9
$DIMTFAC
 40
0.5
  9
$DIMGAP
 40
0.5
  9
$DIMJUST
 70
     0
  9
$DIMSD1
 70
     0
  9
$DIMSD2
 70
     0
  9
$DIMTOLJ
 70
     1
  9
$DIMTZIN
 70
     0
  9
$DIMALTZ
 70
     0
  9
$DIMALTTZ
 70
     0
  9
$DIMUPT
 70
     0
  9
$DIMDEC
 70
     2
  9
$DIMTDEC
 70
     4
  9
$DIMALTU
 70
     2
  9
$DIMALTTD
 70
     2
  9
$DIMTXSTY
  7
Standard
  9
$DIMAUNIT
 70
     0
  9
$DIMADEC
 70
     0
  9
$DIMALTRND
 40
0.0
  9
$DIMAZIN
 70
     0
  9
$DIMDSEP
 70
     0
  9
$DIMATFIT
 70
     3
  9
$DIMFRAC
 70
     0
  9
$DIMLDRBLK
  1

  9
$DIMLUNIT
 70
     2
  9
$DIMLWD
 70
     0
  9
$DIMLWE
 70
     0
  9
$DIMTMOVE
 70
     0
  9
$LUNITS
 70
     2
  9
$LUPREC
 70
     4
  9
$SKETCHINC
 40
0.1
  9
$FILLETRAD
 40
0.0
  9
$AUNITS
 70
     0
  9
$AUPREC
 70
     0
  9
$MENU
  1
acad
  9
$ELEVATION
 40
0.0
  9
$PELEVATION
 40
0.0
  9
$THICKNESS
 40
0.0
  9
$LIMCHECK
 70
     0
  9
$CHAMFERA
 40
0.0
  9
$CHAMFERB
 40
0.0
  9
$CHAMFERC
 40
0.0
  9
$CHAMFERD
 40
0.0
  9
$SKPOLY
 70
     0
  9
$TDCREATE
 40
2459082.563576389
  9
$TDUCREATE
 40
0.000000000
  9
$TDUPDATE
 40
2459082.563576389
  9
$TDUUPDATE
 40
0.000000000
  9
$TDINDWG
 40
0.0000000000
  9
$TDUSRTIMER
 40
0.0000000000
  9
$USRTIMER
 70
     1
  9
$ANGBASE
 50
0.0
  9
$ANGDIR
 70
     0
  9
$PDMODE
 70
     0
  9
$PDSIZE
 40
0.0
  9
$PLINEWID
 40
0.0
  9
$SPLFRAME
 70
     0
  9
$SPLINETYPE
 70
     6
  9
$SPLINESEGS
 70
     8
  9
$HANDSEED
  5
65A
  9
$SURFTAB1
 70
     6
  9
$SURFTAB2
 70
     6
  9
$SURFTYPE
 70
     6
  9
$SURFU
 70
     6
  9
$SURFV
 70
     6
  9
$UCSBASE
  2

  9
$UCSNAME
  2

  9
$UCSORG
 10
0.0
 20
0.0
 30
0.0
  9
$UCSXDIR
 10
1.0
 20
0.0
 30
0.0
  9
$UCSYDIR
 10
0.0
 20
1.0
 30
0.0
  9
$UCSORTHOREF
  2

  9
$UCSORTHOVIEW
 70
     0
  9
$UCSORGTOP
 10
0.0
 20
0.0
 30
0.0
  9
$UCSORGBOTTOM
 10
0.0
 20
0.0
 30
0.0
  9
$UCSORGLEFT
 10
0.0
 20
0.0
 30
0.0
  9
$UCSORGRIGHT
 10
0.0
 20
0.0
 30
0.0
  9
$UCSORGFRONT
 10
0.0
 20
0.0
 30
0.0
  9
$UCSORGBACK
 10
0.0
 20
0.0
 30
0.0
  9
$PUCSBASE
  2

  9
$PUCSNAME
  2

  9
$PUCSORG
 10
0.0
 20
0.0
 30
0.0
  9
$PUCSXDIR
 10
1.0
 20
0.0
 30
0.0
  9
$PUCSYDIR
 10
0.0
 20
1.0
 30
0.0
  9
$PUCSORTHOREF
  2

  9
$PUCSORTHOVIEW
 70
     0
  9
$PUCSORGTOP
 10
0.0
 20
0.0
 30
0.0
  9
$PUCSORGBOTTOM
 10
0.0
 20
0.0
 30
0.0
  9
$PUCSORGLEFT
 10
0.0
 20
0.0
 30
0.0
  9
$PUCSORGRIGHT
 10
0.0
 20
0.0
 30
0.0
  9
$PUCSORGFRONT
 10
0.0
 20
0.0
 30
0.0
  9
$PUCSORGBACK
 10
0.0
 20
0.0
 30
0.0
  9
$USERI1
 70
     0
  9
$USERI2
 70
     0
  9
$USERI3
 70
     0
  9
$USERI4
 70
     0
  9
$USERI5
 70
     0
  9
$USERR1
 40
0.0
  9
$USERR2
 40
0.0
  9
$USERR3
 40
0.0
  9
$USERR4
 40
0.0
  9
$USERR5
 40
0.0
  9
$WORLDVIEW
 70
     1
  9
$SHADEDGE
 70
     3
  9
$SHADEDIF
 70
    70
  9
$TILEMODE
 70
     1
  9
$MAXACTVP
 70
    16
  9
$PINSBASE
 10
0.0
 20
0.0
 30
0.0
  9
$PLIMCHECK
 70
     0
  9
$PEXTMIN
 10
0.0
 20
0.0
 30
0.0
  9
$PEXTMAX
 10
420.0
 20
297.0
 30
0.0
  9
$PLIMMIN
 10
0.0
 20
0.0
  9
$PLIMMAX
 10
420.0
 20
297.0
  9
$UNITMODE
 70
     0
  9
$VISRETAIN
 70
     0
  9
$PLINEGEN
 70
     1
  9
$PSLTSCALE
 70
     0
  9
$TREEDEPTH
 70
  3020
  9
$CMLSTYLE
  2
Standard
  9
$CMLJUST
 70
     0
  9
$CMLSCALE
 40
1.0
  9
$PROXYGRAPHICS
 70
     0
  9
$MEASUREMENT
 70
     0
  9
$CELWEIGHT
370
     0
  9
$ENDCAPS
280
     0
  9
$JOINSTYLE
280
     0
  9
$LWDISPLAY
290
     0
  9
$INSUNITS
 70
     0
  9
$HYPERLINKBASE
  1

  9
$STYLESHEET
  1

  9
$XEDIT
290
     1
  9
$CEPSNTYPE
380
     0
  9
$PSTYLEMODE
290
     1
  9
$FINGERPRINTGUID
  2

  9
$VERSIONGUID
  2

  9
$EXTNAMES
290
     1
  9
$PSVPSCALE
 40
0.0
  0
ENDSEC
  0
SECTION
  2
CLASSES
  0
CLASS
  1
LWPOLYLINE
  2
AcDbPolyline
  3
AutoCAD 2000
 90
    32768
280
     0
281
     1
  0
CLASS
  1
IMAGE
  2
AcDbRasterImage
  3
ISM
 90
    32895
280
     0
281
     1
  0
CLASS
  1
OLE2FRAME
  2
AcDbOle2Frame
  3
AutoCAD 2000
 90
    32768
280
     0
281
     1
  0
CLASS
  1
HATCH
  2
AcDbHatch
  3
AutoCAD 2000
 90
    32768
280
     0
281
     1
  0
CLASS
  1
DICTIONARYVAR
  2
AcDbDictionaryVar
  3
AutoCAD 2000
 90
    32768
280
     0
281
     0
  0
CLASS
  1
RASTERVARIABLES
  2
AcDbRasterVariables
  3
ISM
 90
    32768
280
     0
281
     0
  0
CLASS
  1
IMAGEDEF
  2
AcDbRasterImageDef
  3
ISM
 90
    32768
280
     0
281
     0
  0
CLASS
  1
IMAGEDEF_REACTOR
  2
AcDbRasterImageDefReactor
  3
ISM
 90
    32769
280
     0
281
     0
  0
CLASS
  1
IDBUFFER
  2
AcDbIdBuffer
  3
AutoCAD 2000
 90
    32768
280
     0
281
     0
  0
CLASS
  1
SPATIAL_FILTER
  2
AcDbSpatialFilter
  3
AutoCAD 2000
 90
    32768
280
     0
281
     0
  0
CLASS
  1
XRECORD
  2
AcDbXrecord
  3
AutoCAD 2000
 90
    32768
280
     0
281
     0
  0
CLASS
  1
SORTENTSTABLE
  2
AcDbSortentsTable
  3
AutoCAD 2000
 90
    32768
280
     0
281
     0
  0
CLASS
  1
LAYER_INDEX
  2
AcDbLayerIndex
  3
AutoCAD 2000
 90
    32768
280
     0
281
     0
  0
CLASS
  1
SPATIAL_INDEX
  2
AcDbSpatialIndex
  3
AutoCAD 2000
 90
    32768
280
     0
281
     0
  0
CLASS
  1
OBJECT_PTR
  2
CAseDLPNTableRecord
  3
"ASE-LPNTableRecord"
 90
    32769
280
     0
281
     0
  0
CLASS
  1
LAYOUT
  2
AcDbLayout
  3
AutoCAD 2000
 90
        0
280
     0
281
     0
  0
CLASS
  1
PLOTSETTINGS
  2
AcDbPlotSettings
  3
AutoCAD 2000
 90
    32768
280
     0
281
     0
  0
CLASS
  1
ACDBDICTIONARYWDFLT
  2
AcDbDictionaryWithDefault
  3
AutoCAD 2000
 90
        0
280
     0
281
     0
  0
CLASS
  1
ACDBPLACEHOLDER
  2
AcDbPlaceHolder
  3
AutoCAD 2000
 90
        0
280
     0
281
     0
  0
CLASS
  1
VBA_PROJECT
  2
AcDbVbaProject
  3
acadvba
 90
    32768
280
     0
281
     0
  0
CLASS
  1
WIPEOUT
  2
AcDbWipeout
  3
WipeOut|AutoCAD Express Tool|expresstools@autodesk.com
 90
    32895
280
     0
281
     1
  0
CLASS
  1
WIPEOUTVARIABLES
  2
AcDbWipeoutVariables
  3
WipeOut|AutoCAD Express Tool|expresstools@autodesk.com
 90
        0
280
     0
281
     0
  0
CLASS
  1
RTEXT
  2
RText
  3
RText|AutoCAD Express Tool|expresstools@autodesk.com
 90
    32768
280
     0
281
     1
  0
CLASS
  1
ARCALIGNEDTEXT
  2
AcDbArcAlignedText
  3
ATEXT|AutoCAD Express Tool|expresstools@autodesk.com
 90
    32768
280
     0
281
     1
  0
ENDSEC
  0
SECTION
  2
TABLES
  0
TABLE
  2
VPORT
  5
7
100
AcDbSymbolTable
 70
     1
  0
VPORT
  5
15
100
AcDbSymbolTableRecord
100
AcDbViewportTableRecord
  2
*ACTIVE
 70
     0
 10
0.0
 20
0.0
 11
1.0
 21
1.0
 12
6.591288
 22
4.579184
 13
0.0
 23
0.0
 14
1.0
 24
1.0
 15
0.0
 25
0.0
 16
0.0
 26
0.0
 36
1.0
 17
0.0
 27
0.0
 37
0.0
 40
9.158369
 41
0.688564
 42
50.0
 43
0.0
 44
0.0
 50
0.0
 51
0.0
 71
     0
 72
   100
 73
     1
 74
     1
 75
     0
 76
     0
 77
     0
 78
     0
281
     0
 65
     0
110
0.0
120
0.0
130
0.0
111
1.0
121
0.0
131
0.0
112
0.0
122
1.0
132
0.0
345
0
346
0
 79
     0
146
0.0
  0
ENDTAB
  0
TABLE
  2
LTYPE
  5
4
100
AcDbSymbolTable
 70
     9
  0
LTYPE
  5
11
100
AcDbSymbolTableRecord
100
AcDbLinetypeTableRecord
  2
ByBlock
 70
    64
  3

 72
    65
 73
     0
 40
0.0
  0
LTYPE
  5
12
100
AcDbSymbolTableRecord
100
AcDbLinetypeTableRecord
  2
ByLayer
 70
    64
  3

 72
    65
 73
     0
 40
0.0
  0
LTYPE
  5
13
100
AcDbSymbolTableRecord
100
AcDbLinetypeTableRecord
  2
Continuous
 70
    64
  3
Solid line
 72
    65
 73
     0
 40
0.0
  0
LTYPE
  5
25
100
AcDbSymbolTableRecord
100
AcDbLinetypeTableRecord
  2
HIDDEN
 70
    64
  3
- - - - - - - - 
 72
    65
 73
     2
 40
12.6
 49
8.4
 74
     0
 49
-4.2
 74
     0
  0
LTYPE
  5
26
100
AcDbSymbolTableRecord
100
AcDbLinetypeTableRecord
  2
DOT
 70
    64
  3
･ ･ ･ ･ ･ ･ ･ ･ 
 72
    65
 73
     2
 40
8.0
 49
6.0
 74
     0
 49
-2.0
 74
     0
  0
LTYPE
  5
27
100
AcDbSymbolTableRecord
100
AcDbLinetypeTableRecord
  2
CENTER
 70
    64
  3
- ･ - ･ - ･ - ･ 
 72
    65
 73
     4
 40
50.5
 49
30.0
 74
     0
 49
-9.0
 74
     0
 49
2.5
 74
     0
 49
-9.0
 74
     0
  0
LTYPE
  5
28
100
AcDbSymbolTableRecord
100
AcDbLinetypeTableRecord
  2
PHANTOM
 70
    64
  3
- ･･ - ･･ - ･･ - ･･ 
 72
    65
 73
     6
 40
58.0
 49
30.0
 74
     0
 49
-9.0
 74
     0
 49
2.5
 74
     0
 49
-5.0
 74
     0
 49
2.5
 74
     0
 49
-9.0
 74
     0
  0
LTYPE
  5
29
100
AcDbSymbolTableRecord
100
AcDbLinetypeTableRecord
  2
ACAD_ISO06W100
 70
    64
  3
____ ... ____ ... ____
 72
    65
 73
     8
 40
37.5
 49
24.0
 74
     0
 49
-3.0
 74
     0
 49
0.5
 74
     0
 49
-3.0
 74
     0
 49
0.5
 74
     0
 49
-3.0
 74
     0
 49
0.5
 74
     0
 49
-3.0
 74
     0
  0
LTYPE
  5
2A
100
AcDbSymbolTableRecord
100
AcDbLinetypeTableRecord
  2
ACAD_ISO14W100
 70
    64
  3
__ . . . __ . . . __ . . . 
 72
    65
 73
     8
 40
25.5
 49
12.0
 74
     0
 49
-3.0
 74
     0
 49
0.5
 74
     0
 49
-3.0
 74
     0
 49
0.5
 74
     0
 49
-3.0
 74
     0
 49
0.5
 74
     0
 49
-3.0
 74
     0
  0
ENDTAB
  0
TABLE
  2
LAYER
  5
2
100
AcDbSymbolTable
 70
    31
  0
LAYER
  5
14
100
AcDbSymbolTableRecord
100
AcDbLayerTableRecord
  2
0
 70
     0
 62
     7
  6
Continuous
290
     1
370
    -3
390
1D
  0
LAYER
  5
2B
100
AcDbSymbolTableRecord
100
AcDbLayerTableRecord
  2
1
 70
     0
 62
     7
  6
Continuous
290
     1
370
    -3
390
1D
  0
LAYER
  5
2C
100
AcDbSymbolTableRecord
100
AcDbLayerTableRecord
  2
2
 70
     0
 62
   214
  6
Continuous
290
     1
370
    -3
390
1D
  0
LAYER
  5
2D
100
AcDbSymbolTableRecord
100
AcDbLayerTableRecord
  2
3
 70
     0
 62
   216
  6
Continuous
290
     1
370
    -3
390
1D
  0
LAYER
  5
2E
100
AcDbSymbolTableRecord
100
AcDbLayerTableRecord
  2
4
 70
     0
 62
    54
  6
Continuous
290
     1
370
    -3
390
1D
  0
LAYER
  5
2F
100
AcDbSymbolTableRecord
100
AcDbLayerTableRecord
  2
5
 70
     0
 62
    94
  6
Continuous
290
     1
370
    -3
390
1D
  0
LAYER
  5
30
100
AcDbSymbolTableRecord
100
AcDbLayerTableRecord
  2
6
 70
     0
 62
    14
  6
Continuous
290
     1
370
    -3
390
1D
  0
LAYER
  5
31
100
AcDbSymbolTableRecord
100
AcDbLayerTableRecord
  2
7
 70
     0
 62
     4
  6
Continuous
290
     1
370
    -3
390
1D
  0
LAYER
  5
32
100
AcDbSymbolTableRecord
100
AcDbLayerTableRecord
  2
8
 70
     0
 62
     6
  6
Continuous
290
     1
370
    -3
390
1D
  0
LAYER
  5
33
100
AcDbSymbolTableRecord
100
AcDbLayerTableRecord
  2
9
 70
     0
 62
     2
  6
Continuous
290
     1
370
    -3
390
1D
  0
LAYER
  5
34
100
AcDbSymbolTableRecord
100
AcDbLayerTableRecord
  2
10
 70
     0
 62
     3
  6
Continuous
290
     1
370
    -3
390
1D
  0
LAYER
  5
35
100
AcDbSymbolTableRecord
100
AcDbLayerTableRecord
  2
11
 70
     0
 62
   251
  6
Continuous
290
     1
370
    -3
390
1D
  0
LAYER
  5
36
100
AcDbSymbolTableRecord
100
AcDbLayerTableRecord
  2
12
 70
     0
 62
   136
  6
Continuous
290
     1
370
    -3
390
1D
  0
LAYER
  5
37
100
AcDbSymbolTableRecord
100
AcDbLayerTableRecord
  2
13
 70
     0
 62
     7
  6
Continuous
290
     1
370
    -3
390
1D
  0
LAYER
  5
38
100
AcDbSymbolTableRecord
100
AcDbLayerTableRecord
  2
14
 70
     0
 62
    56
  6
Continuous
290
     1
370
    -3
390
1D
  0
LAYER
  5
39
100
AcDbSymbolTableRecord
100
AcDbLayerTableRecord
  2
15
 70
     0
 62
    96
  6
Continuous
290
     1
370
    -3
390
1D
  0
LAYER
  5
3A
100
AcDbSymbolTableRecord
100
AcDbLayerTableRecord
  2
16
 70
     0
 62
    16
  6
Continuous
290
     1
370
    -3
390
1D
  0
LAYER
  5
3B
100
AcDbSymbolTableRecord
100
AcDbLayerTableRecord
  2
17
 70
     0
 62
   132
  6
Continuous
290
     1
370
    -3
390
1D
  0
LAYER
  5
3C
100
AcDbSymbolTableRecord
100
AcDbLayerTableRecord
  2
18
 70
     0
 62
   212
  6
Continuous
290
     1
370
    -3
390
1D
  0
LAYER
  5
3D
100
AcDbSymbolTableRecord
100
AcDbLayerTableRecord
  2
19
 70
     0
 62
    52
  6
Continuous
290
     1
370
    -3
390
1D
  0
LAYER
  5
3E
100
AcDbSymbolTableRecord
100
AcDbLayerTableRecord
  2
20
 70
     0
 62
   250
  6
Continuous
290
     1
370
    -3
390
1D
  0
LAYER
  5
3F
100
AcDbSymbolTableRecord
100
AcDbLayerTableRecord
  2
22
 70
     0
 62
     7
  6
Continuous
290
     1
370
    -3
390
1D
  0
LAYER
  5
40
100
AcDbSymbolTableRecord
100
AcDbLayerTableRecord
  2
24
 70
     0
 62
     7
  6
Continuous
290
     1
370
    -3
390
1D
  0
LAYER
  5
41
100
AcDbSymbolTableRecord
100
AcDbLayerTableRecord
  2
25
 70
     0
 62
     7
  6
Continuous
290
     1
370
    -3
390
1D
  0
LAYER
  5
42
100
AcDbSymbolTableRecord
100
AcDbLayerTableRecord
  2
128
 70
     0
 62
     7
  6
Continuous
290
     1
370
    -3
390
1D
  0
LAYER
  5
43
100
AcDbSymbolTableRecord
100
AcDbLayerTableRecord
  2
129
 70
     0
 62
     7
  6
Continuous
290
     1
370
    -3
390
1D
  0
LAYER
  5
44
100
AcDbSymbolTableRecord
100
AcDbLayerTableRecord
  2
130
 70
     0
 62
     7
  6
Continuous
290
     1
370
    -3
390
1D
  0
LAYER
  5
45
100
AcDbSymbolTableRecord
100
AcDbLayerTableRecord
  2
131
 70
     0
 62
     7
  6
Continuous
290
     1
370
    -3
390
1D
  0
LAYER
  5
46
100
AcDbSymbolTableRecord
100
AcDbLayerTableRecord
  2
258
 70
     0
 62
     7
  6
Continuous
290
     1
370
    -3
390
1D
  0
LAYER
  5
47
100
AcDbSymbolTableRecord
100
AcDbLayerTableRecord
  2
260
 70
     0
 62
     7
  6
Continuous
290
     1
370
    -3
390
1D
  0
LAYER
  5
48
100
AcDbSymbolTableRecord
100
AcDbLayerTableRecord
  2
261
 70
     0
 62
     5
  6
Continuous
290
     1
370
    -3
390
1D
  0
ENDTAB
  0
TABLE
  2
STYLE
  5
3
100
AcDbSymbolTable
 70
     2
  0
STYLE
  5
17
100
AcDbSymbolTableRecord
100
AcDbTextStyleTableRecord
  2
Standard
 70
     0
 40
0.0
 41
1.0
 50
0.0
 71
     0
 42
0.0
  3
txt
  4
bigfont
  0
STYLE
  5
24
100
AcDbSymbolTableRecord
100
AcDbTextStyleTableRecord
  2
T_STANDARD
 70
    68
 40
10.0
 41
1.0
 50
0.0
 71
     0
 42
10.0
  3
txt
  4
bigfont
  0
ENDTAB
  0
TABLE
  2
VIEW
  5
5
100
AcDbSymbolTable
 70
     0
  0
ENDTAB
  0
TABLE
  2
UCS
  5
6
100
AcDbSymbolTable
 70
     0
  0
ENDTAB
  0
TABLE
  2
APPID
  5
8
100
AcDbSymbolTable
 70
     1
  0
APPID
  5
16
100
AcDbSymbolTableRecord
100
AcDbRegAppTableRecord
  2
ACAD
 70
     0
  0
ENDTAB
  0
TABLE
  2
DIMSTYLE
  5
9
100
AcDbSymbolTable
 70
     1
100
AcDbDimStyleTable
 71
     0
  0
DIMSTYLE
105
18
100
AcDbSymbolTableRecord
100
AcDbDimStyleTableRecord
  2
Standard
 70
     0
  3

  4

 40
1.0
 41
0.18
 42
0.0625
 43
0.38
 44
0.18
 45
0.0
 46
0.0
 47
0.0
 48
0.0
 71
     0
 72
     0
 73
     1
 74
     1
 75
     0
 76
     0
 77
     0
 78
     0
 79
     0
140
0.18
141
0.09
142
0.0
143
25.4
144
1.0
145
0.0
146
1.0
147
0.09
148
0.0
170
     0
171
     2
172
     0
173
     0
174
     0
175
     0
176
     0
177
     0
178
     0
179
     0
271
     4
272
     4
273
     2
274
     2
275
     0
276
     0
277
     2
278
    46
279
     0
280
     0
281
     0
282
     0
283
     1
284
     0
285
     0
286
     0
288
     0
340
17
341
0
342
0
343
0
344
0
371
    -2
372
    -2
  0
ENDTAB
  0
TABLE
  2
BLOCK_RECORD
  5
1
100
AcDbSymbolTable
 70
    74
  0
BLOCK_RECORD
  5
A
100
AcDbSymbolTableRecord
100
AcDbBlockTableRecord
  2
*MODEL_SPACE
340
20
  0
BLOCK_RECORD
  5
B
100
AcDbSymbolTableRecord
100
AcDbBlockTableRecord
  2
*PAPER_SPACE
340
21
  0
BLOCK_RECORD
  5
49
100
AcDbSymbolTableRecord
100
AcDbBlockTableRecord
  2
*G0
340
0
102
{BLKREFS
331
4C
102
}
  0
BLOCK_RECORD
  5
71
100
AcDbSymbolTableRecord
100
AcDbBlockTableRecord
  2
*G1
340
0
102
{BLKREFS
331
75
102
}
  0
BLOCK_RECORD
  5
199
100
AcDbSymbolTableRecord
100
AcDbBlockTableRecord
  2
*G2
340
0
102
{BLKREFS
331
1A0
102
}
  0
BLOCK_RECORD
  5
1A1
100
AcDbSymbolTableRecord
100
AcDbBlockTableRecord
  2
*G3
340
0
102
{BLKREFS
331
1A8
102
}
  0
BLOCK_RECORD
  5
1AC
100
AcDbSymbolTableRecord
100
AcDbBlockTableRecord
  2
*G4
340
0
102
{BLKREFS
331
1B3
102
}
  0
BLOCK_RECORD
  5
1C2
100
AcDbSymbolTableRecord
100
AcDbBlockTableRecord
  2
*G5
340
0
102
{BLKREFS
331
1C9
102
}
  0
BLOCK_RECORD
  5
1CA
100
AcDbSymbolTableRecord
100
AcDbBlockTableRecord
  2
*G6
340
0
102
{BLKREFS
331
1D1
102
}
  0
BLOCK_RECORD
  5
1D5
100
AcDbSymbolTableRecord
100
AcDbBlockTableRecord
  2
*G7
340
0
102
{BLKREFS
331
1DC
102
}
  0
BLOCK_RECORD
  5
1EA
100
AcDbSymbolTableRecord
100
AcDbBlockTableRecord
  2
*G8
340
0
102
{BLKREFS
331
1F1
102
}
  0
BLOCK_RECORD
  5
1F2
100
AcDbSymbolTableRecord
100
AcDbBlockTableRecord
  2
*G9
340
0
102
{BLKREFS
331
1F9
102
}
  0
BLOCK_RECORD
  5
1FD
100
AcDbSymbolTableRecord
100
AcDbBlockTableRecord
  2
*G10
340
0
102
{BLKREFS
331
204
102
}
  0
BLOCK_RECORD
  5
212
100
AcDbSymbolTableRecord
100
AcDbBlockTableRecord
  2
*G11
340
0
102
{BLKREFS
331
219
102
}
  0
BLOCK_RECORD
  5
21A
100
AcDbSymbolTableRecord
100
AcDbBlockTableRecord
  2
*G12
340
0
102
{BLKREFS
331
221
102
}
  0
BLOCK_RECORD
  5
225
100
AcDbSymbolTableRecord
100
AcDbBlockTableRecord
  2
*G13
340
0
102
{BLKREFS
331
22C
102
}
  0
BLOCK_RECORD
  5
23A
100
AcDbSymbolTableRecord
100
AcDbBlockTableRecord
  2
*G14
340
0
102
{BLKREFS
331
241
102
}
  0
BLOCK_RECORD
  5
242
100
AcDbSymbolTableRecord
100
AcDbBlockTableRecord
  2
*G15
340
0
102
{BLKREFS
331
249
102
}
  0
BLOCK_RECORD
  5
24D
100
AcDbSymbolTableRecord
100
AcDbBlockTableRecord
  2
*G16
340
0
102
{BLKREFS
331
254
102
}
  0
BLOCK_RECORD
  5
260
100
AcDbSymbolTableRecord
100
AcDbBlockTableRecord
  2
*G17
340
0
102
{BLKREFS
331
267
102
}
  0
BLOCK_RECORD
  5
268
100
AcDbSymbolTableRecord
100
AcDbBlockTableRecord
  2
*G18
340
0
102
{BLKREFS
331
26F
102
}
  0
BLOCK_RECORD
  5
273
100
AcDbSymbolTableRecord
100
AcDbBlockTableRecord
  2
*G19
340
0
102
{BLKREFS
331
27A
102
}
  0
BLOCK_RECORD
  5
28A
100
AcDbSymbolTableRecord
100
AcDbBlockTableRecord
  2
*G20
340
0
102
{BLKREFS
331
291
102
}
  0
BLOCK_RECORD
  5
292
100
AcDbSymbolTableRecord
100
AcDbBlockTableRecord
  2
*G21
340
0
102
{BLKREFS
331
299
102
}
  0
BLOCK_RECORD
  5
29D
100
AcDbSymbolTableRecord
100
AcDbBlockTableRecord
  2
*G22
340
0
102
{BLKREFS
331
2A4
102
}
  0
BLOCK_RECORD
  5
2B2
100
AcDbSymbolTableRecord
100
AcDbBlockTableRecord
  2
*G23
340
0
102
{BLKREFS
331
2B9
102
}
  0
BLOCK_RECORD
  5
2BA
100
AcDbSymbolTableRecord
100
AcDbBlockTableRecord
  2
*G24
340
0
102
{BLKREFS
331
2C1
102
}
  0
BLOCK_RECORD
  5
2C5
100
AcDbSymbolTableRecord
100
AcDbBlockTableRecord
  2
*G25
340
0
102
{BLKREFS
331
2CC
102
}
  0
BLOCK_RECORD
  5
2DA
100
AcDbSymbolTableRecord
100
AcDbBlockTableRecord
  2
*G26
340
0
102
{BLKREFS
331
2E1
102
}
  0
BLOCK_RECORD
  5
2E2
100
AcDbSymbolTableRecord
100
AcDbBlockTableRecord
  2
*G27
340
0
102
{BLKREFS
331
2E9
102
}
  0
BLOCK_RECORD
  5
2ED
100
AcDbSymbolTableRecord
100
AcDbBlockTableRecord
  2
*G28
340
0
102
{BLKREFS
331
2F4
102
}
  0
BLOCK_RECORD
  5
302
100
AcDbSymbolTableRecord
100
AcDbBlockTableRecord
  2
*G29
340
0
102
{BLKREFS
331
309
102
}
  0
BLOCK_RECORD
  5
30A
100
AcDbSymbolTableRecord
100
AcDbBlockTableRecord
  2
*G30
340
0
102
{BLKREFS
331
311
102
}
  0
BLOCK_RECORD
  5
315
100
AcDbSymbolTableRecord
100
AcDbBlockTableRecord
  2
*G31
340
0
102
{BLKREFS
331
31C
102
}
  0
BLOCK_RECORD
  5
328
100
AcDbSymbolTableRecord
100
AcDbBlockTableRecord
  2
*G32
340
0
102
{BLKREFS
331
32F
102
}
  0
BLOCK_RECORD
  5
330
100
AcDbSymbolTableRecord
100
AcDbBlockTableRecord
  2
*G33
340
0
102
{BLKREFS
331
337
102
}
  0
BLOCK_RECORD
  5
33B
100
AcDbSymbolTableRecord
100
AcDbBlockTableRecord
  2
*G34
340
0
102
{BLKREFS
331
342
102
}
  0
BLOCK_RECORD
  5
352
100
AcDbSymbolTableRecord
100
AcDbBlockTableRecord
  2
*G35
340
0
102
{BLKREFS
331
359
102
}
  0
BLOCK_RECORD
  5
35A
100
AcDbSymbolTableRecord
100
AcDbBlockTableRecord
  2
*G36
340
0
102
{BLKREFS
331
361
102
}
  0
BLOCK_RECORD
  5
365
100
AcDbSymbolTableRecord
100
AcDbBlockTableRecord
  2
*G37
340
0
102
{BLKREFS
331
36C
102
}
  0
BLOCK_RECORD
  5
37A
100
AcDbSymbolTableRecord
100
AcDbBlockTableRecord
  2
*G38
340
0
102
{BLKREFS
331
381
102
}
  0
BLOCK_RECORD
  5
382
100
AcDbSymbolTableRecord
100
AcDbBlockTableRecord
  2
*G39
340
0
102
{BLKREFS
331
389
102
}
  0
BLOCK_RECORD
  5
38D
100
AcDbSymbolTableRecord
100
AcDbBlockTableRecord
  2
*G40
340
0
102
{BLKREFS
331
394
102
}
  0
BLOCK_RECORD
  5
3A2
100
AcDbSymbolTableRecord
100
AcDbBlockTableRecord
  2
*G41
340
0
102
{BLKREFS
331
3A9
102
}
  0
BLOCK_RECORD
  5
3AA
100
AcDbSymbolTableRecord
100
AcDbBlockTableRecord
  2
*G42
340
0
102
{BLKREFS
331
3B1
102
}
  0
BLOCK_RECORD
  5
3B5
100
AcDbSymbolTableRecord
100
AcDbBlockTableRecord
  2
*G43
340
0
102
{BLKREFS
331
3BC
102
}
  0
BLOCK_RECORD
  5
3CA
100
AcDbSymbolTableRecord
100
AcDbBlockTableRecord
  2
*G44
340
0
102
{BLKREFS
331
3D1
102
}
  0
BLOCK_RECORD
  5
3D2
100
AcDbSymbolTableRecord
100
AcDbBlockTableRecord
  2
*G45
340
0
102
{BLKREFS
331
3D9
102
}
  0
BLOCK_RECORD
  5
3DD
100
AcDbSymbolTableRecord
100
AcDbBlockTableRecord
  2
*G46
340
0
102
{BLKREFS
331
3E4
102
}
  0
BLOCK_RECORD
  5
3F0
100
AcDbSymbolTableRecord
100
AcDbBlockTableRecord
  2
*G47
340
0
102
{BLKREFS
331
3F7
102
}
  0
BLOCK_RECORD
  5
3F8
100
AcDbSymbolTableRecord
100
AcDbBlockTableRecord
  2
*G48
340
0
102
{BLKREFS
331
3FF
102
}
  0
BLOCK_RECORD
  5
403
100
AcDbSymbolTableRecord
100
AcDbBlockTableRecord
  2
*G49
340
0
102
{BLKREFS
331
40A
102
}
  0
BLOCK_RECORD
  5
40F
100
AcDbSymbolTableRecord
100
AcDbBlockTableRecord
  2
*G50
340
0
102
{BLKREFS
331
416
102
}
  0
BLOCK_RECORD
  5
419
100
AcDbSymbolTableRecord
100
AcDbBlockTableRecord
  2
*G51
340
0
102
{BLKREFS
331
420
102
}
  0
BLOCK_RECORD
  5
423
100
AcDbSymbolTableRecord
100
AcDbBlockTableRecord
  2
*G52
340
0
102
{BLKREFS
331
42A
102
}
  0
BLOCK_RECORD
  5
42D
100
AcDbSymbolTableRecord
100
AcDbBlockTableRecord
  2
*G53
340
0
102
{BLKREFS
331
434
102
}
  0
BLOCK_RECORD
  5
435
100
AcDbSymbolTableRecord
100
AcDbBlockTableRecord
  2
*G54
340
0
102
{BLKREFS
331
43C
102
}
  0
BLOCK_RECORD
  5
451
100
AcDbSymbolTableRecord
100
AcDbBlockTableRecord
  2
*D55
340
0
  0
BLOCK_RECORD
  5
45D
100
AcDbSymbolTableRecord
100
AcDbBlockTableRecord
  2
*D56
340
0
  0
BLOCK_RECORD
  5
469
100
AcDbSymbolTableRecord
100
AcDbBlockTableRecord
  2
*D57
340
0
  0
BLOCK_RECORD
  5
4C7
100
AcDbSymbolTableRecord
100
AcDbBlockTableRecord
  2
*D58
340
0
  0
BLOCK_RECORD
  5
4D3
100
AcDbSymbolTableRecord
100
AcDbBlockTableRecord
  2
*D59
340
0
  0
BLOCK_RECORD
  5
4F6
100
AcDbSymbolTableRecord
100
AcDbBlockTableRecord
  2
*G60
340
0
102
{BLKREFS
331
4FD
102
}
  0
BLOCK_RECORD
  5
4FE
100
AcDbSymbolTableRecord
100
AcDbBlockTableRecord
  2
*D61
340
0
  0
BLOCK_RECORD
  5
50A
100
AcDbSymbolTableRecord
100
AcDbBlockTableRecord
  2
*D62
340
0
  0
BLOCK_RECORD
  5
517
100
AcDbSymbolTableRecord
100
AcDbBlockTableRecord
  2
*D63
340
0
  0
BLOCK_RECORD
  5
551
100
AcDbSymbolTableRecord
100
AcDbBlockTableRecord
  2
*G64
340
0
102
{BLKREFS
331
558
102
}
  0
BLOCK_RECORD
  5
559
100
AcDbSymbolTableRecord
100
AcDbBlockTableRecord
  2
*G65
340
0
102
{BLKREFS
331
560
102
}
  0
BLOCK_RECORD
  5
564
100
AcDbSymbolTableRecord
100
AcDbBlockTableRecord
  2
*G66
340
0
102
{BLKREFS
331
56B
102
}
  0
BLOCK_RECORD
  5
5A9
100
AcDbSymbolTableRecord
100
AcDbBlockTableRecord
  2
*G67
340
0
102
{BLKREFS
331
5B0
102
}
  0
BLOCK_RECORD
  5
5B1
100
AcDbSymbolTableRecord
100
AcDbBlockTableRecord
  2
*G68
340
0
102
{BLKREFS
331
5B8
102
}
  0
BLOCK_RECORD
  5
5BC
100
AcDbSymbolTableRecord
100
AcDbBlockTableRecord
  2
*G69
340
0
102
{BLKREFS
331
5C3
102
}
  0
BLOCK_RECORD
  5
5F5
100
AcDbSymbolTableRecord
100
AcDbBlockTableRecord
  2
*G70
340
0
102
{BLKREFS
331
5FC
102
}
  0
BLOCK_RECORD
  5
600
100
AcDbSymbolTableRecord
100
AcDbBlockTableRecord
  2
*G71
340
0
102
{BLKREFS
331
607
102
}
  0
BLOCK_RECORD
  5
608
100
AcDbSymbolTableRecord
100
AcDbBlockTableRecord
  2
*G72
340
0
102
{BLKREFS
331
60F
102
}
  0
BLOCK_RECORD
  5
622
100
AcDbSymbolTableRecord
100
AcDbBlockTableRecord
  2
*G73
340
0
102
{BLKREFS
331
628
102
}
  0
ENDTAB
  0
ENDSEC
  0
SECTION
  2
BLOCKS
  0
BLOCK
  5
D
100
AcDbEntity
  8
0
100
AcDbBlockBegin
  2
*MODEL_SPACE
 70
     0
 10
0.0
 20
0.0
 30
0.0
  3
*MODEL_SPACE
  1

  0
ENDBLK
  5
E
100
AcDbEntity
  8
0
100
AcDbBlockEnd
  0
BLOCK
  5
F
100
AcDbEntity
 67
     1
  8
0
100
AcDbBlockBegin
  2
*PAPER_SPACE
 70
     0
 10
0.0
 20
0.0
 30
0.0
  3
*PAPER_SPACE
  1

  0
ENDBLK
  5
10
100
AcDbEntity
 67
     1
  8
0
100
AcDbBlockEnd
  0
BLOCK
  5
4A
100
AcDbEntity
  8
0
370
     9
  6
Continuous
 62
     7
100
AcDbBlockBegin
  2
*G0
 70
     0
 10
0.0
 20
0.0
 30
0.0
  3
*G0
  1

  0
ENDBLK
  5
4B
100
AcDbEntity
  8
0
100
AcDbBlockEnd
  0
BLOCK
  5
72
100
AcDbEntity
  8
0
370
     9
  6
Continuous
 62
    96
100
AcDbBlockBegin
  2
*G1
 70
     0
 10
0.0
 20
0.0
 30
0.0
  3
*G1
  1

  0
LINE
  5
73
100
AcDbEntity
  8
15
370
     9
  6
Continuous
 62
    96
100
AcDbLine
 10
2270.407412
 20
180.219664
 30
0.0
 11
2272.274
 21
180.219664
 31
0.0
  0
ENDBLK
  5
74
100
AcDbEntity
  8
0
100
AcDbBlockEnd
  0
BLOCK
  5
19A
100
AcDbEntity
  8
0
370
    30
  6
Continuous
 62
     7
100
AcDbBlockBegin
  2
*G2
 70
     0
 10
0.0
 20
0.0
 30
0.0
  3
*G2
  1

  0
LINE
  5
19B
100
AcDbEntity
  8
1
370
    30
  6
Continuous
 62
     7
100
AcDbLine
 10
726.536533
 20
1180.510724
 30
0.0
 11
739.536533
 21
1180.510724
 31
0.0
  0
LINE
  5
19C
100
AcDbEntity
  8
1
370
    30
  6
Continuous
 62
     7
100
AcDbLine
 10
739.536533
 20
1180.510724
 30
0.0
 11
739.536533
 21
1193.510724
 31
0.0
  0
LINE
  5
19D
100
AcDbEntity
  8
1
370
    30
  6
Continuous
 62
     7
100
AcDbLine
 10
739.536533
 20
1193.510724
 30
0.0
 11
726.536533
 21
1193.510724
 31
0.0
  0
LINE
  5
19E
100
AcDbEntity
  8
1
370
    30
  6
Continuous
 62
     7
100
AcDbLine
 10
726.536533
 20
1193.510724
 30
0.0
 11
726.536533
 21
1180.510724
 31
0.0
  0
ENDBLK
  5
19F
100
AcDbEntity
  8
0
100
AcDbBlockEnd
  0
BLOCK
  5
1A2
100
AcDbEntity
  8
0
370
    30
  6
Continuous
 62
     7
100
AcDbBlockBegin
  2
*G3
 70
     0
 10
0.0
 20
0.0
 30
0.0
  3
*G3
  1

  0
LINE
  5
1A3
100
AcDbEntity
  8
1
370
    30
  6
Continuous
 62
     7
100
AcDbLine
 10
701.536533
 20
1180.510724
 30
0.0
 11
714.536533
 21
1180.510724
 31
0.0
  0
LINE
  5
1A4
100
AcDbEntity
  8
1
370
    30
  6
Continuous
 62
     7
100
AcDbLine
 10
714.536533
 20
1180.510724
 30
0.0
 11
714.536533
 21
1193.510724
 31
0.0
  0
LINE
  5
1A5
100
AcDbEntity
  8
1
370
    30
  6
Continuous
 62
     7
100
AcDbLine
 10
714.536533
 20
1193.510724
 30
0.0
 11
701.536533
 21
1193.510724
 31
0.0
  0
LINE
  5
1A6
100
AcDbEntity
  8
1
370
    30
  6
Continuous
 62
     7
100
AcDbLine
 10
701.536533
 20
1193.510724
 30
0.0
 11
701.536533
 21
1180.510724
 31
0.0
  0
ENDBLK
  5
1A7
100
AcDbEntity
  8
0
100
AcDbBlockEnd
  0
BLOCK
  5
1AD
100
AcDbEntity
  8
0
370
    30
  6
Continuous
 62
     7
100
AcDbBlockBegin
  2
*G4
 70
     0
 10
0.0
 20
0.0
 30
0.0
  3
*G4
  1

  0
LINE
  5
1AE
100
AcDbEntity
  8
1
370
    30
  6
Continuous
 62
     7
100
AcDbLine
 10
595.536533
 20
1172.010724
 30
0.0
 11
755.536533
 21
1172.010724
 31
0.0
  0
LINE
  5
1AF
100
AcDbEntity
  8
1
370
    30
  6
Continuous
 62
     7
100
AcDbLine
 10
755.536533
 20
1172.010724
 30
0.0
 11
755.536533
 21
1202.010724
 31
0.0
  0
LINE
  5
1B0
100
AcDbEntity
  8
1
370
    30
  6
Continuous
 62
     7
100
AcDbLine
 10
755.536533
 20
1202.010724
 30
0.0
 11
595.536533
 21
1202.010724
 31
0.0
  0
LINE
  5
1B1
100
AcDbEntity
  8
1
370
    30
  6
Continuous
 62
     7
100
AcDbLine
 10
595.536533
 20
1202.010724
 30
0.0
 11
595.536533
 21
1172.010724
 31
0.0
  0
ENDBLK
  5
1B2
100
AcDbEntity
  8
0
100
AcDbBlockEnd
  0
BLOCK
  5
1C3
100
AcDbEntity
  8
0
370
    30
  6
Continuous
 62
     7
100
AcDbBlockBegin
  2
*G5
 70
     0
 10
0.0
 20
0.0
 30
0.0
  3
*G5
  1

  0
LINE
  5
1C4
100
AcDbEntity
  8
1
370
    30
  6
Continuous
 62
     7
100
AcDbLine
 10
584.036533
 20
1431.510295
 30
0.0
 11
584.036533
 21
1418.510295
 31
0.0
  0
LINE
  5
1C5
100
AcDbEntity
  8
1
370
    30
  6
Continuous
 62
     7
100
AcDbLine
 10
584.036533
 20
1418.510295
 30
0.0
 11
597.036533
 21
1418.510295
 31
0.0
  0
LINE
  5
1C6
100
AcDbEntity
  8
1
370
    30
  6
Continuous
 62
     7
100
AcDbLine
 10
597.036533
 20
1418.510295
 30
0.0
 11
597.036533
 21
1431.510295
 31
0.0
  0
LINE
  5
1C7
100
AcDbEntity
  8
1
370
    30
  6
Continuous
 62
     7
100
AcDbLine
 10
597.036533
 20
1431.510295
 30
0.0
 11
584.036533
 21
1431.510295
 31
0.0
  0
ENDBLK
  5
1C8
100
AcDbEntity
  8
0
100
AcDbBlockEnd
  0
BLOCK
  5
1CB
100
AcDbEntity
  8
0
370
    30
  6
Continuous
 62
     7
100
AcDbBlockBegin
  2
*G6
 70
     0
 10
0.0
 20
0.0
 30
0.0
  3
*G6
  1

  0
LINE
  5
1CC
100
AcDbEntity
  8
1
370
    30
  6
Continuous
 62
     7
100
AcDbLine
 10
584.036533
 20
1456.510295
 30
0.0
 11
584.036533
 21
1443.510295
 31
0.0
  0
LINE
  5
1CD
100
AcDbEntity
  8
1
370
    30
  6
Continuous
 62
     7
100
AcDbLine
 10
584.036533
 20
1443.510295
 30
0.0
 11
597.036533
 21
1443.510295
 31
0.0
  0
LINE
  5
1CE
100
AcDbEntity
  8
1
370
    30
  6
Continuous
 62
     7
100
AcDbLine
 10
597.036533
 20
1443.510295
 30
0.0
 11
597.036533
 21
1456.510295
 31
0.0
  0
LINE
  5
1CF
100
AcDbEntity
  8
1
370
    30
  6
Continuous
 62
     7
100
AcDbLine
 10
597.036533
 20
1456.510295
 30
0.0
 11
584.036533
 21
1456.510295
 31
0.0
  0
ENDBLK
  5
1D0
100
AcDbEntity
  8
0
100
AcDbBlockEnd
  0
BLOCK
  5
1D6
100
AcDbEntity
  8
0
370
    30
  6
Continuous
 62
     7
100
AcDbBlockBegin
  2
*G7
 70
     0
 10
0.0
 20
0.0
 30
0.0
  3
*G7
  1

  0
LINE
  5
1D7
100
AcDbEntity
  8
1
370
    30
  6
Continuous
 62
     7
100
AcDbLine
 10
575.536533
 20
1562.510295
 30
0.0
 11
575.536533
 21
1402.510295
 31
0.0
  0
LINE
  5
1D8
100
AcDbEntity
  8
1
370
    30
  6
Continuous
 62
     7
100
AcDbLine
 10
575.536533
 20
1402.510295
 30
0.0
 11
605.536533
 21
1402.510295
 31
0.0
  0
LINE
  5
1D9
100
AcDbEntity
  8
1
370
    30
  6
Continuous
 62
     7
100
AcDbLine
 10
605.536533
 20
1402.510295
 30
0.0
 11
605.536533
 21
1562.510295
 31
0.0
  0
LINE
  5
1DA
100
AcDbEntity
  8
1
370
    30
  6
Continuous
 62
     7
100
AcDbLine
 10
605.536533
 20
1562.510295
 30
0.0
 11
575.536533
 21
1562.510295
 31
0.0
  0
ENDBLK
  5
1DB
100
AcDbEntity
  8
0
100
AcDbBlockEnd
  0
BLOCK
  5
1EB
100
AcDbEntity
  8
0
370
    30
  6
Continuous
 62
     7
100
AcDbBlockBegin
  2
*G8
 70
     0
 10
0.0
 20
0.0
 30
0.0
  3
*G8
  1

  0
LINE
  5
1EC
100
AcDbEntity
  8
1
370
    30
  6
Continuous
 62
     7
100
AcDbLine
 10
554.036533
 20
1431.510295
 30
0.0
 11
554.036533
 21
1418.510295
 31
0.0
  0
LINE
  5
1ED
100
AcDbEntity
  8
1
370
    30
  6
Continuous
 62
     7
100
AcDbLine
 10
554.036533
 20
1418.510295
 30
0.0
 11
567.036533
 21
1418.510295
 31
0.0
  0
LINE
  5
1EE
100
AcDbEntity
  8
1
370
    30
  6
Continuous
 62
     7
100
AcDbLine
 10
567.036533
 20
1418.510295
 30
0.0
 11
567.036533
 21
1431.510295
 31
0.0
  0
LINE
  5
1EF
100
AcDbEntity
  8
1
370
    30
  6
Continuous
 62
     7
100
AcDbLine
 10
567.036533
 20
1431.510295
 30
0.0
 11
554.036533
 21
1431.510295
 31
0.0
  0
ENDBLK
  5
1F0
100
AcDbEntity
  8
0
100
AcDbBlockEnd
  0
BLOCK
  5
1F3
100
AcDbEntity
  8
0
370
    30
  6
Continuous
 62
     7
100
AcDbBlockBegin
  2
*G9
 70
     0
 10
0.0
 20
0.0
 30
0.0
  3
*G9
  1

  0
LINE
  5
1F4
100
AcDbEntity
  8
1
370
    30
  6
Continuous
 62
     7
100
AcDbLine
 10
554.036533
 20
1456.510295
 30
0.0
 11
554.036533
 21
1443.510295
 31
0.0
  0
LINE
  5
1F5
100
AcDbEntity
  8
1
370
    30
  6
Continuous
 62
     7
100
AcDbLine
 10
554.036533
 20
1443.510295
 30
0.0
 11
567.036533
 21
1443.510295
 31
0.0
  0
LINE
  5
1F6
100
AcDbEntity
  8
1
370
    30
  6
Continuous
 62
     7
100
AcDbLine
 10
567.036533
 20
1443.510295
 30
0.0
 11
567.036533
 21
1456.510295
 31
0.0
  0
LINE
  5
1F7
100
AcDbEntity
  8
1
370
    30
  6
Continuous
 62
     7
100
AcDbLine
 10
567.036533
 20
1456.510295
 30
0.0
 11
554.036533
 21
1456.510295
 31
0.0
  0
ENDBLK
  5
1F8
100
AcDbEntity
  8
0
100
AcDbBlockEnd
  0
BLOCK
  5
1FE
100
AcDbEntity
  8
0
370
    30
  6
Continuous
 62
     7
100
AcDbBlockBegin
  2
*G10
 70
     0
 10
0.0
 20
0.0
 30
0.0
  3
*G10
  1

  0
LINE
  5
1FF
100
AcDbEntity
  8
1
370
    30
  6
Continuous
 62
     7
100
AcDbLine
 10
545.536533
 20
1562.510295
 30
0.0
 11
545.536533
 21
1402.510295
 31
0.0
  0
LINE
  5
200
100
AcDbEntity
  8
1
370
    30
  6
Continuous
 62
     7
100
AcDbLine
 10
545.536533
 20
1402.510295
 30
0.0
 11
575.536533
 21
1402.510295
 31
0.0
  0
LINE
  5
201
100
AcDbEntity
  8
1
370
    30
  6
Continuous
 62
     7
100
AcDbLine
 10
575.536533
 20
1402.510295
 30
0.0
 11
575.536533
 21
1562.510295
 31
0.0
  0
LINE
  5
202
100
AcDbEntity
  8
1
370
    30
  6
Continuous
 62
     7
100
AcDbLine
 10
575.536533
 20
1562.510295
 30
0.0
 11
545.536533
 21
1562.510295
 31
0.0
  0
ENDBLK
  5
203
100
AcDbEntity
  8
0
100
AcDbBlockEnd
  0
BLOCK
  5
213
100
AcDbEntity
  8
0
370
    30
  6
Continuous
 62
     7
100
AcDbBlockBegin
  2
*G11
 70
     0
 10
0.0
 20
0.0
 30
0.0
  3
*G11
  1

  0
LINE
  5
214
100
AcDbEntity
  8
1
370
    30
  6
Continuous
 62
     7
100
AcDbLine
 10
524.036533
 20
1431.510295
 30
0.0
 11
524.036533
 21
1418.510295
 31
0.0
  0
LINE
  5
215
100
AcDbEntity
  8
1
370
    30
  6
Continuous
 62
     7
100
AcDbLine
 10
524.036533
 20
1418.510295
 30
0.0
 11
537.036533
 21
1418.510295
 31
0.0
  0
LINE
  5
216
100
AcDbEntity
  8
1
370
    30
  6
Continuous
 62
     7
100
AcDbLine
 10
537.036533
 20
1418.510295
 30
0.0
 11
537.036533
 21
1431.510295
 31
0.0
  0
LINE
  5
217
100
AcDbEntity
  8
1
370
    30
  6
Continuous
 62
     7
100
AcDbLine
 10
537.036533
 20
1431.510295
 30
0.0
 11
524.036533
 21
1431.510295
 31
0.0
  0
ENDBLK
  5
218
100
AcDbEntity
  8
0
100
AcDbBlockEnd
  0
BLOCK
  5
21B
100
AcDbEntity
  8
0
370
    30
  6
Continuous
 62
     7
100
AcDbBlockBegin
  2
*G12
 70
     0
 10
0.0
 20
0.0
 30
0.0
  3
*G12
  1

  0
LINE
  5
21C
100
AcDbEntity
  8
1
370
    30
  6
Continuous
 62
     7
100
AcDbLine
 10
524.036533
 20
1456.510295
 30
0.0
 11
524.036533
 21
1443.510295
 31
0.0
  0
LINE
  5
21D
100
AcDbEntity
  8
1
370
    30
  6
Continuous
 62
     7
100
AcDbLine
 10
524.036533
 20
1443.510295
 30
0.0
 11
537.036533
 21
1443.510295
 31
0.0
  0
LINE
  5
21E
100
AcDbEntity
  8
1
370
    30
  6
Continuous
 62
     7
100
AcDbLine
 10
537.036533
 20
1443.510295
 30
0.0
 11
537.036533
 21
1456.510295
 31
0.0
  0
LINE
  5
21F
100
AcDbEntity
  8
1
370
    30
  6
Continuous
 62
     7
100
AcDbLine
 10
537.036533
 20
1456.510295
 30
0.0
 11
524.036533
 21
1456.510295
 31
0.0
  0
ENDBLK
  5
220
100
AcDbEntity
  8
0
100
AcDbBlockEnd
  0
BLOCK
  5
226
100
AcDbEntity
  8
0
370
    30
  6
Continuous
 62
     7
100
AcDbBlockBegin
  2
*G13
 70
     0
 10
0.0
 20
0.0
 30
0.0
  3
*G13
  1

  0
LINE
  5
227
100
AcDbEntity
  8
1
370
    30
  6
Continuous
 62
     7
100
AcDbLine
 10
515.536533
 20
1562.510295
 30
0.0
 11
515.536533
 21
1402.510295
 31
0.0
  0
LINE
  5
228
100
AcDbEntity
  8
1
370
    30
  6
Continuous
 62
     7
100
AcDbLine
 10
515.536533
 20
1402.510295
 30
0.0
 11
545.536533
 21
1402.510295
 31
0.0
  0
LINE
  5
229
100
AcDbEntity
  8
1
370
    30
  6
Continuous
 62
     7
100
AcDbLine
 10
545.536533
 20
1402.510295
 30
0.0
 11
545.536533
 21
1562.510295
 31
0.0
  0
LINE
  5
22A
100
AcDbEntity
  8
1
370
    30
  6
Continuous
 62
     7
100
AcDbLine
 10
545.536533
 20
1562.510295
 30
0.0
 11
515.536533
 21
1562.510295
 31
0.0
  0
ENDBLK
  5
22B
100
AcDbEntity
  8
0
100
AcDbBlockEnd
  0
BLOCK
  5
23B
100
AcDbEntity
  8
0
370
    30
  6
Continuous
 62
     7
100
AcDbBlockBegin
  2
*G14
 70
     0
 10
0.0
 20
0.0
 30
0.0
  3
*G14
  1

  0
LINE
  5
23C
100
AcDbEntity
  8
1
370
    30
  6
Continuous
 62
     7
100
AcDbLine
 10
494.036533
 20
1431.510295
 30
0.0
 11
494.036533
 21
1418.510295
 31
0.0
  0
LINE
  5
23D
100
AcDbEntity
  8
1
370
    30
  6
Continuous
 62
     7
100
AcDbLine
 10
494.036533
 20
1418.510295
 30
0.0
 11
507.036533
 21
1418.510295
 31
0.0
  0
LINE
  5
23E
100
AcDbEntity
  8
1
370
    30
  6
Continuous
 62
     7
100
AcDbLine
 10
507.036533
 20
1418.510295
 30
0.0
 11
507.036533
 21
1431.510295
 31
0.0
  0
LINE
  5
23F
100
AcDbEntity
  8
1
370
    30
  6
Continuous
 62
     7
100
AcDbLine
 10
507.036533
 20
1431.510295
 30
0.0
 11
494.036533
 21
1431.510295
 31
0.0
  0
ENDBLK
  5
240
100
AcDbEntity
  8
0
100
AcDbBlockEnd
  0
BLOCK
  5
243
100
AcDbEntity
  8
0
370
    30
  6
Continuous
 62
     7
100
AcDbBlockBegin
  2
*G15
 70
     0
 10
0.0
 20
0.0
 30
0.0
  3
*G15
  1

  0
LINE
  5
244
100
AcDbEntity
  8
1
370
    30
  6
Continuous
 62
     7
100
AcDbLine
 10
494.036533
 20
1456.510295
 30
0.0
 11
494.036533
 21
1443.510295
 31
0.0
  0
LINE
  5
245
100
AcDbEntity
  8
1
370
    30
  6
Continuous
 62
     7
100
AcDbLine
 10
494.036533
 20
1443.510295
 30
0.0
 11
507.036533
 21
1443.510295
 31
0.0
  0
LINE
  5
246
100
AcDbEntity
  8
1
370
    30
  6
Continuous
 62
     7
100
AcDbLine
 10
507.036533
 20
1443.510295
 30
0.0
 11
507.036533
 21
1456.510295
 31
0.0
  0
LINE
  5
247
100
AcDbEntity
  8
1
370
    30
  6
Continuous
 62
     7
100
AcDbLine
 10
507.036533
 20
1456.510295
 30
0.0
 11
494.036533
 21
1456.510295
 31
0.0
  0
ENDBLK
  5
248
100
AcDbEntity
  8
0
100
AcDbBlockEnd
  0
BLOCK
  5
24E
100
AcDbEntity
  8
0
370
    30
  6
Continuous
 62
     7
100
AcDbBlockBegin
  2
*G16
 70
     0
 10
0.0
 20
0.0
 30
0.0
  3
*G16
  1

  0
LINE
  5
24F
100
AcDbEntity
  8
1
370
    30
  6
Continuous
 62
     7
100
AcDbLine
 10
485.536533
 20
1562.510295
 30
0.0
 11
485.536533
 21
1402.510295
 31
0.0
  0
LINE
  5
250
100
AcDbEntity
  8
1
370
    30
  6
Continuous
 62
     7
100
AcDbLine
 10
485.536533
 20
1402.510295
 30
0.0
 11
515.536533
 21
1402.510295
 31
0.0
  0
LINE
  5
251
100
AcDbEntity
  8
1
370
    30
  6
Continuous
 62
     7
100
AcDbLine
 10
515.536533
 20
1402.510295
 30
0.0
 11
515.536533
 21
1562.510295
 31
0.0
  0
LINE
  5
252
100
AcDbEntity
  8
1
370
    30
  6
Continuous
 62
     7
100
AcDbLine
 10
515.536533
 20
1562.510295
 30
0.0
 11
485.536533
 21
1562.510295
 31
0.0
  0
ENDBLK
  5
253
100
AcDbEntity
  8
0
100
AcDbBlockEnd
  0
BLOCK
  5
261
100
AcDbEntity
  8
0
370
    30
  6
Continuous
 62
     7
100
AcDbBlockBegin
  2
*G17
 70
     0
 10
0.0
 20
0.0
 30
0.0
  3
*G17
  1

  0
LINE
  5
262
100
AcDbEntity
  8
1
370
    30
  6
Continuous
 62
     7
100
AcDbLine
 10
464.036533
 20
1431.510295
 30
0.0
 11
464.036533
 21
1418.510295
 31
0.0
  0
LINE
  5
263
100
AcDbEntity
  8
1
370
    30
  6
Continuous
 62
     7
100
AcDbLine
 10
464.036533
 20
1418.510295
 30
0.0
 11
477.036533
 21
1418.510295
 31
0.0
  0
LINE
  5
264
100
AcDbEntity
  8
1
370
    30
  6
Continuous
 62
     7
100
AcDbLine
 10
477.036533
 20
1418.510295
 30
0.0
 11
477.036533
 21
1431.510295
 31
0.0
  0
LINE
  5
265
100
AcDbEntity
  8
1
370
    30
  6
Continuous
 62
     7
100
AcDbLine
 10
477.036533
 20
1431.510295
 30
0.0
 11
464.036533
 21
1431.510295
 31
0.0
  0
ENDBLK
  5
266
100
AcDbEntity
  8
0
100
AcDbBlockEnd
  0
BLOCK
  5
269
100
AcDbEntity
  8
0
370
    30
  6
Continuous
 62
     7
100
AcDbBlockBegin
  2
*G18
 70
     0
 10
0.0
 20
0.0
 30
0.0
  3
*G18
  1

  0
LINE
  5
26A
100
AcDbEntity
  8
1
370
    30
  6
Continuous
 62
     7
100
AcDbLine
 10
464.036533
 20
1456.510295
 30
0.0
 11
464.036533
 21
1443.510295
 31
0.0
  0
LINE
  5
26B
100
AcDbEntity
  8
1
370
    30
  6
Continuous
 62
     7
100
AcDbLine
 10
464.036533
 20
1443.510295
 30
0.0
 11
477.036533
 21
1443.510295
 31
0.0
  0
LINE
  5
26C
100
AcDbEntity
  8
1
370
    30
  6
Continuous
 62
     7
100
AcDbLine
 10
477.036533
 20
1443.510295
 30
0.0
 11
477.036533
 21
1456.510295
 31
0.0
  0
LINE
  5
26D
100
AcDbEntity
  8
1
370
    30
  6
Continuous
 62
     7
100
AcDbLine
 10
477.036533
 20
1456.510295
 30
0.0
 11
464.036533
 21
1456.510295
 31
0.0
  0
ENDBLK
  5
26E
100
AcDbEntity
  8
0
100
AcDbBlockEnd
  0
BLOCK
  5
274
100
AcDbEntity
  8
0
370
    30
  6
Continuous
 62
     7
100
AcDbBlockBegin
  2
*G19
 70
     0
 10
0.0
 20
0.0
 30
0.0
  3
*G19
  1

  0
LINE
  5
275
100
AcDbEntity
  8
1
370
    30
  6
Continuous
 62
     7
100
AcDbLine
 10
455.536533
 20
1562.510295
 30
0.0
 11
455.536533
 21
1402.510295
 31
0.0
  0
LINE
  5
276
100
AcDbEntity
  8
1
370
    30
  6
Continuous
 62
     7
100
AcDbLine
 10
455.536533
 20
1402.510295
 30
0.0
 11
485.536533
 21
1402.510295
 31
0.0
  0
LINE
  5
277
100
AcDbEntity
  8
1
370
    30
  6
Continuous
 62
     7
100
AcDbLine
 10
485.536533
 20
1402.510295
 30
0.0
 11
485.536533
 21
1562.510295
 31
0.0
  0
LINE
  5
278
100
AcDbEntity
  8
1
370
    30
  6
Continuous
 62
     7
100
AcDbLine
 10
485.536533
 20
1562.510295
 30
0.0
 11
455.536533
 21
1562.510295
 31
0.0
  0
ENDBLK
  5
279
100
AcDbEntity
  8
0
100
AcDbBlockEnd
  0
BLOCK
  5
28B
100
AcDbEntity
  8
0
370
    30
  6
Continuous
 62
     7
100
AcDbBlockBegin
  2
*G20
 70
     0
 10
0.0
 20
0.0
 30
0.0
  3
*G20
  1

  0
LINE
  5
28C
100
AcDbEntity
  8
1
370
    30
  6
Continuous
 62
     7
100
AcDbLine
 10
584.036533
 20
1246.010295
 30
0.0
 11
584.036533
 21
1233.010295
 31
0.0
  0
LINE
  5
28D
100
AcDbEntity
  8
1
370
    30
  6
Continuous
 62
     7
100
AcDbLine
 10
584.036533
 20
1233.010295
 30
0.0
 11
597.036533
 21
1233.010295
 31
0.0
  0
LINE
  5
28E
100
AcDbEntity
  8
1
370
    30
  6
Continuous
 62
     7
100
AcDbLine
 10
597.036533
 20
1233.010295
 30
0.0
 11
597.036533
 21
1246.010295
 31
0.0
  0
LINE
  5
28F
100
AcDbEntity
  8
1
370
    30
  6
Continuous
 62
     7
100
AcDbLine
 10
597.036533
 20
1246.010295
 30
0.0
 11
584.036533
 21
1246.010295
 31
0.0
  0
ENDBLK
  5
290
100
AcDbEntity
  8
0
100
AcDbBlockEnd
  0
BLOCK
  5
293
100
AcDbEntity
  8
0
370
    30
  6
Continuous
 62
     7
100
AcDbBlockBegin
  2
*G21
 70
     0
 10
0.0
 20
0.0
 30
0.0
  3
*G21
  1

  0
LINE
  5
294
100
AcDbEntity
  8
1
370
    30
  6
Continuous
 62
     7
100
AcDbLine
 10
584.036533
 20
1271.010295
 30
0.0
 11
584.036533
 21
1258.010295
 31
0.0
  0
LINE
  5
295
100
AcDbEntity
  8
1
370
    30
  6
Continuous
 62
     7
100
AcDbLine
 10
584.036533
 20
1258.010295
 30
0.0
 11
597.036533
 21
1258.010295
 31
0.0
  0
LINE
  5
296
100
AcDbEntity
  8
1
370
    30
  6
Continuous
 62
     7
100
AcDbLine
 10
597.036533
 20
1258.010295
 30
0.0
 11
597.036533
 21
1271.010295
 31
0.0
  0
LINE
  5
297
100
AcDbEntity
  8
1
370
    30
  6
Continuous
 62
     7
100
AcDbLine
 10
597.036533
 20
1271.010295
 30
0.0
 11
584.036533
 21
1271.010295
 31
0.0
  0
ENDBLK
  5
298
100
AcDbEntity
  8
0
100
AcDbBlockEnd
  0
BLOCK
  5
29E
100
AcDbEntity
  8
0
370
    30
  6
Continuous
 62
     7
100
AcDbBlockBegin
  2
*G22
 70
     0
 10
0.0
 20
0.0
 30
0.0
  3
*G22
  1

  0
LINE
  5
29F
100
AcDbEntity
  8
1
370
    30
  6
Continuous
 62
     7
100
AcDbLine
 10
575.536533
 20
1377.010295
 30
0.0
 11
575.536533
 21
1217.010295
 31
0.0
  0
LINE
  5
2A0
100
AcDbEntity
  8
1
370
    30
  6
Continuous
 62
     7
100
AcDbLine
 10
575.536533
 20
1217.010295
 30
0.0
 11
605.536533
 21
1217.010295
 31
0.0
  0
LINE
  5
2A1
100
AcDbEntity
  8
1
370
    30
  6
Continuous
 62
     7
100
AcDbLine
 10
605.536533
 20
1217.010295
 30
0.0
 11
605.536533
 21
1377.010295
 31
0.0
  0
LINE
  5
2A2
100
AcDbEntity
  8
1
370
    30
  6
Continuous
 62
     7
100
AcDbLine
 10
605.536533
 20
1377.010295
 30
0.0
 11
575.536533
 21
1377.010295
 31
0.0
  0
ENDBLK
  5
2A3
100
AcDbEntity
  8
0
100
AcDbBlockEnd
  0
BLOCK
  5
2B3
100
AcDbEntity
  8
0
370
    30
  6
Continuous
 62
     7
100
AcDbBlockBegin
  2
*G23
 70
     0
 10
0.0
 20
0.0
 30
0.0
  3
*G23
  1

  0
LINE
  5
2B4
100
AcDbEntity
  8
1
370
    30
  6
Continuous
 62
     7
100
AcDbLine
 10
554.036533
 20
1246.010295
 30
0.0
 11
554.036533
 21
1233.010295
 31
0.0
  0
LINE
  5
2B5
100
AcDbEntity
  8
1
370
    30
  6
Continuous
 62
     7
100
AcDbLine
 10
554.036533
 20
1233.010295
 30
0.0
 11
567.036533
 21
1233.010295
 31
0.0
  0
LINE
  5
2B6
100
AcDbEntity
  8
1
370
    30
  6
Continuous
 62
     7
100
AcDbLine
 10
567.036533
 20
1233.010295
 30
0.0
 11
567.036533
 21
1246.010295
 31
0.0
  0
LINE
  5
2B7
100
AcDbEntity
  8
1
370
    30
  6
Continuous
 62
     7
100
AcDbLine
 10
567.036533
 20
1246.010295
 30
0.0
 11
554.036533
 21
1246.010295
 31
0.0
  0
ENDBLK
  5
2B8
100
AcDbEntity
  8
0
100
AcDbBlockEnd
  0
BLOCK
  5
2BB
100
AcDbEntity
  8
0
370
    30
  6
Continuous
 62
     7
100
AcDbBlockBegin
  2
*G24
 70
     0
 10
0.0
 20
0.0
 30
0.0
  3
*G24
  1

  0
LINE
  5
2BC
100
AcDbEntity
  8
1
370
    30
  6
Continuous
 62
     7
100
AcDbLine
 10
554.036533
 20
1271.010295
 30
0.0
 11
554.036533
 21
1258.010295
 31
0.0
  0
LINE
  5
2BD
100
AcDbEntity
  8
1
370
    30
  6
Continuous
 62
     7
100
AcDbLine
 10
554.036533
 20
1258.010295
 30
0.0
 11
567.036533
 21
1258.010295
 31
0.0
  0
LINE
  5
2BE
100
AcDbEntity
  8
1
370
    30
  6
Continuous
 62
     7
100
AcDbLine
 10
567.036533
 20
1258.010295
 30
0.0
 11
567.036533
 21
1271.010295
 31
0.0
  0
LINE
  5
2BF
100
AcDbEntity
  8
1
370
    30
  6
Continuous
 62
     7
100
AcDbLine
 10
567.036533
 20
1271.010295
 30
0.0
 11
554.036533
 21
1271.010295
 31
0.0
  0
ENDBLK
  5
2C0
100
AcDbEntity
  8
0
100
AcDbBlockEnd
  0
BLOCK
  5
2C6
100
AcDbEntity
  8
0
370
    30
  6
Continuous
 62
     7
100
AcDbBlockBegin
  2
*G25
 70
     0
 10
0.0
 20
0.0
 30
0.0
  3
*G25
  1

  0
LINE
  5
2C7
100
AcDbEntity
  8
1
370
    30
  6
Continuous
 62
     7
100
AcDbLine
 10
545.536533
 20
1377.010295
 30
0.0
 11
545.536533
 21
1217.010295
 31
0.0
  0
LINE
  5
2C8
100
AcDbEntity
  8
1
370
    30
  6
Continuous
 62
     7
100
AcDbLine
 10
545.536533
 20
1217.010295
 30
0.0
 11
575.536533
 21
1217.010295
 31
0.0
  0
LINE
  5
2C9
100
AcDbEntity
  8
1
370
    30
  6
Continuous
 62
     7
100
AcDbLine
 10
575.536533
 20
1217.010295
 30
0.0
 11
575.536533
 21
1377.010295
 31
0.0
  0
LINE
  5
2CA
100
AcDbEntity
  8
1
370
    30
  6
Continuous
 62
     7
100
AcDbLine
 10
575.536533
 20
1377.010295
 30
0.0
 11
545.536533
 21
1377.010295
 31
0.0
  0
ENDBLK
  5
2CB
100
AcDbEntity
  8
0
100
AcDbBlockEnd
  0
BLOCK
  5
2DB
100
AcDbEntity
  8
0
370
    30
  6
Continuous
 62
     7
100
AcDbBlockBegin
  2
*G26
 70
     0
 10
0.0
 20
0.0
 30
0.0
  3
*G26
  1

  0
LINE
  5
2DC
100
AcDbEntity
  8
1
370
    30
  6
Continuous
 62
     7
100
AcDbLine
 10
524.036533
 20
1246.010295
 30
0.0
 11
524.036533
 21
1233.010295
 31
0.0
  0
LINE
  5
2DD
100
AcDbEntity
  8
1
370
    30
  6
Continuous
 62
     7
100
AcDbLine
 10
524.036533
 20
1233.010295
 30
0.0
 11
537.036533
 21
1233.010295
 31
0.0
  0
LINE
  5
2DE
100
AcDbEntity
  8
1
370
    30
  6
Continuous
 62
     7
100
AcDbLine
 10
537.036533
 20
1233.010295
 30
0.0
 11
537.036533
 21
1246.010295
 31
0.0
  0
LINE
  5
2DF
100
AcDbEntity
  8
1
370
    30
  6
Continuous
 62
     7
100
AcDbLine
 10
537.036533
 20
1246.010295
 30
0.0
 11
524.036533
 21
1246.010295
 31
0.0
  0
ENDBLK
  5
2E0
100
AcDbEntity
  8
0
100
AcDbBlockEnd
  0
BLOCK
  5
2E3
100
AcDbEntity
  8
0
370
    30
  6
Continuous
 62
     7
100
AcDbBlockBegin
  2
*G27
 70
     0
 10
0.0
 20
0.0
 30
0.0
  3
*G27
  1

  0
LINE
  5
2E4
100
AcDbEntity
  8
1
370
    30
  6
Continuous
 62
     7
100
AcDbLine
 10
524.036533
 20
1271.010295
 30
0.0
 11
524.036533
 21
1258.010295
 31
0.0
  0
LINE
  5
2E5
100
AcDbEntity
  8
1
370
    30
  6
Continuous
 62
     7
100
AcDbLine
 10
524.036533
 20
1258.010295
 30
0.0
 11
537.036533
 21
1258.010295
 31
0.0
  0
LINE
  5
2E6
100
AcDbEntity
  8
1
370
    30
  6
Continuous
 62
     7
100
AcDbLine
 10
537.036533
 20
1258.010295
 30
0.0
 11
537.036533
 21
1271.010295
 31
0.0
  0
LINE
  5
2E7
100
AcDbEntity
  8
1
370
    30
  6
Continuous
 62
     7
100
AcDbLine
 10
537.036533
 20
1271.010295
 30
0.0
 11
524.036533
 21
1271.010295
 31
0.0
  0
ENDBLK
  5
2E8
100
AcDbEntity
  8
0
100
AcDbBlockEnd
  0
BLOCK
  5
2EE
100
AcDbEntity
  8
0
370
    30
  6
Continuous
 62
     7
100
AcDbBlockBegin
  2
*G28
 70
     0
 10
0.0
 20
0.0
 30
0.0
  3
*G28
  1

  0
LINE
  5
2EF
100
AcDbEntity
  8
1
370
    30
  6
Continuous
 62
     7
100
AcDbLine
 10
515.536533
 20
1377.010295
 30
0.0
 11
515.536533
 21
1217.010295
 31
0.0
  0
LINE
  5
2F0
100
AcDbEntity
  8
1
370
    30
  6
Continuous
 62
     7
100
AcDbLine
 10
515.536533
 20
1217.010295
 30
0.0
 11
545.536533
 21
1217.010295
 31
0.0
  0
LINE
  5
2F1
100
AcDbEntity
  8
1
370
    30
  6
Continuous
 62
     7
100
AcDbLine
 10
545.536533
 20
1217.010295
 30
0.0
 11
545.536533
 21
1377.010295
 31
0.0
  0
LINE
  5
2F2
100
AcDbEntity
  8
1
370
    30
  6
Continuous
 62
     7
100
AcDbLine
 10
545.536533
 20
1377.010295
 30
0.0
 11
515.536533
 21
1377.010295
 31
0.0
  0
ENDBLK
  5
2F3
100
AcDbEntity
  8
0
100
AcDbBlockEnd
  0
BLOCK
  5
303
100
AcDbEntity
  8
0
370
    30
  6
Continuous
 62
     7
100
AcDbBlockBegin
  2
*G29
 70
     0
 10
0.0
 20
0.0
 30
0.0
  3
*G29
  1

  0
LINE
  5
304
100
AcDbEntity
  8
1
370
    30
  6
Continuous
 62
     7
100
AcDbLine
 10
494.036533
 20
1246.010295
 30
0.0
 11
494.036533
 21
1233.010295
 31
0.0
  0
LINE
  5
305
100
AcDbEntity
  8
1
370
    30
  6
Continuous
 62
     7
100
AcDbLine
 10
494.036533
 20
1233.010295
 30
0.0
 11
507.036533
 21
1233.010295
 31
0.0
  0
LINE
  5
306
100
AcDbEntity
  8
1
370
    30
  6
Continuous
 62
     7
100
AcDbLine
 10
507.036533
 20
1233.010295
 30
0.0
 11
507.036533
 21
1246.010295
 31
0.0
  0
LINE
  5
307
100
AcDbEntity
  8
1
370
    30
  6
Continuous
 62
     7
100
AcDbLine
 10
507.036533
 20
1246.010295
 30
0.0
 11
494.036533
 21
1246.010295
 31
0.0
  0
ENDBLK
  5
308
100
AcDbEntity
  8
0
100
AcDbBlockEnd
  0
BLOCK
  5
30B
100
AcDbEntity
  8
0
370
    30
  6
Continuous
 62
     7
100
AcDbBlockBegin
  2
*G30
 70
     0
 10
0.0
 20
0.0
 30
0.0
  3
*G30
  1

  0
LINE
  5
30C
100
AcDbEntity
  8
1
370
    30
  6
Continuous
 62
     7
100
AcDbLine
 10
494.036533
 20
1271.010295
 30
0.0
 11
494.036533
 21
1258.010295
 31
0.0
  0
LINE
  5
30D
100
AcDbEntity
  8
1
370
    30
  6
Continuous
 62
     7
100
AcDbLine
 10
494.036533
 20
1258.010295
 30
0.0
 11
507.036533
 21
1258.010295
 31
0.0
  0
LINE
  5
30E
100
AcDbEntity
  8
1
370
    30
  6
Continuous
 62
     7
100
AcDbLine
 10
507.036533
 20
1258.010295
 30
0.0
 11
507.036533
 21
1271.010295
 31
0.0
  0
LINE
  5
30F
100
AcDbEntity
  8
1
370
    30
  6
Continuous
 62
     7
100
AcDbLine
 10
507.036533
 20
1271.010295
 30
0.0
 11
494.036533
 21
1271.010295
 31
0.0
  0
ENDBLK
  5
310
100
AcDbEntity
  8
0
100
AcDbBlockEnd
  0
BLOCK
  5
316
100
AcDbEntity
  8
0
370
    30
  6
Continuous
 62
     7
100
AcDbBlockBegin
  2
*G31
 70
     0
 10
0.0
 20
0.0
 30
0.0
  3
*G31
  1

  0
LINE
  5
317
100
AcDbEntity
  8
1
370
    30
  6
Continuous
 62
     7
100
AcDbLine
 10
485.536533
 20
1377.010295
 30
0.0
 11
485.536533
 21
1217.010295
 31
0.0
  0
LINE
  5
318
100
AcDbEntity
  8
1
370
    30
  6
Continuous
 62
     7
100
AcDbLine
 10
485.536533
 20
1217.010295
 30
0.0
 11
515.536533
 21
1217.010295
 31
0.0
  0
LINE
  5
319
100
AcDbEntity
  8
1
370
    30
  6
Continuous
 62
     7
100
AcDbLine
 10
515.536533
 20
1217.010295
 30
0.0
 11
515.536533
 21
1377.010295
 31
0.0
  0
LINE
  5
31A
100
AcDbEntity
  8
1
370
    30
  6
Continuous
 62
     7
100
AcDbLine
 10
515.536533
 20
1377.010295
 30
0.0
 11
485.536533
 21
1377.010295
 31
0.0
  0
ENDBLK
  5
31B
100
AcDbEntity
  8
0
100
AcDbBlockEnd
  0
BLOCK
  5
329
100
AcDbEntity
  8
0
370
    30
  6
Continuous
 62
     7
100
AcDbBlockBegin
  2
*G32
 70
     0
 10
0.0
 20
0.0
 30
0.0
  3
*G32
  1

  0
LINE
  5
32A
100
AcDbEntity
  8
1
370
    30
  6
Continuous
 62
     7
100
AcDbLine
 10
464.036533
 20
1246.010295
 30
0.0
 11
464.036533
 21
1233.010295
 31
0.0
  0
LINE
  5
32B
100
AcDbEntity
  8
1
370
    30
  6
Continuous
 62
     7
100
AcDbLine
 10
464.036533
 20
1233.010295
 30
0.0
 11
477.036533
 21
1233.010295
 31
0.0
  0
LINE
  5
32C
100
AcDbEntity
  8
1
370
    30
  6
Continuous
 62
     7
100
AcDbLine
 10
477.036533
 20
1233.010295
 30
0.0
 11
477.036533
 21
1246.010295
 31
0.0
  0
LINE
  5
32D
100
AcDbEntity
  8
1
370
    30
  6
Continuous
 62
     7
100
AcDbLine
 10
477.036533
 20
1246.010295
 30
0.0
 11
464.036533
 21
1246.010295
 31
0.0
  0
ENDBLK
  5
32E
100
AcDbEntity
  8
0
100
AcDbBlockEnd
  0
BLOCK
  5
331
100
AcDbEntity
  8
0
370
    30
  6
Continuous
 62
     7
100
AcDbBlockBegin
  2
*G33
 70
     0
 10
0.0
 20
0.0
 30
0.0
  3
*G33
  1

  0
LINE
  5
332
100
AcDbEntity
  8
1
370
    30
  6
Continuous
 62
     7
100
AcDbLine
 10
464.036533
 20
1271.010295
 30
0.0
 11
464.036533
 21
1258.010295
 31
0.0
  0
LINE
  5
333
100
AcDbEntity
  8
1
370
    30
  6
Continuous
 62
     7
100
AcDbLine
 10
464.036533
 20
1258.010295
 30
0.0
 11
477.036533
 21
1258.010295
 31
0.0
  0
LINE
  5
334
100
AcDbEntity
  8
1
370
    30
  6
Continuous
 62
     7
100
AcDbLine
 10
477.036533
 20
1258.010295
 30
0.0
 11
477.036533
 21
1271.010295
 31
0.0
  0
LINE
  5
335
100
AcDbEntity
  8
1
370
    30
  6
Continuous
 62
     7
100
AcDbLine
 10
477.036533
 20
1271.010295
 30
0.0
 11
464.036533
 21
1271.010295
 31
0.0
  0
ENDBLK
  5
336
100
AcDbEntity
  8
0
100
AcDbBlockEnd
  0
BLOCK
  5
33C
100
AcDbEntity
  8
0
370
    30
  6
Continuous
 62
     7
100
AcDbBlockBegin
  2
*G34
 70
     0
 10
0.0
 20
0.0
 30
0.0
  3
*G34
  1

  0
LINE
  5
33D
100
AcDbEntity
  8
1
370
    30
  6
Continuous
 62
     7
100
AcDbLine
 10
455.536533
 20
1377.010295
 30
0.0
 11
455.536533
 21
1217.010295
 31
0.0
  0
LINE
  5
33E
100
AcDbEntity
  8
1
370
    30
  6
Continuous
 62
     7
100
AcDbLine
 10
455.536533
 20
1217.010295
 30
0.0
 11
485.536533
 21
1217.010295
 31
0.0
  0
LINE
  5
33F
100
AcDbEntity
  8
1
370
    30
  6
Continuous
 62
     7
100
AcDbLine
 10
485.536533
 20
1217.010295
 30
0.0
 11
485.536533
 21
1377.010295
 31
0.0
  0
LINE
  5
340
100
AcDbEntity
  8
1
370
    30
  6
Continuous
 62
     7
100
AcDbLine
 10
485.536533
 20
1377.010295
 30
0.0
 11
455.536533
 21
1377.010295
 31
0.0
  0
ENDBLK
  5
341
100
AcDbEntity
  8
0
100
AcDbBlockEnd
  0
BLOCK
  5
353
100
AcDbEntity
  8
0
370
    30
  6
Continuous
 62
     7
100
AcDbBlockBegin
  2
*G35
 70
     0
 10
0.0
 20
0.0
 30
0.0
  3
*G35
  1

  0
LINE
  5
354
100
AcDbEntity
  8
1
370
    30
  6
Continuous
 62
     7
100
AcDbLine
 10
734.036533
 20
1431.510295
 30
0.0
 11
734.036533
 21
1418.510295
 31
0.0
  0
LINE
  5
355
100
AcDbEntity
  8
1
370
    30
  6
Continuous
 62
     7
100
AcDbLine
 10
734.036533
 20
1418.510295
 30
0.0
 11
747.036533
 21
1418.510295
 31
0.0
  0
LINE
  5
356
100
AcDbEntity
  8
1
370
    30
  6
Continuous
 62
     7
100
AcDbLine
 10
747.036533
 20
1418.510295
 30
0.0
 11
747.036533
 21
1431.510295
 31
0.0
  0
LINE
  5
357
100
AcDbEntity
  8
1
370
    30
  6
Continuous
 62
     7
100
AcDbLine
 10
747.036533
 20
1431.510295
 30
0.0
 11
734.036533
 21
1431.510295
 31
0.0
  0
ENDBLK
  5
358
100
AcDbEntity
  8
0
100
AcDbBlockEnd
  0
BLOCK
  5
35B
100
AcDbEntity
  8
0
370
    30
  6
Continuous
 62
     7
100
AcDbBlockBegin
  2
*G36
 70
     0
 10
0.0
 20
0.0
 30
0.0
  3
*G36
  1

  0
LINE
  5
35C
100
AcDbEntity
  8
1
370
    30
  6
Continuous
 62
     7
100
AcDbLine
 10
734.036533
 20
1456.510295
 30
0.0
 11
734.036533
 21
1443.510295
 31
0.0
  0
LINE
  5
35D
100
AcDbEntity
  8
1
370
    30
  6
Continuous
 62
     7
100
AcDbLine
 10
734.036533
 20
1443.510295
 30
0.0
 11
747.036533
 21
1443.510295
 31
0.0
  0
LINE
  5
35E
100
AcDbEntity
  8
1
370
    30
  6
Continuous
 62
     7
100
AcDbLine
 10
747.036533
 20
1443.510295
 30
0.0
 11
747.036533
 21
1456.510295
 31
0.0
  0
LINE
  5
35F
100
AcDbEntity
  8
1
370
    30
  6
Continuous
 62
     7
100
AcDbLine
 10
747.036533
 20
1456.510295
 30
0.0
 11
734.036533
 21
1456.510295
 31
0.0
  0
ENDBLK
  5
360
100
AcDbEntity
  8
0
100
AcDbBlockEnd
  0
BLOCK
  5
366
100
AcDbEntity
  8
0
370
    30
  6
Continuous
 62
     7
100
AcDbBlockBegin
  2
*G37
 70
     0
 10
0.0
 20
0.0
 30
0.0
  3
*G37
  1

  0
LINE
  5
367
100
AcDbEntity
  8
1
370
    30
  6
Continuous
 62
     7
100
AcDbLine
 10
725.536533
 20
1562.510295
 30
0.0
 11
725.536533
 21
1402.510295
 31
0.0
  0
LINE
  5
368
100
AcDbEntity
  8
1
370
    30
  6
Continuous
 62
     7
100
AcDbLine
 10
725.536533
 20
1402.510295
 30
0.0
 11
755.536533
 21
1402.510295
 31
0.0
  0
LINE
  5
369
100
AcDbEntity
  8
1
370
    30
  6
Continuous
 62
     7
100
AcDbLine
 10
755.536533
 20
1402.510295
 30
0.0
 11
755.536533
 21
1562.510295
 31
0.0
  0
LINE
  5
36A
100
AcDbEntity
  8
1
370
    30
  6
Continuous
 62
     7
100
AcDbLine
 10
755.536533
 20
1562.510295
 30
0.0
 11
725.536533
 21
1562.510295
 31
0.0
  0
ENDBLK
  5
36B
100
AcDbEntity
  8
0
100
AcDbBlockEnd
  0
BLOCK
  5
37B
100
AcDbEntity
  8
0
370
    30
  6
Continuous
 62
     7
100
AcDbBlockBegin
  2
*G38
 70
     0
 10
0.0
 20
0.0
 30
0.0
  3
*G38
  1

  0
LINE
  5
37C
100
AcDbEntity
  8
1
370
    30
  6
Continuous
 62
     7
100
AcDbLine
 10
704.036533
 20
1431.510295
 30
0.0
 11
704.036533
 21
1418.510295
 31
0.0
  0
LINE
  5
37D
100
AcDbEntity
  8
1
370
    30
  6
Continuous
 62
     7
100
AcDbLine
 10
704.036533
 20
1418.510295
 30
0.0
 11
717.036533
 21
1418.510295
 31
0.0
  0
LINE
  5
37E
100
AcDbEntity
  8
1
370
    30
  6
Continuous
 62
     7
100
AcDbLine
 10
717.036533
 20
1418.510295
 30
0.0
 11
717.036533
 21
1431.510295
 31
0.0
  0
LINE
  5
37F
100
AcDbEntity
  8
1
370
    30
  6
Continuous
 62
     7
100
AcDbLine
 10
717.036533
 20
1431.510295
 30
0.0
 11
704.036533
 21
1431.510295
 31
0.0
  0
ENDBLK
  5
380
100
AcDbEntity
  8
0
100
AcDbBlockEnd
  0
BLOCK
  5
383
100
AcDbEntity
  8
0
370
    30
  6
Continuous
 62
     7
100
AcDbBlockBegin
  2
*G39
 70
     0
 10
0.0
 20
0.0
 30
0.0
  3
*G39
  1

  0
LINE
  5
384
100
AcDbEntity
  8
1
370
    30
  6
Continuous
 62
     7
100
AcDbLine
 10
704.036533
 20
1456.510295
 30
0.0
 11
704.036533
 21
1443.510295
 31
0.0
  0
LINE
  5
385
100
AcDbEntity
  8
1
370
    30
  6
Continuous
 62
     7
100
AcDbLine
 10
704.036533
 20
1443.510295
 30
0.0
 11
717.036533
 21
1443.510295
 31
0.0
  0
LINE
  5
386
100
AcDbEntity
  8
1
370
    30
  6
Continuous
 62
     7
100
AcDbLine
 10
717.036533
 20
1443.510295
 30
0.0
 11
717.036533
 21
1456.510295
 31
0.0
  0
LINE
  5
387
100
AcDbEntity
  8
1
370
    30
  6
Continuous
 62
     7
100
AcDbLine
 10
717.036533
 20
1456.510295
 30
0.0
 11
704.036533
 21
1456.510295
 31
0.0
  0
ENDBLK
  5
388
100
AcDbEntity
  8
0
100
AcDbBlockEnd
  0
BLOCK
  5
38E
100
AcDbEntity
  8
0
370
    30
  6
Continuous
 62
     7
100
AcDbBlockBegin
  2
*G40
 70
     0
 10
0.0
 20
0.0
 30
0.0
  3
*G40
  1

  0
LINE
  5
38F
100
AcDbEntity
  8
1
370
    30
  6
Continuous
 62
     7
100
AcDbLine
 10
695.536533
 20
1562.510295
 30
0.0
 11
695.536533
 21
1402.510295
 31
0.0
  0
LINE
  5
390
100
AcDbEntity
  8
1
370
    30
  6
Continuous
 62
     7
100
AcDbLine
 10
695.536533
 20
1402.510295
 30
0.0
 11
725.536533
 21
1402.510295
 31
0.0
  0
LINE
  5
391
100
AcDbEntity
  8
1
370
    30
  6
Continuous
 62
     7
100
AcDbLine
 10
725.536533
 20
1402.510295
 30
0.0
 11
725.536533
 21
1562.510295
 31
0.0
  0
LINE
  5
392
100
AcDbEntity
  8
1
370
    30
  6
Continuous
 62
     7
100
AcDbLine
 10
725.536533
 20
1562.510295
 30
0.0
 11
695.536533
 21
1562.510295
 31
0.0
  0
ENDBLK
  5
393
100
AcDbEntity
  8
0
100
AcDbBlockEnd
  0
BLOCK
  5
3A3
100
AcDbEntity
  8
0
370
    30
  6
Continuous
 62
     7
100
AcDbBlockBegin
  2
*G41
 70
     0
 10
0.0
 20
0.0
 30
0.0
  3
*G41
  1

  0
LINE
  5
3A4
100
AcDbEntity
  8
1
370
    30
  6
Continuous
 62
     7
100
AcDbLine
 10
674.036533
 20
1431.510295
 30
0.0
 11
674.036533
 21
1418.510295
 31
0.0
  0
LINE
  5
3A5
100
AcDbEntity
  8
1
370
    30
  6
Continuous
 62
     7
100
AcDbLine
 10
674.036533
 20
1418.510295
 30
0.0
 11
687.036533
 21
1418.510295
 31
0.0
  0
LINE
  5
3A6
100
AcDbEntity
  8
1
370
    30
  6
Continuous
 62
     7
100
AcDbLine
 10
687.036533
 20
1418.510295
 30
0.0
 11
687.036533
 21
1431.510295
 31
0.0
  0
LINE
  5
3A7
100
AcDbEntity
  8
1
370
    30
  6
Continuous
 62
     7
100
AcDbLine
 10
687.036533
 20
1431.510295
 30
0.0
 11
674.036533
 21
1431.510295
 31
0.0
  0
ENDBLK
  5
3A8
100
AcDbEntity
  8
0
100
AcDbBlockEnd
  0
BLOCK
  5
3AB
100
AcDbEntity
  8
0
370
    30
  6
Continuous
 62
     7
100
AcDbBlockBegin
  2
*G42
 70
     0
 10
0.0
 20
0.0
 30
0.0
  3
*G42
  1

  0
LINE
  5
3AC
100
AcDbEntity
  8
1
370
    30
  6
Continuous
 62
     7
100
AcDbLine
 10
674.036533
 20
1456.510295
 30
0.0
 11
674.036533
 21
1443.510295
 31
0.0
  0
LINE
  5
3AD
100
AcDbEntity
  8
1
370
    30
  6
Continuous
 62
     7
100
AcDbLine
 10
674.036533
 20
1443.510295
 30
0.0
 11
687.036533
 21
1443.510295
 31
0.0
  0
LINE
  5
3AE
100
AcDbEntity
  8
1
370
    30
  6
Continuous
 62
     7
100
AcDbLine
 10
687.036533
 20
1443.510295
 30
0.0
 11
687.036533
 21
1456.510295
 31
0.0
  0
LINE
  5
3AF
100
AcDbEntity
  8
1
370
    30
  6
Continuous
 62
     7
100
AcDbLine
 10
687.036533
 20
1456.510295
 30
0.0
 11
674.036533
 21
1456.510295
 31
0.0
  0
ENDBLK
  5
3B0
100
AcDbEntity
  8
0
100
AcDbBlockEnd
  0
BLOCK
  5
3B6
100
AcDbEntity
  8
0
370
    30
  6
Continuous
 62
     7
100
AcDbBlockBegin
  2
*G43
 70
     0
 10
0.0
 20
0.0
 30
0.0
  3
*G43
  1

  0
LINE
  5
3B7
100
AcDbEntity
  8
1
370
    30
  6
Continuous
 62
     7
100
AcDbLine
 10
665.536533
 20
1562.510295
 30
0.0
 11
665.536533
 21
1402.510295
 31
0.0
  0
LINE
  5
3B8
100
AcDbEntity
  8
1
370
    30
  6
Continuous
 62
     7
100
AcDbLine
 10
665.536533
 20
1402.510295
 30
0.0
 11
695.536533
 21
1402.510295
 31
0.0
  0
LINE
  5
3B9
100
AcDbEntity
  8
1
370
    30
  6
Continuous
 62
     7
100
AcDbLine
 10
695.536533
 20
1402.510295
 30
0.0
 11
695.536533
 21
1562.510295
 31
0.0
  0
LINE
  5
3BA
100
AcDbEntity
  8
1
370
    30
  6
Continuous
 62
     7
100
AcDbLine
 10
695.536533
 20
1562.510295
 30
0.0
 11
665.536533
 21
1562.510295
 31
0.0
  0
ENDBLK
  5
3BB
100
AcDbEntity
  8
0
100
AcDbBlockEnd
  0
BLOCK
  5
3CB
100
AcDbEntity
  8
0
370
    30
  6
Continuous
 62
     7
100
AcDbBlockBegin
  2
*G44
 70
     0
 10
0.0
 20
0.0
 30
0.0
  3
*G44
  1

  0
LINE
  5
3CC
100
AcDbEntity
  8
1
370
    30
  6
Continuous
 62
     7
100
AcDbLine
 10
644.036533
 20
1431.510295
 30
0.0
 11
644.036533
 21
1418.510295
 31
0.0
  0
LINE
  5
3CD
100
AcDbEntity
  8
1
370
    30
  6
Continuous
 62
     7
100
AcDbLine
 10
644.036533
 20
1418.510295
 30
0.0
 11
657.036533
 21
1418.510295
 31
0.0
  0
LINE
  5
3CE
100
AcDbEntity
  8
1
370
    30
  6
Continuous
 62
     7
100
AcDbLine
 10
657.036533
 20
1418.510295
 30
0.0
 11
657.036533
 21
1431.510295
 31
0.0
  0
LINE
  5
3CF
100
AcDbEntity
  8
1
370
    30
  6
Continuous
 62
     7
100
AcDbLine
 10
657.036533
 20
1431.510295
 30
0.0
 11
644.036533
 21
1431.510295
 31
0.0
  0
ENDBLK
  5
3D0
100
AcDbEntity
  8
0
100
AcDbBlockEnd
  0
BLOCK
  5
3D3
100
AcDbEntity
  8
0
370
    30
  6
Continuous
 62
     7
100
AcDbBlockBegin
  2
*G45
 70
     0
 10
0.0
 20
0.0
 30
0.0
  3
*G45
  1

  0
LINE
  5
3D4
100
AcDbEntity
  8
1
370
    30
  6
Continuous
 62
     7
100
AcDbLine
 10
644.036533
 20
1456.510295
 30
0.0
 11
644.036533
 21
1443.510295
 31
0.0
  0
LINE
  5
3D5
100
AcDbEntity
  8
1
370
    30
  6
Continuous
 62
     7
100
AcDbLine
 10
644.036533
 20
1443.510295
 30
0.0
 11
657.036533
 21
1443.510295
 31
0.0
  0
LINE
  5
3D6
100
AcDbEntity
  8
1
370
    30
  6
Continuous
 62
     7
100
AcDbLine
 10
657.036533
 20
1443.510295
 30
0.0
 11
657.036533
 21
1456.510295
 31
0.0
  0
LINE
  5
3D7
100
AcDbEntity
  8
1
370
    30
  6
Continuous
 62
     7
100
AcDbLine
 10
657.036533
 20
1456.510295
 30
0.0
 11
644.036533
 21
1456.510295
 31
0.0
  0
ENDBLK
  5
3D8
100
AcDbEntity
  8
0
100
AcDbBlockEnd
  0
BLOCK
  5
3DE
100
AcDbEntity
  8
0
370
    30
  6
Continuous
 62
     7
100
AcDbBlockBegin
  2
*G46
 70
     0
 10
0.0
 20
0.0
 30
0.0
  3
*G46
  1

  0
LINE
  5
3DF
100
AcDbEntity
  8
1
370
    30
  6
Continuous
 62
     7
100
AcDbLine
 10
635.536533
 20
1562.510295
 30
0.0
 11
635.536533
 21
1402.510295
 31
0.0
  0
LINE
  5
3E0
100
AcDbEntity
  8
1
370
    30
  6
Continuous
 62
     7
100
AcDbLine
 10
635.536533
 20
1402.510295
 30
0.0
 11
665.536533
 21
1402.510295
 31
0.0
  0
LINE
  5
3E1
100
AcDbEntity
  8
1
370
    30
  6
Continuous
 62
     7
100
AcDbLine
 10
665.536533
 20
1402.510295
 30
0.0
 11
665.536533
 21
1562.510295
 31
0.0
  0
LINE
  5
3E2
100
AcDbEntity
  8
1
370
    30
  6
Continuous
 62
     7
100
AcDbLine
 10
665.536533
 20
1562.510295
 30
0.0
 11
635.536533
 21
1562.510295
 31
0.0
  0
ENDBLK
  5
3E3
100
AcDbEntity
  8
0
100
AcDbBlockEnd
  0
BLOCK
  5
3F1
100
AcDbEntity
  8
0
370
    30
  6
Continuous
 62
     7
100
AcDbBlockBegin
  2
*G47
 70
     0
 10
0.0
 20
0.0
 30
0.0
  3
*G47
  1

  0
LINE
  5
3F2
100
AcDbEntity
  8
1
370
    30
  6
Continuous
 62
     7
100
AcDbLine
 10
614.036533
 20
1431.510295
 30
0.0
 11
614.036533
 21
1418.510295
 31
0.0
  0
LINE
  5
3F3
100
AcDbEntity
  8
1
370
    30
  6
Continuous
 62
     7
100
AcDbLine
 10
614.036533
 20
1418.510295
 30
0.0
 11
627.036533
 21
1418.510295
 31
0.0
  0
LINE
  5
3F4
100
AcDbEntity
  8
1
370
    30
  6
Continuous
 62
     7
100
AcDbLine
 10
627.036533
 20
1418.510295
 30
0.0
 11
627.036533
 21
1431.510295
 31
0.0
  0
LINE
  5
3F5
100
AcDbEntity
  8
1
370
    30
  6
Continuous
 62
     7
100
AcDbLine
 10
627.036533
 20
1431.510295
 30
0.0
 11
614.036533
 21
1431.510295
 31
0.0
  0
ENDBLK
  5
3F6
100
AcDbEntity
  8
0
100
AcDbBlockEnd
  0
BLOCK
  5
3F9
100
AcDbEntity
  8
0
370
    30
  6
Continuous
 62
     7
100
AcDbBlockBegin
  2
*G48
 70
     0
 10
0.0
 20
0.0
 30
0.0
  3
*G48
  1

  0
LINE
  5
3FA
100
AcDbEntity
  8
1
370
    30
  6
Continuous
 62
     7
100
AcDbLine
 10
614.036533
 20
1456.510295
 30
0.0
 11
614.036533
 21
1443.510295
 31
0.0
  0
LINE
  5
3FB
100
AcDbEntity
  8
1
370
    30
  6
Continuous
 62
     7
100
AcDbLine
 10
614.036533
 20
1443.510295
 30
0.0
 11
627.036533
 21
1443.510295
 31
0.0
  0
LINE
  5
3FC
100
AcDbEntity
  8
1
370
    30
  6
Continuous
 62
     7
100
AcDbLine
 10
627.036533
 20
1443.510295
 30
0.0
 11
627.036533
 21
1456.510295
 31
0.0
  0
LINE
  5
3FD
100
AcDbEntity
  8
1
370
    30
  6
Continuous
 62
     7
100
AcDbLine
 10
627.036533
 20
1456.510295
 30
0.0
 11
614.036533
 21
1456.510295
 31
0.0
  0
ENDBLK
  5
3FE
100
AcDbEntity
  8
0
100
AcDbBlockEnd
  0
BLOCK
  5
404
100
AcDbEntity
  8
0
370
    30
  6
Continuous
 62
     7
100
AcDbBlockBegin
  2
*G49
 70
     0
 10
0.0
 20
0.0
 30
0.0
  3
*G49
  1

  0
LINE
  5
405
100
AcDbEntity
  8
1
370
    30
  6
Continuous
 62
     7
100
AcDbLine
 10
605.536533
 20
1562.510295
 30
0.0
 11
605.536533
 21
1402.510295
 31
0.0
  0
LINE
  5
406
100
AcDbEntity
  8
1
370
    30
  6
Continuous
 62
     7
100
AcDbLine
 10
605.536533
 20
1402.510295
 30
0.0
 11
635.536533
 21
1402.510295
 31
0.0
  0
LINE
  5
407
100
AcDbEntity
  8
1
370
    30
  6
Continuous
 62
     7
100
AcDbLine
 10
635.536533
 20
1402.510295
 30
0.0
 11
635.536533
 21
1562.510295
 31
0.0
  0
LINE
  5
408
100
AcDbEntity
  8
1
370
    30
  6
Continuous
 62
     7
100
AcDbLine
 10
635.536533
 20
1562.510295
 30
0.0
 11
605.536533
 21
1562.510295
 31
0.0
  0
ENDBLK
  5
409
100
AcDbEntity
  8
0
100
AcDbBlockEnd
  0
BLOCK
  5
410
100
AcDbEntity
  8
0
370
    30
  6
Continuous
 62
     7
100
AcDbBlockBegin
  2
*G50
 70
     0
 10
0.0
 20
0.0
 30
0.0
  3
*G50
  1

  0
LINE
  5
411
100
AcDbEntity
  8
1
370
    30
  6
Continuous
 62
     7
100
AcDbLine
 10
725.536533
 20
1377.010295
 30
0.0
 11
725.536533
 21
1217.010295
 31
0.0
  0
LINE
  5
412
100
AcDbEntity
  8
1
370
    30
  6
Continuous
 62
     7
100
AcDbLine
 10
725.536533
 20
1217.010295
 30
0.0
 11
755.536533
 21
1217.010295
 31
0.0
  0
LINE
  5
413
100
AcDbEntity
  8
1
370
    30
  6
Continuous
 62
     7
100
AcDbLine
 10
755.536533
 20
1217.010295
 30
0.0
 11
755.536533
 21
1377.010295
 31
0.0
  0
LINE
  5
414
100
AcDbEntity
  8
1
370
    30
  6
Continuous
 62
     7
100
AcDbLine
 10
755.536533
 20
1377.010295
 30
0.0
 11
725.536533
 21
1377.010295
 31
0.0
  0
ENDBLK
  5
415
100
AcDbEntity
  8
0
100
AcDbBlockEnd
  0
BLOCK
  5
41A
100
AcDbEntity
  8
0
370
    30
  6
Continuous
 62
     7
100
AcDbBlockBegin
  2
*G51
 70
     0
 10
0.0
 20
0.0
 30
0.0
  3
*G51
  1

  0
LINE
  5
41B
100
AcDbEntity
  8
1
370
    30
  6
Continuous
 62
     7
100
AcDbLine
 10
695.536533
 20
1377.010295
 30
0.0
 11
695.536533
 21
1217.010295
 31
0.0
  0
LINE
  5
41C
100
AcDbEntity
  8
1
370
    30
  6
Continuous
 62
     7
100
AcDbLine
 10
695.536533
 20
1217.010295
 30
0.0
 11
725.536533
 21
1217.010295
 31
0.0
  0
LINE
  5
41D
100
AcDbEntity
  8
1
370
    30
  6
Continuous
 62
     7
100
AcDbLine
 10
725.536533
 20
1217.010295
 30
0.0
 11
725.536533
 21
1377.010295
 31
0.0
  0
LINE
  5
41E
100
AcDbEntity
  8
1
370
    30
  6
Continuous
 62
     7
100
AcDbLine
 10
725.536533
 20
1377.010295
 30
0.0
 11
695.536533
 21
1377.010295
 31
0.0
  0
ENDBLK
  5
41F
100
AcDbEntity
  8
0
100
AcDbBlockEnd
  0
BLOCK
  5
424
100
AcDbEntity
  8
0
370
    30
  6
Continuous
 62
     7
100
AcDbBlockBegin
  2
*G52
 70
     0
 10
0.0
 20
0.0
 30
0.0
  3
*G52
  1

  0
LINE
  5
425
100
AcDbEntity
  8
1
370
    30
  6
Continuous
 62
     7
100
AcDbLine
 10
665.536533
 20
1377.010295
 30
0.0
 11
665.536533
 21
1217.010295
 31
0.0
  0
LINE
  5
426
100
AcDbEntity
  8
1
370
    30
  6
Continuous
 62
     7
100
AcDbLine
 10
665.536533
 20
1217.010295
 30
0.0
 11
695.536533
 21
1217.010295
 31
0.0
  0
LINE
  5
427
100
AcDbEntity
  8
1
370
    30
  6
Continuous
 62
     7
100
AcDbLine
 10
695.536533
 20
1217.010295
 30
0.0
 11
695.536533
 21
1377.010295
 31
0.0
  0
LINE
  5
428
100
AcDbEntity
  8
1
370
    30
  6
Continuous
 62
     7
100
AcDbLine
 10
695.536533
 20
1377.010295
 30
0.0
 11
665.536533
 21
1377.010295
 31
0.0
  0
ENDBLK
  5
429
100
AcDbEntity
  8
0
100
AcDbBlockEnd
  0
BLOCK
  5
42E
100
AcDbEntity
  8
0
370
    30
  6
Continuous
 62
     7
100
AcDbBlockBegin
  2
*G53
 70
     0
 10
0.0
 20
0.0
 30
0.0
  3
*G53
  1

  0
LINE
  5
42F
100
AcDbEntity
  8
1
370
    30
  6
Continuous
 62
     7
100
AcDbLine
 10
635.536533
 20
1377.010295
 30
0.0
 11
635.536533
 21
1217.010295
 31
0.0
  0
LINE
  5
430
100
AcDbEntity
  8
1
370
    30
  6
Continuous
 62
     7
100
AcDbLine
 10
635.536533
 20
1217.010295
 30
0.0
 11
665.536533
 21
1217.010295
 31
0.0
  0
LINE
  5
431
100
AcDbEntity
  8
1
370
    30
  6
Continuous
 62
     7
100
AcDbLine
 10
665.536533
 20
1217.010295
 30
0.0
 11
665.536533
 21
1377.010295
 31
0.0
  0
LINE
  5
432
100
AcDbEntity
  8
1
370
    30
  6
Continuous
 62
     7
100
AcDbLine
 10
665.536533
 20
1377.010295
 30
0.0
 11
635.536533
 21
1377.010295
 31
0.0
  0
ENDBLK
  5
433
100
AcDbEntity
  8
0
100
AcDbBlockEnd
  0
BLOCK
  5
436
100
AcDbEntity
  8
0
370
    30
  6
Continuous
 62
     7
100
AcDbBlockBegin
  2
*G54
 70
     0
 10
0.0
 20
0.0
 30
0.0
  3
*G54
  1

  0
LINE
  5
437
100
AcDbEntity
  8
1
370
    30
  6
Continuous
 62
     7
100
AcDbLine
 10
605.536533
 20
1377.010295
 30
0.0
 11
605.536533
 21
1217.010295
 31
0.0
  0
LINE
  5
438
100
AcDbEntity
  8
1
370
    30
  6
Continuous
 62
     7
100
AcDbLine
 10
605.536533
 20
1217.010295
 30
0.0
 11
635.536533
 21
1217.010295
 31
0.0
  0
LINE
  5
439
100
AcDbEntity
  8
1
370
    30
  6
Continuous
 62
     7
100
AcDbLine
 10
635.536533
 20
1217.010295
 30
0.0
 11
635.536533
 21
1377.010295
 31
0.0
  0
LINE
  5
43A
100
AcDbEntity
  8
1
370
    30
  6
Continuous
 62
     7
100
AcDbLine
 10
635.536533
 20
1377.010295
 30
0.0
 11
605.536533
 21
1377.010295
 31
0.0
  0
ENDBLK
  5
43B
100
AcDbEntity
  8
0
100
AcDbBlockEnd
  0
BLOCK
  5
452
100
AcDbEntity
  8
2
370
     9
  6
Continuous
 62
   214
100
AcDbBlockBegin
  2
*D55
 70
     0
 10
0.0
 20
0.0
 30
0.0
  3
*D55
  1

  0
LINE
  5
453
100
AcDbEntity
  8
2
370
     9
  6
Continuous
 62
   214
100
AcDbLine
 10
355.286533
 20
1693.010295
 30
0.0
 11
855.286533
 21
1693.010295
 31
0.0
  0
LINE
  5
454
100
AcDbEntity
  8
2
370
     9
  6
Continuous
 62
   214
100
AcDbLine
 10
355.286533
 20
1707.010295
 30
0.0
 11
355.286533
 21
1637.010295
 31
0.0
  0
LINE
  5
455
100
AcDbEntity
  8
2
370
     9
  6
Continuous
 62
   214
100
AcDbLine
 10
855.286533
 20
1707.010295
 30
0.0
 11
855.286533
 21
1637.010295
 31
0.0
  0
LINE
  5
456
100
AcDbEntity
  8
2
370
     9
  6
Continuous
 62
   214
100
AcDbLine
 10
355.286533
 20
1693.010295
 30
0.0
 11
371.514086
 21
1697.358455
 31
0.0
  0
LINE
  5
457
100
AcDbEntity
  8
2
370
     9
  6
Continuous
 62
   214
100
AcDbLine
 10
355.286533
 20
1693.010295
 30
0.0
 11
371.514086
 21
1688.662135
 31
0.0
  0
LINE
  5
458
100
AcDbEntity
  8
2
370
     9
  6
Continuous
 62
   214
100
AcDbLine
 10
855.286533
 20
1693.010295
 30
0.0
 11
839.058979
 21
1688.662135
 31
0.0
  0
LINE
  5
459
100
AcDbEntity
  8
2
370
     9
  6
Continuous
 62
   214
100
AcDbLine
 10
855.286533
 20
1693.010295
 30
0.0
 11
839.058979
 21
1697.358455
 31
0.0
  0
TEXT
  5
45A
100
AcDbEntity
  8
2
370
     9
  6
Continuous
 62
   214
100
AcDbText
 10
588.136533
 20
1696.510295
 30
0.0
 40
21.0
  1
500
 41
0.544444
 11
588.136533
 21
1696.510295
 31
0.0
100
AcDbText
 73
     1
  0
ENDBLK
  5
45B
100
AcDbEntity
  8
2
370
     9
  6
Continuous
 62
   214
100
AcDbBlockEnd
  0
BLOCK
  5
45E
100
AcDbEntity
  8
2
370
     9
  6
Continuous
 62
   214
100
AcDbBlockBegin
  2
*D56
 70
     0
 10
0.0
 20
0.0
 30
0.0
  3
*D56
  1

  0
LINE
  5
45F
100
AcDbEntity
  8
2
370
     9
  6
Continuous
 62
   214
100
AcDbLine
 10
1386.179643
 20
1693.010295
 30
0.0
 11
1846.179643
 21
1693.010295
 31
0.0
  0
LINE
  5
460
100
AcDbEntity
  8
2
370
     9
  6
Continuous
 62
   214
100
AcDbLine
 10
1386.179643
 20
1707.010295
 30
0.0
 11
1386.179643
 21
1594.706494
 31
0.0
  0
LINE
  5
461
100
AcDbEntity
  8
2
370
     9
  6
Continuous
 62
   214
100
AcDbLine
 10
1846.179643
 20
1707.010295
 30
0.0
 11
1846.179643
 21
1593.568667
 31
0.0
  0
LINE
  5
462
100
AcDbEntity
  8
2
370
     9
  6
Continuous
 62
   214
100
AcDbLine
 10
1386.179643
 20
1693.010295
 30
0.0
 11
1402.407197
 21
1697.358455
 31
0.0
  0
LINE
  5
463
100
AcDbEntity
  8
2
370
     9
  6
Continuous
 62
   214
100
AcDbLine
 10
1386.179643
 20
1693.010295
 30
0.0
 11
1402.407197
 21
1688.662135
 31
0.0
  0
LINE
  5
464
100
AcDbEntity
  8
2
370
     9
  6
Continuous
 62
   214
100
AcDbLine
 10
1846.179643
 20
1693.010295
 30
0.0
 11
1829.952089
 21
1688.662135
 31
0.0
  0
LINE
  5
465
100
AcDbEntity
  8
2
370
     9
  6
Continuous
 62
   214
100
AcDbLine
 10
1846.179643
 20
1693.010295
 30
0.0
 11
1829.952089
 21
1697.358455
 31
0.0
  0
TEXT
  5
466
100
AcDbEntity
  8
2
370
     9
  6
Continuous
 62
   214
100
AcDbText
 10
1599.029643
 20
1696.510295
 30
0.0
 40
21.0
  1
460
 41
0.544444
 11
1599.029643
 21
1696.510295
 31
0.0
100
AcDbText
 73
     1
  0
ENDBLK
  5
467
100
AcDbEntity
  8
2
370
     9
  6
Continuous
 62
   214
100
AcDbBlockEnd
  0
BLOCK
  5
46A
100
AcDbEntity
  8
2
370
     9
  6
Continuous
 62
   214
100
AcDbBlockBegin
  2
*D57
 70
     0
 10
0.0
 20
0.0
 30
0.0
  3
*D57
  1

  0
LINE
  5
46B
100
AcDbEntity
  8
2
370
     9
  6
Continuous
 62
   214
100
AcDbLine
 10
1936.179643
 20
1563.010295
 30
0.0
 11
1936.179643
 21
1183.010295
 31
0.0
  0
LINE
  5
46C
100
AcDbEntity
  8
2
370
     9
  6
Continuous
 62
   214
100
AcDbLine
 10
1950.179643
 20
1563.010295
 30
0.0
 11
1880.179643
 21
1563.010295
 31
0.0
  0
LINE
  5
46D
100
AcDbEntity
  8
2
370
     9
  6
Continuous
 62
   214
100
AcDbLine
 10
1950.179643
 20
1183.010295
 30
0.0
 11
1876.758822
 21
1183.010295
 31
0.0
  0
LINE
  5
46E
100
AcDbEntity
  8
2
370
     9
  6
Continuous
 62
   214
100
AcDbLine
 10
1936.179643
 20
1563.010295
 30
0.0
 11
1940.527803
 21
1546.782741
 31
0.0
  0
LINE
  5
46F
100
AcDbEntity
  8
2
370
     9
  6
Continuous
 62
   214
100
AcDbLine
 10
1936.179643
 20
1563.010295
 30
0.0
 11
1931.831483
 21
1546.782741
 31
0.0
  0
LINE
  5
470
100
AcDbEntity
  8
2
370
     9
  6
Continuous
 62
   214
100
AcDbLine
 10
1936.179643
 20
1183.010295
 30
0.0
 11
1931.831483
 21
1199.237849
 31
0.0
  0
LINE
  5
471
100
AcDbEntity
  8
2
370
     9
  6
Continuous
 62
   214
100
AcDbLine
 10
1936.179643
 20
1183.010295
 30
0.0
 11
1940.527803
 21
1199.237849
 31
0.0
  0
TEXT
  5
472
100
AcDbEntity
  8
2
370
     9
  6
Continuous
 62
   214
100
AcDbText
 10
1932.679643
 20
1355.860295
 30
0.0
 40
21.0
  1
380
 50
90.0
 41
0.544444
 11
1932.679643
 21
1355.860295
 31
0.0
100
AcDbText
 73
     1
  0
ENDBLK
  5
473
100
AcDbEntity
  8
2
370
     9
  6
Continuous
 62
   214
100
AcDbBlockEnd
  0
BLOCK
  5
4C8
100
AcDbEntity
  8
2
370
     9
  6
Continuous
 62
   214
100
AcDbBlockBegin
  2
*D58
 70
     0
 10
0.0
 20
0.0
 30
0.0
  3
*D58
  1

  0
LINE
  5
4C9
100
AcDbEntity
  8
2
370
     9
  6
Continuous
 62
   214
100
AcDbLine
 10
1069.046833
 20
1693.010295
 30
0.0
 11
1189.046833
 21
1693.010295
 31
0.0
  0
LINE
  5
4CA
100
AcDbEntity
  8
2
370
     9
  6
Continuous
 62
   214
100
AcDbLine
 10
1069.046833
 20
1707.010295
 30
0.0
 11
1069.046833
 21
1636.999849
 31
0.0
  0
LINE
  5
4CB
100
AcDbEntity
  8
2
370
     9
  6
Continuous
 62
   214
100
AcDbLine
 10
1189.046833
 20
1707.010295
 30
0.0
 11
1189.046833
 21
1636.611508
 31
0.0
  0
LINE
  5
4CC
100
AcDbEntity
  8
2
370
     9
  6
Continuous
 62
   214
100
AcDbLine
 10
1069.046833
 20
1693.010295
 30
0.0
 11
1085.274387
 21
1697.358455
 31
0.0
  0
LINE
  5
4CD
100
AcDbEntity
  8
2
370
     9
  6
Continuous
 62
   214
100
AcDbLine
 10
1069.046833
 20
1693.010295
 30
0.0
 11
1085.274387
 21
1688.662135
 31
0.0
  0
LINE
  5
4CE
100
AcDbEntity
  8
2
370
     9
  6
Continuous
 62
   214
100
AcDbLine
 10
1189.046833
 20
1693.010295
 30
0.0
 11
1172.819279
 21
1688.662135
 31
0.0
  0
LINE
  5
4CF
100
AcDbEntity
  8
2
370
     9
  6
Continuous
 62
   214
100
AcDbLine
 10
1189.046833
 20
1693.010295
 30
0.0
 11
1172.819279
 21
1697.358455
 31
0.0
  0
TEXT
  5
4D0
100
AcDbEntity
  8
2
370
     9
  6
Continuous
 62
   214
100
AcDbText
 10
1111.896833
 20
1696.510295
 30
0.0
 40
21.0
  1
120
 41
0.544444
 11
1111.896833
 21
1696.510295
 31
0.0
100
AcDbText
 73
     1
  0
ENDBLK
  5
4D1
100
AcDbEntity
  8
2
370
     9
  6
Continuous
 62
   214
100
AcDbBlockEnd
  0
BLOCK
  5
4D4
100
AcDbEntity
  8
2
370
     9
  6
Continuous
 62
   214
100
AcDbBlockBegin
  2
*D59
 70
     0
 10
0.0
 20
0.0
 30
0.0
  3
*D59
  1

  0
LINE
  5
4D5
100
AcDbEntity
  8
2
370
     9
  6
Continuous
 62
   214
100
AcDbLine
 10
925.286533
 20
1623.010295
 30
0.0
 11
925.286533
 21
1123.010295
 31
0.0
  0
LINE
  5
4D6
100
AcDbEntity
  8
2
370
     9
  6
Continuous
 62
   214
100
AcDbLine
 10
939.286533
 20
1623.010295
 30
0.0
 11
863.524025
 21
1623.010295
 31
0.0
  0
LINE
  5
4D7
100
AcDbEntity
  8
2
370
     9
  6
Continuous
 62
   214
100
AcDbLine
 10
939.286533
 20
1123.010295
 30
0.0
 11
858.735731
 21
1123.010295
 31
0.0
  0
LINE
  5
4D8
100
AcDbEntity
  8
2
370
     9
  6
Continuous
 62
   214
100
AcDbLine
 10
925.286533
 20
1623.010295
 30
0.0
 11
929.634692
 21
1606.782741
 31
0.0
  0
LINE
  5
4D9
100
AcDbEntity
  8
2
370
     9
  6
Continuous
 62
   214
100
AcDbLine
 10
925.286533
 20
1623.010295
 30
0.0
 11
920.938373
 21
1606.782741
 31
0.0
  0
LINE
  5
4DA
100
AcDbEntity
  8
2
370
     9
  6
Continuous
 62
   214
100
AcDbLine
 10
925.286533
 20
1123.010295
 30
0.0
 11
920.938373
 21
1139.237849
 31
0.0
  0
LINE
  5
4DB
100
AcDbEntity
  8
2
370
     9
  6
Continuous
 62
   214
100
AcDbLine
 10
925.286533
 20
1123.010295
 30
0.0
 11
929.634692
 21
1139.237849
 31
0.0
  0
TEXT
  5
4DC
100
AcDbEntity
  8
2
370
     9
  6
Continuous
 62
   214
100
AcDbText
 10
921.786533
 20
1355.860295
 30
0.0
 40
21.0
  1
500
 50
90.0
 41
0.544444
 11
921.786533
 21
1355.860295
 31
0.0
100
AcDbText
 73
     1
  0
ENDBLK
  5
4DD
100
AcDbEntity
  8
2
370
     9
  6
Continuous
 62
   214
100
AcDbBlockEnd
  0
BLOCK
  5
4F7
100
AcDbEntity
  8
0
370
    30
  6
Continuous
 62
    14
100
AcDbBlockBegin
  2
*G60
 70
     0
 10
0.0
 20
0.0
 30
0.0
  3
*G60
  1

  0
LINE
  5
4F8
100
AcDbEntity
  8
1
370
    30
  6
Continuous
 62
     7
100
AcDbLine
 10
1516.179643
 20
1148.010295
 30
0.0
 11
1716.179643
 21
1148.010295
 31
0.0
  0
LINE
  5
4F9
100
AcDbEntity
  8
1
370
    30
  6
Continuous
 62
     7
100
AcDbLine
 10
1716.179643
 20
1148.010295
 30
0.0
 11
1716.179643
 21
1188.010295
 31
0.0
  0
LINE
  5
4FA
100
AcDbEntity
  8
1
370
    30
  6
Continuous
 62
     7
100
AcDbLine
 10
1716.179643
 20
1188.010295
 30
0.0
 11
1516.179643
 21
1188.010295
 31
0.0
  0
LINE
  5
4FB
100
AcDbEntity
  8
1
370
    30
  6
Continuous
 62
     7
100
AcDbLine
 10
1516.179643
 20
1188.010295
 30
0.0
 11
1516.179643
 21
1148.010295
 31
0.0
  0
ENDBLK
  5
4FC
100
AcDbEntity
  8
0
100
AcDbBlockEnd
  0
BLOCK
  5
4FF
100
AcDbEntity
  8
2
370
     9
  6
Continuous
 62
   214
100
AcDbBlockBegin
  2
*D61
 70
     0
 10
0.0
 20
0.0
 30
0.0
  3
*D61
  1

  0
LINE
  5
500
100
AcDbEntity
  8
2
370
     9
  6
Continuous
 62
   214
100
AcDbLine
 10
1516.179643
 20
1060.590772
 30
0.0
 11
1716.179643
 21
1060.590772
 31
0.0
  0
LINE
  5
501
100
AcDbEntity
  8
2
370
     9
  6
Continuous
 62
   214
100
AcDbLine
 10
1516.179643
 20
1046.590772
 30
0.0
 11
1516.179643
 21
1135.795977
 31
0.0
  0
LINE
  5
502
100
AcDbEntity
  8
2
370
     9
  6
Continuous
 62
   214
100
AcDbLine
 10
1716.179643
 20
1046.590772
 30
0.0
 11
1716.179643
 21
1136.205671
 31
0.0
  0
LINE
  5
503
100
AcDbEntity
  8
2
370
     9
  6
Continuous
 62
   214
100
AcDbLine
 10
1516.179643
 20
1060.590772
 30
0.0
 11
1532.407197
 21
1064.938932
 31
0.0
  0
LINE
  5
504
100
AcDbEntity
  8
2
370
     9
  6
Continuous
 62
   214
100
AcDbLine
 10
1516.179643
 20
1060.590772
 30
0.0
 11
1532.407197
 21
1056.242613
 31
0.0
  0
LINE
  5
505
100
AcDbEntity
  8
2
370
     9
  6
Continuous
 62
   214
100
AcDbLine
 10
1716.179643
 20
1060.590772
 30
0.0
 11
1699.952089
 21
1056.242613
 31
0.0
  0
LINE
  5
506
100
AcDbEntity
  8
2
370
     9
  6
Continuous
 62
   214
100
AcDbLine
 10
1716.179643
 20
1060.590772
 30
0.0
 11
1699.952089
 21
1064.938932
 31
0.0
  0
TEXT
  5
507
100
AcDbEntity
  8
2
370
     9
  6
Continuous
 62
   214
100
AcDbText
 10
1599.029643
 20
1064.090772
 30
0.0
 40
21.0
  1
200
 41
0.544444
 11
1599.029643
 21
1064.090772
 31
0.0
100
AcDbText
 73
     1
  0
ENDBLK
  5
508
100
AcDbEntity
  8
2
370
     9
  6
Continuous
 62
   214
100
AcDbBlockEnd
  0
BLOCK
  5
50B
100
AcDbEntity
  8
2
370
     9
  6
Continuous
 62
   214
100
AcDbBlockBegin
  2
*D62
 70
     0
 10
0.0
 20
0.0
 30
0.0
  3
*D62
  1

  0
LINE
  5
50C
100
AcDbEntity
  8
2
370
     9
  6
Continuous
 62
   214
100
AcDbLine
 10
1294.718369
 20
1188.010295
 30
0.0
 11
1294.718369
 21
1148.010295
 31
0.0
  0
LINE
  5
50D
100
AcDbEntity
  8
2
370
     9
  6
Continuous
 62
   214
100
AcDbLine
 10
1280.718369
 20
1188.010295
 30
0.0
 11
1502.179643
 21
1188.010295
 31
0.0
  0
LINE
  5
50E
100
AcDbEntity
  8
2
370
     9
  6
Continuous
 62
   214
100
AcDbLine
 10
1280.718369
 20
1148.010295
 30
0.0
 11
1502.179643
 21
1148.010295
 31
0.0
  0
LINE
  5
50F
100
AcDbEntity
  8
2
370
     9
  6
Continuous
 62
   214
100
AcDbLine
 10
1294.718369
 20
1188.010295
 30
0.0
 11
1299.066529
 21
1171.782741
 31
0.0
  0
LINE
  5
510
100
AcDbEntity
  8
2
370
     9
  6
Continuous
 62
   214
100
AcDbLine
 10
1294.718369
 20
1188.010295
 30
0.0
 11
1290.370209
 21
1171.782741
 31
0.0
  0
LINE
  5
511
100
AcDbEntity
  8
2
370
     9
  6
Continuous
 62
   214
100
AcDbLine
 10
1294.718369
 20
1148.010295
 30
0.0
 11
1290.370209
 21
1164.237849
 31
0.0
  0
LINE
  5
512
100
AcDbEntity
  8
2
370
     9
  6
Continuous
 62
   214
100
AcDbLine
 10
1294.718369
 20
1148.010295
 30
0.0
 11
1299.066529
 21
1164.237849
 31
0.0
  0
TEXT
  5
513
100
AcDbEntity
  8
2
370
     9
  6
Continuous
 62
   214
100
AcDbText
 10
1291.218369
 20
1156.810295
 30
0.0
 40
21.0
  1
40
 50
90.0
 41
0.533333
 11
1291.218369
 21
1156.810295
 31
0.0
100
AcDbText
 73
     1
  0
ENDBLK
  5
514
100
AcDbEntity
  8
2
370
     9
  6
Continuous
 62
   214
100
AcDbBlockEnd
  0
BLOCK
  5
518
100
AcDbEntity
  8
2
370
     9
  6
Continuous
 62
   214
100
AcDbBlockBegin
  2
*D63
 70
     0
 10
0.0
 20
0.0
 30
0.0
  3
*D63
  1

  0
LINE
  5
519
100
AcDbEntity
  8
2
370
     9
  6
Continuous
 62
   214
100
AcDbLine
 10
1759.724315
 20
1168.010295
 30
0.0
 11
1759.724315
 21
1123.010295
 31
0.0
  0
LINE
  5
51A
100
AcDbEntity
  8
2
370
     9
  6
Continuous
 62
   214
100
AcDbLine
 10
1773.724315
 20
1168.010295
 30
0.0
 11
1739.446614
 21
1168.010295
 31
0.0
  0
LINE
  5
51B
100
AcDbEntity
  8
2
370
     9
  6
Continuous
 62
   214
100
AcDbLine
 10
1773.724315
 20
1123.010295
 30
0.0
 11
1739.446614
 21
1123.010295
 31
0.0
  0
LINE
  5
51C
100
AcDbEntity
  8
2
370
     9
  6
Continuous
 62
   214
100
AcDbLine
 10
1759.724315
 20
1168.010295
 30
0.0
 11
1764.072475
 21
1151.782741
 31
0.0
  0
LINE
  5
51D
100
AcDbEntity
  8
2
370
     9
  6
Continuous
 62
   214
100
AcDbLine
 10
1759.724315
 20
1168.010295
 30
0.0
 11
1755.376155
 21
1151.782741
 31
0.0
  0
LINE
  5
51E
100
AcDbEntity
  8
2
370
     9
  6
Continuous
 62
   214
100
AcDbLine
 10
1759.724315
 20
1123.010295
 30
0.0
 11
1755.376155
 21
1139.237849
 31
0.0
  0
LINE
  5
51F
100
AcDbEntity
  8
2
370
     9
  6
Continuous
 62
   214
100
AcDbLine
 10
1759.724315
 20
1123.010295
 30
0.0
 11
1764.072475
 21
1139.237849
 31
0.0
  0
TEXT
  5
520
100
AcDbEntity
  8
2
370
     9
  6
Continuous
 62
   214
100
AcDbText
 10
1756.224315
 20
1134.310295
 30
0.0
 40
21.0
  1
45
 50
90.0
 41
0.533333
 11
1756.224315
 21
1134.310295
 31
0.0
100
AcDbText
 73
     1
  0
ENDBLK
  5
521
100
AcDbEntity
  8
2
370
     9
  6
Continuous
 62
   214
100
AcDbBlockEnd
  0
BLOCK
  5
552
100
AcDbEntity
  8
0
370
    30
  6
Continuous
 62
     7
100
AcDbBlockBegin
  2
*G64
 70
     0
 10
0.0
 20
0.0
 30
0.0
  3
*G64
  1

  0
LINE
  5
553
100
AcDbEntity
  8
2
370
    30
  6
Continuous
 62
   214
100
AcDbLine
 10
447.591305
 20
452.321498
 30
0.0
 11
447.591305
 21
421.987194
 31
0.0
  0
LINE
  5
554
100
AcDbEntity
  8
2
370
    30
  6
Continuous
 62
   214
100
AcDbLine
 10
447.591305
 20
421.987194
 30
0.0
 11
477.925609
 21
421.987194
 31
0.0
  0
LINE
  5
555
100
AcDbEntity
  8
2
370
    30
  6
Continuous
 62
   214
100
AcDbLine
 10
477.925609
 20
421.987194
 30
0.0
 11
477.925609
 21
452.321498
 31
0.0
  0
LINE
  5
556
100
AcDbEntity
  8
2
370
    30
  6
Continuous
 62
   214
100
AcDbLine
 10
477.925609
 20
452.321498
 30
0.0
 11
447.591305
 21
452.321498
 31
0.0
  0
ENDBLK
  5
557
100
AcDbEntity
  8
0
100
AcDbBlockEnd
  0
BLOCK
  5
55A
100
AcDbEntity
  8
0
370
    30
  6
Continuous
 62
     7
100
AcDbBlockBegin
  2
*G65
 70
     0
 10
0.0
 20
0.0
 30
0.0
  3
*G65
  1

  0
LINE
  5
55B
100
AcDbEntity
  8
2
370
    30
  6
Continuous
 62
   214
100
AcDbLine
 10
447.591305
 20
510.656698
 30
0.0
 11
447.591305
 21
480.322394
 31
0.0
  0
LINE
  5
55C
100
AcDbEntity
  8
2
370
    30
  6
Continuous
 62
   214
100
AcDbLine
 10
447.591305
 20
480.322394
 30
0.0
 11
477.925609
 21
480.322394
 31
0.0
  0
LINE
  5
55D
100
AcDbEntity
  8
2
370
    30
  6
Continuous
 62
   214
100
AcDbLine
 10
477.925609
 20
480.322394
 30
0.0
 11
477.925609
 21
510.656698
 31
0.0
  0
LINE
  5
55E
100
AcDbEntity
  8
2
370
    30
  6
Continuous
 62
   214
100
AcDbLine
 10
477.925609
 20
510.656698
 30
0.0
 11
447.591305
 21
510.656698
 31
0.0
  0
ENDBLK
  5
55F
100
AcDbEntity
  8
0
100
AcDbBlockEnd
  0
BLOCK
  5
565
100
AcDbEntity
  8
0
370
    30
  6
Continuous
 62
     7
100
AcDbBlockBegin
  2
*G66
 70
     0
 10
0.0
 20
0.0
 30
0.0
  3
*G66
  1

  0
LINE
  5
566
100
AcDbEntity
  8
2
370
    30
  6
Continuous
 62
   214
100
AcDbLine
 10
427.757337
 20
757.997946
 30
0.0
 11
427.757337
 21
384.652666
 31
0.0
  0
LINE
  5
567
100
AcDbEntity
  8
2
370
    30
  6
Continuous
 62
   214
100
AcDbLine
 10
427.757337
 20
384.652666
 30
0.0
 11
497.759577
 21
384.652666
 31
0.0
  0
LINE
  5
568
100
AcDbEntity
  8
2
370
    30
  6
Continuous
 62
   214
100
AcDbLine
 10
497.759577
 20
384.652666
 30
0.0
 11
497.759577
 21
757.997946
 31
0.0
  0
LINE
  5
569
100
AcDbEntity
  8
2
370
    30
  6
Continuous
 62
   214
100
AcDbLine
 10
497.759577
 20
757.997946
 30
0.0
 11
427.757337
 21
757.997946
 31
0.0
  0
ENDBLK
  5
56A
100
AcDbEntity
  8
0
100
AcDbBlockEnd
  0
BLOCK
  5
5AA
100
AcDbEntity
  8
0
370
    30
  6
Continuous
 62
     7
100
AcDbBlockBegin
  2
*G67
 70
     0
 10
0.0
 20
0.0
 30
0.0
  3
*G67
  1

  0
LINE
  5
5AB
100
AcDbEntity
  8
2
370
    30
  6
Continuous
 62
   214
100
AcDbLine
 10
1010.170138
 20
452.321498
 30
0.0
 11
1010.170138
 21
421.987194
 31
0.0
  0
LINE
  5
5AC
100
AcDbEntity
  8
2
370
    30
  6
Continuous
 62
   214
100
AcDbLine
 10
1010.170138
 20
421.987194
 30
0.0
 11
1040.504442
 21
421.987194
 31
0.0
  0
LINE
  5
5AD
100
AcDbEntity
  8
2
370
    30
  6
Continuous
 62
   214
100
AcDbLine
 10
1040.504442
 20
421.987194
 30
0.0
 11
1040.504442
 21
452.321498
 31
0.0
  0
LINE
  5
5AE
100
AcDbEntity
  8
2
370
    30
  6
Continuous
 62
   214
100
AcDbLine
 10
1040.504442
 20
452.321498
 30
0.0
 11
1010.170138
 21
452.321498
 31
0.0
  0
ENDBLK
  5
5AF
100
AcDbEntity
  8
0
100
AcDbBlockEnd
  0
BLOCK
  5
5B2
100
AcDbEntity
  8
0
370
    30
  6
Continuous
 62
     7
100
AcDbBlockBegin
  2
*G68
 70
     0
 10
0.0
 20
0.0
 30
0.0
  3
*G68
  1

  0
LINE
  5
5B3
100
AcDbEntity
  8
2
370
    30
  6
Continuous
 62
   214
100
AcDbLine
 10
1010.170138
 20
510.656698
 30
0.0
 11
1010.170138
 21
480.322394
 31
0.0
  0
LINE
  5
5B4
100
AcDbEntity
  8
2
370
    30
  6
Continuous
 62
   214
100
AcDbLine
 10
1010.170138
 20
480.322394
 30
0.0
 11
1040.504442
 21
480.322394
 31
0.0
  0
LINE
  5
5B5
100
AcDbEntity
  8
2
370
    30
  6
Continuous
 62
   214
100
AcDbLine
 10
1040.504442
 20
480.322394
 30
0.0
 11
1040.504442
 21
510.656698
 31
0.0
  0
LINE
  5
5B6
100
AcDbEntity
  8
2
370
    30
  6
Continuous
 62
   214
100
AcDbLine
 10
1040.504442
 20
510.656698
 30
0.0
 11
1010.170138
 21
510.656698
 31
0.0
  0
ENDBLK
  5
5B7
100
AcDbEntity
  8
0
100
AcDbBlockEnd
  0
BLOCK
  5
5BD
100
AcDbEntity
  8
0
370
    30
  6
Continuous
 62
     7
100
AcDbBlockBegin
  2
*G69
 70
     0
 10
0.0
 20
0.0
 30
0.0
  3
*G69
  1

  0
LINE
  5
5BE
100
AcDbEntity
  8
2
370
    30
  6
Continuous
 62
   214
100
AcDbLine
 10
990.33617
 20
757.997946
 30
0.0
 11
990.33617
 21
384.652666
 31
0.0
  0
LINE
  5
5BF
100
AcDbEntity
  8
2
370
    30
  6
Continuous
 62
   214
100
AcDbLine
 10
990.33617
 20
384.652666
 30
0.0
 11
1060.33841
 21
384.652666
 31
0.0
  0
LINE
  5
5C0
100
AcDbEntity
  8
2
370
    30
  6
Continuous
 62
   214
100
AcDbLine
 10
1060.33841
 20
384.652666
 30
0.0
 11
1060.33841
 21
757.997946
 31
0.0
  0
LINE
  5
5C1
100
AcDbEntity
  8
2
370
    30
  6
Continuous
 62
   214
100
AcDbLine
 10
1060.33841
 20
757.997946
 30
0.0
 11
990.33617
 21
757.997946
 31
0.0
  0
ENDBLK
  5
5C2
100
AcDbEntity
  8
0
100
AcDbBlockEnd
  0
BLOCK
  5
5F6
100
AcDbEntity
  8
0
370
    30
  6
Continuous
 62
     7
100
AcDbBlockBegin
  2
*G70
 70
     0
 10
0.0
 20
0.0
 30
0.0
  3
*G70
  1

  0
LINE
  5
5F7
100
AcDbEntity
  8
2
370
    30
  6
Continuous
 62
   214
100
AcDbLine
 10
1522.8703
 20
468.332549
 30
0.0
 11
1896.21558
 21
468.332549
 31
0.0
  0
LINE
  5
5F8
100
AcDbEntity
  8
2
370
    30
  6
Continuous
 62
   214
100
AcDbLine
 10
1896.21558
 20
468.332549
 30
0.0
 11
1896.21558
 21
538.334789
 31
0.0
  0
LINE
  5
5F9
100
AcDbEntity
  8
2
370
    30
  6
Continuous
 62
   214
100
AcDbLine
 10
1896.21558
 20
538.334789
 30
0.0
 11
1522.8703
 21
538.334789
 31
0.0
  0
LINE
  5
5FA
100
AcDbEntity
  8
2
370
    30
  6
Continuous
 62
   214
100
AcDbLine
 10
1522.8703
 20
538.334789
 30
0.0
 11
1522.8703
 21
468.332549
 31
0.0
  0
ENDBLK
  5
5FB
100
AcDbEntity
  8
0
100
AcDbBlockEnd
  0
BLOCK
  5
601
100
AcDbEntity
  8
0
370
    30
  6
Continuous
 62
     7
100
AcDbBlockBegin
  2
*G71
 70
     0
 10
0.0
 20
0.0
 30
0.0
  3
*G71
  1

  0
LINE
  5
602
100
AcDbEntity
  8
2
370
    30
  6
Continuous
 62
   214
100
AcDbLine
 10
1770.211548
 20
488.166517
 30
0.0
 11
1800.545852
 21
488.166517
 31
0.0
  0
LINE
  5
603
100
AcDbEntity
  8
2
370
    30
  6
Continuous
 62
   214
100
AcDbLine
 10
1800.545852
 20
488.166517
 30
0.0
 11
1800.545852
 21
518.500821
 31
0.0
  0
LINE
  5
604
100
AcDbEntity
  8
2
370
    30
  6
Continuous
 62
   214
100
AcDbLine
 10
1800.545852
 20
518.500821
 30
0.0
 11
1770.211548
 21
518.500821
 31
0.0
  0
LINE
  5
605
100
AcDbEntity
  8
2
370
    30
  6
Continuous
 62
   214
100
AcDbLine
 10
1770.211548
 20
518.500821
 30
0.0
 11
1770.211548
 21
488.166517
 31
0.0
  0
ENDBLK
  5
606
100
AcDbEntity
  8
0
100
AcDbBlockEnd
  0
BLOCK
  5
609
100
AcDbEntity
  8
0
370
    30
  6
Continuous
 62
     7
100
AcDbBlockBegin
  2
*G72
 70
     0
 10
0.0
 20
0.0
 30
0.0
  3
*G72
  1

  0
LINE
  5
60A
100
AcDbEntity
  8
2
370
    30
  6
Continuous
 62
   214
100
AcDbLine
 10
1828.546748
 20
488.166517
 30
0.0
 11
1858.881052
 21
488.166517
 31
0.0
  0
LINE
  5
60B
100
AcDbEntity
  8
2
370
    30
  6
Continuous
 62
   214
100
AcDbLine
 10
1858.881052
 20
488.166517
 30
0.0
 11
1858.881052
 21
518.500821
 31
0.0
  0
LINE
  5
60C
100
AcDbEntity
  8
2
370
    30
  6
Continuous
 62
   214
100
AcDbLine
 10
1858.881052
 20
518.500821
 30
0.0
 11
1828.546748
 21
518.500821
 31
0.0
  0
LINE
  5
60D
100
AcDbEntity
  8
2
370
    30
  6
Continuous
 62
   214
100
AcDbLine
 10
1828.546748
 20
518.500821
 30
0.0
 11
1828.546748
 21
488.166517
 31
0.0
  0
ENDBLK
  5
60E
100
AcDbEntity
  8
0
100
AcDbBlockEnd
  0
BLOCK
  5
623
100
AcDbEntity
  8
0
370
    30
  6
Continuous
 62
     7
100
AcDbBlockBegin
  2
*G73
 70
     0
 10
0.0
 20
0.0
 30
0.0
  3
*G73
  1

  0
LINE
  5
624
100
AcDbEntity
  8
2
370
    30
  6
Continuous
 62
   214
100
AcDbLine
 10
1880.526347
 20
468.332549
 30
0.0
 11
1896.232692
 21
468.332549
 31
0.0
  0
LINE
  5
625
100
AcDbEntity
  8
2
370
    30
  6
Continuous
 62
   214
100
AcDbLine
 10
1896.232692
 20
468.332549
 30
0.0
 11
1896.232692
 21
538.334789
 31
0.0
  0
LINE
  5
626
100
AcDbEntity
  8
2
370
    30
  6
Continuous
 62
   214
100
AcDbLine
 10
1896.232692
 20
538.334789
 30
0.0
 11
1880.526347
 21
538.334789
 31
0.0
  0
ENDBLK
  5
627
100
AcDbEntity
  8
0
100
AcDbBlockEnd
  0
ENDSEC
  0
SECTION
  2
ENTITIES
  0
INSERT
  5
4C
100
AcDbEntity
  8
0
370
     9
  6
Continuous
 62
     7
100
AcDbBlockReference
  2
*G0
 10
0.0
 20
0.0
 30
0.0
  0
LINE
  5
4D
100
AcDbEntity
  8
15
370
     9
  6
Continuous
 62
    96
100
AcDbLine
 10
2170.608991
 20
1557.928358
 30
0.0
 11
2800.794785
 21
1557.928358
 31
0.0
  0
LINE
  5
4E
100
AcDbEntity
  8
15
370
    50
  6
Continuous
 62
    96
100
AcDbLine
 10
105.0
 20
1904.530544
 30
0.0
 11
105.0
 21
105.0
 31
0.0
  0
LINE
  5
4F
100
AcDbEntity
  8
15
370
    50
  6
Continuous
 62
    96
100
AcDbLine
 10
105.0
 20
105.0
 30
0.0
 11
2800.794785
 21
105.0
 31
0.0
  0
LINE
  5
50
100
AcDbEntity
  8
15
370
     9
  6
Continuous
 62
    96
100
AcDbLine
 10
2551.076529
 20
144.912438
 30
0.0
 11
2463.812163
 21
144.912438
 31
0.0
  0
TEXT
  5
51
100
AcDbEntity
  8
15
370
     9
  6
Continuous
 62
    96
100
AcDbText
 10
2339.432793
 20
137.837987
 30
0.0
 40
12.603716
  1
出入管理システム
 41
1.018519
 11
2339.432793
 21
137.837987
 31
0.0
100
AcDbText
 73
     1
  0
TEXT
  5
52
100
AcDbEntity
  8
15
370
     9
  6
Continuous
 62
    96
100
AcDbText
 10
2339.926844
 20
110.66522
 30
0.0
 40
25.207432
  1
株式会社
 41
1.753472
 11
2339.926844
 21
110.66522
 31
0.0
100
AcDbText
 73
     1
  0
LINE
  5
53
100
AcDbEntity
  8
15
370
    30
  6
Continuous
 62
    96
100
AcDbLine
 10
2200.64879
 20
111.15174
 30
0.0
 11
2222.823292
 21
111.15174
 31
0.0
  0
LINE
  5
54
100
AcDbEntity
  8
15
370
    30
  6
Continuous
 62
    96
100
AcDbLine
 10
2331.134311
 20
138.099836
 30
0.0
 11
2331.134311
 21
146.609747
 31
0.0
  0
LINE
  5
55
100
AcDbEntity
  8
15
370
    30
  6
Continuous
 62
    96
100
AcDbLine
 10
2321.915266
 20
138.099836
 30
0.0
 11
2331.134311
 21
138.099836
 31
0.0
  0
LINE
  5
56
100
AcDbEntity
  8
15
370
    30
  6
Continuous
 62
    96
100
AcDbLine
 10
2321.915266
 20
111.15174
 30
0.0
 11
2321.915266
 21
138.099836
 31
0.0
  0
LINE
  5
57
100
AcDbEntity
  8
15
370
    30
  6
Continuous
 62
    96
100
AcDbLine
 10
2311.98701
 20
111.15174
 30
0.0
 11
2321.915266
 21
111.15174
 31
0.0
  0
LINE
  5
58
100
AcDbEntity
  8
15
370
    30
  6
Continuous
 62
    96
100
AcDbLine
 10
2306.020906
 20
111.15174
 30
0.0
 11
2293.548842
 21
111.15174
 31
0.0
  0
LINE
  5
59
100
AcDbEntity
  8
15
370
    30
  6
Continuous
 62
    96
100
AcDbLine
 10
2241.780129
 20
111.15174
 30
0.0
 11
2272.274
 21
111.15174
 31
0.0
  0
LINE
  5
5A
100
AcDbEntity
  8
15
370
    30
  6
Continuous
 62
    96
100
AcDbLine
 10
2241.780129
 20
126.044101
 30
0.0
 11
2241.780129
 21
111.15174
 31
0.0
  0
LINE
  5
5B
100
AcDbEntity
  8
15
370
    30
  6
Continuous
 62
    96
100
AcDbLine
 10
2222.823292
 20
111.15174
 30
0.0
 11
2257.381655
 21
145.367936
 31
0.0
  0
LINE
  5
5C
100
AcDbEntity
  8
15
370
    30
  6
Continuous
 62
    96
100
AcDbLine
 10
2257.381655
 20
145.367936
 30
0.0
 11
2257.381655
 21
126.044101
 31
0.0
  0
LINE
  5
5D
100
AcDbEntity
  8
15
370
    30
  6
Continuous
 62
    96
100
AcDbLine
 10
2257.381655
 20
126.044101
 30
0.0
 11
2241.780129
 21
126.044101
 31
0.0
  0
LINE
  5
5E
100
AcDbEntity
  8
15
370
    30
  6
Continuous
 62
    96
100
AcDbLine
 10
2272.274
 20
131.008222
 30
0.0
 11
2293.548842
 21
111.15174
 31
0.0
  0
ARC
  5
5F
100
AcDbEntity
  8
15
370
    30
  6
Continuous
 62
    96
100
AcDbCircle
 10
2289.29387
 20
134.554029
 30
0.0
 40
3.545807
100
AcDbArc
 50
-90.0
 51
90.0
  0
LINE
  5
60
100
AcDbEntity
  8
15
370
    30
  6
Continuous
 62
    96
100
AcDbLine
 10
2272.274
 20
131.008222
 30
0.0
 11
2289.29387
 21
131.008222
 31
0.0
  0
LINE
  5
61
100
AcDbEntity
  8
15
370
    30
  6
Continuous
 62
    96
100
AcDbLine
 10
2275.110658
 20
138.099836
 30
0.0
 11
2289.29387
 21
138.099836
 31
0.0
  0
LINE
  5
62
100
AcDbEntity
  8
15
370
    30
  6
Continuous
 62
    96
100
AcDbLine
 10
2275.110658
 20
146.609747
 30
0.0
 11
2275.110658
 21
138.099836
 31
0.0
  0
LINE
  5
63
100
AcDbEntity
  8
15
370
    30
  6
Continuous
 62
    96
100
AcDbLine
 10
2275.110658
 20
146.609747
 30
0.0
 11
2291.981224
 21
146.609747
 31
0.0
  0
ARC
  5
64
100
AcDbEntity
  8
15
370
    30
  6
Continuous
 62
    96
100
AcDbCircle
 10
2290.637531
 20
134.554029
 30
0.0
 40
12.130371
100
AcDbArc
 50
-76.055153
 51
83.640296
  0
LINE
  5
65
100
AcDbEntity
  8
15
370
    30
  6
Continuous
 62
    96
100
AcDbLine
 10
2293.548842
 20
122.792344
 30
0.0
 11
2306.020906
 21
111.15174
 31
0.0
  0
LINE
  5
66
100
AcDbEntity
  8
15
370
    30
  6
Continuous
 62
    96
100
AcDbLine
 10
2331.134311
 20
146.609747
 30
0.0
 11
2302.767902
 21
146.609747
 31
0.0
  0
LINE
  5
67
100
AcDbEntity
  8
15
370
    30
  6
Continuous
 62
    96
100
AcDbLine
 10
2302.767902
 20
146.609747
 30
0.0
 11
2302.767902
 21
138.099836
 31
0.0
  0
LINE
  5
68
100
AcDbEntity
  8
15
370
    30
  6
Continuous
 62
    96
100
AcDbLine
 10
2302.767902
 20
138.099836
 30
0.0
 11
2311.98701
 21
138.099836
 31
0.0
  0
LINE
  5
69
100
AcDbEntity
  8
15
370
    30
  6
Continuous
 62
    96
100
AcDbLine
 10
2311.98701
 20
138.099836
 30
0.0
 11
2311.98701
 21
111.15174
 31
0.0
  0
LINE
  5
6A
100
AcDbEntity
  8
15
370
    30
  6
Continuous
 62
    96
100
AcDbLine
 10
2170.608991
 20
105.0
 30
0.0
 11
2170.608991
 21
420.092945
 31
0.0
  0
LINE
  5
6B
100
AcDbEntity
  8
15
370
     9
  6
Continuous
 62
    96
100
AcDbLine
 10
2170.608991
 20
357.074365
 30
0.0
 11
2800.794785
 21
357.074365
 31
0.0
  0
LINE
  5
6C
100
AcDbEntity
  8
15
370
     9
  6
Continuous
 62
    96
100
AcDbLine
 10
2170.608991
 20
357.074318
 30
0.0
 11
2800.794785
 21
357.074365
 31
0.0
  0
LINE
  5
6D
100
AcDbEntity
  8
15
370
     9
  6
Continuous
 62
    96
100
AcDbLine
 10
2800.794785
 20
189.02482
 30
0.0
 11
2170.608991
 21
189.024773
 31
0.0
  0
LINE
  5
6E
100
AcDbEntity
  8
15
370
     9
  6
Continuous
 62
    96
100
AcDbLine
 10
2275.639956
 20
231.037167
 30
0.0
 11
2275.639956
 21
189.02478
 31
0.0
  0
LINE
  5
6F
100
AcDbEntity
  8
15
370
     9
  6
Continuous
 62
    96
100
AcDbLine
 10
2272.274
 20
111.15174
 30
0.0
 11
2272.274
 21
182.06777
 31
0.0
  0
LINE
  5
70
100
AcDbEntity
  8
15
370
     9
  6
Continuous
 62
    96
100
AcDbLine
 10
2272.274
 20
182.06777
 30
0.0
 11
2200.64879
 21
111.15174
 31
0.0
  0
INSERT
  5
75
100
AcDbEntity
  8
0
370
     9
  6
Continuous
 62
    96
100
AcDbBlockReference
  2
*G1
 10
0.0
 20
0.0
 30
0.0
  0
TEXT
  5
76
100
AcDbEntity
  8
15
370
     9
  6
Continuous
 62
    96
100
AcDbText
 10
2566.287381
 20
107.708946
 30
0.0
 40
70.020644
  1
アート
 41
0.833333
 11
2566.287381
 21
107.708946
 31
0.0
100
AcDbText
 73
     1
  0
LINE
  5
77
100
AcDbEntity
  8
15
370
     9
  6
Continuous
 62
    96
100
AcDbLine
 10
2275.639956
 20
294.055738
 30
0.0
 11
2275.639956
 21
231.037167
 31
0.0
  0
LINE
  5
78
100
AcDbEntity
  8
15
370
     9
  6
Continuous
 62
    96
100
AcDbLine
 10
2450.691566
 20
294.055738
 30
0.0
 11
2450.691566
 21
231.03718
 31
0.0
  0
LINE
  5
79
100
AcDbEntity
  8
15
370
     9
  6
Continuous
 62
    96
100
AcDbLine
 10
2625.743175
 20
294.055738
 30
0.0
 11
2625.743175
 21
231.037194
 31
0.0
  0
LINE
  5
7A
100
AcDbEntity
  8
15
370
    30
  6
Continuous
 62
    96
100
AcDbLine
 10
2170.608991
 20
1866.01919
 30
0.0
 11
2800.794785
 21
1866.01919
 31
0.0
  0
LINE
  5
7B
100
AcDbEntity
  8
15
370
    30
  6
Continuous
 62
    96
100
AcDbLine
 10
2170.608991
 20
1827.507836
 30
0.0
 11
2800.794785
 21
1827.507836
 31
0.0
  0
LINE
  5
7C
100
AcDbEntity
  8
15
370
     9
  6
Continuous
 62
    96
100
AcDbLine
 10
2170.608991
 20
1788.996482
 30
0.0
 11
2800.794785
 21
1788.996482
 31
0.0
  0
LINE
  5
7D
100
AcDbEntity
  8
15
370
     9
  6
Continuous
 62
    96
100
AcDbLine
 10
2800.794785
 20
1750.485128
 30
0.0
 11
2170.608991
 21
1750.485128
 31
0.0
  0
LINE
  5
7E
100
AcDbEntity
  8
15
370
     9
  6
Continuous
 62
    96
100
AcDbLine
 10
2170.608991
 20
1596.439712
 30
0.0
 11
2800.794785
 21
1596.439712
 31
0.0
  0
LINE
  5
7F
100
AcDbEntity
  8
15
370
    30
  6
Continuous
 62
    96
100
AcDbLine
 10
2170.608991
 20
1904.530544
 30
0.0
 11
2170.608991
 21
507.618749
 31
0.0
  0
LINE
  5
80
100
AcDbEntity
  8
15
370
    30
  6
Continuous
 62
    96
100
AcDbLine
 10
2170.608991
 20
420.092945
 30
0.0
 11
2170.608991
 21
507.618749
 31
0.0
  0
LINE
  5
81
100
AcDbEntity
  8
15
370
     9
  6
Continuous
 62
    96
100
AcDbLine
 10
2170.608991
 20
1519.417004
 30
0.0
 11
2800.794785
 21
1519.417004
 31
0.0
  0
LINE
  5
82
100
AcDbEntity
  8
15
370
    50
  6
Continuous
 62
    96
100
AcDbLine
 10
105.0
 20
1904.530544
 30
0.0
 11
2800.7966
 21
1904.530544
 31
0.0
  0
LINE
  5
83
100
AcDbEntity
  8
15
370
    50
  6
Continuous
 62
    96
100
AcDbLine
 10
2800.7966
 20
104.99774
 30
0.0
 11
2800.7966
 21
1904.528285
 31
0.0
  0
LINE
  5
84
100
AcDbEntity
  8
15
370
     9
  6
Continuous
 62
    96
100
AcDbLine
 10
2170.605343
 20
416.591865
 30
0.0
 11
2800.791137
 21
416.591865
 31
0.0
  0
LINE
  5
85
100
AcDbEntity
  8
15
370
     9
  6
Continuous
 62
    96
100
AcDbLine
 10
2344.668598
 20
1904.530544
 30
0.0
 11
2344.668598
 21
1866.01919
 31
0.0
  0
LINE
  5
86
100
AcDbEntity
  8
15
370
    30
  6
Continuous
 62
    96
100
AcDbLine
 10
2170.605343
 20
455.103219
 30
0.0
 11
2800.791137
 21
455.103219
 31
0.0
  0
LINE
  5
87
100
AcDbEntity
  8
15
370
    30
  6
Continuous
 62
    96
100
AcDbLine
 10
2170.605343
 20
416.591865
 30
0.0
 11
2800.791137
 21
416.591865
 31
0.0
  0
LINE
  5
88
100
AcDbEntity
  8
15
370
     9
  6
Continuous
 62
    96
100
AcDbLine
 10
2345.656953
 20
455.103219
 30
0.0
 11
2345.656953
 21
416.591865
 31
0.0
  0
LINE
  5
89
100
AcDbEntity
  8
15
370
    30
  6
Continuous
 62
    96
100
AcDbLine
 10
2170.605343
 20
416.591865
 30
0.0
 11
2800.791137
 21
416.591865
 31
0.0
  0
LINE
  5
8A
100
AcDbEntity
  8
15
370
     9
  6
Continuous
 62
    96
100
AcDbLine
 10
2485.843509
 20
231.024796
 30
0.0
 11
2485.843509
 21
189.024796
 31
0.0
  0
LINE
  5
8B
100
AcDbEntity
  8
15
370
     9
  6
Continuous
 62
    96
100
AcDbLine
 10
2534.843509
 20
231.024831
 30
0.0
 11
2534.843509
 21
189.024831
 31
0.0
  0
LINE
  5
8C
100
AcDbEntity
  8
15
370
     9
  6
Continuous
 62
    96
100
AcDbLine
 10
2716.794785
 20
231.024814
 30
0.0
 11
2716.794785
 21
189.024814
 31
0.0
  0
LINE
  5
8D
100
AcDbEntity
  8
15
370
     9
  6
Continuous
 62
    96
100
AcDbLine
 10
2738.14961
 20
225.704814
 30
0.0
 11
2738.14961
 21
194.344814
 31
0.0
  0
CIRCLE
  5
8E
100
AcDbEntity
  8
15
370
     9
  6
Continuous
 62
    96
100
AcDbCircle
 10
2738.14961
 20
210.024814
 30
0.0
 40
6.72
  0
CIRCLE
  5
8F
100
AcDbEntity
  8
15
370
     9
  6
Continuous
 62
    96
100
AcDbCircle
 10
2738.14961
 20
210.024814
 30
0.0
 40
11.2
  0
LINE
  5
90
100
AcDbEntity
  8
15
370
     9
  6
Continuous
 62
    96
100
AcDbLine
 10
2756.624509
 20
216.744814
 30
0.0
 11
2756.624509
 21
203.304814
 31
0.0
  0
LINE
  5
91
100
AcDbEntity
  8
15
370
     9
  6
Continuous
 62
    96
100
AcDbLine
 10
2792.464509
 20
221.224814
 30
0.0
 11
2792.464509
 21
198.824814
 31
0.0
  0
LINE
  5
92
100
AcDbEntity
  8
15
370
     9
  6
Continuous
 62
    96
100
AcDbLine
 10
2756.624509
 20
216.744814
 30
0.0
 11
2792.464509
 21
221.224814
 31
0.0
  0
LINE
  5
93
100
AcDbEntity
  8
15
370
     9
  6
Continuous
 62
    96
100
AcDbLine
 10
2756.624509
 20
203.304814
 30
0.0
 11
2792.464509
 21
198.824814
 31
0.0
  0
LINE
  5
94
100
AcDbEntity
  8
15
370
     9
  6
Continuous
 62
    96
100
AcDbLine
 10
2722.46961
 20
210.024814
 30
0.0
 11
2796.286509
 21
210.024814
 31
0.0
  0
LINE
  5
95
100
AcDbEntity
  8
15
370
     9
  6
Continuous
 62
    96
100
AcDbLine
 10
2800.7966
 20
231.037207
 30
0.0
 11
2170.608991
 21
231.037159
 31
0.0
  0
LINE
  5
96
100
AcDbEntity
  8
15
370
     9
  6
Continuous
 62
    96
100
AcDbLine
 10
2170.608991
 20
294.055738
 30
0.0
 11
2800.7966
 21
294.055738
 31
0.0
  0
LINE
  5
97
100
AcDbEntity
  8
15
370
     9
  6
Continuous
 62
    96
100
AcDbLine
 10
2257.638795
 20
1673.46242
 30
0.0
 11
2800.794785
 21
1673.46242
 31
0.0
  0
LINE
  5
98
100
AcDbEntity
  8
15
370
    30
  6
Continuous
 62
    96
100
AcDbLine
 10
2801.812971
 20
1018.043575
 30
0.0
 11
2801.812971
 21
1032.968028
 31
0.0
  0
TEXT
  5
99
100
AcDbEntity
  8
15
370
     9
  6
PHANTOM
 62
    96
100
AcDbText
 10
2202.834795
 20
1874.774867
 30
0.0
 40
21.0
  1
商品コード
 41
0.877778
 11
2202.834795
 21
1874.774867
 31
0.0
100
AcDbText
 73
     1
  0
TEXT
  5
9A
100
AcDbEntity
  8
15
370
     9
  6
PHANTOM
 62
    96
100
AcDbText
 10
2408.001888
 20
1836.263513
 30
0.0
 40
21.0
  1
定　　　　　格
 41
0.880952
 11
2408.001888
 21
1836.263513
 31
0.0
100
AcDbText
 73
     1
  0
TEXT
  5
9B
100
AcDbEntity
  8
15
370
    30
  6
Continuous
 62
    96
100
AcDbText
 10
2174.821967
 20
335.451857
 30
0.0
 40
17.5
  1
製品名
 41
0.855562
 11
2174.821967
 21
335.451857
 31
0.0
100
AcDbText
 73
     1
  0
TEXT
  5
9C
100
AcDbEntity
  8
15
370
    30
  6
Continuous
 62
    96
100
AcDbText
 10
2174.220869
 20
395.299788
 30
0.0
 40
17.5
  1
型　式
 41
0.877778
 11
2174.220869
 21
395.299788
 31
0.0
100
AcDbText
 73
     1
  0
TEXT
  5
9D
100
AcDbEntity
  8
15
370
     9
  6
Continuous
 62
    96
100
AcDbText
 10
2214.031148
 20
425.347542
 30
0.0
 40
21.0
  1
図面履歴
 41
0.875
 11
2214.031148
 21
425.347542
 31
0.0
100
AcDbText
 73
     1
  0
TEXT
  5
9E
100
AcDbEntity
  8
15
370
     9
  6
Continuous
 62
    96
100
AcDbText
 10
2181.096032
 20
199.369333
 30
0.0
 40
21.0
  1
図面番号
 41
0.875
 11
2181.096032
 21
199.369333
 31
0.0
100
AcDbText
 73
     1
  0
TEXT
  5
9F
100
AcDbEntity
  8
15
370
     9
  6
Continuous
 62
    96
100
AcDbText
 10
2487.895672
 20
199.304557
 30
0.0
 40
21.0
  1
日付
 41
0.861111
 11
2487.895672
 21
199.304557
 31
0.0
100
AcDbText
 73
     1
  0
TEXT
  5
A0
100
AcDbEntity
  8
15
370
     9
  6
Continuous
 62
    96
100
AcDbText
 10
2633.120842
 20
271.991088
 30
0.0
 40
17.5
  1
作図
 41
0.866667
 11
2633.120842
 21
271.991088
 31
0.0
100
AcDbText
 73
     1
  0
TEXT
  5
A1
100
AcDbEntity
  8
15
370
     9
  6
Continuous
 62
    96
100
AcDbText
 10
2455.736181
 20
272.05653
 30
0.0
 40
17.5
  1
検図
 41
0.866667
 11
2455.736181
 21
272.05653
 31
0.0
100
AcDbText
 73
     1
  0
TEXT
  5
A2
100
AcDbEntity
  8
15
370
     9
  6
Continuous
 62
    96
100
AcDbText
 10
2280.618072
 20
270.99463
 30
0.0
 40
17.5
  1
承認
 41
0.866667
 11
2280.618072
 21
270.99463
 31
0.0
100
AcDbText
 73
     1
  0
TEXT
  5
A3
100
AcDbEntity
  8
15
370
     9
  6
Continuous
 62
    96
100
AcDbText
 10
2175.830933
 20
271.240728
 30
0.0
 40
17.5
  1
縮尺（Ａ３）
 41
0.833333
 11
2175.830933
 21
271.240728
 31
0.0
100
AcDbText
 73
     1
  0
TEXT
  5
A4
100
AcDbEntity
  8
15
370
     9
  6
Continuous
 62
    96
100
AcDbText
 10
2190.453051
 20
241.606457
 30
0.0
 40
21.0
  1
１：７
 41
0.87037
 11
2190.453051
 21
241.606457
 31
0.0
100
AcDbText
 73
     1
  0
TEXT
  5
A5
100
AcDbEntity
  8
15
370
     9
  6
Continuous
 62
    96
100
AcDbText
 10
1345.268232
 20
133.100041
 30
0.0
 40
21.0
  1
＊　記載されている会社名、製品名は、登録商標または商標です。
 41
0.887037
 11
1345.268232
 21
133.100041
 31
0.0
100
AcDbText
 73
     1
  0
TEXT
  5
A6
100
AcDbEntity
  8
15
370
     9
  6
PHANTOM
 62
    96
100
AcDbText
 10
2225.234795
 20
1797.752159
 30
0.0
 40
21.0
  1
筐　体
 41
0.87037
 11
2225.234795
 21
1797.752159
 31
0.0
100
AcDbText
 73
     1
  0
TEXT
  5
A7
100
AcDbEntity
  8
15
370
     9
  6
PHANTOM
 62
    96
100
AcDbText
 10
2225.234795
 20
1759.240805
 30
0.0
 40
21.0
  1
材　質
 41
0.87037
 11
2225.234795
 21
1759.240805
 31
0.0
100
AcDbText
 73
     1
  0
LINE
  5
A8
100
AcDbEntity
  8
15
370
     9
  6
Continuous
 62
    96
100
AcDbLine
 10
2170.608991
 20
1711.973774
 30
0.0
 11
2800.794785
 21
1711.973774
 31
0.0
  0
TEXT
  5
A9
100
AcDbEntity
  8
15
370
     9
  6
PHANTOM
 62
    96
100
AcDbText
 10
2226.108484
 20
1719.721101
 30
0.0
 40
21.0
  1
仕　上
 41
0.87037
 11
2226.108484
 21
1719.721101
 31
0.0
100
AcDbText
 73
     1
  0
LINE
  5
AA
100
AcDbEntity
  8
15
370
     9
  6
Continuous
 62
    96
100
AcDbLine
 10
2257.638795
 20
1711.973774
 30
0.0
 11
2257.638795
 21
1596.434585
 31
0.0
  0
LINE
  5
AB
100
AcDbEntity
  8
15
370
     9
  6
Continuous
 62
    96
100
AcDbLine
 10
2257.638795
 20
1634.951066
 30
0.0
 11
2800.794785
 21
1634.951066
 31
0.0
  0
TEXT
  5
AC
100
AcDbEntity
  8
15
370
     9
  6
PHANTOM
 62
    96
100
AcDbText
 10
2180.87609
 20
1643.392178
 30
0.0
 40
21.0
  1
彩　色
 41
0.87037
 11
2180.87609
 21
1643.392178
 31
0.0
100
AcDbText
 73
     1
  0
TEXT
  5
AD
100
AcDbEntity
  8
15
370
     9
  6
PHANTOM
 62
    96
100
AcDbText
 10
2268.588595
 20
1681.209747
 30
0.0
 40
21.0
  1
本　体
 41
0.87037
 11
2268.588595
 21
1681.209747
 31
0.0
100
AcDbText
 73
     1
  0
TEXT
  5
AE
100
AcDbEntity
  8
15
370
     9
  6
PHANTOM
 62
    96
100
AcDbText
 10
2269.092945
 20
1643.706743
 30
0.0
 40
21.0
  1
パネル
 41
0.87037
 11
2269.092945
 21
1643.706743
 31
0.0
100
AcDbText
 73
     1
  0
TEXT
  5
AF
100
AcDbEntity
  8
15
370
     9
  6
PHANTOM
 62
    96
100
AcDbText
 10
2268.819047
 20
1605.195389
 30
0.0
 40
21.0
  1
文　字
 41
0.87037
 11
2268.819047
 21
1605.195389
 31
0.0
100
AcDbText
 73
     1
  0
TEXT
  5
B0
100
AcDbEntity
  8
15
370
     9
  6
Continuous
 62
    96
100
AcDbText
 10
2227.608987
 20
1566.684035
 30
0.0
 40
21.0
  1
重　量　
 41
0.875
 11
2227.608987
 21
1566.684035
 31
0.0
100
AcDbText
 73
     1
  0
TEXT
  5
B1
100
AcDbEntity
  8
15
370
     9
  6
Continuous
 62
    96
100
AcDbText
 10
2214.034795
 20
1528.172681
 30
0.0
 40
21.0
  1
入力電源
 41
0.875
 11
2214.034795
 21
1528.172681
 31
0.0
100
AcDbText
 73
     1
  0
TEXT
  5
B2
100
AcDbEntity
  8
15
370
     9
  6
Continuous
 62
    96
100
AcDbText
 10
2214.17595
 20
1490.18135
 30
0.0
 40
21.0
  1
消費電力
 41
0.875
 11
2214.17595
 21
1490.18135
 31
0.0
100
AcDbText
 73
     1
  0
TEXT
  5
B3
100
AcDbEntity
  8
15
370
     9
  6
PHANTOM
 62
    96
100
AcDbText
 10
2509.877692
 20
1759.240805
 30
0.0
 40
21.0
  1
SPCC　ｔ1.6
 41
0.67037
 11
2509.877692
 21
1759.240805
 31
0.0
100
AcDbText
 73
     1
  0
TEXT
  5
B4
100
AcDbEntity
  8
15
370
     9
  6
PHANTOM
 62
    96
100
AcDbText
 10
2529.5053
 20
1720.9892
 30
0.0
 40
21.0
  1
粉体塗装
 41
0.875
 11
2529.5053
 21
1720.9892
 31
0.0
100
AcDbText
 73
     1
  0
TEXT
  5
B5
100
AcDbEntity
  8
15
370
     9
  6
PHANTOM
 62
    96
100
AcDbText
 10
2381.41365
 20
1681.9971
 30
0.0
 40
21.0
  1
マンセル　2.5Ｙ　9/1　近似色　半艶
 41
0.815476
 11
2381.41365
 21
1681.9971
 31
0.0
100
AcDbText
 73
     1
  0
TEXT
  5
B6
100
AcDbEntity
  8
15
370
     9
  6
PHANTOM
 62
    96
100
AcDbText
 10
2482.89195
 20
1643.5041
 30
0.0
 40
21.0
  1
マンセル　Ｎ-3.0
 41
0.796296
 11
2482.89195
 21
1643.5041
 31
0.0
100
AcDbText
 73
     1
  0
TEXT
  5
B7
100
AcDbEntity
  8
15
370
     9
  6
PHANTOM
 62
    96
100
AcDbText
 10
2483.1527
 20
1605.19555
 30
0.0
 40
21.0
  1
マンセル　Ｎ-8.5
 41
0.796296
 11
2483.1527
 21
1605.19555
 31
0.0
100
AcDbText
 73
     1
  0
TEXT
  5
B8
100
AcDbEntity
  8
15
370
     9
  6
Continuous
 62
    96
100
AcDbText
 10
2461.927692
 20
1528.172681
 30
0.0
 40
21.0
  1
電気錠制御盤から供給
 41
0.883333
 11
2461.927692
 21
1528.172681
 31
0.0
100
AcDbText
 73
     1
  0
TEXT
  5
B9
100
AcDbEntity
  8
15
370
     9
  6
Continuous
 62
    96
100
AcDbText
 10
2540.4113
 20
1490.10785
 30
0.0
 40
21.0
  1
－－－
 41
0.87037
 11
2540.4113
 21
1490.10785
 31
0.0
100
AcDbText
 73
     1
  0
LINE
  5
BA
100
AcDbEntity
  8
15
370
     9
  6
Continuous
 62
    96
100
AcDbLine
 10
2170.668263
 20
1326.860234
 30
0.0
 11
2800.805318
 21
1326.860234
 31
0.0
  0
LINE
  5
BB
100
AcDbEntity
  8
15
370
     9
  6
Continuous
 62
    96
100
AcDbLine
 10
2170.606025
 20
1365.371588
 30
0.0
 11
2800.793634
 21
1365.371588
 31
0.0
  0
LINE
  5
BC
100
AcDbEntity
  8
15
370
     9
  6
Continuous
 62
    96
100
AcDbLine
 10
2170.606025
 20
1403.882942
 30
0.0
 11
2800.793634
 21
1403.882942
 31
0.0
  0
LINE
  5
BD
100
AcDbEntity
  8
15
370
    30
  6
Continuous
 62
    96
100
AcDbLine
 10
2170.606025
 20
1442.394296
 30
0.0
 11
2800.793634
 21
1442.394296
 31
0.0
  0
LINE
  5
BE
100
AcDbEntity
  8
15
370
     9
  6
Continuous
 62
    96
100
AcDbLine
 10
2170.608991
 20
1480.90565
 30
0.0
 11
2800.7966
 21
1480.90565
 31
0.0
  0
LINE
  5
BF
100
AcDbEntity
  8
15
370
     9
  6
Continuous
 62
    96
100
AcDbLine
 10
2344.668598
 20
1827.602161
 30
0.0
 11
2344.668598
 21
1442.394296
 31
0.0
  0
TEXT
  5
C0
100
AcDbEntity
  8
15
370
     9
  6
Continuous
 62
    96
100
AcDbText
 10
2224.602181
 20
1453.653827
 30
0.0
 40
21.0
  1
ブザー
 41
0.87037
 11
2224.602181
 21
1453.653827
 31
0.0
100
AcDbText
 73
     1
  0
TEXT
  5
C1
100
AcDbEntity
  8
15
370
     9
  6
Continuous
 62
    96
100
AcDbText
 10
2437.437531
 20
1453.580327
 30
0.0
 40
21.0
  1
電子ブザー　ピー音　80dB
 41
0.804167
 11
2437.437531
 21
1453.580327
 31
0.0
100
AcDbText
 73
     1
  0
TEXT
  5
C2
100
AcDbEntity
  8
15
370
     9
  6
Continuous
 62
    96
100
AcDbText
 10
2267.149517
 20
1412.596422
 30
0.0
 40
21.0
  1
外部入力　：接点容量　DC24Ｖ　0.1Ａ以下
 41
0.812661
 11
2267.149517
 21
1412.596422
 31
0.0
100
AcDbText
 73
     1
  0
TEXT
  5
C3
100
AcDbEntity
  8
15
370
     9
  6
Continuous
 62
    96
100
AcDbText
 10
2192.415591
 20
1374.127265
 30
0.0
 40
21.0
  1
開扉表示入力
 41
0.87963
 11
2192.415591
 21
1374.127265
 31
0.0
100
AcDbText
 73
     1
  0
TEXT
  5
C4
100
AcDbEntity
  8
15
370
     9
  6
Continuous
 62
    96
100
AcDbText
 10
2196.187492
 20
1336.883975
 30
0.0
 40
21.0
  1
解錠表示入力
 41
0.87963
 11
2196.187492
 21
1336.883975
 31
0.0
100
AcDbText
 73
     1
  0
TEXT
  5
C5
100
AcDbEntity
  8
15
370
     9
  6
Continuous
 62
    96
100
AcDbText
 10
2196.187492
 20
1298.920357
 30
0.0
 40
21.0
  1
警報表示入力
 41
0.87963
 11
2196.187492
 21
1298.920357
 31
0.0
100
AcDbText
 73
     1
  0
TEXT
  5
C6
100
AcDbEntity
  8
15
370
     9
  6
Continuous
 62
    96
100
AcDbText
 10
2420.700231
 20
1374.127265
 30
0.0
 40
21.0
  1
有電圧DC24Ｖ　25mA以下
 41
0.727642
 11
2420.700231
 21
1374.127265
 31
0.0
100
AcDbText
 73
     1
  0
TEXT
  5
C7
100
AcDbEntity
  8
15
370
     9
  6
Continuous
 62
    96
100
AcDbText
 10
2420.700231
 20
1335.615911
 30
0.0
 40
21.0
  1
有電圧DC24Ｖ　25mA以下
 41
0.727642
 11
2420.700231
 21
1335.615911
 31
0.0
100
AcDbText
 73
     1
  0
TEXT
  5
C8
100
AcDbEntity
  8
15
370
     9
  6
Continuous
 62
    96
100
AcDbText
 10
2420.086935
 20
1299.444237
 30
0.0
 40
21.0
  1
有電圧DC24Ｖ　25mA以下
 41
0.727642
 11
2420.086935
 21
1299.444237
 31
0.0
100
AcDbText
 73
     1
  0
LINE
  5
C9
100
AcDbEntity
  8
15
370
     9
  6
Continuous
 62
    96
100
AcDbLine
 10
2170.583835
 20
1134.303463
 30
0.0
 11
2800.747075
 21
1134.303463
 31
0.0
  0
LINE
  5
CA
100
AcDbEntity
  8
15
370
     9
  6
Continuous
 62
    96
100
AcDbLine
 10
2170.632573
 20
1095.792109
 30
0.0
 11
2800.795813
 21
1095.792109
 31
0.0
  0
LINE
  5
CB
100
AcDbEntity
  8
15
370
     9
  6
Continuous
 62
    96
100
AcDbLine
 10
2170.583835
 20
1057.280755
 30
0.0
 11
2800.747075
 21
1057.280755
 31
0.0
  0
LINE
  5
CC
100
AcDbEntity
  8
15
370
     9
  6
Continuous
 62
    96
100
AcDbLine
 10
2170.632573
 20
1018.769401
 30
0.0
 11
2800.795813
 21
1018.769401
 31
0.0
  0
TEXT
  5
CD
100
AcDbEntity
  8
15
370
     9
  6
Continuous
 62
    96
100
AcDbText
 10
2750.208812
 20
1104.665884
 30
0.0
 40
21.0
  1
１点
 41
0.861111
 11
2750.208812
 21
1104.665884
 31
0.0
100
AcDbText
 73
     1
  0
TEXT
  5
CE
100
AcDbEntity
  8
15
370
     9
  6
Continuous
 62
    96
100
AcDbText
 10
2750.080362
 20
1065.727334
 30
0.0
 40
21.0
  1
１点
 41
0.861111
 11
2750.080362
 21
1065.727334
 31
0.0
100
AcDbText
 73
     1
  0
TEXT
  5
CF
100
AcDbEntity
  8
15
370
     9
  6
Continuous
 62
    96
100
AcDbText
 10
2750.080362
 20
1028.106534
 30
0.0
 40
21.0
  1
１点
 41
0.861111
 11
2750.080362
 21
1028.106534
 31
0.0
100
AcDbText
 73
     1
  0
LINE
  5
D0
100
AcDbEntity
  8
15
370
     9
  6
Continuous
 62
    96
100
AcDbLine
 10
2170.608991
 20
1288.348879
 30
0.0
 11
2800.7966
 21
1288.348879
 31
0.0
  0
LINE
  5
D1
100
AcDbEntity
  8
15
370
     9
  6
Continuous
 62
    96
100
AcDbLine
 10
2344.665632
 20
1403.882942
 30
0.0
 11
2344.665632
 21
1211.326171
 31
0.0
  0
LINE
  5
D2
100
AcDbEntity
  8
15
370
     9
  6
Continuous
 62
    96
100
AcDbLine
 10
2743.783302
 20
1403.884471
 30
0.0
 11
2743.783302
 21
1211.326171
 31
0.0
  0
TEXT
  5
D3
100
AcDbEntity
  8
15
370
     9
  6
Continuous
 62
    96
100
AcDbText
 10
2170.383447
 20
1221.115605
 30
0.0
 40
21.0
  1
電源表示
 41
0.875
 11
2170.383447
 21
1221.115605
 31
0.0
100
AcDbText
 73
     1
  0
TEXT
  5
D4
100
AcDbEntity
  8
15
370
     9
  6
Continuous
 62
    96
100
AcDbText
 10
2191.943575
 20
1182.322738
 30
0.0
 40
21.0
  1
入力
 41
0.861111
 11
2191.943575
 21
1182.322738
 31
0.0
100
AcDbText
 73
     1
  0
LINE
  5
D5
100
AcDbEntity
  8
15
370
     9
  6
Continuous
 62
    96
100
AcDbLine
 10
2257.637312
 20
1288.348879
 30
0.0
 11
2257.637312
 21
1134.303463
 31
0.0
  0
LINE
  5
D6
100
AcDbEntity
  8
15
370
     9
  6
Continuous
 62
    96
100
AcDbLine
 10
2257.637312
 20
1211.326171
 30
0.0
 11
2800.795813
 21
1211.326171
 31
0.0
  0
TEXT
  5
D7
100
AcDbEntity
  8
15
370
     9
  6
Continuous
 62
    96
100
AcDbText
 10
2269.220759
 20
1258.733959
 30
0.0
 40
21.0
  1
商　用
 41
0.87037
 11
2269.220759
 21
1258.733959
 31
0.0
100
AcDbText
 73
     1
  0
TEXT
  5
D8
100
AcDbEntity
  8
15
370
     9
  6
Continuous
 62
    96
100
AcDbText
 10
2269.220759
 20
1219.924933
 30
0.0
 40
21.0
  1
電池時
 41
0.87037
 11
2269.220759
 21
1219.924933
 31
0.0
100
AcDbText
 73
     1
  0
TEXT
  5
D9
100
AcDbEntity
  8
15
370
     9
  6
Continuous
 62
    96
100
AcDbText
 10
2269.406828
 20
1177.508838
 30
0.0
 40
21.0
  1
鉛電池
 41
0.87037
 11
2269.406828
 21
1177.508838
 31
0.0
100
AcDbText
 73
     1
  0
TEXT
  5
DA
100
AcDbEntity
  8
15
370
     9
  6
Continuous
 62
    96
100
AcDbText
 10
2269.936016
 20
1143.086037
 30
0.0
 40
21.0
  1
動作時
 41
0.87037
 11
2269.936016
 21
1143.086037
 31
0.0
100
AcDbText
 73
     1
  0
TEXT
  5
DB
100
AcDbEntity
  8
15
370
     9
  6
Continuous
 62
    96
100
AcDbText
 10
2751.269715
 20
1239.337525
 30
0.0
 40
21.0
  1
１点
 41
0.861111
 11
2751.269715
 21
1239.337525
 31
0.0
100
AcDbText
 73
     1
  0
TEXT
  5
DC
100
AcDbEntity
  8
15
370
     9
  6
Continuous
 62
    96
100
AcDbText
 10
2486.551406
 20
1240.400496
 30
0.0
 40
21.0
  1
有電圧DC24Ｖ
 41
0.734848
 11
2486.551406
 21
1240.400496
 31
0.0
100
AcDbText
 73
     1
  0
TEXT
  5
DD
100
AcDbEntity
  8
15
370
     9
  6
Continuous
 62
    96
100
AcDbText
 10
2489.240021
 20
1162.916883
 30
0.0
 40
21.0
  1
有電圧DC24Ｖ
 41
0.734848
 11
2489.240021
 21
1162.916883
 31
0.0
100
AcDbText
 73
     1
  0
TEXT
  5
DE
100
AcDbEntity
  8
15
370
     9
  6
Continuous
 62
    96
100
AcDbText
 10
2750.347904
 20
1162.314817
 30
0.0
 40
21.0
  1
１点
 41
0.861111
 11
2750.347904
 21
1162.314817
 31
0.0
100
AcDbText
 73
     1
  0
TEXT
  5
DF
100
AcDbEntity
  8
15
370
     9
  6
Continuous
 62
    96
100
AcDbText
 10
2171.861395
 20
1105.102633
 30
0.0
 40
20.3
  1
非常解錠表示入力
 41
0.883621
 11
2171.861395
 21
1105.102633
 31
0.0
100
AcDbText
 73
     1
  0
TEXT
  5
E0
100
AcDbEntity
  8
15
370
     9
  6
Continuous
 62
    96
100
AcDbText
 10
2171.62679
 20
1066.368142
 30
0.0
 40
20.3
  1
一斉解錠表示入力
 41
0.883621
 11
2171.62679
 21
1066.368142
 31
0.0
100
AcDbText
 73
     1
  0
TEXT
  5
E1
100
AcDbEntity
  8
15
370
     9
  6
Continuous
 62
    96
100
AcDbText
 10
2180.261395
 20
1027.525078
 30
0.0
 40
21.0
  1
警報ブザー入力
 41
0.880952
 11
2180.261395
 21
1027.525078
 31
0.0
100
AcDbText
 73
     1
  0
TEXT
  5
E2
100
AcDbEntity
  8
15
370
     9
  6
Continuous
 62
    96
100
AcDbText
 10
2420.70241
 20
1104.547786
 30
0.0
 40
21.0
  1
有電圧DC24Ｖ　25mA以下
 41
0.727642
 11
2420.70241
 21
1104.547786
 31
0.0
100
AcDbText
 73
     1
  0
TEXT
  5
E3
100
AcDbEntity
  8
15
370
     9
  6
Continuous
 62
    96
100
AcDbText
 10
2420.70241
 20
1066.036432
 30
0.0
 40
21.0
  1
有電圧DC24Ｖ　25mA以下
 41
0.727642
 11
2420.70241
 21
1066.036432
 31
0.0
100
AcDbText
 73
     1
  0
TEXT
  5
E4
100
AcDbEntity
  8
15
370
     9
  6
Continuous
 62
    96
100
AcDbText
 10
2420.70241
 20
1027.525078
 30
0.0
 40
21.0
  1
有電圧DC24Ｖ　25mA以下
 41
0.727642
 11
2420.70241
 21
1027.525078
 31
0.0
100
AcDbText
 73
     1
  0
TEXT
  5
E5
100
AcDbEntity
  8
15
370
     9
  6
Continuous
 62
    96
100
AcDbText
 10
2413.391287
 20
307.610433
 30
0.0
 40
35.0
  1
副制御盤
 41
0.858333
 11
2413.391287
 21
307.610433
 31
0.0
100
AcDbText
 73
     1
  0
TEXT
  5
E6
100
AcDbEntity
  8
15
370
     9
  6
Continuous
 62
    96
100
AcDbText
 10
2336.745651
 20
241.994272
 30
0.0
 40
35.0
  1
加川
 41
0.85
 11
2336.745651
 21
241.994272
 31
0.0
100
AcDbText
 73
     1
  0
LINE
  5
E7
100
AcDbEntity
  8
24
370
    30
  6
Continuous
 62
     7
100
AcDbLine
 10
355.286533
 20
1623.010295
 30
0.0
 11
855.286533
 21
1623.010295
 31
0.0
  0
LINE
  5
E8
100
AcDbEntity
  8
24
370
    30
  6
Continuous
 62
     7
100
AcDbLine
 10
855.286533
 20
1623.010295
 30
0.0
 11
855.286533
 21
1123.010295
 31
0.0
  0
LINE
  5
E9
100
AcDbEntity
  8
24
370
    30
  6
Continuous
 62
     7
100
AcDbLine
 10
855.286533
 20
1123.010295
 30
0.0
 11
355.286533
 21
1123.010295
 31
0.0
  0
LINE
  5
EA
100
AcDbEntity
  8
24
370
    30
  6
Continuous
 62
     7
100
AcDbLine
 10
355.286533
 20
1123.010295
 30
0.0
 11
355.286533
 21
1623.010295
 31
0.0
  0
ARC
  5
EB
100
AcDbEntity
  8
24
370
    30
  6
Continuous
 62
     7
100
AcDbCircle
 10
355.286533
 20
1123.010295
 30
0.0
 40
0.25
100
AcDbArc
 50
0.0
 51
-180.0
  0
ARC
  5
EC
100
AcDbEntity
  8
24
370
    30
  6
Continuous
 62
     7
100
AcDbCircle
 10
355.286533
 20
1123.010295
 30
0.0
 40
0.25
100
AcDbArc
 50
180.0
 51
0.0
  0
LINE
  5
ED
100
AcDbEntity
  8
24
370
    30
  6
Continuous
 62
     7
100
AcDbLine
 10
375.286533
 20
1603.010295
 30
0.0
 11
835.286533
 21
1603.010295
 31
0.0
  0
LINE
  5
EE
100
AcDbEntity
  8
24
370
    30
  6
Continuous
 62
     7
100
AcDbLine
 10
835.286533
 20
1603.010295
 30
0.0
 11
835.286533
 21
1143.010295
 31
0.0
  0
LINE
  5
EF
100
AcDbEntity
  8
24
370
    30
  6
Continuous
 62
     7
100
AcDbLine
 10
835.286533
 20
1143.010295
 30
0.0
 11
375.286533
 21
1143.010295
 31
0.0
  0
LINE
  5
F0
100
AcDbEntity
  8
24
370
    30
  6
Continuous
 62
     7
100
AcDbLine
 10
375.286533
 20
1143.010295
 30
0.0
 11
375.286533
 21
1603.010295
 31
0.0
  0
ARC
  5
F1
100
AcDbEntity
  8
24
370
    30
  6
Continuous
 62
     7
100
AcDbCircle
 10
378.286533
 20
1146.010295
 30
0.0
 40
0.25
100
AcDbArc
 50
0.0
 51
180.0
  0
ARC
  5
F2
100
AcDbEntity
  8
24
370
    30
  6
Continuous
 62
     7
100
AcDbCircle
 10
378.286533
 20
1146.010295
 30
0.0
 40
0.25
100
AcDbArc
 50
-180.0
 51
0.0
  0
LINE
  5
F3
100
AcDbEntity
  8
24
370
    30
  6
Continuous
 62
     7
100
AcDbLine
 10
421.786533
 20
1401.010295
 30
0.0
 11
421.786533
 21
1345.010295
 31
0.0
  0
LINE
  5
F4
100
AcDbEntity
  8
24
370
    30
  6
Continuous
 62
     7
100
AcDbLine
 10
393.786533
 20
1401.010295
 30
0.0
 11
393.786533
 21
1345.010295
 31
0.0
  0
LINE
  5
F5
100
AcDbEntity
  8
24
370
    30
  6
Continuous
 62
     7
100
AcDbLine
 10
421.786533
 20
1337.187225
 30
0.0
 11
421.786533
 21
1345.010295
 31
0.0
  0
LINE
  5
F6
100
AcDbEntity
  8
24
370
    30
  6
Continuous
 62
     7
100
AcDbLine
 10
393.786533
 20
1408.833365
 30
0.0
 11
393.786533
 21
1401.010295
 31
0.0
  0
LINE
  5
F7
100
AcDbEntity
  8
24
370
    30
  6
Continuous
 62
     7
100
AcDbLine
 10
421.786533
 20
1401.010295
 30
0.0
 11
421.786533
 21
1408.833365
 31
0.0
  0
LINE
  5
F8
100
AcDbEntity
  8
24
370
    30
  6
Continuous
 62
     7
100
AcDbLine
 10
393.786533
 20
1345.010295
 30
0.0
 11
393.786533
 21
1337.187225
 31
0.0
  0
LINE
  5
F9
100
AcDbEntity
  8
24
370
    30
  6
Continuous
 62
     7
100
AcDbLine
 10
406.136533
 20
1360.461385
 30
0.0
 11
408.436533
 21
1360.461385
 31
0.0
  0
LINE
  5
FA
100
AcDbEntity
  8
24
370
    30
  6
Continuous
 62
     7
100
AcDbLine
 10
406.136533
 20
1367.533395
 30
0.0
 11
406.136533
 21
1360.461385
 31
0.0
  0
LINE
  5
FB
100
AcDbEntity
  8
24
370
    30
  6
Continuous
 62
     7
100
AcDbLine
 10
408.436533
 20
1360.461385
 30
0.0
 11
408.436533
 21
1367.533395
 31
0.0
  0
LINE
  5
FC
100
AcDbEntity
  8
24
370
    30
  6
Continuous
 62
     7
100
AcDbLine
 10
408.436533
 20
1367.533395
 30
0.0
 11
406.136533
 21
1367.533395
 31
0.0
  0
LINE
  5
FD
100
AcDbEntity
  8
24
370
    30
  6
Continuous
 62
     7
100
AcDbLine
 10
400.586533
 20
1390.010295
 30
0.0
 11
400.791073
 21
1391.714275
 31
0.0
  0
LINE
  5
FE
100
AcDbEntity
  8
24
370
    30
  6
Continuous
 62
     7
100
AcDbLine
 10
416.986533
 20
1347.208155
 30
0.0
 11
416.986533
 21
1347.198635
 31
0.0
  0
LINE
  5
FF
100
AcDbEntity
  8
24
370
    30
  6
Continuous
 62
     7
100
AcDbLine
 10
415.601813
 20
1393.510025
 30
0.0
 11
415.940843
 21
1392.210295
 31
0.0
  0
LINE
  5
100
100
AcDbEntity
  8
24
370
    30
  6
Continuous
 62
     7
100
AcDbLine
 10
399.971253
 20
1393.510025
 30
0.0
 11
399.632223
 21
1392.210295
 31
0.0
  0
LINE
  5
101
100
AcDbEntity
  8
24
370
    30
  6
Continuous
 62
     7
100
AcDbLine
 10
415.365483
 20
1345.234865
 30
0.0
 11
415.301493
 21
1345.222565
 31
0.0
  0
LINE
  5
102
100
AcDbEntity
  8
24
370
    30
  6
Continuous
 62
     7
100
AcDbLine
 10
400.271573
 20
1345.222565
 30
0.0
 11
400.207583
 21
1345.234865
 31
0.0
  0
LINE
  5
103
100
AcDbEntity
  8
24
370
    30
  6
Continuous
 62
     7
100
AcDbLine
 10
398.586533
 20
1347.198635
 30
0.0
 11
398.586533
 21
1347.208155
 31
0.0
  0
LINE
  5
104
100
AcDbEntity
  8
24
370
    30
  6
Continuous
 62
     7
100
AcDbLine
 10
408.286533
 20
1368.010295
 30
0.0
 11
407.786533
 21
1368.010295
 31
0.0
  0
LINE
  5
105
100
AcDbEntity
  8
24
370
    30
  6
Continuous
 62
     7
100
AcDbLine
 10
409.820223
 20
1396.917105
 30
0.0
 11
409.004213
 21
1397.106575
 31
0.0
  0
LINE
  5
106
100
AcDbEntity
  8
24
370
    30
  6
Continuous
 62
     7
100
AcDbLine
 10
405.752843
 20
1396.917105
 30
0.0
 11
406.568853
 21
1397.106575
 31
0.0
  0
LINE
  5
107
100
AcDbEntity
  8
24
370
    30
  6
Continuous
 62
     7
100
AcDbLine
 10
409.004213
 20
1397.106575
 30
0.0
 11
406.568853
 21
1397.106575
 31
0.0
  0
LINE
  5
108
100
AcDbEntity
  8
24
370
    30
  6
Continuous
 62
     7
100
AcDbLine
 10
415.940843
 20
1392.210295
 30
0.0
 11
416.111893
 21
1389.510295
 31
0.0
  0
LINE
  5
109
100
AcDbEntity
  8
24
370
    30
  6
Continuous
 62
     7
100
AcDbLine
 10
416.986533
 20
1347.208155
 30
0.0
 11
416.986533
 21
1392.210295
 31
0.0
  0
LINE
  5
10A
100
AcDbEntity
  8
24
370
    30
  6
Continuous
 62
     7
100
AcDbLine
 10
398.586533
 20
1392.210295
 30
0.0
 11
398.586533
 21
1347.208155
 31
0.0
  0
LINE
  5
10B
100
AcDbEntity
  8
24
370
    30
  6
Continuous
 62
     7
100
AcDbLine
 10
416.111893
 20
1347.214535
 30
0.0
 11
416.111893
 21
1389.510295
 31
0.0
  0
LINE
  5
10C
100
AcDbEntity
  8
24
370
    30
  6
Continuous
 62
     7
100
AcDbLine
 10
408.186533
 20
1355.760295
 30
0.0
 11
407.386533
 21
1355.760295
 31
0.0
  0
LINE
  5
10D
100
AcDbEntity
  8
24
370
    30
  6
Continuous
 62
     7
100
AcDbLine
 10
413.786533
 20
1348.860295
 30
0.0
 11
413.786533
 21
1356.160295
 31
0.0
  0
LINE
  5
10E
100
AcDbEntity
  8
24
370
    30
  6
Continuous
 62
     7
100
AcDbLine
 10
407.386533
 20
1349.260295
 30
0.0
 11
408.186533
 21
1349.260295
 31
0.0
  0
LINE
  5
10F
100
AcDbEntity
  8
24
370
    30
  6
Continuous
 62
     7
100
AcDbLine
 10
399.461173
 20
1389.510295
 30
0.0
 11
399.461173
 21
1347.214535
 31
0.0
  0
LINE
  5
110
100
AcDbEntity
  8
24
370
    30
  6
Continuous
 62
     7
100
AcDbLine
 10
399.632223
 20
1392.210295
 30
0.0
 11
399.461173
 21
1389.510295
 31
0.0
  0
LINE
  5
111
100
AcDbEntity
  8
24
370
    30
  6
Continuous
 62
     7
100
AcDbLine
 10
405.686533
 20
1391.410295
 30
0.0
 11
405.686533
 21
1389.310295
 31
0.0
  0
LINE
  5
112
100
AcDbEntity
  8
24
370
    30
  6
Continuous
 62
     7
100
AcDbLine
 10
405.986533
 20
1391.410295
 30
0.0
 11
405.686533
 21
1391.410295
 31
0.0
  0
LINE
  5
113
100
AcDbEntity
  8
24
370
    30
  6
Continuous
 62
     7
100
AcDbLine
 10
407.486533
 20
1389.310295
 30
0.0
 11
407.486533
 21
1391.410295
 31
0.0
  0
LINE
  5
114
100
AcDbEntity
  8
24
370
    30
  6
Continuous
 62
     7
100
AcDbLine
 10
405.986533
 20
1389.310295
 30
0.0
 11
405.986533
 21
1391.410295
 31
0.0
  0
LINE
  5
115
100
AcDbEntity
  8
24
370
    30
  6
Continuous
 62
     7
100
AcDbLine
 10
407.186533
 20
1391.410295
 30
0.0
 11
407.186533
 21
1389.310295
 31
0.0
  0
LINE
  5
116
100
AcDbEntity
  8
24
370
    30
  6
Continuous
 62
     7
100
AcDbLine
 10
407.486533
 20
1391.410295
 30
0.0
 11
407.186533
 21
1391.410295
 31
0.0
  0
LINE
  5
117
100
AcDbEntity
  8
24
370
    30
  6
Continuous
 62
     7
100
AcDbLine
 10
410.786533
 20
1390.210295
 30
0.0
 11
410.786533
 21
1391.410295
 31
0.0
  0
LINE
  5
118
100
AcDbEntity
  8
24
370
    30
  6
Continuous
 62
     7
100
AcDbLine
 10
411.986533
 20
1390.210295
 30
0.0
 11
410.786533
 21
1390.210295
 31
0.0
  0
LINE
  5
119
100
AcDbEntity
  8
24
370
    30
  6
Continuous
 62
     7
100
AcDbLine
 10
410.486533
 20
1391.410295
 30
0.0
 11
410.486533
 21
1388.410295
 31
0.0
  0
LINE
  5
11A
100
AcDbEntity
  8
24
370
    30
  6
Continuous
 62
     7
100
AcDbLine
 10
410.786533
 20
1391.410295
 30
0.0
 11
410.486533
 21
1391.410295
 31
0.0
  0
LINE
  5
11B
100
AcDbEntity
  8
24
370
    30
  6
Continuous
 62
     7
100
AcDbLine
 10
411.986533
 20
1389.910295
 30
0.0
 11
411.986533
 21
1388.410295
 31
0.0
  0
LINE
  5
11C
100
AcDbEntity
  8
24
370
    30
  6
Continuous
 62
     7
100
AcDbLine
 10
410.786533
 20
1389.910295
 30
0.0
 11
411.986533
 21
1389.910295
 31
0.0
  0
LINE
  5
11D
100
AcDbEntity
  8
24
370
    30
  6
Continuous
 62
     7
100
AcDbLine
 10
410.786533
 20
1388.410295
 30
0.0
 11
410.786533
 21
1389.910295
 31
0.0
  0
LINE
  5
11E
100
AcDbEntity
  8
24
370
    30
  6
Continuous
 62
     7
100
AcDbLine
 10
410.486533
 20
1388.410295
 30
0.0
 11
410.786533
 21
1388.410295
 31
0.0
  0
LINE
  5
11F
100
AcDbEntity
  8
24
370
    30
  6
Continuous
 62
     7
100
AcDbLine
 10
411.986533
 20
1391.410295
 30
0.0
 11
411.986533
 21
1390.210295
 31
0.0
  0
LINE
  5
120
100
AcDbEntity
  8
24
370
    30
  6
Continuous
 62
     7
100
AcDbLine
 10
412.286533
 20
1391.410295
 30
0.0
 11
411.986533
 21
1391.410295
 31
0.0
  0
LINE
  5
121
100
AcDbEntity
  8
24
370
    30
  6
Continuous
 62
     7
100
AcDbLine
 10
412.286533
 20
1388.410295
 30
0.0
 11
412.286533
 21
1391.410295
 31
0.0
  0
LINE
  5
122
100
AcDbEntity
  8
24
370
    30
  6
Continuous
 62
     7
100
AcDbLine
 10
411.986533
 20
1388.410295
 30
0.0
 11
412.286533
 21
1388.410295
 31
0.0
  0
LINE
  5
123
100
AcDbEntity
  8
24
370
    30
  6
Continuous
 62
     7
100
AcDbLine
 10
403.586533
 20
1389.910295
 30
0.0
 11
403.586533
 21
1391.110295
 31
0.0
  0
LINE
  5
124
100
AcDbEntity
  8
24
370
    30
  6
Continuous
 62
     7
100
AcDbLine
 10
404.186533
 20
1389.910295
 30
0.0
 11
403.586533
 21
1389.910295
 31
0.0
  0
LINE
  5
125
100
AcDbEntity
  8
24
370
    30
  6
Continuous
 62
     7
100
AcDbLine
 10
403.586533
 20
1391.110295
 30
0.0
 11
404.186533
 21
1391.110295
 31
0.0
  0
LINE
  5
126
100
AcDbEntity
  8
24
370
    30
  6
Continuous
 62
     7
100
AcDbLine
 10
403.586533
 20
1389.610295
 30
0.0
 11
403.586533
 21
1388.410295
 31
0.0
  0
LINE
  5
127
100
AcDbEntity
  8
24
370
    30
  6
Continuous
 62
     7
100
AcDbLine
 10
408.086533
 20
1388.710295
 30
0.0
 11
408.266533
 21
1388.950295
 31
0.0
  0
LINE
  5
128
100
AcDbEntity
  8
24
370
    30
  6
Continuous
 62
     7
100
AcDbLine
 10
409.340963
 20
1389.561185
 30
0.0
 11
408.495823
 21
1389.992155
 31
0.0
  0
LINE
  5
129
100
AcDbEntity
  8
24
370
    30
  6
Continuous
 62
     7
100
AcDbLine
 10
409.886533
 20
1391.110295
 30
0.0
 11
409.706533
 21
1390.870295
 31
0.0
  0
LINE
  5
12A
100
AcDbEntity
  8
24
370
    30
  6
Continuous
 62
     7
100
AcDbLine
 10
408.632103
 20
1390.259405
 30
0.0
 11
409.477243
 21
1389.828435
 31
0.0
  0
LINE
  5
12B
100
AcDbEntity
  8
24
370
    30
  6
Continuous
 62
     7
100
AcDbLine
 10
403.586533
 20
1388.410295
 30
0.0
 11
403.286533
 21
1388.410295
 31
0.0
  0
LINE
  5
12C
100
AcDbEntity
  8
24
370
    30
  6
Continuous
 62
     7
100
AcDbLine
 10
403.286533
 20
1388.410295
 30
0.0
 11
403.286533
 21
1391.410295
 31
0.0
  0
LINE
  5
12D
100
AcDbEntity
  8
24
370
    30
  6
Continuous
 62
     7
100
AcDbLine
 10
403.286533
 20
1391.410295
 30
0.0
 11
404.186533
 21
1391.410295
 31
0.0
  0
LINE
  5
12E
100
AcDbEntity
  8
24
370
    30
  6
Continuous
 62
     7
100
AcDbLine
 10
401.786533
 20
1348.860295
 30
0.0
 11
401.786533
 21
1356.160295
 31
0.0
  0
LINE
  5
12F
100
AcDbEntity
  8
24
370
    30
  6
Continuous
 62
     7
100
AcDbLine
 10
404.186533
 20
1389.610295
 30
0.0
 11
403.586533
 21
1389.610295
 31
0.0
  0
LINE
  5
130
100
AcDbEntity
  8
24
370
    30
  6
Continuous
 62
     7
100
AcDbLine
 10
407.786533
 20
1359.010295
 30
0.0
 11
408.286533
 21
1359.010295
 31
0.0
  0
ARC
  5
131
100
AcDbEntity
  8
24
370
    30
  6
Continuous
 62
     7
100
AcDbCircle
 10
402.305563
 20
1389.297195
 30
0.0
 40
2.85236
100
AcDbArc
 50
122.070343
 51
175.715386
  0
ARC
  5
132
100
AcDbEntity
  8
24
370
    30
  6
Continuous
 62
     7
100
AcDbCircle
 10
401.569713
 20
1347.662495
 30
0.0
 40
2.29891
100
AcDbArc
 50
-134.161813
 51
-96.325359
  0
ARC
  5
133
100
AcDbEntity
  8
24
370
    30
  6
Continuous
 62
     7
100
AcDbCircle
 10
401.172003
 20
1347.228935
 30
0.0
 40
1.71089
100
AcDbArc
 50
179.999995
 51
-134.722941
  0
ARC
  5
134
100
AcDbEntity
  8
24
370
    30
  6
Continuous
 62
     7
100
AcDbCircle
 10
414.003353
 20
1347.662495
 30
0.0
 40
2.29891
100
AcDbArc
 50
-83.674639
 51
-45.838182
  0
ARC
  5
135
100
AcDbEntity
  8
24
370
    30
  6
Continuous
 62
     7
100
AcDbCircle
 10
414.401063
 20
1347.228935
 30
0.0
 40
1.71089
100
AcDbArc
 50
-45.277061
 51
0.0
  0
ARC
  5
136
100
AcDbEntity
  8
24
370
    30
  6
Continuous
 62
     7
100
AcDbCircle
 10
398.786533
 20
1408.833365
 30
0.0
 40
5.0
100
AcDbArc
 50
104.9006
 51
-179.999995
  0
ARC
  5
137
100
AcDbEntity
  8
24
370
    30
  6
Continuous
 62
     7
100
AcDbCircle
 10
416.786513
 20
1408.833355
 30
0.0
 40
5.00002
100
AcDbArc
 50
0.000092
 51
75.0992
  0
ARC
  5
138
100
AcDbEntity
  8
24
370
    30
  6
Continuous
 62
     7
100
AcDbCircle
 10
407.780453
 20
1374.963555
 30
0.0
 40
40.04674
100
AcDbArc
 50
75.108189
 51
89.991294
  0
ARC
  5
139
100
AcDbEntity
  8
24
370
    30
  6
Continuous
 62
     7
100
AcDbCircle
 10
407.780463
 20
1371.056695
 30
0.0
 40
40.0464
100
AcDbArc
 50
-89.991321
 51
-75.108086
  0
ARC
  5
13A
100
AcDbEntity
  8
24
370
    30
  6
Continuous
 62
     7
100
AcDbCircle
 10
407.792603
 20
1374.963895
 30
0.0
 40
40.0464
100
AcDbArc
 50
90.008684
 51
104.891912
  0
ARC
  5
13B
100
AcDbEntity
  8
24
370
    30
  6
Continuous
 62
     7
100
AcDbCircle
 10
398.786553
 20
1337.187235
 30
0.0
 40
5.00002
100
AcDbArc
 50
-179.999909
 51
-104.900798
  0
ARC
  5
13C
100
AcDbEntity
  8
24
370
    30
  6
Continuous
 62
     7
100
AcDbCircle
 10
416.786533
 20
1337.187225
 30
0.0
 40
5.0
100
AcDbArc
 50
-75.099405
 51
0.0
  0
ARC
  5
13D
100
AcDbEntity
  8
24
370
    30
  6
Continuous
 62
     7
100
AcDbCircle
 10
407.792613
 20
1371.057035
 30
0.0
 40
40.04674
100
AcDbArc
 50
-104.891809
 51
-90.008704
  0
ARC
  5
13E
100
AcDbEntity
  8
24
370
    30
  6
Continuous
 62
     7
100
AcDbCircle
 10
400.586533
 20
1347.198635
 30
0.0
 40
2.0
100
AcDbArc
 50
-179.999995
 51
-100.922073
  0
ARC
  5
13F
100
AcDbEntity
  8
24
370
    30
  6
Continuous
 62
     7
100
AcDbCircle
 10
414.986533
 20
1347.198635
 30
0.0
 40
2.0
100
AcDbArc
 50
-79.077929
 51
0.0
  0
ARC
  5
140
100
AcDbEntity
  8
24
370
    30
  6
Continuous
 62
     7
100
AcDbCircle
 10
407.786533
 20
1384.510295
 30
0.0
 40
40.0
100
AcDbArc
 50
-100.828735
 51
-79.17127
  0
ARC
  5
141
100
AcDbEntity
  8
24
370
    30
  6
Continuous
 62
     7
100
AcDbCircle
 10
407.786563
 20
1392.211315
 30
0.0
 40
9.19898
100
AcDbArc
 50
87.142381
 51
90.00016
  0
ARC
  5
142
100
AcDbEntity
  8
24
370
    30
  6
Continuous
 62
     7
100
AcDbCircle
 10
407.786503
 20
1392.211315
 30
0.0
 40
9.19898
100
AcDbArc
 50
89.999839
 51
92.857617
  0
ARC
  5
143
100
AcDbEntity
  8
24
370
    30
  6
Continuous
 62
     7
100
AcDbCircle
 10
407.786533
 20
1390.010295
 30
0.0
 40
7.2
100
AcDbArc
 50
-68.167535
 51
0.0
  0
ARC
  5
144
100
AcDbEntity
  8
24
370
    30
  6
Continuous
 62
     7
100
AcDbCircle
 10
407.786533
 20
1390.010295
 30
0.0
 40
7.2
100
AcDbArc
 50
-179.999995
 51
-111.832453
  0
ARC
  5
145
100
AcDbEntity
  8
24
370
    30
  6
Continuous
 62
     7
100
AcDbCircle
 10
407.786533
 20
1390.010295
 30
0.0
 40
7.2
100
AcDbArc
 50
0.0
 51
13.689704
  0
ARC
  5
146
100
AcDbEntity
  8
24
370
    30
  6
Continuous
 62
     7
100
AcDbCircle
 10
407.786533
 20
1390.010295
 30
0.0
 40
7.2
100
AcDbArc
 50
-111.832463
 51
-68.167535
  0
ARC
  5
147
100
AcDbEntity
  8
24
370
    30
  6
Continuous
 62
     7
100
AcDbCircle
 10
407.786533
 20
1390.010295
 30
0.0
 40
7.2
100
AcDbArc
 50
13.689704
 51
73.593075
  0
ARC
  5
148
100
AcDbEntity
  8
24
370
    30
  6
Continuous
 62
     7
100
AcDbCircle
 10
407.786533
 20
1390.010295
 30
0.0
 40
7.2
100
AcDbArc
 50
106.40693
 51
166.310298
  0
ARC
  5
149
100
AcDbEntity
  8
24
370
    30
  6
Continuous
 62
     7
100
AcDbCircle
 10
413.267503
 20
1389.297195
 30
0.0
 40
2.85236
100
AcDbArc
 50
4.28462
 51
57.929662
  0
ARC
  5
14A
100
AcDbEntity
  8
24
370
    30
  6
Continuous
 62
     7
100
AcDbCircle
 10
409.089403
 20
1389.260495
 30
0.0
 40
7.77624
100
AcDbArc
 50
33.125615
 51
79.936948
  0
ARC
  5
14B
100
AcDbEntity
  8
24
370
    30
  6
Continuous
 62
     7
100
AcDbCircle
 10
406.338403
 20
1389.480215
 30
0.0
 40
7.53525
100
AcDbArc
 50
99.26747
 51
147.66996
  0
ARC
  5
14C
100
AcDbEntity
  8
24
370
    30
  6
Continuous
 62
     7
100
AcDbCircle
 10
408.286533
 20
1363.510295
 30
0.0
 40
4.5
100
AcDbArc
 50
-90.000003
 51
90.000003
  0
ARC
  5
14D
100
AcDbEntity
  8
24
370
    30
  6
Continuous
 62
     7
100
AcDbCircle
 10
394.392033
 20
1336.217265
 30
0.0
 40
62.7875
100
AcDbArc
 50
75.183642
 51
77.682385
  0
ARC
  5
14E
100
AcDbEntity
  8
24
370
    30
  6
Continuous
 62
     7
100
AcDbCircle
 10
421.181033
 20
1336.217265
 30
0.0
 40
62.7875
100
AcDbArc
 50
102.317613
 51
104.816363
  0
ARC
  5
14F
100
AcDbEntity
  8
24
370
    30
  6
Continuous
 62
     7
100
AcDbCircle
 10
407.786533
 20
1396.227715
 30
0.0
 40
51.2601
100
AcDbArc
 50
-97.251273
 51
-82.748725
  0
ARC
  5
150
100
AcDbEntity
  8
24
370
    30
  6
Continuous
 62
     7
100
AcDbCircle
 10
407.786533
 20
1392.210295
 30
0.0
 40
9.2
100
AcDbArc
 50
0.0
 51
87.142538
  0
ARC
  5
151
100
AcDbEntity
  8
24
370
    30
  6
Continuous
 62
     7
100
AcDbCircle
 10
407.786533
 20
1392.210295
 30
0.0
 40
9.2
100
AcDbArc
 50
92.85746
 51
-179.999995
  0
ARC
  5
152
100
AcDbEntity
  8
24
370
    30
  6
Continuous
 62
     7
100
AcDbCircle
 10
407.786533
 20
1392.210295
 30
0.0
 40
7.92262
100
AcDbArc
 50
9.442265
 51
170.557733
  0
ARC
  5
153
100
AcDbEntity
  8
24
370
    30
  6
Continuous
 62
     7
100
AcDbCircle
 10
406.586533
 20
1389.310295
 30
0.0
 40
0.9
100
AcDbArc
 50
-179.999995
 51
0.00001
  0
ARC
  5
154
100
AcDbEntity
  8
24
370
    30
  6
Continuous
 62
     7
100
AcDbCircle
 10
406.586533
 20
1389.310295
 30
0.0
 40
0.6
100
AcDbArc
 50
-179.999995
 51
0.00001
  0
ARC
  5
155
100
AcDbEntity
  8
24
370
    30
  6
Continuous
 62
     7
100
AcDbCircle
 10
404.186533
 20
1390.510295
 30
0.0
 40
0.6
100
AcDbArc
 50
-90.000003
 51
90.000003
  0
ARC
  5
156
100
AcDbEntity
  8
24
370
    30
  6
Continuous
 62
     7
100
AcDbCircle
 10
409.136533
 20
1389.160295
 30
0.0
 40
0.75
100
AcDbArc
 50
-94.750782
 51
62.981113
  0
ARC
  5
157
100
AcDbEntity
  8
24
370
    30
  6
Continuous
 62
     7
100
AcDbCircle
 10
408.986533
 20
1389.910295
 30
0.0
 40
1.5
100
AcDbArc
 50
-126.869903
 51
-86.641168
  0
ARC
  5
158
100
AcDbEntity
  8
24
370
    30
  6
Continuous
 62
     7
100
AcDbCircle
 10
408.986533
 20
1389.910295
 30
0.0
 40
1.2
100
AcDbArc
 50
-126.869903
 51
-85.551528
  0
ARC
  5
159
100
AcDbEntity
  8
24
370
    30
  6
Continuous
 62
     7
100
AcDbCircle
 10
409.136533
 20
1389.160295
 30
0.0
 40
0.45
100
AcDbArc
 50
-97.267378
 51
62.981113
  0
ARC
  5
15A
100
AcDbEntity
  8
24
370
    30
  6
Continuous
 62
     7
100
AcDbCircle
 10
408.836533
 20
1390.660295
 30
0.0
 40
0.75
100
AcDbArc
 50
85.249217
 51
-117.018889
  0
ARC
  5
15B
100
AcDbEntity
  8
24
370
    30
  6
Continuous
 62
     7
100
AcDbCircle
 10
408.986533
 20
1389.910295
 30
0.0
 40
1.5
100
AcDbArc
 50
53.130102
 51
93.35883
  0
ARC
  5
15C
100
AcDbEntity
  8
24
370
    30
  6
Continuous
 62
     7
100
AcDbCircle
 10
408.986533
 20
1389.910295
 30
0.0
 40
1.2
100
AcDbArc
 50
53.130102
 51
94.448477
  0
ARC
  5
15D
100
AcDbEntity
  8
24
370
    30
  6
Continuous
 62
     7
100
AcDbCircle
 10
408.836533
 20
1390.660295
 30
0.0
 40
0.45
100
AcDbArc
 50
82.732627
 51
-117.018889
  0
ARC
  5
15E
100
AcDbEntity
  8
24
370
    30
  6
Continuous
 62
     7
100
AcDbCircle
 10
404.186533
 20
1390.510295
 30
0.0
 40
0.9
100
AcDbArc
 50
-90.000003
 51
90.000003
  0
ARC
  5
15F
100
AcDbEntity
  8
24
370
    30
  6
Continuous
 62
     7
100
AcDbCircle
 10
407.786533
 20
1363.510295
 30
0.0
 40
4.5
100
AcDbArc
 50
90.000003
 51
-89.999999
  0
POLYLINE
  5
160
100
AcDbEntity
  8
24
370
    30
  6
Continuous
 62
     7
100
AcDb2dPolyline
 66
     1
 10
0.0
 20
0.0
 30
0.0
  0
VERTEX
  5
161
100
AcDbEntity
  8
24
370
    30
  6
Continuous
 62
     7
100
AcDbVertex
100
AcDb2dVertex
 10
408.186533
 20
1355.760295
 30
0.0
  0
VERTEX
  5
162
100
AcDbEntity
  8
24
370
    30
  6
Continuous
 62
     7
100
AcDbVertex
100
AcDb2dVertex
 10
410.019633
 20
1355.763295
 30
0.0
  0
VERTEX
  5
163
100
AcDbEntity
  8
24
370
    30
  6
Continuous
 62
     7
100
AcDbVertex
100
AcDb2dVertex
 10
411.415913
 20
1355.787555
 30
0.0
  0
VERTEX
  5
164
100
AcDbEntity
  8
24
370
    30
  6
Continuous
 62
     7
100
AcDbVertex
100
AcDb2dVertex
 10
412.375103
 20
1355.835605
 30
0.0
  0
VERTEX
  5
165
100
AcDbEntity
  8
24
370
    30
  6
Continuous
 62
     7
100
AcDbVertex
100
AcDb2dVertex
 10
413.070073
 20
1355.907575
 30
0.0
  0
VERTEX
  5
166
100
AcDbEntity
  8
24
370
    30
  6
Continuous
 62
     7
100
AcDbVertex
100
AcDb2dVertex
 10
413.498513
 20
1355.991205
 30
0.0
  0
VERTEX
  5
167
100
AcDbEntity
  8
24
370
    30
  6
Continuous
 62
     7
100
AcDbVertex
100
AcDb2dVertex
 10
413.663743
 20
1356.047575
 30
0.0
  0
VERTEX
  5
168
100
AcDbEntity
  8
24
370
    30
  6
Continuous
 62
     7
100
AcDbVertex
100
AcDb2dVertex
 10
413.745323
 20
1356.090595
 30
0.0
  0
VERTEX
  5
169
100
AcDbEntity
  8
24
370
    30
  6
Continuous
 62
     7
100
AcDbVertex
100
AcDb2dVertex
 10
413.786533
 20
1356.160295
 30
0.0
  0
SEQEND
  5
16A
100
AcDbEntity
  8
24
370
    30
  6
Continuous
 62
     7
  0
POLYLINE
  5
16B
100
AcDbEntity
  8
24
370
    30
  6
Continuous
 62
     7
100
AcDb2dPolyline
 66
     1
 10
0.0
 20
0.0
 30
0.0
  0
VERTEX
  5
16C
100
AcDbEntity
  8
24
370
    30
  6
Continuous
 62
     7
100
AcDbVertex
100
AcDb2dVertex
 10
407.386533
 20
1355.760295
 30
0.0
  0
VERTEX
  5
16D
100
AcDbEntity
  8
24
370
    30
  6
Continuous
 62
     7
100
AcDbVertex
100
AcDb2dVertex
 10
405.553433
 20
1355.763295
 30
0.0
  0
VERTEX
  5
16E
100
AcDbEntity
  8
24
370
    30
  6
Continuous
 62
     7
100
AcDbVertex
100
AcDb2dVertex
 10
404.157153
 20
1355.787555
 30
0.0
  0
VERTEX
  5
16F
100
AcDbEntity
  8
24
370
    30
  6
Continuous
 62
     7
100
AcDbVertex
100
AcDb2dVertex
 10
403.197963
 20
1355.835605
 30
0.0
  0
VERTEX
  5
170
100
AcDbEntity
  8
24
370
    30
  6
Continuous
 62
     7
100
AcDbVertex
100
AcDb2dVertex
 10
402.502993
 20
1355.907575
 30
0.0
  0
VERTEX
  5
171
100
AcDbEntity
  8
24
370
    30
  6
Continuous
 62
     7
100
AcDbVertex
100
AcDb2dVertex
 10
402.074553
 20
1355.991205
 30
0.0
  0
VERTEX
  5
172
100
AcDbEntity
  8
24
370
    30
  6
Continuous
 62
     7
100
AcDbVertex
100
AcDb2dVertex
 10
401.909323
 20
1356.047575
 30
0.0
  0
VERTEX
  5
173
100
AcDbEntity
  8
24
370
    30
  6
Continuous
 62
     7
100
AcDbVertex
100
AcDb2dVertex
 10
401.827743
 20
1356.090595
 30
0.0
  0
VERTEX
  5
174
100
AcDbEntity
  8
24
370
    30
  6
Continuous
 62
     7
100
AcDbVertex
100
AcDb2dVertex
 10
401.786533
 20
1356.160295
 30
0.0
  0
SEQEND
  5
175
100
AcDbEntity
  8
24
370
    30
  6
Continuous
 62
     7
  0
POLYLINE
  5
176
100
AcDbEntity
  8
24
370
    30
  6
Continuous
 62
     7
100
AcDb2dPolyline
 66
     1
 10
0.0
 20
0.0
 30
0.0
  0
VERTEX
  5
177
100
AcDbEntity
  8
24
370
    30
  6
Continuous
 62
     7
100
AcDbVertex
100
AcDb2dVertex
 10
407.386533
 20
1349.260295
 30
0.0
  0
VERTEX
  5
178
100
AcDbEntity
  8
24
370
    30
  6
Continuous
 62
     7
100
AcDbVertex
100
AcDb2dVertex
 10
405.553433
 20
1349.257295
 30
0.0
  0
VERTEX
  5
179
100
AcDbEntity
  8
24
370
    30
  6
Continuous
 62
     7
100
AcDbVertex
100
AcDb2dVertex
 10
404.157153
 20
1349.233035
 30
0.0
  0
VERTEX
  5
17A
100
AcDbEntity
  8
24
370
    30
  6
Continuous
 62
     7
100
AcDbVertex
100
AcDb2dVertex
 10
403.197963
 20
1349.184985
 30
0.0
  0
VERTEX
  5
17B
100
AcDbEntity
  8
24
370
    30
  6
Continuous
 62
     7
100
AcDbVertex
100
AcDb2dVertex
 10
402.502993
 20
1349.113015
 30
0.0
  0
VERTEX
  5
17C
100
AcDbEntity
  8
24
370
    30
  6
Continuous
 62
     7
100
AcDbVertex
100
AcDb2dVertex
 10
402.074553
 20
1349.029385
 30
0.0
  0
VERTEX
  5
17D
100
AcDbEntity
  8
24
370
    30
  6
Continuous
 62
     7
100
AcDbVertex
100
AcDb2dVertex
 10
401.909323
 20
1348.973015
 30
0.0
  0
VERTEX
  5
17E
100
AcDbEntity
  8
24
370
    30
  6
Continuous
 62
     7
100
AcDbVertex
100
AcDb2dVertex
 10
401.827743
 20
1348.929995
 30
0.0
  0
VERTEX
  5
17F
100
AcDbEntity
  8
24
370
    30
  6
Continuous
 62
     7
100
AcDbVertex
100
AcDb2dVertex
 10
401.786533
 20
1348.860295
 30
0.0
  0
SEQEND
  5
180
100
AcDbEntity
  8
24
370
    30
  6
Continuous
 62
     7
  0
POLYLINE
  5
181
100
AcDbEntity
  8
24
370
    30
  6
Continuous
 62
     7
100
AcDb2dPolyline
 66
     1
 10
0.0
 20
0.0
 30
0.0
  0
VERTEX
  5
182
100
AcDbEntity
  8
24
370
    30
  6
Continuous
 62
     7
100
AcDbVertex
100
AcDb2dVertex
 10
408.186533
 20
1349.260295
 30
0.0
  0
VERTEX
  5
183
100
AcDbEntity
  8
24
370
    30
  6
Continuous
 62
     7
100
AcDbVertex
100
AcDb2dVertex
 10
410.019633
 20
1349.257295
 30
0.0
  0
VERTEX
  5
184
100
AcDbEntity
  8
24
370
    30
  6
Continuous
 62
     7
100
AcDbVertex
100
AcDb2dVertex
 10
411.415913
 20
1349.233035
 30
0.0
  0
VERTEX
  5
185
100
AcDbEntity
  8
24
370
    30
  6
Continuous
 62
     7
100
AcDbVertex
100
AcDb2dVertex
 10
412.375103
 20
1349.184985
 30
0.0
  0
VERTEX
  5
186
100
AcDbEntity
  8
24
370
    30
  6
Continuous
 62
     7
100
AcDbVertex
100
AcDb2dVertex
 10
413.070073
 20
1349.113015
 30
0.0
  0
VERTEX
  5
187
100
AcDbEntity
  8
24
370
    30
  6
Continuous
 62
     7
100
AcDbVertex
100
AcDb2dVertex
 10
413.498513
 20
1349.029385
 30
0.0
  0
VERTEX
  5
188
100
AcDbEntity
  8
24
370
    30
  6
Continuous
 62
     7
100
AcDbVertex
100
AcDb2dVertex
 10
413.663743
 20
1348.973015
 30
0.0
  0
VERTEX
  5
189
100
AcDbEntity
  8
24
370
    30
  6
Continuous
 62
     7
100
AcDbVertex
100
AcDb2dVertex
 10
413.745323
 20
1348.929995
 30
0.0
  0
VERTEX
  5
18A
100
AcDbEntity
  8
24
370
    30
  6
Continuous
 62
     7
100
AcDbVertex
100
AcDb2dVertex
 10
413.786533
 20
1348.860295
 30
0.0
  0
SEQEND
  5
18B
100
AcDbEntity
  8
24
370
    30
  6
Continuous
 62
     7
  0
CIRCLE
  5
18C
100
AcDbEntity
  8
1
370
    30
  6
Continuous
 62
     7
100
AcDbCircle
 10
617.036533
 20
1187.010724
 30
0.0
 40
1.0
  0
CIRCLE
  5
18D
100
AcDbEntity
  8
1
370
    30
  6
Continuous
 62
     7
100
AcDbCircle
 10
612.036533
 20
1182.010724
 30
0.0
 40
1.0
  0
CIRCLE
  5
18E
100
AcDbEntity
  8
1
370
    30
  6
Continuous
 62
     7
100
AcDbCircle
 10
607.036533
 20
1187.010724
 30
0.0
 40
1.0
  0
CIRCLE
  5
18F
100
AcDbEntity
  8
1
370
    30
  6
Continuous
 62
     7
100
AcDbCircle
 10
612.036533
 20
1192.010724
 30
0.0
 40
1.0
  0
CIRCLE
  5
190
100
AcDbEntity
  8
1
370
    30
  6
Continuous
 62
     7
100
AcDbCircle
 10
612.036533
 20
1187.010724
 30
0.0
 40
1.0
  0
LINE
  5
191
100
AcDbEntity
  8
1
370
    30
  6
Continuous
 62
     7
100
AcDbLine
 10
752.536533
 20
1201.010724
 30
0.0
 11
627.536533
 21
1201.010724
 31
0.0
  0
LINE
  5
192
100
AcDbEntity
  8
1
370
    30
  6
Continuous
 62
     7
100
AcDbLine
 10
752.536533
 20
1173.010724
 30
0.0
 11
752.536533
 21
1201.010724
 31
0.0
  0
LINE
  5
193
100
AcDbEntity
  8
1
370
    30
  6
Continuous
 62
     7
100
AcDbLine
 10
627.536533
 20
1173.010724
 30
0.0
 11
752.536533
 21
1173.010724
 31
0.0
  0
LINE
  5
194
100
AcDbEntity
  8
1
370
    30
  6
Continuous
 62
     7
100
AcDbLine
 10
599.439517
 20
1200.04844
 30
0.0
 11
624.536533
 21
1200.04844
 31
0.0
  0
LINE
  5
195
100
AcDbEntity
  8
1
370
    30
  6
Continuous
 62
     7
100
AcDbLine
 10
624.536533
 20
1173.926081
 30
0.0
 11
624.536533
 21
1200.04844
 31
0.0
  0
LINE
  5
196
100
AcDbEntity
  8
1
370
    30
  6
Continuous
 62
     7
100
AcDbLine
 10
599.439517
 20
1173.926081
 30
0.0
 11
624.536533
 21
1173.926081
 31
0.0
  0
LINE
  5
197
100
AcDbEntity
  8
1
370
    30
  6
Continuous
 62
     7
100
AcDbLine
 10
599.439517
 20
1173.926081
 30
0.0
 11
599.439517
 21
1200.04844
 31
0.0
  0
LINE
  5
198
100
AcDbEntity
  8
1
370
    30
  6
Continuous
 62
     7
100
AcDbLine
 10
627.536533
 20
1173.010724
 30
0.0
 11
627.536533
 21
1201.010724
 31
0.0
  0
INSERT
  5
1A0
100
AcDbEntity
  8
0
370
    30
  6
Continuous
 62
     7
100
AcDbBlockReference
  2
*G2
 10
0.0
 20
0.0
 30
0.0
  0
INSERT
  5
1A8
100
AcDbEntity
  8
0
370
    30
  6
Continuous
 62
     7
100
AcDbBlockReference
  2
*G3
 10
0.0
 20
0.0
 30
0.0
  0
CIRCLE
  5
1A9
100
AcDbEntity
  8
1
370
    30
  6
Continuous
 62
     7
100
AcDbCircle
 10
683.036533
 20
1187.010724
 30
0.0
 40
2.5
  0
CIRCLE
  5
1AA
100
AcDbEntity
  8
1
370
    30
  6
Continuous
 62
     7
100
AcDbCircle
 10
663.036533
 20
1187.010724
 30
0.0
 40
2.5
  0
CIRCLE
  5
1AB
100
AcDbEntity
  8
1
370
    30
  6
Continuous
 62
     7
100
AcDbCircle
 10
643.036533
 20
1187.010724
 30
0.0
 40
2.5
  0
INSERT
  5
1B3
100
AcDbEntity
  8
0
370
    30
  6
Continuous
 62
     7
100
AcDbBlockReference
  2
*G4
 10
0.0
 20
0.0
 30
0.0
  0
LINE
  5
1B4
100
AcDbEntity
  8
1
370
    30
  6
Continuous
 62
     7
100
AcDbLine
 10
597.419124
 20
1172.010724
 30
0.0
 11
597.419124
 21
1202.010724
 31
0.0
  0
LINE
  5
1B5
100
AcDbEntity
  8
1
370
    30
  6
Continuous
 62
     7
100
AcDbLine
 10
753.536533
 20
1172.010724
 30
0.0
 11
753.536533
 21
1202.010724
 31
0.0
  0
LINE
  5
1B6
100
AcDbEntity
  8
1
370
    30
  6
Continuous
 62
     7
100
AcDbLine
 10
575.451889
 20
1404.510295
 30
0.0
 11
605.536533
 21
1404.510295
 31
0.0
  0
LINE
  5
1B7
100
AcDbEntity
  8
1
370
    30
  6
Continuous
 62
     7
100
AcDbLine
 10
604.536533
 20
1405.510295
 30
0.0
 11
604.536533
 21
1530.510295
 31
0.0
  0
LINE
  5
1B8
100
AcDbEntity
  8
1
370
    30
  6
Continuous
 62
     7
100
AcDbLine
 10
576.536533
 20
1405.510295
 30
0.0
 11
604.536533
 21
1405.510295
 31
0.0
  0
LINE
  5
1B9
100
AcDbEntity
  8
1
370
    30
  6
Continuous
 62
     7
100
AcDbLine
 10
576.536533
 20
1530.510295
 30
0.0
 11
576.536533
 21
1405.510295
 31
0.0
  0
LINE
  5
1BA
100
AcDbEntity
  8
1
370
    30
  6
Continuous
 62
     7
100
AcDbLine
 10
603.574248
 20
1558.607311
 30
0.0
 11
603.574248
 21
1533.510295
 31
0.0
  0
LINE
  5
1BB
100
AcDbEntity
  8
1
370
    30
  6
Continuous
 62
     7
100
AcDbLine
 10
577.451889
 20
1533.510295
 30
0.0
 11
603.574248
 21
1533.510295
 31
0.0
  0
LINE
  5
1BC
100
AcDbEntity
  8
1
370
    30
  6
Continuous
 62
     7
100
AcDbLine
 10
577.451889
 20
1558.607311
 30
0.0
 11
577.451889
 21
1533.510295
 31
0.0
  0
LINE
  5
1BD
100
AcDbEntity
  8
1
370
    30
  6
Continuous
 62
     7
100
AcDbLine
 10
577.451889
 20
1558.607311
 30
0.0
 11
603.574248
 21
1558.607311
 31
0.0
  0
LINE
  5
1BE
100
AcDbEntity
  8
1
370
    30
  6
Continuous
 62
     7
100
AcDbLine
 10
588.002872
 20
1532.510295
 30
0.0
 11
586.622264
 21
1533.509424
 31
0.0
  0
LINE
  5
1BF
100
AcDbEntity
  8
1
370
    30
  6
Continuous
 62
     7
100
AcDbLine
 10
593.525305
 20
1532.510295
 30
0.0
 11
594.780403
 21
1533.510295
 31
0.0
  0
LINE
  5
1C0
100
AcDbEntity
  8
1
370
    30
  6
Continuous
 62
     7
100
AcDbLine
 10
588.002872
 20
1532.510295
 30
0.0
 11
593.525305
 21
1532.510295
 31
0.0
  0
LINE
  5
1C1
100
AcDbEntity
  8
1
370
    30
  6
Continuous
 62
     7
100
AcDbLine
 10
576.536533
 20
1530.510295
 30
0.0
 11
604.536533
 21
1530.510295
 31
0.0
  0
INSERT
  5
1C9
100
AcDbEntity
  8
0
370
    30
  6
Continuous
 62
     7
100
AcDbBlockReference
  2
*G5
 10
0.0
 20
0.0
 30
0.0
  0
INSERT
  5
1D1
100
AcDbEntity
  8
0
370
    30
  6
Continuous
 62
     7
100
AcDbBlockReference
  2
*G6
 10
0.0
 20
0.0
 30
0.0
  0
CIRCLE
  5
1D2
100
AcDbEntity
  8
1
370
    30
  6
Continuous
 62
     7
100
AcDbCircle
 10
590.536533
 20
1475.010295
 30
0.0
 40
2.5
  0
CIRCLE
  5
1D3
100
AcDbEntity
  8
1
370
    30
  6
Continuous
 62
     7
100
AcDbCircle
 10
590.536533
 20
1495.010295
 30
0.0
 40
2.5
  0
CIRCLE
  5
1D4
100
AcDbEntity
  8
1
370
    30
  6
Continuous
 62
     7
100
AcDbCircle
 10
590.536533
 20
1515.010295
 30
0.0
 40
2.5
  0
INSERT
  5
1DC
100
AcDbEntity
  8
0
370
    30
  6
Continuous
 62
     7
100
AcDbBlockReference
  2
*G7
 10
0.0
 20
0.0
 30
0.0
  0
LINE
  5
1DD
100
AcDbEntity
  8
1
370
    30
  6
Continuous
 62
     7
100
AcDbLine
 10
545.451889
 20
1404.510295
 30
0.0
 11
575.536533
 21
1404.510295
 31
0.0
  0
LINE
  5
1DE
100
AcDbEntity
  8
1
370
    30
  6
Continuous
 62
     7
100
AcDbLine
 10
574.536533
 20
1405.510295
 30
0.0
 11
574.536533
 21
1530.510295
 31
0.0
  0
LINE
  5
1DF
100
AcDbEntity
  8
1
370
    30
  6
Continuous
 62
     7
100
AcDbLine
 10
546.536533
 20
1405.510295
 30
0.0
 11
574.536533
 21
1405.510295
 31
0.0
  0
LINE
  5
1E0
100
AcDbEntity
  8
1
370
    30
  6
Continuous
 62
     7
100
AcDbLine
 10
546.536533
 20
1530.510295
 30
0.0
 11
546.536533
 21
1405.510295
 31
0.0
  0
LINE
  5
1E1
100
AcDbEntity
  8
1
370
    30
  6
Continuous
 62
     7
100
AcDbLine
 10
573.574248
 20
1558.607311
 30
0.0
 11
573.574248
 21
1533.510295
 31
0.0
  0
LINE
  5
1E2
100
AcDbEntity
  8
1
370
    30
  6
Continuous
 62
     7
100
AcDbLine
 10
547.451889
 20
1533.510295
 30
0.0
 11
573.574248
 21
1533.510295
 31
0.0
  0
LINE
  5
1E3
100
AcDbEntity
  8
1
370
    30
  6
Continuous
 62
     7
100
AcDbLine
 10
547.451889
 20
1558.607311
 30
0.0
 11
547.451889
 21
1533.510295
 31
0.0
  0
LINE
  5
1E4
100
AcDbEntity
  8
1
370
    30
  6
Continuous
 62
     7
100
AcDbLine
 10
547.451889
 20
1558.607311
 30
0.0
 11
573.574248
 21
1558.607311
 31
0.0
  0
LINE
  5
1E5
100
AcDbEntity
  8
1
370
    30
  6
Continuous
 62
     7
100
AcDbLine
 10
545.451889
 20
1560.627704
 30
0.0
 11
575.574248
 21
1560.627704
 31
0.0
  0
LINE
  5
1E6
100
AcDbEntity
  8
1
370
    30
  6
Continuous
 62
     7
100
AcDbLine
 10
558.002872
 20
1532.510295
 30
0.0
 11
556.622264
 21
1533.509424
 31
0.0
  0
LINE
  5
1E7
100
AcDbEntity
  8
1
370
    30
  6
Continuous
 62
     7
100
AcDbLine
 10
563.525305
 20
1532.510295
 30
0.0
 11
564.780403
 21
1533.510295
 31
0.0
  0
LINE
  5
1E8
100
AcDbEntity
  8
1
370
    30
  6
Continuous
 62
     7
100
AcDbLine
 10
558.002872
 20
1532.510295
 30
0.0
 11
563.525305
 21
1532.510295
 31
0.0
  0
LINE
  5
1E9
100
AcDbEntity
  8
1
370
    30
  6
Continuous
 62
     7
100
AcDbLine
 10
546.536533
 20
1530.510295
 30
0.0
 11
574.536533
 21
1530.510295
 31
0.0
  0
INSERT
  5
1F1
100
AcDbEntity
  8
0
370
    30
  6
Continuous
 62
     7
100
AcDbBlockReference
  2
*G8
 10
0.0
 20
0.0
 30
0.0
  0
INSERT
  5
1F9
100
AcDbEntity
  8
0
370
    30
  6
Continuous
 62
     7
100
AcDbBlockReference
  2
*G9
 10
0.0
 20
0.0
 30
0.0
  0
CIRCLE
  5
1FA
100
AcDbEntity
  8
1
370
    30
  6
Continuous
 62
     7
100
AcDbCircle
 10
560.536533
 20
1475.010295
 30
0.0
 40
2.5
  0
CIRCLE
  5
1FB
100
AcDbEntity
  8
1
370
    30
  6
Continuous
 62
     7
100
AcDbCircle
 10
560.536533
 20
1495.010295
 30
0.0
 40
2.5
  0
CIRCLE
  5
1FC
100
AcDbEntity
  8
1
370
    30
  6
Continuous
 62
     7
100
AcDbCircle
 10
560.536533
 20
1515.010295
 30
0.0
 40
2.5
  0
INSERT
  5
204
100
AcDbEntity
  8
0
370
    30
  6
Continuous
 62
     7
100
AcDbBlockReference
  2
*G10
 10
0.0
 20
0.0
 30
0.0
  0
LINE
  5
205
100
AcDbEntity
  8
1
370
    30
  6
Continuous
 62
     7
100
AcDbLine
 10
515.451889
 20
1404.510295
 30
0.0
 11
545.536533
 21
1404.510295
 31
0.0
  0
LINE
  5
206
100
AcDbEntity
  8
1
370
    30
  6
Continuous
 62
     7
100
AcDbLine
 10
544.536533
 20
1405.510295
 30
0.0
 11
544.536533
 21
1530.510295
 31
0.0
  0
LINE
  5
207
100
AcDbEntity
  8
1
370
    30
  6
Continuous
 62
     7
100
AcDbLine
 10
516.536533
 20
1405.510295
 30
0.0
 11
544.536533
 21
1405.510295
 31
0.0
  0
LINE
  5
208
100
AcDbEntity
  8
1
370
    30
  6
Continuous
 62
     7
100
AcDbLine
 10
516.536533
 20
1530.510295
 30
0.0
 11
516.536533
 21
1405.510295
 31
0.0
  0
LINE
  5
209
100
AcDbEntity
  8
1
370
    30
  6
Continuous
 62
     7
100
AcDbLine
 10
543.574248
 20
1558.607311
 30
0.0
 11
543.574248
 21
1533.510295
 31
0.0
  0
LINE
  5
20A
100
AcDbEntity
  8
1
370
    30
  6
Continuous
 62
     7
100
AcDbLine
 10
517.451889
 20
1533.510295
 30
0.0
 11
543.574248
 21
1533.510295
 31
0.0
  0
LINE
  5
20B
100
AcDbEntity
  8
1
370
    30
  6
Continuous
 62
     7
100
AcDbLine
 10
517.451889
 20
1558.607311
 30
0.0
 11
517.451889
 21
1533.510295
 31
0.0
  0
LINE
  5
20C
100
AcDbEntity
  8
1
370
    30
  6
Continuous
 62
     7
100
AcDbLine
 10
517.451889
 20
1558.607311
 30
0.0
 11
543.574248
 21
1558.607311
 31
0.0
  0
LINE
  5
20D
100
AcDbEntity
  8
1
370
    30
  6
Continuous
 62
     7
100
AcDbLine
 10
515.451889
 20
1560.627704
 30
0.0
 11
545.574248
 21
1560.627704
 31
0.0
  0
LINE
  5
20E
100
AcDbEntity
  8
1
370
    30
  6
Continuous
 62
     7
100
AcDbLine
 10
528.002872
 20
1532.510295
 30
0.0
 11
526.622264
 21
1533.509424
 31
0.0
  0
LINE
  5
20F
100
AcDbEntity
  8
1
370
    30
  6
Continuous
 62
     7
100
AcDbLine
 10
533.525305
 20
1532.510295
 30
0.0
 11
534.780403
 21
1533.510295
 31
0.0
  0
LINE
  5
210
100
AcDbEntity
  8
1
370
    30
  6
Continuous
 62
     7
100
AcDbLine
 10
528.002872
 20
1532.510295
 30
0.0
 11
533.525305
 21
1532.510295
 31
0.0
  0
LINE
  5
211
100
AcDbEntity
  8
1
370
    30
  6
Continuous
 62
     7
100
AcDbLine
 10
516.536533
 20
1530.510295
 30
0.0
 11
544.536533
 21
1530.510295
 31
0.0
  0
INSERT
  5
219
100
AcDbEntity
  8
0
370
    30
  6
Continuous
 62
     7
100
AcDbBlockReference
  2
*G11
 10
0.0
 20
0.0
 30
0.0
  0
INSERT
  5
221
100
AcDbEntity
  8
0
370
    30
  6
Continuous
 62
     7
100
AcDbBlockReference
  2
*G12
 10
0.0
 20
0.0
 30
0.0
  0
CIRCLE
  5
222
100
AcDbEntity
  8
1
370
    30
  6
Continuous
 62
     7
100
AcDbCircle
 10
530.536533
 20
1475.010295
 30
0.0
 40
2.5
  0
CIRCLE
  5
223
100
AcDbEntity
  8
1
370
    30
  6
Continuous
 62
     7
100
AcDbCircle
 10
530.536533
 20
1495.010295
 30
0.0
 40
2.5
  0
CIRCLE
  5
224
100
AcDbEntity
  8
1
370
    30
  6
Continuous
 62
     7
100
AcDbCircle
 10
530.536533
 20
1515.010295
 30
0.0
 40
2.5
  0
INSERT
  5
22C
100
AcDbEntity
  8
0
370
    30
  6
Continuous
 62
     7
100
AcDbBlockReference
  2
*G13
 10
0.0
 20
0.0
 30
0.0
  0
LINE
  5
22D
100
AcDbEntity
  8
1
370
    30
  6
Continuous
 62
     7
100
AcDbLine
 10
485.451889
 20
1404.510295
 30
0.0
 11
515.536533
 21
1404.510295
 31
0.0
  0
LINE
  5
22E
100
AcDbEntity
  8
1
370
    30
  6
Continuous
 62
     7
100
AcDbLine
 10
514.536533
 20
1405.510295
 30
0.0
 11
514.536533
 21
1530.510295
 31
0.0
  0
LINE
  5
22F
100
AcDbEntity
  8
1
370
    30
  6
Continuous
 62
     7
100
AcDbLine
 10
486.536533
 20
1405.510295
 30
0.0
 11
514.536533
 21
1405.510295
 31
0.0
  0
LINE
  5
230
100
AcDbEntity
  8
1
370
    30
  6
Continuous
 62
     7
100
AcDbLine
 10
486.536533
 20
1530.510295
 30
0.0
 11
486.536533
 21
1405.510295
 31
0.0
  0
LINE
  5
231
100
AcDbEntity
  8
1
370
    30
  6
Continuous
 62
     7
100
AcDbLine
 10
513.574248
 20
1558.607311
 30
0.0
 11
513.574248
 21
1533.510295
 31
0.0
  0
LINE
  5
232
100
AcDbEntity
  8
1
370
    30
  6
Continuous
 62
     7
100
AcDbLine
 10
487.451889
 20
1533.510295
 30
0.0
 11
513.574248
 21
1533.510295
 31
0.0
  0
LINE
  5
233
100
AcDbEntity
  8
1
370
    30
  6
Continuous
 62
     7
100
AcDbLine
 10
487.451889
 20
1558.607311
 30
0.0
 11
487.451889
 21
1533.510295
 31
0.0
  0
LINE
  5
234
100
AcDbEntity
  8
1
370
    30
  6
Continuous
 62
     7
100
AcDbLine
 10
487.451889
 20
1558.607311
 30
0.0
 11
513.574248
 21
1558.607311
 31
0.0
  0
LINE
  5
235
100
AcDbEntity
  8
1
370
    30
  6
Continuous
 62
     7
100
AcDbLine
 10
485.451889
 20
1560.627704
 30
0.0
 11
515.574248
 21
1560.627704
 31
0.0
  0
LINE
  5
236
100
AcDbEntity
  8
1
370
    30
  6
Continuous
 62
     7
100
AcDbLine
 10
498.002872
 20
1532.510295
 30
0.0
 11
496.622264
 21
1533.509424
 31
0.0
  0
LINE
  5
237
100
AcDbEntity
  8
1
370
    30
  6
Continuous
 62
     7
100
AcDbLine
 10
503.525305
 20
1532.510295
 30
0.0
 11
504.780403
 21
1533.510295
 31
0.0
  0
LINE
  5
238
100
AcDbEntity
  8
1
370
    30
  6
Continuous
 62
     7
100
AcDbLine
 10
498.002872
 20
1532.510295
 30
0.0
 11
503.525305
 21
1532.510295
 31
0.0
  0
LINE
  5
239
100
AcDbEntity
  8
1
370
    30
  6
Continuous
 62
     7
100
AcDbLine
 10
486.536533
 20
1530.510295
 30
0.0
 11
514.536533
 21
1530.510295
 31
0.0
  0
INSERT
  5
241
100
AcDbEntity
  8
0
370
    30
  6
Continuous
 62
     7
100
AcDbBlockReference
  2
*G14
 10
0.0
 20
0.0
 30
0.0
  0
INSERT
  5
249
100
AcDbEntity
  8
0
370
    30
  6
Continuous
 62
     7
100
AcDbBlockReference
  2
*G15
 10
0.0
 20
0.0
 30
0.0
  0
CIRCLE
  5
24A
100
AcDbEntity
  8
1
370
    30
  6
Continuous
 62
     7
100
AcDbCircle
 10
500.536533
 20
1475.010295
 30
0.0
 40
2.5
  0
CIRCLE
  5
24B
100
AcDbEntity
  8
1
370
    30
  6
Continuous
 62
     7
100
AcDbCircle
 10
500.536533
 20
1495.010295
 30
0.0
 40
2.5
  0
CIRCLE
  5
24C
100
AcDbEntity
  8
1
370
    30
  6
Continuous
 62
     7
100
AcDbCircle
 10
500.536533
 20
1515.010295
 30
0.0
 40
2.5
  0
INSERT
  5
254
100
AcDbEntity
  8
0
370
    30
  6
Continuous
 62
     7
100
AcDbBlockReference
  2
*G16
 10
0.0
 20
0.0
 30
0.0
  0
LINE
  5
255
100
AcDbEntity
  8
1
370
    30
  6
Continuous
 62
     7
100
AcDbLine
 10
484.536533
 20
1405.510295
 30
0.0
 11
484.536533
 21
1530.510295
 31
0.0
  0
LINE
  5
256
100
AcDbEntity
  8
1
370
    30
  6
Continuous
 62
     7
100
AcDbLine
 10
456.536533
 20
1405.510295
 30
0.0
 11
484.536533
 21
1405.510295
 31
0.0
  0
LINE
  5
257
100
AcDbEntity
  8
1
370
    30
  6
Continuous
 62
     7
100
AcDbLine
 10
456.536533
 20
1530.510295
 30
0.0
 11
456.536533
 21
1405.510295
 31
0.0
  0
LINE
  5
258
100
AcDbEntity
  8
1
370
    30
  6
Continuous
 62
     7
100
AcDbLine
 10
483.574248
 20
1558.607311
 30
0.0
 11
483.574248
 21
1533.510295
 31
0.0
  0
LINE
  5
259
100
AcDbEntity
  8
1
370
    30
  6
Continuous
 62
     7
100
AcDbLine
 10
457.451889
 20
1533.510295
 30
0.0
 11
483.574248
 21
1533.510295
 31
0.0
  0
LINE
  5
25A
100
AcDbEntity
  8
1
370
    30
  6
Continuous
 62
     7
100
AcDbLine
 10
457.451889
 20
1558.607311
 30
0.0
 11
457.451889
 21
1533.510295
 31
0.0
  0
LINE
  5
25B
100
AcDbEntity
  8
1
370
    30
  6
Continuous
 62
     7
100
AcDbLine
 10
457.451889
 20
1558.607311
 30
0.0
 11
483.574248
 21
1558.607311
 31
0.0
  0
LINE
  5
25C
100
AcDbEntity
  8
1
370
    30
  6
Continuous
 62
     7
100
AcDbLine
 10
468.002872
 20
1532.510295
 30
0.0
 11
466.622264
 21
1533.509424
 31
0.0
  0
LINE
  5
25D
100
AcDbEntity
  8
1
370
    30
  6
Continuous
 62
     7
100
AcDbLine
 10
473.525305
 20
1532.510295
 30
0.0
 11
474.780403
 21
1533.510295
 31
0.0
  0
LINE
  5
25E
100
AcDbEntity
  8
1
370
    30
  6
Continuous
 62
     7
100
AcDbLine
 10
468.002872
 20
1532.510295
 30
0.0
 11
473.525305
 21
1532.510295
 31
0.0
  0
LINE
  5
25F
100
AcDbEntity
  8
1
370
    30
  6
Continuous
 62
     7
100
AcDbLine
 10
456.536533
 20
1530.510295
 30
0.0
 11
484.536533
 21
1530.510295
 31
0.0
  0
INSERT
  5
267
100
AcDbEntity
  8
0
370
    30
  6
Continuous
 62
     7
100
AcDbBlockReference
  2
*G17
 10
0.0
 20
0.0
 30
0.0
  0
INSERT
  5
26F
100
AcDbEntity
  8
0
370
    30
  6
Continuous
 62
     7
100
AcDbBlockReference
  2
*G18
 10
0.0
 20
0.0
 30
0.0
  0
CIRCLE
  5
270
100
AcDbEntity
  8
1
370
    30
  6
Continuous
 62
     7
100
AcDbCircle
 10
470.536533
 20
1475.010295
 30
0.0
 40
2.5
  0
CIRCLE
  5
271
100
AcDbEntity
  8
1
370
    30
  6
Continuous
 62
     7
100
AcDbCircle
 10
470.536533
 20
1495.010295
 30
0.0
 40
2.5
  0
CIRCLE
  5
272
100
AcDbEntity
  8
1
370
    30
  6
Continuous
 62
     7
100
AcDbCircle
 10
470.536533
 20
1515.010295
 30
0.0
 40
2.5
  0
INSERT
  5
27A
100
AcDbEntity
  8
0
370
    30
  6
Continuous
 62
     7
100
AcDbBlockReference
  2
*G19
 10
0.0
 20
0.0
 30
0.0
  0
LINE
  5
27B
100
AcDbEntity
  8
1
370
    30
  6
Continuous
 62
     7
100
AcDbLine
 10
455.536533
 20
1560.627704
 30
0.0
 11
485.574248
 21
1560.627704
 31
0.0
  0
LINE
  5
27C
100
AcDbEntity
  8
1
370
    30
  6
Continuous
 62
     7
100
AcDbLine
 10
455.536533
 20
1404.510295
 30
0.0
 11
485.536533
 21
1404.510295
 31
0.0
  0
LINE
  5
27D
100
AcDbEntity
  8
1
370
    30
  6
Continuous
 62
     7
100
AcDbLine
 10
575.451889
 20
1560.627704
 30
0.0
 11
605.536533
 21
1560.627704
 31
0.0
  0
LINE
  5
27E
100
AcDbEntity
  8
1
370
    30
  6
Continuous
 62
     7
100
AcDbLine
 10
575.451889
 20
1219.010295
 30
0.0
 11
605.536533
 21
1219.010295
 31
0.0
  0
LINE
  5
27F
100
AcDbEntity
  8
1
370
    30
  6
Continuous
 62
     7
100
AcDbLine
 10
604.536533
 20
1220.010295
 30
0.0
 11
604.536533
 21
1345.010295
 31
0.0
  0
LINE
  5
280
100
AcDbEntity
  8
1
370
    30
  6
Continuous
 62
     7
100
AcDbLine
 10
576.536533
 20
1220.010295
 30
0.0
 11
604.536533
 21
1220.010295
 31
0.0
  0
LINE
  5
281
100
AcDbEntity
  8
1
370
    30
  6
Continuous
 62
     7
100
AcDbLine
 10
576.536533
 20
1345.010295
 30
0.0
 11
576.536533
 21
1220.010295
 31
0.0
  0
LINE
  5
282
100
AcDbEntity
  8
1
370
    30
  6
Continuous
 62
     7
100
AcDbLine
 10
603.574248
 20
1373.107311
 30
0.0
 11
603.574248
 21
1348.010295
 31
0.0
  0
LINE
  5
283
100
AcDbEntity
  8
1
370
    30
  6
Continuous
 62
     7
100
AcDbLine
 10
577.451889
 20
1348.010295
 30
0.0
 11
603.574248
 21
1348.010295
 31
0.0
  0
LINE
  5
284
100
AcDbEntity
  8
1
370
    30
  6
Continuous
 62
     7
100
AcDbLine
 10
577.451889
 20
1373.107311
 30
0.0
 11
577.451889
 21
1348.010295
 31
0.0
  0
LINE
  5
285
100
AcDbEntity
  8
1
370
    30
  6
Continuous
 62
     7
100
AcDbLine
 10
577.451889
 20
1373.107311
 30
0.0
 11
603.574248
 21
1373.107311
 31
0.0
  0
LINE
  5
286
100
AcDbEntity
  8
1
370
    30
  6
Continuous
 62
     7
100
AcDbLine
 10
588.002872
 20
1347.010295
 30
0.0
 11
586.622264
 21
1348.009424
 31
0.0
  0
LINE
  5
287
100
AcDbEntity
  8
1
370
    30
  6
Continuous
 62
     7
100
AcDbLine
 10
593.525305
 20
1347.010295
 30
0.0
 11
594.780403
 21
1348.010295
 31
0.0
  0
LINE
  5
288
100
AcDbEntity
  8
1
370
    30
  6
Continuous
 62
     7
100
AcDbLine
 10
588.002872
 20
1347.010295
 30
0.0
 11
593.525305
 21
1347.010295
 31
0.0
  0
LINE
  5
289
100
AcDbEntity
  8
1
370
    30
  6
Continuous
 62
     7
100
AcDbLine
 10
576.536533
 20
1345.010295
 30
0.0
 11
604.536533
 21
1345.010295
 31
0.0
  0
INSERT
  5
291
100
AcDbEntity
  8
0
370
    30
  6
Continuous
 62
     7
100
AcDbBlockReference
  2
*G20
 10
0.0
 20
0.0
 30
0.0
  0
INSERT
  5
299
100
AcDbEntity
  8
0
370
    30
  6
Continuous
 62
     7
100
AcDbBlockReference
  2
*G21
 10
0.0
 20
0.0
 30
0.0
  0
CIRCLE
  5
29A
100
AcDbEntity
  8
1
370
    30
  6
Continuous
 62
     7
100
AcDbCircle
 10
590.536533
 20
1289.510295
 30
0.0
 40
2.5
  0
CIRCLE
  5
29B
100
AcDbEntity
  8
1
370
    30
  6
Continuous
 62
     7
100
AcDbCircle
 10
590.536533
 20
1309.510295
 30
0.0
 40
2.5
  0
CIRCLE
  5
29C
100
AcDbEntity
  8
1
370
    30
  6
Continuous
 62
     7
100
AcDbCircle
 10
590.536533
 20
1329.510295
 30
0.0
 40
2.5
  0
INSERT
  5
2A4
100
AcDbEntity
  8
0
370
    30
  6
Continuous
 62
     7
100
AcDbBlockReference
  2
*G22
 10
0.0
 20
0.0
 30
0.0
  0
LINE
  5
2A5
100
AcDbEntity
  8
1
370
    30
  6
Continuous
 62
     7
100
AcDbLine
 10
545.451889
 20
1219.010295
 30
0.0
 11
575.536533
 21
1219.010295
 31
0.0
  0
LINE
  5
2A6
100
AcDbEntity
  8
1
370
    30
  6
Continuous
 62
     7
100
AcDbLine
 10
574.536533
 20
1220.010295
 30
0.0
 11
574.536533
 21
1345.010295
 31
0.0
  0
LINE
  5
2A7
100
AcDbEntity
  8
1
370
    30
  6
Continuous
 62
     7
100
AcDbLine
 10
546.536533
 20
1220.010295
 30
0.0
 11
574.536533
 21
1220.010295
 31
0.0
  0
LINE
  5
2A8
100
AcDbEntity
  8
1
370
    30
  6
Continuous
 62
     7
100
AcDbLine
 10
546.536533
 20
1345.010295
 30
0.0
 11
546.536533
 21
1220.010295
 31
0.0
  0
LINE
  5
2A9
100
AcDbEntity
  8
1
370
    30
  6
Continuous
 62
     7
100
AcDbLine
 10
573.574248
 20
1373.107311
 30
0.0
 11
573.574248
 21
1348.010295
 31
0.0
  0
LINE
  5
2AA
100
AcDbEntity
  8
1
370
    30
  6
Continuous
 62
     7
100
AcDbLine
 10
547.451889
 20
1348.010295
 30
0.0
 11
573.574248
 21
1348.010295
 31
0.0
  0
LINE
  5
2AB
100
AcDbEntity
  8
1
370
    30
  6
Continuous
 62
     7
100
AcDbLine
 10
547.451889
 20
1373.107311
 30
0.0
 11
547.451889
 21
1348.010295
 31
0.0
  0
LINE
  5
2AC
100
AcDbEntity
  8
1
370
    30
  6
Continuous
 62
     7
100
AcDbLine
 10
547.451889
 20
1373.107311
 30
0.0
 11
573.574248
 21
1373.107311
 31
0.0
  0
LINE
  5
2AD
100
AcDbEntity
  8
1
370
    30
  6
Continuous
 62
     7
100
AcDbLine
 10
545.451889
 20
1375.127704
 30
0.0
 11
575.574248
 21
1375.127704
 31
0.0
  0
LINE
  5
2AE
100
AcDbEntity
  8
1
370
    30
  6
Continuous
 62
     7
100
AcDbLine
 10
558.002872
 20
1347.010295
 30
0.0
 11
556.622264
 21
1348.009424
 31
0.0
  0
LINE
  5
2AF
100
AcDbEntity
  8
1
370
    30
  6
Continuous
 62
     7
100
AcDbLine
 10
563.525305
 20
1347.010295
 30
0.0
 11
564.780403
 21
1348.010295
 31
0.0
  0
LINE
  5
2B0
100
AcDbEntity
  8
1
370
    30
  6
Continuous
 62
     7
100
AcDbLine
 10
558.002872
 20
1347.010295
 30
0.0
 11
563.525305
 21
1347.010295
 31
0.0
  0
LINE
  5
2B1
100
AcDbEntity
  8
1
370
    30
  6
Continuous
 62
     7
100
AcDbLine
 10
546.536533
 20
1345.010295
 30
0.0
 11
574.536533
 21
1345.010295
 31
0.0
  0
INSERT
  5
2B9
100
AcDbEntity
  8
0
370
    30
  6
Continuous
 62
     7
100
AcDbBlockReference
  2
*G23
 10
0.0
 20
0.0
 30
0.0
  0
INSERT
  5
2C1
100
AcDbEntity
  8
0
370
    30
  6
Continuous
 62
     7
100
AcDbBlockReference
  2
*G24
 10
0.0
 20
0.0
 30
0.0
  0
CIRCLE
  5
2C2
100
AcDbEntity
  8
1
370
    30
  6
Continuous
 62
     7
100
AcDbCircle
 10
560.536533
 20
1289.510295
 30
0.0
 40
2.5
  0
CIRCLE
  5
2C3
100
AcDbEntity
  8
1
370
    30
  6
Continuous
 62
     7
100
AcDbCircle
 10
560.536533
 20
1309.510295
 30
0.0
 40
2.5
  0
CIRCLE
  5
2C4
100
AcDbEntity
  8
1
370
    30
  6
Continuous
 62
     7
100
AcDbCircle
 10
560.536533
 20
1329.510295
 30
0.0
 40
2.5
  0
INSERT
  5
2CC
100
AcDbEntity
  8
0
370
    30
  6
Continuous
 62
     7
100
AcDbBlockReference
  2
*G25
 10
0.0
 20
0.0
 30
0.0
  0
LINE
  5
2CD
100
AcDbEntity
  8
1
370
    30
  6
Continuous
 62
     7
100
AcDbLine
 10
515.451889
 20
1219.010295
 30
0.0
 11
545.536533
 21
1219.010295
 31
0.0
  0
LINE
  5
2CE
100
AcDbEntity
  8
1
370
    30
  6
Continuous
 62
     7
100
AcDbLine
 10
544.536533
 20
1220.010295
 30
0.0
 11
544.536533
 21
1345.010295
 31
0.0
  0
LINE
  5
2CF
100
AcDbEntity
  8
1
370
    30
  6
Continuous
 62
     7
100
AcDbLine
 10
516.536533
 20
1220.010295
 30
0.0
 11
544.536533
 21
1220.010295
 31
0.0
  0
LINE
  5
2D0
100
AcDbEntity
  8
1
370
    30
  6
Continuous
 62
     7
100
AcDbLine
 10
516.536533
 20
1345.010295
 30
0.0
 11
516.536533
 21
1220.010295
 31
0.0
  0
LINE
  5
2D1
100
AcDbEntity
  8
1
370
    30
  6
Continuous
 62
     7
100
AcDbLine
 10
543.574248
 20
1373.107311
 30
0.0
 11
543.574248
 21
1348.010295
 31
0.0
  0
LINE
  5
2D2
100
AcDbEntity
  8
1
370
    30
  6
Continuous
 62
     7
100
AcDbLine
 10
517.451889
 20
1348.010295
 30
0.0
 11
543.574248
 21
1348.010295
 31
0.0
  0
LINE
  5
2D3
100
AcDbEntity
  8
1
370
    30
  6
Continuous
 62
     7
100
AcDbLine
 10
517.451889
 20
1373.107311
 30
0.0
 11
517.451889
 21
1348.010295
 31
0.0
  0
LINE
  5
2D4
100
AcDbEntity
  8
1
370
    30
  6
Continuous
 62
     7
100
AcDbLine
 10
517.451889
 20
1373.107311
 30
0.0
 11
543.574248
 21
1373.107311
 31
0.0
  0
LINE
  5
2D5
100
AcDbEntity
  8
1
370
    30
  6
Continuous
 62
     7
100
AcDbLine
 10
515.451889
 20
1375.127704
 30
0.0
 11
545.574248
 21
1375.127704
 31
0.0
  0
LINE
  5
2D6
100
AcDbEntity
  8
1
370
    30
  6
Continuous
 62
     7
100
AcDbLine
 10
528.002872
 20
1347.010295
 30
0.0
 11
526.622264
 21
1348.009424
 31
0.0
  0
LINE
  5
2D7
100
AcDbEntity
  8
1
370
    30
  6
Continuous
 62
     7
100
AcDbLine
 10
533.525305
 20
1347.010295
 30
0.0
 11
534.780403
 21
1348.010295
 31
0.0
  0
LINE
  5
2D8
100
AcDbEntity
  8
1
370
    30
  6
Continuous
 62
     7
100
AcDbLine
 10
528.002872
 20
1347.010295
 30
0.0
 11
533.525305
 21
1347.010295
 31
0.0
  0
LINE
  5
2D9
100
AcDbEntity
  8
1
370
    30
  6
Continuous
 62
     7
100
AcDbLine
 10
516.536533
 20
1345.010295
 30
0.0
 11
544.536533
 21
1345.010295
 31
0.0
  0
INSERT
  5
2E1
100
AcDbEntity
  8
0
370
    30
  6
Continuous
 62
     7
100
AcDbBlockReference
  2
*G26
 10
0.0
 20
0.0
 30
0.0
  0
INSERT
  5
2E9
100
AcDbEntity
  8
0
370
    30
  6
Continuous
 62
     7
100
AcDbBlockReference
  2
*G27
 10
0.0
 20
0.0
 30
0.0
  0
CIRCLE
  5
2EA
100
AcDbEntity
  8
1
370
    30
  6
Continuous
 62
     7
100
AcDbCircle
 10
530.536533
 20
1289.510295
 30
0.0
 40
2.5
  0
CIRCLE
  5
2EB
100
AcDbEntity
  8
1
370
    30
  6
Continuous
 62
     7
100
AcDbCircle
 10
530.536533
 20
1309.510295
 30
0.0
 40
2.5
  0
CIRCLE
  5
2EC
100
AcDbEntity
  8
1
370
    30
  6
Continuous
 62
     7
100
AcDbCircle
 10
530.536533
 20
1329.510295
 30
0.0
 40
2.5
  0
INSERT
  5
2F4
100
AcDbEntity
  8
0
370
    30
  6
Continuous
 62
     7
100
AcDbBlockReference
  2
*G28
 10
0.0
 20
0.0
 30
0.0
  0
LINE
  5
2F5
100
AcDbEntity
  8
1
370
    30
  6
Continuous
 62
     7
100
AcDbLine
 10
485.451889
 20
1219.010295
 30
0.0
 11
515.536533
 21
1219.010295
 31
0.0
  0
LINE
  5
2F6
100
AcDbEntity
  8
1
370
    30
  6
Continuous
 62
     7
100
AcDbLine
 10
514.536533
 20
1220.010295
 30
0.0
 11
514.536533
 21
1345.010295
 31
0.0
  0
LINE
  5
2F7
100
AcDbEntity
  8
1
370
    30
  6
Continuous
 62
     7
100
AcDbLine
 10
486.536533
 20
1220.010295
 30
0.0
 11
514.536533
 21
1220.010295
 31
0.0
  0
LINE
  5
2F8
100
AcDbEntity
  8
1
370
    30
  6
Continuous
 62
     7
100
AcDbLine
 10
486.536533
 20
1345.010295
 30
0.0
 11
486.536533
 21
1220.010295
 31
0.0
  0
LINE
  5
2F9
100
AcDbEntity
  8
1
370
    30
  6
Continuous
 62
     7
100
AcDbLine
 10
513.574248
 20
1373.107311
 30
0.0
 11
513.574248
 21
1348.010295
 31
0.0
  0
LINE
  5
2FA
100
AcDbEntity
  8
1
370
    30
  6
Continuous
 62
     7
100
AcDbLine
 10
487.451889
 20
1348.010295
 30
0.0
 11
513.574248
 21
1348.010295
 31
0.0
  0
LINE
  5
2FB
100
AcDbEntity
  8
1
370
    30
  6
Continuous
 62
     7
100
AcDbLine
 10
487.451889
 20
1373.107311
 30
0.0
 11
487.451889
 21
1348.010295
 31
0.0
  0
LINE
  5
2FC
100
AcDbEntity
  8
1
370
    30
  6
Continuous
 62
     7
100
AcDbLine
 10
487.451889
 20
1373.107311
 30
0.0
 11
513.574248
 21
1373.107311
 31
0.0
  0
LINE
  5
2FD
100
AcDbEntity
  8
1
370
    30
  6
Continuous
 62
     7
100
AcDbLine
 10
485.451889
 20
1375.127704
 30
0.0
 11
515.574248
 21
1375.127704
 31
0.0
  0
LINE
  5
2FE
100
AcDbEntity
  8
1
370
    30
  6
Continuous
 62
     7
100
AcDbLine
 10
498.002872
 20
1347.010295
 30
0.0
 11
496.622264
 21
1348.009424
 31
0.0
  0
LINE
  5
2FF
100
AcDbEntity
  8
1
370
    30
  6
Continuous
 62
     7
100
AcDbLine
 10
503.525305
 20
1347.010295
 30
0.0
 11
504.780403
 21
1348.010295
 31
0.0
  0
LINE
  5
300
100
AcDbEntity
  8
1
370
    30
  6
Continuous
 62
     7
100
AcDbLine
 10
498.002872
 20
1347.010295
 30
0.0
 11
503.525305
 21
1347.010295
 31
0.0
  0
LINE
  5
301
100
AcDbEntity
  8
1
370
    30
  6
Continuous
 62
     7
100
AcDbLine
 10
486.536533
 20
1345.010295
 30
0.0
 11
514.536533
 21
1345.010295
 31
0.0
  0
INSERT
  5
309
100
AcDbEntity
  8
0
370
    30
  6
Continuous
 62
     7
100
AcDbBlockReference
  2
*G29
 10
0.0
 20
0.0
 30
0.0
  0
INSERT
  5
311
100
AcDbEntity
  8
0
370
    30
  6
Continuous
 62
     7
100
AcDbBlockReference
  2
*G30
 10
0.0
 20
0.0
 30
0.0
  0
CIRCLE
  5
312
100
AcDbEntity
  8
1
370
    30
  6
Continuous
 62
     7
100
AcDbCircle
 10
500.536533
 20
1289.510295
 30
0.0
 40
2.5
  0
CIRCLE
  5
313
100
AcDbEntity
  8
1
370
    30
  6
Continuous
 62
     7
100
AcDbCircle
 10
500.536533
 20
1309.510295
 30
0.0
 40
2.5
  0
CIRCLE
  5
314
100
AcDbEntity
  8
1
370
    30
  6
Continuous
 62
     7
100
AcDbCircle
 10
500.536533
 20
1329.510295
 30
0.0
 40
2.5
  0
INSERT
  5
31C
100
AcDbEntity
  8
0
370
    30
  6
Continuous
 62
     7
100
AcDbBlockReference
  2
*G31
 10
0.0
 20
0.0
 30
0.0
  0
LINE
  5
31D
100
AcDbEntity
  8
1
370
    30
  6
Continuous
 62
     7
100
AcDbLine
 10
484.536533
 20
1220.010295
 30
0.0
 11
484.536533
 21
1345.010295
 31
0.0
  0
LINE
  5
31E
100
AcDbEntity
  8
1
370
    30
  6
Continuous
 62
     7
100
AcDbLine
 10
456.536533
 20
1220.010295
 30
0.0
 11
484.536533
 21
1220.010295
 31
0.0
  0
LINE
  5
31F
100
AcDbEntity
  8
1
370
    30
  6
Continuous
 62
     7
100
AcDbLine
 10
456.536533
 20
1345.010295
 30
0.0
 11
456.536533
 21
1220.010295
 31
0.0
  0
LINE
  5
320
100
AcDbEntity
  8
1
370
    30
  6
Continuous
 62
     7
100
AcDbLine
 10
483.574248
 20
1373.107311
 30
0.0
 11
483.574248
 21
1348.010295
 31
0.0
  0
LINE
  5
321
100
AcDbEntity
  8
1
370
    30
  6
Continuous
 62
     7
100
AcDbLine
 10
457.451889
 20
1348.010295
 30
0.0
 11
483.574248
 21
1348.010295
 31
0.0
  0
LINE
  5
322
100
AcDbEntity
  8
1
370
    30
  6
Continuous
 62
     7
100
AcDbLine
 10
457.451889
 20
1373.107311
 30
0.0
 11
457.451889
 21
1348.010295
 31
0.0
  0
LINE
  5
323
100
AcDbEntity
  8
1
370
    30
  6
Continuous
 62
     7
100
AcDbLine
 10
457.451889
 20
1373.107311
 30
0.0
 11
483.574248
 21
1373.107311
 31
0.0
  0
LINE
  5
324
100
AcDbEntity
  8
1
370
    30
  6
Continuous
 62
     7
100
AcDbLine
 10
468.002872
 20
1347.010295
 30
0.0
 11
466.622264
 21
1348.009424
 31
0.0
  0
LINE
  5
325
100
AcDbEntity
  8
1
370
    30
  6
Continuous
 62
     7
100
AcDbLine
 10
473.525305
 20
1347.010295
 30
0.0
 11
474.780403
 21
1348.010295
 31
0.0
  0
LINE
  5
326
100
AcDbEntity
  8
1
370
    30
  6
Continuous
 62
     7
100
AcDbLine
 10
468.002872
 20
1347.010295
 30
0.0
 11
473.525305
 21
1347.010295
 31
0.0
  0
LINE
  5
327
100
AcDbEntity
  8
1
370
    30
  6
Continuous
 62
     7
100
AcDbLine
 10
456.536533
 20
1345.010295
 30
0.0
 11
484.536533
 21
1345.010295
 31
0.0
  0
INSERT
  5
32F
100
AcDbEntity
  8
0
370
    30
  6
Continuous
 62
     7
100
AcDbBlockReference
  2
*G32
 10
0.0
 20
0.0
 30
0.0
  0
INSERT
  5
337
100
AcDbEntity
  8
0
370
    30
  6
Continuous
 62
     7
100
AcDbBlockReference
  2
*G33
 10
0.0
 20
0.0
 30
0.0
  0
CIRCLE
  5
338
100
AcDbEntity
  8
1
370
    30
  6
Continuous
 62
     7
100
AcDbCircle
 10
470.536533
 20
1289.510295
 30
0.0
 40
2.5
  0
CIRCLE
  5
339
100
AcDbEntity
  8
1
370
    30
  6
Continuous
 62
     7
100
AcDbCircle
 10
470.536533
 20
1309.510295
 30
0.0
 40
2.5
  0
CIRCLE
  5
33A
100
AcDbEntity
  8
1
370
    30
  6
Continuous
 62
     7
100
AcDbCircle
 10
470.536533
 20
1329.510295
 30
0.0
 40
2.5
  0
INSERT
  5
342
100
AcDbEntity
  8
0
370
    30
  6
Continuous
 62
     7
100
AcDbBlockReference
  2
*G34
 10
0.0
 20
0.0
 30
0.0
  0
LINE
  5
343
100
AcDbEntity
  8
1
370
    30
  6
Continuous
 62
     7
100
AcDbLine
 10
455.536533
 20
1375.127704
 30
0.0
 11
485.574248
 21
1375.127704
 31
0.0
  0
LINE
  5
344
100
AcDbEntity
  8
1
370
    30
  6
Continuous
 62
     7
100
AcDbLine
 10
455.536533
 20
1219.010295
 30
0.0
 11
485.536533
 21
1219.010295
 31
0.0
  0
LINE
  5
345
100
AcDbEntity
  8
1
370
    30
  6
Continuous
 62
     7
100
AcDbLine
 10
575.451889
 20
1375.127704
 30
0.0
 11
605.536533
 21
1375.127704
 31
0.0
  0
LINE
  5
346
100
AcDbEntity
  8
1
370
    30
  6
Continuous
 62
     7
100
AcDbLine
 10
725.451889
 20
1404.510295
 30
0.0
 11
755.536533
 21
1404.510295
 31
0.0
  0
LINE
  5
347
100
AcDbEntity
  8
1
370
    30
  6
Continuous
 62
     7
100
AcDbLine
 10
754.536533
 20
1405.510295
 30
0.0
 11
754.536533
 21
1530.510295
 31
0.0
  0
LINE
  5
348
100
AcDbEntity
  8
1
370
    30
  6
Continuous
 62
     7
100
AcDbLine
 10
726.536533
 20
1405.510295
 30
0.0
 11
754.536533
 21
1405.510295
 31
0.0
  0
LINE
  5
349
100
AcDbEntity
  8
1
370
    30
  6
Continuous
 62
     7
100
AcDbLine
 10
726.536533
 20
1530.510295
 30
0.0
 11
726.536533
 21
1405.510295
 31
0.0
  0
LINE
  5
34A
100
AcDbEntity
  8
1
370
    30
  6
Continuous
 62
     7
100
AcDbLine
 10
753.574248
 20
1558.607311
 30
0.0
 11
753.574248
 21
1533.510295
 31
0.0
  0
LINE
  5
34B
100
AcDbEntity
  8
1
370
    30
  6
Continuous
 62
     7
100
AcDbLine
 10
727.451889
 20
1533.510295
 30
0.0
 11
753.574248
 21
1533.510295
 31
0.0
  0
LINE
  5
34C
100
AcDbEntity
  8
1
370
    30
  6
Continuous
 62
     7
100
AcDbLine
 10
727.451889
 20
1558.607311
 30
0.0
 11
727.451889
 21
1533.510295
 31
0.0
  0
LINE
  5
34D
100
AcDbEntity
  8
1
370
    30
  6
Continuous
 62
     7
100
AcDbLine
 10
727.451889
 20
1558.607311
 30
0.0
 11
753.574248
 21
1558.607311
 31
0.0
  0
LINE
  5
34E
100
AcDbEntity
  8
1
370
    30
  6
Continuous
 62
     7
100
AcDbLine
 10
738.002872
 20
1532.510295
 30
0.0
 11
736.622264
 21
1533.509424
 31
0.0
  0
LINE
  5
34F
100
AcDbEntity
  8
1
370
    30
  6
Continuous
 62
     7
100
AcDbLine
 10
743.525305
 20
1532.510295
 30
0.0
 11
744.780403
 21
1533.510295
 31
0.0
  0
LINE
  5
350
100
AcDbEntity
  8
1
370
    30
  6
Continuous
 62
     7
100
AcDbLine
 10
738.002872
 20
1532.510295
 30
0.0
 11
743.525305
 21
1532.510295
 31
0.0
  0
LINE
  5
351
100
AcDbEntity
  8
1
370
    30
  6
Continuous
 62
     7
100
AcDbLine
 10
726.536533
 20
1530.510295
 30
0.0
 11
754.536533
 21
1530.510295
 31
0.0
  0
INSERT
  5
359
100
AcDbEntity
  8
0
370
    30
  6
Continuous
 62
     7
100
AcDbBlockReference
  2
*G35
 10
0.0
 20
0.0
 30
0.0
  0
INSERT
  5
361
100
AcDbEntity
  8
0
370
    30
  6
Continuous
 62
     7
100
AcDbBlockReference
  2
*G36
 10
0.0
 20
0.0
 30
0.0
  0
CIRCLE
  5
362
100
AcDbEntity
  8
1
370
    30
  6
Continuous
 62
     7
100
AcDbCircle
 10
740.536533
 20
1475.010295
 30
0.0
 40
2.5
  0
CIRCLE
  5
363
100
AcDbEntity
  8
1
370
    30
  6
Continuous
 62
     7
100
AcDbCircle
 10
740.536533
 20
1495.010295
 30
0.0
 40
2.5
  0
CIRCLE
  5
364
100
AcDbEntity
  8
1
370
    30
  6
Continuous
 62
     7
100
AcDbCircle
 10
740.536533
 20
1515.010295
 30
0.0
 40
2.5
  0
INSERT
  5
36C
100
AcDbEntity
  8
0
370
    30
  6
Continuous
 62
     7
100
AcDbBlockReference
  2
*G37
 10
0.0
 20
0.0
 30
0.0
  0
LINE
  5
36D
100
AcDbEntity
  8
1
370
    30
  6
Continuous
 62
     7
100
AcDbLine
 10
695.451889
 20
1404.510295
 30
0.0
 11
725.536533
 21
1404.510295
 31
0.0
  0
LINE
  5
36E
100
AcDbEntity
  8
1
370
    30
  6
Continuous
 62
     7
100
AcDbLine
 10
724.536533
 20
1405.510295
 30
0.0
 11
724.536533
 21
1530.510295
 31
0.0
  0
LINE
  5
36F
100
AcDbEntity
  8
1
370
    30
  6
Continuous
 62
     7
100
AcDbLine
 10
696.536533
 20
1405.510295
 30
0.0
 11
724.536533
 21
1405.510295
 31
0.0
  0
LINE
  5
370
100
AcDbEntity
  8
1
370
    30
  6
Continuous
 62
     7
100
AcDbLine
 10
696.536533
 20
1530.510295
 30
0.0
 11
696.536533
 21
1405.510295
 31
0.0
  0
LINE
  5
371
100
AcDbEntity
  8
1
370
    30
  6
Continuous
 62
     7
100
AcDbLine
 10
723.574248
 20
1558.607311
 30
0.0
 11
723.574248
 21
1533.510295
 31
0.0
  0
LINE
  5
372
100
AcDbEntity
  8
1
370
    30
  6
Continuous
 62
     7
100
AcDbLine
 10
697.451889
 20
1533.510295
 30
0.0
 11
723.574248
 21
1533.510295
 31
0.0
  0
LINE
  5
373
100
AcDbEntity
  8
1
370
    30
  6
Continuous
 62
     7
100
AcDbLine
 10
697.451889
 20
1558.607311
 30
0.0
 11
697.451889
 21
1533.510295
 31
0.0
  0
LINE
  5
374
100
AcDbEntity
  8
1
370
    30
  6
Continuous
 62
     7
100
AcDbLine
 10
697.451889
 20
1558.607311
 30
0.0
 11
723.574248
 21
1558.607311
 31
0.0
  0
LINE
  5
375
100
AcDbEntity
  8
1
370
    30
  6
Continuous
 62
     7
100
AcDbLine
 10
695.451889
 20
1560.627704
 30
0.0
 11
725.574248
 21
1560.627704
 31
0.0
  0
LINE
  5
376
100
AcDbEntity
  8
1
370
    30
  6
Continuous
 62
     7
100
AcDbLine
 10
708.002872
 20
1532.510295
 30
0.0
 11
706.622264
 21
1533.509424
 31
0.0
  0
LINE
  5
377
100
AcDbEntity
  8
1
370
    30
  6
Continuous
 62
     7
100
AcDbLine
 10
713.525305
 20
1532.510295
 30
0.0
 11
714.780403
 21
1533.510295
 31
0.0
  0
LINE
  5
378
100
AcDbEntity
  8
1
370
    30
  6
Continuous
 62
     7
100
AcDbLine
 10
708.002872
 20
1532.510295
 30
0.0
 11
713.525305
 21
1532.510295
 31
0.0
  0
LINE
  5
379
100
AcDbEntity
  8
1
370
    30
  6
Continuous
 62
     7
100
AcDbLine
 10
696.536533
 20
1530.510295
 30
0.0
 11
724.536533
 21
1530.510295
 31
0.0
  0
INSERT
  5
381
100
AcDbEntity
  8
0
370
    30
  6
Continuous
 62
     7
100
AcDbBlockReference
  2
*G38
 10
0.0
 20
0.0
 30
0.0
  0
INSERT
  5
389
100
AcDbEntity
  8
0
370
    30
  6
Continuous
 62
     7
100
AcDbBlockReference
  2
*G39
 10
0.0
 20
0.0
 30
0.0
  0
CIRCLE
  5
38A
100
AcDbEntity
  8
1
370
    30
  6
Continuous
 62
     7
100
AcDbCircle
 10
710.536533
 20
1475.010295
 30
0.0
 40
2.5
  0
CIRCLE
  5
38B
100
AcDbEntity
  8
1
370
    30
  6
Continuous
 62
     7
100
AcDbCircle
 10
710.536533
 20
1495.010295
 30
0.0
 40
2.5
  0
CIRCLE
  5
38C
100
AcDbEntity
  8
1
370
    30
  6
Continuous
 62
     7
100
AcDbCircle
 10
710.536533
 20
1515.010295
 30
0.0
 40
2.5
  0
INSERT
  5
394
100
AcDbEntity
  8
0
370
    30
  6
Continuous
 62
     7
100
AcDbBlockReference
  2
*G40
 10
0.0
 20
0.0
 30
0.0
  0
LINE
  5
395
100
AcDbEntity
  8
1
370
    30
  6
Continuous
 62
     7
100
AcDbLine
 10
665.451889
 20
1404.510295
 30
0.0
 11
695.536533
 21
1404.510295
 31
0.0
  0
LINE
  5
396
100
AcDbEntity
  8
1
370
    30
  6
Continuous
 62
     7
100
AcDbLine
 10
694.536533
 20
1405.510295
 30
0.0
 11
694.536533
 21
1530.510295
 31
0.0
  0
LINE
  5
397
100
AcDbEntity
  8
1
370
    30
  6
Continuous
 62
     7
100
AcDbLine
 10
666.536533
 20
1405.510295
 30
0.0
 11
694.536533
 21
1405.510295
 31
0.0
  0
LINE
  5
398
100
AcDbEntity
  8
1
370
    30
  6
Continuous
 62
     7
100
AcDbLine
 10
666.536533
 20
1530.510295
 30
0.0
 11
666.536533
 21
1405.510295
 31
0.0
  0
LINE
  5
399
100
AcDbEntity
  8
1
370
    30
  6
Continuous
 62
     7
100
AcDbLine
 10
693.574248
 20
1558.607311
 30
0.0
 11
693.574248
 21
1533.510295
 31
0.0
  0
LINE
  5
39A
100
AcDbEntity
  8
1
370
    30
  6
Continuous
 62
     7
100
AcDbLine
 10
667.451889
 20
1533.510295
 30
0.0
 11
693.574248
 21
1533.510295
 31
0.0
  0
LINE
  5
39B
100
AcDbEntity
  8
1
370
    30
  6
Continuous
 62
     7
100
AcDbLine
 10
667.451889
 20
1558.607311
 30
0.0
 11
667.451889
 21
1533.510295
 31
0.0
  0
LINE
  5
39C
100
AcDbEntity
  8
1
370
    30
  6
Continuous
 62
     7
100
AcDbLine
 10
667.451889
 20
1558.607311
 30
0.0
 11
693.574248
 21
1558.607311
 31
0.0
  0
LINE
  5
39D
100
AcDbEntity
  8
1
370
    30
  6
Continuous
 62
     7
100
AcDbLine
 10
665.451889
 20
1560.627704
 30
0.0
 11
695.574248
 21
1560.627704
 31
0.0
  0
LINE
  5
39E
100
AcDbEntity
  8
1
370
    30
  6
Continuous
 62
     7
100
AcDbLine
 10
678.002872
 20
1532.510295
 30
0.0
 11
676.622264
 21
1533.509424
 31
0.0
  0
LINE
  5
39F
100
AcDbEntity
  8
1
370
    30
  6
Continuous
 62
     7
100
AcDbLine
 10
683.525305
 20
1532.510295
 30
0.0
 11
684.780403
 21
1533.510295
 31
0.0
  0
LINE
  5
3A0
100
AcDbEntity
  8
1
370
    30
  6
Continuous
 62
     7
100
AcDbLine
 10
678.002872
 20
1532.510295
 30
0.0
 11
683.525305
 21
1532.510295
 31
0.0
  0
LINE
  5
3A1
100
AcDbEntity
  8
1
370
    30
  6
Continuous
 62
     7
100
AcDbLine
 10
666.536533
 20
1530.510295
 30
0.0
 11
694.536533
 21
1530.510295
 31
0.0
  0
INSERT
  5
3A9
100
AcDbEntity
  8
0
370
    30
  6
Continuous
 62
     7
100
AcDbBlockReference
  2
*G41
 10
0.0
 20
0.0
 30
0.0
  0
INSERT
  5
3B1
100
AcDbEntity
  8
0
370
    30
  6
Continuous
 62
     7
100
AcDbBlockReference
  2
*G42
 10
0.0
 20
0.0
 30
0.0
  0
CIRCLE
  5
3B2
100
AcDbEntity
  8
1
370
    30
  6
Continuous
 62
     7
100
AcDbCircle
 10
680.536533
 20
1475.010295
 30
0.0
 40
2.5
  0
CIRCLE
  5
3B3
100
AcDbEntity
  8
1
370
    30
  6
Continuous
 62
     7
100
AcDbCircle
 10
680.536533
 20
1495.010295
 30
0.0
 40
2.5
  0
CIRCLE
  5
3B4
100
AcDbEntity
  8
1
370
    30
  6
Continuous
 62
     7
100
AcDbCircle
 10
680.536533
 20
1515.010295
 30
0.0
 40
2.5
  0
INSERT
  5
3BC
100
AcDbEntity
  8
0
370
    30
  6
Continuous
 62
     7
100
AcDbBlockReference
  2
*G43
 10
0.0
 20
0.0
 30
0.0
  0
LINE
  5
3BD
100
AcDbEntity
  8
1
370
    30
  6
Continuous
 62
     7
100
AcDbLine
 10
635.451889
 20
1404.510295
 30
0.0
 11
665.536533
 21
1404.510295
 31
0.0
  0
LINE
  5
3BE
100
AcDbEntity
  8
1
370
    30
  6
Continuous
 62
     7
100
AcDbLine
 10
664.536533
 20
1405.510295
 30
0.0
 11
664.536533
 21
1530.510295
 31
0.0
  0
LINE
  5
3BF
100
AcDbEntity
  8
1
370
    30
  6
Continuous
 62
     7
100
AcDbLine
 10
636.536533
 20
1405.510295
 30
0.0
 11
664.536533
 21
1405.510295
 31
0.0
  0
LINE
  5
3C0
100
AcDbEntity
  8
1
370
    30
  6
Continuous
 62
     7
100
AcDbLine
 10
636.536533
 20
1530.510295
 30
0.0
 11
636.536533
 21
1405.510295
 31
0.0
  0
LINE
  5
3C1
100
AcDbEntity
  8
1
370
    30
  6
Continuous
 62
     7
100
AcDbLine
 10
663.574248
 20
1558.607311
 30
0.0
 11
663.574248
 21
1533.510295
 31
0.0
  0
LINE
  5
3C2
100
AcDbEntity
  8
1
370
    30
  6
Continuous
 62
     7
100
AcDbLine
 10
637.451889
 20
1533.510295
 30
0.0
 11
663.574248
 21
1533.510295
 31
0.0
  0
LINE
  5
3C3
100
AcDbEntity
  8
1
370
    30
  6
Continuous
 62
     7
100
AcDbLine
 10
637.451889
 20
1558.607311
 30
0.0
 11
637.451889
 21
1533.510295
 31
0.0
  0
LINE
  5
3C4
100
AcDbEntity
  8
1
370
    30
  6
Continuous
 62
     7
100
AcDbLine
 10
637.451889
 20
1558.607311
 30
0.0
 11
663.574248
 21
1558.607311
 31
0.0
  0
LINE
  5
3C5
100
AcDbEntity
  8
1
370
    30
  6
Continuous
 62
     7
100
AcDbLine
 10
635.451889
 20
1560.627704
 30
0.0
 11
665.574248
 21
1560.627704
 31
0.0
  0
LINE
  5
3C6
100
AcDbEntity
  8
1
370
    30
  6
Continuous
 62
     7
100
AcDbLine
 10
648.002872
 20
1532.510295
 30
0.0
 11
646.622264
 21
1533.509424
 31
0.0
  0
LINE
  5
3C7
100
AcDbEntity
  8
1
370
    30
  6
Continuous
 62
     7
100
AcDbLine
 10
653.525305
 20
1532.510295
 30
0.0
 11
654.780403
 21
1533.510295
 31
0.0
  0
LINE
  5
3C8
100
AcDbEntity
  8
1
370
    30
  6
Continuous
 62
     7
100
AcDbLine
 10
648.002872
 20
1532.510295
 30
0.0
 11
653.525305
 21
1532.510295
 31
0.0
  0
LINE
  5
3C9
100
AcDbEntity
  8
1
370
    30
  6
Continuous
 62
     7
100
AcDbLine
 10
636.536533
 20
1530.510295
 30
0.0
 11
664.536533
 21
1530.510295
 31
0.0
  0
INSERT
  5
3D1
100
AcDbEntity
  8
0
370
    30
  6
Continuous
 62
     7
100
AcDbBlockReference
  2
*G44
 10
0.0
 20
0.0
 30
0.0
  0
INSERT
  5
3D9
100
AcDbEntity
  8
0
370
    30
  6
Continuous
 62
     7
100
AcDbBlockReference
  2
*G45
 10
0.0
 20
0.0
 30
0.0
  0
CIRCLE
  5
3DA
100
AcDbEntity
  8
1
370
    30
  6
Continuous
 62
     7
100
AcDbCircle
 10
650.536533
 20
1475.010295
 30
0.0
 40
2.5
  0
CIRCLE
  5
3DB
100
AcDbEntity
  8
1
370
    30
  6
Continuous
 62
     7
100
AcDbCircle
 10
650.536533
 20
1495.010295
 30
0.0
 40
2.5
  0
CIRCLE
  5
3DC
100
AcDbEntity
  8
1
370
    30
  6
Continuous
 62
     7
100
AcDbCircle
 10
650.536533
 20
1515.010295
 30
0.0
 40
2.5
  0
INSERT
  5
3E4
100
AcDbEntity
  8
0
370
    30
  6
Continuous
 62
     7
100
AcDbBlockReference
  2
*G46
 10
0.0
 20
0.0
 30
0.0
  0
LINE
  5
3E5
100
AcDbEntity
  8
1
370
    30
  6
Continuous
 62
     7
100
AcDbLine
 10
634.536533
 20
1405.510295
 30
0.0
 11
634.536533
 21
1530.510295
 31
0.0
  0
LINE
  5
3E6
100
AcDbEntity
  8
1
370
    30
  6
Continuous
 62
     7
100
AcDbLine
 10
606.536533
 20
1405.510295
 30
0.0
 11
634.536533
 21
1405.510295
 31
0.0
  0
LINE
  5
3E7
100
AcDbEntity
  8
1
370
    30
  6
Continuous
 62
     7
100
AcDbLine
 10
606.536533
 20
1530.510295
 30
0.0
 11
606.536533
 21
1405.510295
 31
0.0
  0
LINE
  5
3E8
100
AcDbEntity
  8
1
370
    30
  6
Continuous
 62
     7
100
AcDbLine
 10
633.574248
 20
1558.607311
 30
0.0
 11
633.574248
 21
1533.510295
 31
0.0
  0
LINE
  5
3E9
100
AcDbEntity
  8
1
370
    30
  6
Continuous
 62
     7
100
AcDbLine
 10
607.451889
 20
1533.510295
 30
0.0
 11
633.574248
 21
1533.510295
 31
0.0
  0
LINE
  5
3EA
100
AcDbEntity
  8
1
370
    30
  6
Continuous
 62
     7
100
AcDbLine
 10
607.451889
 20
1558.607311
 30
0.0
 11
607.451889
 21
1533.510295
 31
0.0
  0
LINE
  5
3EB
100
AcDbEntity
  8
1
370
    30
  6
Continuous
 62
     7
100
AcDbLine
 10
607.451889
 20
1558.607311
 30
0.0
 11
633.574248
 21
1558.607311
 31
0.0
  0
LINE
  5
3EC
100
AcDbEntity
  8
1
370
    30
  6
Continuous
 62
     7
100
AcDbLine
 10
618.002872
 20
1532.510295
 30
0.0
 11
616.622264
 21
1533.509424
 31
0.0
  0
LINE
  5
3ED
100
AcDbEntity
  8
1
370
    30
  6
Continuous
 62
     7
100
AcDbLine
 10
623.525305
 20
1532.510295
 30
0.0
 11
624.780403
 21
1533.510295
 31
0.0
  0
LINE
  5
3EE
100
AcDbEntity
  8
1
370
    30
  6
Continuous
 62
     7
100
AcDbLine
 10
618.002872
 20
1532.510295
 30
0.0
 11
623.525305
 21
1532.510295
 31
0.0
  0
LINE
  5
3EF
100
AcDbEntity
  8
1
370
    30
  6
Continuous
 62
     7
100
AcDbLine
 10
606.536533
 20
1530.510295
 30
0.0
 11
634.536533
 21
1530.510295
 31
0.0
  0
INSERT
  5
3F7
100
AcDbEntity
  8
0
370
    30
  6
Continuous
 62
     7
100
AcDbBlockReference
  2
*G47
 10
0.0
 20
0.0
 30
0.0
  0
INSERT
  5
3FF
100
AcDbEntity
  8
0
370
    30
  6
Continuous
 62
     7
100
AcDbBlockReference
  2
*G48
 10
0.0
 20
0.0
 30
0.0
  0
CIRCLE
  5
400
100
AcDbEntity
  8
1
370
    30
  6
Continuous
 62
     7
100
AcDbCircle
 10
620.536533
 20
1475.010295
 30
0.0
 40
2.5
  0
CIRCLE
  5
401
100
AcDbEntity
  8
1
370
    30
  6
Continuous
 62
     7
100
AcDbCircle
 10
620.536533
 20
1495.010295
 30
0.0
 40
2.5
  0
CIRCLE
  5
402
100
AcDbEntity
  8
1
370
    30
  6
Continuous
 62
     7
100
AcDbCircle
 10
620.536533
 20
1515.010295
 30
0.0
 40
2.5
  0
INSERT
  5
40A
100
AcDbEntity
  8
0
370
    30
  6
Continuous
 62
     7
100
AcDbBlockReference
  2
*G49
 10
0.0
 20
0.0
 30
0.0
  0
LINE
  5
40B
100
AcDbEntity
  8
1
370
    30
  6
Continuous
 62
     7
100
AcDbLine
 10
605.536533
 20
1560.627704
 30
0.0
 11
635.574248
 21
1560.627704
 31
0.0
  0
LINE
  5
40C
100
AcDbEntity
  8
1
370
    30
  6
Continuous
 62
     7
100
AcDbLine
 10
605.536533
 20
1404.510295
 30
0.0
 11
635.536533
 21
1404.510295
 31
0.0
  0
LINE
  5
40D
100
AcDbEntity
  8
1
370
    30
  6
Continuous
 62
     7
100
AcDbLine
 10
725.451889
 20
1560.627704
 30
0.0
 11
755.536533
 21
1560.627704
 31
0.0
  0
LINE
  5
40E
100
AcDbEntity
  8
1
370
    30
  6
Continuous
 62
     7
100
AcDbLine
 10
725.451889
 20
1219.010295
 30
0.0
 11
755.536533
 21
1219.010295
 31
0.0
  0
INSERT
  5
416
100
AcDbEntity
  8
0
370
    30
  6
Continuous
 62
     7
100
AcDbBlockReference
  2
*G50
 10
0.0
 20
0.0
 30
0.0
  0
LINE
  5
417
100
AcDbEntity
  8
1
370
    30
  6
Continuous
 62
     7
100
AcDbLine
 10
695.451889
 20
1219.010295
 30
0.0
 11
725.536533
 21
1219.010295
 31
0.0
  0
LINE
  5
418
100
AcDbEntity
  8
1
370
    30
  6
Continuous
 62
     7
100
AcDbLine
 10
695.451889
 20
1375.127704
 30
0.0
 11
725.574248
 21
1375.127704
 31
0.0
  0
INSERT
  5
420
100
AcDbEntity
  8
0
370
    30
  6
Continuous
 62
     7
100
AcDbBlockReference
  2
*G51
 10
0.0
 20
0.0
 30
0.0
  0
LINE
  5
421
100
AcDbEntity
  8
1
370
    30
  6
Continuous
 62
     7
100
AcDbLine
 10
665.451889
 20
1219.010295
 30
0.0
 11
695.536533
 21
1219.010295
 31
0.0
  0
LINE
  5
422
100
AcDbEntity
  8
1
370
    30
  6
Continuous
 62
     7
100
AcDbLine
 10
665.451889
 20
1375.127704
 30
0.0
 11
695.574248
 21
1375.127704
 31
0.0
  0
INSERT
  5
42A
100
AcDbEntity
  8
0
370
    30
  6
Continuous
 62
     7
100
AcDbBlockReference
  2
*G52
 10
0.0
 20
0.0
 30
0.0
  0
LINE
  5
42B
100
AcDbEntity
  8
1
370
    30
  6
Continuous
 62
     7
100
AcDbLine
 10
635.451889
 20
1219.010295
 30
0.0
 11
665.536533
 21
1219.010295
 31
0.0
  0
LINE
  5
42C
100
AcDbEntity
  8
1
370
    30
  6
Continuous
 62
     7
100
AcDbLine
 10
635.451889
 20
1375.127704
 30
0.0
 11
665.574248
 21
1375.127704
 31
0.0
  0
INSERT
  5
434
100
AcDbEntity
  8
0
370
    30
  6
Continuous
 62
     7
100
AcDbBlockReference
  2
*G53
 10
0.0
 20
0.0
 30
0.0
  0
INSERT
  5
43C
100
AcDbEntity
  8
0
370
    30
  6
Continuous
 62
     7
100
AcDbBlockReference
  2
*G54
 10
0.0
 20
0.0
 30
0.0
  0
LINE
  5
43D
100
AcDbEntity
  8
1
370
    30
  6
Continuous
 62
     7
100
AcDbLine
 10
605.536533
 20
1375.127704
 30
0.0
 11
635.574248
 21
1375.127704
 31
0.0
  0
LINE
  5
43E
100
AcDbEntity
  8
1
370
    30
  6
Continuous
 62
     7
100
AcDbLine
 10
605.536533
 20
1219.010295
 30
0.0
 11
635.536533
 21
1219.010295
 31
0.0
  0
LINE
  5
43F
100
AcDbEntity
  8
1
370
    30
  6
Continuous
 62
     7
100
AcDbLine
 10
725.451889
 20
1375.127704
 30
0.0
 11
755.536533
 21
1375.127704
 31
0.0
  0
LINE
  5
440
100
AcDbEntity
  8
25
370
    30
  6
Continuous
 62
     7
100
AcDbLine
 10
1366.179643
 20
1623.010295
 30
0.0
 11
1866.179643
 21
1623.010295
 31
0.0
  0
LINE
  5
441
100
AcDbEntity
  8
25
370
    30
  6
Continuous
 62
     7
100
AcDbLine
 10
1866.179643
 20
1623.010295
 30
0.0
 11
1866.179643
 21
1123.010295
 31
0.0
  0
LINE
  5
442
100
AcDbEntity
  8
25
370
    30
  6
Continuous
 62
     7
100
AcDbLine
 10
1866.179643
 20
1123.010295
 30
0.0
 11
1366.179643
 21
1123.010295
 31
0.0
  0
LINE
  5
443
100
AcDbEntity
  8
25
370
    30
  6
Continuous
 62
     7
100
AcDbLine
 10
1366.179643
 20
1123.010295
 30
0.0
 11
1366.179643
 21
1623.010295
 31
0.0
  0
CIRCLE
  5
444
100
AcDbEntity
  8
1
370
    30
  6
Continuous
 62
     7
100
AcDbCircle
 10
1386.179643
 20
1563.010295
 30
0.0
 40
8.0
  0
LINE
  5
445
100
AcDbEntity
  8
8
370
     9
  6
CENTER
 62
     6
100
AcDbLine
 10
1386.179643
 20
1581.114249
 30
0.0
 11
1386.179643
 21
1544.916832
 31
0.0
  0
LINE
  5
446
100
AcDbEntity
  8
8
370
     9
  6
CENTER
 62
     6
100
AcDbLine
 10
1371.828839
 20
1563.010295
 30
0.0
 11
1410.810673
 21
1563.010295
 31
0.0
  0
CIRCLE
  5
447
100
AcDbEntity
  8
1
370
    30
  6
Continuous
 62
     7
100
AcDbCircle
 10
1386.179643
 20
1183.010295
 30
0.0
 40
8.0
  0
LINE
  5
448
100
AcDbEntity
  8
8
370
     9
  6
CENTER
 62
     6
100
AcDbLine
 10
1386.179643
 20
1201.114249
 30
0.0
 11
1386.179643
 21
1164.916832
 31
0.0
  0
LINE
  5
449
100
AcDbEntity
  8
8
370
     9
  6
CENTER
 62
     6
100
AcDbLine
 10
1371.828839
 20
1183.010295
 30
0.0
 11
1410.810673
 21
1183.010295
 31
0.0
  0
CIRCLE
  5
44A
100
AcDbEntity
  8
1
370
    30
  6
Continuous
 62
     7
100
AcDbCircle
 10
1846.179643
 20
1563.010295
 30
0.0
 40
8.0
  0
LINE
  5
44B
100
AcDbEntity
  8
8
370
     9
  6
CENTER
 62
     6
100
AcDbLine
 10
1846.179643
 20
1581.114249
 30
0.0
 11
1846.179643
 21
1544.916832
 31
0.0
  0
LINE
  5
44C
100
AcDbEntity
  8
8
370
     9
  6
CENTER
 62
     6
100
AcDbLine
 10
1831.828839
 20
1563.010295
 30
0.0
 11
1870.810673
 21
1563.010295
 31
0.0
  0
CIRCLE
  5
44D
100
AcDbEntity
  8
1
370
    30
  6
Continuous
 62
     7
100
AcDbCircle
 10
1846.179643
 20
1183.010295
 30
0.0
 40
8.0
  0
LINE
  5
44E
100
AcDbEntity
  8
8
370
     9
  6
CENTER
 62
     6
100
AcDbLine
 10
1846.179643
 20
1201.114249
 30
0.0
 11
1846.179643
 21
1164.916832
 31
0.0
  0
LINE
  5
44F
100
AcDbEntity
  8
8
370
     9
  6
CENTER
 62
     6
100
AcDbLine
 10
1831.828839
 20
1183.010295
 30
0.0
 11
1870.810673
 21
1183.010295
 31
0.0
  0
TEXT
  5
450
100
AcDbEntity
  8
15
370
     9
  6
PHANTOM
 62
    96
100
AcDbText
 10
2420.277692
 20
1797.752159
 30
0.0
 40
21.0
  1
S12-55C（日東工業（株）製）
 41
0.766667
 11
2420.277692
 21
1797.752159
 31
0.0
100
AcDbText
 73
     1
  0
DIMENSION
  5
45C
100
AcDbEntity
  8
2
370
     9
  6
Continuous
 62
   214
100
AcDbDimension
  2
*D55
 10
355.286533
 20
1693.010295
 30
0.0
 11
605.286533
 21
1696.510295
 31
0.0
 71
     5
 72
     1
 41
1.0
 42
0.0
  1
500
100
AcDbAlignedDimension
 13
355.286533
 23
1637.010295
 33
0.0
 14
855.286533
 24
1637.010295
 34
0.0
100
AcDbRotatedDimension
  0
DIMENSION
  5
468
100
AcDbEntity
  8
2
370
     9
  6
Continuous
 62
   214
100
AcDbDimension
  2
*D56
 10
1386.179643
 20
1693.010295
 30
0.0
 11
1616.179643
 21
1696.510295
 31
0.0
 71
     5
 72
     1
 41
1.0
 42
0.0
  1
460
100
AcDbAlignedDimension
 13
1386.179643
 23
1594.706494
 33
0.0
 14
1846.179643
 24
1593.568667
 34
0.0
100
AcDbRotatedDimension
  0
DIMENSION
  5
474
100
AcDbEntity
  8
2
370
     9
  6
Continuous
 62
   214
100
AcDbDimension
  2
*D57
 10
1936.179643
 20
1563.010295
 30
0.0
 11
1932.679643
 21
1373.010295
 31
0.0
 71
     5
 72
     1
 41
1.0
 42
0.0
  1
380
100
AcDbAlignedDimension
 13
1880.179643
 23
1563.010295
 33
0.0
 14
1876.758822
 24
1183.010295
 34
0.0
 50
90.0
100
AcDbRotatedDimension
  0
TEXT
  5
475
100
AcDbEntity
  8
15
370
     9
  6
Continuous
 62
    96
100
AcDbText
 10
2539.627692
 20
1566.684035
 30
0.0
 40
21.0
  1
約18kg
 41
0.615385
 11
2539.627692
 21
1566.684035
 31
0.0
100
AcDbText
 73
     1
  0
LINE
  5
476
100
AcDbEntity
  8
24
370
    30
  6
Continuous
 62
     7
100
AcDbLine
 10
1069.046833
 20
1623.010295
 30
0.0
 11
1189.046833
 21
1623.010295
 31
0.0
  0
LINE
  5
477
100
AcDbEntity
  8
24
370
    30
  6
Continuous
 62
     7
100
AcDbLine
 10
1189.046833
 20
1623.010295
 30
0.0
 11
1189.046833
 21
1123.010295
 31
0.0
  0
LINE
  5
478
100
AcDbEntity
  8
24
370
    30
  6
Continuous
 62
     7
100
AcDbLine
 10
1189.046833
 20
1123.010295
 30
0.0
 11
1069.046833
 21
1123.010295
 31
0.0
  0
LINE
  5
479
100
AcDbEntity
  8
24
370
    30
  6
Continuous
 62
     7
100
AcDbLine
 10
1069.046833
 20
1123.010295
 30
0.0
 11
1069.046833
 21
1623.010295
 31
0.0
  0
ARC
  5
47A
100
AcDbEntity
  8
24
370
    30
  6
Continuous
 62
     7
100
AcDbCircle
 10
1069.046833
 20
1123.010295
 30
0.0
 40
0.25
100
AcDbArc
 50
0.0
 51
180.0
  0
ARC
  5
47B
100
AcDbEntity
  8
24
370
    30
  6
Continuous
 62
     7
100
AcDbCircle
 10
1069.046833
 20
1123.010295
 30
0.0
 40
0.25
100
AcDbArc
 50
180.0
 51
0.0
  0
ARC
  5
47C
100
AcDbEntity
  8
24
370
    30
  6
Continuous
 62
     7
100
AcDbCircle
 10
1189.046833
 20
1623.010295
 30
0.0
 40
0.25
100
AcDbArc
 50
0.0
 51
180.0
  0
ARC
  5
47D
100
AcDbEntity
  8
24
370
    30
  6
Continuous
 62
     7
100
AcDbCircle
 10
1189.046833
 20
1623.010295
 30
0.0
 40
0.25
100
AcDbArc
 50
-180.0
 51
0.0
  0
LINE
  5
47E
100
AcDbEntity
  8
24
370
    30
  6
Continuous
 62
     7
100
AcDbLine
 10
1084.046833
 20
1123.010295
 30
0.0
 11
1084.046833
 21
1623.010295
 31
0.0
  0
LINE
  5
47F
100
AcDbEntity
  8
24
370
    30
  6
Continuous
 62
     7
100
AcDbLine
 10
1069.046833
 20
1331.010295
 30
0.0
 11
1069.046833
 21
1415.010295
 31
0.0
  0
LINE
  5
480
100
AcDbEntity
  8
24
370
    30
  6
Continuous
 62
     7
100
AcDbLine
 10
1066.546833
 20
1401.010295
 30
0.0
 11
1066.546833
 21
1345.010295
 31
0.0
  0
LINE
  5
481
100
AcDbEntity
  8
24
370
    30
  6
Continuous
 62
     7
100
AcDbLine
 10
1066.546833
 20
1408.833365
 30
0.0
 11
1066.546833
 21
1413.665235
 31
0.0
  0
LINE
  5
482
100
AcDbEntity
  8
24
370
    30
  6
Continuous
 62
     7
100
AcDbLine
 10
1066.546833
 20
1413.665235
 30
0.0
 11
1066.546833
 21
1415.010295
 31
0.0
  0
LINE
  5
483
100
AcDbEntity
  8
24
370
    30
  6
Continuous
 62
     7
100
AcDbLine
 10
1066.546833
 20
1331.010295
 30
0.0
 11
1066.546833
 21
1332.355355
 31
0.0
  0
LINE
  5
484
100
AcDbEntity
  8
24
370
    30
  6
Continuous
 62
     7
100
AcDbLine
 10
1066.546833
 20
1337.187225
 30
0.0
 11
1066.546833
 21
1345.010295
 31
0.0
  0
LINE
  5
485
100
AcDbEntity
  8
24
370
    30
  6
Continuous
 62
     7
100
AcDbLine
 10
1066.546833
 20
1401.010295
 30
0.0
 11
1066.546833
 21
1408.833365
 31
0.0
  0
LINE
  5
486
100
AcDbEntity
  8
24
370
    30
  6
Continuous
 62
     7
100
AcDbLine
 10
1066.546833
 20
1332.355355
 30
0.0
 11
1066.546833
 21
1337.187225
 31
0.0
  0
LINE
  5
487
100
AcDbEntity
  8
24
370
    30
  6
Continuous
 62
     7
100
AcDbLine
 10
1064.369483
 20
1392.510295
 30
0.0
 11
1064.369483
 21
1346.757775
 31
0.0
  0
LINE
  5
488
100
AcDbEntity
  8
24
370
    30
  6
Continuous
 62
     7
100
AcDbLine
 10
1069.046833
 20
1415.010295
 30
0.0
 11
1066.539753
 21
1415.010295
 31
0.0
  0
LINE
  5
489
100
AcDbEntity
  8
24
370
    30
  6
Continuous
 62
     7
100
AcDbLine
 10
1066.539753
 20
1331.010295
 30
0.0
 11
1069.046833
 21
1331.010295
 31
0.0
  0
LINE
  5
48A
100
AcDbEntity
  8
24
370
    30
  6
Continuous
 62
     7
100
AcDbLine
 10
1062.546833
 20
1348.860295
 30
0.0
 11
1062.546833
 21
1344.968215
 31
0.0
  0
LINE
  5
48B
100
AcDbEntity
  8
24
370
    30
  6
Continuous
 62
     7
100
AcDbLine
 10
1063.323663
 20
1347.214535
 30
0.0
 11
1063.323663
 21
1389.510295
 31
0.0
  0
LINE
  5
48C
100
AcDbEntity
  8
24
370
    30
  6
Continuous
 62
     7
100
AcDbLine
 10
1062.546833
 20
1358.510295
 30
0.0
 11
1062.546833
 21
1356.160295
 31
0.0
  0
LINE
  5
48D
100
AcDbEntity
  8
24
370
    30
  6
Continuous
 62
     7
100
AcDbLine
 10
1062.948623
 20
1348.860295
 30
0.0
 11
1062.948623
 21
1356.160295
 31
0.0
  0
LINE
  5
48E
100
AcDbEntity
  8
24
370
    30
  6
Continuous
 62
     7
100
AcDbLine
 10
1062.546833
 20
1393.510025
 30
0.0
 11
1062.546833
 21
1400.132915
 31
0.0
  0
LINE
  5
48F
100
AcDbEntity
  8
24
370
    30
  6
Continuous
 62
     7
100
AcDbLine
 10
1062.546833
 20
1382.813765
 30
0.0
 11
1062.546833
 21
1368.510295
 31
0.0
  0
ARC
  5
490
100
AcDbEntity
  8
24
370
    30
  6
Continuous
 62
     7
100
AcDbCircle
 10
1068.546833
 20
1389.510295
 30
0.0
 40
12.2
100
AcDbArc
 50
114.264714
 51
119.459175
  0
ARC
  5
491
100
AcDbEntity
  8
24
370
    30
  6
Continuous
 62
     7
100
AcDbCircle
 10
1050.210883
 20
1347.903365
 30
0.0
 40
14.25597
100
AcDbArc
 50
-12.386164
 51
-10.916466
  0
ARC
  5
492
100
AcDbEntity
  8
24
370
    30
  6
Continuous
 62
     7
100
AcDbCircle
 10
1056.664583
 20
1346.753955
 30
0.0
 40
7.70201
100
AcDbArc
 50
-11.619355
 51
0.028279
  0
ARC
  5
493
100
AcDbEntity
  8
24
370
    30
  6
Continuous
 62
     7
100
AcDbCircle
 10
1025.960553
 20
1392.210975
 30
0.0
 40
38.40903
100
AcDbArc
 50
0.446574
 51
6.570908
  0
ARC
  5
494
100
AcDbEntity
  8
24
370
    30
  6
Continuous
 62
     7
100
AcDbCircle
 10
1018.956383
 20
1392.143655
 30
0.0
 40
45.37999
100
AcDbArc
 50
5.641102
 51
11.01236
  0
ARC
  5
495
100
AcDbEntity
  8
24
370
    30
  6
Continuous
 62
     7
100
AcDbCircle
 10
1071.942983
 20
1336.916355
 30
0.0
 40
8.0
100
AcDbArc
 50
-167.364087
 51
-132.41614
  0
ARC
  5
496
100
AcDbEntity
  8
24
370
    30
  6
Continuous
 62
     7
100
AcDbCircle
 10
2247.761313
 20
1631.889625
 30
0.0
 40
1206.59448
100
AcDbArc
 50
-169.05613
 51
-168.959182
  0
ARC
  5
497
100
AcDbEntity
  8
24
370
    30
  6
Continuous
 62
     7
100
AcDbCircle
 10
1108.046833
 20
1345.010295
 30
0.0
 40
45.0
100
AcDbArc
 50
-177.400626
 51
-167.364087
  0
ARC
  5
498
100
AcDbEntity
  8
24
370
    30
  6
Continuous
 62
     7
100
AcDbCircle
 10
1132.183043
 20
1282.840125
 30
0.0
 40
91.86691
100
AcDbArc
 50
137.849706
 51
138.535907
  0
ARC
  5
499
100
AcDbEntity
  8
24
370
    30
  6
Continuous
 62
     7
100
AcDbCircle
 10
1108.046833
 20
1401.010295
 30
0.0
 40
45.0
100
AcDbArc
 50
167.364087
 51
177.406801
  0
ARC
  5
49A
100
AcDbEntity
  8
24
370
    30
  6
Continuous
 62
     7
100
AcDbCircle
 10
1071.942983
 20
1409.104235
 30
0.0
 40
8.0
100
AcDbArc
 50
132.416399
 51
167.364087
  0
ARC
  5
49B
100
AcDbEntity
  8
24
370
    30
  6
Continuous
 62
     7
100
AcDbCircle
 10
1064.092313
 20
1403.010295
 30
0.0
 40
1.0
100
AcDbArc
 50
177.935403
 51
-169.080121
  0
ARC
  5
49C
100
AcDbEntity
  8
24
370
    30
  6
Continuous
 62
     7
100
AcDbCircle
 10
1064.092313
 20
1343.010295
 30
0.0
 40
1.0
100
AcDbArc
 50
138.734051
 51
-177.653197
  0
ARC
  5
49D
100
AcDbEntity
  8
24
370
    30
  6
Continuous
 62
     7
100
AcDbCircle
 10
1162.236373
 20
1255.937925
 30
0.0
 40
132.20157
100
AcDbArc
 50
137.947719
 51
138.423264
  0
ARC
  5
49E
100
AcDbEntity
  8
24
370
    30
  6
Continuous
 62
     7
100
AcDbCircle
 10
1076.424643
 20
1385.731305
 30
0.0
 40
20.0
100
AcDbArc
 50
133.938889
 51
143.743421
  0
ARC
  5
49F
100
AcDbEntity
  8
24
370
    30
  6
Continuous
 62
     7
100
AcDbCircle
 10
1065.857963
 20
1356.710295
 30
0.0
 40
12.2
100
AcDbArc
 50
-105.747857
 51
-98.34702
  0
ARC
  5
4A0
100
AcDbEntity
  8
24
370
    30
  6
DOT
 62
     7
100
AcDbCircle
 10
1032.158853
 20
1363.522835
 30
0.0
 40
30.7946
100
AcDbArc
 50
-9.221411
 51
-9.106682
  0
ARC
  5
4A1
100
AcDbEntity
  8
24
370
    30
  6
Continuous
 62
     7
100
AcDbCircle
 10
1032.158853
 20
1363.522835
 30
0.0
 40
30.7946
100
AcDbArc
 50
-9.106682
 51
9.319386
  0
ARC
  5
4A2
100
AcDbEntity
  8
24
370
    30
  6
Continuous
 62
     7
100
AcDbCircle
 10
1062.946833
 20
1348.860295
 30
0.0
 40
0.4
100
AcDbArc
 50
90.000003
 51
-179.999995
  0
ARC
  5
4A3
100
AcDbEntity
  8
24
370
    30
  6
Continuous
 62
     7
100
AcDbCircle
 10
1062.946833
 20
1356.160295
 30
0.0
 40
0.4
100
AcDbArc
 50
-179.999995
 51
-89.999999
  0
ARC
  5
4A4
100
AcDbEntity
  8
24
370
    30
  6
Continuous
 62
     7
100
AcDbCircle
 10
1017.718063
 20
1390.046825
 30
0.0
 40
45.40852
100
AcDbArc
 50
-8.51059
 51
-0.046087
  0
ARC
  5
4A5
100
AcDbEntity
  8
24
370
    30
  6
Continuous
 62
     7
100
AcDbCircle
 10
1018.648873
 20
1390.009825
 30
0.0
 40
44.4777
100
AcDbArc
 50
0.000612
 51
2.196198
  0
ARC
  5
4A6
100
AcDbEntity
  8
24
370
    30
  6
Continuous
 62
     7
100
AcDbCircle
 10
1052.638413
 20
1389.510295
 30
0.0
 40
10.68526
100
AcDbArc
 50
21.982455
 51
43.882415
  0
ARC
  5
4A7
100
AcDbEntity
  8
24
370
    30
  6
Continuous
 62
     7
100
AcDbCircle
 10
1052.651533
 20
1389.514635
 30
0.0
 40
10.67146
100
AcDbArc
 50
14.631672
 51
21.987212
  0
ARC
  5
4A8
100
AcDbEntity
  8
24
370
    30
  6
Continuous
 62
     7
100
AcDbCircle
 10
1063.046833
 20
1358.510295
 30
0.0
 40
0.5
100
AcDbArc
 50
164.164007
 51
-179.999995
  0
ARC
  5
4A9
100
AcDbEntity
  8
24
370
    30
  6
Continuous
 62
     7
100
AcDbCircle
 10
1063.046833
 20
1368.510295
 30
0.0
 40
0.5
100
AcDbArc
 50
-179.999995
 51
-158.703889
  0
ARC
  5
4AA
100
AcDbEntity
  8
24
370
    30
  6
Continuous
 62
     7
100
AcDbCircle
 10
1060.700343
 20
1397.263705
 30
0.0
 40
0.5
100
AcDbArc
 50
143.743244
 51
-136.117587
  0
ARC
  5
4AB
100
AcDbEntity
  8
24
370
    30
  6
Continuous
 62
     7
100
AcDbCircle
 10
1052.673603
 20
1389.514815
 30
0.0
 40
10.65007
100
AcDbArc
 50
-0.024314
 51
14.660742
  0
POLYLINE
  5
4AC
100
AcDbEntity
  8
24
370
    30
  6
Continuous
 62
     7
100
AcDb2dPolyline
 66
     1
 10
0.0
 20
0.0
 30
0.0
  0
VERTEX
  5
4AD
100
AcDbEntity
  8
24
370
    30
  6
Continuous
 62
     7
100
AcDbVertex
100
AcDb2dVertex
 10
1062.626563
 20
1383.326715
 30
0.0
  0
VERTEX
  5
4AE
100
AcDbEntity
  8
24
370
    30
  6
Continuous
 62
     7
100
AcDbVertex
100
AcDb2dVertex
 10
1062.576583
 20
1382.997615
 30
0.0
  0
VERTEX
  5
4AF
100
AcDbEntity
  8
24
370
    30
  6
Continuous
 62
     7
100
AcDbVertex
100
AcDb2dVertex
 10
1062.552883
 20
1382.847525
 30
0.0
  0
VERTEX
  5
4B0
100
AcDbEntity
  8
24
370
    30
  6
Continuous
 62
     7
100
AcDbVertex
100
AcDb2dVertex
 10
1062.546833
 20
1382.810295
 30
0.0
  0
SEQEND
  5
4B1
100
AcDbEntity
  8
24
370
    30
  6
Continuous
 62
     7
  0
POLYLINE
  5
4B2
100
AcDbEntity
  8
24
370
    30
  6
Continuous
 62
     7
100
AcDb2dPolyline
 66
     1
 10
0.0
 20
0.0
 30
0.0
  0
VERTEX
  5
4B3
100
AcDbEntity
  8
24
370
    30
  6
Continuous
 62
     7
100
AcDbVertex
100
AcDb2dVertex
 10
1063.019913
 20
1345.382765
 30
0.0
  0
VERTEX
  5
4B4
100
AcDbEntity
  8
24
370
    30
  6
Continuous
 62
     7
100
AcDbVertex
100
AcDb2dVertex
 10
1062.846913
 20
1345.228615
 30
0.0
  0
VERTEX
  5
4B5
100
AcDbEntity
  8
24
370
    30
  6
Continuous
 62
     7
100
AcDbVertex
100
AcDb2dVertex
 10
1062.680703
 20
1345.083005
 30
0.0
  0
VERTEX
  5
4B6
100
AcDbEntity
  8
24
370
    30
  6
Continuous
 62
     7
100
AcDbVertex
100
AcDb2dVertex
 10
1062.580433
 20
1344.996675
 30
0.0
  0
VERTEX
  5
4B7
100
AcDbEntity
  8
24
370
    30
  6
Continuous
 62
     7
100
AcDbVertex
100
AcDb2dVertex
 10
1062.546833
 20
1344.968215
 30
0.0
  0
SEQEND
  5
4B8
100
AcDbEntity
  8
24
370
    30
  6
Continuous
 62
     7
  0
POLYLINE
  5
4B9
100
AcDbEntity
  8
24
370
    30
  6
Continuous
 62
     7
100
AcDb2dPolyline
 66
     1
 10
0.0
 20
0.0
 30
0.0
  0
VERTEX
  5
4BA
100
AcDbEntity
  8
24
370
    30
  6
Continuous
 62
     7
100
AcDbVertex
100
AcDb2dVertex
 10
1063.323663
 20
1347.214535
 30
0.0
  0
VERTEX
  5
4BB
100
AcDbEntity
  8
24
370
    30
  6
Continuous
 62
     7
100
AcDbVertex
100
AcDb2dVertex
 10
1063.291053
 20
1346.474725
 30
0.0
  0
VERTEX
  5
4BC
100
AcDbEntity
  8
24
370
    30
  6
Continuous
 62
     7
100
AcDbVertex
100
AcDb2dVertex
 10
1063.211733
 20
1345.908905
 30
0.0
  0
VERTEX
  5
4BD
100
AcDbEntity
  8
24
370
    30
  6
Continuous
 62
     7
100
AcDbVertex
100
AcDb2dVertex
 10
1063.131603
 20
1345.598955
 30
0.0
  0
VERTEX
  5
4BE
100
AcDbEntity
  8
24
370
    30
  6
Continuous
 62
     7
100
AcDbVertex
100
AcDb2dVertex
 10
1063.081133
 20
1345.474325
 30
0.0
  0
VERTEX
  5
4BF
100
AcDbEntity
  8
24
370
    30
  6
Continuous
 62
     7
100
AcDbVertex
100
AcDb2dVertex
 10
1063.042073
 20
1345.408645
 30
0.0
  0
VERTEX
  5
4C0
100
AcDbEntity
  8
24
370
    30
  6
Continuous
 62
     7
100
AcDbVertex
100
AcDb2dVertex
 10
1063.019913
 20
1345.382765
 30
0.0
  0
SEQEND
  5
4C1
100
AcDbEntity
  8
24
370
    30
  6
Continuous
 62
     7
  0
POLYLINE
  5
4C2
100
AcDbEntity
  8
24
370
    30
  6
Continuous
 62
     7
100
AcDb2dPolyline
 66
     1
 10
0.0
 20
0.0
 30
0.0
  0
VERTEX
  5
4C3
100
AcDbEntity
  8
24
370
    30
  6
Continuous
 62
     7
100
AcDbVertex
100
AcDb2dVertex
 10
1064.135073
 20
1344.845725
 30
0.0
  0
VERTEX
  5
4C4
100
AcDbEntity
  8
24
370
    30
  6
Continuous
 62
     7
100
AcDbVertex
100
AcDb2dVertex
 10
1064.085023
 20
1344.637635
 30
0.0
  0
VERTEX
  5
4C5
100
AcDbEntity
  8
24
370
    30
  6
Continuous
 62
     7
100
AcDbVertex
100
AcDb2dVertex
 10
1064.017843
 20
1344.429055
 30
0.0
  0
SEQEND
  5
4C6
100
AcDbEntity
  8
24
370
    30
  6
Continuous
 62
     7
  0
DIMENSION
  5
4D2
100
AcDbEntity
  8
2
370
     9
  6
Continuous
 62
   214
100
AcDbDimension
  2
*D58
 10
1069.046833
 20
1693.010295
 30
0.0
 11
1129.046833
 21
1696.510295
 31
0.0
 71
     5
 72
     1
 41
1.0
 42
0.0
  1
120
100
AcDbAlignedDimension
 13
1069.046833
 23
1636.999849
 33
0.0
 14
1189.046833
 24
1636.611508
 34
0.0
100
AcDbRotatedDimension
  0
DIMENSION
  5
4DE
100
AcDbEntity
  8
2
370
     9
  6
Continuous
 62
   214
100
AcDbDimension
  2
*D59
 10
925.286533
 20
1623.010295
 30
0.0
 11
921.786533
 21
1373.010295
 31
0.0
 71
     5
 72
     1
 41
1.0
 42
0.0
  1
500
100
AcDbAlignedDimension
 13
863.524025
 23
1623.010295
 33
0.0
 14
858.735731
 24
1123.010295
 34
0.0
 50
90.0
100
AcDbRotatedDimension
  0
TEXT
  5
4DF
100
AcDbEntity
  8
15
370
     9
  6
PHANTOM
 62
    96
100
AcDbText
 10
2495.527692
 20
1874.774867
 30
0.0
 40
21.0
  1
０５０４２４４
 41
0.880952
 11
2495.527692
 21
1874.774867
 31
0.0
100
AcDbText
 73
     1
  0
TEXT
  5
4E0
100
AcDbEntity
  8
15
370
     9
  6
Continuous
 62
    96
100
AcDbText
 10
2322.59824
 20
367.582575
 30
0.0
 40
35.0
  1
ＳＵＢ－Ｌ１５ＮＢ
 41
0.862963
 11
2322.59824
 21
367.582575
 31
0.0
100
AcDbText
 73
     1
  0
TEXT
  5
4E1
100
AcDbEntity
  8
15
370
     9
  6
Continuous
 62
    96
100
AcDbText
 10
2751.943896
 20
1374.943696
 30
0.0
 40
21.0
  1
15点
 41
0.666667
 11
2751.943896
 21
1374.943696
 31
0.0
100
AcDbText
 73
     1
  0
TEXT
  5
4E2
100
AcDbEntity
  8
15
370
     9
  6
Continuous
 62
    96
100
AcDbText
 10
2751.339296
 20
1338.2327
 30
0.0
 40
21.0
  1
15点
 41
0.666667
 11
2751.339296
 21
1338.2327
 31
0.0
100
AcDbText
 73
     1
  0
TEXT
  5
4E3
100
AcDbEntity
  8
15
370
     9
  6
Continuous
 62
    96
100
AcDbText
 10
2751.622741
 20
1296.429824
 30
0.0
 40
21.0
  1
15点
 41
0.666667
 11
2751.622741
 21
1296.429824
 31
0.0
100
AcDbText
 73
     1
  0
LINE
  5
4E4
100
AcDbEntity
  8
2
370
     9
  6
Continuous
 62
   214
100
AcDbLine
 10
397.500823
 20
1413.665231
 30
0.0
 11
383.05557
 21
1422.242799
 31
0.0
  0
LINE
  5
4E5
100
AcDbEntity
  8
2
370
     9
  6
Continuous
 62
   214
100
AcDbLine
 10
397.500823
 20
1413.665231
 30
0.0
 11
389.27965
 21
1428.316249
 31
0.0
  0
POLYLINE
  5
4E6
100
AcDbEntity
  8
2
370
     9
  6
Continuous
 62
   214
100
AcDb2dPolyline
 66
     1
 10
0.0
 20
0.0
 30
0.0
  0
VERTEX
  5
4E7
100
AcDbEntity
  8
2
370
     9
  6
Continuous
 62
   214
100
AcDbVertex
100
AcDb2dVertex
 10
397.500823
 20
1413.665231
 30
0.0
  0
VERTEX
  5
4E8
100
AcDbEntity
  8
2
370
     9
  6
Continuous
 62
   214
100
AcDbVertex
100
AcDb2dVertex
 10
323.555556
 20
1489.444444
 30
0.0
  0
VERTEX
  5
4E9
100
AcDbEntity
  8
2
370
     9
  6
Continuous
 62
   214
100
AcDbVertex
100
AcDb2dVertex
 10
190.555556
 20
1489.444444
 30
0.0
  0
SEQEND
  5
4EA
100
AcDbEntity
  8
2
370
     9
  6
Continuous
 62
   214
  0
TEXT
  5
4EB
100
AcDbEntity
  8
2
370
     9
  6
Continuous
 62
   214
100
AcDbText
 10
190.555556
 20
1492.944444
 30
0.0
 40
21.0
  1
平面ハンドル
 41
0.87963
 11
190.555556
 21
1492.944444
 31
0.0
100
AcDbText
 73
     1
  0
LINE
  5
4EC
100
AcDbEntity
  8
2
370
     9
  6
Continuous
 62
   214
100
AcDbLine
 10
1851.657358
 20
1568.840787
 30
0.0
 11
1858.45522
 21
1584.204025
 31
0.0
  0
LINE
  5
4ED
100
AcDbEntity
  8
2
370
     9
  6
Continuous
 62
   214
100
AcDbLine
 10
1851.657358
 20
1568.840787
 30
0.0
 11
1865.226098
 21
1578.74681
 31
0.0
  0
POLYLINE
  5
4EE
100
AcDbEntity
  8
2
370
     9
  6
Continuous
 62
   214
100
AcDb2dPolyline
 66
     1
 10
0.0
 20
0.0
 30
0.0
  0
VERTEX
  5
4EF
100
AcDbEntity
  8
2
370
     9
  6
Continuous
 62
   214
100
AcDbVertex
100
AcDb2dVertex
 10
1851.657358
 20
1568.840787
 30
0.0
  0
VERTEX
  5
4F0
100
AcDbEntity
  8
2
370
     9
  6
Continuous
 62
   214
100
AcDbVertex
100
AcDb2dVertex
 10
1920.679012
 20
1654.477366
 30
0.0
  0
VERTEX
  5
4F1
100
AcDbEntity
  8
2
370
     9
  6
Continuous
 62
   214
100
AcDbVertex
100
AcDb2dVertex
 10
2010.279012
 20
1654.477366
 30
0.0
  0
SEQEND
  5
4F2
100
AcDbEntity
  8
2
370
     9
  6
Continuous
 62
   214
  0
TEXT
  5
4F3
100
AcDbEntity
  8
2
370
     9
  6
Continuous
 62
   214
100
AcDbText
 10
1920.679012
 20
1657.977366
 30
0.0
 40
21.0
  1
４－Φ16
 41
0.761905
 11
1920.679012
 21
1657.977366
 31
0.0
100
AcDbText
 73
     1
  0
LINE
  5
4F4
100
AcDbEntity
  8
2
370
     9
  6
HIDDEN
 62
   214
100
AcDbLine
 10
1354.491909
 20
1373.010295
 30
0.0
 11
1883.946972
 21
1373.010295
 31
0.0
  0
LINE
  5
4F5
100
AcDbEntity
  8
2
370
     9
  6
HIDDEN
 62
   214
100
AcDbLine
 10
1616.179643
 20
1646.031169
 30
0.0
 11
1616.179643
 21
1106.157369
 31
0.0
  0
INSERT
  5
4FD
100
AcDbEntity
  8
0
370
    30
  6
Continuous
 62
    14
100
AcDbBlockReference
  2
*G60
 10
0.0
 20
0.0
 30
0.0
  0
DIMENSION
  5
509
100
AcDbEntity
  8
2
370
     9
  6
Continuous
 62
   214
100
AcDbDimension
  2
*D61
 10
1516.179643
 20
1060.590772
 30
0.0
 11
1616.179643
 21
1064.090772
 31
0.0
 71
     5
 72
     1
 41
1.0
 42
0.0
  1
200
100
AcDbAlignedDimension
 13
1516.179643
 23
1135.795977
 33
0.0
 14
1716.179643
 24
1136.205671
 34
0.0
100
AcDbRotatedDimension
  0
DIMENSION
  5
515
100
AcDbEntity
  8
2
370
     9
  6
Continuous
 62
   214
100
AcDbDimension
  2
*D62
 10
1294.718369
 20
1188.010295
 30
0.0
 11
1291.218369
 21
1168.010295
 31
0.0
 71
     5
 72
     1
 41
1.0
 42
0.0
  1
40
100
AcDbAlignedDimension
 13
1502.179643
 23
1188.010295
 33
0.0
 14
1502.179643
 24
1148.010295
 34
0.0
 50
90.0
100
AcDbRotatedDimension
  0
LINE
  5
516
100
AcDbEntity
  8
2
370
     9
  6
HIDDEN
 62
   214
100
AcDbLine
 10
1502.970292
 20
1168.010295
 30
0.0
 11
1729.735724
 21
1168.010295
 31
0.0
  0
DIMENSION
  5
522
100
AcDbEntity
  8
2
370
     9
  6
Continuous
 62
   214
100
AcDbDimension
  2
*D63
 10
1759.724315
 20
1168.010295
 30
0.0
 11
1756.224315
 21
1145.510295
 31
0.0
 71
     5
 72
     1
 41
1.0
 42
0.0
  1
45
100
AcDbAlignedDimension
 13
1739.446614
 23
1168.010295
 33
0.0
 14
1739.446614
 24
1123.010295
 34
0.0
 50
90.0
100
AcDbRotatedDimension
  0
LINE
  5
523
100
AcDbEntity
  8
15
370
    30
  6
Continuous
 62
    96
100
AcDbLine
 10
2170.597245
 20
1018.769401
 30
0.0
 11
2800.760485
 21
1018.769401
 31
0.0
  0
LINE
  5
524
100
AcDbEntity
  8
15
370
     9
  6
Continuous
 62
    96
100
AcDbLine
 10
2170.621615
 20
980.258047
 30
0.0
 11
2800.784855
 21
980.258047
 31
0.0
  0
LINE
  5
525
100
AcDbEntity
  8
15
370
     9
  6
Continuous
 62
    96
100
AcDbLine
 10
2170.621615
 20
941.746693
 30
0.0
 11
2800.784855
 21
941.746693
 31
0.0
  0
LINE
  5
526
100
AcDbEntity
  8
15
370
     9
  6
Continuous
 62
    96
100
AcDbLine
 10
2170.572876
 20
903.235339
 30
0.0
 11
2800.736116
 21
903.235339
 31
0.0
  0
LINE
  5
527
100
AcDbEntity
  8
15
370
     9
  6
Continuous
 62
    96
100
AcDbLine
 10
2170.621615
 20
864.723985
 30
0.0
 11
2800.784855
 21
864.723985
 31
0.0
  0
TEXT
  5
528
100
AcDbEntity
  8
15
370
     9
  6
Continuous
 62
    96
100
AcDbText
 10
2750.058411
 20
873.479662
 30
0.0
 40
21.0
  1
１点
 41
0.861111
 11
2750.058411
 21
873.479662
 31
0.0
100
AcDbText
 73
     1
  0
TEXT
  5
529
100
AcDbEntity
  8
15
370
     9
  6
Continuous
 62
    96
100
AcDbText
 10
2750.009672
 20
834.968308
 30
0.0
 40
21.0
  1
１点
 41
0.861111
 11
2750.009672
 21
834.968308
 31
0.0
100
AcDbText
 73
     1
  0
LINE
  5
52A
100
AcDbEntity
  8
15
370
     9
  6
Continuous
 62
    96
100
AcDbLine
 10
2344.667812
 20
1211.326171
 30
0.0
 11
2344.667812
 21
1018.768145
 31
0.0
  0
LINE
  5
52B
100
AcDbEntity
  8
15
370
     9
  6
Continuous
 62
    96
100
AcDbLine
 10
2743.785481
 20
1211.326171
 30
0.0
 11
2743.785481
 21
1018.764076
 31
0.0
  0
TEXT
  5
52C
100
AcDbEntity
  8
15
370
     9
  6
Continuous
 62
    96
100
AcDbText
 10
2264.548141
 20
989.013724
 30
0.0
 40
21.0
  1
外部出力　：接点容量　DC24Ｖ　0.3Ａ以下
 41
0.812661
 11
2264.548141
 21
989.013724
 31
0.0
100
AcDbText
 73
     1
  0
TEXT
  5
52D
100
AcDbEntity
  8
15
370
     9
  6
Continuous
 62
    96
100
AcDbText
 10
2172.781048
 20
952.25237
 30
0.0
 40
17.5
  1
連続解錠ボタン出力
 41
0.892593
 11
2172.781048
 21
952.25237
 31
0.0
100
AcDbText
 73
     1
  0
TEXT
  5
52E
100
AcDbEntity
  8
15
370
     9
  6
Continuous
 62
    96
100
AcDbText
 10
2172.73231
 20
913.741016
 30
0.0
 40
17.5
  1
一回解錠ボタン出力
 41
0.892593
 11
2172.73231
 21
913.741016
 31
0.0
100
AcDbText
 73
     1
  0
TEXT
  5
52F
100
AcDbEntity
  8
15
370
     9
  6
Continuous
 62
    96
100
AcDbText
 10
2172.781048
 20
875.229662
 30
0.0
 40
17.5
  1
リセットボタン出力
 41
0.892593
 11
2172.781048
 21
875.229662
 31
0.0
100
AcDbText
 73
     1
  0
TEXT
  5
530
100
AcDbEntity
  8
15
370
     9
  6
Continuous
 62
    96
100
AcDbText
 10
2172.73231
 20
836.718308
 30
0.0
 40
17.5
  1
一斉解錠ボタン入力
 41
0.892593
 11
2172.73231
 21
836.718308
 31
0.0
100
AcDbText
 73
     1
  0
TEXT
  5
531
100
AcDbEntity
  8
15
370
     9
  6
Continuous
 62
    96
100
AcDbText
 10
2445.891451
 20
950.50237
 30
0.0
 40
21.0
  1
無電圧ａ接点　瞬時
 41
0.882716
 11
2445.891451
 21
950.50237
 31
0.0
100
AcDbText
 73
     1
  0
TEXT
  5
532
100
AcDbEntity
  8
15
370
     9
  6
Continuous
 62
    96
100
AcDbText
 10
2445.891451
 20
911.991016
 30
0.0
 40
21.0
  1
無電圧ａ接点　瞬時
 41
0.882716
 11
2445.891451
 21
911.991016
 31
0.0
100
AcDbText
 73
     1
  0
TEXT
  5
533
100
AcDbEntity
  8
15
370
     9
  6
Continuous
 62
    96
100
AcDbText
 10
2445.891451
 20
873.479662
 30
0.0
 40
21.0
  1
無電圧ａ接点　瞬時
 41
0.882716
 11
2445.891451
 21
873.479662
 31
0.0
100
AcDbText
 73
     1
  0
TEXT
  5
534
100
AcDbEntity
  8
15
370
     9
  6
Continuous
 62
    96
100
AcDbText
 10
2445.891451
 20
834.968308
 30
0.0
 40
21.0
  1
無電圧ａ接点　瞬時
 41
0.882716
 11
2445.891451
 21
834.968308
 31
0.0
100
AcDbText
 73
     1
  0
TEXT
  5
535
100
AcDbEntity
  8
15
370
     9
  6
Continuous
 62
    96
100
AcDbText
 10
2749.358411
 20
950.50237
 30
0.0
 40
21.0
  1
15点
 41
0.666667
 11
2749.358411
 21
950.50237
 31
0.0
100
AcDbText
 73
     1
  0
TEXT
  5
536
100
AcDbEntity
  8
15
370
     9
  6
Continuous
 62
    96
100
AcDbText
 10
2749.309672
 20
911.991016
 30
0.0
 40
21.0
  1
15点
 41
0.666667
 11
2749.309672
 21
911.991016
 31
0.0
100
AcDbText
 73
     1
  0
LINE
  5
537
100
AcDbEntity
  8
15
370
    30
  6
Continuous
 62
    96
100
AcDbLine
 10
2170.608449
 20
826.212631
 30
0.0
 11
2800.771689
 21
826.212631
 31
0.0
  0
LINE
  5
538
100
AcDbEntity
  8
15
370
     9
  6
Continuous
 62
    96
100
AcDbLine
 10
2344.656853
 20
980.258047
 30
0.0
 11
2344.656853
 21
826.207323
 31
0.0
  0
LINE
  5
539
100
AcDbEntity
  8
15
370
     9
  6
Continuous
 62
    96
100
AcDbLine
 10
2743.774522
 20
980.258047
 30
0.0
 11
2743.774522
 21
826.211657
 31
0.0
  0
TEXT
  5
53A
100
AcDbEntity
  8
15
370
     9
  6
Continuous
 62
    96
100
AcDbText
 10
2484.254703
 20
425.395891
 30
0.0
 40
21.0
  1
G13011-01-20603
 41
0.562222
 11
2484.254703
 21
425.395891
 31
0.0
100
AcDbText
 73
     1
  0
TEXT
  5
53B
100
AcDbEntity
  8
15
370
     9
  6
Continuous
 62
    96
100
AcDbText
 10
2289.646034
 20
197.84331
 30
0.0
 40
24.5
  1
G13011-01-20818
 41
0.5
 11
2289.646034
 21
197.84331
 31
0.0
100
AcDbText
 73
     1
  0
TEXT
  5
53C
100
AcDbEntity
  8
15
370
     9
  6
Continuous
 62
    96
100
AcDbText
 10
2549.942307
 20
199.550101
 30
0.0
 40
21.0
  1
2020年08月18日
 41
0.66092
 11
2549.942307
 21
199.550101
 31
0.0
100
AcDbText
 73
     1
  0
TEXT
  5
53D
100
AcDbEntity
  8
15
370
     9
  6
Continuous
 62
    96
100
AcDbText
 10
2686.848869
 20
241.994272
 30
0.0
 40
35.0
  1
辻
 41
0.833333
 11
2686.848869
 21
241.994272
 31
0.0
100
AcDbText
 73
     1
  0
TEXT
  5
53E
100
AcDbEntity
  8
15
370
     9
  6
Continuous
 62
    96
100
AcDbText
 10
2511.79726
 20
241.994272
 30
0.0
 40
35.0
  1
太田
 41
0.85
 11
2511.79726
 21
241.994272
 31
0.0
100
AcDbText
 73
     1
  0
TEXT
  5
53F
100
AcDbEntity
  8
2
370
     9
  6
Continuous
 62
   214
100
AcDbText
 10
376.16118
 20
806.134761
 30
0.0
 40
21.0
  1
選択パネル詳細（１：３）
 41
0.884259
 11
376.16118
 21
806.134761
 31
0.0
100
AcDbText
 73
     1
  0
LINE
  5
540
100
AcDbEntity
  8
2
370
     9
  6
Continuous
 62
   214
100
AcDbLine
 10
371.272402
 20
800.283974
 30
0.0
 11
632.696108
 21
800.283974
 31
0.0
  0
TEXT
  5
541
100
AcDbEntity
  8
2
370
     9
  6
Continuous
 62
   214
100
AcDbText
 10
447.365947
 20
516.18341
 30
0.0
 40
10.500336
  1
連　続
 41
0.833333
 11
447.365947
 21
516.18341
 31
0.0
100
AcDbText
 73
     1
  0
TEXT
  5
542
100
AcDbEntity
  8
2
370
     9
  6
Continuous
 62
   214
100
AcDbText
 10
447.750832
 20
565.491786
 30
0.0
 40
10.500336
  1
警　報
 41
0.833333
 11
447.750832
 21
565.491786
 31
0.0
100
AcDbText
 73
     1
  0
TEXT
  5
543
100
AcDbEntity
  8
2
370
     9
  6
Continuous
 62
   214
100
AcDbText
 10
447.750832
 20
612.789907
 30
0.0
 40
10.500336
  1
解　錠
 41
0.833333
 11
447.750832
 21
612.789907
 31
0.0
100
AcDbText
 73
     1
  0
TEXT
  5
544
100
AcDbEntity
  8
2
370
     9
  6
Continuous
 62
   214
100
AcDbText
 10
447.418343
 20
658.828106
 30
0.0
 40
10.500336
  1
開　扉
 41
0.833333
 11
447.418343
 21
658.828106
 31
0.0
100
AcDbText
 73
     1
  0
TEXT
  5
545
100
AcDbEntity
  8
2
370
     9
  6
Continuous
 62
   214
100
AcDbText
 10
445.887676
 20
457.569287
 30
0.0
 40
10.500336
  1
一　回
 41
0.833333
 11
445.887676
 21
457.569287
 31
0.0
100
AcDbText
 73
     1
  0
LINE
  5
546
100
AcDbEntity
  8
2
370
    30
  6
Continuous
 62
   214
100
AcDbLine
 10
495.426169
 20
391.65289
 30
0.0
 11
495.426169
 21
683.32889
 31
0.0
  0
LINE
  5
547
100
AcDbEntity
  8
2
370
    30
  6
Continuous
 62
   214
100
AcDbLine
 10
430.090745
 20
391.65289
 30
0.0
 11
495.426169
 21
391.65289
 31
0.0
  0
LINE
  5
548
100
AcDbEntity
  8
2
370
    30
  6
Continuous
 62
   214
100
AcDbLine
 10
430.090745
 20
683.32889
 30
0.0
 11
430.090745
 21
391.65289
 31
0.0
  0
LINE
  5
549
100
AcDbEntity
  8
2
370
    30
  6
Continuous
 62
   214
100
AcDbLine
 10
493.180767
 20
748.890691
 30
0.0
 11
493.180767
 21
690.329114
 31
0.0
  0
LINE
  5
54A
100
AcDbEntity
  8
2
370
    30
  6
Continuous
 62
   214
100
AcDbLine
 10
432.226646
 20
690.329114
 30
0.0
 11
493.180767
 21
690.329114
 31
0.0
  0
LINE
  5
54B
100
AcDbEntity
  8
2
370
    30
  6
Continuous
 62
   214
100
AcDbLine
 10
432.226646
 20
748.890691
 30
0.0
 11
432.226646
 21
690.329114
 31
0.0
  0
LINE
  5
54C
100
AcDbEntity
  8
2
370
    30
  6
Continuous
 62
   214
100
AcDbLine
 10
432.226646
 20
748.890691
 30
0.0
 11
493.180767
 21
748.890691
 31
0.0
  0
LINE
  5
54D
100
AcDbEntity
  8
2
370
    30
  6
Continuous
 62
   214
100
AcDbLine
 10
456.846394
 20
687.995706
 30
0.0
 11
453.624872
 21
690.32708
 31
0.0
  0
LINE
  5
54E
100
AcDbEntity
  8
2
370
    30
  6
Continuous
 62
   214
100
AcDbLine
 10
469.732482
 20
687.995706
 30
0.0
 11
472.661138
 21
690.329114
 31
0.0
  0
LINE
  5
54F
100
AcDbEntity
  8
2
370
    30
  6
Continuous
 62
   214
100
AcDbLine
 10
456.846394
 20
687.995706
 30
0.0
 11
469.732482
 21
687.995706
 31
0.0
  0
LINE
  5
550
100
AcDbEntity
  8
2
370
    30
  6
Continuous
 62
   214
100
AcDbLine
 10
430.090745
 20
683.32889
 30
0.0
 11
495.426169
 21
683.32889
 31
0.0
  0
INSERT
  5
558
100
AcDbEntity
  8
0
370
    30
  6
Continuous
 62
     7
100
AcDbBlockReference
  2
*G64
 10
0.0
 20
0.0
 30
0.0
  0
INSERT
  5
560
100
AcDbEntity
  8
0
370
    30
  6
Continuous
 62
     7
100
AcDbBlockReference
  2
*G65
 10
0.0
 20
0.0
 30
0.0
  0
CIRCLE
  5
561
100
AcDbEntity
  8
2
370
    30
  6
Continuous
 62
   214
100
AcDbCircle
 10
462.758457
 20
553.824746
 30
0.0
 40
5.83352
  0
CIRCLE
  5
562
100
AcDbEntity
  8
2
370
    30
  6
Continuous
 62
   214
100
AcDbCircle
 10
462.758457
 20
600.492906
 30
0.0
 40
5.83352
  0
CIRCLE
  5
563
100
AcDbEntity
  8
2
370
    30
  6
Continuous
 62
   214
100
AcDbCircle
 10
462.758457
 20
647.161066
 30
0.0
 40
5.83352
  0
INSERT
  5
56B
100
AcDbEntity
  8
0
370
    30
  6
Continuous
 62
     7
100
AcDbBlockReference
  2
*G66
 10
0.0
 20
0.0
 30
0.0
  0
LINE
  5
56C
100
AcDbEntity
  8
2
370
    30
  6
Continuous
 62
   214
100
AcDbLine
 10
427.757337
 20
753.605093
 30
0.0
 11
497.759577
 21
753.605093
 31
0.0
  0
LINE
  5
56D
100
AcDbEntity
  8
2
370
    30
  6
Continuous
 62
   214
100
AcDbLine
 10
427.757337
 20
389.319482
 30
0.0
 11
497.759577
 21
389.319482
 31
0.0
  0
TEXT
  5
56E
100
AcDbEntity
  8
2
370
    30
  6
Continuous
 62
   214
100
AcDbText
 10
384.687005
 20
346.123735
 30
0.0
 40
21.777778
  1
自動施錠モード用
 41
0.869792
 11
384.687005
 21
346.123735
 31
0.0
100
AcDbText
 73
     1
  0
LINE
  5
56F
100
AcDbEntity
  8
2
370
     9
  6
Continuous
 62
   214
100
AcDbLine
 10
377.442957
 20
341.212915
 30
0.0
 11
569.518548
 21
341.212915
 31
0.0
  0
TEXT
  5
570
100
AcDbEntity
  8
2
370
     9
  6
Continuous
 62
   214
100
AcDbText
 10
390.744067
 20
315.918423
 30
0.0
 40
21.0
  1
（標準付属品）
 41
0.880952
 11
390.744067
 21
315.918423
 31
0.0
100
AcDbText
 73
     1
  0
LINE
  5
571
100
AcDbEntity
  8
2
370
     9
  6
Continuous
 62
   214
100
AcDbLine
 10
468.591977
 20
553.824746
 30
0.0
 11
482.878468
 21
562.664212
 31
0.0
  0
LINE
  5
572
100
AcDbEntity
  8
2
370
     9
  6
Continuous
 62
   214
100
AcDbLine
 10
468.591977
 20
553.824746
 30
0.0
 11
485.384174
 21
554.336702
 31
0.0
  0
POLYLINE
  5
573
100
AcDbEntity
  8
2
370
     9
  6
Continuous
 62
   214
100
AcDb2dPolyline
 66
     1
 10
0.0
 20
0.0
 30
0.0
  0
VERTEX
  5
574
100
AcDbEntity
  8
2
370
     9
  6
Continuous
 62
   214
100
AcDbVertex
100
AcDb2dVertex
 10
468.591977
 20
553.824746
 30
0.0
  0
VERTEX
  5
575
100
AcDbEntity
  8
2
370
     9
  6
Continuous
 62
   214
100
AcDbVertex
100
AcDb2dVertex
 10
522.763903
 20
570.124806
 30
0.0
  0
VERTEX
  5
576
100
AcDbEntity
  8
2
370
     9
  6
Continuous
 62
   214
100
AcDbVertex
100
AcDb2dVertex
 10
651.563903
 20
570.124806
 30
0.0
  0
SEQEND
  5
577
100
AcDbEntity
  8
2
370
     9
  6
Continuous
 62
   214
  0
TEXT
  5
578
100
AcDbEntity
  8
2
370
     9
  6
Continuous
 62
   214
100
AcDbText
 10
522.763903
 20
570.124806
 30
0.0
 40
16.1
  1
警報表示灯（赤）
 41
0.833333
 11
522.763903
 21
570.124806
 31
0.0
100
AcDbText
 73
     1
  0
LINE
  5
579
100
AcDbEntity
  8
2
370
     9
  6
Continuous
 62
   214
100
AcDbLine
 10
468.591977
 20
600.492906
 30
0.0
 11
481.683222
 21
611.021881
 31
0.0
  0
LINE
  5
57A
100
AcDbEntity
  8
2
370
     9
  6
Continuous
 62
   214
100
AcDbLine
 10
468.591977
 20
600.492906
 30
0.0
 11
485.193815
 21
603.065643
 31
0.0
  0
POLYLINE
  5
57B
100
AcDbEntity
  8
2
370
     9
  6
Continuous
 62
   214
100
AcDb2dPolyline
 66
     1
 10
0.0
 20
0.0
 30
0.0
  0
VERTEX
  5
57C
100
AcDbEntity
  8
2
370
     9
  6
Continuous
 62
   214
100
AcDbVertex
100
AcDb2dVertex
 10
468.591977
 20
600.492906
 30
0.0
  0
VERTEX
  5
57D
100
AcDbEntity
  8
2
370
     9
  6
Continuous
 62
   214
100
AcDbVertex
100
AcDb2dVertex
 10
521.544369
 20
623.857504
 30
0.0
  0
VERTEX
  5
57E
100
AcDbEntity
  8
2
370
     9
  6
Continuous
 62
   214
100
AcDbVertex
100
AcDb2dVertex
 10
650.344369
 20
623.857504
 30
0.0
  0
SEQEND
  5
57F
100
AcDbEntity
  8
2
370
     9
  6
Continuous
 62
   214
  0
TEXT
  5
580
100
AcDbEntity
  8
2
370
     9
  6
Continuous
 62
   214
100
AcDbText
 10
521.544369
 20
623.857504
 30
0.0
 40
16.1
  1
解錠表示灯（緑）
 41
0.833333
 11
521.544369
 21
623.857504
 31
0.0
100
AcDbText
 73
     1
  0
LINE
  5
581
100
AcDbEntity
  8
2
370
     9
  6
Continuous
 62
   214
100
AcDbLine
 10
468.591977
 20
647.161066
 30
0.0
 11
480.17686
 21
659.327843
 31
0.0
  0
LINE
  5
582
100
AcDbEntity
  8
2
370
     9
  6
Continuous
 62
   214
100
AcDbLine
 10
468.591977
 20
647.161066
 30
0.0
 11
484.708169
 21
651.905362
 31
0.0
  0
POLYLINE
  5
583
100
AcDbEntity
  8
2
370
     9
  6
Continuous
 62
   214
100
AcDb2dPolyline
 66
     1
 10
0.0
 20
0.0
 30
0.0
  0
VERTEX
  5
584
100
AcDbEntity
  8
2
370
     9
  6
Continuous
 62
   214
100
AcDbVertex
100
AcDb2dVertex
 10
468.591977
 20
647.161066
 30
0.0
  0
VERTEX
  5
585
100
AcDbEntity
  8
2
370
     9
  6
Continuous
 62
   214
100
AcDbVertex
100
AcDb2dVertex
 10
521.544369
 20
679.487672
 30
0.0
  0
VERTEX
  5
586
100
AcDbEntity
  8
2
370
     9
  6
Continuous
 62
   214
100
AcDbVertex
100
AcDb2dVertex
 10
650.344369
 20
679.487672
 30
0.0
  0
SEQEND
  5
587
100
AcDbEntity
  8
2
370
     9
  6
Continuous
 62
   214
  0
TEXT
  5
588
100
AcDbEntity
  8
2
370
     9
  6
Continuous
 62
   214
100
AcDbText
 10
521.544369
 20
679.487672
 30
0.0
 40
16.1
  1
開扉表示灯（赤）
 41
0.833333
 11
521.544369
 21
679.487672
 31
0.0
100
AcDbText
 73
     1
  0
LINE
  5
589
100
AcDbEntity
  8
2
370
     9
  6
Continuous
 62
   214
100
AcDbLine
 10
477.925609
 20
436.669437
 30
0.0
 11
491.940458
 21
445.933562
 31
0.0
  0
LINE
  5
58A
100
AcDbEntity
  8
2
370
     9
  6
Continuous
 62
   214
100
AcDbLine
 10
477.925609
 20
436.669437
 30
0.0
 11
494.694886
 21
437.68498
 31
0.0
  0
POLYLINE
  5
58B
100
AcDbEntity
  8
2
370
     9
  6
Continuous
 62
   214
100
AcDb2dPolyline
 66
     1
 10
0.0
 20
0.0
 30
0.0
  0
VERTEX
  5
58C
100
AcDbEntity
  8
2
370
     9
  6
Continuous
 62
   214
100
AcDbVertex
100
AcDb2dVertex
 10
477.925609
 20
436.669437
 30
0.0
  0
VERTEX
  5
58D
100
AcDbEntity
  8
2
370
     9
  6
Continuous
 62
   214
100
AcDbVertex
100
AcDb2dVertex
 10
522.763903
 20
451.642177
 30
0.0
  0
VERTEX
  5
58E
100
AcDbEntity
  8
2
370
     9
  6
Continuous
 62
   214
100
AcDbVertex
100
AcDb2dVertex
 10
691.31881
 20
451.642177
 30
0.0
  0
SEQEND
  5
58F
100
AcDbEntity
  8
2
370
     9
  6
Continuous
 62
   214
  0
TEXT
  5
590
100
AcDbEntity
  8
2
370
     9
  6
Continuous
 62
   214
100
AcDbText
 10
522.26881
 20
451.642177
 30
0.0
 40
16.1
  1
一回解錠ボタン （灰）
 41
0.833333
 11
522.26881
 21
451.642177
 31
0.0
100
AcDbText
 73
     1
  0
LINE
  5
591
100
AcDbEntity
  8
2
370
     9
  6
Continuous
 62
   214
100
AcDbLine
 10
477.925609
 20
497.937305
 30
0.0
 11
491.799857
 21
507.410701
 31
0.0
  0
LINE
  5
592
100
AcDbEntity
  8
2
370
     9
  6
Continuous
 62
   214
100
AcDbLine
 10
477.925609
 20
497.937305
 30
0.0
 11
494.677758
 21
499.204383
 31
0.0
  0
POLYLINE
  5
593
100
AcDbEntity
  8
2
370
     9
  6
Continuous
 62
   214
100
AcDb2dPolyline
 66
     1
 10
0.0
 20
0.0
 30
0.0
  0
VERTEX
  5
594
100
AcDbEntity
  8
2
370
     9
  6
Continuous
 62
   214
100
AcDbVertex
100
AcDb2dVertex
 10
477.925609
 20
497.937305
 30
0.0
  0
VERTEX
  5
595
100
AcDbEntity
  8
2
370
     9
  6
Continuous
 62
   214
100
AcDbVertex
100
AcDb2dVertex
 10
522.763903
 20
513.661798
 30
0.0
  0
VERTEX
  5
596
100
AcDbEntity
  8
2
370
     9
  6
Continuous
 62
   214
100
AcDbVertex
100
AcDb2dVertex
 10
693.208617
 20
513.661798
 30
0.0
  0
SEQEND
  5
597
100
AcDbEntity
  8
2
370
     9
  6
Continuous
 62
   214
  0
TEXT
  5
598
100
AcDbEntity
  8
2
370
     9
  6
Continuous
 62
   214
100
AcDbText
 10
524.158617
 20
513.661798
 30
0.0
 40
16.1
  1
連続解錠ボタン （灰）
 41
0.833333
 11
524.158617
 21
513.661798
 31
0.0
100
AcDbText
 73
     1
  0
TEXT
  5
599
100
AcDbEntity
  8
2
370
     9
  6
Continuous
 62
   214
100
AcDbText
 10
1008.46651
 20
457.569287
 30
0.0
 40
10.500336
  1
施　錠
 41
0.833333
 11
1008.46651
 21
457.569287
 31
0.0
100
AcDbText
 73
     1
  0
TEXT
  5
59A
100
AcDbEntity
  8
2
370
     9
  6
Continuous
 62
   214
100
AcDbText
 10
1009.944781
 20
516.18341
 30
0.0
 40
10.500336
  1
解　錠
 41
0.833333
 11
1009.944781
 21
516.18341
 31
0.0
100
AcDbText
 73
     1
  0
TEXT
  5
59B
100
AcDbEntity
  8
2
370
     9
  6
Continuous
 62
   214
100
AcDbText
 10
1009.586786
 20
612.789907
 30
0.0
 40
10.500336
  1
解　錠
 41
0.833333
 11
1009.586786
 21
612.789907
 31
0.0
100
AcDbText
 73
     1
  0
TEXT
  5
59C
100
AcDbEntity
  8
2
370
     9
  6
Continuous
 62
   214
100
AcDbText
 10
1010.329666
 20
565.491786
 30
0.0
 40
10.500336
  1
警　報
 41
0.833333
 11
1010.329666
 21
565.491786
 31
0.0
100
AcDbText
 73
     1
  0
TEXT
  5
59D
100
AcDbEntity
  8
2
370
     9
  6
Continuous
 62
   214
100
AcDbText
 10
1009.997177
 20
658.828106
 30
0.0
 40
10.500336
  1
開　扉
 41
0.833333
 11
1009.997177
 21
658.828106
 31
0.0
100
AcDbText
 73
     1
  0
LINE
  5
59E
100
AcDbEntity
  8
2
370
    30
  6
Continuous
 62
   214
100
AcDbLine
 10
1058.005002
 20
391.65289
 30
0.0
 11
1058.005002
 21
683.32889
 31
0.0
  0
LINE
  5
59F
100
AcDbEntity
  8
2
370
    30
  6
Continuous
 62
   214
100
AcDbLine
 10
992.669578
 20
391.65289
 30
0.0
 11
1058.005002
 21
391.65289
 31
0.0
  0
LINE
  5
5A0
100
AcDbEntity
  8
2
370
    30
  6
Continuous
 62
   214
100
AcDbLine
 10
992.669578
 20
683.32889
 30
0.0
 11
992.669578
 21
391.65289
 31
0.0
  0
LINE
  5
5A1
100
AcDbEntity
  8
2
370
    30
  6
Continuous
 62
   214
100
AcDbLine
 10
1055.759601
 20
748.890691
 30
0.0
 11
1055.759601
 21
690.329114
 31
0.0
  0
LINE
  5
5A2
100
AcDbEntity
  8
2
370
    30
  6
Continuous
 62
   214
100
AcDbLine
 10
994.805479
 20
690.329114
 30
0.0
 11
1055.759601
 21
690.329114
 31
0.0
  0
LINE
  5
5A3
100
AcDbEntity
  8
2
370
    30
  6
Continuous
 62
   214
100
AcDbLine
 10
994.805479
 20
748.890691
 30
0.0
 11
994.805479
 21
690.329114
 31
0.0
  0
LINE
  5
5A4
100
AcDbEntity
  8
2
370
    30
  6
Continuous
 62
   214
100
AcDbLine
 10
994.805479
 20
748.890691
 30
0.0
 11
1055.759601
 21
748.890691
 31
0.0
  0
LINE
  5
5A5
100
AcDbEntity
  8
2
370
    30
  6
Continuous
 62
   214
100
AcDbLine
 10
1019.425227
 20
687.995706
 30
0.0
 11
1016.203705
 21
690.32708
 31
0.0
  0
LINE
  5
5A6
100
AcDbEntity
  8
2
370
    30
  6
Continuous
 62
   214
100
AcDbLine
 10
1032.311316
 20
687.995706
 30
0.0
 11
1035.239972
 21
690.329114
 31
0.0
  0
LINE
  5
5A7
100
AcDbEntity
  8
2
370
    30
  6
Continuous
 62
   214
100
AcDbLine
 10
1019.425227
 20
687.995706
 30
0.0
 11
1032.311316
 21
687.995706
 31
0.0
  0
LINE
  5
5A8
100
AcDbEntity
  8
2
370
    30
  6
Continuous
 62
   214
100
AcDbLine
 10
992.669578
 20
683.32889
 30
0.0
 11
1058.005002
 21
683.32889
 31
0.0
  0
INSERT
  5
5B0
100
AcDbEntity
  8
0
370
    30
  6
Continuous
 62
     7
100
AcDbBlockReference
  2
*G67
 10
0.0
 20
0.0
 30
0.0
  0
INSERT
  5
5B8
100
AcDbEntity
  8
0
370
    30
  6
Continuous
 62
     7
100
AcDbBlockReference
  2
*G68
 10
0.0
 20
0.0
 30
0.0
  0
CIRCLE
  5
5B9
100
AcDbEntity
  8
2
370
    30
  6
Continuous
 62
   214
100
AcDbCircle
 10
1025.33729
 20
553.824746
 30
0.0
 40
5.83352
  0
CIRCLE
  5
5BA
100
AcDbEntity
  8
2
370
    30
  6
Continuous
 62
   214
100
AcDbCircle
 10
1025.33729
 20
600.492906
 30
0.0
 40
5.83352
  0
CIRCLE
  5
5BB
100
AcDbEntity
  8
2
370
    30
  6
Continuous
 62
   214
100
AcDbCircle
 10
1025.33729
 20
647.161066
 30
0.0
 40
5.83352
  0
INSERT
  5
5C3
100
AcDbEntity
  8
0
370
    30
  6
Continuous
 62
     7
100
AcDbBlockReference
  2
*G69
 10
0.0
 20
0.0
 30
0.0
  0
LINE
  5
5C4
100
AcDbEntity
  8
2
370
    30
  6
Continuous
 62
   214
100
AcDbLine
 10
990.33617
 20
753.605093
 30
0.0
 11
1060.33841
 21
753.605093
 31
0.0
  0
LINE
  5
5C5
100
AcDbEntity
  8
2
370
    30
  6
Continuous
 62
   214
100
AcDbLine
 10
990.33617
 20
389.319482
 30
0.0
 11
1060.33841
 21
389.319482
 31
0.0
  0
LINE
  5
5C6
100
AcDbEntity
  8
2
370
     9
  6
Continuous
 62
   214
100
AcDbLine
 10
945.882011
 20
341.212915
 30
0.0
 11
1146.254563
 21
341.212915
 31
0.0
  0
TEXT
  5
5C7
100
AcDbEntity
  8
2
370
    30
  6
Continuous
 62
   214
100
AcDbText
 10
968.841447
 20
347.066867
 30
0.0
 40
21.777778
  1
繰返しモード用
 41
0.869048
 11
968.841447
 21
347.066867
 31
0.0
100
AcDbText
 73
     1
  0
LINE
  5
5C8
100
AcDbEntity
  8
2
370
     9
  6
Continuous
 62
   214
100
AcDbLine
 10
1031.17081
 20
553.824746
 30
0.0
 11
1045.457302
 21
562.664212
 31
0.0
  0
LINE
  5
5C9
100
AcDbEntity
  8
2
370
     9
  6
Continuous
 62
   214
100
AcDbLine
 10
1031.17081
 20
553.824746
 30
0.0
 11
1047.963008
 21
554.336702
 31
0.0
  0
POLYLINE
  5
5CA
100
AcDbEntity
  8
2
370
     9
  6
Continuous
 62
   214
100
AcDb2dPolyline
 66
     1
 10
0.0
 20
0.0
 30
0.0
  0
VERTEX
  5
5CB
100
AcDbEntity
  8
2
370
     9
  6
Continuous
 62
   214
100
AcDbVertex
100
AcDb2dVertex
 10
1031.17081
 20
553.824746
 30
0.0
  0
VERTEX
  5
5CC
100
AcDbEntity
  8
2
370
     9
  6
Continuous
 62
   214
100
AcDbVertex
100
AcDb2dVertex
 10
1085.342737
 20
570.124806
 30
0.0
  0
VERTEX
  5
5CD
100
AcDbEntity
  8
2
370
     9
  6
Continuous
 62
   214
100
AcDbVertex
100
AcDb2dVertex
 10
1214.142737
 20
570.124806
 30
0.0
  0
SEQEND
  5
5CE
100
AcDbEntity
  8
2
370
     9
  6
Continuous
 62
   214
  0
TEXT
  5
5CF
100
AcDbEntity
  8
2
370
     9
  6
Continuous
 62
   214
100
AcDbText
 10
1085.342737
 20
570.124806
 30
0.0
 40
16.1
  1
警報表示灯（赤）
 41
0.833333
 11
1085.342737
 21
570.124806
 31
0.0
100
AcDbText
 73
     1
  0
LINE
  5
5D0
100
AcDbEntity
  8
2
370
     9
  6
Continuous
 62
   214
100
AcDbLine
 10
1031.17081
 20
600.492906
 30
0.0
 11
1044.262055
 21
611.021881
 31
0.0
  0
LINE
  5
5D1
100
AcDbEntity
  8
2
370
     9
  6
Continuous
 62
   214
100
AcDbLine
 10
1031.17081
 20
600.492906
 30
0.0
 11
1047.772648
 21
603.065643
 31
0.0
  0
POLYLINE
  5
5D2
100
AcDbEntity
  8
2
370
     9
  6
Continuous
 62
   214
100
AcDb2dPolyline
 66
     1
 10
0.0
 20
0.0
 30
0.0
  0
VERTEX
  5
5D3
100
AcDbEntity
  8
2
370
     9
  6
Continuous
 62
   214
100
AcDbVertex
100
AcDb2dVertex
 10
1031.17081
 20
600.492906
 30
0.0
  0
VERTEX
  5
5D4
100
AcDbEntity
  8
2
370
     9
  6
Continuous
 62
   214
100
AcDbVertex
100
AcDb2dVertex
 10
1084.123202
 20
623.857504
 30
0.0
  0
VERTEX
  5
5D5
100
AcDbEntity
  8
2
370
     9
  6
Continuous
 62
   214
100
AcDbVertex
100
AcDb2dVertex
 10
1212.923202
 20
623.857504
 30
0.0
  0
SEQEND
  5
5D6
100
AcDbEntity
  8
2
370
     9
  6
Continuous
 62
   214
  0
TEXT
  5
5D7
100
AcDbEntity
  8
2
370
     9
  6
Continuous
 62
   214
100
AcDbText
 10
1084.123202
 20
623.857504
 30
0.0
 40
16.1
  1
解錠表示灯（緑）
 41
0.833333
 11
1084.123202
 21
623.857504
 31
0.0
100
AcDbText
 73
     1
  0
LINE
  5
5D8
100
AcDbEntity
  8
2
370
     9
  6
Continuous
 62
   214
100
AcDbLine
 10
1031.17081
 20
647.161066
 30
0.0
 11
1042.755694
 21
659.327843
 31
0.0
  0
LINE
  5
5D9
100
AcDbEntity
  8
2
370
     9
  6
Continuous
 62
   214
100
AcDbLine
 10
1031.17081
 20
647.161066
 30
0.0
 11
1047.287003
 21
651.905362
 31
0.0
  0
POLYLINE
  5
5DA
100
AcDbEntity
  8
2
370
     9
  6
Continuous
 62
   214
100
AcDb2dPolyline
 66
     1
 10
0.0
 20
0.0
 30
0.0
  0
VERTEX
  5
5DB
100
AcDbEntity
  8
2
370
     9
  6
Continuous
 62
   214
100
AcDbVertex
100
AcDb2dVertex
 10
1031.17081
 20
647.161066
 30
0.0
  0
VERTEX
  5
5DC
100
AcDbEntity
  8
2
370
     9
  6
Continuous
 62
   214
100
AcDbVertex
100
AcDb2dVertex
 10
1084.123202
 20
679.487672
 30
0.0
  0
VERTEX
  5
5DD
100
AcDbEntity
  8
2
370
     9
  6
Continuous
 62
   214
100
AcDbVertex
100
AcDb2dVertex
 10
1212.923202
 20
679.487672
 30
0.0
  0
SEQEND
  5
5DE
100
AcDbEntity
  8
2
370
     9
  6
Continuous
 62
   214
  0
TEXT
  5
5DF
100
AcDbEntity
  8
2
370
     9
  6
Continuous
 62
   214
100
AcDbText
 10
1084.123202
 20
679.487672
 30
0.0
 40
16.1
  1
開扉表示灯（赤）
 41
0.833333
 11
1084.123202
 21
679.487672
 31
0.0
100
AcDbText
 73
     1
  0
LINE
  5
5E0
100
AcDbEntity
  8
2
370
     9
  6
Continuous
 62
   214
100
AcDbLine
 10
1040.504442
 20
497.937305
 30
0.0
 11
1054.37869
 21
507.410701
 31
0.0
  0
LINE
  5
5E1
100
AcDbEntity
  8
2
370
     9
  6
Continuous
 62
   214
100
AcDbLine
 10
1040.504442
 20
497.937305
 30
0.0
 11
1057.256592
 21
499.204383
 31
0.0
  0
POLYLINE
  5
5E2
100
AcDbEntity
  8
2
370
     9
  6
Continuous
 62
   214
100
AcDb2dPolyline
 66
     1
 10
0.0
 20
0.0
 30
0.0
  0
VERTEX
  5
5E3
100
AcDbEntity
  8
2
370
     9
  6
Continuous
 62
   214
100
AcDbVertex
100
AcDb2dVertex
 10
1040.504442
 20
497.937305
 30
0.0
  0
VERTEX
  5
5E4
100
AcDbEntity
  8
2
370
     9
  6
Continuous
 62
   214
100
AcDbVertex
100
AcDb2dVertex
 10
1085.342737
 20
513.661798
 30
0.0
  0
VERTEX
  5
5E5
100
AcDbEntity
  8
2
370
     9
  6
Continuous
 62
   214
100
AcDbVertex
100
AcDb2dVertex
 10
1224.670288
 20
513.661798
 30
0.0
  0
SEQEND
  5
5E6
100
AcDbEntity
  8
2
370
     9
  6
Continuous
 62
   214
  0
TEXT
  5
5E7
100
AcDbEntity
  8
2
370
     9
  6
Continuous
 62
   214
100
AcDbText
 10
1087.820288
 20
513.661798
 30
0.0
 40
16.1
  1
解錠ボタン （灰）
 41
0.833333
 11
1087.820288
 21
513.661798
 31
0.0
100
AcDbText
 73
     1
  0
LINE
  5
5E8
100
AcDbEntity
  8
2
370
     9
  6
Continuous
 62
   214
100
AcDbLine
 10
1040.504442
 20
436.669437
 30
0.0
 11
1054.519292
 21
445.933562
 31
0.0
  0
LINE
  5
5E9
100
AcDbEntity
  8
2
370
     9
  6
Continuous
 62
   214
100
AcDbLine
 10
1040.504442
 20
436.669437
 30
0.0
 11
1057.27372
 21
437.68498
 31
0.0
  0
POLYLINE
  5
5EA
100
AcDbEntity
  8
2
370
     9
  6
Continuous
 62
   214
100
AcDb2dPolyline
 66
     1
 10
0.0
 20
0.0
 30
0.0
  0
VERTEX
  5
5EB
100
AcDbEntity
  8
2
370
     9
  6
Continuous
 62
   214
100
AcDbVertex
100
AcDb2dVertex
 10
1040.504442
 20
436.669437
 30
0.0
  0
VERTEX
  5
5EC
100
AcDbEntity
  8
2
370
     9
  6
Continuous
 62
   214
100
AcDbVertex
100
AcDb2dVertex
 10
1085.342737
 20
451.642177
 30
0.0
  0
VERTEX
  5
5ED
100
AcDbEntity
  8
2
370
     9
  6
Continuous
 62
   214
100
AcDbVertex
100
AcDb2dVertex
 10
1224.670288
 20
451.642177
 30
0.0
  0
SEQEND
  5
5EE
100
AcDbEntity
  8
2
370
     9
  6
Continuous
 62
   214
  0
TEXT
  5
5EF
100
AcDbEntity
  8
2
370
     9
  6
Continuous
 62
   214
100
AcDbText
 10
1087.820288
 20
451.642177
 30
0.0
 40
16.1
  1
施錠ボタン （灰）
 41
0.833333
 11
1087.820288
 21
451.642177
 31
0.0
100
AcDbText
 73
     1
  0
TEXT
  5
5F0
100
AcDbEntity
  8
2
370
     9
  6
Continuous
 62
   214
100
AcDbText
 10
1664.804626
 20
520.546902
 30
0.0
 40
8.75028
  1
非　常
 41
1.0
  7
T_STANDARD
 11
1664.804626
 21
520.546902
 31
0.0
100
AcDbText
 73
     2
  0
TEXT
  5
5F1
100
AcDbEntity
  8
2
370
     9
  6
Continuous
 62
   214
100
AcDbText
 10
1818.989343
 20
520.177558
 30
0.0
 40
8.75028
  1
一　斉
 41
1.0
  7
T_STANDARD
 11
1818.989343
 21
520.177558
 31
0.0
100
AcDbText
 73
     2
  0
TEXT
  5
5F2
100
AcDbEntity
  8
2
370
     9
  6
Continuous
 62
   214
100
AcDbText
 10
1760.294564
 20
525.59466
 30
0.0
 40
8.75028
  1
リセット
 41
1.0
  7
T_STANDARD
 11
1760.294564
 21
525.59466
 31
0.0
100
AcDbText
 73
     2
  0
TEXT
  5
5F3
100
AcDbEntity
  8
2
370
     9
  6
Continuous
 62
   214
100
AcDbText
 10
1711.292996
 20
520.649192
 30
0.0
 40
8.75028
  1
一　斉
 41
1.0
  7
T_STANDARD
 11
1711.292996
 21
520.649192
 31
0.0
100
AcDbText
 73
     2
  0
TEXT
  5
5F4
100
AcDbEntity
  8
2
370
     9
  6
Continuous
 62
   214
100
AcDbText
 10
1617.936387
 20
520.042591
 30
0.0
 40
8.75028
  1
電　源
 41
1.0
  7
T_STANDARD
 11
1617.936387
 21
520.042591
 31
0.0
100
AcDbText
 73
     2
  0
INSERT
  5
5FC
100
AcDbEntity
  8
0
370
    30
  6
Continuous
 62
     7
100
AcDbBlockReference
  2
*G70
 10
0.0
 20
0.0
 30
0.0
  0
CIRCLE
  5
5FD
100
AcDbEntity
  8
2
370
    30
  6
Continuous
 62
   214
100
AcDbCircle
 10
1633.70718
 20
503.333669
 30
0.0
 40
5.83352
  0
CIRCLE
  5
5FE
100
AcDbEntity
  8
2
370
    30
  6
Continuous
 62
   214
100
AcDbCircle
 10
1680.37534
 20
503.333669
 30
0.0
 40
5.83352
  0
CIRCLE
  5
5FF
100
AcDbEntity
  8
2
370
    30
  6
Continuous
 62
   214
100
AcDbCircle
 10
1727.0435
 20
503.333669
 30
0.0
 40
5.83352
  0
INSERT
  5
607
100
AcDbEntity
  8
0
370
    30
  6
Continuous
 62
     7
100
AcDbBlockReference
  2
*G71
 10
0.0
 20
0.0
 30
0.0
  0
INSERT
  5
60F
100
AcDbEntity
  8
0
370
    30
  6
Continuous
 62
     7
100
AcDbBlockReference
  2
*G72
 10
0.0
 20
0.0
 30
0.0
  0
LINE
  5
610
100
AcDbEntity
  8
2
370
    30
  6
Continuous
 62
   214
100
AcDbLine
 10
1597.539356
 20
470.665957
 30
0.0
 11
1597.539356
 21
536.001381
 31
0.0
  0
LINE
  5
611
100
AcDbEntity
  8
2
370
    30
  6
Continuous
 62
   214
100
AcDbLine
 10
1531.977555
 20
472.801858
 30
0.0
 11
1531.977555
 21
533.75598
 31
0.0
  0
LINE
  5
612
100
AcDbEntity
  8
2
370
    30
  6
Continuous
 62
   214
100
AcDbLine
 10
1531.977555
 20
472.801858
 30
0.0
 11
1590.539132
 21
472.801858
 31
0.0
  0
LINE
  5
613
100
AcDbEntity
  8
2
370
    30
  6
Continuous
 62
   214
100
AcDbLine
 10
1590.539132
 20
472.801858
 30
0.0
 11
1590.539132
 21
533.75598
 31
0.0
  0
LINE
  5
614
100
AcDbEntity
  8
2
370
    30
  6
Continuous
 62
   214
100
AcDbLine
 10
1531.977555
 20
533.75598
 30
0.0
 11
1590.539132
 21
533.75598
 31
0.0
  0
LINE
  5
615
100
AcDbEntity
  8
2
370
    30
  6
Continuous
 62
   214
100
AcDbLine
 10
1597.539356
 20
470.665957
 30
0.0
 11
1889.215356
 21
470.665957
 31
0.0
  0
LINE
  5
616
100
AcDbEntity
  8
2
370
    30
  6
Continuous
 62
   214
100
AcDbLine
 10
1889.215356
 20
536.001381
 30
0.0
 11
1597.539356
 21
536.001381
 31
0.0
  0
CIRCLE
  5
617
100
AcDbEntity
  8
2
370
    30
  6
Continuous
 62
   214
100
AcDbCircle
 10
1561.371532
 20
503.333669
 30
0.0
 40
2.333408
  0
CIRCLE
  5
618
100
AcDbEntity
  8
2
370
    30
  6
Continuous
 62
   214
100
AcDbCircle
 10
1561.371532
 20
515.000709
 30
0.0
 40
2.333408
  0
CIRCLE
  5
619
100
AcDbEntity
  8
2
370
    30
  6
Continuous
 62
   214
100
AcDbCircle
 10
1549.704492
 20
503.333669
 30
0.0
 40
2.333408
  0
CIRCLE
  5
61A
100
AcDbEntity
  8
2
370
    30
  6
Continuous
 62
   214
100
AcDbCircle
 10
1561.371532
 20
491.666629
 30
0.0
 40
2.333408
  0
CIRCLE
  5
61B
100
AcDbEntity
  8
2
370
    30
  6
Continuous
 62
   214
100
AcDbCircle
 10
1573.038572
 20
503.333669
 30
0.0
 40
2.333408
  0
LINE
  5
61C
100
AcDbEntity
  8
2
370
    30
  6
Continuous
 62
   214
100
AcDbLine
 10
1527.263153
 20
468.332549
 30
0.0
 11
1527.263153
 21
538.334789
 31
0.0
  0
TEXT
  5
61D
100
AcDbEntity
  8
2
370
    30
  6
Continuous
 62
   214
100
AcDbText
 10
1693.749764
 20
432.086827
 30
0.0
 40
21.777778
  1
一斉操作用
 41
0.866667
 11
1693.749764
 21
432.086827
 31
0.0
100
AcDbText
 73
     1
  0
LINE
  5
61E
100
AcDbEntity
  8
2
370
     9
  6
Continuous
 62
   214
100
AcDbLine
 10
1688.037914
 20
429.364605
 30
0.0
 11
1813.070285
 21
429.364605
 31
0.0
  0
LINE
  5
61F
100
AcDbEntity
  8
2
370
    30
  6
Continuous
 62
   214
100
AcDbLine
 10
1889.232468
 20
536.001381
 30
0.0
 11
1880.526347
 21
536.001381
 31
0.0
  0
LINE
  5
620
100
AcDbEntity
  8
2
370
    30
  6
Continuous
 62
   214
100
AcDbLine
 10
1889.232468
 20
470.665957
 30
0.0
 11
1889.232468
 21
536.001381
 31
0.0
  0
LINE
  5
621
100
AcDbEntity
  8
2
370
    30
  6
Continuous
 62
   214
100
AcDbLine
 10
1880.526347
 20
470.665957
 30
0.0
 11
1889.232468
 21
470.665957
 31
0.0
  0
INSERT
  5
628
100
AcDbEntity
  8
0
370
    30
  6
Continuous
 62
     7
100
AcDbBlockReference
  2
*G73
 10
0.0
 20
0.0
 30
0.0
  0
LINE
  5
629
100
AcDbEntity
  8
2
370
    30
  6
Continuous
 62
   214
100
AcDbLine
 10
1891.565876
 20
468.332549
 30
0.0
 11
1891.565876
 21
538.334789
 31
0.0
  0
LINE
  5
62A
100
AcDbEntity
  8
2
370
     9
  6
Continuous
 62
   214
100
AcDbLine
 10
1727.0435
 20
509.167189
 30
0.0
 11
1727.704915
 21
525.954164
 31
0.0
  0
LINE
  5
62B
100
AcDbEntity
  8
2
370
     9
  6
Continuous
 62
   214
100
AcDbLine
 10
1727.0435
 20
509.167189
 30
0.0
 11
1736.00979
 21
523.374428
 31
0.0
  0
POLYLINE
  5
62C
100
AcDbEntity
  8
2
370
     9
  6
Continuous
 62
   214
100
AcDb2dPolyline
 66
     1
 10
0.0
 20
0.0
 30
0.0
  0
VERTEX
  5
62D
100
AcDbEntity
  8
2
370
     9
  6
Continuous
 62
   214
100
AcDbVertex
100
AcDb2dVertex
 10
1727.0435
 20
509.167189
 30
0.0
  0
VERTEX
  5
62E
100
AcDbEntity
  8
2
370
     9
  6
Continuous
 62
   214
100
AcDbVertex
100
AcDb2dVertex
 10
1760.263848
 20
616.112567
 30
0.0
  0
VERTEX
  5
62F
100
AcDbEntity
  8
2
370
     9
  6
Continuous
 62
   214
100
AcDbVertex
100
AcDb2dVertex
 10
1929.313848
 20
616.112567
 30
0.0
  0
SEQEND
  5
630
100
AcDbEntity
  8
2
370
     9
  6
Continuous
 62
   214
  0
TEXT
  5
631
100
AcDbEntity
  8
2
370
     9
  6
Continuous
 62
   214
100
AcDbText
 10
1760.263848
 20
616.112567
 30
0.0
 40
16.1
  1
一斉解錠表示灯 （赤）
 41
0.833333
 11
1760.263848
 21
616.112567
 31
0.0
100
AcDbText
 73
     1
  0
LINE
  5
632
100
AcDbEntity
  8
2
370
     9
  6
Continuous
 62
   214
100
AcDbLine
 10
1561.371532
 20
517.334117
 30
0.0
 11
1562.032947
 21
534.121092
 31
0.0
  0
LINE
  5
633
100
AcDbEntity
  8
2
370
     9
  6
Continuous
 62
   214
100
AcDbLine
 10
1561.371532
 20
517.334117
 30
0.0
 11
1570.337822
 21
531.541356
 31
0.0
  0
POLYLINE
  5
634
100
AcDbEntity
  8
2
370
     9
  6
Continuous
 62
   214
100
AcDb2dPolyline
 66
     1
 10
0.0
 20
0.0
 30
0.0
  0
VERTEX
  5
635
100
AcDbEntity
  8
2
370
     9
  6
Continuous
 62
   214
100
AcDbVertex
100
AcDb2dVertex
 10
1561.371532
 20
517.334117
 30
0.0
  0
VERTEX
  5
636
100
AcDbEntity
  8
2
370
     9
  6
Continuous
 62
   214
100
AcDbVertex
100
AcDb2dVertex
 10
1582.390978
 20
585.001456
 30
0.0
  0
VERTEX
  5
637
100
AcDbEntity
  8
2
370
     9
  6
Continuous
 62
   214
100
AcDbVertex
100
AcDb2dVertex
 10
1646.790978
 20
585.001456
 30
0.0
  0
SEQEND
  5
638
100
AcDbEntity
  8
2
370
     9
  6
Continuous
 62
   214
  0
TEXT
  5
639
100
AcDbEntity
  8
2
370
     9
  6
Continuous
 62
   214
100
AcDbText
 10
1582.390978
 20
585.001456
 30
0.0
 40
16.1
  1
ブザー孔
 41
0.833333
 11
1582.390978
 21
585.001456
 31
0.0
100
AcDbText
 73
     1
  0
LINE
  5
63A
100
AcDbEntity
  8
2
370
     9
  6
Continuous
 62
   214
100
AcDbLine
 10
1633.70718
 20
509.167189
 30
0.0
 11
1634.368595
 21
525.954164
 31
0.0
  0
LINE
  5
63B
100
AcDbEntity
  8
2
370
     9
  6
Continuous
 62
   214
100
AcDbLine
 10
1633.70718
 20
509.167189
 30
0.0
 11
1642.67347
 21
523.374428
 31
0.0
  0
POLYLINE
  5
63C
100
AcDbEntity
  8
2
370
     9
  6
Continuous
 62
   214
100
AcDb2dPolyline
 66
     1
 10
0.0
 20
0.0
 30
0.0
  0
VERTEX
  5
63D
100
AcDbEntity
  8
2
370
     9
  6
Continuous
 62
   214
100
AcDbVertex
100
AcDb2dVertex
 10
1633.70718
 20
509.167189
 30
0.0
  0
VERTEX
  5
63E
100
AcDbEntity
  8
2
370
     9
  6
Continuous
 62
   214
100
AcDbVertex
100
AcDb2dVertex
 10
1686.255562
 20
678.334789
 30
0.0
  0
VERTEX
  5
63F
100
AcDbEntity
  8
2
370
     9
  6
Continuous
 62
   214
100
AcDbVertex
100
AcDb2dVertex
 10
1847.255562
 20
678.334789
 30
0.0
  0
SEQEND
  5
640
100
AcDbEntity
  8
2
370
     9
  6
Continuous
 62
   214
  0
TEXT
  5
641
100
AcDbEntity
  8
2
370
     9
  6
Continuous
 62
   214
100
AcDbText
 10
1686.255562
 20
678.334789
 30
0.0
 40
16.1
  1
電源表示灯（緑／赤）
 41
0.833333
 11
1686.255562
 21
678.334789
 31
0.0
100
AcDbText
 73
     1
  0
LINE
  5
642
100
AcDbEntity
  8
2
370
     9
  6
Continuous
 62
   214
100
AcDbLine
 10
1680.37534
 20
509.167189
 30
0.0
 11
1681.036755
 21
525.954164
 31
0.0
  0
LINE
  5
643
100
AcDbEntity
  8
2
370
     9
  6
Continuous
 62
   214
100
AcDbLine
 10
1680.37534
 20
509.167189
 30
0.0
 11
1689.34163
 21
523.374428
 31
0.0
  0
POLYLINE
  5
644
100
AcDbEntity
  8
2
370
     9
  6
Continuous
 62
   214
100
AcDb2dPolyline
 66
     1
 10
0.0
 20
0.0
 30
0.0
  0
VERTEX
  5
645
100
AcDbEntity
  8
2
370
     9
  6
Continuous
 62
   214
100
AcDbVertex
100
AcDb2dVertex
 10
1680.37534
 20
509.167189
 30
0.0
  0
VERTEX
  5
646
100
AcDbEntity
  8
2
370
     9
  6
Continuous
 62
   214
100
AcDbVertex
100
AcDb2dVertex
 10
1723.259705
 20
647.223678
 30
0.0
  0
VERTEX
  5
647
100
AcDbEntity
  8
2
370
     9
  6
Continuous
 62
   214
100
AcDbVertex
100
AcDb2dVertex
 10
1884.259705
 20
647.223678
 30
0.0
  0
SEQEND
  5
648
100
AcDbEntity
  8
2
370
     9
  6
Continuous
 62
   214
  0
TEXT
  5
649
100
AcDbEntity
  8
2
370
     9
  6
Continuous
 62
   214
100
AcDbText
 10
1723.259705
 20
647.223678
 30
0.0
 40
16.1
  1
非常解錠表示灯（赤）
 41
0.833333
 11
1723.259705
 21
647.223678
 31
0.0
100
AcDbText
 73
     1
  0
LINE
  5
64A
100
AcDbEntity
  8
2
370
     9
  6
Continuous
 62
   214
100
AcDbLine
 10
1784.784904
 20
518.500821
 30
0.0
 11
1785.44632
 21
535.287796
 31
0.0
  0
LINE
  5
64B
100
AcDbEntity
  8
2
370
     9
  6
Continuous
 62
   214
100
AcDbLine
 10
1784.784904
 20
518.500821
 30
0.0
 11
1793.751195
 21
532.70806
 31
0.0
  0
POLYLINE
  5
64C
100
AcDbEntity
  8
2
370
     9
  6
Continuous
 62
   214
100
AcDb2dPolyline
 66
     1
 10
0.0
 20
0.0
 30
0.0
  0
VERTEX
  5
64D
100
AcDbEntity
  8
2
370
     9
  6
Continuous
 62
   214
100
AcDbVertex
100
AcDb2dVertex
 10
1784.784904
 20
518.500821
 30
0.0
  0
VERTEX
  5
64E
100
AcDbEntity
  8
2
370
     9
  6
Continuous
 62
   214
100
AcDbVertex
100
AcDb2dVertex
 10
1805.441939
 20
585.001456
 30
0.0
  0
VERTEX
  5
64F
100
AcDbEntity
  8
2
370
     9
  6
Continuous
 62
   214
100
AcDbVertex
100
AcDb2dVertex
 10
1974.491939
 20
585.001456
 30
0.0
  0
SEQEND
  5
650
100
AcDbEntity
  8
2
370
     9
  6
Continuous
 62
   214
  0
TEXT
  5
651
100
AcDbEntity
  8
2
370
     9
  6
Continuous
 62
   214
100
AcDbText
 10
1805.441939
 20
585.001456
 30
0.0
 40
16.1
  1
リセットボタン （白）
 41
0.833333
 11
1805.441939
 21
585.001456
 31
0.0
100
AcDbText
 73
     1
  0
LINE
  5
652
100
AcDbEntity
  8
2
370
     9
  6
Continuous
 62
   214
100
AcDbLine
 10
1841.77822
 20
518.977962
 30
0.0
 11
1842.439636
 21
535.764937
 31
0.0
  0
LINE
  5
653
100
AcDbEntity
  8
2
370
     9
  6
Continuous
 62
   214
100
AcDbLine
 10
1841.77822
 20
518.977962
 30
0.0
 11
1850.74451
 21
533.185201
 31
0.0
  0
POLYLINE
  5
654
100
AcDbEntity
  8
2
370
     9
  6
Continuous
 62
   214
100
AcDb2dPolyline
 66
     1
 10
0.0
 20
0.0
 30
0.0
  0
VERTEX
  5
655
100
AcDbEntity
  8
2
370
     9
  6
Continuous
 62
   214
100
AcDbVertex
100
AcDb2dVertex
 10
1841.77822
 20
518.977962
 30
0.0
  0
VERTEX
  5
656
100
AcDbEntity
  8
2
370
     9
  6
Continuous
 62
   214
100
AcDbVertex
100
AcDb2dVertex
 10
1852.090103
 20
552.174729
 30
0.0
  0
VERTEX
  5
657
100
AcDbEntity
  8
2
370
     9
  6
Continuous
 62
   214
100
AcDbVertex
100
AcDb2dVertex
 10
2013.98016
 20
552.174729
 30
0.0
  0
SEQEND
  5
658
100
AcDbEntity
  8
2
370
     9
  6
Continuous
 62
   214
  0
TEXT
  5
659
100
AcDbEntity
  8
2
370
     9
  6
Continuous
 62
   214
100
AcDbText
 10
1852.98016
 20
552.174729
 30
0.0
 40
16.1
  1
一斉解錠ボタン（赤）
 41
0.833333
 11
1852.98016
 21
552.174729
 31
0.0
100
AcDbText
 73
     1
  0
ENDSEC
  0
SECTION
  2
OBJECTS
  0
DICTIONARY
  5
19
100
AcDbDictionary
280
     0
281
     1
  3
ACAD_GROUP
350
1A
  3
ACAD_MLINESTYLE
350
1B
  3
ACAD_LAYOUT
350
1E
  3
ACAD_PLOTSETTINGS
350
22
  3
ACAD_PLOTSTYLENAME
350
1F
  3
ACAD_WIPEOUT_VARS
350
23
  0
DICTIONARY
  5
1A
102
{ACAD_REACTORS
330
19
102
}
100
AcDbDictionary
280
     0
281
     1
  0
DICTIONARY
  5
1B
102
{ACAD_REACTORS
330
19
102
}
100
AcDbDictionary
280
     0
281
     1
  3
Standard
350
1C
  0
MLINESTYLE
  5
1C
102
{ACAD_REACTORS
330
1B
102
}
100
AcDbMlineStyle
  2
Standard
 70
     0
  3

 62
     0
 51
90.0
 52
90.0
 71
     2
 49
0.5
 62
   256
  6
ByLayer
 49
-0.5
 62
   256
  6
ByLayer
  0
ACDBDICTIONARYWDFLT
  5
1F
102
{ACAD_REACTORS
330
19
102
}
100
AcDbDictionary
281
     1
  3
Normal
350
1D
100
AcDbDictionaryWithDefault
340
1D
  0
ACDBPLACEHOLDER
  5
1D
102
{ACAD_REACTORS
330
1F
102
}
  0
LAYOUT
  5
20
102
{ACAD_REACTORS
330
1E
102
}
100
AcDbPlotSettings
  1

  2

  4

  6

 40
0.0
 41
0.0
 42
0.0
 43
0.0
 44
0.0
 45
0.0
 46
0.0
 47
0.0
 48
0.0
 49
0.0
140
0.0
141
0.0
142
1.0
143
1.0
 70
  1024
 72
     0
 73
     0
 74
     0
  7

 75
     0
147
1.0
148
0.0
149
0.0
100
AcDbLayout
  1
Model
 70
     0
 71
     0
 10
0.0
 20
0.0
 11
0.0
 21
0.0
 12
0.0
 22
0.0
 32
0.0
 14
0.0
 24
0.0
 34
0.0
 15
0.0
 25
0.0
 35
0.0
146
0.0
 13
0.0
 23
0.0
 33
0.0
 16
0.0
 26
0.0
 36
0.0
 17
0.0
 27
0.0
 37
0.0
 76
     0
330
A
331
0
345
0
346
0
  0
LAYOUT
  5
21
102
{ACAD_REACTORS
330
1E
102
}
100
AcDbPlotSettings
  1

  2

  4

  6

 40
0.0
 41
0.0
 42
0.0
 43
0.0
 44
0.0
 45
0.0
 46
0.0
 47
0.0
 48
0.0
 49
0.0
140
0.0
141
0.0
142
1.0
143
1.0
 70
     0
 72
     0
 73
     0
 74
     0
  7

 75
     0
147
1.0
148
0.0
149
0.0
100
AcDbLayout
  1
Layout1
 70
     0
 71
     0
 10
0.0
 20
0.0
 11
0.0
 21
0.0
 12
0.0
 22
0.0
 32
0.0
 14
0.0
 24
0.0
 34
0.0
 15
0.0
 25
0.0
 35
0.0
146
0.0
 13
0.0
 23
0.0
 33
0.0
 16
0.0
 26
0.0
 36
0.0
 17
0.0
 27
0.0
 37
0.0
 76
     0
330
B
331
0
345
0
346
0
  0
DICTIONARY
  5
1E
102
{ACAD_REACTORS
330
19
102
}
100
AcDbDictionary
280
     0
281
     1
  3
Layout1
350
21
  3
Model
350
20
  0
DICTIONARY
  5
22
102
{ACAD_REACTORS
330
19
102
}
100
AcDbDictionary
280
     0
281
     1
  0
WIPEOUTVARIABLES
  5
23
100
AcDbWipeoutVariables
 70
     1
  0
ENDSEC
  0
EOF
