  0
SECTION
  2
HEADER
  9
$ACADVER
  1
AC1032
  9
$ACADMAINTVER
 90
        4
  9
$DWGCODEPAGE
  3
ANSI_932
  9
$REQUIREDVERSIONS
160
                 0
  9
$INSBASE
 10
0.0
 20
0.0
 30
0.0
  9
$EXTMIN
 10
0.0
 20
0.0
 30
0.0
  9
$EXTMAX
 10
1200.776987544526
 20
816.2273762057218
 30
0.0
  9
$LIMMIN
 10
0.0
 20
0.0
  9
$LIMMAX
 10
420.0
 20
297.0
  9
$ORTHOMODE
 70
     0
  9
$REGENMODE
 70
     1
  9
$FILLMODE
 70
     1
  9
$QTEXTMODE
 70
     0
  9
$MIRRTEXT
 70
     1
  9
$LTSCALE
 40
0.75
  9
$ATTMODE
 70
     1
  9
$TEXTSIZE
 40
9.0
  9
$TRACEWID
 40
0.05
  9
$TEXTSTYLE
  7
Standard
  9
$CLAYER
  8
0
  9
$CELTYPE
  6
ByLayer
  9
$CECOLOR
 62
   256
  9
$CELTSCALE
 40
1.0
  9
$DISPSILH
 70
     0
  9
$DIMSCALE
 40
1.0
  9
$DIMASZ
 40
2.4
  9
$DIMEXO
 40
2.0
  9
$DIMDLI
 40
10.0
  9
$DIMRND
 40
0.0
  9
$DIMDLE
 40
0.0
  9
$DIMEXE
 40
2.0
  9
$DIMTP
 40
0.0
  9
$DIMTM
 40
0.0
  9
$DIMTXT
 40
3.0
  9
$DIMCEN
 40
0.09
  9
$DIMTSZ
 40
0.0
  9
$DIMTOL
 70
     0
  9
$DIMLIM
 70
     0
  9
$DIMTIH
 70
     0
  9
$DIMTOH
 70
     0
  9
$DIMSE1
 70
     0
  9
$DIMSE2
 70
     0
  9
$DIMTAD
 70
     3
  9
$DIMZIN
 70
     8
  9
$DIMBLK
  1

  9
$DIMASO
 70
     1
  9
$DIMSHO
 70
     1
  9
$DIMPOST
  1

  9
$DIMAPOST
  1

  9
$DIMALT
 70
     0
  9
$DIMALTD
 70
     2
  9
$DIMALTF
 40
25.4
  9
$DIMLFAC
 40
1.0
  9
$DIMTOFL
 70
     1
  9
$DIMTVP
 40
0.7
  9
$DIMTIX
 70
     0
  9
$DIMSOXD
 70
     0
  9
$DIMSAH
 70
     0
  9
$DIMBLK1
  1

  9
$DIMBLK2
  1

  9
$DIMSTYLE
  2
Standard
  9
$DIMCLRD
 70
     0
  9
$DIMCLRE
 70
     0
  9
$DIMCLRT
 70
     0
  9
$DIMTFAC
 40
0.5
  9
$DIMGAP
 40
0.09
  9
$DIMJUST
 70
     0
  9
$DIMSD1
 70
     0
  9
$DIMSD2
 70
     0
  9
$DIMTOLJ
 70
     1
  9
$DIMTZIN
 70
     8
  9
$DIMALTZ
 70
     0
  9
$DIMALTTZ
 70
     0
  9
$DIMUPT
 70
     1
  9
$DIMDEC
 70
     2
  9
$DIMTDEC
 70
     4
  9
$DIMALTU
 70
     2
  9
$DIMALTTD
 70
     2
  9
$DIMTXSTY
  7
Standard
  9
$DIMAUNIT
 70
     0
  9
$DIMADEC
 70
     0
  9
$DIMALTRND
 40
0.0
  9
$DIMAZIN
 70
     0
  9
$DIMDSEP
 70
    46
  9
$DIMATFIT
 70
     2
  9
$DIMFRAC
 70
     0
  9
$DIMLDRBLK
  1

  9
$DIMLUNIT
 70
     2
  9
$DIMLWD
 70
    -2
  9
$DIMLWE
 70
    -2
  9
$DIMTMOVE
 70
     2
  9
$DIMFXL
 40
1.0
  9
$DIMFXLON
 70
     0
  9
$DIMJOGANG
 40
0.7853981633974483
  9
$DIMTFILL
 70
     0
  9
$DIMTFILLCLR
 70
     0
  9
$DIMARCSYM
 70
     0
  9
$DIMLTYPE
  6

  9
$DIMLTEX1
  6

  9
$DIMLTEX2
  6

  9
$DIMTXTDIRECTION
 70
     0
  9
$LUNITS
 70
     2
  9
$LUPREC
 70
     4
  9
$SKETCHINC
 40
0.1
  9
$FILLETRAD
 40
0.5
  9
$AUNITS
 70
     0
  9
$AUPREC
 70
     0
  9
$MENU
  1
.
  9
$ELEVATION
 40
0.0
  9
$PELEVATION
 40
0.0
  9
$THICKNESS
 40
0.0
  9
$LIMCHECK
 70
     0
  9
$CHAMFERA
 40
0.0
  9
$CHAMFERB
 40
0.0
  9
$CHAMFERC
 40
0.0
  9
$CHAMFERD
 40
0.0
  9
$SKPOLY
 70
     0
  9
$TDCREATE
 40
2459884.774976852
  9
$TDUCREATE
 40
2459884.399976852
  9
$TDUPDATE
 40
2459884.399988194
  9
$TDUUPDATE
 40
2459884.024988194
  9
$TDINDWG
 40
0.0000000116
  9
$TDUSRTIMER
 40
0.0000000116
  9
$USRTIMER
 70
     1
  9
$ANGBASE
 50
0.0
  9
$ANGDIR
 70
     0
  9
$PDMODE
 70
     0
  9
$PDSIZE
 40
0.0
  9
$PLINEWID
 40
0.0
  9
$SPLFRAME
 70
     0
  9
$SPLINETYPE
 70
     6
  9
$SPLINESEGS
 70
     8
  9
$HANDSEED
  5
3C7
  9
$SURFTAB1
 70
     6
  9
$SURFTAB2
 70
     6
  9
$SURFTYPE
 70
     6
  9
$SURFU
 70
     6
  9
$SURFV
 70
     6
  9
$UCSBASE
  2

  9
$UCSNAME
  2

  9
$UCSORG
 10
0.0
 20
0.0
 30
0.0
  9
$UCSXDIR
 10
1.0
 20
0.0
 30
0.0
  9
$UCSYDIR
 10
0.0
 20
1.0
 30
0.0
  9
$UCSORTHOREF
  2

  9
$UCSORTHOVIEW
 70
     0
  9
$UCSORGTOP
 10
0.0
 20
0.0
 30
0.0
  9
$UCSORGBOTTOM
 10
0.0
 20
0.0
 30
0.0
  9
$UCSORGLEFT
 10
0.0
 20
0.0
 30
0.0
  9
$UCSORGRIGHT
 10
0.0
 20
0.0
 30
0.0
  9
$UCSORGFRONT
 10
0.0
 20
0.0
 30
0.0
  9
$UCSORGBACK
 10
0.0
 20
0.0
 30
0.0
  9
$PUCSBASE
  2

  9
$PUCSNAME
  2

  9
$PUCSORG
 10
0.0
 20
0.0
 30
0.0
  9
$PUCSXDIR
 10
1.0
 20
0.0
 30
0.0
  9
$PUCSYDIR
 10
0.0
 20
1.0
 30
0.0
  9
$PUCSORTHOREF
  2

  9
$PUCSORTHOVIEW
 70
     0
  9
$PUCSORGTOP
 10
0.0
 20
0.0
 30
0.0
  9
$PUCSORGBOTTOM
 10
0.0
 20
0.0
 30
0.0
  9
$PUCSORGLEFT
 10
0.0
 20
0.0
 30
0.0
  9
$PUCSORGRIGHT
 10
0.0
 20
0.0
 30
0.0
  9
$PUCSORGFRONT
 10
0.0
 20
0.0
 30
0.0
  9
$PUCSORGBACK
 10
0.0
 20
0.0
 30
0.0
  9
$USERI1
 70
     0
  9
$USERI2
 70
     0
  9
$USERI3
 70
     0
  9
$USERI4
 70
     0
  9
$USERI5
 70
     0
  9
$USERR1
 40
0.0
  9
$USERR2
 40
0.0
  9
$USERR3
 40
0.0
  9
$USERR4
 40
0.0
  9
$USERR5
 40
0.0
  9
$WORLDVIEW
 70
     1
  9
$SHADEDGE
 70
     3
  9
$SHADEDIF
 70
    70
  9
$TILEMODE
 70
     1
  9
$MAXACTVP
 70
    64
  9
$PINSBASE
 10
0.0
 20
0.0
 30
0.0
  9
$PLIMCHECK
 70
     0
  9
$PEXTMIN
 10
0.0
 20
0.0
 30
0.0
  9
$PEXTMAX
 10
420.0
 20
297.0
 30
0.0
  9
$PLIMMIN
 10
0.0
 20
0.0
  9
$PLIMMAX
 10
420.0
 20
297.0
  9
$UNITMODE
 70
     0
  9
$VISRETAIN
 70
     1
  9
$PLINEGEN
 70
     0
  9
$PSLTSCALE
 70
     1
  9
$TREEDEPTH
 70
  3020
  9
$CMLSTYLE
  2
Standard
  9
$CMLJUST
 70
     0
  9
$CMLSCALE
 40
1.0
  9
$PROXYGRAPHICS
 70
     1
  9
$MEASUREMENT
 70
     1
  9
$CELWEIGHT
370
    -1
  9
$ENDCAPS
280
     0
  9
$JOINSTYLE
280
     0
  9
$LWDISPLAY
290
     0
  9
$INSUNITS
 70
     4
  9
$HYPERLINKBASE
  1

  9
$STYLESHEET
  1

  9
$XEDIT
290
     1
  9
$CEPSNTYPE
380
     0
  9
$PSTYLEMODE
290
     1
  9
$FINGERPRINTGUID
  2
{3b1f9fc8-c02c-4bd4-8a6d-99145c7526a3}
  9
$VERSIONGUID
  2
{FAEB1C32-E019-11D5-929B-00C0DF256EC4}
  9
$EXTNAMES
290
     1
  9
$PSVPSCALE
 40
0.0
  9
$OLESTARTUP
290
     0
  9
$SORTENTS
280
   127
  9
$INDEXCTL
280
     0
  9
$HIDETEXT
280
     1
  9
$XCLIPFRAME
280
     2
  9
$HALOGAP
280
     0
  9
$OBSCOLOR
 70
   257
  9
$OBSLTYPE
280
     0
  9
$INTERSECTIONDISPLAY
280
     0
  9
$INTERSECTIONCOLOR
 70
   257
  9
$DIMASSOC
280
     1
  9
$PROJECTNAME
  1

  9
$CAMERADISPLAY
290
     0
  9
$LENSLENGTH
 40
50.0
  9
$CAMERAHEIGHT
 40
0.0
  9
$STEPSPERSEC
 40
2.0
  9
$STEPSIZE
 40
6.0
  9
$3DDWFPREC
 40
2.0
  9
$PSOLWIDTH
 40
0.25
  9
$PSOLHEIGHT
 40
4.0
  9
$LOFTANG1
 40
1.570796326794897
  9
$LOFTANG2
 40
1.570796326794897
  9
$LOFTMAG1
 40
0.0
  9
$LOFTMAG2
 40
0.0
  9
$LOFTPARAM
 70
     7
  9
$LOFTNORMALS
280
     1
  9
$LATITUDE
 40
37.795
  9
$LONGITUDE
 40
-122.394
  9
$NORTHDIRECTION
 40
0.0
  9
$TIMEZONE
 70
 -8000
  9
$LIGHTGLYPHDISPLAY
280
     1
  9
$TILEMODELIGHTSYNCH
280
     1
  9
$CMATERIAL
347
44
  9
$SOLIDHIST
280
     0
  9
$SHOWHIST
280
     1
  9
$DWFFRAME
280
     2
  9
$DGNFRAME
280
     2
  9
$REALWORLDSCALE
290
     1
  9
$INTERFERECOLOR
 62
   256
  9
$CSHADOW
280
     0
  9
$SHADOWPLANELOCATION
 40
0.0
  0
ENDSEC
  0
SECTION
  2
CLASSES
  0
CLASS
  1
ACDBDICTIONARYWDFLT
  2
AcDbDictionaryWithDefault
  3
ObjectDBX Classes
 90
        0
 91
        3
280
     0
281
     0
  0
CLASS
  1
VISUALSTYLE
  2
AcDbVisualStyle
  3
ObjectDBX Classes
 90
     4095
 91
        3
280
     0
281
     0
  0
CLASS
  1
MATERIAL
  2
AcDbMaterial
  3
ObjectDBX Classes
 90
     1153
 91
        3
280
     0
281
     0
  0
CLASS
  1
SCALE
  2
AcDbScale
  3
ObjectDBX Classes
 90
     1153
 91
        3
280
     0
281
     0
  0
CLASS
  1
TABLESTYLE
  2
AcDbTableStyle
  3
ObjectDBX Classes
 90
     4095
 91
        3
280
     0
281
     0
  0
CLASS
  1
MLEADERSTYLE
  2
AcDbMLeaderStyle
  3
ACDB_MLEADERSTYLE_CLASS
 90
     4095
 91
        3
280
     0
281
     0
  0
CLASS
  1
SUN
  2
AcDbSun
  3
SCENEOE
 90
     1153
 91
        3
280
     0
281
     0
  0
CLASS
  1
DICTIONARYVAR
  2
AcDbDictionaryVar
  3
ObjectDBX Classes
 90
        0
 91
        3
280
     0
281
     0
  0
CLASS
  1
CELLSTYLEMAP
  2
AcDbCellStyleMap
  3
ObjectDBX Classes
 90
     1152
 91
        3
280
     0
281
     0
  0
ENDSEC
  0
SECTION
  2
TABLES
  0
TABLE
  2
VPORT
  5
8
330
0
100
AcDbSymbolTable
 70
     1
  0
VPORT
  5
29
330
8
100
AcDbSymbolTableRecord
100
AcDbViewportTableRecord
  2
*Active
 70
     0
 10
0.0
 20
0.0
 11
1.0
 21
1.0
 12
10.42990654205607
 22
4.5
 13
0.0
 23
0.0
 14
0.5
 24
0.5
 15
0.5
 25
0.5
 16
0.0
 26
0.0
 36
1.0
 17
0.0
 27
0.0
 37
0.0
 40
9.0
 41
1.972972972850329
 42
50.0
 43
0.0
 44
0.0
 50
0.0
 51
0.0
 71
     0
 72
   100
 73
     1
 74
     3
 75
     0
 76
     0
 77
     0
 78
     0
281
     0
 65
     1
110
0.0
120
0.0
130
0.0
111
1.0
121
0.0
131
0.0
112
0.0
122
1.0
132
0.0
 79
     0
146
0.0
348
2F
 60
     3
 61
     5
292
     1
282
     1
141
0.0
142
0.0
 63
   250
361
6D
  0
ENDTAB
  0
TABLE
  2
LTYPE
  5
5
330
0
100
AcDbSymbolTable
 70
     9
  0
LTYPE
  5
14
330
5
100
AcDbSymbolTableRecord
100
AcDbLinetypeTableRecord
  2
ByBlock
 70
     0
  3

 72
    65
 73
     0
 40
0.0
  0
LTYPE
  5
15
330
5
100
AcDbSymbolTableRecord
100
AcDbLinetypeTableRecord
  2
ByLayer
 70
     0
  3

 72
    65
 73
     0
 40
0.0
  0
LTYPE
  5
16
330
5
100
AcDbSymbolTableRecord
100
AcDbLinetypeTableRecord
  2
Continuous
 70
     0
  3
Solid line
 72
    65
 73
     0
 40
0.0
  0
LTYPE
  5
BC
330
5
100
AcDbSymbolTableRecord
100
AcDbLinetypeTableRecord
  2
DOT
 70
     0
  3
DOT
 72
    65
 73
     2
 40
4.0
 49
6.0
 74
     0
 49
-2.0
 74
     0
  0
LTYPE
  5
BD
330
5
100
AcDbSymbolTableRecord
100
AcDbLinetypeTableRecord
  2
HIDDEN
 70
     0
  3
HIDDEN
 72
    65
 73
     2
 40
4.2
 49
8.4
 74
     0
 49
-4.2
 74
     0
  0
LTYPE
  5
BE
330
5
100
AcDbSymbolTableRecord
100
AcDbLinetypeTableRecord
  2
DASHDOT
 70
     0
  3
DASHDOT
 72
    65
 73
     4
 40
14.5
 49
30.0
 74
     0
 49
-9.0
 74
     0
 49
2.5
 74
     0
 49
-9.0
 74
     0
  0
LTYPE
  5
BF
330
5
100
AcDbSymbolTableRecord
100
AcDbLinetypeTableRecord
  2
PHANTOM
 70
     0
  3
PHANTOM
 72
    65
 73
     6
 40
12.0
 49
30.0
 74
     0
 49
-9.0
 74
     0
 49
2.5
 74
     0
 49
-5.0
 74
     0
 49
2.5
 74
     0
 49
-9.0
 74
     0
  0
LTYPE
  5
C0
330
5
100
AcDbSymbolTableRecord
100
AcDbLinetypeTableRecord
  2
ACAD_ISO14W100
 70
     0
  3
ACAD_ISO14W100
 72
    65
 73
     8
 40
1.5
 49
12.0
 74
     0
 49
-3.0
 74
     0
 49
0.5
 74
     0
 49
-3.0
 74
     0
 49
0.5
 74
     0
 49
-3.0
 74
     0
 49
0.5
 74
     0
 49
-3.0
 74
     0
  0
LTYPE
  5
C1
330
5
100
AcDbSymbolTableRecord
100
AcDbLinetypeTableRecord
  2
ACAD_ISO06W100
 70
     0
  3
ACAD_ISO06W100
 72
    65
 73
     8
 40
13.5
 49
24.0
 74
     0
 49
-3.0
 74
     0
 49
0.5
 74
     0
 49
-3.0
 74
     0
 49
0.5
 74
     0
 49
-3.0
 74
     0
 49
0.5
 74
     0
 49
-3.0
 74
     0
  0
LTYPE
  5
C2
330
5
100
AcDbSymbolTableRecord
100
AcDbLinetypeTableRecord
  2
ACAD_ISO11W100
 70
     0
  3
ACAD_ISO11W100
 72
    65
 73
     6
 40
15.5
 49
12.0
 74
     0
 49
-3.0
 74
     0
 49
12.0
 74
     0
 49
-3.0
 74
     0
 49
0.5
 74
     0
 49
-3.0
 74
     0
  0
LTYPE
  5
C3
330
5
100
AcDbSymbolTableRecord
100
AcDbLinetypeTableRecord
  2
ACAD_ISO13W100
 70
     0
  3
ACAD_ISO13W100
 72
    65
 73
     8
 40
13.0
 49
12.0
 74
     0
 49
-3.0
 74
     0
 49
12.0
 74
     0
 49
-3.0
 74
     0
 49
0.5
 74
     0
 49
-3.0
 74
     0
 49
0.5
 74
     0
 49
-3.0
 74
     0
  0
ENDTAB
  0
TABLE
  2
LAYER
  5
2
330
0
100
AcDbSymbolTable
 70
    31
  0
LAYER
  5
10
330
2
100
AcDbSymbolTableRecord
100
AcDbLayerTableRecord
  2
0
 70
     0
 62
     7
  6
Continuous
370
    -3
390
F
347
46
348
0
  0
LAYER
  5
C4
330
2
100
AcDbSymbolTableRecord
100
AcDbLayerTableRecord
  2
1
 70
     0
 62
     7
  6
Continuous
370
    30
390
F
347
46
348
0
  0
LAYER
  5
C5
330
2
100
AcDbSymbolTableRecord
100
AcDbLayerTableRecord
  2
2
 70
     0
 62
   214
  6
Continuous
370
     9
390
F
347
46
348
0
  0
LAYER
  5
C6
330
2
100
AcDbSymbolTableRecord
100
AcDbLayerTableRecord
  2
3
 70
     0
 62
   216
  6
Continuous
370
     9
390
F
347
46
348
0
  0
LAYER
  5
C7
330
2
100
AcDbSymbolTableRecord
100
AcDbLayerTableRecord
  2
4
 70
     0
 62
    54
  6
Continuous
370
     9
390
F
347
46
348
0
  0
LAYER
  5
C8
330
2
100
AcDbSymbolTableRecord
100
AcDbLayerTableRecord
  2
5
 70
     0
 62
    94
  6
Continuous
370
     9
390
F
347
46
348
0
  0
LAYER
  5
C9
330
2
100
AcDbSymbolTableRecord
100
AcDbLayerTableRecord
  2
6
 70
     0
 62
    14
  6
Continuous
370
     9
390
F
347
46
348
0
  0
LAYER
  5
CA
330
2
100
AcDbSymbolTableRecord
100
AcDbLayerTableRecord
  2
7
 70
     0
 62
     4
  6
Continuous
370
     9
390
F
347
46
348
0
  0
LAYER
  5
CB
330
2
100
AcDbSymbolTableRecord
100
AcDbLayerTableRecord
  2
8
 70
     0
 62
     6
  6
Continuous
370
     9
390
F
347
46
348
0
  0
LAYER
  5
CC
330
2
100
AcDbSymbolTableRecord
100
AcDbLayerTableRecord
  2
9
 70
     0
 62
     2
  6
Continuous
370
     9
390
F
347
46
348
0
  0
LAYER
  5
CD
330
2
100
AcDbSymbolTableRecord
100
AcDbLayerTableRecord
  2
10
 70
     0
 62
     3
  6
Continuous
370
     9
390
F
347
46
348
0
  0
LAYER
  5
CE
330
2
100
AcDbSymbolTableRecord
100
AcDbLayerTableRecord
  2
11
 70
     0
 62
   251
  6
Continuous
370
     9
390
F
347
46
348
0
  0
LAYER
  5
CF
330
2
100
AcDbSymbolTableRecord
100
AcDbLayerTableRecord
  2
12
 70
     0
 62
   136
  6
Continuous
370
     9
390
F
347
46
348
0
  0
LAYER
  5
D0
330
2
100
AcDbSymbolTableRecord
100
AcDbLayerTableRecord
  2
13
 70
     0
 62
     7
  6
Continuous
370
     9
390
F
347
46
348
0
  0
LAYER
  5
D1
330
2
100
AcDbSymbolTableRecord
100
AcDbLayerTableRecord
  2
14
 70
     0
 62
    56
  6
Continuous
370
     9
390
F
347
46
348
0
  0
LAYER
  5
D2
330
2
100
AcDbSymbolTableRecord
100
AcDbLayerTableRecord
  2
15
 70
     0
 62
    96
  6
Continuous
370
     9
390
F
347
46
348
0
  0
LAYER
  5
D3
330
2
100
AcDbSymbolTableRecord
100
AcDbLayerTableRecord
  2
16
 70
     0
 62
    16
  6
Continuous
370
     9
390
F
347
46
348
0
  0
LAYER
  5
D4
330
2
100
AcDbSymbolTableRecord
100
AcDbLayerTableRecord
  2
17
 70
     0
 62
   132
  6
Continuous
370
     9
390
F
347
46
348
0
  0
LAYER
  5
D5
330
2
100
AcDbSymbolTableRecord
100
AcDbLayerTableRecord
  2
18
 70
     0
 62
   212
  6
Continuous
370
     9
390
F
347
46
348
0
  0
LAYER
  5
D6
330
2
100
AcDbSymbolTableRecord
100
AcDbLayerTableRecord
  2
19
 70
     0
 62
    52
  6
Continuous
370
     9
390
F
347
46
348
0
  0
LAYER
  5
D7
330
2
100
AcDbSymbolTableRecord
100
AcDbLayerTableRecord
  2
20
 70
     0
 62
   250
  6
Continuous
370
     9
390
F
347
46
348
0
  0
LAYER
  5
D8
330
2
100
AcDbSymbolTableRecord
100
AcDbLayerTableRecord
  2
22
 70
     0
 62
     7
  6
Continuous
370
     9
390
F
347
46
348
0
  0
LAYER
  5
D9
330
2
100
AcDbSymbolTableRecord
100
AcDbLayerTableRecord
  2
24
 70
     0
 62
     7
  6
Continuous
370
     9
390
F
347
46
348
0
  0
LAYER
  5
DA
330
2
100
AcDbSymbolTableRecord
100
AcDbLayerTableRecord
  2
25
 70
     0
 62
     7
  6
Continuous
370
     9
390
F
347
46
348
0
  0
LAYER
  5
DB
330
2
100
AcDbSymbolTableRecord
100
AcDbLayerTableRecord
  2
128
 70
     0
 62
     7
  6
Continuous
370
     9
390
F
347
46
348
0
  0
LAYER
  5
DC
330
2
100
AcDbSymbolTableRecord
100
AcDbLayerTableRecord
  2
129
 70
     0
 62
     7
  6
Continuous
370
     9
390
F
347
46
348
0
  0
LAYER
  5
DD
330
2
100
AcDbSymbolTableRecord
100
AcDbLayerTableRecord
  2
130
 70
     0
 62
     7
  6
Continuous
370
     9
390
F
347
46
348
0
  0
LAYER
  5
DE
330
2
100
AcDbSymbolTableRecord
100
AcDbLayerTableRecord
  2
131
 70
     0
 62
     7
  6
Continuous
370
     9
390
F
347
46
348
0
  0
LAYER
  5
DF
330
2
100
AcDbSymbolTableRecord
100
AcDbLayerTableRecord
  2
258
 70
     0
 62
     7
  6
Continuous
370
     9
390
F
347
46
348
0
  0
LAYER
  5
E0
330
2
100
AcDbSymbolTableRecord
100
AcDbLayerTableRecord
  2
260
 70
     0
 62
     7
  6
Continuous
370
     9
390
F
347
46
348
0
  0
LAYER
  5
E1
330
2
100
AcDbSymbolTableRecord
100
AcDbLayerTableRecord
  2
261
 70
     0
 62
     5
  6
Continuous
370
     9
390
F
347
46
348
0
  0
ENDTAB
  0
TABLE
  2
STYLE
  5
3
330
0
100
AcDbSymbolTable
 70
     3
  0
STYLE
  5
11
330
3
100
AcDbSymbolTableRecord
100
AcDbTextStyleTableRecord
  2
Standard
 70
     0
 40
0.0
 41
1.0
 50
0.0
 71
     0
 42
9.0
  3
txt
  4
bigfont
  0
STYLE
  5
6F
330
3
100
AcDbSymbolTableRecord
100
AcDbTextStyleTableRecord
  2
T_STANDARD
 70
     4
 40
10.0
 41
1.0
 50
0.0
 71
     0
 42
9.0
  3
txt
  4
bigfont
1001
ACAD
1000

1071
      256
  0
STYLE
  5
2F5
330
3
100
AcDbSymbolTableRecord
100
AcDbTextStyleTableRecord
  2
ＭＳ ゴシック
 70
     0
 40
0.0
 41
1.0
 50
0.0
 71
     0
 42
9.0
  3

  4

1001
ACAD
1000
ＭＳ ゴシック
1071
      256
  0
ENDTAB
  0
TABLE
  2
VIEW
  5
6
330
0
100
AcDbSymbolTable
 70
     0
  0
ENDTAB
  0
TABLE
  2
UCS
  5
7
330
0
100
AcDbSymbolTable
 70
     0
  0
ENDTAB
  0
TABLE
  2
APPID
  5
9
330
0
100
AcDbSymbolTable
 70
     2
  0
APPID
  5
12
330
9
100
AcDbSymbolTableRecord
100
AcDbRegAppTableRecord
  2
ACAD
 70
     0
  0
APPID
  5
6E
330
9
100
AcDbSymbolTableRecord
100
AcDbRegAppTableRecord
  2
ODA
 70
     0
  0
ENDTAB
  0
TABLE
  2
DIMSTYLE
  5
A
330
0
100
AcDbSymbolTable
 70
     1
100
AcDbDimStyleTable
  0
DIMSTYLE
105
27
102
{ACAD_REACTORS
330
2FF
330
309
330
313
330
31D
330
327
330
331
330
33B
330
345
330
38D
330
397
330
3A1
330
3AB
102
}
330
A
100
AcDbSymbolTableRecord
100
AcDbDimStyleTableRecord
  2
Standard
 70
     0
178
     0
340
11
  0
ENDTAB
  0
TABLE
  2
BLOCK_RECORD
  5
1
330
0
100
AcDbSymbolTable
 70
    29
  0
BLOCK_RECORD
  5
1F
330
1
100
AcDbSymbolTableRecord
100
AcDbBlockTableRecord
  2
*Model_Space
340
22
 70
     0
280
     1
281
     0
  0
BLOCK_RECORD
  5
1B
330
1
100
AcDbSymbolTableRecord
100
AcDbBlockTableRecord
  2
*Paper_Space
340
1E
 70
     0
280
     1
281
     0
  0
BLOCK_RECORD
  5
23
330
1
100
AcDbSymbolTableRecord
100
AcDbBlockTableRecord
  2
*Paper_Space0
340
26
 70
     0
280
     1
281
     0
  0
BLOCK_RECORD
  5
70
330
1
100
AcDbSymbolTableRecord
100
AcDbBlockTableRecord
  2
_ORIGIN
340
0
 70
     0
280
     1
281
     0
  0
BLOCK_RECORD
  5
75
330
1
100
AcDbSymbolTableRecord
100
AcDbBlockTableRecord
  2
_DOTBLANK
340
0
 70
     0
280
     1
281
     0
  0
BLOCK_RECORD
  5
7A
330
1
100
AcDbSymbolTableRecord
100
AcDbBlockTableRecord
  2
_DOT
340
0
 70
     0
280
     1
281
     0
  0
BLOCK_RECORD
  5
7F
330
1
100
AcDbSymbolTableRecord
100
AcDbBlockTableRecord
  2
_OPEN
340
0
102
{BLKREFS
331
1B7
331
2FD
331
2FE
331
307
331
308
331
311
331
312
331
31B
331
31C
331
325
331
326
331
32F
331
330
331
339
331
33A
331
343
331
344
331
346
331
38B
331
38C
331
395
331
396
331
39F
331
3A0
331
3A9
331
3AA
102
}
 70
     0
280
     1
281
     0
  0
BLOCK_RECORD
  5
85
330
1
100
AcDbSymbolTableRecord
100
AcDbBlockTableRecord
  2
_CLOSED
340
0
 70
     0
280
     1
281
     0
  0
BLOCK_RECORD
  5
8C
330
1
100
AcDbSymbolTableRecord
100
AcDbBlockTableRecord
  2
_CLOSEDBLANK
340
0
 70
     0
280
     1
281
     0
  0
BLOCK_RECORD
  5
92
330
1
100
AcDbSymbolTableRecord
100
AcDbBlockTableRecord
  2
_ARROWFILLED
340
0
 70
     0
280
     1
281
     0
  0
BLOCK_RECORD
  5
96
330
1
100
AcDbSymbolTableRecord
100
AcDbBlockTableRecord
  2
_BOXBLANK
340
0
 70
     0
280
     1
281
     0
  0
BLOCK_RECORD
  5
9E
330
1
100
AcDbSymbolTableRecord
100
AcDbBlockTableRecord
  2
_BOXFILLED
340
0
 70
     0
280
     1
281
     0
  0
BLOCK_RECORD
  5
A3
330
1
100
AcDbSymbolTableRecord
100
AcDbBlockTableRecord
  2
_INTEGRAL
340
0
 70
     0
280
     1
281
     0
  0
BLOCK_RECORD
  5
A8
330
1
100
AcDbSymbolTableRecord
100
AcDbBlockTableRecord
  2
_OBLIQUE
340
0
 70
     0
280
     1
281
     0
  0
BLOCK_RECORD
  5
AC
330
1
100
AcDbSymbolTableRecord
100
AcDbBlockTableRecord
  2
_NONE
340
0
 70
     0
280
     1
281
     0
  0
BLOCK_RECORD
  5
AF
330
1
100
AcDbSymbolTableRecord
100
AcDbBlockTableRecord
  2
MARK_OPEN
340
0
 70
     0
280
     1
281
     0
  0
BLOCK_RECORD
  5
B4
330
1
100
AcDbSymbolTableRecord
100
AcDbBlockTableRecord
  2
MARK_ORIGIN
340
0
 70
     0
280
     1
281
     0
  0
BLOCK_RECORD
  5
B8
330
1
100
AcDbSymbolTableRecord
100
AcDbBlockTableRecord
  2
MARK_DOT
340
0
 70
     0
280
     1
281
     0
  0
BLOCK_RECORD
  5
108
330
1
100
AcDbSymbolTableRecord
100
AcDbBlockTableRecord
  2
*G16
340
0
102
{BLKREFS
331
10C
102
}
 70
     0
280
     1
281
     0
  0
BLOCK_RECORD
  5
2F6
330
1
100
AcDbSymbolTableRecord
100
AcDbBlockTableRecord
  2
Dim1
340
0
 70
     0
280
     1
281
     0
  0
BLOCK_RECORD
  5
300
330
1
100
AcDbSymbolTableRecord
100
AcDbBlockTableRecord
  2
Dim2
340
0
 70
     0
280
     1
281
     0
  0
BLOCK_RECORD
  5
30A
330
1
100
AcDbSymbolTableRecord
100
AcDbBlockTableRecord
  2
Dim3
340
0
 70
     0
280
     1
281
     0
  0
BLOCK_RECORD
  5
314
330
1
100
AcDbSymbolTableRecord
100
AcDbBlockTableRecord
  2
Dim4
340
0
 70
     0
280
     1
281
     0
  0
BLOCK_RECORD
  5
31E
330
1
100
AcDbSymbolTableRecord
100
AcDbBlockTableRecord
  2
Dim5
340
0
 70
     0
280
     1
281
     0
  0
BLOCK_RECORD
  5
328
330
1
100
AcDbSymbolTableRecord
100
AcDbBlockTableRecord
  2
Dim6
340
0
 70
     0
280
     1
281
     0
  0
BLOCK_RECORD
  5
332
330
1
100
AcDbSymbolTableRecord
100
AcDbBlockTableRecord
  2
Dim7
340
0
 70
     0
280
     1
281
     0
  0
BLOCK_RECORD
  5
33C
330
1
100
AcDbSymbolTableRecord
100
AcDbBlockTableRecord
  2
Dim8
340
0
 70
     0
280
     1
281
     0
  0
BLOCK_RECORD
  5
384
330
1
100
AcDbSymbolTableRecord
100
AcDbBlockTableRecord
  2
Dim9
340
0
 70
     0
280
     1
281
     0
  0
BLOCK_RECORD
  5
38E
330
1
100
AcDbSymbolTableRecord
100
AcDbBlockTableRecord
  2
Dim10
340
0
 70
     0
280
     1
281
     0
  0
BLOCK_RECORD
  5
398
330
1
100
AcDbSymbolTableRecord
100
AcDbBlockTableRecord
  2
Dim11
340
0
 70
     0
280
     1
281
     0
  0
BLOCK_RECORD
  5
3A2
330
1
100
AcDbSymbolTableRecord
100
AcDbBlockTableRecord
  2
Dim12
340
0
 70
     0
280
     1
281
     0
  0
ENDTAB
  0
ENDSEC
  0
SECTION
  2
BLOCKS
  0
BLOCK
  5
20
330
1F
100
AcDbEntity
  8
0
100
AcDbBlockBegin
  2
*Model_Space
 70
     0
 10
0.0
 20
0.0
 30
0.0
  3
*Model_Space
  1

  0
ENDBLK
  5
21
330
1F
100
AcDbEntity
  8
0
100
AcDbBlockEnd
  0
BLOCK
  5
1C
330
1B
100
AcDbEntity
 67
     1
  8
0
100
AcDbBlockBegin
  2
*Paper_Space
 70
     0
 10
0.0
 20
0.0
 30
0.0
  3
*Paper_Space
  1

  0
ENDBLK
  5
1D
330
1B
100
AcDbEntity
 67
     1
  8
0
100
AcDbBlockEnd
  0
BLOCK
  5
24
330
23
100
AcDbEntity
  8
0
100
AcDbBlockBegin
  2
*Paper_Space0
 70
     0
 10
0.0
 20
0.0
 30
0.0
  3
*Paper_Space0
  1

  0
ENDBLK
  5
25
330
23
100
AcDbEntity
  8
0
100
AcDbBlockEnd
  0
BLOCK
  5
73
330
70
100
AcDbEntity
  8
0
100
AcDbBlockBegin
  2
_ORIGIN
 70
     0
 10
0.0
 20
0.0
 30
0.0
  3
_ORIGIN
  1

  0
CIRCLE
  5
71
330
70
100
AcDbEntity
  8
0
 62
     0
100
AcDbCircle
 10
0.0
 20
0.0
 30
0.0
 40
0.5
  0
LINE
  5
72
330
70
100
AcDbEntity
  8
0
 62
     0
100
AcDbLine
 10
0.0
 20
0.0
 30
0.0
 11
-1.0
 21
0.0
 31
0.0
  0
ENDBLK
  5
74
330
70
100
AcDbEntity
  8
0
100
AcDbBlockEnd
  0
BLOCK
  5
78
330
75
100
AcDbEntity
  8
0
100
AcDbBlockBegin
  2
_DOTBLANK
 70
     0
 10
0.0
 20
0.0
 30
0.0
  3
_DOTBLANK
  1

  0
CIRCLE
  5
76
330
75
100
AcDbEntity
  8
0
 62
     0
100
AcDbCircle
 10
0.0
 20
0.0
 30
0.0
 40
0.5
  0
LINE
  5
77
330
75
100
AcDbEntity
  8
0
 62
     0
100
AcDbLine
 10
-0.5
 20
0.0
 30
0.0
 11
-1.0
 21
0.0
 31
0.0
  0
ENDBLK
  5
79
330
75
100
AcDbEntity
  8
0
100
AcDbBlockEnd
  0
BLOCK
  5
7D
330
7A
100
AcDbEntity
  8
0
100
AcDbBlockBegin
  2
_DOT
 70
     0
 10
0.0
 20
0.0
 30
0.0
  3
_DOT
  1

  0
LWPOLYLINE
  5
7B
330
7A
100
AcDbEntity
  8
0
 62
     0
100
AcDbPolyline
 90
        2
 70
     1
 43
0.5
 10
-0.25
 20
0.0
 42
1.0
 10
0.25
 20
0.0
 42
1.0
  0
LINE
  5
7C
330
7A
100
AcDbEntity
  8
0
 62
     0
100
AcDbLine
 10
-0.5
 20
0.0
 30
0.0
 11
-1.0
 21
0.0
 31
0.0
  0
ENDBLK
  5
7E
330
7A
100
AcDbEntity
  8
0
100
AcDbBlockEnd
  0
BLOCK
  5
83
330
7F
100
AcDbEntity
  8
0
100
AcDbBlockBegin
  2
_OPEN
 70
     0
 10
0.0
 20
0.0
 30
0.0
  3
_OPEN
  1

  0
LINE
  5
80
330
7F
100
AcDbEntity
  8
0
 62
     0
100
AcDbLine
 10
0.0
 20
0.0
 30
0.0
 11
-1.0
 21
0.1666666666666667
 31
0.0
  0
LINE
  5
81
330
7F
100
AcDbEntity
  8
0
 62
     0
100
AcDbLine
 10
0.0
 20
0.0
 30
0.0
 11
-1.0
 21
-0.1666666666666667
 31
0.0
  0
LINE
  5
82
330
7F
100
AcDbEntity
  8
0
 62
     0
100
AcDbLine
 10
0.0
 20
0.0
 30
0.0
 11
-1.0
 21
0.0
 31
0.0
  0
ENDBLK
  5
84
330
7F
100
AcDbEntity
  8
0
100
AcDbBlockEnd
  0
BLOCK
  5
8A
330
85
100
AcDbEntity
  8
0
100
AcDbBlockBegin
  2
_CLOSED
 70
     0
 10
0.0
 20
0.0
 30
0.0
  3
_CLOSED
  1

  0
LINE
  5
86
330
85
100
AcDbEntity
  8
0
 62
     0
100
AcDbLine
 10
0.0
 20
0.0
 30
0.0
 11
-1.0
 21
0.1666666666666667
 31
0.0
  0
LINE
  5
87
330
85
100
AcDbEntity
  8
0
 62
     0
100
AcDbLine
 10
0.0
 20
0.0
 30
0.0
 11
-1.0
 21
-0.1666666666666667
 31
0.0
  0
LINE
  5
88
330
85
100
AcDbEntity
  8
0
 62
     0
100
AcDbLine
 10
-1.0
 20
0.1666666666666667
 30
0.0
 11
-1.0
 21
-0.1666666666666667
 31
0.0
  0
LINE
  5
89
330
85
100
AcDbEntity
  8
0
 62
     0
100
AcDbLine
 10
0.0
 20
0.0
 30
0.0
 11
-1.0
 21
0.0
 31
0.0
  0
ENDBLK
  5
8B
330
85
100
AcDbEntity
  8
0
100
AcDbBlockEnd
  0
BLOCK
  5
90
330
8C
100
AcDbEntity
  8
0
100
AcDbBlockBegin
  2
_CLOSEDBLANK
 70
     0
 10
0.0
 20
0.0
 30
0.0
  3
_CLOSEDBLANK
  1

  0
LINE
  5
8D
330
8C
100
AcDbEntity
  8
0
 62
     0
100
AcDbLine
 10
0.0
 20
0.0
 30
0.0
 11
-1.0
 21
0.1666666666666667
 31
0.0
  0
LINE
  5
8E
330
8C
100
AcDbEntity
  8
0
 62
     0
100
AcDbLine
 10
0.0
 20
0.0
 30
0.0
 11
-1.0
 21
-0.1666666666666667
 31
0.0
  0
LINE
  5
8F
330
8C
100
AcDbEntity
  8
0
 62
     0
100
AcDbLine
 10
-1.0
 20
0.1666666666666667
 30
0.0
 11
-1.0
 21
-0.1666666666666667
 31
0.0
  0
ENDBLK
  5
91
330
8C
100
AcDbEntity
  8
0
100
AcDbBlockEnd
  0
BLOCK
  5
94
330
92
100
AcDbEntity
  8
0
100
AcDbBlockBegin
  2
_ARROWFILLED
 70
     0
 10
0.0
 20
0.0
 30
0.0
  3
_ARROWFILLED
  1

  0
SOLID
  5
93
330
92
100
AcDbEntity
  8
0
 62
     0
100
AcDbTrace
 10
0.0
 20
0.0
 30
0.0
 11
-1.0
 21
-0.1666666666666667
 31
0.0
 12
-1.0
 22
0.1666666666666667
 32
0.0
 13
0.0
 23
0.0
 33
0.0
  0
ENDBLK
  5
95
330
92
100
AcDbEntity
  8
0
100
AcDbBlockEnd
  0
BLOCK
  5
9C
330
96
100
AcDbEntity
  8
0
100
AcDbBlockBegin
  2
_BOXBLANK
 70
     0
 10
0.0
 20
0.0
 30
0.0
  3
_BOXBLANK
  1

  0
LINE
  5
97
330
96
100
AcDbEntity
  8
0
 62
     0
100
AcDbLine
 10
-0.5
 20
-0.5
 30
0.0
 11
0.5
 21
-0.5
 31
0.0
  0
LINE
  5
98
330
96
100
AcDbEntity
  8
0
 62
     0
100
AcDbLine
 10
0.5
 20
-0.5
 30
0.0
 11
0.5
 21
0.5
 31
0.0
  0
LINE
  5
99
330
96
100
AcDbEntity
  8
0
 62
     0
100
AcDbLine
 10
0.5
 20
0.5
 30
0.0
 11
-0.5
 21
0.5
 31
0.0
  0
LINE
  5
9A
330
96
100
AcDbEntity
  8
0
 62
     0
100
AcDbLine
 10
-0.5
 20
0.5
 30
0.0
 11
-0.5
 21
-0.5
 31
0.0
  0
LINE
  5
9B
330
96
100
AcDbEntity
  8
0
 62
     0
100
AcDbLine
 10
-0.5
 20
0.0
 30
0.0
 11
-1.0
 21
0.0
 31
0.0
  0
ENDBLK
  5
9D
330
96
100
AcDbEntity
  8
0
100
AcDbBlockEnd
  0
BLOCK
  5
A1
330
9E
100
AcDbEntity
  8
0
100
AcDbBlockBegin
  2
_BOXFILLED
 70
     0
 10
0.0
 20
0.0
 30
0.0
  3
_BOXFILLED
  1

  0
SOLID
  5
9F
330
9E
100
AcDbEntity
  8
0
 62
     0
100
AcDbTrace
 10
-0.5
 20
0.5
 30
0.0
 11
0.5
 21
0.5
 31
0.0
 12
-0.5
 22
-0.5
 32
0.0
 13
0.5
 23
-0.5
 33
0.0
  0
LINE
  5
A0
330
9E
100
AcDbEntity
  8
0
 62
     0
100
AcDbLine
 10
-0.5
 20
0.0
 30
0.0
 11
-1.0
 21
0.0
 31
0.0
  0
ENDBLK
  5
A2
330
9E
100
AcDbEntity
  8
0
100
AcDbBlockEnd
  0
BLOCK
  5
A6
330
A3
100
AcDbEntity
  8
0
100
AcDbBlockBegin
  2
_INTEGRAL
 70
     0
 10
0.0
 20
0.0
 30
0.0
  3
_INTEGRAL
  1

  0
ARC
  5
A4
330
A3
100
AcDbEntity
  8
0
 62
     0
100
AcDbCircle
 10
0.444888
 20
-0.0913346
 30
0.0
 40
0.4541666
100
AcDbArc
 50
101.9999999999999
 51
167.9999999999998
  0
ARC
  5
A5
330
A3
100
AcDbEntity
  8
0
 62
     0
100
AcDbCircle
 10
-0.444888
 20
0.0913346
 30
0.0
 40
0.4541666
100
AcDbArc
 50
281.9999999999997
 51
347.9999999999997
  0
ENDBLK
  5
A7
330
A3
100
AcDbEntity
  8
0
100
AcDbBlockEnd
  0
BLOCK
  5
AA
330
A8
100
AcDbEntity
  8
0
100
AcDbBlockBegin
  2
_OBLIQUE
 70
     0
 10
0.0
 20
0.0
 30
0.0
  3
_OBLIQUE
  1

  0
LINE
  5
A9
330
A8
100
AcDbEntity
  8
0
 62
     0
100
AcDbLine
 10
-0.5
 20
-0.5
 30
0.0
 11
0.5
 21
0.5
 31
0.0
  0
ENDBLK
  5
AB
330
A8
100
AcDbEntity
  8
0
100
AcDbBlockEnd
  0
BLOCK
  5
AD
330
AC
100
AcDbEntity
  8
0
100
AcDbBlockBegin
  2
_NONE
 70
     0
 10
0.0
 20
0.0
 30
0.0
  3
_NONE
  1

  0
ENDBLK
  5
AE
330
AC
100
AcDbEntity
  8
0
100
AcDbBlockEnd
  0
BLOCK
  5
B2
330
AF
100
AcDbEntity
  8
0
100
AcDbBlockBegin
  2
MARK_OPEN
 70
     0
 10
0.0
 20
0.0
 30
0.0
  3
MARK_OPEN
  1

  0
LINE
  5
B0
330
AF
100
AcDbEntity
  8
0
 62
     0
100
AcDbLine
 10
0.0
 20
0.0
 30
0.0
 11
-1.0
 21
0.1666666666666667
 31
0.0
  0
LINE
  5
B1
330
AF
100
AcDbEntity
  8
0
 62
     0
100
AcDbLine
 10
0.0
 20
0.0
 30
0.0
 11
-1.0
 21
-0.1666666666666667
 31
0.0
  0
ENDBLK
  5
B3
330
AF
100
AcDbEntity
  8
0
100
AcDbBlockEnd
  0
BLOCK
  5
B6
330
B4
100
AcDbEntity
  8
0
100
AcDbBlockBegin
  2
MARK_ORIGIN
 70
     0
 10
0.0
 20
0.0
 30
0.0
  3
MARK_ORIGIN
  1

  0
CIRCLE
  5
B5
330
B4
100
AcDbEntity
  8
0
 62
     0
100
AcDbCircle
 10
0.0
 20
0.0
 30
0.0
 40
0.5
  0
ENDBLK
  5
B7
330
B4
100
AcDbEntity
  8
0
100
AcDbBlockEnd
  0
BLOCK
  5
BA
330
B8
100
AcDbEntity
  8
0
100
AcDbBlockBegin
  2
MARK_DOT
 70
     0
 10
0.0
 20
0.0
 30
0.0
  3
MARK_DOT
  1

  0
LWPOLYLINE
  5
B9
330
B8
100
AcDbEntity
  8
0
 62
     0
100
AcDbPolyline
 90
        2
 70
     1
 43
0.5
 10
-0.25
 20
0.0
 42
1.0
 10
0.25
 20
0.0
 42
1.0
  0
ENDBLK
  5
BB
330
B8
100
AcDbEntity
  8
0
100
AcDbBlockEnd
  0
BLOCK
  5
109
330
108
100
AcDbEntity
  8
0
100
AcDbBlockBegin
  2
*G16
 70
     1
 10
0.0
 20
0.0
 30
0.0
  3
*G16
  1

  0
LINE
  5
10B
330
108
100
AcDbEntity
  8
15
  6
Continuous
 62
    96
370
     9
100
AcDbLine
 10
973.0317481651457
 20
77.23699886842545
 30
0.0
 11
973.8317142221301
 21
77.23699886842545
 31
0.0
  0
ENDBLK
  5
10A
330
108
100
AcDbEntity
  8
0
100
AcDbBlockEnd
  0
BLOCK
  5
2F7
330
2F6
100
AcDbEntity
  8
0
100
AcDbBlockBegin
  2
Dim1
 70
     0
 10
0.0
 20
0.0
 30
0.0
  3
Dim1
  1

  0
LINE
  5
2F9
330
2F6
100
AcDbEntity
  8
2
  6
Continuous
 62
   214
370
     9
100
AcDbLine
 10
645.3988522933158
 20
284.1212063163312
 30
0.0
 11
645.3988522933157
 21
250.1212063163312
 31
0.0
  0
LINE
  5
2FA
330
2F6
100
AcDbEntity
  8
2
  6
Continuous
 62
   214
370
     9
100
AcDbLine
 10
837.3988522933157
 20
284.1212063163312
 30
0.0
 11
837.3988522933156
 21
250.1212063163312
 31
0.0
  0
LINE
  5
2FB
330
2F6
100
AcDbEntity
  8
2
  6
Continuous
 62
   214
370
     9
100
AcDbLine
 10
645.3988522933157
 20
256.1212063163312
 30
0.0
 11
837.3988522933156
 21
256.1212063163312
 31
0.0
  0
MTEXT
  5
2FC
330
2F6
100
AcDbEntity
  8
2
  6
Continuous
 62
   214
370
     9
100
AcDbMText
 10
741.3988522933157
 20
257.6212063163312
 30
0.0
 40
9.0
 41
109.2857142857143
 46
9.0
 71
     8
 72
     1
  1
192
  7
ＭＳ ゴシック
 73
     1
 44
1.0
  0
INSERT
  5
2FD
330
2F6
100
AcDbEntity
  8
2
  6
Continuous
 62
   214
370
     9
100
AcDbBlockReference
  2
_OPEN
 10
645.3988522933157
 20
256.1212063163312
 30
0.0
 41
7.199999999999999
 42
7.199999999999999
 43
7.199999999999999
 50
179.9999999999998
  0
INSERT
  5
2FE
330
2F6
100
AcDbEntity
  8
2
  6
Continuous
 62
   214
370
     9
100
AcDbBlockReference
  2
_OPEN
 10
837.3988522933156
 20
256.1212063163312
 30
0.0
 41
7.199999999999999
 42
7.199999999999999
 43
7.199999999999999
 50
359.9999999999997
  0
ENDBLK
  5
2F8
330
2F6
100
AcDbEntity
  8
0
100
AcDbBlockEnd
  0
BLOCK
  5
301
330
300
100
AcDbEntity
  8
0
100
AcDbBlockBegin
  2
Dim2
 70
     0
 10
0.0
 20
0.0
 30
0.0
  3
Dim2
  1

  0
LINE
  5
303
330
300
100
AcDbEntity
  8
2
  6
Continuous
 62
   214
370
     9
100
AcDbLine
 10
766.3988522933157
 20
450.4255128041105
 30
0.0
 11
766.3988522933157
 21
468.4612065289233
 31
0.0
  0
LINE
  5
304
330
300
100
AcDbEntity
  8
2
  6
Continuous
 62
   214
370
     9
100
AcDbLine
 10
741.3988522933158
 20
450.2228645600115
 30
0.0
 11
741.3988522933158
 21
468.4612065289233
 31
0.0
  0
LINE
  5
305
330
300
100
AcDbEntity
  8
2
  6
Continuous
 62
   214
370
     9
100
AcDbLine
 10
766.3988522933157
 20
462.4612065289233
 30
0.0
 11
741.3988522933158
 21
462.4612065289233
 31
0.0
  0
MTEXT
  5
306
330
300
100
AcDbEntity
  8
2
  6
Continuous
 62
   214
370
     9
100
AcDbMText
 10
753.8988522933157
 20
463.9612065289233
 30
0.0
 40
9.0
 41
72.85714285714286
 46
9.0
 71
     8
 72
     1
  1
25
  7
ＭＳ ゴシック
 73
     1
 44
1.0
  0
INSERT
  5
307
330
300
100
AcDbEntity
  8
2
  6
Continuous
 62
   214
370
     9
100
AcDbBlockReference
  2
_OPEN
 10
766.3988522933157
 20
462.4612065289233
 30
0.0
 41
7.199999999999999
 42
7.199999999999999
 43
7.199999999999999
 50
359.9999999999997
  0
INSERT
  5
308
330
300
100
AcDbEntity
  8
2
  6
Continuous
 62
   214
370
     9
100
AcDbBlockReference
  2
_OPEN
 10
741.3988522933158
 20
462.4612065289233
 30
0.0
 41
7.199999999999999
 42
7.199999999999999
 43
7.199999999999999
 50
179.9999999999998
  0
ENDBLK
  5
302
330
300
100
AcDbEntity
  8
0
100
AcDbBlockEnd
  0
BLOCK
  5
30B
330
30A
100
AcDbEntity
  8
0
100
AcDbBlockBegin
  2
Dim3
 70
     0
 10
0.0
 20
0.0
 30
0.0
  3
Dim3
  1

  0
LINE
  5
30D
330
30A
100
AcDbEntity
  8
2
  6
Continuous
 62
   214
370
     9
100
AcDbLine
 10
729.8988522933157
 20
411.1212063163312
 30
0.0
 11
729.8988522933156
 21
377.1019024925901
 31
0.0
  0
LINE
  5
30E
330
30A
100
AcDbEntity
  8
2
  6
Continuous
 62
   214
370
     9
100
AcDbLine
 10
802.8988522933158
 20
411.1212063163312
 30
0.0
 11
802.8988522933157
 21
377.1019024925901
 31
0.0
  0
LINE
  5
30F
330
30A
100
AcDbEntity
  8
2
  6
Continuous
 62
   214
370
     9
100
AcDbLine
 10
729.8988522933156
 20
383.1019024925901
 30
0.0
 11
802.8988522933157
 21
383.1019024925901
 31
0.0
  0
MTEXT
  5
310
330
30A
100
AcDbEntity
  8
2
  6
Continuous
 62
   214
370
     9
100
AcDbMText
 10
766.3988522933157
 20
384.6019024925901
 30
0.0
 40
9.0
 41
72.85714285714286
 46
9.0
 71
     8
 72
     1
  1
73
  7
ＭＳ ゴシック
 73
     1
 44
1.0
  0
INSERT
  5
311
330
30A
100
AcDbEntity
  8
2
  6
Continuous
 62
   214
370
     9
100
AcDbBlockReference
  2
_OPEN
 10
729.8988522933156
 20
383.1019024925901
 30
0.0
 41
7.199999999999999
 42
7.199999999999999
 43
7.199999999999999
 50
179.9999999999998
  0
INSERT
  5
312
330
30A
100
AcDbEntity
  8
2
  6
Continuous
 62
   214
370
     9
100
AcDbBlockReference
  2
_OPEN
 10
802.8988522933157
 20
383.1019024925901
 30
0.0
 41
7.199999999999999
 42
7.199999999999999
 43
7.199999999999999
 50
359.9999999999997
  0
ENDBLK
  5
30C
330
30A
100
AcDbEntity
  8
0
100
AcDbBlockEnd
  0
BLOCK
  5
315
330
314
100
AcDbEntity
  8
0
100
AcDbBlockBegin
  2
Dim4
 70
     0
 10
0.0
 20
0.0
 30
0.0
  3
Dim4
  1

  0
LINE
  5
317
330
314
100
AcDbEntity
  8
2
  6
Continuous
 62
   214
370
     9
100
AcDbLine
 10
360.1063787771003
 20
586.121206316331
 30
0.0
 11
390.1063787771001
 21
586.121206316331
 31
0.0
  0
LINE
  5
318
330
314
100
AcDbEntity
  8
2
  6
Continuous
 62
   214
370
     9
100
AcDbLine
 10
360.1063787771003
 20
286.1212063163312
 30
0.0
 11
390.1063787771006
 21
286.1212063163312
 31
0.0
  0
LINE
  5
319
330
314
100
AcDbEntity
  8
2
  6
Continuous
 62
   214
370
     9
100
AcDbLine
 10
384.1063787771001
 20
586.121206316331
 30
0.0
 11
384.1063787771006
 21
286.1212063163312
 31
0.0
  0
MTEXT
  5
31A
330
314
100
AcDbEntity
  8
2
  6
Continuous
 62
   214
370
     9
100
AcDbMText
 10
382.6063787771003
 20
436.1212063163311
 30
0.0
 40
9.0
 41
115.7142857142857
 46
9.0
 71
     8
 72
     1
  1
300
  7
ＭＳ ゴシック
 11
1.615544574432587E-15
 21
1.0
 31
0.0
 73
     1
 44
1.0
  0
INSERT
  5
31B
330
314
100
AcDbEntity
  8
2
  6
Continuous
 62
   214
370
     9
100
AcDbBlockReference
  2
_OPEN
 10
384.1063787771001
 20
586.121206316331
 30
0.0
 41
7.199999999999999
 42
7.199999999999999
 43
7.199999999999999
 50
89.99999999999991
  0
INSERT
  5
31C
330
314
100
AcDbEntity
  8
2
  6
Continuous
 62
   214
370
     9
100
AcDbBlockReference
  2
_OPEN
 10
384.1063787771006
 20
286.1212063163312
 30
0.0
 41
7.199999999999999
 42
7.199999999999999
 43
7.199999999999999
 50
269.9999999999999
  0
ENDBLK
  5
316
330
314
100
AcDbEntity
  8
0
100
AcDbBlockEnd
  0
BLOCK
  5
31F
330
31E
100
AcDbEntity
  8
0
100
AcDbBlockBegin
  2
Dim5
 70
     0
 10
0.0
 20
0.0
 30
0.0
  3
Dim5
  1

  0
LINE
  5
321
330
31E
100
AcDbEntity
  8
2
  6
Continuous
 62
   214
370
     9
100
AcDbLine
 10
753.6010722933156
 20
577.6212063163312
 30
0.0
 11
884.8988522933156
 21
577.6212063163312
 31
0.0
  0
LINE
  5
322
330
31E
100
AcDbEntity
  8
2
  6
Continuous
 62
   214
370
     9
100
AcDbLine
 10
850.8988522933157
 20
297.6212063163312
 30
0.0
 11
884.898852293316
 21
297.6212063163312
 31
0.0
  0
LINE
  5
323
330
31E
100
AcDbEntity
  8
2
  6
Continuous
 62
   214
370
     9
100
AcDbLine
 10
878.8988522933156
 20
577.6212063163312
 30
0.0
 11
878.898852293316
 21
297.6212063163312
 31
0.0
  0
MTEXT
  5
324
330
31E
100
AcDbEntity
  8
2
  6
Continuous
 62
   214
370
     9
100
AcDbMText
 10
877.3988522933158
 20
437.6212063163312
 30
0.0
 40
9.0
 41
115.7142857142857
 46
9.0
 71
     8
 72
     1
  1
280
  7
ＭＳ ゴシック
 11
1.615544574432587E-15
 21
1.0
 31
0.0
 73
     1
 44
1.0
  0
INSERT
  5
325
330
31E
100
AcDbEntity
  8
2
  6
Continuous
 62
   214
370
     9
100
AcDbBlockReference
  2
_OPEN
 10
878.8988522933156
 20
577.6212063163312
 30
0.0
 41
7.199999999999999
 42
7.199999999999999
 43
7.199999999999999
 50
89.99999999999991
  0
INSERT
  5
326
330
31E
100
AcDbEntity
  8
2
  6
Continuous
 62
   214
370
     9
100
AcDbBlockReference
  2
_OPEN
 10
878.898852293316
 20
297.6212063163312
 30
0.0
 41
7.199999999999999
 42
7.199999999999999
 43
7.199999999999999
 50
269.9999999999999
  0
ENDBLK
  5
320
330
31E
100
AcDbEntity
  8
0
100
AcDbBlockEnd
  0
BLOCK
  5
329
330
328
100
AcDbEntity
  8
0
100
AcDbBlockBegin
  2
Dim6
 70
     0
 10
0.0
 20
0.0
 30
0.0
  3
Dim6
  1

  0
LINE
  5
32B
330
328
100
AcDbEntity
  8
2
  6
Continuous
 62
   214
370
     9
100
AcDbLine
 10
850.8988522933157
 20
297.6212063163312
 30
0.0
 11
884.8988522933158
 21
297.6212063163312
 31
0.0
  0
LINE
  5
32C
330
328
100
AcDbEntity
  8
2
  6
Continuous
 62
   214
370
     9
100
AcDbLine
 10
854.8988522933158
 20
286.1212063163312
 30
0.0
 11
884.8988522933158
 21
286.1212063163312
 31
0.0
  0
LINE
  5
32D
330
328
100
AcDbEntity
  8
2
  6
Continuous
 62
   214
370
     9
100
AcDbLine
 10
878.8988522933158
 20
297.6212063163312
 30
0.0
 11
878.8988522933158
 21
256.1212063163312
 31
0.0
  0
MTEXT
  5
32E
330
328
100
AcDbEntity
  8
2
  6
Continuous
 62
   214
370
     9
100
AcDbMText
 10
877.3988522933158
 20
276.2708065914694
 30
0.0
 40
9.0
 41
130.7142857142857
 46
9.0
 71
     9
 72
     1
  1
11.5
  7
ＭＳ ゴシック
 11
1.615544574432587E-15
 21
1.0
 31
0.0
 73
     1
 44
1.0
  0
INSERT
  5
32F
330
328
100
AcDbEntity
  8
2
  6
Continuous
 62
   214
370
     9
100
AcDbBlockReference
  2
_OPEN
 10
878.8988522933158
 20
297.6212063163312
 30
0.0
 41
7.199999999999999
 42
7.199999999999999
 43
7.199999999999999
 50
269.9999999999998
  0
INSERT
  5
330
330
328
100
AcDbEntity
  8
2
  6
Continuous
 62
   214
370
     9
100
AcDbBlockReference
  2
_OPEN
 10
878.8988522933158
 20
286.1212063163312
 30
0.0
 41
7.199999999999999
 42
7.199999999999999
 43
7.199999999999999
 50
89.99999999999959
  0
ENDBLK
  5
32A
330
328
100
AcDbEntity
  8
0
100
AcDbBlockEnd
  0
BLOCK
  5
333
330
332
100
AcDbEntity
  8
0
100
AcDbBlockBegin
  2
Dim7
 70
     0
 10
0.0
 20
0.0
 30
0.0
  3
Dim7
  1

  0
LINE
  5
335
330
332
100
AcDbEntity
  8
2
  6
Continuous
 62
   214
370
     9
100
AcDbLine
 10
797.8988522933158
 20
428.1212063163312
 30
0.0
 11
838.4979948044327
 21
428.1212063163312
 31
0.0
  0
LINE
  5
336
330
332
100
AcDbEntity
  8
2
  6
Continuous
 62
   214
370
     9
100
AcDbLine
 10
797.4988522933157
 20
406.121206316331
 30
0.0
 11
838.4979948044327
 21
406.121206316331
 31
0.0
  0
LINE
  5
337
330
332
100
AcDbEntity
  8
2
  6
Continuous
 62
   214
370
     9
100
AcDbLine
 10
832.4979948044327
 20
428.1212063163312
 30
0.0
 11
832.4979948044327
 21
406.121206316331
 31
0.0
  0
MTEXT
  5
338
330
332
100
AcDbEntity
  8
2
  6
Continuous
 62
   214
370
     9
100
AcDbMText
 10
830.9979948044327
 20
417.1212063163311
 30
0.0
 40
9.0
 41
72.85714285714286
 46
9.0
 71
     8
 72
     1
  1
22
  7
ＭＳ ゴシック
 11
1.615544574432587E-15
 21
1.0
 31
0.0
 73
     1
 44
1.0
  0
INSERT
  5
339
330
332
100
AcDbEntity
  8
2
  6
Continuous
 62
   214
370
     9
100
AcDbBlockReference
  2
_OPEN
 10
832.4979948044327
 20
428.1212063163312
 30
0.0
 41
7.199999999999999
 42
7.199999999999999
 43
7.199999999999999
 50
89.99999999999991
  0
INSERT
  5
33A
330
332
100
AcDbEntity
  8
2
  6
Continuous
 62
   214
370
     9
100
AcDbBlockReference
  2
_OPEN
 10
832.4979948044327
 20
406.121206316331
 30
0.0
 41
7.199999999999999
 42
7.199999999999999
 43
7.199999999999999
 50
269.9999999999998
  0
ENDBLK
  5
334
330
332
100
AcDbEntity
  8
0
100
AcDbBlockEnd
  0
BLOCK
  5
33D
330
33C
100
AcDbEntity
  8
0
100
AcDbBlockBegin
  2
Dim8
 70
     0
 10
0.0
 20
0.0
 30
0.0
  3
Dim8
  1

  0
LINE
  5
33F
330
33C
100
AcDbEntity
  8
2
  6
Continuous
 62
   214
370
     9
100
AcDbLine
 10
716.8540365110789
 20
417.1212063163312
 30
0.0
 11
700.2368804949591
 21
417.1212063163312
 31
0.0
  0
LINE
  5
340
330
33C
100
AcDbEntity
  8
2
  6
Continuous
 62
   214
370
     9
100
AcDbLine
 10
716.8540365110789
 20
436.121206316331
 30
0.0
 11
700.2368804949591
 21
436.1212063163311
 31
0.0
  0
LINE
  5
341
330
33C
100
AcDbEntity
  8
2
  6
Continuous
 62
   214
370
     9
100
AcDbLine
 10
706.2368804949591
 20
417.1212063163312
 30
0.0
 11
706.2368804949591
 21
436.1212063163311
 31
0.0
  0
MTEXT
  5
342
330
33C
100
AcDbEntity
  8
2
  6
Continuous
 62
   214
370
     9
100
AcDbMText
 10
704.7368804949591
 20
426.6212063163312
 30
0.0
 40
9.0
 41
64.28571428571428
 46
9.0
 71
     8
 72
     1
  1
19
  7
ＭＳ ゴシック
 11
1.615544574432587E-15
 21
1.0
 31
0.0
 73
     1
 44
1.0
  0
INSERT
  5
343
330
33C
100
AcDbEntity
  8
2
  6
Continuous
 62
   214
370
     9
100
AcDbBlockReference
  2
_OPEN
 10
706.2368804949591
 20
417.1212063163312
 30
0.0
 41
7.199999999999999
 42
7.199999999999999
 43
7.199999999999999
 50
269.9999999999998
  0
INSERT
  5
344
330
33C
100
AcDbEntity
  8
2
  6
Continuous
 62
   214
370
     9
100
AcDbBlockReference
  2
_OPEN
 10
706.2368804949591
 20
436.1212063163311
 30
0.0
 41
7.199999999999999
 42
7.199999999999999
 43
7.199999999999999
 50
89.99999999999991
  0
ENDBLK
  5
33E
330
33C
100
AcDbEntity
  8
0
100
AcDbBlockEnd
  0
BLOCK
  5
385
330
384
100
AcDbEntity
  8
0
100
AcDbBlockBegin
  2
Dim9
 70
     0
 10
0.0
 20
0.0
 30
0.0
  3
Dim9
  1

  0
LINE
  5
387
330
384
100
AcDbEntity
  8
2
  6
Continuous
 62
   214
370
     9
100
AcDbLine
 10
139.1063787771003
 20
592.121206316331
 30
0.0
 11
139.1063787771004
 21
652.121206316331
 31
0.0
  0
LINE
  5
388
330
384
100
AcDbEntity
  8
2
  6
Continuous
 62
   214
370
     9
100
AcDbLine
 10
354.1063787771003
 20
592.121206316331
 30
0.0
 11
354.1063787771004
 21
652.121206316331
 31
0.0
  0
LINE
  5
389
330
384
100
AcDbEntity
  8
2
  6
Continuous
 62
   214
370
     9
100
AcDbLine
 10
139.1063787771004
 20
646.121206316331
 30
0.0
 11
354.1063787771004
 21
646.121206316331
 31
0.0
  0
MTEXT
  5
38A
330
384
100
AcDbEntity
  8
2
  6
Continuous
 62
   214
370
     9
100
AcDbMText
 10
246.6063787771004
 20
647.621206316331
 30
0.0
 40
9.0
 41
115.7142857142857
 46
9.0
 71
     8
 72
     1
  1
215
  7
ＭＳ ゴシック
 73
     1
 44
1.0
  0
INSERT
  5
38B
330
384
100
AcDbEntity
  8
2
  6
Continuous
 62
   214
370
     9
100
AcDbBlockReference
  2
_OPEN
 10
139.1063787771004
 20
646.121206316331
 30
0.0
 41
7.199999999999999
 42
7.199999999999999
 43
7.199999999999999
 50
179.9999999999998
  0
INSERT
  5
38C
330
384
100
AcDbEntity
  8
2
  6
Continuous
 62
   214
370
     9
100
AcDbBlockReference
  2
_OPEN
 10
354.1063787771004
 20
646.121206316331
 30
0.0
 41
7.199999999999999
 42
7.199999999999999
 43
7.199999999999999
 50
359.9999999999997
  0
ENDBLK
  5
386
330
384
100
AcDbEntity
  8
0
100
AcDbBlockEnd
  0
BLOCK
  5
38F
330
38E
100
AcDbEntity
  8
0
100
AcDbBlockBegin
  2
Dim10
 70
     0
 10
0.0
 20
0.0
 30
0.0
  3
Dim10
  1

  0
LINE
  5
391
330
38E
100
AcDbEntity
  8
2
  6
Continuous
 62
   214
370
     9
100
AcDbLine
 10
456.1735467574673
 20
591.1307752860507
 30
0.0
 11
456.1735467574674
 21
652.121206316331
 31
0.0
  0
LINE
  5
392
330
38E
100
AcDbEntity
  8
2
  6
Continuous
 62
   214
370
     9
100
AcDbLine
 10
531.1735467574675
 20
592.1307752860508
 30
0.0
 11
531.1735467574676
 21
652.121206316331
 31
0.0
  0
LINE
  5
393
330
38E
100
AcDbEntity
  8
2
  6
Continuous
 62
   214
370
     9
100
AcDbLine
 10
456.1735467574674
 20
646.121206316331
 30
0.0
 11
531.1735467574676
 21
646.121206316331
 31
0.0
  0
MTEXT
  5
394
330
38E
100
AcDbEntity
  8
2
  6
Continuous
 62
   214
370
     9
100
AcDbMText
 10
493.6735467574675
 20
647.621206316331
 30
0.0
 40
9.0
 41
72.85714285714286
 46
9.0
 71
     8
 72
     1
  1
75
  7
ＭＳ ゴシック
 73
     1
 44
1.0
  0
INSERT
  5
395
330
38E
100
AcDbEntity
  8
2
  6
Continuous
 62
   214
370
     9
100
AcDbBlockReference
  2
_OPEN
 10
456.1735467574674
 20
646.121206316331
 30
0.0
 41
7.199999999999999
 42
7.199999999999999
 43
7.199999999999999
 50
179.9999999999998
  0
INSERT
  5
396
330
38E
100
AcDbEntity
  8
2
  6
Continuous
 62
   214
370
     9
100
AcDbBlockReference
  2
_OPEN
 10
531.1735467574676
 20
646.121206316331
 30
0.0
 41
7.199999999999999
 42
7.199999999999999
 43
7.199999999999999
 50
359.9999999999997
  0
ENDBLK
  5
390
330
38E
100
AcDbEntity
  8
0
100
AcDbBlockEnd
  0
BLOCK
  5
399
330
398
100
AcDbEntity
  8
0
100
AcDbBlockBegin
  2
Dim11
 70
     0
 10
0.0
 20
0.0
 30
0.0
  3
Dim11
  1

  0
LINE
  5
39B
330
398
100
AcDbEntity
  8
2
  6
Continuous
 62
   214
370
     9
100
AcDbLine
 10
354.1063787771003
 20
592.121206316331
 30
0.0
 11
354.1063787771004
 21
622.121206316331
 31
0.0
  0
LINE
  5
39C
330
398
100
AcDbEntity
  8
2
  6
Continuous
 62
   214
370
     9
100
AcDbLine
 10
274.6063787771002
 20
598.121206316331
 30
0.0
 11
274.6063787771002
 21
622.121206316331
 31
0.0
  0
LINE
  5
39D
330
398
100
AcDbEntity
  8
2
  6
Continuous
 62
   214
370
     9
100
AcDbLine
 10
354.1063787771004
 20
616.121206316331
 30
0.0
 11
274.6063787771002
 21
616.121206316331
 31
0.0
  0
MTEXT
  5
39E
330
398
100
AcDbEntity
  8
2
  6
Continuous
 62
   214
370
     9
100
AcDbMText
 10
314.3563787771003
 20
617.621206316331
 30
0.0
 40
9.0
 41
137.1428571428571
 46
9.0
 71
     8
 72
     1
  1
79.5
  7
ＭＳ ゴシック
 73
     1
 44
1.0
  0
INSERT
  5
39F
330
398
100
AcDbEntity
  8
2
  6
Continuous
 62
   214
370
     9
100
AcDbBlockReference
  2
_OPEN
 10
354.1063787771004
 20
616.121206316331
 30
0.0
 41
7.199999999999999
 42
7.199999999999999
 43
7.199999999999999
 50
359.9999999999997
  0
INSERT
  5
3A0
330
398
100
AcDbEntity
  8
2
  6
Continuous
 62
   214
370
     9
100
AcDbBlockReference
  2
_OPEN
 10
274.6063787771002
 20
616.121206316331
 30
0.0
 41
7.199999999999999
 42
7.199999999999999
 43
7.199999999999999
 50
179.9999999999998
  0
ENDBLK
  5
39A
330
398
100
AcDbEntity
  8
0
100
AcDbBlockEnd
  0
BLOCK
  5
3A3
330
3A2
100
AcDbEntity
  8
0
100
AcDbBlockBegin
  2
Dim12
 70
     0
 10
0.0
 20
0.0
 30
0.0
  3
Dim12
  1

  0
LINE
  5
3A5
330
3A2
100
AcDbEntity
  8
2
  6
Continuous
 62
   214
370
     9
100
AcDbLine
 10
531.1735467574675
 20
592.1307752860508
 30
0.0
 11
531.1735467574675
 21
622.1212063163309
 31
0.0
  0
LINE
  5
3A6
330
3A2
100
AcDbEntity
  8
2
  6
Continuous
 62
   214
370
     9
100
AcDbLine
 10
506.1735467574675
 20
598.1307752860508
 30
0.0
 11
506.1735467574676
 21
622.1212063163309
 31
0.0
  0
LINE
  5
3A7
330
3A2
100
AcDbEntity
  8
2
  6
Continuous
 62
   214
370
     9
100
AcDbLine
 10
531.1735467574675
 20
616.1212063163309
 30
0.0
 11
506.1735467574676
 21
616.1212063163309
 31
0.0
  0
MTEXT
  5
3A8
330
3A2
100
AcDbEntity
  8
2
  6
Continuous
 62
   214
370
     9
100
AcDbMText
 10
518.6735467574675
 20
617.6212063163309
 30
0.0
 40
9.0
 41
72.85714285714286
 46
9.0
 71
     8
 72
     1
  1
25
  7
ＭＳ ゴシック
 73
     1
 44
1.0
  0
INSERT
  5
3A9
330
3A2
100
AcDbEntity
  8
2
  6
Continuous
 62
   214
370
     9
100
AcDbBlockReference
  2
_OPEN
 10
531.1735467574675
 20
616.1212063163309
 30
0.0
 41
7.199999999999999
 42
7.199999999999999
 43
7.199999999999999
 50
359.9999999999997
  0
INSERT
  5
3AA
330
3A2
100
AcDbEntity
  8
2
  6
Continuous
 62
   214
370
     9
100
AcDbBlockReference
  2
_OPEN
 10
506.1735467574676
 20
616.1212063163309
 30
0.0
 41
7.199999999999999
 42
7.199999999999999
 43
7.199999999999999
 50
179.9999999999998
  0
ENDBLK
  5
3A4
330
3A2
100
AcDbEntity
  8
0
100
AcDbBlockEnd
  0
ENDSEC
  0
SECTION
  2
ENTITIES
  0
LINE
  5
E2
330
1F
100
AcDbEntity
  8
15
  6
Continuous
 62
    96
370
    50
100
AcDbLine
 10
45.0
 20
816.2273762057218
 30
0.0
 11
45.0
 21
44.99999999999994
 31
0.0
  0
LINE
  5
E3
330
1F
100
AcDbEntity
  8
15
  6
Continuous
 62
    96
370
    50
100
AcDbLine
 10
45.0
 20
44.99999999999994
 30
0.0
 11
1200.340621942423
 21
44.99999999999994
 31
0.0
  0
LINE
  5
E4
330
1F
100
AcDbEntity
  8
15
  6
Continuous
 62
    96
370
     9
100
AcDbLine
 10
1093.318512579822
 20
62.10533051713328
 30
0.0
 11
1055.919498413569
 21
62.10533051713328
 31
0.0
  0
MTEXT
  5
E5
330
1F
100
AcDbEntity
  8
15
  6
Continuous
 62
    96
370
     9
100
AcDbMText
 10
1002.61405432164
 20
59.07342299725472
 30
0.0
 40
5.401592518172372
 41
68.20020735420555
 46
5.401592518172372
 71
     7
 72
     1
  1
{\fＭＳ ゴシック;\W0.873016;出入管理システム}
 73
     1
 44
1.0
  0
MTEXT
  5
E6
330
1F
100
AcDbEntity
  8
15
  6
Continuous
 62
    96
370
     9
100
AcDbMText
 10
1002.82579016463
 20
47.42795163281545
 30
0.0
 40
10.80318503634474
 41
117.2495962254649
 46
10.80318503634474
 71
     7
 72
     1
  1
{\fＭＳ ゴシック;\W1.488095;\T1.026667;株式会社}
 73
     1
 44
1.0
  0
LINE
  5
E7
330
1F
100
AcDbEntity
  8
15
  6
Continuous
 62
    96
370
    30
100
AcDbLine
 10
943.1351956044791
 20
47.6364600587556
 30
0.0
 11
952.6385537348747
 21
47.6364600587556
 31
0.0
  0
LINE
  5
E8
330
1F
100
AcDbEntity
  8
15
  6
Continuous
 62
    96
370
    30
100
AcDbLine
 10
999.0575618711483
 20
59.1856438085103
 30
0.0
 11
999.0575618711483
 21
62.83274877271922
 31
0.0
  0
LINE
  5
E9
330
1F
100
AcDbEntity
  8
15
  6
Continuous
 62
    96
370
    30
100
AcDbLine
 10
995.1065427618555
 20
59.1856438085103
 30
0.0
 11
999.0575618711483
 21
59.1856438085103
 31
0.0
  0
LINE
  5
EA
330
1F
100
AcDbEntity
  8
15
  6
Continuous
 62
    96
370
    30
100
AcDbLine
 10
995.1065427618555
 20
47.6364600587556
 30
0.0
 11
995.1065427618555
 21
59.1856438085103
 31
0.0
  0
LINE
  5
EB
330
1F
100
AcDbEntity
  8
15
  6
Continuous
 62
    96
370
    30
100
AcDbLine
 10
990.8515757016788
 20
47.6364600587556
 30
0.0
 11
995.1065427618555
 21
47.6364600587556
 31
0.0
  0
LINE
  5
EC
330
1F
100
AcDbEntity
  8
15
  6
Continuous
 62
    96
370
    30
100
AcDbLine
 10
988.2946739927327
 20
47.6364600587556
 30
0.0
 11
982.9495036772928
 21
47.6364600587556
 31
0.0
  0
LINE
  5
ED
330
1F
100
AcDbEntity
  8
15
  6
Continuous
 62
    96
370
    30
100
AcDbLine
 10
960.7629124188354
 20
47.6364600587556
 30
0.0
 11
973.8317142221301
 21
47.6364600587556
 31
0.0
  0
LINE
  5
EE
330
1F
100
AcDbEntity
  8
15
  6
Continuous
 62
    96
370
    30
100
AcDbLine
 10
960.7629124188354
 20
54.01890050728111
 30
0.0
 11
960.7629124188354
 21
47.6364600587556
 31
0.0
  0
HATCH
  5
EF
330
1F
100
AcDbEntity
  8
15
  6
Continuous
 62
    96
370
     9
100
AcDbHatch
 10
0.0
 20
0.0
 30
0.0
210
0.0
220
0.0
230
1.0
  2
SOLID
 70
     1
 71
     0
 91
        1
 92
        0
 93
        9
 72
     1
 10
982.9546363123768
 20
52.6204997302001
 11
988.2946739927327
 21
47.6364600587556
 72
     1
 10
988.2946739927327
 20
47.6364600587556
 11
982.9495036772928
 21
47.6364600587556
 72
     1
 10
982.9495036772928
 20
47.6364600587556
 11
973.8317142221301
 21
56.14638065678958
 72
     1
 10
973.8317142221301
 20
56.14638065678958
 11
981.125944434028
 21
56.14638065678958
 72
     2
 10
981.125944434028
 20
57.66601223264986
 40
1.51963157586038
 50
270.0000000000001
 51
449.9999999999999
 73
     1
 72
     1
 10
981.125944434028
 20
59.1856438085103
 11
975.0474248917474
 21
59.1856438085103
 72
     1
 10
975.0474248917474
 20
59.1856438085103
 11
975.0474248917474
 21
62.83274877271922
 72
     1
 10
975.0474248917474
 20
62.83274877271922
 11
981.1259252775952
 21
62.83274877271922
 72
     2
 10
981.7017991982318
 20
57.66601223264986
 40
5.198730349513839
 50
263.6401783120936
 51
436.0550774693177
 73
     0
 97
        0
 75
     0
 76
     1
 98
        0
  0
HATCH
  5
F0
330
1F
100
AcDbEntity
  8
15
  6
Continuous
 62
    96
370
     9
100
AcDbHatch
 10
0.0
 20
0.0
 30
0.0
210
0.0
220
0.0
230
1.0
  2
SOLID
 70
     1
 71
     0
 91
        1
 92
        0
 93
        8
 72
     1
 10
986.9005295477457
 20
62.83274877271922
 11
999.0575618711483
 21
62.83274877271922
 72
     1
 10
999.0575618711483
 20
62.83274877271922
 11
999.0575618711483
 21
59.1856438085103
 72
     1
 10
999.0575618711483
 20
59.1856438085103
 11
995.1065427618555
 21
59.1856438085103
 72
     1
 10
995.1065427618555
 20
59.1856438085103
 11
995.1065427618555
 21
47.6364600587556
 72
     1
 10
995.1065427618555
 20
47.6364600587556
 11
990.8515757016788
 21
47.6364600587556
 72
     1
 10
990.8515757016788
 20
47.6364600587556
 11
990.8515757016788
 21
59.1856438085103
 72
     1
 10
990.8515757016788
 20
59.1856438085103
 11
986.9005295477457
 21
59.1856438085103
 72
     1
 10
986.9005295477457
 20
59.1856438085103
 11
986.9005295477457
 21
62.83274877271922
 97
        0
 75
     0
 76
     1
 98
        0
  0
LINE
  5
F1
330
1F
100
AcDbEntity
  8
15
  6
Continuous
 62
    96
370
    30
100
AcDbLine
 10
952.6385537348747
 20
47.6364600587556
 30
0.0
 11
967.449280534765
 21
62.30054405791862
 31
0.0
  0
LINE
  5
F2
330
1F
100
AcDbEntity
  8
15
  6
Continuous
 62
    96
370
    30
100
AcDbLine
 10
967.449280534765
 20
62.30054405791862
 30
0.0
 11
967.449280534765
 21
54.01890050728111
 31
0.0
  0
LINE
  5
F3
330
1F
100
AcDbEntity
  8
15
  6
Continuous
 62
    96
370
    30
100
AcDbLine
 10
967.449280534765
 20
54.01890050728111
 30
0.0
 11
960.7629124188354
 21
54.01890050728111
 31
0.0
  0
LINE
  5
F4
330
1F
100
AcDbEntity
  8
15
  6
Continuous
 62
    96
370
    30
100
AcDbLine
 10
973.8317142221301
 20
56.14638065678958
 30
0.0
 11
982.9495036772928
 21
47.6364600587556
 31
0.0
  0
ARC
  5
F5
330
1F
100
AcDbEntity
  8
15
  6
Continuous
 62
    96
370
    30
100
AcDbCircle
 10
981.125944434028
 20
57.66601223264986
 30
0.0
 40
1.51963157586038
100
AcDbArc
 50
270.0000000949009
 51
89.99999990509872
  0
LINE
  5
F6
330
1F
100
AcDbEntity
  8
15
  6
Continuous
 62
    96
370
    30
100
AcDbLine
 10
973.8317142221301
 20
56.14638065678958
 30
0.0
 11
981.125944434028
 21
56.14638065678958
 31
0.0
  0
LINE
  5
F7
330
1F
100
AcDbEntity
  8
15
  6
Continuous
 62
    96
370
    30
100
AcDbLine
 10
975.0474248917474
 20
59.1856438085103
 30
0.0
 11
981.125944434028
 21
59.1856438085103
 31
0.0
  0
LINE
  5
F8
330
1F
100
AcDbEntity
  8
15
  6
Continuous
 62
    96
370
    30
100
AcDbLine
 10
975.0474248917474
 20
62.83274877271922
 30
0.0
 11
975.0474248917474
 21
59.1856438085103
 31
0.0
  0
LINE
  5
F9
330
1F
100
AcDbEntity
  8
15
  6
Continuous
 62
    96
370
    30
100
AcDbLine
 10
975.0474248917474
 20
62.83274877271922
 30
0.0
 11
982.2776674847561
 21
62.83274877271922
 31
0.0
  0
ARC
  5
FA
330
1F
100
AcDbEntity
  8
15
  6
Continuous
 62
    96
370
    30
100
AcDbCircle
 10
981.7017991982318
 20
57.66601223264986
 30
0.0
 40
5.198730349513839
100
AcDbArc
 50
283.9448466306301
 51
83.64029606427442
  0
LINE
  5
FB
330
1F
100
AcDbEntity
  8
15
  6
Continuous
 62
    96
370
    30
100
AcDbLine
 10
982.9495036772928
 20
52.62529019393941
 30
0.0
 11
988.2946739927327
 21
47.6364600587556
 31
0.0
  0
LINE
  5
FC
330
1F
100
AcDbEntity
  8
15
  6
Continuous
 62
    96
370
    30
100
AcDbLine
 10
999.0575618711483
 20
62.83274877271922
 30
0.0
 11
986.9005295477457
 21
62.83274877271922
 31
0.0
  0
LINE
  5
FD
330
1F
100
AcDbEntity
  8
15
  6
Continuous
 62
    96
370
    30
100
AcDbLine
 10
986.9005295477457
 20
62.83274877271922
 30
0.0
 11
986.9005295477457
 21
59.1856438085103
 31
0.0
  0
LINE
  5
FE
330
1F
100
AcDbEntity
  8
15
  6
Continuous
 62
    96
370
    30
100
AcDbLine
 10
986.9005295477457
 20
59.1856438085103
 30
0.0
 11
990.8515757016788
 21
59.1856438085103
 31
0.0
  0
LINE
  5
FF
330
1F
100
AcDbEntity
  8
15
  6
Continuous
 62
    96
370
    30
100
AcDbLine
 10
990.8515757016788
 20
59.1856438085103
 30
0.0
 11
990.8515757016788
 21
47.6364600587556
 31
0.0
  0
LINE
  5
100
330
1F
100
AcDbEntity
  8
15
  6
Continuous
 62
    96
370
    30
100
AcDbLine
 10
930.2609960338059
 20
44.99999999999994
 30
0.0
 11
930.2609960338059
 21
180.0398334792594
 31
0.0
  0
LINE
  5
101
330
1F
100
AcDbEntity
  8
15
  6
Continuous
 62
    96
370
     9
100
AcDbLine
 10
930.2609960338066
 20
153.0318708883976
 30
0.0
 11
1200.340621942423
 21
153.0318708883976
 31
0.0
  0
LINE
  5
102
330
1F
100
AcDbEntity
  8
15
  6
Continuous
 62
    96
370
     9
100
AcDbLine
 10
930.2609960338059
 20
153.0318503634473
 30
0.0
 11
1200.340621942423
 21
153.0318708883976
 31
0.0
  0
LINE
  5
103
330
1F
100
AcDbEntity
  8
15
  6
Continuous
 62
    96
370
     9
100
AcDbLine
 10
1200.340621942423
 20
81.010637312766
 30
0.0
 11
930.2609960338059
 21
81.01061678781568
 31
0.0
  0
LINE
  5
104
330
1F
100
AcDbEntity
  8
15
  6
Continuous
 62
    96
370
     9
100
AcDbLine
 10
975.2742670185751
 20
99.01592867129429
 30
0.0
 11
975.2742670185751
 21
81.01062020864077
 31
0.0
  0
LINE
  5
105
330
1F
100
AcDbEntity
  8
15
  6
Continuous
 62
    96
370
     9
100
AcDbLine
 10
973.8317142221301
 20
47.6364600587556
 30
0.0
 11
973.8317142221301
 21
78.02904424784265
 31
0.0
  0
LINE
  5
106
330
1F
100
AcDbEntity
  8
15
  6
Continuous
 62
    96
370
     9
100
AcDbLine
 10
973.8317142221301
 20
78.02904424784265
 30
0.0
 11
943.1351956044791
 21
47.6364600587556
 31
0.0
  0
HATCH
  5
107
330
1F
100
AcDbEntity
  8
15
  6
Continuous
 62
    96
370
     9
100
AcDbHatch
 10
0.0
 20
0.0
 30
0.0
210
0.0
220
0.0
230
1.0
  2
SOLID
 70
     1
 71
     0
 91
        1
 92
        0
 93
        8
 72
     1
 10
943.1351956044791
 20
47.6364600587556
 11
952.6385537348747
 21
47.6364600587556
 72
     1
 10
952.6385537348747
 20
47.6364600587556
 11
967.449280534765
 21
62.30054405791862
 72
     1
 10
967.449280534765
 20
62.30054405791862
 11
967.449280534765
 21
54.01890050728111
 72
     1
 10
967.449280534765
 20
54.01890050728111
 11
960.7629124188354
 21
54.01890050728111
 72
     1
 10
960.7629124188354
 20
54.01890050728111
 11
960.7629124188354
 21
47.6364600587556
 72
     1
 10
960.7629124188354
 20
47.6364600587556
 11
973.8317142221301
 21
47.6364600587556
 72
     1
 10
973.8317142221301
 20
47.6364600587556
 11
973.8317142221301
 21
78.02904424784265
 72
     1
 10
973.8317142221301
 20
78.02904424784265
 11
943.1351956044791
 21
47.6364600587556
 97
        0
 75
     0
 76
     1
 98
        0
  0
INSERT
  5
10C
330
1F
100
AcDbEntity
  8
0
100
AcDbBlockReference
  2
*G16
 10
0.0
 20
0.0
 30
0.0
  0
MTEXT
  5
10D
330
1F
100
AcDbEntity
  8
15
  6
Continuous
 62
    96
370
     9
100
AcDbMText
 10
1099.83744914598
 20
46.16097682146608
 30
0.0
 40
30.00884732317984
 41
108.6546765950533
 46
30.00884732317984
 71
     7
 72
     1
  1
{\fＭＳ ゴシック|b1;\W0.714286;アート}
 73
     1
 44
1.0
  0
LINE
  5
10E
330
1F
100
AcDbEntity
  8
15
  6
Continuous
 62
    96
370
     9
100
AcDbLine
 10
975.2742670185751
 20
126.0238877725855
 30
0.0
 11
975.2742670185751
 21
99.01592867129429
 31
0.0
  0
LINE
  5
10F
330
1F
100
AcDbEntity
  8
15
  6
Continuous
 62
    96
370
     9
100
AcDbLine
 10
1050.296385326525
 20
126.0238877725855
 30
0.0
 11
1050.296385326525
 21
99.01593437266936
 31
0.0
  0
LINE
  5
110
330
1F
100
AcDbEntity
  8
15
  6
Continuous
 62
    96
370
     9
100
AcDbLine
 10
1125.318503634475
 20
126.0238877725855
 30
0.0
 11
1125.318503634475
 21
99.01594007404444
 31
0.0
  0
LINE
  5
111
330
1F
100
AcDbEntity
  8
15
  6
Continuous
 62
    96
370
    30
100
AcDbLine
 10
930.2609960338066
 20
799.7225101779732
 30
0.0
 11
1200.340621942423
 21
799.7225101779732
 31
0.0
  0
LINE
  5
112
330
1F
100
AcDbEntity
  8
15
  6
Continuous
 62
    96
370
    30
100
AcDbLine
 10
930.2609960338066
 20
783.2176441502241
 30
0.0
 11
1200.340621942423
 21
783.2176441502241
 31
0.0
  0
LINE
  5
113
330
1F
100
AcDbEntity
  8
15
  6
Continuous
 62
    96
370
     9
100
AcDbLine
 10
930.2609960338066
 20
766.7127781224751
 30
0.0
 11
1200.340621942423
 21
766.7127781224751
 31
0.0
  0
LINE
  5
114
330
1F
100
AcDbEntity
  8
15
  6
Continuous
 62
    96
370
     9
100
AcDbLine
 10
1200.340621942423
 20
750.2079120947261
 30
0.0
 11
930.2609960338066
 21
750.2079120947261
 31
0.0
  0
LINE
  5
115
330
1F
100
AcDbEntity
  8
15
  6
Continuous
 62
    96
370
     9
100
AcDbLine
 10
930.2609960338066
 20
684.1884479837306
 30
0.0
 11
1200.340621942423
 21
684.1884479837306
 31
0.0
  0
LINE
  5
116
330
1F
100
AcDbEntity
  8
15
  6
Continuous
 62
    96
370
     9
100
AcDbLine
 10
930.2609960338066
 20
700.6933140114795
 30
0.0
 11
1200.340621942423
 21
700.6933140114795
 31
0.0
  0
LINE
  5
117
330
1F
100
AcDbEntity
  8
15
  6
Continuous
 62
    96
370
    30
100
AcDbLine
 10
930.2609960338066
 20
816.2273762057218
 30
0.0
 11
930.2609960338066
 21
217.5508926332345
 31
0.0
  0
LINE
  5
118
330
1F
100
AcDbEntity
  8
15
  6
Continuous
 62
    96
370
    30
100
AcDbLine
 10
930.2609960338066
 20
180.0398334792594
 30
0.0
 11
930.2609960338066
 21
217.5508926332345
 31
0.0
  0
LINE
  5
119
330
1F
100
AcDbEntity
  8
15
  6
Continuous
 62
    96
370
    50
100
AcDbLine
 10
45.0
 20
816.2273762057218
 30
0.0
 11
1200.341400000406
 21
816.2273762057218
 31
0.0
  0
LINE
  5
11A
330
1F
100
AcDbEntity
  8
15
  6
Continuous
 62
    96
370
    50
100
AcDbLine
 10
1200.3414
 20
44.99903142254226
 30
0.0
 11
1200.3414
 21
816.2264076989802
 31
0.0
  0
LINE
  5
11B
330
1F
100
AcDbEntity
  8
15
  6
Continuous
 62
    96
370
     9
100
AcDbLine
 10
930.2594328553807
 20
178.5393705881502
 30
0.0
 11
1200.339058763998
 21
178.5393705881502
 31
0.0
  0
LINE
  5
11C
330
1F
100
AcDbEntity
  8
15
  6
Continuous
 62
    96
370
     9
100
AcDbLine
 10
1004.857970754237
 20
816.2273762057218
 30
0.0
 11
1004.857970754237
 21
799.7225101779735
 31
0.0
  0
LINE
  5
11D
330
1F
100
AcDbEntity
  8
15
  6
Continuous
 62
    96
370
    30
100
AcDbLine
 10
930.2594328553807
 20
195.0442366158991
 30
0.0
 11
1200.339058763997
 21
195.0442366158989
 31
0.0
  0
LINE
  5
11E
330
1F
100
AcDbEntity
  8
15
  6
Continuous
 62
    96
370
    30
100
AcDbLine
 10
930.2594328553807
 20
178.5393705881502
 30
0.0
 11
1200.339058763997
 21
178.5393705881501
 31
0.0
  0
LINE
  5
11F
330
1F
100
AcDbEntity
  8
15
  6
Continuous
 62
    96
370
     9
100
AcDbLine
 10
1005.281551163329
 20
195.0442366158989
 30
0.0
 11
1005.281551163329
 21
178.5393705881501
 31
0.0
  0
LINE
  5
120
330
1F
100
AcDbEntity
  8
15
  6
Continuous
 62
    96
370
    30
100
AcDbLine
 10
930.2594328553807
 20
178.5393705881501
 30
0.0
 11
1200.339058763997
 21
178.5393705881501
 31
0.0
  0
LINE
  5
121
330
1F
100
AcDbEntity
  8
15
  6
Continuous
 62
    96
370
     9
100
AcDbLine
 10
1065.361503698185
 20
99.01062705569693
 30
0.0
 11
1065.361503698185
 21
81.01062705569692
 31
0.0
  0
LINE
  5
122
330
1F
100
AcDbEntity
  8
15
  6
Continuous
 62
    96
370
     9
100
AcDbLine
 10
1086.361503698185
 20
99.01064186459001
 30
0.0
 11
1086.361503698185
 21
81.01064179586467
 31
0.0
  0
LINE
  5
123
330
1F
100
AcDbEntity
  8
15
  6
Continuous
 62
    96
370
     9
100
AcDbLine
 10
1164.340621942423
 20
99.01063457828812
 30
0.0
 11
1164.340621942423
 21
81.01063457691279
 31
0.0
  0
LINE
  5
124
330
1F
100
AcDbEntity
  8
15
  6
Continuous
 62
    96
370
     9
100
AcDbLine
 10
1173.49268992432
 20
96.73063457760044
 30
0.0
 11
1173.49268992432
 21
83.29063457760047
 31
0.0
  0
CIRCLE
  5
125
330
1F
100
AcDbEntity
  8
15
  6
Continuous
 62
    96
370
     9
100
AcDbCircle
 10
1173.49268992432
 20
90.01063457760046
 30
0.0
 40
2.879999999999939
  0
CIRCLE
  5
126
330
1F
100
AcDbEntity
  8
15
  6
Continuous
 62
    96
370
     9
100
AcDbCircle
 10
1173.49268992432
 20
90.01063457760046
 30
0.0
 40
4.800000000000068
  0
LINE
  5
127
330
1F
100
AcDbEntity
  8
15
  6
Continuous
 62
    96
370
     9
100
AcDbLine
 10
1181.410503698184
 20
92.89063457760044
 30
0.0
 11
1181.410503698184
 21
87.13063457760047
 31
0.0
  0
LINE
  5
128
330
1F
100
AcDbEntity
  8
15
  6
Continuous
 62
    96
370
     9
100
AcDbLine
 10
1196.770503698184
 20
94.81063457760047
 30
0.0
 11
1196.770503698184
 21
85.21063457760043
 31
0.0
  0
LINE
  5
129
330
1F
100
AcDbEntity
  8
15
  6
Continuous
 62
    96
370
     9
100
AcDbLine
 10
1181.410503698184
 20
92.89063457760044
 30
0.0
 11
1196.770503698184
 21
94.81063457760047
 31
0.0
  0
LINE
  5
12A
330
1F
100
AcDbEntity
  8
15
  6
Continuous
 62
    96
370
     9
100
AcDbLine
 10
1181.410503698184
 20
87.13063457760047
 30
0.0
 11
1196.770503698184
 21
85.21063457760043
 31
0.0
  0
LINE
  5
12B
330
1F
100
AcDbEntity
  8
15
  6
Continuous
 62
    96
370
     9
100
AcDbLine
 10
1166.77268992432
 20
90.01063457760046
 30
0.0
 11
1198.408503698184
 21
90.01063457760046
 31
0.0
  0
LINE
  5
12C
330
1F
100
AcDbEntity
  8
15
  6
Continuous
 62
    96
370
     9
100
AcDbLine
 10
1200.3414
 20
99.01594570667399
 30
0.0
 11
930.2609960338059
 21
99.01592518172367
 31
0.0
  0
LINE
  5
12D
330
1F
100
AcDbEntity
  8
15
  6
Continuous
 62
    96
370
     9
100
AcDbLine
 10
930.2609960338059
 20
126.0238877725855
 30
0.0
 11
1200.3414
 21
126.0238877725855
 31
0.0
  0
LINE
  5
12E
330
1F
100
AcDbEntity
  8
15
  6
Continuous
 62
    96
370
     9
100
AcDbLine
 10
967.5594833940216
 20
733.7030460669773
 30
0.0
 11
1200.340621942423
 21
733.7030460669773
 31
0.0
  0
LINE
  5
12F
330
1F
100
AcDbEntity
  8
15
  6
Continuous
 62
    96
370
    30
100
AcDbLine
 10
1200.776987544526
 20
436.3043894183451
 30
0.0
 11
1200.776987544526
 21
442.7005834069445
 31
0.0
  0
MTEXT
  5
130
330
1F
100
AcDbEntity
  8
15
  6
PHANTOM
 62
    96
370
     9
100
AcDbMText
 10
967.7720551877801
 20
807.9749431918475
 30
0.0
 40
9.0
 41
61.07574701913126
 46
9.0
 71
     5
 72
     1
  1
{\fＭＳ ゴシック;\W0.714286;\T1.133333;商品コード}
 73
     1
 44
1.0
  0
MTEXT
  5
131
330
1F
100
AcDbEntity
  8
15
  6
PHANTOM
 62
    96
370
     9
100
AcDbMText
 10
1065.300808988115
 20
791.4700771640985
 30
0.0
 40
9.0
 41
86.49320848303384
 46
9.0
 71
     5
 72
     1
  1
{\fＭＳ ゴシック;\W0.714286;\T1.133333;定　　　　　格}
 73
     1
 44
1.0
  0
MTEXT
  5
132
330
1F
100
AcDbEntity
  8
15
  6
PHANTOM
 62
    96
370
     9
100
AcDbMText
 10
967.7720551877801
 20
774.9652111363496
 30
0.0
 40
9.0
 41
35.9824715403131
 46
9.0
 71
     5
 72
     1
  1
{\fＭＳ ゴシック;\W0.714286;\T1.133333;材　質}
 73
     1
 44
1.0
  0
MTEXT
  5
133
330
1F
100
AcDbEntity
  8
15
  6
PHANTOM
 62
    96
370
     9
100
AcDbMText
 10
967.7720551877808
 20
758.4603451086006
 30
0.0
 40
9.0
 41
35.65486105538626
 46
9.0
 71
     5
 72
     1
  1
{\fＭＳ ゴシック;\W0.714286;\T1.133333;仕　上}
 73
     1
 44
1.0
  0
MTEXT
  5
134
330
1F
100
AcDbEntity
  8
15
  6
PHANTOM
 62
    96
370
     9
100
AcDbMText
 10
986.3522551877801
 20
741.5233290808518
 30
0.0
 40
9.0
 41
36.07421959859182
 46
9.0
 71
     5
 72
     1
  1
{\fＭＳ ゴシック;\W0.714286;\T1.133333;本　体}
 73
     1
 44
1.0
  0
MTEXT
  5
135
330
1F
100
AcDbEntity
  8
15
  6
Continuous
 62
    96
370
     9
100
AcDbMText
 10
931.8089439719104
 20
169.4141948858989
 30
0.0
 40
7.5
 41
29.9015625867479
 46
7.5
 71
     7
 72
     1
  1
{\fＭＳ ゴシック;\W0.714286;\T1.160000;型　式}
 73
     1
 44
1.0
  0
MTEXT
  5
136
330
1F
100
AcDbEntity
  8
15
  6
Continuous
 62
    96
370
     9
100
AcDbMText
 10
967.7704920093549
 20
186.7918036020246
 30
0.0
 40
9.0
 41
48.04247358336199
 46
9.0
 71
     5
 72
     1
  1
{\fＭＳ ゴシック;\W0.714286;\T1.133333;図面履歴}
 73
     1
 44
1.0
  0
MTEXT
  5
137
330
1F
100
AcDbEntity
  8
15
  6
Continuous
 62
    96
370
     9
100
AcDbMText
 10
934.7554421947005
 20
85.44399972475918
 30
0.0
 40
9.0
 41
47.99624283548903
 46
9.0
 71
     7
 72
     1
  1
{\fＭＳ ゴシック;\W0.714286;\T1.133333;図面番号}
 73
     1
 44
1.0
  0
MTEXT
  5
138
330
1F
100
AcDbEntity
  8
15
  6
Continuous
 62
    96
370
     9
100
AcDbMText
 10
1066.241002453197
 20
85.41623877913108
 30
0.0
 40
9.0
 41
21.51290579562673
 46
9.0
 71
     7
 72
     1
  1
{\fＭＳ ゴシック;\W0.714286;\T1.133333;日付}
 73
     1
 44
1.0
  0
MTEXT
  5
139
330
1F
100
AcDbEntity
  8
15
  6
Continuous
 62
    96
370
     9
100
AcDbMText
 10
1128.480360959804
 20
116.5676089680785
 30
0.0
 40
7.5
 41
19.0632726666608
 46
7.5
 71
     7
 72
     1
  1
{\fＭＳ ゴシック;\W0.714286;\T1.160000;作図}
 73
     1
 44
1.0
  0
MTEXT
  5
13A
330
1F
100
AcDbEntity
  8
15
  6
Continuous
 62
    96
370
     9
100
AcDbMText
 10
1052.458363490903
 20
116.5956557096127
 30
0.0
 40
7.5
 41
19.14056172560479
 46
7.5
 71
     7
 72
     1
  1
{\fＭＳ ゴシック;\W0.714286;\T1.160000;検図}
 73
     1
 44
1.0
  0
MTEXT
  5
13B
330
1F
100
AcDbEntity
  8
15
  6
Continuous
 62
    96
370
     9
100
AcDbMText
 10
977.4077451829528
 20
116.1405557096127
 30
0.0
 40
7.5
 41
19.75744732222227
 46
7.5
 71
     7
 72
     1
  1
{\fＭＳ ゴシック;\W0.714286;\T1.160000;承認}
 73
     1
 44
1.0
  0
MTEXT
  5
13C
330
1F
100
AcDbEntity
  8
15
  6
Continuous
 62
    96
370
     9
100
AcDbMText
 10
932.0665571503357
 20
143.7650817790334
 30
0.0
 40
7.5
 41
29.01345184635931
 46
7.5
 71
     7
 72
     1
  1
{\fＭＳ ゴシック;\W0.714286;\T1.160000;製品名}
 73
     1
 44
1.0
  0
MTEXT
  5
13D
330
1F
100
AcDbEntity
  8
15
  6
Continuous
 62
    96
370
     9
100
AcDbMText
 10
932.4989711275109
 20
116.1181263905282
 30
0.0
 40
7.5
 41
52.24514462748374
 46
7.5
 71
     7
 72
     1
  1
{\fＭＳ ゴシック;\W0.714286;縮尺（Ａ３）}
 73
     1
 44
1.0
  0
MTEXT
  5
13E
330
1F
100
AcDbEntity
  8
15
  6
Continuous
 62
    96
370
     9
100
AcDbMText
 10
938.7655931088871
 20
103.5456245564313
 30
0.0
 40
9.0
 41
30.51183304201373
 46
9.0
 71
     7
 72
     1
  1
{\fＭＳ ゴシック;\W0.714286;\T1.133333;１：３}
 73
     1
 44
1.0
  0
MTEXT
  5
13F
330
1F
100
AcDbEntity
  8
15
  6
Continuous
 62
    96
370
     9
100
AcDbMText
 10
579.2101945710035
 20
56.80358580162598
 30
0.0
 40
9.0
 41
393.8781198509974
 46
9.0
 71
     7
 72
     1
  1
{\fＭＳ ゴシック;\W0.714286;\T1.133333;＊記載されている会社名、製品名は、各社の登録商標または商標です。}
 73
     1
 44
1.0
  0
MTEXT
  5
140
330
1F
100
AcDbEntity
  8
15
  6
PHANTOM
 62
    96
370
     9
100
AcDbMText
 10
1102.811868142091
 20
774.9652111363496
 30
0.0
 40
9.0
 41
77.4134551320536
 46
9.0
 71
     5
 72
     1
  1
{\fＭＳ ゴシック;\W0.714286;\T1.133333;SPCDS　ｔ1.0}
 73
     1
 44
1.0
  0
MTEXT
  5
141
330
1F
100
AcDbEntity
  8
15
  6
PHANTOM
 62
    96
370
     9
100
AcDbMText
 10
1102.811868142091
 20
758.4603451086006
 30
0.0
 40
9.0
 41
123.5030850739987
 46
9.0
 71
     5
 72
     1
  1
{\fＭＳ ゴシック;\W0.714286;\T1.133333;メラミン樹脂焼付塗装}
 73
     1
 44
1.0
  0
MTEXT
  5
142
330
1F
100
AcDbEntity
  8
15
  6
PHANTOM
 62
    96
370
     9
100
AcDbMText
 10
1102.9737
 20
742.0668
 30
0.0
 40
9.0
 41
209.3675474776488
 46
9.0
 71
     5
 72
     1
  1
{\fＭＳ ゴシック;\W0.714286;\T1.133333;マンセル　2.5Ｙ 9/1　近似色　半艶}
 73
     1
 44
1.0
  0
MTEXT
  5
143
330
1F
100
AcDbEntity
  8
15
  6
PHANTOM
 62
    96
370
     9
100
AcDbMText
 10
986.3522551877801
 20
725.018463053103
 30
0.0
 40
9.0
 41
35.47293450125657
 46
9.0
 71
     5
 72
     1
  1
{\fＭＳ ゴシック;\W0.714286;\T1.133333;文　字}
 73
     1
 44
1.0
  0
LINE
  5
144
330
1F
100
AcDbEntity
  8
15
  6
Continuous
 62
    96
370
     9
100
AcDbLine
 10
930.2585707696826
 20
717.1981800392283
 30
0.0
 11
1200.340621942423
 21
717.1981800392283
 31
0.0
  0
MTEXT
  5
145
330
1F
100
AcDbEntity
  8
15
  6
PHANTOM
 62
    96
370
     9
100
AcDbMText
 10
948.5639752446699
 20
733.6840097869889
 30
0.0
 40
9.0
 41
35.65814286773526
 46
9.0
 71
     5
 72
     1
  1
{\fＭＳ ゴシック;\W0.714286;\T1.133333;彩　色}
 73
     1
 44
1.0
  0
LINE
  5
146
330
1F
100
AcDbEntity
  8
15
  6
Continuous
 62
    96
370
     9
100
AcDbLine
 10
967.5594833940216
 20
750.2079120947261
 30
0.0
 11
967.5594833940216
 21
717.1981800392283
 31
0.0
  0
MTEXT
  5
147
330
1F
100
AcDbEntity
  8
15
  6
PHANTOM
 62
    96
370
     9
100
AcDbMText
 10
1102.79655
 20
708.8589
 30
0.0
 40
9.0
 41
36.91698703273862
 46
9.0
 71
     5
 72
     1
  1
{\fＭＳ ゴシック;\W0.714286;\T1.133333;約３kg}
 73
     1
 44
1.0
  0
MTEXT
  5
148
330
1F
100
AcDbEntity
  8
15
  6
Continuous
 62
    96
370
     9
100
AcDbMText
 10
968.3799999200778
 20
692.0465503757282
 30
0.0
 40
9.0
 41
48.50763481196022
 46
9.0
 71
     5
 72
     1
  1
{\fＭＳ ゴシック;\W0.714286;\T1.133333;入力電源}
 73
     1
 44
1.0
  0
MTEXT
  5
149
330
1F
100
AcDbEntity
  8
15
  6
Continuous
 62
    96
370
     9
100
AcDbMText
 10
968.3799999200778
 20
675.5416843479792
 30
0.0
 40
9.0
 41
47.58330522948803
 46
9.0
 71
     5
 72
     1
  1
{\fＭＳ ゴシック;\W0.714286;\T1.133333;消費電力}
 73
     1
 44
1.0
  0
MTEXT
  5
14A
330
1F
100
AcDbEntity
  8
15
  6
PHANTOM
 62
    96
370
     9
100
AcDbMText
 10
968.3799999200771
 20
708.551416403477
 30
0.0
 40
9.0
 41
35.70451630310165
 46
9.0
 71
     5
 72
     1
  1
{\fＭＳ ゴシック;\W0.714286;\T1.133333;重　量}
 73
     1
 44
1.0
  0
MTEXT
  5
14B
330
1F
100
AcDbEntity
  8
15
  6
PHANTOM
 62
    96
370
     9
100
AcDbMText
 10
1102.9083
 20
692.4409499999999
 30
0.0
 40
9.0
 41
83.30059842368982
 46
9.0
 71
     5
 72
     1
  1
{\fＭＳ ゴシック;\W0.714286;\T1.133333;AC100Ｖ±10％}
 73
     1
 44
1.0
  0
LINE
  5
14C
330
1F
100
AcDbEntity
  8
15
  6
Continuous
 62
    96
370
     9
100
AcDbLine
 10
1004.857970754237
 20
783.2580691000933
 30
0.0
 11
1004.857970754237
 21
667.6835819559817
 31
0.0
  0
MTEXT
  5
14D
330
1F
100
AcDbEntity
  8
15
  6
Continuous
 62
    96
370
     9
100
AcDbMText
 10
1065.210551762622
 20
139.333042618826
 30
0.0
 40
15.0
 41
243.026727643493
 46
15.0
 71
     5
 72
     1
  1
{\fＭＳ ゴシック;\W0.714286;\T1.080000;デジタルテンキー入力装置}
 73
     1
 44
1.0
  0
LINE
  5
14E
330
1F
100
AcDbEntity
  8
1
  6
Continuous
 62
     7
370
    30
100
AcDbLine
 10
247.6063787771003
 20
325.4712063163311
 30
0.0
 11
247.6063787771003
 21
321.7088303163312
 31
0.0
  0
LINE
  5
14F
330
1F
100
AcDbEntity
  8
1
  6
Continuous
 62
     7
370
    30
100
AcDbLine
 10
247.2063787771002
 20
329.6712063163312
 30
0.0
 11
247.2063787771002
 21
325.4712063163311
 31
0.0
  0
LINE
  5
150
330
1F
100
AcDbEntity
  8
1
  6
Continuous
 62
     7
370
    30
100
AcDbLine
 10
247.2063787771002
 20
325.4712063163311
 30
0.0
 11
247.6063787771003
 21
325.4712063163311
 31
0.0
  0
LINE
  5
151
330
1F
100
AcDbEntity
  8
1
  6
Continuous
 62
     7
370
    30
100
AcDbLine
 10
246.0063787771004
 20
329.6712063163312
 30
0.0
 11
247.2063787771002
 21
329.6712063163312
 31
0.0
  0
LINE
  5
152
330
1F
100
AcDbEntity
  8
1
  6
Continuous
 62
     7
370
    30
100
AcDbLine
 10
246.0063787771004
 20
325.4712063163311
 30
0.0
 11
246.0063787771004
 21
329.6712063163312
 31
0.0
  0
LINE
  5
153
330
1F
100
AcDbEntity
  8
1
  6
Continuous
 62
     7
370
    30
100
AcDbLine
 10
245.6063797771002
 20
325.4712063163311
 30
0.0
 11
246.0063787771004
 21
325.4712063163311
 31
0.0
  0
LINE
  5
154
330
1F
100
AcDbEntity
  8
1
  6
Continuous
 62
     7
370
    30
100
AcDbLine
 10
245.6063787771001
 20
321.7088303163312
 30
0.0
 11
245.6063797771002
 21
325.4712063163311
 31
0.0
  0
ARC
  5
155
330
1F
100
AcDbEntity
  8
1
  6
Continuous
 62
     7
370
    30
100
AcDbCircle
 10
246.6063787771003
 20
327.5640263163311
 30
0.0
 40
1.300000000000001
100
AcDbArc
 50
242.5135739999972
 51
297.4864259999932
  0
CIRCLE
  5
156
330
1F
100
AcDbEntity
  8
1
  6
Continuous
 62
     7
370
    30
100
AcDbCircle
 10
246.6063787771003
 20
329.871206316331
 30
0.0
 40
9.0
  0
ARC
  5
157
330
1F
100
AcDbEntity
  8
1
  6
Continuous
 62
     7
370
    30
100
AcDbCircle
 10
246.6063787771003
 20
324.8712063163312
 30
0.0
 40
2.5
100
AcDbArc
 50
103.8865400000024
 51
246.4218219999982
  0
ARC
  5
158
330
1F
100
AcDbEntity
  8
1
  6
Continuous
 62
     7
370
    30
100
AcDbCircle
 10
246.6063787771003
 20
327.3712063163312
 30
0.0
 40
5.0
100
AcDbArc
 50
258.4630409999994
 51
281.5369589999999
  0
ARC
  5
159
330
1F
100
AcDbEntity
  8
1
  6
Continuous
 62
     7
370
    30
100
AcDbCircle
 10
246.6063787771003
 20
324.8712063163312
 30
0.0
 40
2.5
100
AcDbArc
 50
293.5781780000011
 51
76.11346000000262
  0
CIRCLE
  5
15A
330
1F
100
AcDbEntity
  8
1
  6
Continuous
 62
     7
370
    30
100
AcDbCircle
 10
246.6063787771003
 20
329.871206316331
 30
0.0
 40
10.0
  0
CIRCLE
  5
15B
330
1F
100
AcDbEntity
  8
1
  6
Continuous
 62
     7
370
    30
100
AcDbCircle
 10
246.6063787771003
 20
327.3712063163312
 30
0.0
 40
5.75
  0
LINE
  5
15C
330
1F
100
AcDbEntity
  8
1
  6
Continuous
 62
     7
370
    30
100
AcDbLine
 10
249.5313787771003
 20
335.121206316331
 30
0.0
 11
249.5313787771003
 21
335.496206316331
 31
0.0
  0
LINE
  5
15D
330
1F
100
AcDbEntity
  8
1
  6
Continuous
 62
     7
370
    30
100
AcDbLine
 10
249.9813787771003
 20
335.121206316331
 30
0.0
 11
249.9813787771003
 21
336.0962063163312
 31
0.0
  0
LINE
  5
15E
330
1F
100
AcDbEntity
  8
1
  6
Continuous
 62
     7
370
    30
100
AcDbLine
 10
249.6063787771003
 20
335.121206316331
 30
0.0
 11
249.9813787771003
 21
335.121206316331
 31
0.0
  0
LINE
  5
15F
330
1F
100
AcDbEntity
  8
1
  6
Continuous
 62
     7
370
    30
100
AcDbLine
 10
249.6063787771003
 20
336.621206316331
 30
0.0
 11
249.6063787771003
 21
335.121206316331
 31
0.0
  0
LINE
  5
160
330
1F
100
AcDbEntity
  8
1
  6
Continuous
 62
     7
370
    30
100
AcDbLine
 10
250.0563787771001
 20
336.621206316331
 30
0.0
 11
249.6063787771003
 21
336.621206316331
 31
0.0
  0
LINE
  5
161
330
1F
100
AcDbEntity
  8
1
  6
Continuous
 62
     7
370
    30
100
AcDbLine
 10
250.0563787771001
 20
336.621206316331
 30
0.0
 11
250.7313787771003
 21
335.6462063163312
 31
0.0
  0
LINE
  5
162
330
1F
100
AcDbEntity
  8
1
  6
Continuous
 62
     7
370
    30
100
AcDbLine
 10
250.7313787771003
 20
336.621206316331
 30
0.0
 11
250.7313787771003
 21
335.6462063163312
 31
0.0
  0
LINE
  5
163
330
1F
100
AcDbEntity
  8
1
  6
Continuous
 62
     7
370
    30
100
AcDbLine
 10
251.1063787771003
 20
336.621206316331
 30
0.0
 11
250.7313787771003
 21
336.621206316331
 31
0.0
  0
LINE
  5
164
330
1F
100
AcDbEntity
  8
1
  6
Continuous
 62
     7
370
    30
100
AcDbLine
 10
251.1063787771003
 20
335.121206316331
 30
0.0
 11
250.6563787771003
 21
335.121206316331
 31
0.0
  0
LINE
  5
165
330
1F
100
AcDbEntity
  8
1
  6
Continuous
 62
     7
370
    30
100
AcDbLine
 10
248.1813787771001
 20
336.0212063163312
 30
0.0
 11
248.1813787771001
 21
336.1712063163311
 31
0.0
  0
LINE
  5
166
330
1F
100
AcDbEntity
  8
1
  6
Continuous
 62
     7
370
    30
100
AcDbLine
 10
247.8063787771001
 20
336.0212063163312
 30
0.0
 11
248.1813787771001
 21
336.0212063163312
 31
0.0
  0
LINE
  5
167
330
1F
100
AcDbEntity
  8
1
  6
Continuous
 62
     7
370
    30
100
AcDbLine
 10
247.8063787771001
 20
336.0962063163312
 30
0.0
 11
247.8063787771001
 21
336.0212063163312
 31
0.0
  0
LINE
  5
168
330
1F
100
AcDbEntity
  8
1
  6
Continuous
 62
     7
370
    30
100
AcDbLine
 10
247.2063787771002
 20
336.246206316331
 30
0.0
 11
247.6563787771003
 21
336.246206316331
 31
0.0
  0
LINE
  5
169
330
1F
100
AcDbEntity
  8
1
  6
Continuous
 62
     7
370
    30
100
AcDbLine
 10
247.0563787771001
 20
335.6462063163312
 30
0.0
 11
247.0563787771001
 21
336.0962063163312
 31
0.0
  0
LINE
  5
16A
330
1F
100
AcDbEntity
  8
1
  6
Continuous
 62
     7
370
    30
100
AcDbLine
 10
247.6563787771003
 20
335.496206316331
 30
0.0
 11
247.2063787771002
 21
335.496206316331
 31
0.0
  0
LINE
  5
16B
330
1F
100
AcDbEntity
  8
1
  6
Continuous
 62
     7
370
    30
100
AcDbLine
 10
247.4313787771001
 20
335.6462063163312
 30
0.0
 11
247.8063787771001
 21
335.6462063163312
 31
0.0
  0
LINE
  5
16C
330
1F
100
AcDbEntity
  8
1
  6
Continuous
 62
     7
370
    30
100
AcDbLine
 10
247.4313787771001
 20
335.9462063163312
 30
0.0
 11
247.4313787771001
 21
335.6462063163312
 31
0.0
  0
LINE
  5
16D
330
1F
100
AcDbEntity
  8
1
  6
Continuous
 62
     7
370
    30
100
AcDbLine
 10
248.1813787771001
 20
335.9462063163312
 30
0.0
 11
247.4313787771001
 21
335.9462063163312
 31
0.0
  0
LINE
  5
16E
330
1F
100
AcDbEntity
  8
1
  6
Continuous
 62
     7
370
    30
100
AcDbLine
 10
248.1813787771001
 20
335.5712063163312
 30
0.0
 11
248.1813787771001
 21
335.9462063163312
 31
0.0
  0
LINE
  5
16F
330
1F
100
AcDbEntity
  8
1
  6
Continuous
 62
     7
370
    30
100
AcDbLine
 10
248.2563787771004
 20
335.121206316331
 30
0.0
 11
249.5313787771003
 21
335.121206316331
 31
0.0
  0
LINE
  5
170
330
1F
100
AcDbEntity
  8
1
  6
Continuous
 62
     7
370
    30
100
AcDbLine
 10
248.2563787771004
 20
336.621206316331
 30
0.0
 11
248.2563787771004
 21
335.121206316331
 31
0.0
  0
LINE
  5
171
330
1F
100
AcDbEntity
  8
1
  6
Continuous
 62
     7
370
    30
100
AcDbLine
 10
249.5313787771003
 20
336.621206316331
 30
0.0
 11
248.2563787771004
 21
336.621206316331
 31
0.0
  0
LINE
  5
172
330
1F
100
AcDbEntity
  8
1
  6
Continuous
 62
     7
370
    30
100
AcDbLine
 10
251.1063787771003
 20
336.621206316331
 30
0.0
 11
251.1063787771003
 21
335.121206316331
 31
0.0
  0
LINE
  5
173
330
1F
100
AcDbEntity
  8
1
  6
Continuous
 62
     7
370
    30
100
AcDbLine
 10
245.5563787771001
 20
335.9462063163312
 30
0.0
 11
246.0813787771002
 21
336.621206316331
 31
0.0
  0
LINE
  5
174
330
1F
100
AcDbEntity
  8
1
  6
Continuous
 62
     7
370
    30
100
AcDbLine
 10
246.2313787771003
 20
335.121206316331
 30
0.0
 11
246.6063787771003
 21
335.121206316331
 31
0.0
  0
LINE
  5
175
330
1F
100
AcDbEntity
  8
1
  6
Continuous
 62
     7
370
    30
100
AcDbLine
 10
246.0813787771002
 20
336.621206316331
 30
0.0
 11
245.6313787771004
 21
336.621206316331
 31
0.0
  0
LINE
  5
176
330
1F
100
AcDbEntity
  8
1
  6
Continuous
 62
     7
370
    30
100
AcDbLine
 10
245.6313787771004
 20
336.621206316331
 30
0.0
 11
245.1063787771003
 21
335.9462063163312
 31
0.0
  0
LINE
  5
177
330
1F
100
AcDbEntity
  8
1
  6
Continuous
 62
     7
370
    30
100
AcDbLine
 10
246.6063787771003
 20
336.621206316331
 30
0.0
 11
246.2313787771003
 21
336.621206316331
 31
0.0
  0
LINE
  5
178
330
1F
100
AcDbEntity
  8
1
  6
Continuous
 62
     7
370
    30
100
AcDbLine
 10
245.7063787771002
 20
335.121206316331
 30
0.0
 11
246.1563787771003
 21
335.121206316331
 31
0.0
  0
LINE
  5
179
330
1F
100
AcDbEntity
  8
1
  6
Continuous
 62
     7
370
    30
100
AcDbLine
 10
246.1563787771003
 20
335.121206316331
 30
0.0
 11
245.5563787771001
 21
335.9462063163312
 31
0.0
  0
LINE
  5
17A
330
1F
100
AcDbEntity
  8
1
  6
Continuous
 62
     7
370
    30
100
AcDbLine
 10
246.6063787771003
 20
335.121206316331
 30
0.0
 11
246.6063787771003
 21
336.621206316331
 31
0.0
  0
LINE
  5
17B
330
1F
100
AcDbEntity
  8
1
  6
Continuous
 62
     7
370
    30
100
AcDbLine
 10
245.1063787771003
 20
336.621206316331
 30
0.0
 11
244.7313787771003
 21
336.621206316331
 31
0.0
  0
LINE
  5
17C
330
1F
100
AcDbEntity
  8
1
  6
Continuous
 62
     7
370
    30
100
AcDbLine
 10
245.1063787771003
 20
335.9462063163312
 30
0.0
 11
245.7063787771002
 21
335.121206316331
 31
0.0
  0
LINE
  5
17D
330
1F
100
AcDbEntity
  8
1
  6
Continuous
 62
     7
370
    30
100
AcDbLine
 10
244.2153787771002
 20
335.3462063163312
 30
0.0
 11
244.2963787771004
 21
335.121206316331
 31
0.0
  0
LINE
  5
17E
330
1F
100
AcDbEntity
  8
1
  6
Continuous
 62
     7
370
    30
100
AcDbLine
 10
248.6313787771004
 20
335.496206316331
 30
0.0
 11
248.6313787771004
 21
335.7212063163312
 31
0.0
  0
LINE
  5
17F
330
1F
100
AcDbEntity
  8
1
  6
Continuous
 62
     7
370
    30
100
AcDbLine
 10
249.5313787771003
 20
335.496206316331
 30
0.0
 11
248.6313787771004
 21
335.496206316331
 31
0.0
  0
LINE
  5
180
330
1F
100
AcDbEntity
  8
1
  6
Continuous
 62
     7
370
    30
100
AcDbLine
 10
243.9063787771003
 20
336.2045403163312
 30
0.0
 11
244.0857787771002
 21
335.7062063163312
 31
0.0
  0
LINE
  5
181
330
1F
100
AcDbEntity
  8
1
  6
Continuous
 62
     7
370
    30
100
AcDbLine
 10
244.6713787771004
 20
335.121206316331
 30
0.0
 11
244.2963787771004
 21
335.121206316331
 31
0.0
  0
LINE
  5
182
330
1F
100
AcDbEntity
  8
1
  6
Continuous
 62
     7
370
    30
100
AcDbLine
 10
243.9063787771003
 20
336.2045403163312
 30
0.0
 11
243.7269787771003
 21
335.7062063163312
 31
0.0
  0
LINE
  5
183
330
1F
100
AcDbEntity
  8
1
  6
Continuous
 62
     7
370
    30
100
AcDbLine
 10
245.1063787771003
 20
335.121206316331
 30
0.0
 11
245.1063787771003
 21
336.621206316331
 31
0.0
  0
LINE
  5
184
330
1F
100
AcDbEntity
  8
1
  6
Continuous
 62
     7
370
    30
100
AcDbLine
 10
243.1413787771004
 20
335.121206316331
 30
0.0
 11
243.5163787771004
 21
335.121206316331
 31
0.0
  0
LINE
  5
185
330
1F
100
AcDbEntity
  8
1
  6
Continuous
 62
     7
370
    30
100
AcDbLine
 10
243.6813787771001
 20
336.621206316331
 30
0.0
 11
244.1313787771004
 21
336.621206316331
 31
0.0
  0
LINE
  5
186
330
1F
100
AcDbEntity
  8
1
  6
Continuous
 62
     7
370
    30
100
AcDbLine
 10
244.1313787771004
 20
336.621206316331
 30
0.0
 11
244.6713787771004
 21
335.121206316331
 31
0.0
  0
LINE
  5
187
330
1F
100
AcDbEntity
  8
1
  6
Continuous
 62
     7
370
    30
100
AcDbLine
 10
243.6813787771001
 20
336.621206316331
 30
0.0
 11
243.1413787771004
 21
335.121206316331
 31
0.0
  0
LINE
  5
188
330
1F
100
AcDbEntity
  8
1
  6
Continuous
 62
     7
370
    30
100
AcDbLine
 10
246.2313787771003
 20
336.621206316331
 30
0.0
 11
246.2313787771003
 21
335.121206316331
 31
0.0
  0
LINE
  5
189
330
1F
100
AcDbEntity
  8
1
  6
Continuous
 62
     7
370
    30
100
AcDbLine
 10
249.9813787771003
 20
336.0962063163312
 30
0.0
 11
250.6563787771003
 21
335.121206316331
 31
0.0
  0
LINE
  5
18A
330
1F
100
AcDbEntity
  8
1
  6
Continuous
 62
     7
370
    30
100
AcDbLine
 10
243.7269787771003
 20
335.7062063163312
 30
0.0
 11
244.0857787771002
 21
335.7062063163312
 31
0.0
  0
LINE
  5
18B
330
1F
100
AcDbEntity
  8
1
  6
Continuous
 62
     7
370
    30
100
AcDbLine
 10
243.5973787771001
 20
335.3462063163312
 30
0.0
 11
243.5163787771004
 21
335.121206316331
 31
0.0
  0
LINE
  5
18C
330
1F
100
AcDbEntity
  8
1
  6
Continuous
 62
     7
370
    30
100
AcDbLine
 10
244.2153787771002
 20
335.3462063163312
 30
0.0
 11
243.5973787771001
 21
335.3462063163312
 31
0.0
  0
LINE
  5
18D
330
1F
100
AcDbEntity
  8
1
  6
Continuous
 62
     7
370
    30
100
AcDbLine
 10
247.7313787771003
 20
336.621206316331
 30
0.0
 11
247.1313787771004
 21
336.621206316331
 31
0.0
  0
LINE
  5
18E
330
1F
100
AcDbEntity
  8
1
  6
Continuous
 62
     7
370
    30
100
AcDbLine
 10
243.5313787771003
 20
336.2912063163312
 30
0.0
 11
243.5313787771003
 21
336.621206316331
 31
0.0
  0
LINE
  5
18F
330
1F
100
AcDbEntity
  8
1
  6
Continuous
 62
     7
370
    30
100
AcDbLine
 10
243.0063787771004
 20
336.2912063163312
 30
0.0
 11
243.5313787771003
 21
336.2912063163312
 31
0.0
  0
LINE
  5
190
330
1F
100
AcDbEntity
  8
1
  6
Continuous
 62
     7
370
    30
100
AcDbLine
 10
243.0063787771004
 20
335.121206316331
 30
0.0
 11
243.0063787771004
 21
336.2912063163312
 31
0.0
  0
LINE
  5
191
330
1F
100
AcDbEntity
  8
1
  6
Continuous
 62
     7
370
    30
100
AcDbLine
 10
242.6313787771004
 20
335.121206316331
 30
0.0
 11
243.0063787771004
 21
335.121206316331
 31
0.0
  0
LINE
  5
192
330
1F
100
AcDbEntity
  8
1
  6
Continuous
 62
     7
370
    30
100
AcDbLine
 10
242.6313787771004
 20
336.2912063163312
 30
0.0
 11
242.6313787771004
 21
335.121206316331
 31
0.0
  0
LINE
  5
193
330
1F
100
AcDbEntity
  8
1
  6
Continuous
 62
     7
370
    30
100
AcDbLine
 10
242.1063787771003
 20
336.2912063163312
 30
0.0
 11
242.6313787771004
 21
336.2912063163312
 31
0.0
  0
LINE
  5
194
330
1F
100
AcDbEntity
  8
1
  6
Continuous
 62
     7
370
    30
100
AcDbLine
 10
242.1063787771003
 20
336.621206316331
 30
0.0
 11
242.1063787771003
 21
336.2912063163312
 31
0.0
  0
LINE
  5
195
330
1F
100
AcDbEntity
  8
1
  6
Continuous
 62
     7
370
    30
100
AcDbLine
 10
243.5313787771003
 20
336.621206316331
 30
0.0
 11
242.1063787771003
 21
336.621206316331
 31
0.0
  0
LINE
  5
196
330
1F
100
AcDbEntity
  8
1
  6
Continuous
 62
     7
370
    30
100
AcDbLine
 10
244.7313787771003
 20
335.121206316331
 30
0.0
 11
245.1063787771003
 21
335.121206316331
 31
0.0
  0
LINE
  5
197
330
1F
100
AcDbEntity
  8
1
  6
Continuous
 62
     7
370
    30
100
AcDbLine
 10
244.7313787771003
 20
336.621206316331
 30
0.0
 11
244.7313787771003
 21
335.121206316331
 31
0.0
  0
LINE
  5
198
330
1F
100
AcDbEntity
  8
1
  6
Continuous
 62
     7
370
    30
100
AcDbLine
 10
246.6813787771001
 20
336.1712063163311
 30
0.0
 11
246.6813787771001
 21
335.5712063163312
 31
0.0
  0
LINE
  5
199
330
1F
100
AcDbEntity
  8
1
  6
Continuous
 62
     7
370
    30
100
AcDbLine
 10
247.1313787771004
 20
335.121206316331
 30
0.0
 11
247.7313787771003
 21
335.121206316331
 31
0.0
  0
LINE
  5
19A
330
1F
100
AcDbEntity
  8
1
  6
Continuous
 62
     7
370
    30
100
AcDbLine
 10
248.6313787771004
 20
335.7212063163312
 30
0.0
 11
249.4563787771002
 21
335.7212063163312
 31
0.0
  0
LINE
  5
19B
330
1F
100
AcDbEntity
  8
1
  6
Continuous
 62
     7
370
    30
100
AcDbLine
 10
249.4563787771002
 20
335.7212063163312
 30
0.0
 11
249.4563787771002
 21
336.058706316331
 31
0.0
  0
LINE
  5
19C
330
1F
100
AcDbEntity
  8
1
  6
Continuous
 62
     7
370
    30
100
AcDbLine
 10
249.4563787771002
 20
336.058706316331
 30
0.0
 11
248.6313787771004
 21
336.058706316331
 31
0.0
  0
LINE
  5
19D
330
1F
100
AcDbEntity
  8
1
  6
Continuous
 62
     7
370
    30
100
AcDbLine
 10
248.6313787771004
 20
336.058706316331
 30
0.0
 11
248.6313787771004
 21
336.2912063163312
 31
0.0
  0
LINE
  5
19E
330
1F
100
AcDbEntity
  8
1
  6
Continuous
 62
     7
370
    30
100
AcDbLine
 10
248.6313787771004
 20
336.2912063163312
 30
0.0
 11
249.5313787771003
 21
336.2912063163312
 31
0.0
  0
LINE
  5
19F
330
1F
100
AcDbEntity
  8
1
  6
Continuous
 62
     7
370
    30
100
AcDbLine
 10
249.5313787771003
 20
336.2912063163312
 30
0.0
 11
249.5313787771003
 21
336.621206316331
 31
0.0
  0
ARC
  5
1A0
330
1F
100
AcDbEntity
  8
1
  6
Continuous
 62
     7
370
    30
100
AcDbCircle
 10
247.7313787771003
 20
335.5712063163312
 30
0.0
 40
0.4499999999999992
100
AcDbArc
 50
269.9999999999998
 51
0.0
  0
ARC
  5
1A1
330
1F
100
AcDbEntity
  8
1
  6
Continuous
 62
     7
370
    30
100
AcDbCircle
 10
247.1313787771004
 20
335.5712063163312
 30
0.0
 40
0.4499999999999992
100
AcDbArc
 50
179.9999999999998
 51
269.9999999999998
  0
ARC
  5
1A2
330
1F
100
AcDbEntity
  8
1
  6
Continuous
 62
     7
370
    30
100
AcDbCircle
 10
247.6563787771003
 20
336.0962063163312
 30
0.0
 40
0.1499999999999986
100
AcDbArc
 50
0.0
 51
89.99999999999991
  0
ARC
  5
1A3
330
1F
100
AcDbEntity
  8
1
  6
Continuous
 62
     7
370
    30
100
AcDbCircle
 10
247.7313787771003
 20
336.1712063163311
 30
0.0
 40
0.4499999999999992
100
AcDbArc
 50
0.0
 51
89.99999999999991
  0
ARC
  5
1A4
330
1F
100
AcDbEntity
  8
1
  6
Continuous
 62
     7
370
    30
100
AcDbCircle
 10
247.2063787771002
 20
335.6462063163312
 30
0.0
 40
0.1499999999999986
100
AcDbArc
 50
179.9999999999998
 51
269.9999999999998
  0
ARC
  5
1A5
330
1F
100
AcDbEntity
  8
1
  6
Continuous
 62
     7
370
    30
100
AcDbCircle
 10
247.1313787771004
 20
336.1712063163311
 30
0.0
 40
0.4499999999999992
100
AcDbArc
 50
89.99999999999991
 51
179.9999999999998
  0
ARC
  5
1A6
330
1F
100
AcDbEntity
  8
1
  6
Continuous
 62
     7
370
    30
100
AcDbCircle
 10
247.6563787771003
 20
335.6462063163312
 30
0.0
 40
0.1499999999999986
100
AcDbArc
 50
269.9999999999998
 51
0.0
  0
ARC
  5
1A7
330
1F
100
AcDbEntity
  8
1
  6
Continuous
 62
     7
370
    30
100
AcDbCircle
 10
247.2063787771002
 20
336.0962063163312
 30
0.0
 40
0.1499999999999986
100
AcDbArc
 50
89.99999999999991
 51
179.9999999999998
  0
LINE
  5
1A8
330
1F
100
AcDbEntity
  8
1
  6
Continuous
 62
     7
370
    30
100
AcDbLine
 10
139.1063787771003
 20
586.121206316331
 30
0.0
 11
139.1063787771003
 21
286.1212063163312
 31
0.0
  0
LINE
  5
1A9
330
1F
100
AcDbEntity
  8
1
  6
Continuous
 62
     7
370
    30
100
AcDbLine
 10
354.1063787771003
 20
586.121206316331
 30
0.0
 11
354.1063787771003
 21
286.1212063163312
 31
0.0
  0
LINE
  5
1AA
330
1F
100
AcDbEntity
  8
1
  6
Continuous
 62
     7
370
    30
100
AcDbLine
 10
139.1063787771003
 20
586.121206316331
 30
0.0
 11
354.1063787771003
 21
586.121206316331
 31
0.0
  0
LINE
  5
1AB
330
1F
100
AcDbEntity
  8
1
  6
Continuous
 62
     7
370
    30
100
AcDbLine
 10
139.1063787771003
 20
286.1212063163312
 30
0.0
 11
354.1063787771003
 21
286.1212063163312
 31
0.0
  0
LINE
  5
1AC
330
1F
100
AcDbEntity
  8
1
  6
Continuous
 62
     7
370
    30
100
AcDbLine
 10
259.1063787771001
 20
586.121206316331
 30
0.0
 11
290.1063787771003
 21
586.121206316331
 31
0.0
  0
LINE
  5
1AD
330
1F
100
AcDbEntity
  8
1
  6
Continuous
 62
     7
370
    30
100
AcDbLine
 10
290.1063787771003
 20
586.121206316331
 30
0.0
 11
290.1063787771003
 21
587.621206316331
 31
0.0
  0
ARC
  5
1AE
330
1F
100
AcDbEntity
  8
1
  6
Continuous
 62
     7
370
    30
100
AcDbCircle
 10
286.6063787771003
 20
587.621206316331
 30
0.0
 40
3.5
100
AcDbArc
 50
0.0
 51
89.99999999999991
  0
LINE
  5
1AF
330
1F
100
AcDbEntity
  8
1
  6
Continuous
 62
     7
370
    30
100
AcDbLine
 10
286.6063787771003
 20
591.1212063163312
 30
0.0
 11
262.6063787771003
 21
591.1212063163312
 31
0.0
  0
LINE
  5
1B0
330
1F
100
AcDbEntity
  8
1
  6
Continuous
 62
     7
370
    30
100
AcDbLine
 10
259.1063787771001
 20
587.621206316331
 30
0.0
 11
259.1063787771001
 21
586.121206316331
 31
0.0
  0
ARC
  5
1B1
330
1F
100
AcDbEntity
  8
1
  6
Continuous
 62
     7
370
    30
100
AcDbCircle
 10
262.6063787771003
 20
587.621206316331
 30
0.0
 40
3.5
100
AcDbArc
 50
89.99999999999991
 51
179.9999999999998
  0
ARC
  5
1B2
330
1F
100
AcDbEntity
  8
1
  6
Continuous
 62
     7
370
    30
100
AcDbCircle
 10
284.6063787771001
 20
591.6212063163312
 30
0.0
 40
0.5
100
AcDbArc
 50
0.0
 51
89.99999999999991
  0
LINE
  5
1B3
330
1F
100
AcDbEntity
  8
1
  6
Continuous
 62
     7
370
    30
100
AcDbLine
 10
285.1063787771003
 20
591.6212063163312
 30
0.0
 11
285.1063787771003
 21
591.1212063163312
 31
0.0
  0
ARC
  5
1B4
330
1F
100
AcDbEntity
  8
1
  6
Continuous
 62
     7
370
    30
100
AcDbCircle
 10
264.6063787771003
 20
591.6212063163312
 30
0.0
 40
0.5
100
AcDbArc
 50
89.99999999999991
 51
179.9999999999998
  0
LINE
  5
1B5
330
1F
100
AcDbEntity
  8
1
  6
Continuous
 62
     7
370
    30
100
AcDbLine
 10
264.1063787771003
 20
591.6212063163312
 30
0.0
 11
264.1063787771003
 21
591.1212063163312
 31
0.0
  0
LINE
  5
1B6
330
1F
100
AcDbEntity
  8
1
  6
Continuous
 62
     7
370
    30
100
AcDbLine
 10
284.6063787771001
 20
592.121206316331
 30
0.0
 11
264.6063787771003
 21
592.121206316331
 31
0.0
  0
INSERT
  5
1B7
330
1F
100
AcDbEntity
  8
1
  6
Continuous
 62
     7
370
     9
100
AcDbBlockReference
  2
_OPEN
 10
246.6063787771003
 20
319.8712063163312
 30
0.0
 41
7.199999999999999
 42
7.199999999999999
 43
7.199999999999999
 50
118.8531326363211
  0
POLYLINE
  5
1B8
330
1F
100
AcDbEntity
  8
1
  6
Continuous
 62
     7
370
     9
100
AcDb2dPolyline
 66
     1
 10
0.0
 20
0.0
 30
0.0
  0
VERTEX
  5
1B9
330
1B8
100
AcDbEntity
  8
1
  6
Continuous
 62
     7
370
     9
100
AcDbVertex
100
AcDb2dVertex
 10
246.6063787771003
 20
319.8712063163312
 30
0.0
  0
VERTEX
  5
1BA
330
1B8
100
AcDbEntity
  8
1
  6
Continuous
 62
     7
370
     9
100
AcDbVertex
100
AcDb2dVertex
 10
286.6454343362099
 20
247.2001477673386
 30
0.0
  0
VERTEX
  5
1BB
330
1B8
100
AcDbEntity
  8
1
  6
Continuous
 62
     7
370
     9
100
AcDbVertex
100
AcDb2dVertex
 10
343.6454343362099
 20
247.2001477673386
 30
0.0
  0
SEQEND
  5
1BC
330
1B8
100
AcDbEntity
  8
1
  6
Continuous
 62
     7
370
     9
  0
MTEXT
  5
1BD
330
1F
100
AcDbEntity
  8
1
  6
Continuous
 62
     7
370
     9
100
AcDbMText
 10
286.6454343362099
 20
248.7001477673386
 30
0.0
 40
9.0
 41
73.0895183143072
 46
9.0
 71
     7
 72
     1
  1
{\fＭＳ ゴシック;\W0.714286;\T1.133333;シリンダー錠}
 73
     1
 44
1.0
  0
LINE
  5
1BE
330
1F
100
AcDbEntity
  8
1
  6
Continuous
 62
     7
370
    30
100
AcDbLine
 10
456.1735467574675
 20
339.8807752860508
 30
0.0
 11
455.1735467574675
 21
339.8807752860508
 31
0.0
  0
LINE
  5
1BF
330
1F
100
AcDbEntity
  8
1
  6
Continuous
 62
     7
370
    30
100
AcDbLine
 10
454.1735467574675
 20
338.8807752860508
 30
0.0
 11
454.1735467574675
 21
320.8807752860508
 31
0.0
  0
LINE
  5
1C0
330
1F
100
AcDbEntity
  8
1
  6
Continuous
 62
     7
370
    30
100
AcDbLine
 10
455.1735467574675
 20
319.8807752860508
 30
0.0
 11
456.1735467574675
 21
319.8807752860508
 31
0.0
  0
LINE
  5
1C1
330
1F
100
AcDbEntity
  8
1
  6
Continuous
 62
     7
370
    30
100
AcDbLine
 10
456.1735467574675
 20
319.8807752860508
 30
0.0
 11
456.1735467574675
 21
339.8807752860508
 31
0.0
  0
LINE
  5
1C2
330
1F
100
AcDbEntity
  8
1
  6
Continuous
 62
     7
370
    30
100
AcDbLine
 10
455.1735467574675
 20
339.8807752860508
 30
0.0
 11
454.1735467574675
 21
338.8807752860508
 31
0.0
  0
LINE
  5
1C3
330
1F
100
AcDbEntity
  8
1
  6
Continuous
 62
     7
370
    30
100
AcDbLine
 10
454.1735467574675
 20
320.8807752860508
 30
0.0
 11
455.1735467574675
 21
319.8807752860508
 31
0.0
  0
LINE
  5
1C4
330
1F
100
AcDbEntity
  8
1
  6
Continuous
 62
     7
370
    30
100
AcDbLine
 10
455.1735467574675
 20
339.8807752860508
 30
0.0
 11
455.1735467574675
 21
319.8807752860508
 31
0.0
  0
LINE
  5
1C5
330
1F
100
AcDbEntity
  8
1
  6
Continuous
 62
     7
370
    30
100
AcDbLine
 10
457.1735467574675
 20
286.1307752860508
 30
0.0
 11
531.1735467574675
 21
286.1307752860508
 31
0.0
  0
LINE
  5
1C6
330
1F
100
AcDbEntity
  8
1
  6
Continuous
 62
     7
370
    30
100
AcDbLine
 10
531.1735467574675
 20
586.1307752860508
 30
0.0
 11
531.1735467574675
 21
286.1307752860508
 31
0.0
  0
LINE
  5
1C7
330
1F
100
AcDbEntity
  8
1
  6
Continuous
 62
     7
370
    30
100
AcDbLine
 10
531.1735467574675
 20
586.1307752860508
 30
0.0
 11
457.1735467574675
 21
586.1307752860508
 31
0.0
  0
LINE
  5
1C8
330
1F
100
AcDbEntity
  8
1
  6
Continuous
 62
     7
370
    30
100
AcDbLine
 10
531.1735467574675
 20
585.1307752860507
 30
0.0
 11
456.9310397574676
 21
585.1307752860507
 31
0.0
  0
LINE
  5
1C9
330
1F
100
AcDbEntity
  8
1
  6
Continuous
 62
     7
370
    30
100
AcDbLine
 10
457.1363477574675
 20
287.1307752860508
 30
0.0
 11
531.1735467574675
 21
287.1307752860508
 31
0.0
  0
LINE
  5
1CA
330
1F
100
AcDbEntity
  8
1
  6
Continuous
 62
     7
370
    30
100
AcDbLine
 10
456.1735467574675
 20
585.1307752860507
 30
0.0
 11
456.1735467574675
 21
287.1307752860508
 31
0.0
  0
ARC
  5
1CB
330
1F
100
AcDbEntity
  8
1
  6
Continuous
 62
     7
370
    30
100
AcDbCircle
 10
457.1735467574675
 20
585.1307752860507
 30
0.0
 40
1.0
100
AcDbArc
 50
89.99999999999991
 51
179.9999999999998
  0
ARC
  5
1CC
330
1F
100
AcDbEntity
  8
1
  6
Continuous
 62
     7
370
    30
100
AcDbCircle
 10
457.1735467574675
 20
287.1307752860508
 30
0.0
 40
1.0
100
AcDbArc
 50
179.9999999999998
 51
269.9999999999998
  0
LINE
  5
1CD
330
1F
100
AcDbEntity
  8
1
  6
Continuous
 62
     7
370
    30
100
AcDbLine
 10
521.6735467574675
 20
586.1307752860508
 30
0.0
 11
521.6735467574675
 21
587.6307752860508
 31
0.0
  0
LINE
  5
1CE
330
1F
100
AcDbEntity
  8
1
  6
Continuous
 62
     7
370
    30
100
AcDbLine
 10
490.6735467574675
 20
587.6307752860508
 30
0.0
 11
490.6735467574675
 21
586.1307752860508
 31
0.0
  0
LINE
  5
1CF
330
1F
100
AcDbEntity
  8
1
  6
Continuous
 62
     7
370
    30
100
AcDbLine
 10
516.1735467574675
 20
592.1307752860508
 30
0.0
 11
496.1735467574675
 21
592.1307752860508
 31
0.0
  0
LINE
  5
1D0
330
1F
100
AcDbEntity
  8
1
  6
Continuous
 62
     7
370
    30
100
AcDbLine
 10
495.6735467574675
 20
591.6307752860507
 30
0.0
 11
495.6735467574675
 21
591.1307752860507
 31
0.0
  0
ARC
  5
1D1
330
1F
100
AcDbEntity
  8
1
  6
Continuous
 62
     7
370
    30
100
AcDbCircle
 10
496.1735467574675
 20
591.6307752860507
 30
0.0
 40
0.5
100
AcDbArc
 50
89.99999999999991
 51
179.9999999999998
  0
LINE
  5
1D2
330
1F
100
AcDbEntity
  8
1
  6
Continuous
 62
     7
370
    30
100
AcDbLine
 10
516.6735467574675
 20
591.6307752860507
 30
0.0
 11
516.6735467574675
 21
591.1307752860507
 31
0.0
  0
ARC
  5
1D3
330
1F
100
AcDbEntity
  8
1
  6
Continuous
 62
     7
370
    30
100
AcDbCircle
 10
516.1735467574675
 20
591.6307752860507
 30
0.0
 40
0.5
100
AcDbArc
 50
0.0
 51
89.99999999999991
  0
ARC
  5
1D4
330
1F
100
AcDbEntity
  8
1
  6
Continuous
 62
     7
370
    30
100
AcDbCircle
 10
494.1735467574675
 20
587.6307752860508
 30
0.0
 40
3.5
100
AcDbArc
 50
89.99999999999991
 51
179.9999999999998
  0
LINE
  5
1D5
330
1F
100
AcDbEntity
  8
1
  6
Continuous
 62
     7
370
    30
100
AcDbLine
 10
518.1735467574675
 20
591.1307752860507
 30
0.0
 11
494.1735467574675
 21
591.1307752860507
 31
0.0
  0
ARC
  5
1D6
330
1F
100
AcDbEntity
  8
1
  6
Continuous
 62
     7
370
    30
100
AcDbCircle
 10
518.1735467574675
 20
587.6307752860508
 30
0.0
 40
3.5
100
AcDbArc
 50
0.0
 51
89.99999999999991
  0
LINE
  5
1D7
330
1F
100
AcDbEntity
  8
1
  6
Continuous
 62
     7
370
    30
100
AcDbLine
 10
743.8988522933157
 20
577.6212063163312
 30
0.0
 11
743.8988522933157
 21
573.9513333163311
 31
0.0
  0
LINE
  5
1D8
330
1F
100
AcDbEntity
  8
1
  6
Continuous
 62
     7
370
    30
100
AcDbLine
 10
738.8988522933158
 20
577.6212063163312
 30
0.0
 11
738.8988522933158
 21
573.9513333163311
 31
0.0
  0
LINE
  5
1D9
330
1F
100
AcDbEntity
  8
1
  6
Continuous
 62
     7
370
    30
100
AcDbLine
 10
847.3988522933158
 20
288.6212063163312
 30
0.0
 11
635.3988522933158
 21
288.6212063163312
 31
0.0
  0
LINE
  5
1DA
330
1F
100
AcDbEntity
  8
1
  6
Continuous
 62
     7
370
    30
100
AcDbLine
 10
847.3988522933158
 20
583.6212063163312
 30
0.0
 11
833.8988522933158
 21
583.6212063163312
 31
0.0
  0
LINE
  5
1DB
330
1F
100
AcDbEntity
  8
1
  6
Continuous
 62
     7
370
    30
100
AcDbLine
 10
635.3988522933158
 20
583.6212063163312
 30
0.0
 11
635.3988522933158
 21
288.6212063163312
 31
0.0
  0
LINE
  5
1DC
330
1F
100
AcDbEntity
  8
1
  6
Continuous
 62
     7
370
    30
100
AcDbLine
 10
847.3988522933158
 20
583.6212063163312
 30
0.0
 11
847.3988522933158
 21
288.6212063163312
 31
0.0
  0
LINE
  5
1DD
330
1F
100
AcDbEntity
  8
1
  6
Continuous
 62
     7
370
    30
100
AcDbLine
 10
847.3988522933158
 20
582.4212063163311
 30
0.0
 11
833.1988522933158
 21
582.4212063163311
 31
0.0
  0
LINE
  5
1DE
330
1F
100
AcDbEntity
  8
1
  6
Continuous
 62
     7
370
    30
100
AcDbLine
 10
636.5988522933156
 20
582.4212063163311
 30
0.0
 11
636.5988522933156
 21
289.8212063163311
 31
0.0
  0
LINE
  5
1DF
330
1F
100
AcDbEntity
  8
1
  6
Continuous
 62
     7
370
    30
100
AcDbLine
 10
846.1988522933156
 20
582.4212063163311
 30
0.0
 11
846.1988522933156
 21
289.8212063163311
 31
0.0
  0
LINE
  5
1E0
330
1F
100
AcDbEntity
  8
1
  6
Continuous
 62
     7
370
    30
100
AcDbLine
 10
847.3988522933158
 20
289.8212063163311
 30
0.0
 11
635.3988522933158
 21
289.8212063163311
 31
0.0
  0
LINE
  5
1E1
330
1F
100
AcDbEntity
  8
1
  6
Continuous
 62
     7
370
    30
100
AcDbLine
 10
848.8988522933158
 20
586.121206316331
 30
0.0
 11
848.8988522933158
 21
585.1212063163312
 31
0.0
  0
LINE
  5
1E2
330
1F
100
AcDbEntity
  8
1
  6
Continuous
 62
     7
370
    30
100
AcDbLine
 10
633.8988522933158
 20
586.121206316331
 30
0.0
 11
633.8988522933158
 21
585.1212063163312
 31
0.0
  0
LINE
  5
1E3
330
1F
100
AcDbEntity
  8
1
  6
Continuous
 62
     7
370
    30
100
AcDbLine
 10
848.8988522933158
 20
586.121206316331
 30
0.0
 11
633.8988522933158
 21
586.121206316331
 31
0.0
  0
LINE
  5
1E4
330
1F
100
AcDbEntity
  8
1
  6
Continuous
 62
     7
370
    30
100
AcDbLine
 10
848.8988522933158
 20
286.1212063163312
 30
0.0
 11
633.8988522933158
 21
286.1212063163312
 31
0.0
  0
LINE
  5
1E5
330
1F
100
AcDbEntity
  8
1
  6
Continuous
 62
     7
370
    30
100
AcDbLine
 10
633.8988522933158
 20
584.621206316331
 30
0.0
 11
633.8988522933158
 21
287.6212063163312
 31
0.0
  0
LINE
  5
1E6
330
1F
100
AcDbEntity
  8
1
  6
Continuous
 62
     7
370
    30
100
AcDbLine
 10
847.8988522933157
 20
288.1212063163312
 30
0.0
 11
839.8988522933158
 21
288.1212063163312
 31
0.0
  0
LINE
  5
1E7
330
1F
100
AcDbEntity
  8
1
  6
Continuous
 62
     7
370
    30
100
AcDbLine
 10
839.8988522933158
 20
288.1212063163312
 30
0.0
 11
839.8988522933158
 21
287.1212063163312
 31
0.0
  0
LINE
  5
1E8
330
1F
100
AcDbEntity
  8
1
  6
Continuous
 62
     7
370
    30
100
AcDbLine
 10
847.8988522933157
 20
584.1212063163312
 30
0.0
 11
839.8988522933158
 21
584.1212063163312
 31
0.0
  0
LINE
  5
1E9
330
1F
100
AcDbEntity
  8
1
  6
Continuous
 62
     7
370
    30
100
AcDbLine
 10
642.8988522933158
 20
585.1212063163312
 30
0.0
 11
642.8988522933158
 21
584.1212063163312
 31
0.0
  0
LINE
  5
1EA
330
1F
100
AcDbEntity
  8
1
  6
Continuous
 62
     7
370
    30
100
AcDbLine
 10
848.8988522933158
 20
585.1212063163312
 30
0.0
 11
833.8988522933158
 21
585.1212063163312
 31
0.0
  0
LINE
  5
1EB
330
1F
100
AcDbEntity
  8
1
  6
Continuous
 62
     7
370
    30
100
AcDbLine
 10
642.8988522933158
 20
288.1212063163312
 30
0.0
 11
634.8988522933158
 21
288.1212063163312
 31
0.0
  0
LINE
  5
1EC
330
1F
100
AcDbEntity
  8
1
  6
Continuous
 62
     7
370
    30
100
AcDbLine
 10
847.8988522933157
 20
584.1212063163312
 30
0.0
 11
847.8988522933157
 21
288.1212063163312
 31
0.0
  0
LINE
  5
1ED
330
1F
100
AcDbEntity
  8
1
  6
Continuous
 62
     7
370
    30
100
AcDbLine
 10
839.8988522933158
 20
585.1212063163312
 30
0.0
 11
839.8988522933158
 21
584.1212063163312
 31
0.0
  0
LINE
  5
1EE
330
1F
100
AcDbEntity
  8
1
  6
Continuous
 62
     7
370
    30
100
AcDbLine
 10
634.8988522933158
 20
584.1212063163312
 30
0.0
 11
634.8988522933158
 21
288.1212063163312
 31
0.0
  0
LINE
  5
1EF
330
1F
100
AcDbEntity
  8
1
  6
Continuous
 62
     7
370
    30
100
AcDbLine
 10
642.8988522933158
 20
288.1212063163312
 30
0.0
 11
642.8988522933158
 21
287.1212063163312
 31
0.0
  0
LINE
  5
1F0
330
1F
100
AcDbEntity
  8
1
  6
Continuous
 62
     7
370
    30
100
AcDbLine
 10
848.8988522933158
 20
287.1212063163312
 30
0.0
 11
633.8988522933158
 21
287.1212063163312
 31
0.0
  0
LINE
  5
1F1
330
1F
100
AcDbEntity
  8
1
  6
Continuous
 62
     7
370
    30
100
AcDbLine
 10
642.8988522933158
 20
584.1212063163312
 30
0.0
 11
634.8988522933158
 21
584.1212063163312
 31
0.0
  0
LINE
  5
1F2
330
1F
100
AcDbEntity
  8
1
  6
Continuous
 62
     7
370
    30
100
AcDbLine
 10
663.8988522933158
 20
586.121206316331
 30
0.0
 11
663.8988522933158
 21
583.121206316331
 31
0.0
  0
LINE
  5
1F3
330
1F
100
AcDbEntity
  8
1
  6
Continuous
 62
     7
370
    30
100
AcDbLine
 10
648.8988522933158
 20
586.121206316331
 30
0.0
 11
648.8988522933158
 21
583.121206316331
 31
0.0
  0
LINE
  5
1F4
330
1F
100
AcDbEntity
  8
1
  6
Continuous
 62
     7
370
    30
100
AcDbLine
 10
833.8988522933158
 20
586.121206316331
 30
0.0
 11
833.8988522933158
 21
583.121206316331
 31
0.0
  0
LINE
  5
1F5
330
1F
100
AcDbEntity
  8
1
  6
Continuous
 62
     7
370
    30
100
AcDbLine
 10
818.8988522933158
 20
586.121206316331
 30
0.0
 11
818.8988522933158
 21
583.121206316331
 31
0.0
  0
LINE
  5
1F6
330
1F
100
AcDbEntity
  8
1
  6
Continuous
 62
     7
370
    30
100
AcDbLine
 10
832.8988522933157
 20
582.1212063163312
 30
0.0
 11
819.8988522933156
 21
582.1212063163312
 31
0.0
  0
LINE
  5
1F7
330
1F
100
AcDbEntity
  8
1
  6
Continuous
 62
     7
370
    30
100
AcDbLine
 10
662.8988522933157
 20
582.1212063163312
 30
0.0
 11
663.8988522933158
 21
583.121206316331
 31
0.0
  0
LINE
  5
1F8
330
1F
100
AcDbEntity
  8
1
  6
Continuous
 62
     7
370
    30
100
AcDbLine
 10
648.8988522933158
 20
583.121206316331
 30
0.0
 11
649.8988522933158
 21
582.1212063163312
 31
0.0
  0
LINE
  5
1F9
330
1F
100
AcDbEntity
  8
1
  6
Continuous
 62
     7
370
    30
100
AcDbLine
 10
818.8988522933158
 20
585.1212063163312
 30
0.0
 11
663.8988522933158
 21
585.1212063163312
 31
0.0
  0
LINE
  5
1FA
330
1F
100
AcDbEntity
  8
1
  6
Continuous
 62
     7
370
    30
100
AcDbLine
 10
648.8988522933158
 20
585.1212063163312
 30
0.0
 11
633.8988522933158
 21
585.1212063163312
 31
0.0
  0
LINE
  5
1FB
330
1F
100
AcDbEntity
  8
1
  6
Continuous
 62
     7
370
    30
100
AcDbLine
 10
662.8988522933157
 20
582.1212063163312
 30
0.0
 11
649.8988522933158
 21
582.1212063163312
 31
0.0
  0
LINE
  5
1FC
330
1F
100
AcDbEntity
  8
1
  6
Continuous
 62
     7
370
    30
100
AcDbLine
 10
818.8988522933158
 20
583.121206316331
 30
0.0
 11
819.8988522933156
 21
582.1212063163312
 31
0.0
  0
LINE
  5
1FD
330
1F
100
AcDbEntity
  8
1
  6
Continuous
 62
     7
370
    30
100
AcDbLine
 10
832.8988522933157
 20
582.1212063163312
 30
0.0
 11
833.8988522933158
 21
583.121206316331
 31
0.0
  0
LINE
  5
1FE
330
1F
100
AcDbEntity
  8
1
  6
Continuous
 62
     7
370
    30
100
AcDbLine
 10
848.8988522933158
 20
584.621206316331
 30
0.0
 11
848.8988522933158
 21
287.6212063163312
 31
0.0
  0
LINE
  5
1FF
330
1F
100
AcDbEntity
  8
1
  6
Continuous
 62
     7
370
    30
100
AcDbLine
 10
633.8988522933158
 20
287.1212063163312
 30
0.0
 11
633.8988522933158
 21
286.1212063163312
 31
0.0
  0
LINE
  5
200
330
1F
100
AcDbEntity
  8
1
  6
Continuous
 62
     7
370
    30
100
AcDbLine
 10
848.8988522933158
 20
287.1212063163312
 30
0.0
 11
848.8988522933158
 21
286.1212063163312
 31
0.0
  0
LINE
  5
201
330
1F
100
AcDbEntity
  8
1
  6
Continuous
 62
     7
370
    30
100
AcDbLine
 10
647.8988522933157
 20
583.6212063163312
 30
0.0
 11
647.8988522933157
 21
582.4212063163311
 31
0.0
  0
LINE
  5
202
330
1F
100
AcDbEntity
  8
1
  6
Continuous
 62
     7
370
    30
100
AcDbLine
 10
664.8988522933158
 20
583.6212063163312
 30
0.0
 11
664.8988522933158
 21
582.4212063163311
 31
0.0
  0
LINE
  5
203
330
1F
100
AcDbEntity
  8
1
  6
Continuous
 62
     7
370
    30
100
AcDbLine
 10
648.8988522933158
 20
583.6212063163312
 30
0.0
 11
635.3988522933158
 21
583.6212063163312
 31
0.0
  0
LINE
  5
204
330
1F
100
AcDbEntity
  8
1
  6
Continuous
 62
     7
370
    30
100
AcDbLine
 10
649.5988522933158
 20
582.4212063163311
 30
0.0
 11
635.3988522933158
 21
582.4212063163311
 31
0.0
  0
LINE
  5
205
330
1F
100
AcDbEntity
  8
1
  6
Continuous
 62
     7
370
    30
100
AcDbLine
 10
817.8988522933157
 20
583.6212063163312
 30
0.0
 11
817.8988522933157
 21
582.4212063163311
 31
0.0
  0
LINE
  5
206
330
1F
100
AcDbEntity
  8
1
  6
Continuous
 62
     7
370
    30
100
AcDbLine
 10
834.8988522933156
 20
583.6212063163312
 30
0.0
 11
834.8988522933156
 21
582.4212063163311
 31
0.0
  0
LINE
  5
207
330
1F
100
AcDbEntity
  8
1
  6
Continuous
 62
     7
370
    30
100
AcDbLine
 10
819.5988522933155
 20
582.4212063163311
 30
0.0
 11
663.1988522933158
 21
582.4212063163311
 31
0.0
  0
LINE
  5
208
330
1F
100
AcDbEntity
  8
1
  6
Continuous
 62
     7
370
    30
100
AcDbLine
 10
818.8988522933158
 20
583.6212063163312
 30
0.0
 11
663.8988522933158
 21
583.6212063163312
 31
0.0
  0
LINE
  5
209
330
1F
100
AcDbEntity
  8
1
  6
Continuous
 62
     7
370
    30
100
AcDbLine
 10
791.4988522933157
 20
405.1212063163312
 30
0.0
 11
790.9988522933156
 21
405.1212063163312
 31
0.0
  0
LINE
  5
20A
330
1F
100
AcDbEntity
  8
1
  6
Continuous
 62
     7
370
    30
100
AcDbLine
 10
769.2988522933157
 20
431.1212063163312
 30
0.0
 11
769.2988522933157
 21
429.1212063163312
 31
0.0
  0
LINE
  5
20B
330
1F
100
AcDbEntity
  8
1
  6
Continuous
 62
     7
370
    30
100
AcDbLine
 10
774.5988522933156
 20
431.1212063163312
 30
0.0
 11
774.5988522933156
 21
429.1212063163312
 31
0.0
  0
LINE
  5
20C
330
1F
100
AcDbEntity
  8
1
  6
Continuous
 62
     7
370
    30
100
AcDbLine
 10
769.2988522933157
 20
431.1212063163312
 30
0.0
 11
771.0988522933155
 21
431.1212063163312
 31
0.0
  0
LINE
  5
20D
330
1F
100
AcDbEntity
  8
1
  6
Continuous
 62
     7
370
    30
100
AcDbLine
 10
776.2988522933156
 20
431.1212063163312
 30
0.0
 11
778.0988522933156
 21
431.1212063163312
 31
0.0
  0
LINE
  5
20E
330
1F
100
AcDbEntity
  8
1
  6
Continuous
 62
     7
370
    30
100
AcDbLine
 10
740.8988522933157
 20
428.1212063163312
 30
0.0
 11
791.8988522933158
 21
428.1212063163312
 31
0.0
  0
LINE
  5
20F
330
1F
100
AcDbEntity
  8
1
  6
Continuous
 62
     7
370
    30
100
AcDbLine
 10
791.4988522933157
 20
406.121206316331
 30
0.0
 11
740.8988522933157
 21
406.121206316331
 31
0.0
  0
LINE
  5
210
330
1F
100
AcDbEntity
  8
1
  6
Continuous
 62
     7
370
    30
100
AcDbLine
 10
772.7988522933157
 20
431.1212063163312
 30
0.0
 11
774.5988522933156
 21
431.1212063163312
 31
0.0
  0
LINE
  5
211
330
1F
100
AcDbEntity
  8
1
  6
Continuous
 62
     7
370
    30
100
AcDbLine
 10
772.7988522933157
 20
431.1212063163312
 30
0.0
 11
772.7988522933157
 21
429.1212063163312
 31
0.0
  0
LINE
  5
212
330
1F
100
AcDbEntity
  8
1
  6
Continuous
 62
     7
370
    30
100
AcDbLine
 10
771.0988522933155
 20
431.1212063163312
 30
0.0
 11
771.0988522933155
 21
429.1212063163312
 31
0.0
  0
LINE
  5
213
330
1F
100
AcDbEntity
  8
1
  6
Continuous
 62
     7
370
    30
100
AcDbLine
 10
778.0988522933156
 20
431.1212063163312
 30
0.0
 11
778.0988522933156
 21
429.1212063163312
 31
0.0
  0
LINE
  5
214
330
1F
100
AcDbEntity
  8
1
  6
Continuous
 62
     7
370
    30
100
AcDbLine
 10
779.7988522933157
 20
431.1212063163312
 30
0.0
 11
781.5988522933155
 21
431.1212063163312
 31
0.0
  0
LINE
  5
215
330
1F
100
AcDbEntity
  8
1
  6
Continuous
 62
     7
370
    30
100
AcDbLine
 10
776.2988522933156
 20
431.1212063163312
 30
0.0
 11
776.2988522933156
 21
429.1212063163312
 31
0.0
  0
LINE
  5
216
330
1F
100
AcDbEntity
  8
1
  6
Continuous
 62
     7
370
    30
100
AcDbLine
 10
771.0988522933155
 20
429.1212063163312
 30
0.0
 11
772.7988522933157
 21
429.1212063163312
 31
0.0
  0
LINE
  5
217
330
1F
100
AcDbEntity
  8
1
  6
Continuous
 62
     7
370
    30
100
AcDbLine
 10
781.5988522933155
 20
431.1212063163312
 30
0.0
 11
781.5988522933155
 21
429.1212063163312
 31
0.0
  0
LINE
  5
218
330
1F
100
AcDbEntity
  8
1
  6
Continuous
 62
     7
370
    30
100
AcDbLine
 10
779.7988522933157
 20
431.1212063163312
 30
0.0
 11
779.7988522933157
 21
429.1212063163312
 31
0.0
  0
LINE
  5
219
330
1F
100
AcDbEntity
  8
1
  6
Continuous
 62
     7
370
    30
100
AcDbLine
 10
783.2988522933157
 20
431.1212063163312
 30
0.0
 11
785.0988522933156
 21
431.1212063163312
 31
0.0
  0
LINE
  5
21A
330
1F
100
AcDbEntity
  8
1
  6
Continuous
 62
     7
370
    30
100
AcDbLine
 10
785.0988522933156
 20
431.1212063163312
 30
0.0
 11
785.0988522933156
 21
429.1212063163312
 31
0.0
  0
LINE
  5
21B
330
1F
100
AcDbEntity
  8
1
  6
Continuous
 62
     7
370
    30
100
AcDbLine
 10
783.2988522933157
 20
431.1212063163312
 30
0.0
 11
783.2988522933157
 21
429.1212063163312
 31
0.0
  0
LINE
  5
21C
330
1F
100
AcDbEntity
  8
1
  6
Continuous
 62
     7
370
    30
100
AcDbLine
 10
786.7988522933156
 20
431.1212063163312
 30
0.0
 11
788.5988522933156
 21
431.1212063163312
 31
0.0
  0
LINE
  5
21D
330
1F
100
AcDbEntity
  8
1
  6
Continuous
 62
     7
370
    30
100
AcDbLine
 10
788.5988522933156
 20
431.1212063163312
 30
0.0
 11
788.5988522933156
 21
429.1212063163312
 31
0.0
  0
LINE
  5
21E
330
1F
100
AcDbEntity
  8
1
  6
Continuous
 62
     7
370
    30
100
AcDbLine
 10
786.7988522933156
 20
431.1212063163312
 30
0.0
 11
786.7988522933156
 21
429.1212063163312
 31
0.0
  0
LINE
  5
21F
330
1F
100
AcDbEntity
  8
1
  6
Continuous
 62
     7
370
    30
100
AcDbLine
 10
790.2988522933156
 20
431.1212063163312
 30
0.0
 11
792.0988522933156
 21
431.1212063163312
 31
0.0
  0
LINE
  5
220
330
1F
100
AcDbEntity
  8
1
  6
Continuous
 62
     7
370
    30
100
AcDbLine
 10
792.0988522933156
 20
431.1212063163312
 30
0.0
 11
792.0988522933156
 21
429.1212063163312
 31
0.0
  0
LINE
  5
221
330
1F
100
AcDbEntity
  8
1
  6
Continuous
 62
     7
370
    30
100
AcDbLine
 10
790.2988522933156
 20
431.1212063163312
 30
0.0
 11
790.2988522933156
 21
429.1212063163312
 31
0.0
  0
LINE
  5
222
330
1F
100
AcDbEntity
  8
1
  6
Continuous
 62
     7
370
    30
100
AcDbLine
 10
762.2988522933157
 20
431.1212063163312
 30
0.0
 11
762.2988522933157
 21
429.1212063163312
 31
0.0
  0
LINE
  5
223
330
1F
100
AcDbEntity
  8
1
  6
Continuous
 62
     7
370
    30
100
AcDbLine
 10
762.2988522933157
 20
431.1212063163312
 30
0.0
 11
764.0988522933156
 21
431.1212063163312
 31
0.0
  0
LINE
  5
224
330
1F
100
AcDbEntity
  8
1
  6
Continuous
 62
     7
370
    30
100
AcDbLine
 10
764.0988522933156
 20
431.1212063163312
 30
0.0
 11
764.0988522933156
 21
429.1212063163312
 31
0.0
  0
LINE
  5
225
330
1F
100
AcDbEntity
  8
1
  6
Continuous
 62
     7
370
    30
100
AcDbLine
 10
758.7988522933157
 20
431.1212063163312
 30
0.0
 11
758.7988522933157
 21
429.1212063163312
 31
0.0
  0
LINE
  5
226
330
1F
100
AcDbEntity
  8
1
  6
Continuous
 62
     7
370
    30
100
AcDbLine
 10
758.7988522933157
 20
431.1212063163312
 30
0.0
 11
760.5988522933158
 21
431.1212063163312
 31
0.0
  0
LINE
  5
227
330
1F
100
AcDbEntity
  8
1
  6
Continuous
 62
     7
370
    30
100
AcDbLine
 10
760.5988522933158
 20
431.1212063163312
 30
0.0
 11
760.5988522933158
 21
429.1212063163312
 31
0.0
  0
LINE
  5
228
330
1F
100
AcDbEntity
  8
1
  6
Continuous
 62
     7
370
    30
100
AcDbLine
 10
751.7988522933157
 20
431.1212063163312
 30
0.0
 11
751.7988522933157
 21
429.1212063163312
 31
0.0
  0
LINE
  5
229
330
1F
100
AcDbEntity
  8
1
  6
Continuous
 62
     7
370
    30
100
AcDbLine
 10
751.7988522933157
 20
431.1212063163312
 30
0.0
 11
753.5988522933156
 21
431.1212063163312
 31
0.0
  0
LINE
  5
22A
330
1F
100
AcDbEntity
  8
1
  6
Continuous
 62
     7
370
    30
100
AcDbLine
 10
753.5988522933156
 20
431.1212063163312
 30
0.0
 11
753.5988522933156
 21
429.1212063163312
 31
0.0
  0
LINE
  5
22B
330
1F
100
AcDbEntity
  8
1
  6
Continuous
 62
     7
370
    30
100
AcDbLine
 10
748.2988522933157
 20
431.1212063163312
 30
0.0
 11
748.2988522933157
 21
429.1212063163312
 31
0.0
  0
LINE
  5
22C
330
1F
100
AcDbEntity
  8
1
  6
Continuous
 62
     7
370
    30
100
AcDbLine
 10
748.2988522933157
 20
431.1212063163312
 30
0.0
 11
750.0988522933158
 21
431.1212063163312
 31
0.0
  0
LINE
  5
22D
330
1F
100
AcDbEntity
  8
1
  6
Continuous
 62
     7
370
    30
100
AcDbLine
 10
750.0988522933158
 20
431.1212063163312
 30
0.0
 11
750.0988522933158
 21
429.1212063163312
 31
0.0
  0
LINE
  5
22E
330
1F
100
AcDbEntity
  8
1
  6
Continuous
 62
     7
370
    30
100
AcDbLine
 10
744.7988522933156
 20
431.1212063163312
 30
0.0
 11
744.7988522933156
 21
429.1212063163312
 31
0.0
  0
LINE
  5
22F
330
1F
100
AcDbEntity
  8
1
  6
Continuous
 62
     7
370
    30
100
AcDbLine
 10
744.7988522933156
 20
431.1212063163312
 30
0.0
 11
746.5988522933156
 21
431.1212063163312
 31
0.0
  0
LINE
  5
230
330
1F
100
AcDbEntity
  8
1
  6
Continuous
 62
     7
370
    30
100
AcDbLine
 10
746.5988522933156
 20
431.1212063163312
 30
0.0
 11
746.5988522933156
 21
429.1212063163312
 31
0.0
  0
LINE
  5
231
330
1F
100
AcDbEntity
  8
1
  6
Continuous
 62
     7
370
    30
100
AcDbLine
 10
741.2988522933157
 20
431.1212063163312
 30
0.0
 11
741.2988522933157
 21
429.114538316331
 31
0.0
  0
LINE
  5
232
330
1F
100
AcDbEntity
  8
1
  6
Continuous
 62
     7
370
    30
100
AcDbLine
 10
741.2988522933157
 20
431.1212063163312
 30
0.0
 11
743.0988522933156
 21
431.1212063163312
 31
0.0
  0
LINE
  5
233
330
1F
100
AcDbEntity
  8
1
  6
Continuous
 62
     7
370
    30
100
AcDbLine
 10
743.0988522933156
 20
431.1212063163312
 30
0.0
 11
743.0988522933156
 21
429.1212063163312
 31
0.0
  0
LINE
  5
234
330
1F
100
AcDbEntity
  8
1
  6
Continuous
 62
     7
370
    30
100
AcDbLine
 10
774.5988522933156
 20
429.1212063163312
 30
0.0
 11
776.2988522933156
 21
429.1212063163312
 31
0.0
  0
LINE
  5
235
330
1F
100
AcDbEntity
  8
1
  6
Continuous
 62
     7
370
    30
100
AcDbLine
 10
768.1988522933158
 20
403.121206316331
 30
0.0
 11
768.1988522933158
 21
405.1212063163312
 31
0.0
  0
LINE
  5
236
330
1F
100
AcDbEntity
  8
1
  6
Continuous
 62
     7
370
    30
100
AcDbLine
 10
773.4988522933157
 20
403.121206316331
 30
0.0
 11
773.4988522933157
 21
405.1212063163312
 31
0.0
  0
LINE
  5
237
330
1F
100
AcDbEntity
  8
1
  6
Continuous
 62
     7
370
    30
100
AcDbLine
 10
768.1988522933158
 20
403.121206316331
 30
0.0
 11
769.9988522933157
 21
403.121206316331
 31
0.0
  0
LINE
  5
238
330
1F
100
AcDbEntity
  8
1
  6
Continuous
 62
     7
370
    30
100
AcDbLine
 10
775.1988522933158
 20
403.121206316331
 30
0.0
 11
776.9988522933156
 21
403.121206316331
 31
0.0
  0
LINE
  5
239
330
1F
100
AcDbEntity
  8
1
  6
Continuous
 62
     7
370
    30
100
AcDbLine
 10
771.6988522933157
 20
403.121206316331
 30
0.0
 11
773.4988522933157
 21
403.121206316331
 31
0.0
  0
LINE
  5
23A
330
1F
100
AcDbEntity
  8
1
  6
Continuous
 62
     7
370
    30
100
AcDbLine
 10
771.6988522933157
 20
403.121206316331
 30
0.0
 11
771.6988522933157
 21
405.1212063163312
 31
0.0
  0
LINE
  5
23B
330
1F
100
AcDbEntity
  8
1
  6
Continuous
 62
     7
370
    30
100
AcDbLine
 10
769.9988522933157
 20
403.121206316331
 30
0.0
 11
769.9988522933157
 21
405.1212063163312
 31
0.0
  0
LINE
  5
23C
330
1F
100
AcDbEntity
  8
1
  6
Continuous
 62
     7
370
    30
100
AcDbLine
 10
776.9988522933156
 20
403.121206316331
 30
0.0
 11
776.9988522933156
 21
405.1212063163312
 31
0.0
  0
LINE
  5
23D
330
1F
100
AcDbEntity
  8
1
  6
Continuous
 62
     7
370
    30
100
AcDbLine
 10
778.6988522933158
 20
403.121206316331
 30
0.0
 11
780.4988522933157
 21
403.121206316331
 31
0.0
  0
LINE
  5
23E
330
1F
100
AcDbEntity
  8
1
  6
Continuous
 62
     7
370
    30
100
AcDbLine
 10
775.1988522933158
 20
403.121206316331
 30
0.0
 11
775.1988522933158
 21
405.1212063163312
 31
0.0
  0
LINE
  5
23F
330
1F
100
AcDbEntity
  8
1
  6
Continuous
 62
     7
370
    30
100
AcDbLine
 10
780.4988522933157
 20
403.121206316331
 30
0.0
 11
780.4988522933157
 21
405.1212063163312
 31
0.0
  0
LINE
  5
240
330
1F
100
AcDbEntity
  8
1
  6
Continuous
 62
     7
370
    30
100
AcDbLine
 10
778.6988522933158
 20
403.121206316331
 30
0.0
 11
778.6988522933158
 21
405.1212063163312
 31
0.0
  0
LINE
  5
241
330
1F
100
AcDbEntity
  8
1
  6
Continuous
 62
     7
370
    30
100
AcDbLine
 10
782.1988522933157
 20
403.121206316331
 30
0.0
 11
783.9988522933157
 21
403.121206316331
 31
0.0
  0
LINE
  5
242
330
1F
100
AcDbEntity
  8
1
  6
Continuous
 62
     7
370
    30
100
AcDbLine
 10
783.9988522933157
 20
403.121206316331
 30
0.0
 11
783.9988522933157
 21
405.1212063163312
 31
0.0
  0
LINE
  5
243
330
1F
100
AcDbEntity
  8
1
  6
Continuous
 62
     7
370
    30
100
AcDbLine
 10
782.1988522933157
 20
403.121206316331
 30
0.0
 11
782.1988522933157
 21
405.1212063163312
 31
0.0
  0
LINE
  5
244
330
1F
100
AcDbEntity
  8
1
  6
Continuous
 62
     7
370
    30
100
AcDbLine
 10
785.6988522933158
 20
403.121206316331
 30
0.0
 11
787.4988522933157
 21
403.121206316331
 31
0.0
  0
LINE
  5
245
330
1F
100
AcDbEntity
  8
1
  6
Continuous
 62
     7
370
    30
100
AcDbLine
 10
787.4988522933157
 20
403.121206316331
 30
0.0
 11
787.4988522933157
 21
405.1212063163312
 31
0.0
  0
LINE
  5
246
330
1F
100
AcDbEntity
  8
1
  6
Continuous
 62
     7
370
    30
100
AcDbLine
 10
785.6988522933158
 20
403.121206316331
 30
0.0
 11
785.6988522933158
 21
405.1212063163312
 31
0.0
  0
LINE
  5
247
330
1F
100
AcDbEntity
  8
1
  6
Continuous
 62
     7
370
    30
100
AcDbLine
 10
789.1988522933158
 20
403.121206316331
 30
0.0
 11
790.9988522933156
 21
403.121206316331
 31
0.0
  0
LINE
  5
248
330
1F
100
AcDbEntity
  8
1
  6
Continuous
 62
     7
370
    30
100
AcDbLine
 10
790.9988522933156
 20
403.121206316331
 30
0.0
 11
790.9988522933156
 21
405.1212063163312
 31
0.0
  0
LINE
  5
249
330
1F
100
AcDbEntity
  8
1
  6
Continuous
 62
     7
370
    30
100
AcDbLine
 10
789.1988522933158
 20
403.121206316331
 30
0.0
 11
789.1988522933158
 21
405.1212063163312
 31
0.0
  0
LINE
  5
24A
330
1F
100
AcDbEntity
  8
1
  6
Continuous
 62
     7
370
    30
100
AcDbLine
 10
761.1988522933157
 20
403.121206316331
 30
0.0
 11
761.1988522933157
 21
405.1212063163312
 31
0.0
  0
LINE
  5
24B
330
1F
100
AcDbEntity
  8
1
  6
Continuous
 62
     7
370
    30
100
AcDbLine
 10
761.1988522933157
 20
403.121206316331
 30
0.0
 11
762.9988522933157
 21
403.121206316331
 31
0.0
  0
LINE
  5
24C
330
1F
100
AcDbEntity
  8
1
  6
Continuous
 62
     7
370
    30
100
AcDbLine
 10
762.9988522933157
 20
403.121206316331
 30
0.0
 11
762.9988522933157
 21
405.1212063163312
 31
0.0
  0
LINE
  5
24D
330
1F
100
AcDbEntity
  8
1
  6
Continuous
 62
     7
370
    30
100
AcDbLine
 10
754.1988522933158
 20
403.121206316331
 30
0.0
 11
754.1988522933158
 21
405.1212063163312
 31
0.0
  0
LINE
  5
24E
330
1F
100
AcDbEntity
  8
1
  6
Continuous
 62
     7
370
    30
100
AcDbLine
 10
757.6988522933158
 20
403.121206316331
 30
0.0
 11
759.4988522933157
 21
403.121206316331
 31
0.0
  0
LINE
  5
24F
330
1F
100
AcDbEntity
  8
1
  6
Continuous
 62
     7
370
    30
100
AcDbLine
 10
759.4988522933157
 20
403.121206316331
 30
0.0
 11
759.4988522933157
 21
405.1212063163312
 31
0.0
  0
LINE
  5
250
330
1F
100
AcDbEntity
  8
1
  6
Continuous
 62
     7
370
    30
100
AcDbLine
 10
750.6988522933157
 20
403.121206316331
 30
0.0
 11
750.6988522933157
 21
405.1212063163312
 31
0.0
  0
LINE
  5
251
330
1F
100
AcDbEntity
  8
1
  6
Continuous
 62
     7
370
    30
100
AcDbLine
 10
750.6988522933157
 20
403.121206316331
 30
0.0
 11
752.4988522933157
 21
403.121206316331
 31
0.0
  0
LINE
  5
252
330
1F
100
AcDbEntity
  8
1
  6
Continuous
 62
     7
370
    30
100
AcDbLine
 10
752.4988522933157
 20
403.121206316331
 30
0.0
 11
752.4988522933157
 21
405.1212063163312
 31
0.0
  0
LINE
  5
253
330
1F
100
AcDbEntity
  8
1
  6
Continuous
 62
     7
370
    30
100
AcDbLine
 10
747.1988522933158
 20
403.121206316331
 30
0.0
 11
747.1988522933158
 21
405.1212063163312
 31
0.0
  0
LINE
  5
254
330
1F
100
AcDbEntity
  8
1
  6
Continuous
 62
     7
370
    30
100
AcDbLine
 10
747.1988522933158
 20
403.121206316331
 30
0.0
 11
748.9988522933157
 21
403.121206316331
 31
0.0
  0
LINE
  5
255
330
1F
100
AcDbEntity
  8
1
  6
Continuous
 62
     7
370
    30
100
AcDbLine
 10
748.9988522933157
 20
403.121206316331
 30
0.0
 11
748.9988522933157
 21
405.1212063163312
 31
0.0
  0
LINE
  5
256
330
1F
100
AcDbEntity
  8
1
  6
Continuous
 62
     7
370
    30
100
AcDbLine
 10
743.6988522933158
 20
403.121206316331
 30
0.0
 11
743.6988522933158
 21
405.1212063163312
 31
0.0
  0
LINE
  5
257
330
1F
100
AcDbEntity
  8
1
  6
Continuous
 62
     7
370
    30
100
AcDbLine
 10
743.6988522933158
 20
403.121206316331
 30
0.0
 11
745.4988522933156
 21
403.121206316331
 31
0.0
  0
LINE
  5
258
330
1F
100
AcDbEntity
  8
1
  6
Continuous
 62
     7
370
    30
100
AcDbLine
 10
745.4988522933156
 20
403.121206316331
 30
0.0
 11
745.4988522933156
 21
405.1212063163312
 31
0.0
  0
LINE
  5
259
330
1F
100
AcDbEntity
  8
1
  6
Continuous
 62
     7
370
    30
100
AcDbLine
 10
740.1988522933157
 20
403.121206316331
 30
0.0
 11
740.1988522933157
 21
405.1416403163312
 31
0.0
  0
LINE
  5
25A
330
1F
100
AcDbEntity
  8
1
  6
Continuous
 62
     7
370
    30
100
AcDbLine
 10
740.1988522933157
 20
403.121206316331
 30
0.0
 11
741.9988522933157
 21
403.121206316331
 31
0.0
  0
LINE
  5
25B
330
1F
100
AcDbEntity
  8
1
  6
Continuous
 62
     7
370
    30
100
AcDbLine
 10
741.9988522933157
 20
403.121206316331
 30
0.0
 11
741.9988522933157
 21
405.1212063163312
 31
0.0
  0
LINE
  5
25C
330
1F
100
AcDbEntity
  8
1
  6
Continuous
 62
     7
370
    30
100
AcDbLine
 10
727.0479982933158
 20
414.8052123163311
 30
0.0
 11
729.0907182933156
 21
414.9839263163311
 31
0.0
  0
LINE
  5
25D
330
1F
100
AcDbEntity
  8
1
  6
Continuous
 62
     7
370
    30
100
AcDbLine
 10
726.8911172933156
 20
416.5983623163311
 30
0.0
 11
727.0479982933158
 21
414.8052123163311
 31
0.0
  0
LINE
  5
25E
330
1F
100
AcDbEntity
  8
1
  6
Continuous
 62
     7
370
    30
100
AcDbLine
 10
726.9760832933158
 20
418.9560073163311
 30
0.0
 11
728.9817972933157
 21
418.5296803163311
 31
0.0
  0
LINE
  5
25F
330
1F
100
AcDbEntity
  8
1
  6
Continuous
 62
     7
370
    30
100
AcDbLine
 10
726.8911172933156
 20
416.5983623163311
 30
0.0
 11
728.9038632933157
 21
416.7744543163312
 31
0.0
  0
LINE
  5
260
330
1F
100
AcDbEntity
  8
1
  6
Continuous
 62
     7
370
    30
100
AcDbLine
 10
727.3503242933158
 20
420.7166733163313
 30
0.0
 11
726.9760832933158
 21
418.9560073163311
 31
0.0
  0
LINE
  5
261
330
1F
100
AcDbEntity
  8
1
  6
Continuous
 62
     7
370
    30
100
AcDbLine
 10
729.5782852933157
 20
408.854723316331
 30
0.0
 11
731.1484572933157
 21
410.1262233163311
 31
0.0
  0
LINE
  5
262
330
1F
100
AcDbEntity
  8
1
  6
Continuous
 62
     7
370
    30
100
AcDbLine
 10
727.6560542933156
 20
412.5257423163312
 30
0.0
 11
729.5293682933158
 21
413.2826103163311
 31
0.0
  0
LINE
  5
263
330
1F
100
AcDbEntity
  8
1
  6
Continuous
 62
     7
370
    30
100
AcDbLine
 10
729.5782852933157
 20
408.854723316331
 30
0.0
 11
730.7110612933157
 21
407.455860316331
 31
0.0
  0
LINE
  5
264
330
1F
100
AcDbEntity
  8
1
  6
Continuous
 62
     7
370
    30
100
AcDbLine
 10
733.9820932933158
 20
404.8995683163312
 30
0.0
 11
735.1287312933158
 21
406.5995293163311
 31
0.0
  0
LINE
  5
265
330
1F
100
AcDbEntity
  8
1
  6
Continuous
 62
     7
370
    30
100
AcDbLine
 10
737.8575842933158
 20
403.4113313163311
 30
0.0
 11
738.4570992933158
 21
405.3722563163311
 31
0.0
  0
LINE
  5
266
330
1F
100
AcDbEntity
  8
1
  6
Continuous
 62
     7
370
    30
100
AcDbLine
 10
791.8988522933158
 20
406.121206316331
 30
0.0
 11
791.8988522933158
 21
405.1212063163312
 31
0.0
  0
LINE
  5
267
330
1F
100
AcDbEntity
  8
1
  6
Continuous
 62
     7
370
    30
100
AcDbLine
 10
799.9872212933159
 20
428.5487293163312
 30
0.0
 11
798.8201382933155
 21
426.924562316331
 31
0.0
  0
LINE
  5
268
330
1F
100
AcDbEntity
  8
1
  6
Continuous
 62
     7
370
    30
100
AcDbLine
 10
804.3701192933156
 20
423.7602943163311
 30
0.0
 11
804.9946042933157
 21
422.0720943163312
 31
0.0
  0
LINE
  5
269
330
1F
100
AcDbEntity
  8
1
  6
Continuous
 62
     7
370
    30
100
AcDbLine
 10
796.2927132933157
 20
430.414211316331
 30
0.0
 11
795.6514872933157
 21
428.5197913163311
 31
0.0
  0
LINE
  5
26A
330
1F
100
AcDbEntity
  8
1
  6
Continuous
 62
     7
370
    30
100
AcDbLine
 10
805.8698812933155
 20
418.0269363163311
 30
0.0
 11
803.8731972933155
 21
417.9118083163311
 31
0.0
  0
LINE
  5
26B
330
1F
100
AcDbEntity
  8
1
  6
Continuous
 62
     7
370
    30
100
AcDbLine
 10
805.5242232933155
 20
413.9026273163311
 30
0.0
 11
803.5811252933155
 21
414.3763033163311
 31
0.0
  0
LINE
  5
26C
330
1F
100
AcDbEntity
  8
1
  6
Continuous
 62
     7
370
    30
100
AcDbLine
 10
804.3701192933156
 20
423.7602943163311
 30
0.0
 11
802.3523722933159
 21
423.0139063163313
 31
0.0
  0
LINE
  5
26D
330
1F
100
AcDbEntity
  8
1
  6
Continuous
 62
     7
370
    30
100
AcDbLine
 10
802.7263262933158
 20
408.0450943163311
 30
0.0
 11
801.3949902933158
 21
406.8336723163311
 31
0.0
  0
LINE
  5
26E
330
1F
100
AcDbEntity
  8
1
  6
Continuous
 62
     7
370
    30
100
AcDbLine
 10
804.9068152933156
 20
411.6073243163311
 30
0.0
 11
803.0569532933156
 21
412.7056923163311
 31
0.0
  0
LINE
  5
26F
330
1F
100
AcDbEntity
  8
1
  6
Continuous
 62
     7
370
    30
100
AcDbLine
 10
805.9505322933159
 20
415.6514153163311
 30
0.0
 11
803.8603692933158
 21
416.1609423163311
 31
0.0
  0
LINE
  5
270
330
1F
100
AcDbEntity
  8
1
  6
Continuous
 62
     7
370
    30
100
AcDbLine
 10
799.5996182933158
 20
405.2760303163311
 30
0.0
 11
798.6802132933157
 21
407.2210473163311
 31
0.0
  0
LINE
  5
271
330
1F
100
AcDbEntity
  8
1
  6
Continuous
 62
     7
370
    30
100
AcDbLine
 10
805.9505322933159
 20
415.6514153163311
 30
0.0
 11
805.5242232933155
 21
413.9026273163311
 31
0.0
  0
LINE
  5
272
330
1F
100
AcDbEntity
  8
1
  6
Continuous
 62
     7
370
    30
100
AcDbLine
 10
804.9068152933156
 20
411.6073243163311
 30
0.0
 11
803.9878382933156
 21
410.0595903163312
 31
0.0
  0
LINE
  5
273
330
1F
100
AcDbEntity
  8
1
  6
Continuous
 62
     7
370
    30
100
AcDbLine
 10
794.0187912933158
 20
403.2822813163311
 30
0.0
 11
793.7300782933155
 21
405.2613323163312
 31
0.0
  0
LINE
  5
274
330
1F
100
AcDbEntity
  8
1
  6
Continuous
 62
     7
370
    30
100
AcDbLine
 10
727.3503242933158
 20
420.7166733163313
 30
0.0
 11
729.3266072933158
 21
420.2966013163311
 31
0.0
  0
LINE
  5
275
330
1F
100
AcDbEntity
  8
1
  6
Continuous
 62
     7
370
    30
100
AcDbLine
 10
795.7999372933157
 20
403.5421223163311
 30
0.0
 11
795.4893732933157
 21
405.6709593163311
 31
0.0
  0
LINE
  5
276
330
1F
100
AcDbEntity
  8
1
  6
Continuous
 62
     7
370
    30
100
AcDbLine
 10
794.5877352933155
 20
430.9913153163311
 30
0.0
 11
796.2927132933157
 21
430.414211316331
 31
0.0
  0
LINE
  5
277
330
1F
100
AcDbEntity
  8
1
  6
Continuous
 62
     7
370
    30
100
AcDbLine
 10
798.5254702933156
 20
429.5991043163312
 30
0.0
 11
799.9872212933159
 21
428.5487293163312
 31
0.0
  0
LINE
  5
278
330
1F
100
AcDbEntity
  8
1
  6
Continuous
 62
     7
370
    30
100
AcDbLine
 10
737.3844892933158
 20
430.7175023163311
 30
0.0
 11
737.7405592933156
 21
428.6981313163312
 31
0.0
  0
LINE
  5
279
330
1F
100
AcDbEntity
  8
1
  6
Continuous
 62
     7
370
    30
100
AcDbLine
 10
728.9935432933156
 20
424.5207753163311
 30
0.0
 11
730.7606552933156
 21
423.5412493163311
 31
0.0
  0
LINE
  5
27A
330
1F
100
AcDbEntity
  8
1
  6
Continuous
 62
     7
370
    30
100
AcDbLine
 10
733.5628782933156
 20
429.095908316331
 30
0.0
 11
734.4937962933158
 21
427.2688783163312
 31
0.0
  0
LINE
  5
27B
330
1F
100
AcDbEntity
  8
1
  6
Continuous
 62
     7
370
    30
100
AcDbLine
 10
731.6771732933156
 20
427.6782243163311
 30
0.0
 11
730.3823612933157
 21
426.4278393163311
 31
0.0
  0
LINE
  5
27C
330
1F
100
AcDbEntity
  8
1
  6
Continuous
 62
     7
370
    30
100
AcDbLine
 10
736.1362352933157
 20
403.9376003163311
 30
0.0
 11
737.8575842933158
 21
403.4113313163311
 31
0.0
  0
LINE
  5
27D
330
1F
100
AcDbEntity
  8
1
  6
Continuous
 62
     7
370
    30
100
AcDbLine
 10
735.1666902933158
 20
429.9130913163312
 30
0.0
 11
733.5628782933156
 21
429.095908316331
 31
0.0
  0
LINE
  5
27E
330
1F
100
AcDbEntity
  8
1
  6
Continuous
 62
     7
370
    30
100
AcDbLine
 10
728.1208862933157
 20
422.9464593163311
 30
0.0
 11
729.9143142933157
 21
421.9523463163312
 31
0.0
  0
LINE
  5
27F
330
1F
100
AcDbEntity
  8
1
  6
Continuous
 62
     7
370
    30
100
AcDbLine
 10
730.3823612933157
 20
426.4278393163311
 30
0.0
 11
731.8067742933156
 21
424.9528163163311
 31
0.0
  0
LINE
  5
280
330
1F
100
AcDbEntity
  8
1
  6
Continuous
 62
     7
370
    30
100
AcDbLine
 10
732.4898252933157
 20
405.9061153163311
 30
0.0
 11
733.6196382933156
 21
407.581131316331
 31
0.0
  0
LINE
  5
281
330
1F
100
AcDbEntity
  8
1
  6
Continuous
 62
     7
370
    30
100
AcDbLine
 10
731.6771732933156
 20
427.6782243163311
 30
0.0
 11
733.0806842933158
 21
426.2248463163312
 31
0.0
  0
LINE
  5
282
330
1F
100
AcDbEntity
  8
1
  6
Continuous
 62
     7
370
    30
100
AcDbLine
 10
802.9748822933158
 20
425.6845913163311
 30
0.0
 11
801.3839352933159
 21
424.4726143163311
 31
0.0
  0
LINE
  5
283
330
1F
100
AcDbEntity
  8
1
  6
Continuous
 62
     7
370
    30
100
AcDbLine
 10
791.4988522933157
 20
406.121206316331
 30
0.0
 11
791.4988522933157
 21
405.1212063163312
 31
0.0
  0
LINE
  5
284
330
1F
100
AcDbEntity
  8
1
  6
Continuous
 62
     7
370
    30
100
AcDbLine
 10
801.8841032933157
 20
427.1164433163311
 30
0.0
 11
800.1727442933158
 21
425.8127373163311
 31
0.0
  0
LINE
  5
285
330
1F
100
AcDbEntity
  8
1
  6
Continuous
 62
     7
370
    30
100
AcDbLine
 10
788.5988522933156
 20
429.1212063163312
 30
0.0
 11
790.2988522933156
 21
429.1212063163312
 31
0.0
  0
LINE
  5
286
330
1F
100
AcDbEntity
  8
1
  6
Continuous
 62
     7
370
    30
100
AcDbLine
 10
785.0988522933156
 20
429.1212063163312
 30
0.0
 11
786.7988522933156
 21
429.1212063163312
 31
0.0
  0
LINE
  5
287
330
1F
100
AcDbEntity
  8
1
  6
Continuous
 62
     7
370
    30
100
AcDbLine
 10
781.5988522933155
 20
429.1212063163312
 30
0.0
 11
783.2988522933157
 21
429.1212063163312
 31
0.0
  0
LINE
  5
288
330
1F
100
AcDbEntity
  8
1
  6
Continuous
 62
     7
370
    30
100
AcDbLine
 10
778.0988522933156
 20
429.1212063163312
 30
0.0
 11
779.7988522933157
 21
429.1212063163312
 31
0.0
  0
LINE
  5
289
330
1F
100
AcDbEntity
  8
1
  6
Continuous
 62
     7
370
    30
100
AcDbLine
 10
785.6988522933158
 20
405.1212063163312
 30
0.0
 11
783.9988522933157
 21
405.1212063163312
 31
0.0
  0
LINE
  5
28A
330
1F
100
AcDbEntity
  8
1
  6
Continuous
 62
     7
370
    30
100
AcDbLine
 10
789.1988522933158
 20
405.1212063163312
 30
0.0
 11
787.4988522933157
 21
405.1212063163312
 31
0.0
  0
LINE
  5
28B
330
1F
100
AcDbEntity
  8
1
  6
Continuous
 62
     7
370
    30
100
AcDbLine
 10
743.0988522933156
 20
429.1212063163312
 30
0.0
 11
744.7988522933156
 21
429.1212063163312
 31
0.0
  0
LINE
  5
28C
330
1F
100
AcDbEntity
  8
1
  6
Continuous
 62
     7
370
    30
100
AcDbLine
 10
746.5988522933156
 20
429.1212063163312
 30
0.0
 11
748.2988522933157
 21
429.1212063163312
 31
0.0
  0
LINE
  5
28D
330
1F
100
AcDbEntity
  8
1
  6
Continuous
 62
     7
370
    30
100
AcDbLine
 10
750.0988522933158
 20
429.1212063163312
 30
0.0
 11
751.7988522933157
 21
429.1212063163312
 31
0.0
  0
LINE
  5
28E
330
1F
100
AcDbEntity
  8
1
  6
Continuous
 62
     7
370
    30
100
AcDbLine
 10
757.0988522933156
 20
429.1212063163312
 30
0.0
 11
758.7988522933157
 21
429.1212063163312
 31
0.0
  0
LINE
  5
28F
330
1F
100
AcDbEntity
  8
1
  6
Continuous
 62
     7
370
    30
100
AcDbLine
 10
760.5988522933158
 20
429.1212063163312
 30
0.0
 11
762.2988522933157
 21
429.1212063163312
 31
0.0
  0
LINE
  5
290
330
1F
100
AcDbEntity
  8
1
  6
Continuous
 62
     7
370
    30
100
AcDbLine
 10
764.0988522933156
 20
429.1212063163312
 30
0.0
 11
765.7988522933156
 21
429.1212063163312
 31
0.0
  0
LINE
  5
291
330
1F
100
AcDbEntity
  8
1
  6
Continuous
 62
     7
370
    30
100
AcDbLine
 10
782.1988522933157
 20
405.1212063163312
 30
0.0
 11
780.4988522933157
 21
405.1212063163312
 31
0.0
  0
LINE
  5
292
330
1F
100
AcDbEntity
  8
1
  6
Continuous
 62
     7
370
    30
100
AcDbLine
 10
778.6988522933158
 20
405.1212063163312
 30
0.0
 11
776.9988522933156
 21
405.1212063163312
 31
0.0
  0
LINE
  5
293
330
1F
100
AcDbEntity
  8
1
  6
Continuous
 62
     7
370
    30
100
AcDbLine
 10
775.1988522933158
 20
405.1212063163312
 30
0.0
 11
773.4988522933157
 21
405.1212063163312
 31
0.0
  0
LINE
  5
294
330
1F
100
AcDbEntity
  8
1
  6
Continuous
 62
     7
370
    30
100
AcDbLine
 10
771.6988522933157
 20
405.1212063163312
 30
0.0
 11
769.9988522933157
 21
405.1212063163312
 31
0.0
  0
LINE
  5
295
330
1F
100
AcDbEntity
  8
1
  6
Continuous
 62
     7
370
    30
100
AcDbLine
 10
764.6988522933158
 20
405.1212063163312
 30
0.0
 11
762.9988522933157
 21
405.1212063163312
 31
0.0
  0
LINE
  5
296
330
1F
100
AcDbEntity
  8
1
  6
Continuous
 62
     7
370
    30
100
AcDbLine
 10
761.1988522933157
 20
405.1212063163312
 30
0.0
 11
759.4988522933157
 21
405.1212063163312
 31
0.0
  0
LINE
  5
297
330
1F
100
AcDbEntity
  8
1
  6
Continuous
 62
     7
370
    30
100
AcDbLine
 10
754.1988522933158
 20
405.1212063163312
 30
0.0
 11
752.4988522933157
 21
405.1212063163312
 31
0.0
  0
LINE
  5
298
330
1F
100
AcDbEntity
  8
1
  6
Continuous
 62
     7
370
    30
100
AcDbLine
 10
750.6988522933157
 20
405.1212063163312
 30
0.0
 11
748.9988522933157
 21
405.1212063163312
 31
0.0
  0
LINE
  5
299
330
1F
100
AcDbEntity
  8
1
  6
Continuous
 62
     7
370
    30
100
AcDbLine
 10
747.1988522933158
 20
405.1212063163312
 30
0.0
 11
745.4988522933156
 21
405.1212063163312
 31
0.0
  0
LINE
  5
29A
330
1F
100
AcDbEntity
  8
1
  6
Continuous
 62
     7
370
    30
100
AcDbLine
 10
743.6988522933158
 20
405.1212063163312
 30
0.0
 11
741.9988522933157
 21
405.1212063163312
 31
0.0
  0
LINE
  5
29B
330
1F
100
AcDbEntity
  8
1
  6
Continuous
 62
     7
370
    30
100
AcDbLine
 10
801.8841032933157
 20
427.1164433163311
 30
0.0
 11
802.9748822933158
 21
425.6845913163311
 31
0.0
  0
LINE
  5
29C
330
1F
100
AcDbEntity
  8
1
  6
Continuous
 62
     7
370
    30
100
AcDbLine
 10
728.9935432933156
 20
424.5207753163311
 30
0.0
 11
728.1208862933157
 21
422.9464593163311
 31
0.0
  0
LINE
  5
29D
330
1F
100
AcDbEntity
  8
1
  6
Continuous
 62
     7
370
    30
100
AcDbLine
 10
736.1362352933157
 20
403.9376003163311
 30
0.0
 11
736.7269532933157
 21
405.8697503163312
 31
0.0
  0
LINE
  5
29E
330
1F
100
AcDbEntity
  8
1
  6
Continuous
 62
     7
370
    30
100
AcDbLine
 10
735.1666902933158
 20
429.9130913163312
 30
0.0
 11
736.0839482933158
 21
428.1128713163311
 31
0.0
  0
LINE
  5
29F
330
1F
100
AcDbEntity
  8
1
  6
Continuous
 62
     7
370
    30
100
AcDbLine
 10
804.9946042933157
 20
422.0720943163312
 30
0.0
 11
803.1184352933159
 21
421.3780783163311
 31
0.0
  0
LINE
  5
2A0
330
1F
100
AcDbEntity
  8
1
  6
Continuous
 62
     7
370
    30
100
AcDbLine
 10
805.7662662933155
 20
419.8239523163311
 30
0.0
 11
803.6184622933157
 21
419.7001103163311
 31
0.0
  0
LINE
  5
2A1
330
1F
100
AcDbEntity
  8
1
  6
Continuous
 62
     7
370
    30
100
AcDbLine
 10
801.3949902933158
 20
406.8336723163311
 30
0.0
 11
800.0489652933156
 21
408.3129343163312
 31
0.0
  0
LINE
  5
2A2
330
1F
100
AcDbEntity
  8
1
  6
Continuous
 62
     7
370
    30
100
AcDbLine
 10
799.5996182933158
 20
405.2760303163311
 30
0.0
 11
797.9722702933157
 21
404.506786316331
 31
0.0
  0
LINE
  5
2A3
330
1F
100
AcDbEntity
  8
1
  6
Continuous
 62
     7
370
    30
100
AcDbLine
 10
767.5988522933156
 20
429.1212063163312
 30
0.0
 11
769.2988522933157
 21
429.1212063163312
 31
0.0
  0
LINE
  5
2A4
330
1F
100
AcDbEntity
  8
1
  6
Continuous
 62
     7
370
    30
100
AcDbLine
 10
730.7110612933157
 20
407.455860316331
 30
0.0
 11
732.3046172933158
 21
408.7462963163312
 31
0.0
  0
LINE
  5
2A5
330
1F
100
AcDbEntity
  8
1
  6
Continuous
 62
     7
370
    30
100
AcDbLine
 10
732.4898252933157
 20
405.9061153163311
 30
0.0
 11
733.9820932933158
 21
404.8995683163312
 31
0.0
  0
LINE
  5
2A6
330
1F
100
AcDbEntity
  8
1
  6
Continuous
 62
     7
370
    30
100
AcDbLine
 10
727.6560542933156
 20
412.5257423163312
 30
0.0
 11
728.3303462933158
 21
410.8568123163311
 31
0.0
  0
LINE
  5
2A7
330
1F
100
AcDbEntity
  8
1
  6
Continuous
 62
     7
370
    30
100
AcDbLine
 10
767.5988522933156
 20
431.1212063163312
 30
0.0
 11
767.5988522933156
 21
429.1212063163312
 31
0.0
  0
LINE
  5
2A8
330
1F
100
AcDbEntity
  8
1
  6
Continuous
 62
     7
370
    30
100
AcDbLine
 10
765.7988522933156
 20
431.1212063163312
 30
0.0
 11
765.7988522933156
 21
429.1212063163312
 31
0.0
  0
LINE
  5
2A9
330
1F
100
AcDbEntity
  8
1
  6
Continuous
 62
     7
370
    30
100
AcDbLine
 10
765.7988522933156
 20
431.1212063163312
 30
0.0
 11
767.5988522933156
 21
431.1212063163312
 31
0.0
  0
LINE
  5
2AA
330
1F
100
AcDbEntity
  8
1
  6
Continuous
 62
     7
370
    30
100
AcDbLine
 10
802.7263262933158
 20
408.0450943163311
 30
0.0
 11
801.2784262933159
 21
409.6363153163311
 31
0.0
  0
LINE
  5
2AB
330
1F
100
AcDbEntity
  8
1
  6
Continuous
 62
     7
370
    30
100
AcDbLine
 10
764.6988522933158
 20
403.121206316331
 30
0.0
 11
766.4988522933156
 21
403.121206316331
 31
0.0
  0
LINE
  5
2AC
330
1F
100
AcDbEntity
  8
1
  6
Continuous
 62
     7
370
    30
100
AcDbLine
 10
766.4988522933156
 20
403.121206316331
 30
0.0
 11
766.4988522933156
 21
405.1212063163312
 31
0.0
  0
LINE
  5
2AD
330
1F
100
AcDbEntity
  8
1
  6
Continuous
 62
     7
370
    30
100
AcDbLine
 10
768.1988522933158
 20
405.1212063163312
 30
0.0
 11
766.4988522933156
 21
405.1212063163312
 31
0.0
  0
LINE
  5
2AE
330
1F
100
AcDbEntity
  8
1
  6
Continuous
 62
     7
370
    30
100
AcDbLine
 10
795.7999372933157
 20
403.5421223163311
 30
0.0
 11
794.0187912933158
 21
403.2822813163311
 31
0.0
  0
LINE
  5
2AF
330
1F
100
AcDbEntity
  8
1
  6
Continuous
 62
     7
370
    30
100
AcDbLine
 10
739.1571432933157
 20
431.030068316331
 30
0.0
 11
739.5079882933156
 21
429.0403293163311
 31
0.0
  0
LINE
  5
2B0
330
1F
100
AcDbEntity
  8
1
  6
Continuous
 62
     7
370
    30
100
AcDbLine
 10
728.3303462933158
 20
410.8568123163311
 30
0.0
 11
730.2315572933157
 21
411.6249513163311
 31
0.0
  0
LINE
  5
2B1
330
1F
100
AcDbEntity
  8
1
  6
Continuous
 62
     7
370
    30
100
AcDbLine
 10
764.6988522933158
 20
403.121206316331
 30
0.0
 11
764.6988522933158
 21
405.1212063163312
 31
0.0
  0
LINE
  5
2B2
330
1F
100
AcDbEntity
  8
1
  6
Continuous
 62
     7
370
    30
100
AcDbLine
 10
805.7662662933155
 20
419.8239523163311
 30
0.0
 11
805.8698812933155
 21
418.0269363163311
 31
0.0
  0
LINE
  5
2B3
330
1F
100
AcDbEntity
  8
1
  6
Continuous
 62
     7
370
    30
100
AcDbLine
 10
803.9878382933156
 20
410.0595903163312
 30
0.0
 11
802.2681332933157
 21
411.0806763163312
 31
0.0
  0
LINE
  5
2B4
330
1F
100
AcDbEntity
  8
1
  6
Continuous
 62
     7
370
    30
100
AcDbLine
 10
797.9722702933157
 20
404.506786316331
 30
0.0
 11
797.1175542933157
 21
406.3149513163312
 31
0.0
  0
LINE
  5
2B5
330
1F
100
AcDbEntity
  8
1
  6
Continuous
 62
     7
370
    30
100
AcDbLine
 10
798.5254702933156
 20
429.5991043163312
 30
0.0
 11
797.2700572933157
 21
427.8520103163311
 31
0.0
  0
LINE
  5
2B6
330
1F
100
AcDbEntity
  8
1
  6
Continuous
 62
     7
370
    30
100
AcDbLine
 10
794.5877352933155
 20
430.9913153163311
 30
0.0
 11
793.8979772933155
 21
428.9535143163311
 31
0.0
  0
LINE
  5
2B7
330
1F
100
AcDbEntity
  8
1
  6
Continuous
 62
     7
370
    30
100
AcDbLine
 10
739.1571432933157
 20
431.030068316331
 30
0.0
 11
737.3844892933158
 21
430.7175023163311
 31
0.0
  0
LINE
  5
2B8
330
1F
100
AcDbEntity
  8
1
  6
Continuous
 62
     7
370
    30
100
AcDbLine
 10
755.2988522933156
 20
431.1212063163312
 30
0.0
 11
755.2988522933156
 21
429.1212063163312
 31
0.0
  0
LINE
  5
2B9
330
1F
100
AcDbEntity
  8
1
  6
Continuous
 62
     7
370
    30
100
AcDbLine
 10
755.2988522933156
 20
431.1212063163312
 30
0.0
 11
757.0988522933156
 21
431.1212063163312
 31
0.0
  0
LINE
  5
2BA
330
1F
100
AcDbEntity
  8
1
  6
Continuous
 62
     7
370
    30
100
AcDbLine
 10
757.0988522933156
 20
431.1212063163312
 30
0.0
 11
757.0988522933156
 21
429.1212063163312
 31
0.0
  0
LINE
  5
2BB
330
1F
100
AcDbEntity
  8
1
  6
Continuous
 62
     7
370
    30
100
AcDbLine
 10
757.6988522933158
 20
403.121206316331
 30
0.0
 11
757.6988522933158
 21
405.1212063163312
 31
0.0
  0
LINE
  5
2BC
330
1F
100
AcDbEntity
  8
1
  6
Continuous
 62
     7
370
    30
100
AcDbLine
 10
754.1988522933158
 20
403.121206316331
 30
0.0
 11
755.9988522933156
 21
403.121206316331
 31
0.0
  0
LINE
  5
2BD
330
1F
100
AcDbEntity
  8
1
  6
Continuous
 62
     7
370
    30
100
AcDbLine
 10
755.9988522933156
 20
403.121206316331
 30
0.0
 11
755.9988522933156
 21
405.1212063163312
 31
0.0
  0
LINE
  5
2BE
330
1F
100
AcDbEntity
  8
1
  6
Continuous
 62
     7
370
    30
100
AcDbLine
 10
753.5988522933156
 20
429.1212063163312
 30
0.0
 11
755.2988522933156
 21
429.1212063163312
 31
0.0
  0
LINE
  5
2BF
330
1F
100
AcDbEntity
  8
1
  6
Continuous
 62
     7
370
    30
100
AcDbLine
 10
757.6988522933158
 20
405.1212063163312
 30
0.0
 11
755.9988522933156
 21
405.1212063163312
 31
0.0
  0
ARC
  5
2C0
330
1F
100
AcDbEntity
  8
1
  6
Continuous
 62
     7
370
    30
100
AcDbCircle
 10
741.3988522933158
 20
577.6212063163312
 30
0.0
 40
2.5
100
AcDbArc
 50
0.0
 51
179.9999999999998
  0
ARC
  5
2C1
330
1F
100
AcDbEntity
  8
1
  6
Continuous
 62
     7
370
    30
100
AcDbCircle
 10
741.3988522933158
 20
569.621206316331
 30
0.0
 40
5.0
100
AcDbArc
 50
119.9999999999999
 51
60.00000000000124
  0
CIRCLE
  5
2C2
330
1F
100
AcDbEntity
  8
1
  6
Continuous
 62
     7
370
    30
100
AcDbCircle
 10
645.3988522933158
 20
297.6212063163312
 30
0.0
 40
2.5
  0
CIRCLE
  5
2C3
330
1F
100
AcDbEntity
  8
1
  6
Continuous
 62
     7
370
    30
100
AcDbCircle
 10
837.3988522933157
 20
297.6212063163312
 30
0.0
 40
2.5
  0
ARC
  5
2C4
330
1F
100
AcDbEntity
  8
1
  6
Continuous
 62
     7
370
    30
100
AcDbCircle
 10
634.3988522933157
 20
287.6212063163312
 30
0.0
 40
0.5
100
AcDbArc
 50
179.9999999999998
 51
269.9999999999998
  0
ARC
  5
2C5
330
1F
100
AcDbEntity
  8
1
  6
Continuous
 62
     7
370
    30
100
AcDbCircle
 10
848.3988522933156
 20
287.6212063163312
 30
0.0
 40
0.5
100
AcDbArc
 50
269.9999999999998
 51
0.0
  0
ARC
  5
2C6
330
1F
100
AcDbEntity
  8
1
  6
Continuous
 62
     7
370
    30
100
AcDbCircle
 10
848.3988522933156
 20
584.621206316331
 30
0.0
 40
0.5
100
AcDbArc
 50
0.0
 51
89.99999999999991
  0
ARC
  5
2C7
330
1F
100
AcDbEntity
  8
1
  6
Continuous
 62
     7
370
    30
100
AcDbCircle
 10
634.3988522933157
 20
584.621206316331
 30
0.0
 40
0.5
100
AcDbArc
 50
89.99999999999991
 51
179.9999999999998
  0
ARC
  5
2C8
330
1F
100
AcDbEntity
  8
1
  6
Continuous
 62
     7
370
    30
100
AcDbCircle
 10
791.8988522933158
 20
417.1212063163312
 30
0.0
 40
12.0
100
AcDbArc
 50
304.4101679999993
 51
312.7774679999999
  0
ARC
  5
2C9
330
1F
100
AcDbEntity
  8
1
  6
Continuous
 62
     7
370
    30
100
AcDbCircle
 10
740.8988522933157
 20
417.1212063163312
 30
0.0
 40
12.0
100
AcDbArc
 50
88.0897869999997
 51
96.65584799999971
  0
ARC
  5
2CA
330
1F
100
AcDbEntity
  8
1
  6
Continuous
 62
     7
370
    30
100
AcDbCircle
 10
791.8988522933158
 20
417.1212063163312
 30
0.0
 40
12.0
100
AcDbArc
 50
321.410167999999
 51
329.7774679999986
  0
ARC
  5
2CB
330
1F
100
AcDbEntity
  8
1
  6
Continuous
 62
     7
370
    30
100
AcDbCircle
 10
740.8988522933157
 20
417.1212063163312
 30
0.0
 40
12.0
100
AcDbArc
 50
156.2594960000008
 51
164.6558479999999
  0
ARC
  5
2CC
330
1F
100
AcDbEntity
  8
1
  6
Continuous
 62
     7
370
    30
100
AcDbCircle
 10
740.8988522933157
 20
417.1212063163312
 30
0.0
 40
12.0
100
AcDbArc
 50
190.259496
 51
198.6558480000002
  0
ARC
  5
2CD
330
1F
100
AcDbEntity
  8
1
  6
Continuous
 62
     7
370
    30
100
AcDbCircle
 10
740.8988522933157
 20
417.1212063163312
 30
0.0
 40
12.0
100
AcDbArc
 50
241.2594960000004
 51
249.6558479999993
  0
ARC
  5
2CE
330
1F
100
AcDbEntity
  8
1
  6
Continuous
 62
     7
370
    30
100
AcDbCircle
 10
791.8988522933158
 20
417.1212063163312
 30
0.0
 40
12.0
100
AcDbArc
 50
63.41016800000038
 51
71.77746800000014
  0
ARC
  5
2CF
330
1F
100
AcDbEntity
  8
1
  6
Continuous
 62
     7
370
    30
100
AcDbCircle
 10
740.8988522933157
 20
417.1212063163312
 30
0.0
 40
12.0
100
AcDbArc
 50
258.2594960000004
 51
266.6558479999994
  0
ARC
  5
2D0
330
1F
100
AcDbEntity
  8
1
  6
Continuous
 62
     7
370
    30
100
AcDbCircle
 10
791.8988522933158
 20
417.1212063163312
 30
0.0
 40
11.0
100
AcDbArc
 50
269.9999999999998
 51
89.99999999999991
  0
ARC
  5
2D1
330
1F
100
AcDbEntity
  8
1
  6
Continuous
 62
     7
370
    30
100
AcDbCircle
 10
791.8988522933158
 20
417.1212063163312
 30
0.0
 40
12.0
100
AcDbArc
 50
46.41016800000013
 51
54.77746800000006
  0
ARC
  5
2D2
330
1F
100
AcDbEntity
  8
1
  6
Continuous
 62
     7
370
    30
100
AcDbCircle
 10
791.8988522933158
 20
417.1212063163312
 30
0.0
 40
12.0
100
AcDbArc
 50
29.41016800000013
 51
37.77746800000092
  0
ARC
  5
2D3
330
1F
100
AcDbEntity
  8
1
  6
Continuous
 62
     7
370
    30
100
AcDbCircle
 10
791.8988522933158
 20
417.1212063163312
 30
0.0
 40
12.0
100
AcDbArc
 50
338.4101679999994
 51
346.777467999999
  0
ARC
  5
2D4
330
1F
100
AcDbEntity
  8
1
  6
Continuous
 62
     7
370
    30
100
AcDbCircle
 10
791.8988522933158
 20
417.1212063163312
 30
0.0
 40
12.0
100
AcDbArc
 50
80.41016800000085
 51
89.04502400000001
  0
ARC
  5
2D5
330
1F
100
AcDbEntity
  8
1
  6
Continuous
 62
     7
370
    30
100
AcDbCircle
 10
740.8988522933157
 20
417.1212063163312
 30
0.0
 40
11.0
100
AcDbArc
 50
89.99999999999991
 51
269.9999999999998
  0
ARC
  5
2D6
330
1F
100
AcDbEntity
  8
1
  6
Continuous
 62
     7
370
    30
100
AcDbCircle
 10
740.8988522933157
 20
417.1212063163312
 30
0.0
 40
12.0
100
AcDbArc
 50
207.2594960000002
 51
215.6558479999995
  0
ARC
  5
2D7
330
1F
100
AcDbEntity
  8
1
  6
Continuous
 62
     7
370
    30
100
AcDbCircle
 10
791.8988522933158
 20
417.1212063163312
 30
0.0
 40
12.0
100
AcDbArc
 50
12.41016799999965
 51
20.77746799999995
  0
ARC
  5
2D8
330
1F
100
AcDbEntity
  8
1
  6
Continuous
 62
     7
370
    30
100
AcDbCircle
 10
791.8988522933158
 20
417.1212063163312
 30
0.0
 40
12.0
100
AcDbArc
 50
287.410167999999
 51
295.7774679999988
  0
ARC
  5
2D9
330
1F
100
AcDbEntity
  8
1
  6
Continuous
 62
     7
370
    30
100
AcDbCircle
 10
740.8988522933157
 20
417.1212063163312
 30
0.0
 40
12.0
100
AcDbArc
 50
139.2594960000003
 51
147.6558479999996
  0
ARC
  5
2DA
330
1F
100
AcDbEntity
  8
1
  6
Continuous
 62
     7
370
    30
100
AcDbCircle
 10
740.8988522933157
 20
417.1212063163312
 30
0.0
 40
12.0
100
AcDbArc
 50
122.2594960000001
 51
130.6558480000003
  0
ARC
  5
2DB
330
1F
100
AcDbEntity
  8
1
  6
Continuous
 62
     7
370
    30
100
AcDbCircle
 10
740.8988522933157
 20
417.1212063163312
 30
0.0
 40
12.0
100
AcDbArc
 50
105.2594959999996
 51
113.6558479999996
  0
ARC
  5
2DC
330
1F
100
AcDbEntity
  8
1
  6
Continuous
 62
     7
370
    30
100
AcDbCircle
 10
740.8988522933157
 20
417.1212063163312
 30
0.0
 40
12.0
100
AcDbArc
 50
224.2594959999996
 51
232.6558480000002
  0
ARC
  5
2DD
330
1F
100
AcDbEntity
  8
1
  6
Continuous
 62
     7
370
    30
100
AcDbCircle
 10
791.8988522933158
 20
417.1212063163312
 30
0.0
 40
12.0
100
AcDbArc
 50
269.9999999999998
 51
278.7774679999986
  0
ARC
  5
2DE
330
1F
100
AcDbEntity
  8
1
  6
Continuous
 62
     7
370
    30
100
AcDbCircle
 10
740.8988522933157
 20
417.1212063163312
 30
0.0
 40
12.0
100
AcDbArc
 50
173.2594960000003
 51
181.6558479999998
  0
ARC
  5
2DF
330
1F
100
AcDbEntity
  8
1
  6
Continuous
 62
     7
370
    30
100
AcDbCircle
 10
791.8988522933158
 20
418.121206316331
 30
0.0
 40
13.0
100
AcDbArc
 50
269.9999999999998
 51
270.4407389999988
  0
ARC
  5
2E0
330
1F
100
AcDbEntity
  8
1
  6
Continuous
 62
     7
370
    30
100
AcDbCircle
 10
791.8988522933158
 20
417.1212063163312
 30
0.0
 40
12.0
100
AcDbArc
 50
355.4101679999995
 51
3.777468000000206
  0
LINE
  5
2E1
330
1F
100
AcDbEntity
  8
1
  6
Continuous
 62
     7
370
    30
100
AcDbLine
 10
731.3988522933158
 20
286.1212063163312
 30
0.0
 11
751.3988522933157
 21
286.1212063163312
 31
0.0
  0
LINE
  5
2E2
330
1F
100
AcDbEntity
  8
1
  6
Continuous
 62
     7
370
    30
100
AcDbLine
 10
728.8988522933157
 20
586.121206316331
 30
0.0
 11
728.8988522933157
 21
587.621206316331
 31
0.0
  0
LINE
  5
2E3
330
1F
100
AcDbEntity
  8
1
  6
Continuous
 62
     7
370
    30
100
AcDbLine
 10
697.8988522933158
 20
587.621206316331
 30
0.0
 11
697.8988522933158
 21
586.121206316331
 31
0.0
  0
ARC
  5
2E4
330
1F
100
AcDbEntity
  8
1
  6
Continuous
 62
     7
370
    30
100
AcDbCircle
 10
725.3988522933158
 20
587.621206316331
 30
0.0
 40
3.5
100
AcDbArc
 50
0.0
 51
89.99999999999991
  0
LINE
  5
2E5
330
1F
100
AcDbEntity
  8
1
  6
Continuous
 62
     7
370
    30
100
AcDbLine
 10
725.3988522933158
 20
591.1212063163312
 30
0.0
 11
701.3988522933158
 21
591.1212063163312
 31
0.0
  0
ARC
  5
2E6
330
1F
100
AcDbEntity
  8
1
  6
Continuous
 62
     7
370
    30
100
AcDbCircle
 10
701.3988522933158
 20
587.621206316331
 30
0.0
 40
3.5
100
AcDbArc
 50
89.99999999999991
 51
179.9999999999998
  0
ARC
  5
2E7
330
1F
100
AcDbEntity
  8
1
  6
Continuous
 62
     7
370
    30
100
AcDbCircle
 10
723.3988522933158
 20
591.6212063163312
 30
0.0
 40
0.5
100
AcDbArc
 50
0.0
 51
89.99999999999991
  0
LINE
  5
2E8
330
1F
100
AcDbEntity
  8
1
  6
Continuous
 62
     7
370
    30
100
AcDbLine
 10
723.8988522933158
 20
591.6212063163312
 30
0.0
 11
723.8988522933158
 21
591.1212063163312
 31
0.0
  0
ARC
  5
2E9
330
1F
100
AcDbEntity
  8
1
  6
Continuous
 62
     7
370
    30
100
AcDbCircle
 10
703.3988522933157
 20
591.6212063163312
 30
0.0
 40
0.5
100
AcDbArc
 50
89.99999999999991
 51
179.9999999999998
  0
LINE
  5
2EA
330
1F
100
AcDbEntity
  8
1
  6
Continuous
 62
     7
370
    30
100
AcDbLine
 10
702.8988522933158
 20
591.6212063163312
 30
0.0
 11
702.8988522933158
 21
591.1212063163312
 31
0.0
  0
LINE
  5
2EB
330
1F
100
AcDbEntity
  8
1
  6
Continuous
 62
     7
370
    30
100
AcDbLine
 10
723.3988522933158
 20
592.121206316331
 30
0.0
 11
703.3988522933157
 21
592.121206316331
 31
0.0
  0
LINE
  5
2EC
330
1F
100
AcDbEntity
  8
1
  6
DASHDOT
 62
     7
370
     9
100
AcDbLine
 10
747.6010722933156
 20
577.6212063163312
 30
0.0
 11
732.9094942933158
 21
577.6212063163312
 31
0.0
  0
LINE
  5
2ED
330
1F
100
AcDbEntity
  8
1
  6
DASHDOT
 62
     7
370
     9
100
AcDbLine
 10
622.7525872933157
 20
436.121206316331
 30
0.0
 11
863.3876242933156
 21
436.121206316331
 31
0.0
  0
LINE
  5
2EE
330
1F
100
AcDbEntity
  8
1
  6
DASHDOT
 62
     7
370
     9
100
AcDbLine
 10
719.6488522933158
 20
417.1212063163312
 30
0.0
 11
809.6488522933157
 21
417.1212063163312
 31
0.0
  0
LINE
  5
2EF
330
1F
100
AcDbEntity
  8
1
  6
DASHDOT
 62
     7
370
     9
100
AcDbLine
 10
652.8988522933158
 20
297.6212063163312
 30
0.0
 11
637.8988522933158
 21
297.6212063163312
 31
0.0
  0
LINE
  5
2F0
330
1F
100
AcDbEntity
  8
1
  6
DASHDOT
 62
     7
370
     9
100
AcDbLine
 10
645.3988522933158
 20
305.1212063163312
 30
0.0
 11
645.3988522933158
 21
290.1212063163312
 31
0.0
  0
LINE
  5
2F1
330
1F
100
AcDbEntity
  8
1
  6
DASHDOT
 62
     7
370
     9
100
AcDbLine
 10
837.3988522933157
 20
305.1212063163312
 30
0.0
 11
837.3988522933157
 21
290.1212063163312
 31
0.0
  0
LINE
  5
2F2
330
1F
100
AcDbEntity
  8
1
  6
DASHDOT
 62
     7
370
     9
100
AcDbLine
 10
844.8988522933157
 20
297.6212063163312
 30
0.0
 11
829.8988522933157
 21
297.6212063163312
 31
0.0
  0
LINE
  5
2F3
330
1F
100
AcDbEntity
  8
1
  6
DASHDOT
 62
     7
370
     9
100
AcDbLine
 10
741.3988522933158
 20
599.2293763163311
 30
0.0
 11
741.3988522933158
 21
271.484903634885
 31
0.0
  0
LINE
  5
2F4
330
1F
100
AcDbEntity
  8
1
  6
DASHDOT
 62
     7
370
     9
100
AcDbLine
 10
766.3988522933157
 20
474.8962373135519
 30
0.0
 11
766.3988522933157
 21
394.6212063163312
 31
0.0
  0
DIMENSION
  5
2FF
330
1F
100
AcDbEntity
  8
2
  6
Continuous
 62
   214
370
     9
100
AcDbDimension
280
     0
  2
Dim1
 10
837.3988522933156
 20
256.1212063163312
 30
0.0
 11
741.3988522933157
 21
262.1212063163312
 31
0.0
 70
   160
  1
<>
 71
     5
 42
-1.0
 73
     0
 74
     0
 75
     0
  3
Standard
100
AcDbAlignedDimension
 13
645.3988522933158
 23
290.1212063163312
 33
0.0
 14
837.3988522933157
 24
290.1212063163312
 34
0.0
100
AcDbRotatedDimension
1001
ACAD
1000
DSTYLE
1002
{
1070
   279
1070
     2
1070
   340
1005
2F5
1070
   140
1040
9.0
1070
    40
1040
1.0
1070
   147
1040
0.0
1070
    76
1070
     0
1070
    75
1070
     0
1070
   344
1005
7F
1070
   343
1005
7F
1070
   173
1070
     1
1070
   289
1070
     2
1070
   288
1070
     1
1070
    77
1070
     1
1070
   172
1070
     1
1070
   174
1070
     0
1070
    74
1070
     0
1070
    73
1070
     0
1070
   284
1070
     8
1070
    78
1070
     8
1070
    42
1040
6.0
1070
    44
1040
6.0
1070
    43
1040
10.0
1070
   271
1070
     2
1070
    41
1040
7.199999999999999
1002
}
  0
DIMENSION
  5
309
330
1F
100
AcDbEntity
  8
2
  6
Continuous
 62
   214
370
     9
100
AcDbDimension
280
     0
  2
Dim2
 10
741.3988522933158
 20
462.4612065289233
 30
0.0
 11
753.8988522933157
 21
468.4612065289233
 31
0.0
 70
   160
  1
<>
 71
     5
 42
-1.0
 73
     0
 74
     0
 75
     0
  3
Standard
100
AcDbAlignedDimension
 13
766.3988522933157
 23
444.4255128041105
 33
0.0
 14
741.3988522933158
 24
444.2228645600115
 34
0.0
 50
179.9999999999998
100
AcDbRotatedDimension
1001
ACAD
1000
DSTYLE
1002
{
1070
   279
1070
     2
1070
   340
1005
2F5
1070
   140
1040
9.0
1070
    40
1040
1.0
1070
   147
1040
0.0
1070
    76
1070
     0
1070
    75
1070
     0
1070
   344
1005
7F
1070
   343
1005
7F
1070
   173
1070
     1
1070
   289
1070
     2
1070
   288
1070
     1
1070
    77
1070
     1
1070
   172
1070
     1
1070
   174
1070
     0
1070
    74
1070
     0
1070
    73
1070
     0
1070
   284
1070
     8
1070
    78
1070
     8
1070
    42
1040
6.0
1070
    44
1040
6.0
1070
    43
1040
10.0
1070
   271
1070
     2
1070
    41
1040
7.199999999999999
1002
}
  0
DIMENSION
  5
313
330
1F
100
AcDbEntity
  8
2
  6
Continuous
 62
   214
370
     9
100
AcDbDimension
280
     0
  2
Dim3
 10
802.8988522933157
 20
383.1019024925901
 30
0.0
 11
766.3988522933157
 21
389.1019024925901
 31
0.0
 70
   160
  1
<>
 71
     5
 42
-1.0
 73
     0
 74
     0
 75
     0
  3
Standard
100
AcDbAlignedDimension
 13
729.8988522933157
 23
417.1212063163312
 33
0.0
 14
802.8988522933158
 24
417.1212063163312
 34
0.0
100
AcDbRotatedDimension
1001
ACAD
1000
DSTYLE
1002
{
1070
   279
1070
     2
1070
   340
1005
2F5
1070
   140
1040
9.0
1070
    40
1040
1.0
1070
   147
1040
0.0
1070
    76
1070
     0
1070
    75
1070
     0
1070
   344
1005
7F
1070
   343
1005
7F
1070
   173
1070
     1
1070
   289
1070
     2
1070
   288
1070
     1
1070
    77
1070
     1
1070
   172
1070
     1
1070
   174
1070
     0
1070
    74
1070
     0
1070
    73
1070
     0
1070
   284
1070
     8
1070
    78
1070
     8
1070
    42
1040
6.0
1070
    44
1040
6.0
1070
    43
1040
10.0
1070
   271
1070
     2
1070
    41
1040
7.199999999999999
1002
}
  0
DIMENSION
  5
31D
330
1F
100
AcDbEntity
  8
2
  6
Continuous
 62
   214
370
     9
100
AcDbDimension
280
     0
  2
Dim4
 10
384.1063787771006
 20
286.1212063163312
 30
0.0
 11
378.1063787771003
 21
436.1212063163311
 31
0.0
 70
   160
  1
<>
 71
     5
 42
-1.0
 73
     0
 74
     0
 75
     0
 53
89.99999999999991
  3
Standard
100
AcDbAlignedDimension
 13
354.1063787771003
 23
586.121206316331
 33
0.0
 14
354.1063787771003
 24
286.1212063163312
 34
0.0
 50
-89.99999999999991
100
AcDbRotatedDimension
1001
ACAD
1000
DSTYLE
1002
{
1070
   279
1070
     2
1070
   340
1005
2F5
1070
   140
1040
9.0
1070
    40
1040
1.0
1070
   147
1040
0.0
1070
    76
1070
     0
1070
    75
1070
     0
1070
   344
1005
7F
1070
   343
1005
7F
1070
   173
1070
     1
1070
   289
1070
     2
1070
   288
1070
     1
1070
    77
1070
     1
1070
   172
1070
     1
1070
   174
1070
     0
1070
    74
1070
     0
1070
    73
1070
     0
1070
   284
1070
     8
1070
    78
1070
     8
1070
    42
1040
6.0
1070
    44
1040
6.0
1070
    43
1040
10.0
1070
   271
1070
     2
1070
    41
1040
7.199999999999999
1002
}
  0
DIMENSION
  5
327
330
1F
100
AcDbEntity
  8
2
  6
Continuous
 62
   214
370
     9
100
AcDbDimension
280
     0
  2
Dim5
 10
878.898852293316
 20
297.6212063163312
 30
0.0
 11
872.8988522933158
 21
437.6212063163312
 31
0.0
 70
   160
  1
<>
 71
     5
 42
-1.0
 73
     0
 74
     0
 75
     0
 53
89.99999999999991
  3
Standard
100
AcDbAlignedDimension
 13
747.6010722933156
 23
577.6212063163312
 33
0.0
 14
844.8988522933157
 24
297.6212063163312
 34
0.0
 50
-89.99999999999991
100
AcDbRotatedDimension
1001
ACAD
1000
DSTYLE
1002
{
1070
   279
1070
     2
1070
   340
1005
2F5
1070
   140
1040
9.0
1070
    40
1040
1.0
1070
   147
1040
0.0
1070
    76
1070
     0
1070
    75
1070
     0
1070
   344
1005
7F
1070
   343
1005
7F
1070
   173
1070
     1
1070
   289
1070
     2
1070
   288
1070
     1
1070
    77
1070
     1
1070
   172
1070
     1
1070
   174
1070
     0
1070
    74
1070
     0
1070
    73
1070
     0
1070
   284
1070
     8
1070
    78
1070
     8
1070
    42
1040
6.0
1070
    44
1040
6.0
1070
    43
1040
10.0
1070
   271
1070
     2
1070
    41
1040
7.199999999999999
1002
}
  0
DIMENSION
  5
331
330
1F
100
AcDbEntity
  8
2
  6
Continuous
 62
   214
370
     9
100
AcDbDimension
280
     0
  2
Dim6
 10
878.8988522933158
 20
286.1212063163312
 30
0.0
 11
872.8988522933158
 21
266.3708065914694
 31
0.0
 70
   160
  1
<>
 71
     5
 42
-1.0
 73
     0
 74
     0
 75
     0
 53
89.99999999999991
  3
Standard
100
AcDbAlignedDimension
 13
844.8988522933157
 23
297.6212063163312
 33
0.0
 14
848.8988522933158
 24
286.1212063163312
 34
0.0
 50
-89.99999999999991
100
AcDbRotatedDimension
1001
ACAD
1000
DSTYLE
1002
{
1070
   279
1070
     2
1070
   340
1005
2F5
1070
   140
1040
9.0
1070
    40
1040
1.0
1070
   147
1040
0.0
1070
    76
1070
     0
1070
    75
1070
     0
1070
   344
1005
7F
1070
   343
1005
7F
1070
   173
1070
     1
1070
   289
1070
     2
1070
   288
1070
     1
1070
    77
1070
     1
1070
   172
1070
     1
1070
   174
1070
     0
1070
    74
1070
     0
1070
    73
1070
     0
1070
   284
1070
     8
1070
    78
1070
     8
1070
    42
1040
6.0
1070
    44
1040
6.0
1070
    43
1040
10.0
1070
   271
1070
     2
1070
    41
1040
7.199999999999999
1002
}
  0
DIMENSION
  5
33B
330
1F
100
AcDbEntity
  8
2
  6
Continuous
 62
   214
370
     9
100
AcDbDimension
280
     0
  2
Dim7
 10
832.4979948044327
 20
406.121206316331
 30
0.0
 11
826.4979948044327
 21
417.1212063163311
 31
0.0
 70
   160
  1
<>
 71
     5
 42
-1.0
 73
     0
 74
     0
 75
     0
 53
89.99999999999991
  3
Standard
100
AcDbAlignedDimension
 13
791.8988522933158
 23
428.1212063163312
 33
0.0
 14
791.4988522933157
 24
406.121206316331
 34
0.0
 50
-89.99999999999991
100
AcDbRotatedDimension
1001
ACAD
1000
DSTYLE
1002
{
1070
   279
1070
     2
1070
   340
1005
2F5
1070
   140
1040
9.0
1070
    40
1040
1.0
1070
   147
1040
0.0
1070
    76
1070
     0
1070
    75
1070
     0
1070
   344
1005
7F
1070
   343
1005
7F
1070
   173
1070
     1
1070
   289
1070
     2
1070
   288
1070
     1
1070
    77
1070
     1
1070
   172
1070
     1
1070
   174
1070
     0
1070
    74
1070
     0
1070
    73
1070
     0
1070
   284
1070
     8
1070
    78
1070
     8
1070
    42
1040
6.0
1070
    44
1040
6.0
1070
    43
1040
10.0
1070
   271
1070
     2
1070
    41
1040
7.199999999999999
1002
}
  0
DIMENSION
  5
345
330
1F
100
AcDbEntity
  8
2
  6
Continuous
 62
   214
370
     9
100
AcDbDimension
280
     0
  2
Dim8
 10
706.2368804949591
 20
436.1212063163311
 30
0.0
 11
700.2368804949591
 21
426.6212063163312
 31
0.0
 70
   160
  1
<>
 71
     5
 42
-1.0
 73
     0
 74
     0
 75
     0
  3
Standard
100
AcDbAlignedDimension
 13
722.8540365110789
 23
417.1212063163312
 33
0.0
 14
722.8540365110789
 24
436.121206316331
 34
0.0
 50
89.99999999999991
100
AcDbRotatedDimension
1001
ACAD
1000
DSTYLE
1002
{
1070
   279
1070
     2
1070
   340
1005
2F5
1070
   140
1040
9.0
1070
    40
1040
1.0
1070
   147
1040
0.0
1070
    76
1070
     0
1070
    75
1070
     0
1070
   344
1005
7F
1070
   343
1005
7F
1070
   173
1070
     1
1070
   289
1070
     2
1070
   288
1070
     1
1070
    77
1070
     1
1070
   172
1070
     1
1070
   174
1070
     0
1070
    74
1070
     0
1070
    73
1070
     0
1070
   284
1070
     8
1070
    78
1070
     8
1070
    42
1040
6.0
1070
    44
1040
6.0
1070
    43
1040
10.0
1070
   271
1070
     2
1070
    41
1040
7.199999999999999
1002
}
  0
INSERT
  5
346
330
1F
100
AcDbEntity
  8
2
  6
Continuous
 62
   214
370
     9
100
AcDbBlockReference
  2
_OPEN
 10
787.6972430115785
 20
428.1212063163312
 30
0.0
 41
7.199999999999999
 42
7.199999999999999
 43
7.199999999999999
 50
246.4004162213307
  0
POLYLINE
  5
347
330
1F
100
AcDbEntity
  8
2
  6
Continuous
 62
   214
370
     9
100
AcDb2dPolyline
 66
     1
 10
0.0
 20
0.0
 30
0.0
  0
VERTEX
  5
348
330
347
100
AcDbEntity
  8
2
  6
Continuous
 62
   214
370
     9
100
AcDbVertex
100
AcDb2dVertex
 10
787.6972430115785
 20
428.1212063163312
 30
0.0
  0
VERTEX
  5
349
330
347
100
AcDbEntity
  8
2
  6
Continuous
 62
   214
370
     9
100
AcDbVertex
100
AcDb2dVertex
 10
794.7223821403446
 20
444.2014328663724
 30
0.0
  0
VERTEX
  5
34A
330
347
100
AcDbEntity
  8
2
  6
Continuous
 62
   214
370
     9
100
AcDbVertex
100
AcDb2dVertex
 10
822.9223821403446
 20
444.2014328663724
 30
0.0
  0
SEQEND
  5
34B
330
347
100
AcDbEntity
  8
2
  6
Continuous
 62
   214
370
     9
  0
MTEXT
  5
34C
330
1F
100
AcDbEntity
  8
2
  6
Continuous
 62
   214
370
     9
100
AcDbMText
 10
794.7223821403446
 20
445.7014328663724
 30
0.0
 40
9.0
 41
35.93624079244015
 46
9.0
 71
     7
 72
     1
  1
{\fＭＳ ゴシック;\W0.714286;\T1.133333;通線孔}
 73
     1
 44
1.0
  0
MTEXT
  5
34D
330
1F
100
AcDbEntity
  8
15
  6
PHANTOM
 62
    96
370
     9
100
AcDbMText
 10
1102.80585
 20
725.3558999999999
 30
0.0
 40
9.0
 41
91.60247465838174
 46
9.0
 71
     5
 72
     1
  1
{\fＭＳ ゴシック;\W0.714286;\T1.133333;黒色（ＡＲＴ部）}
 73
     1
 44
1.0
  0
LINE
  5
34E
330
1F
100
AcDbEntity
  8
1
  6
Continuous
 62
     7
370
    30
100
AcDbLine
 10
319.2162325323768
 20
325.0881285019843
 30
0.0
 11
295.0192479347619
 21
301.1307172808889
 31
0.0
  0
LINE
  5
34F
330
1F
100
AcDbEntity
  8
1
  6
Continuous
 62
     7
370
    30
100
AcDbLine
 10
295.0192479347619
 20
301.1307172808889
 30
0.0
 11
302.5104048193641
 21
301.1307172808889
 31
0.0
  0
LINE
  5
350
330
1F
100
AcDbEntity
  8
1
  6
Continuous
 62
     7
370
    30
100
AcDbLine
 10
302.5104048193641
 20
301.1307172808889
 30
0.0
 11
314.1851732331803
 21
312.6898947476901
 31
0.0
  0
LINE
  5
351
330
1F
100
AcDbEntity
  8
1
  6
Continuous
 62
     7
370
    30
100
AcDbLine
 10
314.1851732331803
 20
312.6898947476901
 30
0.0
 11
314.1851732331803
 21
306.1617719820127
 31
0.0
  0
LINE
  5
352
330
1F
100
AcDbEntity
  8
1
  6
Continuous
 62
     7
370
    30
100
AcDbLine
 10
314.1851732331803
 20
306.1617719820127
 30
0.0
 11
308.914545155537
 21
306.1617719820127
 31
0.0
  0
LINE
  5
353
330
1F
100
AcDbEntity
  8
1
  6
Continuous
 62
     7
370
    30
100
AcDbLine
 10
308.914545155537
 20
306.1617719820127
 30
0.0
 11
308.914545155537
 21
301.1307172808889
 31
0.0
  0
LINE
  5
354
330
1F
100
AcDbEntity
  8
1
  6
Continuous
 62
     7
370
    30
100
AcDbLine
 10
308.914545155537
 20
301.1307172808889
 30
0.0
 11
319.2162325323768
 21
301.1307172808889
 31
0.0
  0
LINE
  5
355
330
1F
100
AcDbEntity
  8
1
  6
Continuous
 62
     7
370
    30
100
AcDbLine
 10
319.2162325323768
 20
301.1307172808889
 30
0.0
 11
319.2162325323768
 21
325.0881285019843
 31
0.0
  0
LINE
  5
356
330
1F
100
AcDbEntity
  8
1
  6
Continuous
 62
     7
370
    30
100
AcDbLine
 10
319.2162325323768
 20
307.8387902157207
 30
0.0
 11
326.4034522202473
 21
301.1307172808889
 31
0.0
  0
ARC
  5
357
330
1F
100
AcDbEntity
  8
1
  6
Continuous
 62
     7
370
    30
100
AcDbCircle
 10
324.9660119611313
 20
309.03666169639
 30
0.0
 40
1.197871480669294
100
AcDbArc
 50
270.0000000949
 51
89.99999990509966
  0
LINE
  5
358
330
1F
100
AcDbEntity
  8
1
  6
Continuous
 62
     7
370
    30
100
AcDbLine
 10
319.2162325323768
 20
307.8387902157207
 30
0.0
 11
324.9660119611313
 21
307.8387902157207
 31
0.0
  0
LINE
  5
359
330
1F
100
AcDbEntity
  8
1
  6
Continuous
 62
     7
370
    30
100
AcDbLine
 10
320.1745260384541
 20
310.2345331770593
 30
0.0
 11
324.9660119611313
 21
310.2345331770593
 31
0.0
  0
LINE
  5
35A
330
1F
100
AcDbEntity
  8
1
  6
Continuous
 62
     7
370
    30
100
AcDbLine
 10
320.1745260384541
 20
313.1094228914366
 30
0.0
 11
320.1745260384541
 21
310.2345331770593
 31
0.0
  0
LINE
  5
35B
330
1F
100
AcDbEntity
  8
1
  6
Continuous
 62
     7
370
    30
100
AcDbLine
 10
320.1745260384541
 20
313.1094228914366
 30
0.0
 11
325.8738738069652
 21
313.1094228914366
 31
0.0
  0
ARC
  5
35C
330
1F
100
AcDbEntity
  8
1
  6
Continuous
 62
     7
370
    30
100
AcDbCircle
 10
325.4199382859757
 20
309.03666169639
 30
0.0
 40
4.097977025168283
100
AcDbArc
 50
283.9448466306347
 51
83.64029606427829
  0
LINE
  5
35D
330
1F
100
AcDbEntity
  8
1
  6
Continuous
 62
     7
370
    30
100
AcDbLine
 10
326.4034522202473
 20
305.0632372617281
 30
0.0
 11
330.6168684560349
 21
301.1307172808889
 31
0.0
  0
LINE
  5
35E
330
1F
100
AcDbEntity
  8
1
  6
Continuous
 62
     7
370
    30
100
AcDbLine
 10
330.6168684560349
 20
301.1307172808889
 30
0.0
 11
326.4034522202473
 21
301.1307172808889
 31
0.0
  0
LINE
  5
35F
330
1F
100
AcDbEntity
  8
1
  6
Continuous
 62
     7
370
    30
100
AcDbLine
 10
339.1008825584257
 20
313.1094228914366
 30
0.0
 11
329.517915311144
 21
313.1094228914366
 31
0.0
  0
LINE
  5
360
330
1F
100
AcDbEntity
  8
1
  6
Continuous
 62
     7
370
    30
100
AcDbLine
 10
329.517915311144
 20
313.1094228914366
 30
0.0
 11
329.517915311144
 21
310.2345331770593
 31
0.0
  0
LINE
  5
361
330
1F
100
AcDbEntity
  8
1
  6
Continuous
 62
     7
370
    30
100
AcDbLine
 10
329.517915311144
 20
310.2345331770593
 30
0.0
 11
332.6323784020406
 21
310.2345331770593
 31
0.0
  0
LINE
  5
362
330
1F
100
AcDbEntity
  8
1
  6
Continuous
 62
     7
370
    30
100
AcDbLine
 10
332.6323784020406
 20
310.2345331770593
 30
0.0
 11
332.6323784020406
 21
301.1307172808889
 31
0.0
  0
LINE
  5
363
330
1F
100
AcDbEntity
  8
1
  6
Continuous
 62
     7
370
    30
100
AcDbLine
 10
332.6323784020406
 20
301.1307172808889
 30
0.0
 11
335.9864194675291
 21
301.1307172808889
 31
0.0
  0
LINE
  5
364
330
1F
100
AcDbEntity
  8
1
  6
Continuous
 62
     7
370
    30
100
AcDbLine
 10
335.9864194675291
 20
301.1307172808889
 30
0.0
 11
335.9864194675291
 21
310.2345331770593
 31
0.0
  0
LINE
  5
365
330
1F
100
AcDbEntity
  8
1
  6
Continuous
 62
     7
370
    30
100
AcDbLine
 10
335.9864194675291
 20
310.2345331770593
 30
0.0
 11
339.1008825584257
 21
310.2345331770593
 31
0.0
  0
LINE
  5
366
330
1F
100
AcDbEntity
  8
1
  6
Continuous
 62
     7
370
    30
100
AcDbLine
 10
339.1008825584257
 20
310.2345331770593
 30
0.0
 11
339.1008825584257
 21
313.1094228914366
 31
0.0
  0
HATCH
  5
367
330
1F
100
AcDbEntity
  8
1
  6
Continuous
 62
     7
370
     9
100
AcDbHatch
 10
0.0
 20
0.0
 30
0.0
210
0.0
220
0.0
230
1.0
  2
SOLID
 70
     1
 71
     0
 91
        1
 92
        0
 93
        8
 72
     1
 10
302.5104048193641
 20
301.1307172808889
 11
295.0192479347619
 21
301.1307172808889
 72
     1
 10
295.0192479347619
 20
301.1307172808889
 11
319.2162325323768
 21
325.0881285019843
 72
     1
 10
319.2162325323768
 20
325.0881285019843
 11
319.2162325323768
 21
301.1307172808889
 72
     1
 10
319.2162325323768
 20
301.1307172808889
 11
308.914545155537
 21
301.1307172808889
 72
     1
 10
308.914545155537
 20
301.1307172808889
 11
308.914545155537
 21
306.1617719820127
 72
     1
 10
308.914545155537
 20
306.1617719820127
 11
314.1851732331803
 21
306.1617719820127
 72
     1
 10
314.1851732331803
 20
306.1617719820127
 11
314.1851732331803
 21
312.6898947476901
 72
     1
 10
314.1851732331803
 20
312.6898947476901
 11
302.5104048193641
 21
301.1307172808889
 97
        0
 75
     0
 76
     1
 98
        0
  0
HATCH
  5
368
330
1F
100
AcDbEntity
  8
1
  6
Continuous
 62
     7
370
     9
100
AcDbHatch
 10
0.0
 20
0.0
 30
0.0
210
0.0
220
0.0
230
1.0
  2
SOLID
 70
     1
 71
     0
 91
        1
 92
        0
 93
        9
 72
     1
 10
324.9660308648752
 20
313.1094228914366
 11
320.1745260384541
 21
313.1094228914366
 72
     1
 10
320.1745260384541
 20
313.1094228914366
 11
320.1745260384541
 21
310.2345331770593
 72
     1
 10
320.1745260384541
 20
310.2345331770593
 11
324.9660119611313
 21
310.2345331770593
 72
     2
 10
324.9660119611313
 20
309.03666169639
 40
1.197871480669294
 50
270.0000000000001
 51
449.9999999999999
 73
     0
 72
     1
 10
324.9660119611313
 20
307.8387902157207
 11
319.2162325323768
 21
307.8387902157207
 72
     1
 10
319.2162325323768
 20
307.8387902157207
 11
326.4034522202473
 21
301.1307172808889
 72
     1
 10
326.4034522202473
 20
301.1307172808889
 11
330.6168684560349
 21
301.1307172808889
 72
     1
 10
330.6168684560349
 20
301.1307172808889
 11
326.4074998874513
 21
305.0594594407715
 72
     2
 10
325.4199382859757
 20
309.03666169639
 40
4.097977025168283
 50
283.944835961191
 51
456.3593459358135
 73
     1
 97
        0
 75
     0
 76
     1
 98
        0
  0
HATCH
  5
369
330
1F
100
AcDbEntity
  8
1
  6
Continuous
 62
     7
370
     9
100
AcDbHatch
 10
0.0
 20
0.0
 30
0.0
210
0.0
220
0.0
230
1.0
  2
SOLID
 70
     1
 71
     0
 91
        1
 92
        0
 93
        8
 72
     1
 10
339.1008825584257
 20
313.1094228914366
 11
329.517915311144
 21
313.1094228914366
 72
     1
 10
329.517915311144
 20
313.1094228914366
 11
329.517915311144
 21
310.2345331770593
 72
     1
 10
329.517915311144
 20
310.2345331770593
 11
332.6323784020406
 21
310.2345331770593
 72
     1
 10
332.6323784020406
 20
310.2345331770593
 11
332.6323784020406
 21
301.1307172808889
 72
     1
 10
332.6323784020406
 20
301.1307172808889
 11
335.9864194675291
 21
301.1307172808889
 72
     1
 10
335.9864194675291
 20
301.1307172808889
 11
335.9864194675291
 21
310.2345331770593
 72
     1
 10
335.9864194675291
 20
310.2345331770593
 11
339.1008825584257
 21
310.2345331770593
 72
     1
 10
339.1008825584257
 20
310.2345331770593
 11
339.1008825584257
 21
313.1094228914366
 97
        0
 75
     0
 76
     1
 98
        0
  0
LINE
  5
36A
330
1F
100
AcDbEntity
  8
1
  6
Continuous
 62
     7
370
    30
100
AcDbLine
 10
295.019247934762
 20
301.134158477206
 30
0.0
 11
302.5104048193642
 21
301.134158477206
 31
0.0
  0
LINE
  5
36B
330
1F
100
AcDbEntity
  8
1
  6
Continuous
 62
     7
370
    30
100
AcDbLine
 10
302.5104048193642
 20
301.134158477206
 30
0.0
 11
314.1851732331804
 21
312.6933359440072
 31
0.0
  0
LINE
  5
36C
330
1F
100
AcDbEntity
  8
1
  6
Continuous
 62
     7
370
    30
100
AcDbLine
 10
314.1851732331804
 20
312.6933359440072
 30
0.0
 11
314.1851732331804
 21
306.1652131783299
 31
0.0
  0
LINE
  5
36D
330
1F
100
AcDbEntity
  8
1
  6
Continuous
 62
     7
370
    30
100
AcDbLine
 10
314.1851732331804
 20
306.1652131783299
 30
0.0
 11
308.9145451555371
 21
306.1652131783299
 31
0.0
  0
LINE
  5
36E
330
1F
100
AcDbEntity
  8
1
  6
Continuous
 62
     7
370
    30
100
AcDbLine
 10
308.9145451555371
 20
306.1652131783299
 30
0.0
 11
308.9145451555371
 21
301.134158477206
 31
0.0
  0
LINE
  5
36F
330
1F
100
AcDbEntity
  8
1
  6
Continuous
 62
     7
370
    30
100
AcDbLine
 10
308.9145451555371
 20
301.134158477206
 30
0.0
 11
319.2162325323769
 21
301.134158477206
 31
0.0
  0
LINE
  5
370
330
1F
100
AcDbEntity
  8
1
  6
Continuous
 62
     7
370
    30
100
AcDbLine
 10
319.2162325323769
 20
301.134158477206
 30
0.0
 11
319.2162325323769
 21
325.0915696983014
 31
0.0
  0
LINE
  5
371
330
1F
100
AcDbEntity
  8
1
  6
Continuous
 62
     7
370
    30
100
AcDbLine
 10
319.2162325323769
 20
307.8422314120379
 30
0.0
 11
326.4034522202475
 21
301.134158477206
 31
0.0
  0
ARC
  5
372
330
1F
100
AcDbEntity
  8
1
  6
Continuous
 62
     7
370
    30
100
AcDbCircle
 10
324.9660119611314
 20
309.0401028927072
 30
0.0
 40
1.197871480669294
100
AcDbArc
 50
270.0000000949027
 51
89.99999990509694
  0
LINE
  5
373
330
1F
100
AcDbEntity
  8
1
  6
Continuous
 62
     7
370
    30
100
AcDbLine
 10
319.2162325323769
 20
307.8422314120379
 30
0.0
 11
324.9660119611314
 21
307.8422314120379
 31
0.0
  0
LINE
  5
374
330
1F
100
AcDbEntity
  8
1
  6
Continuous
 62
     7
370
    30
100
AcDbLine
 10
320.1745260384542
 20
310.2379743733765
 30
0.0
 11
324.9660119611314
 21
310.2379743733765
 31
0.0
  0
LINE
  5
375
330
1F
100
AcDbEntity
  8
1
  6
Continuous
 62
     7
370
    30
100
AcDbLine
 10
320.1745260384542
 20
313.1128640877537
 30
0.0
 11
320.1745260384542
 21
310.2379743733765
 31
0.0
  0
LINE
  5
376
330
1F
100
AcDbEntity
  8
1
  6
Continuous
 62
     7
370
    30
100
AcDbLine
 10
320.1745260384542
 20
313.1128640877537
 30
0.0
 11
325.8738738069653
 21
313.1128640877537
 31
0.0
  0
ARC
  5
377
330
1F
100
AcDbEntity
  8
1
  6
Continuous
 62
     7
370
    30
100
AcDbCircle
 10
325.4199382859758
 20
309.0401028927072
 30
0.0
 40
4.097977025168283
100
AcDbArc
 50
283.9448466306353
 51
83.64029606427856
  0
LINE
  5
378
330
1F
100
AcDbEntity
  8
1
  6
Continuous
 62
     7
370
    30
100
AcDbLine
 10
326.4034522202475
 20
305.0666784580453
 30
0.0
 11
330.616868456035
 21
301.134158477206
 31
0.0
  0
LINE
  5
379
330
1F
100
AcDbEntity
  8
1
  6
Continuous
 62
     7
370
    30
100
AcDbLine
 10
330.616868456035
 20
301.134158477206
 30
0.0
 11
326.4034522202475
 21
301.134158477206
 31
0.0
  0
LINE
  5
37A
330
1F
100
AcDbEntity
  8
1
  6
Continuous
 62
     7
370
    30
100
AcDbLine
 10
339.1008825584258
 20
313.1128640877537
 30
0.0
 11
329.5179153111441
 21
313.1128640877537
 31
0.0
  0
LINE
  5
37B
330
1F
100
AcDbEntity
  8
1
  6
Continuous
 62
     7
370
    30
100
AcDbLine
 10
329.5179153111441
 20
313.1128640877537
 30
0.0
 11
329.5179153111441
 21
310.2379743733765
 31
0.0
  0
LINE
  5
37C
330
1F
100
AcDbEntity
  8
1
  6
Continuous
 62
     7
370
    30
100
AcDbLine
 10
329.5179153111441
 20
310.2379743733765
 30
0.0
 11
332.6323784020407
 21
310.2379743733765
 31
0.0
  0
LINE
  5
37D
330
1F
100
AcDbEntity
  8
1
  6
Continuous
 62
     7
370
    30
100
AcDbLine
 10
332.6323784020407
 20
310.2379743733765
 30
0.0
 11
332.6323784020407
 21
301.134158477206
 31
0.0
  0
LINE
  5
37E
330
1F
100
AcDbEntity
  8
1
  6
Continuous
 62
     7
370
    30
100
AcDbLine
 10
332.6323784020407
 20
301.134158477206
 30
0.0
 11
335.9864194675292
 21
301.134158477206
 31
0.0
  0
LINE
  5
37F
330
1F
100
AcDbEntity
  8
1
  6
Continuous
 62
     7
370
    30
100
AcDbLine
 10
335.9864194675292
 20
301.134158477206
 30
0.0
 11
335.9864194675292
 21
310.2379743733765
 31
0.0
  0
LINE
  5
380
330
1F
100
AcDbEntity
  8
1
  6
Continuous
 62
     7
370
    30
100
AcDbLine
 10
335.9864194675292
 20
310.2379743733765
 30
0.0
 11
339.1008825584258
 21
310.2379743733765
 31
0.0
  0
LINE
  5
381
330
1F
100
AcDbEntity
  8
1
  6
Continuous
 62
     7
370
    30
100
AcDbLine
 10
339.1008825584258
 20
310.2379743733765
 30
0.0
 11
339.1008825584258
 21
313.1128640877537
 31
0.0
  0
HATCH
  5
382
330
1F
100
AcDbEntity
  8
1
  6
Continuous
 62
     7
370
     9
100
AcDbHatch
 10
0.0
 20
0.0
 30
0.0
210
0.0
220
0.0
230
1.0
  2
SOLID
 70
     1
 71
     0
 91
        1
 92
        0
 93
        9
 72
     1
 10
324.9660308648753
 20
313.1128640877537
 11
320.1745260384542
 21
313.1128640877537
 72
     1
 10
320.1745260384542
 20
313.1128640877537
 11
320.1745260384542
 21
310.2379743733765
 72
     1
 10
320.1745260384542
 20
310.2379743733765
 11
324.9660119611314
 21
310.2379743733765
 72
     2
 10
324.9660119611314
 20
309.0401028927072
 40
1.197871480669294
 50
270.0000000000001
 51
449.9999999999999
 73
     0
 72
     1
 10
324.9660119611314
 20
307.8422314120379
 11
319.2162325323769
 21
307.8422314120379
 72
     1
 10
319.2162325323769
 20
307.8422314120379
 11
326.4034522202475
 21
301.134158477206
 72
     1
 10
326.4034522202475
 20
301.134158477206
 11
330.616868456035
 21
301.134158477206
 72
     1
 10
330.616868456035
 20
301.134158477206
 11
326.4074998874514
 21
305.0629006370888
 72
     2
 10
325.4199382859758
 20
309.0401028927072
 40
4.097977025168283
 50
283.9448359611914
 51
456.3593459358135
 73
     1
 97
        0
 75
     0
 76
     1
 98
        0
  0
HATCH
  5
383
330
1F
100
AcDbEntity
  8
1
  6
Continuous
 62
     7
370
     9
100
AcDbHatch
 10
0.0
 20
0.0
 30
0.0
210
0.0
220
0.0
230
1.0
  2
SOLID
 70
     1
 71
     0
 91
        1
 92
        0
 93
        8
 72
     1
 10
339.1008825584258
 20
313.1128640877537
 11
329.5179153111441
 21
313.1128640877537
 72
     1
 10
329.5179153111441
 20
313.1128640877537
 11
329.5179153111441
 21
310.2379743733765
 72
     1
 10
329.5179153111441
 20
310.2379743733765
 11
332.6323784020407
 21
310.2379743733765
 72
     1
 10
332.6323784020407
 20
310.2379743733765
 11
332.6323784020407
 21
301.134158477206
 72
     1
 10
332.6323784020407
 20
301.134158477206
 11
335.9864194675292
 21
301.134158477206
 72
     1
 10
335.9864194675292
 20
301.134158477206
 11
335.9864194675292
 21
310.2379743733765
 72
     1
 10
335.9864194675292
 20
310.2379743733765
 11
339.1008825584258
 21
310.2379743733765
 72
     1
 10
339.1008825584258
 20
310.2379743733765
 11
339.1008825584258
 21
313.1128640877537
 97
        0
 75
     0
 76
     1
 98
        0
  0
DIMENSION
  5
38D
330
1F
100
AcDbEntity
  8
2
  6
Continuous
 62
   214
370
     9
100
AcDbDimension
280
     0
  2
Dim9
 10
354.1063787771004
 20
646.121206316331
 30
0.0
 11
246.6063787771004
 21
652.121206316331
 31
0.0
 70
   160
  1
<>
 71
     5
 42
-1.0
 73
     0
 74
     0
 75
     0
  3
Standard
100
AcDbAlignedDimension
 13
139.1063787771003
 23
586.121206316331
 33
0.0
 14
354.1063787771003
 24
586.121206316331
 34
0.0
100
AcDbRotatedDimension
1001
ACAD
1000
DSTYLE
1002
{
1070
   279
1070
     2
1070
   340
1005
2F5
1070
   140
1040
9.0
1070
    40
1040
1.0
1070
   147
1040
0.0
1070
    76
1070
     0
1070
    75
1070
     0
1070
   344
1005
7F
1070
   343
1005
7F
1070
   173
1070
     1
1070
   289
1070
     2
1070
   288
1070
     1
1070
    77
1070
     1
1070
   172
1070
     1
1070
   174
1070
     0
1070
    74
1070
     0
1070
    73
1070
     0
1070
   284
1070
     8
1070
    78
1070
     8
1070
    42
1040
6.0
1070
    44
1040
6.0
1070
    43
1040
10.0
1070
   271
1070
     2
1070
    41
1040
7.199999999999999
1002
}
  0
DIMENSION
  5
397
330
1F
100
AcDbEntity
  8
2
  6
Continuous
 62
   214
370
     9
100
AcDbDimension
280
     0
  2
Dim10
 10
531.1735467574676
 20
646.121206316331
 30
0.0
 11
493.6735467574675
 21
652.121206316331
 31
0.0
 70
   160
  1
<>
 71
     5
 42
-1.0
 73
     0
 74
     0
 75
     0
  3
Standard
100
AcDbAlignedDimension
 13
456.1735467574673
 23
585.1307752860507
 33
0.0
 14
531.1735467574675
 24
586.1307752860508
 34
0.0
100
AcDbRotatedDimension
1001
ACAD
1000
DSTYLE
1002
{
1070
   279
1070
     2
1070
   340
1005
2F5
1070
   140
1040
9.0
1070
    40
1040
1.0
1070
   147
1040
0.0
1070
    76
1070
     0
1070
    75
1070
     0
1070
   344
1005
7F
1070
   343
1005
7F
1070
   173
1070
     1
1070
   289
1070
     2
1070
   288
1070
     1
1070
    77
1070
     1
1070
   172
1070
     1
1070
   174
1070
     0
1070
    74
1070
     0
1070
    73
1070
     0
1070
   284
1070
     8
1070
    78
1070
     8
1070
    42
1040
6.0
1070
    44
1040
6.0
1070
    43
1040
10.0
1070
   271
1070
     2
1070
    41
1040
7.199999999999999
1002
}
  0
DIMENSION
  5
3A1
330
1F
100
AcDbEntity
  8
2
  6
Continuous
 62
   214
370
     9
100
AcDbDimension
280
     0
  2
Dim11
 10
274.6063787771002
 20
616.121206316331
 30
0.0
 11
314.3563787771003
 21
622.121206316331
 31
0.0
 70
   160
  1
<>
 71
     5
 42
-1.0
 73
     0
 74
     0
 75
     0
  3
Standard
100
AcDbAlignedDimension
 13
354.1063787771003
 23
586.121206316331
 33
0.0
 14
274.6063787771002
 24
592.121206316331
 34
0.0
 50
179.9999999999998
100
AcDbRotatedDimension
1001
ACAD
1000
DSTYLE
1002
{
1070
   279
1070
     2
1070
   340
1005
2F5
1070
   140
1040
9.0
1070
    40
1040
1.0
1070
   147
1040
0.0
1070
    76
1070
     0
1070
    75
1070
     0
1070
   344
1005
7F
1070
   343
1005
7F
1070
   173
1070
     1
1070
   289
1070
     2
1070
   288
1070
     1
1070
    77
1070
     1
1070
   172
1070
     1
1070
   174
1070
     0
1070
    74
1070
     0
1070
    73
1070
     0
1070
   284
1070
     8
1070
    78
1070
     8
1070
    42
1040
6.0
1070
    44
1040
6.0
1070
    43
1040
10.0
1070
   271
1070
     2
1070
    41
1040
7.199999999999999
1002
}
  0
DIMENSION
  5
3AB
330
1F
100
AcDbEntity
  8
2
  6
Continuous
 62
   214
370
     9
100
AcDbDimension
280
     0
  2
Dim12
 10
506.1735467574676
 20
616.1212063163309
 30
0.0
 11
518.6735467574675
 21
622.1212063163309
 31
0.0
 70
   160
  1
<>
 71
     5
 42
-1.0
 73
     0
 74
     0
 75
     0
  3
Standard
100
AcDbAlignedDimension
 13
531.1735467574675
 23
586.1307752860508
 33
0.0
 14
506.1735467574675
 24
592.1307752860508
 34
0.0
 50
179.9999999999998
100
AcDbRotatedDimension
1001
ACAD
1000
DSTYLE
1002
{
1070
   279
1070
     2
1070
   340
1005
2F5
1070
   140
1040
9.0
1070
    40
1040
1.0
1070
   147
1040
0.0
1070
    76
1070
     0
1070
    75
1070
     0
1070
   344
1005
7F
1070
   343
1005
7F
1070
   173
1070
     1
1070
   289
1070
     2
1070
   288
1070
     1
1070
    77
1070
     1
1070
   172
1070
     1
1070
   174
1070
     0
1070
    74
1070
     0
1070
    73
1070
     0
1070
   284
1070
     8
1070
    78
1070
     8
1070
    42
1040
6.0
1070
    44
1040
6.0
1070
    43
1040
10.0
1070
   271
1070
     2
1070
    41
1040
7.199999999999999
1002
}
  0
MTEXT
  5
3AC
330
1F
100
AcDbEntity
  8
15
  6
Continuous
 62
    96
370
     9
100
AcDbMText
 10
1102.630586821574
 20
186.8125245180286
 30
0.0
 40
9.0
 41
37.14166473697934
 46
9.0
 71
     5
 72
     1
  1
{\fＭＳ ゴシック;\W0.714286;\T1.133333;―――}
 73
     1
 44
1.0
  0
MTEXT
  5
3AD
330
1F
100
AcDbEntity
  8
15
  6
Continuous
 62
    96
370
     9
100
AcDbMText
 10
1162.829562788449
 20
111.2118306876646
 30
0.0
 40
15.0
 41
40.69074740536684
 46
15.0
 71
     5
 72
     1
  1
{\fHG正楷書体-PRO;\W0.714286;\T1.080000;宮村}
 73
     1
 44
1.0
  0
MTEXT
  5
3AE
330
1F
100
AcDbEntity
  8
15
  6
Continuous
 62
    96
370
     9
100
AcDbMText
 10
1065.29924580969
 20
165.0353892927195
 30
0.0
 40
15.0
 41
177.353781440064
 46
15.0
 71
     5
 72
     1
  1
{\fＭＳ ゴシック;\W0.714286;\T1.080000;Ｃ－３８３０ＮＸＣ}
 73
     1
 44
1.0
  0
MTEXT
  5
3AF
330
1F
100
AcDbEntity
  8
15
  6
Continuous
 62
    96
370
     9
100
AcDbMText
 10
1020.651871672118
 20
90.03999016310699
 30
0.0
 40
10.5
 41
102.8412261120898
 46
10.5
 71
     5
 72
     1
  1
{\fＭＳ ゴシック;\W0.714286;G20035-01-22804}
 73
     1
 44
1.0
  0
MTEXT
  5
3B0
330
1F
100
AcDbEntity
  8
15
  6
Continuous
 62
    96
370
     9
100
AcDbMText
 10
1092.832417304326
 20
85.52147197735839
 30
0.0
 40
9.0
 41
88.17271798494866
 46
9.0
 71
     7
 72
     1
  1
{\fＭＳ ゴシック;\W0.714286;\T1.133333;2022年08月04日}
 73
     1
 44
1.0
  0
MTEXT
  5
3B1
330
1F
100
AcDbEntity
  8
15
  6
Continuous
 62
    96
370
     9
100
AcDbMText
 10
1087.8074444805
 20
111.2118306876646
 30
0.0
 40
15.0
 41
42.05067347690591
 46
15.0
 71
     5
 72
     1
  1
{\fHG正楷書体-PRO;\W0.714286;\T1.080000;齊藤}
 73
     1
 44
1.0
  0
MTEXT
  5
3B2
330
1F
100
AcDbEntity
  8
15
  6
Continuous
 62
    96
370
     9
100
AcDbMText
 10
1001.462421700116
 20
103.7118306876646
 30
0.0
 40
15.0
 41
40.35076588748207
 46
15.0
 71
     7
 72
     1
  1
{\fHG正楷書体-PRO;\W0.714286;\T1.080000;太田}
 73
     1
 44
1.0
  0
MTEXT
  5
3B3
330
1F
100
AcDbEntity
  8
15
  6
PHANTOM
 62
    96
370
     9
100
AcDbMText
 10
1102.811868142091
 20
807.9749431918475
 30
0.0
 40
9.0
 41
80.52016732034971
 46
9.0
 71
     5
 72
     1
  1
{\fＭＳ ゴシック;\W0.714286;\T1.133333;０３０３１１１}
 73
     1
 44
1.0
  0
MTEXT
  5
3B4
330
1F
100
AcDbEntity
  8
15
  6
Continuous
 62
    96
370
     9
100
AcDbMText
 10
1102.811868142091
 20
675.9360149698562
 30
0.0
 40
9.0
 41
51.30361885208474
 46
9.0
 71
     5
 72
     1
  1
{\fＭＳ ゴシック;\W0.714286;\T1.133333;40Ｗ max}
 73
     1
 44
1.0
  0
LINE
  5
3B5
330
1F
100
AcDbEntity
  8
15
  6
Continuous
 62
    96
370
    30
100
AcDbLine
 10
930.2609960338066
 20
667.6835819559817
 30
0.0
 11
1199.89459044089
 21
667.6835819559817
 31
0.0
  0
LINE
  5
3B6
330
1F
100
AcDbEntity
  8
15
  6
Continuous
 62
    96
370
     9
100
AcDbLine
 10
930.2609960338066
 20
651.1787159282329
 30
0.0
 11
1200.3414
 21
651.1787159282329
 31
0.0
  0
MTEXT
  5
3B7
330
1F
100
AcDbEntity
  8
15
  6
Continuous
 62
    96
370
     9
100
AcDbMText
 10
1065.650880411976
 20
659.4130648318725
 30
0.0
 40
9.0
 41
239.7460553028747
 46
9.0
 71
     5
 72
     1
  1
{\fＭＳ ゴシック;\W0.714286;\T1.133333;外部出力　：接点容量　DC24Ｖ　１Ａ以下}
 73
     1
 44
1.0
  0
MTEXT
  5
3B8
330
1F
100
AcDbEntity
  8
15
  6
Continuous
 62
    96
370
     9
100
AcDbMText
 10
967.3469116002625
 20
642.9262829143585
 30
0.0
 40
9.0
 41
47.67590941272737
 46
9.0
 71
     5
 72
     1
  1
{\fＭＳ ゴシック;\W0.714286;\T1.133333;接点出力}
 73
     1
 44
1.0
  0
LINE
  5
3B9
330
1F
100
AcDbEntity
  8
15
  6
Continuous
 62
    96
370
     9
100
AcDbLine
 10
1004.857970754237
 20
651.1787159282329
 30
0.0
 11
1004.857970754237
 21
634.6738499004839
 31
0.0
  0
LINE
  5
3BA
330
1F
100
AcDbEntity
  8
15
  6
Continuous
 62
    96
370
     9
100
AcDbLine
 10
1175.908400496362
 20
651.1787159282329
 30
0.0
 11
1175.908400496362
 21
634.6738499004839
 31
0.0
  0
MTEXT
  5
3BB
330
1F
100
AcDbEntity
  8
15
  6
Continuous
 62
    96
370
     9
100
AcDbMText
 10
1091.144227107492
 20
642.9262829143585
 30
0.0
 40
9.0
 41
151.4884608655971
 46
9.0
 71
     5
 72
     1
  1
{\fＭＳ ゴシック;\W0.714286;\T1.133333;照合OK時　設定時間出力ON}
 73
     1
 44
1.0
  0
MTEXT
  5
3BC
330
1F
100
AcDbEntity
  8
15
  6
Continuous
 62
    96
370
     9
100
AcDbMText
 10
1188.116656412482
 20
642.8431141109958
 30
0.0
 40
9.0
 41
20.72512814437188
 46
9.0
 71
     5
 72
     1
  1
{\fＭＳ ゴシック;\W0.714286;\T1.133333;８点}
 73
     1
 44
1.0
  0
LINE
  5
3BD
330
1F
100
AcDbEntity
  8
15
  6
Continuous
 62
    96
370
    30
100
AcDbLine
 10
930.2609960338066
 20
634.6738499004839
 30
0.0
 11
1200.3414
 21
634.6738499004839
 31
0.0
  0
ENDSEC
  0
SECTION
  2
OBJECTS
  0
DICTIONARY
  5
C
330
0
100
AcDbDictionary
281
     1
  3
ACAD_DETAILVIEWSTYLE
350
3C5
  3
ACAD_GROUP
350
D
  3
ACAD_LAYOUT
350
1A
  3
ACAD_MATERIAL
350
43
  3
ACAD_MLEADERSTYLE
350
6B
  3
ACAD_MLINESTYLE
350
17
  3
ACAD_PLOTSETTINGS
350
19
  3
ACAD_PLOTSTYLENAME
350
E
  3
ACAD_SCALELIST
350
47
  3
ACAD_SECTIONVIEWSTYLE
350
3C6
  3
ACAD_TABLESTYLE
350
69
  3
ACAD_VISUALSTYLE
350
2A
  3
ACDB_RECOMPOSE_DATA
350
3C2
  3
AcDbVariableDictionary
350
3BE
  0
SUN
  5
6D
330
29
100
AcDbSun
 90
        1
290
     0
 63
     7
421
 16777215
 40
1.0
291
     1
 91
  2455826
 92
 54000000
292
     0
 70
     2
 71
   256
280
     1
  0
DICTIONARY
  5
3C5
102
{ACAD_REACTORS
330
C
102
}
330
C
100
AcDbDictionary
281
     1
  0
DICTIONARY
  5
D
102
{ACAD_REACTORS
330
C
102
}
330
C
100
AcDbDictionary
281
     1
  0
DICTIONARY
  5
1A
102
{ACAD_REACTORS
330
C
102
}
330
C
100
AcDbDictionary
281
     1
  3
Layout1
350
1E
  3
Layout2
350
26
  3
Model
350
22
  0
DICTIONARY
  5
43
102
{ACAD_REACTORS
330
C
102
}
330
C
100
AcDbDictionary
281
     1
  3
ByBlock
350
45
  3
ByLayer
350
44
  3
Global
350
46
  0
DICTIONARY
  5
6B
102
{ACAD_REACTORS
330
C
102
}
330
C
100
AcDbDictionary
281
     1
  3
Standard
350
6C
  0
DICTIONARY
  5
17
102
{ACAD_REACTORS
330
C
102
}
330
C
100
AcDbDictionary
281
     1
  3
Standard
350
18
  0
DICTIONARY
  5
19
102
{ACAD_REACTORS
330
C
102
}
330
C
100
AcDbDictionary
281
     1
  0
ACDBDICTIONARYWDFLT
  5
E
102
{ACAD_REACTORS
330
C
102
}
330
C
100
AcDbDictionary
281
     1
  3
Normal
350
F
100
AcDbDictionaryWithDefault
340
F
  0
DICTIONARY
  5
47
102
{ACAD_REACTORS
330
C
102
}
330
C
100
AcDbDictionary
281
     1
  3
A0
350
48
  3
A1
350
49
  3
A2
350
4A
  3
A3
350
4B
  3
A4
350
4C
  3
A5
350
4D
  3
A6
350
4E
  3
A7
350
4F
  3
A8
350
50
  3
A9
350
51
  3
B0
350
52
  3
B1
350
53
  3
B2
350
54
  3
B3
350
55
  3
B4
350
56
  3
B5
350
57
  3
B6
350
58
  3
B7
350
59
  3
B8
350
5A
  3
B9
350
5B
  3
C0
350
5C
  3
C1
350
5D
  3
C2
350
5E
  3
C3
350
5F
  3
C4
350
60
  3
C5
350
61
  3
C6
350
62
  3
C7
350
63
  3
C8
350
64
  3
C9
350
65
  3
D0
350
66
  3
D1
350
67
  3
D2
350
68
  0
DICTIONARY
  5
3C6
102
{ACAD_REACTORS
330
C
102
}
330
C
100
AcDbDictionary
281
     1
  0
DICTIONARY
  5
69
102
{ACAD_REACTORS
330
C
102
}
330
C
100
AcDbDictionary
281
     1
  3
Standard
350
6A
  0
DICTIONARY
  5
2A
102
{ACAD_REACTORS
330
C
102
}
330
C
100
AcDbDictionary
281
     1
  3
2dWireframe
350
2F
  3
Basic
350
32
  3
Brighten
350
36
  3
ColorChange
350
3A
  3
Conceptual
350
34
  3
Dim
350
35
  3
EdgeColorOff
350
3D
  3
Facepattern
350
39
  3
Flat
350
2B
  3
FlatWithEdges
350
2C
  3
Gouraud
350
2D
  3
GouraudWithEdges
350
2E
  3
Hidden
350
31
  3
JitterOff
350
3B
  3
Linepattern
350
38
  3
OverhangOff
350
3C
  3
Realistic
350
33
  3
Shaded
350
42
  3
Shaded with edges
350
41
  3
Shades of Gray
350
3E
  3
Sketchy
350
3F
  3
Thicken
350
37
  3
Wireframe
350
30
  3
X-Ray
350
40
  0
XRECORD
  5
3C2
102
{ACAD_REACTORS
330
C
102
}
330
C
100
AcDbXrecord
280
     1
 90
        1
330
6A
  0
DICTIONARY
  5
3BE
102
{ACAD_REACTORS
330
C
102
}
330
C
100
AcDbDictionary
281
     1
  3
CANNOSCALE
350
3BF
  3
CMLEADERSTYLE
350
3C4
  3
CTABLESTYLE
350
3C3
  0
LAYOUT
  5
1E
102
{ACAD_REACTORS
330
1A
102
}
330
1A
100
AcDbPlotSettings
  1

  2
none_device
  4

  6

 40
0.0
 41
0.0
 42
0.0
 43
0.0
 44
0.0
 45
0.0
 46
0.0
 47
0.0
 48
0.0
 49
0.0
140
0.0
141
0.0
142
1.0
143
1.0
 70
   688
 72
     0
 73
     0
 74
     5
  7

 75
    16
 76
     0
 77
     2
 78
   300
147
1.0
148
0.0
149
0.0
100
AcDbLayout
  1
Layout1
 70
     1
 71
     1
 10
0.0
 20
0.0
 11
420.0
 21
297.0
 12
0.0
 22
0.0
 32
0.0
 14
0.0
 24
0.0
 34
0.0
 15
420.0
 25
297.0
 35
0.0
146
0.0
 13
0.0
 23
0.0
 33
0.0
 16
1.0
 26
0.0
 36
0.0
 17
0.0
 27
1.0
 37
0.0
 76
     0
330
1B
  0
LAYOUT
  5
26
102
{ACAD_REACTORS
330
1A
102
}
330
1A
100
AcDbPlotSettings
  1

  2
none_device
  4

  6

 40
0.0
 41
0.0
 42
0.0
 43
0.0
 44
0.0
 45
0.0
 46
0.0
 47
0.0
 48
0.0
 49
0.0
140
0.0
141
0.0
142
1.0
143
1.0
 70
   688
 72
     0
 73
     0
 74
     5
  7

 75
    16
 76
     0
 77
     2
 78
   300
147
1.0
148
0.0
149
0.0
100
AcDbLayout
  1
Layout2
 70
     1
 71
     2
 10
0.0
 20
0.0
 11
0.0
 21
0.0
 12
0.0
 22
0.0
 32
0.0
 14
0.0
 24
0.0
 34
0.0
 15
0.0
 25
0.0
 35
0.0
146
0.0
 13
0.0
 23
0.0
 33
0.0
 16
1.0
 26
0.0
 36
0.0
 17
0.0
 27
1.0
 37
0.0
 76
     0
330
23
  0
LAYOUT
  5
22
102
{ACAD_REACTORS
330
1A
102
}
330
1A
100
AcDbPlotSettings
  1

  2
none_device
  4
Letter_(8.50_x_11.00_Inches)
  6

 40
6.35
 41
6.35
 42
6.35000508
 43
6.35000508
 44
215.9
 45
279.4
 46
0.0
 47
0.0
 48
0.0
 49
0.0
140
0.0
141
0.0
142
1.0
143
1.0
 70
  1712
 72
     0
 73
     0
 74
     0
  7

 75
     0
 76
     0
 77
     2
 78
   300
147
1.0
148
0.0
149
0.0
100
AcDbLayout
  1
Model
 70
     1
 71
     0
 10
0.0
 20
0.0
 11
420.0
 21
297.0
 12
0.0
 22
0.0
 32
0.0
 14
0.0
 24
0.0
 34
0.0
 15
1200.776987544526
 25
816.2273762057218
 35
0.0
146
0.0
 13
0.0
 23
0.0
 33
0.0
 16
1.0
 26
0.0
 36
0.0
 17
0.0
 27
1.0
 37
0.0
 76
     0
330
1F
331
29
  0
MATERIAL
  5
45
102
{ACAD_REACTORS
330
43
102
}
330
43
100
AcDbMaterial
  1
ByBlock
 72
     1
 94
      127
  0
MATERIAL
  5
44
102
{ACAD_REACTORS
330
43
102
}
330
43
100
AcDbMaterial
  1
ByLayer
 72
     1
 94
      127
  0
MATERIAL
  5
46
102
{ACAD_REACTORS
330
43
102
}
330
43
100
AcDbMaterial
  1
Global
 72
     1
 94
      127
  0
MLEADERSTYLE
  5
6C
102
{ACAD_REACTORS
330
6B
102
}
330
6B
100
AcDbMLeaderStyle
179
     2
170
     2
171
     1
172
     0
 90
        2
 40
0.0
 41
0.0
173
     1
 91
-1056964608
340
14
 92
       -2
290
     1
 42
0.09
291
     1
 43
0.36
  3
Standard
341
0
 44
0.18
300

342
11
174
     1
178
     6
175
     1
176
     0
 93
-1056964608
 45
0.18
292
     0
297
     0
 46
0.18
343
0
 94
-1056964608
 47
1.0
 49
1.0
140
1.0
293
     1
141
0.0
294
     1
177
     0
142
1.0
295
     0
296
     0
143
0.125
271
     0
272
     9
273
     9
298
     0
  0
MLINESTYLE
  5
18
102
{ACAD_REACTORS
330
17
102
}
330
17
100
AcDbMlineStyle
  2
Standard
 70
     0
  3

 62
   256
 51
90.0
 52
90.0
 71
     2
 49
0.5
 62
   256
  6
BYLAYER
 49
-0.5
 62
   256
  6
BYLAYER
  0
ACDBPLACEHOLDER
  5
F
102
{ACAD_REACTORS
330
E
102
}
330
E
  0
SCALE
  5
48
102
{ACAD_REACTORS
330
47
102
}
330
47
100
AcDbScale
 70
     0
300
1:1
140
1.0
141
1.0
290
     1
  0
SCALE
  5
49
102
{ACAD_REACTORS
330
47
102
}
330
47
100
AcDbScale
 70
     0
300
1:2
140
1.0
141
2.0
290
     0
  0
SCALE
  5
4A
102
{ACAD_REACTORS
330
47
102
}
330
47
100
AcDbScale
 70
     0
300
1:4
140
1.0
141
4.0
290
     0
  0
SCALE
  5
4B
102
{ACAD_REACTORS
330
47
102
}
330
47
100
AcDbScale
 70
     0
300
1:5
140
1.0
141
5.0
290
     0
  0
SCALE
  5
4C
102
{ACAD_REACTORS
330
47
102
}
330
47
100
AcDbScale
 70
     0
300
1:8
140
1.0
141
8.0
290
     0
  0
SCALE
  5
4D
102
{ACAD_REACTORS
330
47
102
}
330
47
100
AcDbScale
 70
     0
300
1:10
140
1.0
141
10.0
290
     0
  0
SCALE
  5
4E
102
{ACAD_REACTORS
330
47
102
}
330
47
100
AcDbScale
 70
     0
300
1:16
140
1.0
141
16.0
290
     0
  0
SCALE
  5
4F
102
{ACAD_REACTORS
330
47
102
}
330
47
100
AcDbScale
 70
     0
300
1:20
140
1.0
141
20.0
290
     0
  0
SCALE
  5
50
102
{ACAD_REACTORS
330
47
102
}
330
47
100
AcDbScale
 70
     0
300
1:30
140
1.0
141
30.0
290
     0
  0
SCALE
  5
51
102
{ACAD_REACTORS
330
47
102
}
330
47
100
AcDbScale
 70
     0
300
1:40
140
1.0
141
40.0
290
     0
  0
SCALE
  5
52
102
{ACAD_REACTORS
330
47
102
}
330
47
100
AcDbScale
 70
     0
300
1:50
140
1.0
141
50.0
290
     0
  0
SCALE
  5
53
102
{ACAD_REACTORS
330
47
102
}
330
47
100
AcDbScale
 70
     0
300
1:100
140
1.0
141
100.0
290
     0
  0
SCALE
  5
54
102
{ACAD_REACTORS
330
47
102
}
330
47
100
AcDbScale
 70
     0
300
2:1
140
2.0
141
1.0
290
     0
  0
SCALE
  5
55
102
{ACAD_REACTORS
330
47
102
}
330
47
100
AcDbScale
 70
     0
300
4:1
140
4.0
141
1.0
290
     0
  0
SCALE
  5
56
102
{ACAD_REACTORS
330
47
102
}
330
47
100
AcDbScale
 70
     0
300
8:1
140
8.0
141
1.0
290
     0
  0
SCALE
  5
57
102
{ACAD_REACTORS
330
47
102
}
330
47
100
AcDbScale
 70
     0
300
10:1
140
10.0
141
1.0
290
     0
  0
SCALE
  5
58
102
{ACAD_REACTORS
330
47
102
}
330
47
100
AcDbScale
 70
     0
300
100:1
140
100.0
141
1.0
290
     0
  0
SCALE
  5
59
102
{ACAD_REACTORS
330
47
102
}
330
47
100
AcDbScale
 70
     0
300
1/128" = 1'-0"
140
0.0078125
141
12.0
290
     0
  0
SCALE
  5
5A
102
{ACAD_REACTORS
330
47
102
}
330
47
100
AcDbScale
 70
     0
300
1/64" = 1'-0"
140
0.015625
141
12.0
290
     0
  0
SCALE
  5
5B
102
{ACAD_REACTORS
330
47
102
}
330
47
100
AcDbScale
 70
     0
300
1/32" = 1'-0"
140
0.03125
141
12.0
290
     0
  0
SCALE
  5
5C
102
{ACAD_REACTORS
330
47
102
}
330
47
100
AcDbScale
 70
     0
300
1/16" = 1'-0"
140
0.0625
141
12.0
290
     0
  0
SCALE
  5
5D
102
{ACAD_REACTORS
330
47
102
}
330
47
100
AcDbScale
 70
     0
300
3/32" = 1'-0"
140
0.09375
141
12.0
290
     0
  0
SCALE
  5
5E
102
{ACAD_REACTORS
330
47
102
}
330
47
100
AcDbScale
 70
     0
300
1/8" = 1'-0"
140
0.125
141
12.0
290
     0
  0
SCALE
  5
5F
102
{ACAD_REACTORS
330
47
102
}
330
47
100
AcDbScale
 70
     0
300
3/16" = 1'-0"
140
0.1875
141
12.0
290
     0
  0
SCALE
  5
60
102
{ACAD_REACTORS
330
47
102
}
330
47
100
AcDbScale
 70
     0
300
1/4" = 1'-0"
140
0.25
141
12.0
290
     0
  0
SCALE
  5
61
102
{ACAD_REACTORS
330
47
102
}
330
47
100
AcDbScale
 70
     0
300
3/8" = 1'-0"
140
0.375
141
12.0
290
     0
  0
SCALE
  5
62
102
{ACAD_REACTORS
330
47
102
}
330
47
100
AcDbScale
 70
     0
300
1/2" = 1'-0"
140
0.5
141
12.0
290
     0
  0
SCALE
  5
63
102
{ACAD_REACTORS
330
47
102
}
330
47
100
AcDbScale
 70
     0
300
3/4" = 1'-0"
140
0.75
141
12.0
290
     0
  0
SCALE
  5
64
102
{ACAD_REACTORS
330
47
102
}
330
47
100
AcDbScale
 70
     0
300
1" = 1'-0"
140
1.0
141
12.0
290
     0
  0
SCALE
  5
65
102
{ACAD_REACTORS
330
47
102
}
330
47
100
AcDbScale
 70
     0
300
1-1/2" = 1'-0"
140
1.5
141
12.0
290
     0
  0
SCALE
  5
66
102
{ACAD_REACTORS
330
47
102
}
330
47
100
AcDbScale
 70
     0
300
3" = 1'-0"
140
3.0
141
12.0
290
     0
  0
SCALE
  5
67
102
{ACAD_REACTORS
330
47
102
}
330
47
100
AcDbScale
 70
     0
300
6" = 1'-0"
140
6.0
141
12.0
290
     0
  0
SCALE
  5
68
102
{ACAD_REACTORS
330
47
102
}
330
47
100
AcDbScale
 70
     0
300
1'-0" = 1'-0"
140
12.0
141
12.0
290
     0
  0
TABLESTYLE
  5
6A
102
{ACAD_REACTORS
330
69
102
}
102
{ACAD_XDICTIONARY
360
3C0
102
}
330
69
100
AcDbTableStyle
  3
Standard
 70
     0
 71
     0
 40
0.06
 41
0.06
280
     0
281
     0
  7
Standard
140
0.18
170
     2
 62
     0
 63
   257
283
     0
 90
        4
 91
        0
  1

274
    -2
284
     1
 64
     0
275
    -2
285
     1
 65
     0
276
    -2
286
     1
 66
     0
277
    -2
287
     1
 67
     0
278
    -2
288
     1
 68
     0
279
    -2
289
     1
 69
     0
  7
Standard
140
0.25
170
     5
 62
     0
 63
   257
283
     0
 90
        4
 91
        0
  1

274
    -2
284
     1
 64
     0
275
    -2
285
     1
 65
     0
276
    -2
286
     1
 66
     0
277
    -2
287
     1
 67
     0
278
    -2
288
     1
 68
     0
279
    -2
289
     1
 69
     0
  7
Standard
140
0.18
170
     5
 62
     0
 63
   257
283
     0
 90
        4
 91
        0
  1

274
    -2
284
     1
 64
     0
275
    -2
285
     1
 65
     0
276
    -2
286
     1
 66
     0
277
    -2
287
     1
 67
     0
278
    -2
288
     1
 68
     0
279
    -2
289
     1
 69
     0
  0
VISUALSTYLE
  5
2F
102
{ACAD_REACTORS
330
2A
102
}
330
2A
100
AcDbVisualStyle
  2
2dWireframe
 70
     4
177
     3
291
     0
 70
    58
 90
        0
176
     1
 90
        2
176
     1
 90
        0
176
     1
 90
        0
176
     1
 40
0.6
176
     1
 40
30.0
176
     1
 62
     7
420
 16777215
176
     1
 90
        1
176
     1
 90
        4
176
     1
 62
     7
176
     1
 62
   257
176
     1
 90
        1
176
     1
 90
        1
176
     1
 40
1.0
176
     1
 90
        0
176
     1
 62
   257
176
     1
 40
1.0
176
     1
 90
        1
176
     1
 90
        6
176
     1
 90
        2
176
     1
 62
     7
176
     1
 90
        5
176
     1
 90
        0
176
     1
 90
        0
176
     1
290
     0
176
     1
 90
        1
176
     1
 40
0.0
176
     1
 90
        0
176
     1
290
     1
176
     1
290
     1
176
     1
290
     0
176
     1
290
     0
176
     1
290
     0
176
     1
290
     0
176
     1
290
     0
176
     1
290
     0
176
     1
290
     0
176
     1
 90
       50
176
     1
 40
0.0
176
     1
 40
1.0
176
     1
 90
        0
176
     1
 62
    18
420
        0
176
     1
 90
       50
176
     1
 90
        3
176
     1
 62
     5
420
      255
176
     1
290
     0
176
     1
 90
       50
176
     1
 90
       50
176
     1
 90
       50
176
     1
290
     0
176
     1
 90
       50
176
     1
 62
   256
176
     0
 40
1.0
176
     0
 90
        2
176
     1
  1
strokes_ogs.tif
176
     1
290
     0
176
     1
 40
1.0
176
     1
 40
1.0
176
     1
  0
VISUALSTYLE
  5
32
102
{ACAD_REACTORS
330
2A
102
}
330
2A
100
AcDbVisualStyle
  2
Basic
 70
     7
177
     3
291
     1
 70
    58
 90
        1
176
     1
 90
        0
176
     1
 90
        1
176
     1
 90
        0
176
     1
 40
0.6
176
     1
 40
30.0
176
     1
 62
     7
420
 16777215
176
     1
 90
        0
176
     1
 90
        4
176
     1
 62
     7
176
     1
 62
   257
176
     1
 90
        1
176
     1
 90
        1
176
     1
 40
1.0
176
     1
 90
        8
176
     1
 62
     7
176
     1
 40
1.0
176
     1
 90
        1
176
     1
 90
        6
176
     1
 90
        2
176
     1
 62
     7
176
     1
 90
        5
176
     1
 90
        0
176
     1
 90
        0
176
     1
290
     0
176
     1
 90
        1
176
     1
 40
0.0
176
     1
 90
        0
176
     1
290
     0
176
     1
290
     1
176
     1
290
     1
176
     1
290
     0
176
     1
290
     0
176
     1
290
     0
176
     1
290
     0
176
     1
290
     0
176
     1
290
     0
176
     1
 90
       50
176
     1
 40
0.0
176
     1
 40
1.0
176
     1
 90
        0
176
     1
 62
    18
420
        0
176
     1
 90
       50
176
     1
 90
        3
176
     1
 62
     5
420
      255
176
     1
290
     0
176
     1
 90
       50
176
     1
 90
       50
176
     1
 90
       50
176
     1
290
     0
176
     1
 90
       50
176
     1
 62
   256
176
     0
 40
1.0
176
     0
 90
        2
176
     1
  1
strokes_ogs.tif
176
     1
290
     0
176
     1
 40
1.0
176
     1
 40
1.0
176
     1
  0
VISUALSTYLE
  5
36
102
{ACAD_REACTORS
330
2A
102
}
330
2A
100
AcDbVisualStyle
  2
Brighten
 70
    12
177
     3
291
     1
 70
    58
 90
        2
176
     1
 90
        2
176
     1
 90
        0
176
     1
 90
        0
176
     1
 40
0.6
176
     1
 40
30.0
176
     1
 62
     7
420
 16777215
176
     1
 90
        1
176
     1
 90
        4
176
     1
 62
     7
176
     1
 62
   257
176
     1
 90
        1
176
     1
 90
        1
176
     1
 40
1.0
176
     1
 90
        8
176
     1
 62
     7
176
     1
 40
1.0
176
     1
 90
        1
176
     1
 90
        6
176
     1
 90
        2
176
     1
 62
     7
176
     1
 90
        5
176
     1
 90
        0
176
     1
 90
        0
176
     1
290
     0
176
     1
 90
        1
176
     1
 40
50.0
176
     1
 90
        0
176
     1
290
     0
176
     1
290
     1
176
     1
290
     1
176
     1
290
     0
176
     1
290
     0
176
     1
290
     0
176
     1
290
     0
176
     1
290
     0
176
     1
290
     0
176
     1
 90
       50
176
     1
 40
0.0
176
     1
 40
1.0
176
     1
 90
        0
176
     1
 62
    18
420
        0
176
     1
 90
       50
176
     1
 90
        3
176
     1
 62
     5
420
      255
176
     1
290
     0
176
     1
 90
       50
176
     1
 90
       50
176
     1
 90
       50
176
     1
290
     0
176
     1
 90
       50
176
     1
 62
   256
176
     0
 40
1.0
176
     0
 90
        2
176
     1
  1
strokes_ogs.tif
176
     1
290
     0
176
     1
 40
1.0
176
     1
 40
1.0
176
     1
  0
VISUALSTYLE
  5
3A
102
{ACAD_REACTORS
330
2A
102
}
330
2A
100
AcDbVisualStyle
  2
ColorChange
 70
    16
177
     3
291
     1
 70
    58
 90
        2
176
     1
 90
        2
176
     1
 90
        3
176
     1
 90
        0
176
     1
 40
0.6
176
     1
 40
30.0
176
     1
 62
     8
420
  8421504
176
     1
 90
        1
176
     1
 90
        4
176
     1
 62
     7
176
     1
 62
   257
176
     1
 90
        1
176
     1
 90
        1
176
     1
 40
1.0
176
     1
 90
        8
176
     1
 62
     8
420
  8421504
176
     1
 40
1.0
176
     1
 90
        1
176
     1
 90
        6
176
     1
 90
        2
176
     1
 62
     7
176
     1
 90
        5
176
     1
 90
        0
176
     1
 90
        0
176
     1
290
     0
176
     1
 90
        1
176
     1
 40
0.0
176
     1
 90
        0
176
     1
290
     0
176
     1
290
     1
176
     1
290
     1
176
     1
290
     0
176
     1
290
     0
176
     1
290
     0
176
     1
290
     0
176
     1
290
     0
176
     1
290
     0
176
     1
 90
       50
176
     1
 40
0.0
176
     1
 40
1.0
176
     1
 90
        0
176
     1
 62
    18
420
        0
176
     1
 90
       50
176
     1
 90
        3
176
     1
 62
     5
420
      255
176
     1
290
     0
176
     1
 90
       50
176
     1
 90
       50
176
     1
 90
       50
176
     1
290
     0
176
     1
 90
       50
176
     1
 62
   256
176
     0
 40
1.0
176
     0
 90
        2
176
     1
  1
strokes_ogs.tif
176
     1
290
     0
176
     1
 40
1.0
176
     1
 40
1.0
176
     1
  0
VISUALSTYLE
  5
34
102
{ACAD_REACTORS
330
2A
102
}
330
2A
100
AcDbVisualStyle
  2
Conceptual
 70
     9
177
     3
291
     0
 70
    58
 90
        3
176
     1
 90
        2
176
     1
 90
        0
176
     1
 90
        0
176
     1
 40
0.6
176
     1
 40
30.0
176
     1
 62
     7
420
 16777215
176
     1
 90
        2
176
     1
 90
        2
176
     1
 62
     7
176
     1
 62
   257
176
     1
 90
        1
176
     1
 90
        1
176
     1
 40
179.0
176
     1
 90
        8
176
     1
 62
     7
176
     1
 40
1.0
176
     1
 90
        1
176
     1
 90
        6
176
     1
 90
        2
176
     1
 62
     7
176
     1
 90
        3
176
     1
 90
        0
176
     1
 90
        0
176
     1
290
     0
176
     1
 90
        1
176
     1
 40
0.0
176
     1
 90
        0
176
     1
290
     0
176
     1
290
     1
176
     1
290
     1
176
     1
290
     0
176
     1
290
     0
176
     1
290
     0
176
     1
290
     0
176
     1
290
     0
176
     1
290
     0
176
     1
 90
       50
176
     1
 40
0.0
176
     1
 40
1.0
176
     1
 90
        0
176
     1
 62
    18
420
        0
176
     1
 90
       50
176
     1
 90
        3
176
     1
 62
     5
420
      255
176
     1
290
     0
176
     1
 90
       50
176
     1
 90
       50
176
     1
 90
       50
176
     1
290
     0
176
     1
 90
       50
176
     1
 62
   256
176
     0
 40
1.0
176
     0
 90
        2
176
     1
  1
strokes_ogs.tif
176
     1
290
     0
176
     1
 40
1.0
176
     1
 40
1.0
176
     1
  0
VISUALSTYLE
  5
35
102
{ACAD_REACTORS
330
2A
102
}
330
2A
100
AcDbVisualStyle
  2
Dim
 70
    11
177
     3
291
     1
 70
    58
 90
        2
176
     1
 90
        2
176
     1
 90
        0
176
     1
 90
        0
176
     1
 40
0.6
176
     1
 40
30.0
176
     1
 62
     7
420
 16777215
176
     1
 90
        1
176
     1
 90
        4
176
     1
 62
     7
176
     1
 62
   257
176
     1
 90
        1
176
     1
 90
        1
176
     1
 40
1.0
176
     1
 90
        8
176
     1
 62
     7
176
     1
 40
1.0
176
     1
 90
        1
176
     1
 90
        6
176
     1
 90
        2
176
     1
 62
     7
176
     1
 90
        5
176
     1
 90
        0
176
     1
 90
        0
176
     1
290
     0
176
     1
 90
        1
176
     1
 40
-50.0
176
     1
 90
        0
176
     1
290
     0
176
     1
290
     1
176
     1
290
     1
176
     1
290
     0
176
     1
290
     0
176
     1
290
     0
176
     1
290
     0
176
     1
290
     0
176
     1
290
     0
176
     1
 90
       50
176
     1
 40
0.0
176
     1
 40
1.0
176
     1
 90
        0
176
     1
 62
    18
420
        0
176
     1
 90
       50
176
     1
 90
        3
176
     1
 62
     5
420
      255
176
     1
290
     0
176
     1
 90
       50
176
     1
 90
       50
176
     1
 90
       50
176
     1
290
     0
176
     1
 90
       50
176
     1
 62
   256
176
     0
 40
1.0
176
     0
 90
        2
176
     1
  1
strokes_ogs.tif
176
     1
290
     0
176
     1
 40
1.0
176
     1
 40
1.0
176
     1
  0
VISUALSTYLE
  5
3D
102
{ACAD_REACTORS
330
2A
102
}
330
2A
100
AcDbVisualStyle
  2
EdgeColorOff
 70
    22
177
     3
291
     1
 70
    58
 90
        2
176
     0
 90
        2
176
     0
 90
        0
176
     0
 90
        0
176
     0
 40
0.6
176
     0
 40
30.0
176
     0
 62
     7
420
 16777215
176
     0
 90
        1
176
     0
 90
        4
176
     0
 62
     7
176
     0
 62
   257
176
     0
 90
        1
176
     0
 90
        1
176
     0
 40
1.0
176
     0
 90
        8
176
     2
 62
     7
176
     0
 40
1.0
176
     0
 90
        1
176
     0
 90
        6
176
     0
 90
        2
176
     0
 62
     7
176
     0
 90
        5
176
     0
 90
        0
176
     0
 90
        0
176
     0
290
     0
176
     0
 90
        1
176
     0
 40
0.0
176
     0
 90
        0
176
     0
290
     0
176
     0
290
     1
176
     0
290
     1
176
     0
290
     0
176
     0
290
     0
176
     0
290
     0
176
     0
290
     0
176
     0
290
     0
176
     0
290
     0
176
     0
 90
       50
176
     0
 40
0.0
176
     0
 40
1.0
176
     0
 90
        0
176
     0
 62
    18
420
        0
176
     0
 90
       50
176
     0
 90
        3
176
     0
 62
     5
420
      255
176
     0
290
     0
176
     0
 90
       50
176
     0
 90
       50
176
     0
 90
       50
176
     0
290
     0
176
     0
 90
       50
176
     0
 62
   256
176
     0
 40
1.0
176
     0
 90
        2
176
     0
  1
strokes_ogs.tif
176
     0
290
     0
176
     0
 40
1.0
176
     0
 40
1.0
176
     0
  0
VISUALSTYLE
  5
39
102
{ACAD_REACTORS
330
2A
102
}
330
2A
100
AcDbVisualStyle
  2
Facepattern
 70
    15
177
     3
291
     1
 70
    58
 90
        2
176
     1
 90
        2
176
     1
 90
        0
176
     1
 90
        0
176
     1
 40
0.6
176
     1
 40
30.0
176
     1
 62
     7
420
 16777215
176
     1
 90
        1
176
     1
 90
        4
176
     1
 62
     7
176
     1
 62
   257
176
     1
 90
        1
176
     1
 90
        1
176
     1
 40
1.0
176
     1
 90
        8
176
     1
 62
     7
176
     1
 40
1.0
176
     1
 90
        1
176
     1
 90
        6
176
     1
 90
        2
176
     1
 62
     7
176
     1
 90
        5
176
     1
 90
        0
176
     1
 90
        0
176
     1
290
     0
176
     1
 90
        1
176
     1
 40
0.0
176
     1
 90
        0
176
     1
290
     0
176
     1
290
     1
176
     1
290
     1
176
     1
290
     0
176
     1
290
     0
176
     1
290
     0
176
     1
290
     0
176
     1
290
     0
176
     1
290
     0
176
     1
 90
       50
176
     1
 40
0.0
176
     1
 40
1.0
176
     1
 90
        0
176
     1
 62
    18
420
        0
176
     1
 90
       50
176
     1
 90
        3
176
     1
 62
     5
420
      255
176
     1
290
     0
176
     1
 90
       50
176
     1
 90
       50
176
     1
 90
       50
176
     1
290
     0
176
     1
 90
       50
176
     1
 62
   256
176
     0
 40
1.0
176
     0
 90
        2
176
     1
  1
strokes_ogs.tif
176
     1
290
     0
176
     1
 40
1.0
176
     1
 40
1.0
176
     1
  0
VISUALSTYLE
  5
2B
102
{ACAD_REACTORS
330
2A
102
}
330
2A
100
AcDbVisualStyle
  2
Flat
 70
     0
177
     3
291
     1
 70
    58
 90
        2
176
     1
 90
        1
176
     1
 90
        1
176
     1
 90
        2
176
     1
 40
0.6
176
     1
 40
30.0
176
     1
 62
     7
420
 16777215
176
     1
 90
        0
176
     1
 90
        0
176
     1
 62
     7
176
     1
 62
   257
176
     1
 90
        1
176
     1
 90
        1
176
     1
 40
1.0
176
     1
 90
        8
176
     1
 62
     7
176
     1
 40
1.0
176
     1
 90
        1
176
     1
 90
        6
176
     1
 90
        2
176
     1
 62
     7
176
     1
 90
        5
176
     1
 90
        0
176
     1
 90
        0
176
     1
290
     0
176
     1
 90
       13
176
     1
 40
0.0
176
     1
 90
        0
176
     1
290
     0
176
     1
290
     1
176
     1
290
     1
176
     1
290
     0
176
     1
290
     0
176
     1
290
     0
176
     1
290
     0
176
     1
290
     0
176
     1
290
     0
176
     1
 90
       50
176
     1
 40
0.0
176
     1
 40
1.0
176
     1
 90
        0
176
     1
 62
    18
420
        0
176
     1
 90
       50
176
     1
 90
        3
176
     1
 62
     5
420
      255
176
     1
290
     0
176
     1
 90
       50
176
     1
 90
       50
176
     1
 90
       50
176
     1
290
     0
176
     1
 90
       50
176
     1
 62
   256
176
     0
 40
1.0
176
     0
 90
        2
176
     1
  1
strokes_ogs.tif
176
     1
290
     0
176
     1
 40
1.0
176
     1
 40
1.0
176
     1
  0
VISUALSTYLE
  5
2C
102
{ACAD_REACTORS
330
2A
102
}
330
2A
100
AcDbVisualStyle
  2
FlatWithEdges
 70
     1
177
     3
291
     1
 70
    58
 90
        2
176
     1
 90
        1
176
     1
 90
        1
176
     1
 90
        2
176
     1
 40
0.6
176
     1
 40
30.0
176
     1
 62
     7
420
 16777215
176
     1
 90
        1
176
     1
 90
        0
176
     1
 62
     7
176
     1
 62
   257
176
     1
 90
        1
176
     1
 90
        1
176
     1
 40
1.0
176
     1
 90
        0
176
     1
 62
   257
176
     1
 40
1.0
176
     1
 90
        1
176
     1
 90
        6
176
     1
 90
        2
176
     1
 62
     7
176
     1
 90
        5
176
     1
 90
        0
176
     1
 90
        0
176
     1
290
     0
176
     1
 90
       13
176
     1
 40
0.0
176
     1
 90
        0
176
     1
290
     0
176
     1
290
     1
176
     1
290
     1
176
     1
290
     0
176
     1
290
     0
176
     1
290
     0
176
     1
290
     0
176
     1
290
     0
176
     1
290
     0
176
     1
 90
       50
176
     1
 40
0.0
176
     1
 40
1.0
176
     1
 90
        0
176
     1
 62
    18
420
        0
176
     1
 90
       50
176
     1
 90
        3
176
     1
 62
     5
420
      255
176
     1
290
     0
176
     1
 90
       50
176
     1
 90
       50
176
     1
 90
       50
176
     1
290
     0
176
     1
 90
       50
176
     1
 62
   256
176
     0
 40
1.0
176
     0
 90
        2
176
     1
  1
strokes_ogs.tif
176
     1
290
     0
176
     1
 40
1.0
176
     1
 40
1.0
176
     1
  0
VISUALSTYLE
  5
2D
102
{ACAD_REACTORS
330
2A
102
}
330
2A
100
AcDbVisualStyle
  2
Gouraud
 70
     2
177
     3
291
     1
 70
    58
 90
        2
176
     1
 90
        2
176
     1
 90
        1
176
     1
 90
        2
176
     1
 40
0.6
176
     1
 40
30.0
176
     1
 62
     7
420
 16777215
176
     1
 90
        0
176
     1
 90
        0
176
     1
 62
     7
176
     1
 62
   257
176
     1
 90
        1
176
     1
 90
        1
176
     1
 40
1.0
176
     1
 90
        0
176
     1
 62
     7
176
     1
 40
1.0
176
     1
 90
        1
176
     1
 90
        6
176
     1
 90
        2
176
     1
 62
     7
176
     1
 90
        5
176
     1
 90
        0
176
     1
 90
        0
176
     1
290
     0
176
     1
 90
       13
176
     1
 40
0.0
176
     1
 90
        0
176
     1
290
     0
176
     1
290
     1
176
     1
290
     1
176
     1
290
     0
176
     1
290
     0
176
     1
290
     0
176
     1
290
     0
176
     1
290
     0
176
     1
290
     0
176
     1
 90
       50
176
     1
 40
0.0
176
     1
 40
1.0
176
     1
 90
        0
176
     1
 62
    18
420
        0
176
     1
 90
       50
176
     1
 90
        3
176
     1
 62
     5
420
      255
176
     1
290
     0
176
     1
 90
       50
176
     1
 90
       50
176
     1
 90
       50
176
     1
290
     0
176
     1
 90
       50
176
     1
 62
   256
176
     0
 40
1.0
176
     0
 90
        2
176
     1
  1
strokes_ogs.tif
176
     1
290
     0
176
     1
 40
1.0
176
     1
 40
1.0
176
     1
  0
VISUALSTYLE
  5
2E
102
{ACAD_REACTORS
330
2A
102
}
330
2A
100
AcDbVisualStyle
  2
GouraudWithEdges
 70
     3
177
     3
291
     1
 70
    58
 90
        2
176
     1
 90
        2
176
     1
 90
        1
176
     1
 90
        2
176
     1
 40
0.6
176
     1
 40
30.0
176
     1
 62
     7
420
 16777215
176
     1
 90
        1
176
     1
 90
        0
176
     1
 62
     7
176
     1
 62
   257
176
     1
 90
        1
176
     1
 90
        1
176
     1
 40
1.0
176
     1
 90
        0
176
     1
 62
   257
176
     1
 40
1.0
176
     1
 90
        1
176
     1
 90
        6
176
     1
 90
        2
176
     1
 62
     7
176
     1
 90
        5
176
     1
 90
        0
176
     1
 90
        0
176
     1
290
     0
176
     1
 90
       13
176
     1
 40
0.0
176
     1
 90
        0
176
     1
290
     0
176
     1
290
     1
176
     1
290
     1
176
     1
290
     0
176
     1
290
     0
176
     1
290
     0
176
     1
290
     0
176
     1
290
     0
176
     1
290
     0
176
     1
 90
       50
176
     1
 40
0.0
176
     1
 40
1.0
176
     1
 90
        0
176
     1
 62
    18
420
        0
176
     1
 90
       50
176
     1
 90
        3
176
     1
 62
     5
420
      255
176
     1
290
     0
176
     1
 90
       50
176
     1
 90
       50
176
     1
 90
       50
176
     1
290
     0
176
     1
 90
       50
176
     1
 62
   256
176
     0
 40
1.0
176
     0
 90
        2
176
     1
  1
strokes_ogs.tif
176
     1
290
     0
176
     1
 40
1.0
176
     1
 40
1.0
176
     1
  0
VISUALSTYLE
  5
31
102
{ACAD_REACTORS
330
2A
102
}
330
2A
100
AcDbVisualStyle
  2
Hidden
 70
     6
177
     3
291
     0
 70
    58
 90
        1
176
     1
 90
        2
176
     1
 90
        2
176
     1
 90
        0
176
     1
 40
0.6
176
     1
 40
30.0
176
     1
 62
     7
420
 16777215
176
     1
 90
        2
176
     1
 90
        2
176
     1
 62
     7
176
     1
 62
   257
176
     1
 90
        2
176
     1
 90
        1
176
     1
 40
40.0
176
     1
 90
        0
176
     1
 62
   257
176
     1
 40
1.0
176
     1
 90
        1
176
     1
 90
        6
176
     1
 90
        2
176
     1
 62
     7
176
     1
 90
        3
176
     1
 90
        0
176
     1
 90
        0
176
     1
290
     0
176
     1
 90
        1
176
     1
 40
0.0
176
     1
 90
        0
176
     1
290
     0
176
     1
290
     1
176
     1
290
     1
176
     1
290
     0
176
     1
290
     0
176
     1
290
     0
176
     1
290
     0
176
     1
290
     0
176
     1
290
     0
176
     1
 90
       50
176
     1
 40
0.0
176
     1
 40
1.0
176
     1
 90
        0
176
     1
 62
    18
420
        0
176
     1
 90
       50
176
     1
 90
        3
176
     1
 62
     5
420
      255
176
     1
290
     0
176
     1
 90
       50
176
     1
 90
       50
176
     1
 90
       50
176
     1
290
     0
176
     1
 90
       50
176
     1
 62
   256
176
     0
 40
1.0
176
     0
 90
        2
176
     1
  1
strokes_ogs.tif
176
     1
290
     0
176
     1
 40
1.0
176
     1
 40
1.0
176
     1
  0
VISUALSTYLE
  5
3B
102
{ACAD_REACTORS
330
2A
102
}
330
2A
100
AcDbVisualStyle
  2
JitterOff
 70
    20
177
     3
291
     1
 70
    58
 90
        2
176
     0
 90
        2
176
     0
 90
        0
176
     0
 90
        0
176
     0
 40
0.6
176
     0
 40
30.0
176
     0
 62
     7
420
 16777215
176
     0
 90
        1
176
     0
 90
        4
176
     0
 62
     7
176
     0
 62
   257
176
     0
 90
        1
176
     0
 90
        1
176
     0
 40
1.0
176
     0
 90
       10
176
     2
 62
     7
176
     0
 40
1.0
176
     0
 90
        1
176
     0
 90
        6
176
     0
 90
        2
176
     0
 62
     7
176
     0
 90
        5
176
     0
 90
        0
176
     0
 90
        0
176
     0
290
     0
176
     0
 90
        1
176
     0
 40
0.0
176
     0
 90
        0
176
     0
290
     0
176
     0
290
     1
176
     0
290
     1
176
     0
290
     0
176
     0
290
     0
176
     0
290
     0
176
     0
290
     0
176
     0
290
     0
176
     0
290
     0
176
     0
 90
       50
176
     0
 40
0.0
176
     0
 40
1.0
176
     0
 90
        0
176
     0
 62
    18
420
        0
176
     0
 90
       50
176
     0
 90
        3
176
     0
 62
     5
420
      255
176
     0
290
     0
176
     0
 90
       50
176
     0
 90
       50
176
     0
 90
       50
176
     0
290
     0
176
     0
 90
       50
176
     0
 62
   256
176
     0
 40
1.0
176
     0
 90
        2
176
     0
  1
strokes_ogs.tif
176
     0
290
     0
176
     0
 40
1.0
176
     0
 40
1.0
176
     0
  0
VISUALSTYLE
  5
38
102
{ACAD_REACTORS
330
2A
102
}
330
2A
100
AcDbVisualStyle
  2
Linepattern
 70
    14
177
     3
291
     1
 70
    58
 90
        2
176
     1
 90
        2
176
     1
 90
        0
176
     1
 90
        0
176
     1
 40
0.6
176
     1
 40
30.0
176
     1
 62
     7
420
 16777215
176
     1
 90
        1
176
     1
 90
        4
176
     1
 62
     7
176
     1
 62
   257
176
     1
 90
        7
176
     1
 90
        7
176
     1
 40
1.0
176
     1
 90
        8
176
     1
 62
     7
176
     1
 40
1.0
176
     1
 90
        1
176
     1
 90
        6
176
     1
 90
        2
176
     1
 62
     7
176
     1
 90
        5
176
     1
 90
        0
176
     1
 90
        0
176
     1
290
     0
176
     1
 90
        1
176
     1
 40
0.0
176
     1
 90
        0
176
     1
290
     0
176
     1
290
     1
176
     1
290
     1
176
     1
290
     0
176
     1
290
     0
176
     1
290
     0
176
     1
290
     0
176
     1
290
     0
176
     1
290
     0
176
     1
 90
       50
176
     1
 40
0.0
176
     1
 40
1.0
176
     1
 90
        0
176
     1
 62
    18
420
        0
176
     1
 90
       50
176
     1
 90
        3
176
     1
 62
     5
420
      255
176
     1
290
     0
176
     1
 90
       50
176
     1
 90
       50
176
     1
 90
       50
176
     1
290
     0
176
     1
 90
       50
176
     1
 62
   256
176
     0
 40
1.0
176
     0
 90
        2
176
     1
  1
strokes_ogs.tif
176
     1
290
     0
176
     1
 40
1.0
176
     1
 40
1.0
176
     1
  0
VISUALSTYLE
  5
3C
102
{ACAD_REACTORS
330
2A
102
}
330
2A
100
AcDbVisualStyle
  2
OverhangOff
 70
    21
177
     3
291
     1
 70
    58
 90
        2
176
     0
 90
        2
176
     0
 90
        0
176
     0
 90
        0
176
     0
 40
0.6
176
     0
 40
30.0
176
     0
 62
     7
420
 16777215
176
     0
 90
        1
176
     0
 90
        4
176
     0
 62
     7
176
     0
 62
   257
176
     0
 90
        1
176
     0
 90
        1
176
     0
 40
1.0
176
     0
 90
        9
176
     2
 62
     7
176
     0
 40
1.0
176
     0
 90
        1
176
     0
 90
        6
176
     0
 90
        2
176
     0
 62
     7
176
     0
 90
        5
176
     0
 90
        0
176
     0
 90
        0
176
     0
290
     0
176
     0
 90
        1
176
     0
 40
0.0
176
     0
 90
        0
176
     0
290
     0
176
     0
290
     1
176
     0
290
     1
176
     0
290
     0
176
     0
290
     0
176
     0
290
     0
176
     0
290
     0
176
     0
290
     0
176
     0
290
     0
176
     0
 90
       50
176
     0
 40
0.0
176
     0
 40
1.0
176
     0
 90
        0
176
     0
 62
    18
420
        0
176
     0
 90
       50
176
     0
 90
        3
176
     0
 62
     5
420
      255
176
     0
290
     0
176
     0
 90
       50
176
     0
 90
       50
176
     0
 90
       50
176
     0
290
     0
176
     0
 90
       50
176
     0
 62
   256
176
     0
 40
1.0
176
     0
 90
        2
176
     0
  1
strokes_ogs.tif
176
     0
290
     0
176
     0
 40
1.0
176
     0
 40
1.0
176
     0
  0
VISUALSTYLE
  5
33
102
{ACAD_REACTORS
330
2A
102
}
330
2A
100
AcDbVisualStyle
  2
Realistic
 70
     8
177
     3
291
     0
 70
    58
 90
        2
176
     1
 90
        3
176
     1
 90
        0
176
     1
 90
        2
176
     1
 40
0.6
176
     1
 40
30.0
176
     1
 62
     7
420
 16777215
176
     1
 90
        0
176
     1
 90
        0
176
     1
 62
     7
176
     1
 62
   257
176
     1
 90
        1
176
     1
 90
        1
176
     1
 40
1.0
176
     1
 90
        8
176
     1
 62
   257
176
     1
 40
1.0
176
     1
 90
        1
176
     1
 90
        6
176
     1
 90
        2
176
     1
 62
     7
176
     1
 90
        3
176
     1
 90
        0
176
     1
 90
        0
176
     1
290
     0
176
     1
 90
       13
176
     1
 40
0.0
176
     1
 90
        0
176
     1
290
     0
176
     1
290
     1
176
     1
290
     1
176
     1
290
     0
176
     1
290
     0
176
     1
290
     0
176
     1
290
     0
176
     1
290
     0
176
     1
290
     0
176
     1
 90
       50
176
     1
 40
0.0
176
     1
 40
1.0
176
     1
 90
        0
176
     1
 62
    18
420
        0
176
     1
 90
       50
176
     1
 90
        3
176
     1
 62
     5
420
      255
176
     1
290
     0
176
     1
 90
       50
176
     1
 90
       50
176
     1
 90
       50
176
     1
290
     0
176
     1
 90
       50
176
     1
 62
   256
176
     0
 40
1.0
176
     0
 90
        2
176
     1
  1
strokes_ogs.tif
176
     1
290
     0
176
     1
 40
1.0
176
     1
 40
1.0
176
     1
  0
VISUALSTYLE
  5
42
102
{ACAD_REACTORS
330
2A
102
}
330
2A
100
AcDbVisualStyle
  2
Shaded
 70
    27
177
     3
291
     0
 70
    58
 90
        2
176
     1
 90
        2
176
     1
 90
        1
176
     1
 90
        2
176
     1
 40
0.6
176
     1
 40
30.0
176
     1
 62
     7
420
 16777215
176
     1
 90
        0
176
     1
 90
        4
176
     1
 62
     7
176
     1
 62
   257
176
     1
 90
        1
176
     1
 90
        1
176
     1
 40
1.0
176
     1
 90
        8
176
     1
 62
   257
176
     1
 40
1.0
176
     1
 90
        1
176
     1
 90
        6
176
     1
 90
        2
176
     1
 62
     8
420
  7895160
176
     1
 90
        3
176
     1
 90
        0
176
     1
 90
        0
176
     1
290
     0
176
     1
 90
        5
176
     1
 40
0.0
176
     1
 90
        0
176
     1
290
     0
176
     1
290
     1
176
     1
290
     1
176
     1
290
     0
176
     1
290
     0
176
     1
290
     0
176
     1
290
     0
176
     1
290
     0
176
     1
290
     0
176
     1
 90
       50
176
     1
 40
0.0
176
     1
 40
1.0
176
     1
 90
        0
176
     1
 62
    18
420
        0
176
     1
 90
       50
176
     1
 90
        3
176
     1
 62
     5
420
      255
176
     1
290
     0
176
     1
 90
       50
176
     1
 90
       50
176
     1
 90
       50
176
     1
290
     0
176
     1
 90
       50
176
     1
 62
   256
176
     0
 40
1.0
176
     0
 90
        2
176
     1
  1
strokes_ogs.tif
176
     1
290
     0
176
     1
 40
1.0
176
     1
 40
1.0
176
     1
  0
VISUALSTYLE
  5
41
102
{ACAD_REACTORS
330
2A
102
}
330
2A
100
AcDbVisualStyle
  2
Shaded with edges
 70
    26
177
     3
291
     0
 70
    58
 90
        2
176
     1
 90
        2
176
     1
 90
        1
176
     1
 90
        2
176
     1
 40
0.6
176
     1
 40
30.0
176
     1
 62
     7
420
 16777215
176
     1
 90
        1
176
     1
 90
       10
176
     1
 62
     7
176
     1
 62
   257
176
     1
 90
        2
176
     1
 90
        1
176
     1
 40
1.0
176
     1
 90
        8
176
     1
 62
   257
176
     1
 40
1.0
176
     1
 90
        1
176
     1
 90
        6
176
     1
 90
        2
176
     1
 62
     7
176
     1
 90
        3
176
     1
 90
        0
176
     1
 90
        0
176
     1
290
     0
176
     1
 90
        5
176
     1
 40
0.0
176
     1
 90
        0
176
     1
290
     0
176
     1
290
     1
176
     1
290
     1
176
     1
290
     0
176
     1
290
     0
176
     1
290
     0
176
     1
290
     0
176
     1
290
     0
176
     1
290
     0
176
     1
 90
       50
176
     1
 40
0.0
176
     1
 40
1.0
176
     1
 90
        0
176
     1
 62
    18
420
        0
176
     1
 90
       50
176
     1
 90
        3
176
     1
 62
     5
420
      255
176
     1
290
     0
176
     1
 90
       50
176
     1
 90
       50
176
     1
 90
       50
176
     1
290
     0
176
     1
 90
       50
176
     1
 62
   256
176
     0
 40
1.0
176
     0
 90
        2
176
     1
  1
strokes_ogs.tif
176
     1
290
     0
176
     1
 40
1.0
176
     1
 40
1.0
176
     1
  0
VISUALSTYLE
  5
3E
102
{ACAD_REACTORS
330
2A
102
}
330
2A
100
AcDbVisualStyle
  2
Shades of Gray
 70
    23
177
     3
291
     0
 70
    58
 90
        2
176
     1
 90
        2
176
     1
 90
        3
176
     1
 90
        0
176
     1
 40
0.6
176
     1
 40
30.0
176
     1
 62
     7
420
 16777215
176
     1
 90
        2
176
     1
 90
        2
176
     1
 62
     7
176
     1
 62
     7
176
     1
 90
        1
176
     1
 90
        1
176
     1
 40
40.0
176
     1
 90
        8
176
     1
 62
     7
176
     1
 40
1.0
176
     1
 90
        1
176
     1
 90
        6
176
     1
 90
        2
176
     1
 62
     7
176
     1
 90
        3
176
     1
 90
        0
176
     1
 90
        0
176
     1
290
     0
176
     1
 90
        1
176
     1
 40
0.0
176
     1
 90
        0
176
     1
290
     0
176
     1
290
     1
176
     1
290
     1
176
     1
290
     0
176
     1
290
     0
176
     1
290
     0
176
     1
290
     0
176
     1
290
     0
176
     1
290
     0
176
     1
 90
       50
176
     1
 40
0.0
176
     1
 40
1.0
176
     1
 90
        0
176
     1
 62
    18
420
        0
176
     1
 90
       50
176
     1
 90
        3
176
     1
 62
     5
420
      255
176
     1
290
     0
176
     1
 90
       50
176
     1
 90
       50
176
     1
 90
       50
176
     1
290
     0
176
     1
 90
       50
176
     1
 62
   256
176
     0
 40
1.0
176
     0
 90
        2
176
     1
  1
strokes_ogs.tif
176
     1
290
     0
176
     1
 40
1.0
176
     1
 40
1.0
176
     1
  0
VISUALSTYLE
  5
3F
102
{ACAD_REACTORS
330
2A
102
}
330
2A
100
AcDbVisualStyle
  2
Sketchy
 70
    24
177
     3
291
     0
 70
    58
 90
        1
176
     1
 90
        2
176
     1
 90
        2
176
     1
 90
        0
176
     1
 40
0.6
176
     1
 40
30.0
176
     1
 62
     7
420
 16777215
176
     1
 90
        2
176
     1
 90
        2
176
     1
 62
     7
176
     1
 62
     7
176
     1
 90
        1
176
     1
 90
        1
176
     1
 40
40.0
176
     1
 90
       11
176
     1
 62
     7
176
     1
 40
1.0
176
     1
 90
        1
176
     1
 90
        6
176
     1
 90
        2
176
     1
 62
     7
176
     1
 90
        6
176
     1
 90
        0
176
     1
 90
        0
176
     1
290
     0
176
     1
 90
        1
176
     1
 40
0.0
176
     1
 90
        0
176
     1
290
     0
176
     1
290
     1
176
     1
290
     1
176
     1
290
     0
176
     1
290
     0
176
     1
290
     0
176
     1
290
     0
176
     1
290
     0
176
     1
290
     0
176
     1
 90
       50
176
     1
 40
0.0
176
     1
 40
1.0
176
     1
 90
        0
176
     1
 62
    18
420
        0
176
     1
 90
       50
176
     1
 90
        3
176
     1
 62
     5
420
      255
176
     1
290
     0
176
     1
 90
       50
176
     1
 90
       50
176
     1
 90
       50
176
     1
290
     0
176
     1
 90
       50
176
     1
 62
   256
176
     0
 40
1.0
176
     0
 90
        2
176
     1
  1
strokes_ogs.tif
176
     1
290
     0
176
     1
 40
1.0
176
     1
 40
1.0
176
     1
  0
VISUALSTYLE
  5
37
102
{ACAD_REACTORS
330
2A
102
}
330
2A
100
AcDbVisualStyle
  2
Thicken
 70
    13
177
     3
291
     1
 70
    58
 90
        2
176
     1
 90
        2
176
     1
 90
        0
176
     1
 90
        0
176
     1
 40
0.6
176
     1
 40
30.0
176
     1
 62
     7
420
 16777215
176
     1
 90
        1
176
     1
 90
        4
176
     1
 62
     7
176
     1
 62
   257
176
     1
 90
        1
176
     1
 90
        1
176
     1
 40
1.0
176
     1
 90
       12
176
     1
 62
     7
176
     1
 40
1.0
176
     1
 90
        1
176
     1
 90
        6
176
     1
 90
        2
176
     1
 62
     7
176
     1
 90
        5
176
     1
 90
        0
176
     1
 90
        0
176
     1
290
     0
176
     1
 90
        1
176
     1
 40
0.0
176
     1
 90
        0
176
     1
290
     0
176
     1
290
     1
176
     1
290
     1
176
     1
290
     0
176
     1
290
     0
176
     1
290
     0
176
     1
290
     0
176
     1
290
     0
176
     1
290
     0
176
     1
 90
       50
176
     1
 40
0.0
176
     1
 40
1.0
176
     1
 90
        0
176
     1
 62
    18
420
        0
176
     1
 90
       50
176
     1
 90
        3
176
     1
 62
     5
420
      255
176
     1
290
     0
176
     1
 90
       50
176
     1
 90
       50
176
     1
 90
       50
176
     1
290
     0
176
     1
 90
       50
176
     1
 62
   256
176
     0
 40
1.0
176
     0
 90
        2
176
     1
  1
strokes_ogs.tif
176
     1
290
     0
176
     1
 40
1.0
176
     1
 40
1.0
176
     1
  0
VISUALSTYLE
  5
30
102
{ACAD_REACTORS
330
2A
102
}
330
2A
100
AcDbVisualStyle
  2
Wireframe
 70
     5
177
     3
291
     0
 70
    58
 90
        0
176
     1
 90
        2
176
     1
 90
        0
176
     1
 90
        0
176
     1
 40
0.6
176
     1
 40
30.0
176
     1
 62
     7
420
 16777215
176
     1
 90
        1
176
     1
 90
        4
176
     1
 62
     7
176
     1
 62
   257
176
     1
 90
        1
176
     1
 90
        1
176
     1
 40
1.0
176
     1
 90
        0
176
     1
 62
   257
176
     1
 40
1.0
176
     1
 90
        1
176
     1
 90
        6
176
     1
 90
        2
176
     1
 62
     7
176
     1
 90
        3
176
     1
 90
        0
176
     1
 90
        0
176
     1
290
     0
176
     1
 90
        1
176
     1
 40
0.0
176
     1
 90
        0
176
     1
290
     0
176
     1
290
     1
176
     1
290
     1
176
     1
290
     0
176
     1
290
     0
176
     1
290
     0
176
     1
290
     0
176
     1
290
     0
176
     1
290
     0
176
     1
 90
       50
176
     1
 40
0.0
176
     1
 40
1.0
176
     1
 90
        0
176
     1
 62
    18
420
        0
176
     1
 90
       50
176
     1
 90
        3
176
     1
 62
     5
420
      255
176
     1
290
     0
176
     1
 90
       50
176
     1
 90
       50
176
     1
 90
       50
176
     1
290
     0
176
     1
 90
       50
176
     1
 62
   256
176
     0
 40
1.0
176
     0
 90
        2
176
     1
  1
strokes_ogs.tif
176
     1
290
     0
176
     1
 40
1.0
176
     1
 40
1.0
176
     1
  0
VISUALSTYLE
  5
40
102
{ACAD_REACTORS
330
2A
102
}
330
2A
100
AcDbVisualStyle
  2
X-Ray
 70
    25
177
     3
291
     0
 70
    58
 90
        2
176
     1
 90
        2
176
     1
 90
        1
176
     1
 90
        1
176
     1
 40
0.5
176
     1
 40
30.0
176
     1
 62
     7
420
 16777215
176
     1
 90
        1
176
     1
 90
        0
176
     1
 62
     7
176
     1
 62
   257
176
     1
 90
        1
176
     1
 90
        1
176
     1
 40
1.0
176
     1
 90
        8
176
     1
 62
     7
176
     1
 40
1.0
176
     1
 90
        1
176
     1
 90
        6
176
     1
 90
        2
176
     1
 62
     7
176
     1
 90
        3
176
     1
 90
        0
176
     1
 90
        0
176
     1
290
     0
176
     1
 90
       13
176
     1
 40
0.0
176
     1
 90
        0
176
     1
290
     0
176
     1
290
     1
176
     1
290
     1
176
     1
290
     0
176
     1
290
     0
176
     1
290
     0
176
     1
290
     0
176
     1
290
     0
176
     1
290
     0
176
     1
 90
       50
176
     1
 40
0.0
176
     1
 40
1.0
176
     1
 90
        0
176
     1
 62
    18
420
        0
176
     1
 90
       50
176
     1
 90
        3
176
     1
 62
     5
420
      255
176
     1
290
     0
176
     1
 90
       50
176
     1
 90
       50
176
     1
 90
       50
176
     1
290
     0
176
     1
 90
       50
176
     1
 62
   256
176
     0
 40
1.0
176
     0
 90
        2
176
     1
  1
strokes_ogs.tif
176
     1
290
     0
176
     1
 40
1.0
176
     1
 40
1.0
176
     1
  0
DICTIONARYVAR
  5
3BF
102
{ACAD_REACTORS
330
3BE
102
}
330
3BE
100
DictionaryVariables
280
     0
  1
1:1
  0
DICTIONARYVAR
  5
3C4
102
{ACAD_REACTORS
330
3BE
102
}
330
3BE
100
DictionaryVariables
280
     0
  1
Standard
  0
DICTIONARYVAR
  5
3C3
102
{ACAD_REACTORS
330
3BE
102
}
330
3BE
100
DictionaryVariables
280
     0
  1
Standard
  0
DICTIONARY
  5
3C0
330
6A
100
AcDbDictionary
280
     1
281
     1
  3
ACAD_ROUNDTRIP_2008_TABLESTYLE_CELLSTYLEMAP
360
3C1
  0
CELLSTYLEMAP
  5
3C1
102
{ACAD_REACTORS
330
3C0
102
}
330
3C0
100
AcDbCellStyleMap
 90
        3
300
CELLSTYLE
  1
TABLEFORMAT_BEGIN
 90
        5
170
     1
 91
        0
 92
    32768
 62
   257
 93
        1
300
CONTENTFORMAT
  1
CONTENTFORMAT_BEGIN
 90
        0
 91
        0
 92
        4
 93
        0
300

 40
0.0
140
1.0
 94
        5
 62
     0
340
11
144
0.25
309
CONTENTFORMAT_END
171
     1
301
MARGIN
  1
CELLMARGIN_BEGIN
 40
0.06
 40
0.06
 40
0.06
 40
0.06
 40
0.06
 40
0.06
309
CELLMARGIN_END
 94
        6
 95
        1
302
GRIDFORMAT
  1
GRIDFORMAT_BEGIN
 90
        0
 91
        1
 62
     0
 92
       -2
340
14
 93
        0
 40
0.045
309
GRIDFORMAT_END
 95
        2
302
GRIDFORMAT
  1
GRIDFORMAT_BEGIN
 90
        0
 91
        1
 62
     0
 92
       -2
340
14
 93
        0
 40
0.045
309
GRIDFORMAT_END
 95
        4
302
GRIDFORMAT
  1
GRIDFORMAT_BEGIN
 90
        0
 91
        1
 62
     0
 92
       -2
340
14
 93
        0
 40
0.045
309
GRIDFORMAT_END
 95
        8
302
GRIDFORMAT
  1
GRIDFORMAT_BEGIN
 90
        0
 91
        1
 62
     0
 92
       -2
340
14
 93
        0
 40
0.045
309
GRIDFORMAT_END
 95
       16
302
GRIDFORMAT
  1
GRIDFORMAT_BEGIN
 90
        0
 91
        1
 62
     0
 92
       -2
340
14
 93
        0
 40
0.045
309
GRIDFORMAT_END
 95
       32
302
GRIDFORMAT
  1
GRIDFORMAT_BEGIN
 90
        0
 91
        1
 62
     0
 92
       -2
340
14
 93
        0
 40
0.045
309
GRIDFORMAT_END
309
TABLEFORMAT_END
  1
CELLSTYLE_BEGIN
 90
        1
 91
        1
300
_TITLE
309
CELLSTYLE_END
300
CELLSTYLE
  1
TABLEFORMAT_BEGIN
 90
        5
170
     1
 91
        0
 92
        0
 62
   257
 93
        1
300
CONTENTFORMAT
  1
CONTENTFORMAT_BEGIN
 90
        0
 91
        0
 92
        4
 93
        0
300

 40
0.0
140
1.0
 94
        5
 62
     0
340
11
144
0.18
309
CONTENTFORMAT_END
171
     1
301
MARGIN
  1
CELLMARGIN_BEGIN
 40
0.06
 40
0.06
 40
0.06
 40
0.06
 40
0.06
 40
0.06
309
CELLMARGIN_END
 94
        6
 95
        1
302
GRIDFORMAT
  1
GRIDFORMAT_BEGIN
 90
        0
 91
        1
 62
     0
 92
       -2
340
14
 93
        0
 40
0.045
309
GRIDFORMAT_END
 95
        2
302
GRIDFORMAT
  1
GRIDFORMAT_BEGIN
 90
        0
 91
        1
 62
     0
 92
       -2
340
14
 93
        0
 40
0.045
309
GRIDFORMAT_END
 95
        4
302
GRIDFORMAT
  1
GRIDFORMAT_BEGIN
 90
        0
 91
        1
 62
     0
 92
       -2
340
14
 93
        0
 40
0.045
309
GRIDFORMAT_END
 95
        8
302
GRIDFORMAT
  1
GRIDFORMAT_BEGIN
 90
        0
 91
        1
 62
     0
 92
       -2
340
14
 93
        0
 40
0.045
309
GRIDFORMAT_END
 95
       16
302
GRIDFORMAT
  1
GRIDFORMAT_BEGIN
 90
        0
 91
        1
 62
     0
 92
       -2
340
14
 93
        0
 40
0.045
309
GRIDFORMAT_END
 95
       32
302
GRIDFORMAT
  1
GRIDFORMAT_BEGIN
 90
        0
 91
        1
 62
     0
 92
       -2
340
14
 93
        0
 40
0.045
309
GRIDFORMAT_END
309
TABLEFORMAT_END
  1
CELLSTYLE_BEGIN
 90
        2
 91
        1
300
_HEADER
309
CELLSTYLE_END
300
CELLSTYLE
  1
TABLEFORMAT_BEGIN
 90
        5
170
     1
 91
        0
 92
        0
 62
   257
 93
        1
300
CONTENTFORMAT
  1
CONTENTFORMAT_BEGIN
 90
        0
 91
        0
 92
        4
 93
        0
300

 40
0.0
140
1.0
 94
        2
 62
     0
340
11
144
0.18
309
CONTENTFORMAT_END
171
     1
301
MARGIN
  1
CELLMARGIN_BEGIN
 40
0.06
 40
0.06
 40
0.06
 40
0.06
 40
0.06
 40
0.06
309
CELLMARGIN_END
 94
        6
 95
        1
302
GRIDFORMAT
  1
GRIDFORMAT_BEGIN
 90
        0
 91
        1
 62
     0
 92
       -2
340
14
 93
        0
 40
0.045
309
GRIDFORMAT_END
 95
        2
302
GRIDFORMAT
  1
GRIDFORMAT_BEGIN
 90
        0
 91
        1
 62
     0
 92
       -2
340
14
 93
        0
 40
0.045
309
GRIDFORMAT_END
 95
        4
302
GRIDFORMAT
  1
GRIDFORMAT_BEGIN
 90
        0
 91
        1
 62
     0
 92
       -2
340
14
 93
        0
 40
0.045
309
GRIDFORMAT_END
 95
        8
302
GRIDFORMAT
  1
GRIDFORMAT_BEGIN
 90
        0
 91
        1
 62
     0
 92
       -2
340
14
 93
        0
 40
0.045
309
GRIDFORMAT_END
 95
       16
302
GRIDFORMAT
  1
GRIDFORMAT_BEGIN
 90
        0
 91
        1
 62
     0
 92
       -2
340
14
 93
        0
 40
0.045
309
GRIDFORMAT_END
 95
       32
302
GRIDFORMAT
  1
GRIDFORMAT_BEGIN
 90
        0
 91
        1
 62
     0
 92
       -2
340
14
 93
        0
 40
0.045
309
GRIDFORMAT_END
309
TABLEFORMAT_END
  1
CELLSTYLE_BEGIN
 90
        3
 91
        2
300
_DATA
309
CELLSTYLE_END
  0
ENDSEC
  0
EOF
