  0
SECTION
  2
HEADER
  9
$ACADVER
  1
AC1015
  9
$ACADMAINTVER
 70
     6
  9
$DWGCODEPAGE
  3
DOS932
  9
$INSBASE
 10
0.0
 20
0.0
 30
0.0
  9
$EXTMIN
 10
0.0
 20
0.0
 30
0.0
  9
$EXTMAX
 10
1260.0
 20
891.0
 30
0.0
  9
$LIMMIN
 10
0.0
 20
0.0
  9
$LIMMAX
 10
1260.0
 20
891.0
  9
$ORTHOMODE
 70
     0
  9
$REGENMODE
 70
     1
  9
$FILLMODE
 70
     1
  9
$QTEXTMODE
 70
     0
  9
$MIRRTEXT
 70
     1
  9
$LTSCALE
 40
0.75
  9
$ATTMODE
 70
     1
  9
$TEXTSIZE
 40
9.0
  9
$TRACEWID
 40
0.05
  9
$TEXTSTYLE
  7
Standard
  9
$CLAYER
  8
0
  9
$CELTYPE
  6
Continuous
  9
$CECOLOR
 62
   256
  9
$CELTSCALE
 40
1.0
  9
$DISPSILH
 70
     0
  9
$DIMSCALE
 40
3.0
  9
$DIMASZ
 40
2.4
  9
$DIMEXO
 40
2.0
  9
$DIMDLI
 40
10.0
  9
$DIMRND
 40
0.0
  9
$DIMDLE
 40
0.0
  9
$DIMEXE
 40
2.0
  9
$DIMTP
 40
0.0
  9
$DIMTM
 40
0.0
  9
$DIMTXT
 40
3.0
  9
$DIMCEN
 40
0.09
  9
$DIMTSZ
 40
0.0
  9
$DIMTOL
 70
     0
  9
$DIMLIM
 70
     0
  9
$DIMTIH
 70
     0
  9
$DIMTOH
 70
     0
  9
$DIMSE1
 70
     0
  9
$DIMSE2
 70
     0
  9
$DIMTAD
 70
     3
  9
$DIMZIN
 70
     0
  9
$DIMBLK
  1

  9
$DIMASO
 70
     1
  9
$DIMSHO
 70
     1
  9
$DIMPOST
  1

  9
$DIMAPOST
  1

  9
$DIMALT
 70
     0
  9
$DIMALTD
 70
     2
  9
$DIMALTF
 40
25.4
  9
$DIMLFAC
 40
1.0
  9
$DIMTOFL
 70
     1
  9
$DIMTVP
 40
0.7
  9
$DIMTIX
 70
     0
  9
$DIMSOXD
 70
     0
  9
$DIMSAH
 70
     0
  9
$DIMBLK1
  1

  9
$DIMBLK2
  1

  9
$DIMSTYLE
  2
Standard
  9
$DIMCLRD
 70
     0
  9
$DIMCLRE
 70
     0
  9
$DIMCLRT
 70
     0
  9
$DIMTFAC
 40
0.5
  9
$DIMGAP
 40
0.5
  9
$DIMJUST
 70
     0
  9
$DIMSD1
 70
     0
  9
$DIMSD2
 70
     0
  9
$DIMTOLJ
 70
     1
  9
$DIMTZIN
 70
     0
  9
$DIMALTZ
 70
     0
  9
$DIMALTTZ
 70
     0
  9
$DIMUPT
 70
     0
  9
$DIMDEC
 70
     2
  9
$DIMTDEC
 70
     4
  9
$DIMALTU
 70
     2
  9
$DIMALTTD
 70
     2
  9
$DIMTXSTY
  7
Standard
  9
$DIMAUNIT
 70
     0
  9
$DIMADEC
 70
     0
  9
$DIMALTRND
 40
0.0
  9
$DIMAZIN
 70
     0
  9
$DIMDSEP
 70
     0
  9
$DIMATFIT
 70
     3
  9
$DIMFRAC
 70
     0
  9
$DIMLDRBLK
  1

  9
$DIMLUNIT
 70
     2
  9
$DIMLWD
 70
     0
  9
$DIMLWE
 70
     0
  9
$DIMTMOVE
 70
     0
  9
$LUNITS
 70
     2
  9
$LUPREC
 70
     4
  9
$SKETCHINC
 40
0.1
  9
$FILLETRAD
 40
0.0
  9
$AUNITS
 70
     0
  9
$AUPREC
 70
     0
  9
$MENU
  1
acad
  9
$ELEVATION
 40
0.0
  9
$PELEVATION
 40
0.0
  9
$THICKNESS
 40
0.0
  9
$LIMCHECK
 70
     0
  9
$CHAMFERA
 40
0.0
  9
$CHAMFERB
 40
0.0
  9
$CHAMFERC
 40
0.0
  9
$CHAMFERD
 40
0.0
  9
$SKPOLY
 70
     0
  9
$TDCREATE
 40
2458981.433981482
  9
$TDUCREATE
 40
0.000000000
  9
$TDUPDATE
 40
2458981.433981482
  9
$TDUUPDATE
 40
0.000000000
  9
$TDINDWG
 40
0.0000000000
  9
$TDUSRTIMER
 40
0.0000000000
  9
$USRTIMER
 70
     1
  9
$ANGBASE
 50
0.0
  9
$ANGDIR
 70
     0
  9
$PDMODE
 70
     0
  9
$PDSIZE
 40
0.0
  9
$PLINEWID
 40
0.0
  9
$SPLFRAME
 70
     0
  9
$SPLINETYPE
 70
     6
  9
$SPLINESEGS
 70
     8
  9
$HANDSEED
  5
342
  9
$SURFTAB1
 70
     6
  9
$SURFTAB2
 70
     6
  9
$SURFTYPE
 70
     6
  9
$SURFU
 70
     6
  9
$SURFV
 70
     6
  9
$UCSBASE
  2

  9
$UCSNAME
  2

  9
$UCSORG
 10
0.0
 20
0.0
 30
0.0
  9
$UCSXDIR
 10
1.0
 20
0.0
 30
0.0
  9
$UCSYDIR
 10
0.0
 20
1.0
 30
0.0
  9
$UCSORTHOREF
  2

  9
$UCSORTHOVIEW
 70
     0
  9
$UCSORGTOP
 10
0.0
 20
0.0
 30
0.0
  9
$UCSORGBOTTOM
 10
0.0
 20
0.0
 30
0.0
  9
$UCSORGLEFT
 10
0.0
 20
0.0
 30
0.0
  9
$UCSORGRIGHT
 10
0.0
 20
0.0
 30
0.0
  9
$UCSORGFRONT
 10
0.0
 20
0.0
 30
0.0
  9
$UCSORGBACK
 10
0.0
 20
0.0
 30
0.0
  9
$PUCSBASE
  2

  9
$PUCSNAME
  2

  9
$PUCSORG
 10
0.0
 20
0.0
 30
0.0
  9
$PUCSXDIR
 10
1.0
 20
0.0
 30
0.0
  9
$PUCSYDIR
 10
0.0
 20
1.0
 30
0.0
  9
$PUCSORTHOREF
  2

  9
$PUCSORTHOVIEW
 70
     0
  9
$PUCSORGTOP
 10
0.0
 20
0.0
 30
0.0
  9
$PUCSORGBOTTOM
 10
0.0
 20
0.0
 30
0.0
  9
$PUCSORGLEFT
 10
0.0
 20
0.0
 30
0.0
  9
$PUCSORGRIGHT
 10
0.0
 20
0.0
 30
0.0
  9
$PUCSORGFRONT
 10
0.0
 20
0.0
 30
0.0
  9
$PUCSORGBACK
 10
0.0
 20
0.0
 30
0.0
  9
$USERI1
 70
     0
  9
$USERI2
 70
     0
  9
$USERI3
 70
     0
  9
$USERI4
 70
     0
  9
$USERI5
 70
     0
  9
$USERR1
 40
0.0
  9
$USERR2
 40
0.0
  9
$USERR3
 40
0.0
  9
$USERR4
 40
0.0
  9
$USERR5
 40
0.0
  9
$WORLDVIEW
 70
     1
  9
$SHADEDGE
 70
     3
  9
$SHADEDIF
 70
    70
  9
$TILEMODE
 70
     1
  9
$MAXACTVP
 70
    16
  9
$PINSBASE
 10
0.0
 20
0.0
 30
0.0
  9
$PLIMCHECK
 70
     0
  9
$PEXTMIN
 10
0.0
 20
0.0
 30
0.0
  9
$PEXTMAX
 10
420.0
 20
297.0
 30
0.0
  9
$PLIMMIN
 10
0.0
 20
0.0
  9
$PLIMMAX
 10
420.0
 20
297.0
  9
$UNITMODE
 70
     0
  9
$VISRETAIN
 70
     0
  9
$PLINEGEN
 70
     1
  9
$PSLTSCALE
 70
     0
  9
$TREEDEPTH
 70
  3020
  9
$CMLSTYLE
  2
Standard
  9
$CMLJUST
 70
     0
  9
$CMLSCALE
 40
1.0
  9
$PROXYGRAPHICS
 70
     0
  9
$MEASUREMENT
 70
     0
  9
$CELWEIGHT
370
     0
  9
$ENDCAPS
280
     0
  9
$JOINSTYLE
280
     0
  9
$LWDISPLAY
290
     0
  9
$INSUNITS
 70
     0
  9
$HYPERLINKBASE
  1

  9
$STYLESHEET
  1

  9
$XEDIT
290
     1
  9
$CEPSNTYPE
380
     0
  9
$PSTYLEMODE
290
     1
  9
$FINGERPRINTGUID
  2

  9
$VERSIONGUID
  2

  9
$EXTNAMES
290
     1
  9
$PSVPSCALE
 40
0.0
  0
ENDSEC
  0
SECTION
  2
CLASSES
  0
CLASS
  1
LWPOLYLINE
  2
AcDbPolyline
  3
AutoCAD 2000
 90
    32768
280
     0
281
     1
  0
CLASS
  1
IMAGE
  2
AcDbRasterImage
  3
ISM
 90
    32895
280
     0
281
     1
  0
CLASS
  1
OLE2FRAME
  2
AcDbOle2Frame
  3
AutoCAD 2000
 90
    32768
280
     0
281
     1
  0
CLASS
  1
HATCH
  2
AcDbHatch
  3
AutoCAD 2000
 90
    32768
280
     0
281
     1
  0
CLASS
  1
DICTIONARYVAR
  2
AcDbDictionaryVar
  3
AutoCAD 2000
 90
    32768
280
     0
281
     0
  0
CLASS
  1
RASTERVARIABLES
  2
AcDbRasterVariables
  3
ISM
 90
    32768
280
     0
281
     0
  0
CLASS
  1
IMAGEDEF
  2
AcDbRasterImageDef
  3
ISM
 90
    32768
280
     0
281
     0
  0
CLASS
  1
IMAGEDEF_REACTOR
  2
AcDbRasterImageDefReactor
  3
ISM
 90
    32769
280
     0
281
     0
  0
CLASS
  1
IDBUFFER
  2
AcDbIdBuffer
  3
AutoCAD 2000
 90
    32768
280
     0
281
     0
  0
CLASS
  1
SPATIAL_FILTER
  2
AcDbSpatialFilter
  3
AutoCAD 2000
 90
    32768
280
     0
281
     0
  0
CLASS
  1
XRECORD
  2
AcDbXrecord
  3
AutoCAD 2000
 90
    32768
280
     0
281
     0
  0
CLASS
  1
SORTENTSTABLE
  2
AcDbSortentsTable
  3
AutoCAD 2000
 90
    32768
280
     0
281
     0
  0
CLASS
  1
LAYER_INDEX
  2
AcDbLayerIndex
  3
AutoCAD 2000
 90
    32768
280
     0
281
     0
  0
CLASS
  1
SPATIAL_INDEX
  2
AcDbSpatialIndex
  3
AutoCAD 2000
 90
    32768
280
     0
281
     0
  0
CLASS
  1
OBJECT_PTR
  2
CAseDLPNTableRecord
  3
"ASE-LPNTableRecord"
 90
    32769
280
     0
281
     0
  0
CLASS
  1
LAYOUT
  2
AcDbLayout
  3
AutoCAD 2000
 90
        0
280
     0
281
     0
  0
CLASS
  1
PLOTSETTINGS
  2
AcDbPlotSettings
  3
AutoCAD 2000
 90
    32768
280
     0
281
     0
  0
CLASS
  1
ACDBDICTIONARYWDFLT
  2
AcDbDictionaryWithDefault
  3
AutoCAD 2000
 90
        0
280
     0
281
     0
  0
CLASS
  1
ACDBPLACEHOLDER
  2
AcDbPlaceHolder
  3
AutoCAD 2000
 90
        0
280
     0
281
     0
  0
CLASS
  1
VBA_PROJECT
  2
AcDbVbaProject
  3
acadvba
 90
    32768
280
     0
281
     0
  0
CLASS
  1
WIPEOUT
  2
AcDbWipeout
  3
WipeOut|AutoCAD Express Tool|expresstools@autodesk.com
 90
    32895
280
     0
281
     1
  0
CLASS
  1
WIPEOUTVARIABLES
  2
AcDbWipeoutVariables
  3
WipeOut|AutoCAD Express Tool|expresstools@autodesk.com
 90
        0
280
     0
281
     0
  0
CLASS
  1
RTEXT
  2
RText
  3
RText|AutoCAD Express Tool|expresstools@autodesk.com
 90
    32768
280
     0
281
     1
  0
CLASS
  1
ARCALIGNEDTEXT
  2
AcDbArcAlignedText
  3
ATEXT|AutoCAD Express Tool|expresstools@autodesk.com
 90
    32768
280
     0
281
     1
  0
ENDSEC
  0
SECTION
  2
TABLES
  0
TABLE
  2
VPORT
  5
7
100
AcDbSymbolTable
 70
     1
  0
VPORT
  5
15
100
AcDbSymbolTableRecord
100
AcDbViewportTableRecord
  2
*ACTIVE
 70
     0
 10
0.0
 20
0.0
 11
1.0
 21
1.0
 12
6.591288
 22
4.579184
 13
0.0
 23
0.0
 14
1.0
 24
1.0
 15
0.0
 25
0.0
 16
0.0
 26
0.0
 36
1.0
 17
0.0
 27
0.0
 37
0.0
 40
9.158369
 41
0.688564
 42
50.0
 43
0.0
 44
0.0
 50
0.0
 51
0.0
 71
     0
 72
   100
 73
     1
 74
     1
 75
     0
 76
     0
 77
     0
 78
     0
281
     0
 65
     0
110
0.0
120
0.0
130
0.0
111
1.0
121
0.0
131
0.0
112
0.0
122
1.0
132
0.0
345
0
346
0
 79
     0
146
0.0
  0
ENDTAB
  0
TABLE
  2
LTYPE
  5
4
100
AcDbSymbolTable
 70
     9
  0
LTYPE
  5
11
100
AcDbSymbolTableRecord
100
AcDbLinetypeTableRecord
  2
ByBlock
 70
    64
  3

 72
    65
 73
     0
 40
0.0
  0
LTYPE
  5
12
100
AcDbSymbolTableRecord
100
AcDbLinetypeTableRecord
  2
ByLayer
 70
    64
  3

 72
    65
 73
     0
 40
0.0
  0
LTYPE
  5
13
100
AcDbSymbolTableRecord
100
AcDbLinetypeTableRecord
  2
Continuous
 70
    64
  3
Solid line
 72
    65
 73
     0
 40
0.0
  0
LTYPE
  5
25
100
AcDbSymbolTableRecord
100
AcDbLinetypeTableRecord
  2
HIDDEN
 70
    64
  3
- - - - - - - - 
 72
    65
 73
     2
 40
12.6
 49
8.4
 74
     0
 49
-4.2
 74
     0
  0
LTYPE
  5
26
100
AcDbSymbolTableRecord
100
AcDbLinetypeTableRecord
  2
DOT
 70
    64
  3
･ ･ ･ ･ ･ ･ ･ ･ 
 72
    65
 73
     2
 40
8.0
 49
6.0
 74
     0
 49
-2.0
 74
     0
  0
LTYPE
  5
27
100
AcDbSymbolTableRecord
100
AcDbLinetypeTableRecord
  2
CENTER
 70
    64
  3
- ･ - ･ - ･ - ･ 
 72
    65
 73
     4
 40
50.5
 49
30.0
 74
     0
 49
-9.0
 74
     0
 49
2.5
 74
     0
 49
-9.0
 74
     0
  0
LTYPE
  5
28
100
AcDbSymbolTableRecord
100
AcDbLinetypeTableRecord
  2
PHANTOM
 70
    64
  3
- ･･ - ･･ - ･･ - ･･ 
 72
    65
 73
     6
 40
58.0
 49
30.0
 74
     0
 49
-9.0
 74
     0
 49
2.5
 74
     0
 49
-5.0
 74
     0
 49
2.5
 74
     0
 49
-9.0
 74
     0
  0
LTYPE
  5
29
100
AcDbSymbolTableRecord
100
AcDbLinetypeTableRecord
  2
ACAD_ISO06W100
 70
    64
  3
____ ... ____ ... ____
 72
    65
 73
     8
 40
37.5
 49
24.0
 74
     0
 49
-3.0
 74
     0
 49
0.5
 74
     0
 49
-3.0
 74
     0
 49
0.5
 74
     0
 49
-3.0
 74
     0
 49
0.5
 74
     0
 49
-3.0
 74
     0
  0
LTYPE
  5
2A
100
AcDbSymbolTableRecord
100
AcDbLinetypeTableRecord
  2
ACAD_ISO14W100
 70
    64
  3
__ . . . __ . . . __ . . . 
 72
    65
 73
     8
 40
25.5
 49
12.0
 74
     0
 49
-3.0
 74
     0
 49
0.5
 74
     0
 49
-3.0
 74
     0
 49
0.5
 74
     0
 49
-3.0
 74
     0
 49
0.5
 74
     0
 49
-3.0
 74
     0
  0
ENDTAB
  0
TABLE
  2
LAYER
  5
2
100
AcDbSymbolTable
 70
    31
  0
LAYER
  5
14
100
AcDbSymbolTableRecord
100
AcDbLayerTableRecord
  2
0
 70
     0
 62
     7
  6
Continuous
290
     1
370
    -3
390
1D
  0
LAYER
  5
2B
100
AcDbSymbolTableRecord
100
AcDbLayerTableRecord
  2
1
 70
     0
 62
     7
  6
Continuous
290
     1
370
    -3
390
1D
  0
LAYER
  5
2C
100
AcDbSymbolTableRecord
100
AcDbLayerTableRecord
  2
2
 70
     0
 62
   214
  6
Continuous
290
     1
370
    -3
390
1D
  0
LAYER
  5
2D
100
AcDbSymbolTableRecord
100
AcDbLayerTableRecord
  2
3
 70
     0
 62
   216
  6
Continuous
290
     1
370
    -3
390
1D
  0
LAYER
  5
2E
100
AcDbSymbolTableRecord
100
AcDbLayerTableRecord
  2
4
 70
     0
 62
    54
  6
Continuous
290
     1
370
    -3
390
1D
  0
LAYER
  5
2F
100
AcDbSymbolTableRecord
100
AcDbLayerTableRecord
  2
5
 70
     0
 62
    94
  6
Continuous
290
     1
370
    -3
390
1D
  0
LAYER
  5
30
100
AcDbSymbolTableRecord
100
AcDbLayerTableRecord
  2
6
 70
     0
 62
    14
  6
Continuous
290
     1
370
    -3
390
1D
  0
LAYER
  5
31
100
AcDbSymbolTableRecord
100
AcDbLayerTableRecord
  2
7
 70
     0
 62
     4
  6
Continuous
290
     1
370
    -3
390
1D
  0
LAYER
  5
32
100
AcDbSymbolTableRecord
100
AcDbLayerTableRecord
  2
8
 70
     0
 62
     6
  6
Continuous
290
     1
370
    -3
390
1D
  0
LAYER
  5
33
100
AcDbSymbolTableRecord
100
AcDbLayerTableRecord
  2
9
 70
     0
 62
     2
  6
Continuous
290
     1
370
    -3
390
1D
  0
LAYER
  5
34
100
AcDbSymbolTableRecord
100
AcDbLayerTableRecord
  2
10
 70
     0
 62
     3
  6
Continuous
290
     1
370
    -3
390
1D
  0
LAYER
  5
35
100
AcDbSymbolTableRecord
100
AcDbLayerTableRecord
  2
11
 70
     0
 62
   251
  6
Continuous
290
     1
370
    -3
390
1D
  0
LAYER
  5
36
100
AcDbSymbolTableRecord
100
AcDbLayerTableRecord
  2
12
 70
     0
 62
   136
  6
Continuous
290
     1
370
    -3
390
1D
  0
LAYER
  5
37
100
AcDbSymbolTableRecord
100
AcDbLayerTableRecord
  2
13
 70
     0
 62
     7
  6
Continuous
290
     1
370
    -3
390
1D
  0
LAYER
  5
38
100
AcDbSymbolTableRecord
100
AcDbLayerTableRecord
  2
14
 70
     0
 62
    56
  6
Continuous
290
     1
370
    -3
390
1D
  0
LAYER
  5
39
100
AcDbSymbolTableRecord
100
AcDbLayerTableRecord
  2
15
 70
     0
 62
    96
  6
Continuous
290
     1
370
    -3
390
1D
  0
LAYER
  5
3A
100
AcDbSymbolTableRecord
100
AcDbLayerTableRecord
  2
16
 70
     0
 62
    16
  6
Continuous
290
     1
370
    -3
390
1D
  0
LAYER
  5
3B
100
AcDbSymbolTableRecord
100
AcDbLayerTableRecord
  2
17
 70
     0
 62
   132
  6
Continuous
290
     1
370
    -3
390
1D
  0
LAYER
  5
3C
100
AcDbSymbolTableRecord
100
AcDbLayerTableRecord
  2
18
 70
     0
 62
   212
  6
Continuous
290
     1
370
    -3
390
1D
  0
LAYER
  5
3D
100
AcDbSymbolTableRecord
100
AcDbLayerTableRecord
  2
19
 70
     0
 62
    52
  6
Continuous
290
     1
370
    -3
390
1D
  0
LAYER
  5
3E
100
AcDbSymbolTableRecord
100
AcDbLayerTableRecord
  2
20
 70
     0
 62
   250
  6
Continuous
290
     1
370
    -3
390
1D
  0
LAYER
  5
3F
100
AcDbSymbolTableRecord
100
AcDbLayerTableRecord
  2
22
 70
     0
 62
     7
  6
Continuous
290
     1
370
    -3
390
1D
  0
LAYER
  5
40
100
AcDbSymbolTableRecord
100
AcDbLayerTableRecord
  2
24
 70
     0
 62
     7
  6
Continuous
290
     1
370
    -3
390
1D
  0
LAYER
  5
41
100
AcDbSymbolTableRecord
100
AcDbLayerTableRecord
  2
25
 70
     0
 62
     7
  6
Continuous
290
     1
370
    -3
390
1D
  0
LAYER
  5
42
100
AcDbSymbolTableRecord
100
AcDbLayerTableRecord
  2
128
 70
     0
 62
     7
  6
Continuous
290
     1
370
    -3
390
1D
  0
LAYER
  5
43
100
AcDbSymbolTableRecord
100
AcDbLayerTableRecord
  2
129
 70
     0
 62
     7
  6
Continuous
290
     1
370
    -3
390
1D
  0
LAYER
  5
44
100
AcDbSymbolTableRecord
100
AcDbLayerTableRecord
  2
130
 70
     0
 62
     7
  6
Continuous
290
     1
370
    -3
390
1D
  0
LAYER
  5
45
100
AcDbSymbolTableRecord
100
AcDbLayerTableRecord
  2
131
 70
     0
 62
     7
  6
Continuous
290
     1
370
    -3
390
1D
  0
LAYER
  5
46
100
AcDbSymbolTableRecord
100
AcDbLayerTableRecord
  2
258
 70
     0
 62
     7
  6
Continuous
290
     1
370
    -3
390
1D
  0
LAYER
  5
47
100
AcDbSymbolTableRecord
100
AcDbLayerTableRecord
  2
260
 70
     0
 62
     7
  6
Continuous
290
     1
370
    -3
390
1D
  0
LAYER
  5
48
100
AcDbSymbolTableRecord
100
AcDbLayerTableRecord
  2
261
 70
     0
 62
     5
  6
Continuous
290
     1
370
    -3
390
1D
  0
ENDTAB
  0
TABLE
  2
STYLE
  5
3
100
AcDbSymbolTable
 70
     2
  0
STYLE
  5
17
100
AcDbSymbolTableRecord
100
AcDbTextStyleTableRecord
  2
Standard
 70
     0
 40
0.0
 41
1.0
 50
0.0
 71
     0
 42
0.0
  3
txt
  4
bigfont
  0
STYLE
  5
24
100
AcDbSymbolTableRecord
100
AcDbTextStyleTableRecord
  2
T_STANDARD
 70
    68
 40
10.0
 41
1.0
 50
0.0
 71
     0
 42
10.0
  3
txt
  4
bigfont
  0
ENDTAB
  0
TABLE
  2
VIEW
  5
5
100
AcDbSymbolTable
 70
     0
  0
ENDTAB
  0
TABLE
  2
UCS
  5
6
100
AcDbSymbolTable
 70
     0
  0
ENDTAB
  0
TABLE
  2
APPID
  5
8
100
AcDbSymbolTable
 70
     1
  0
APPID
  5
16
100
AcDbSymbolTableRecord
100
AcDbRegAppTableRecord
  2
ACAD
 70
     0
  0
ENDTAB
  0
TABLE
  2
DIMSTYLE
  5
9
100
AcDbSymbolTable
 70
     1
100
AcDbDimStyleTable
 71
     0
  0
DIMSTYLE
105
18
100
AcDbSymbolTableRecord
100
AcDbDimStyleTableRecord
  2
Standard
 70
     0
  3

  4

 40
1.0
 41
0.18
 42
0.0625
 43
0.38
 44
0.18
 45
0.0
 46
0.0
 47
0.0
 48
0.0
 71
     0
 72
     0
 73
     1
 74
     1
 75
     0
 76
     0
 77
     0
 78
     0
 79
     0
140
0.18
141
0.09
142
0.0
143
25.4
144
1.0
145
0.0
146
1.0
147
0.09
148
0.0
170
     0
171
     2
172
     0
173
     0
174
     0
175
     0
176
     0
177
     0
178
     0
179
     0
271
     4
272
     4
273
     2
274
     2
275
     0
276
     0
277
     2
278
    46
279
     0
280
     0
281
     0
282
     0
283
     1
284
     0
285
     0
286
     0
288
     0
340
17
341
0
342
0
343
0
344
0
371
    -2
372
    -2
  0
ENDTAB
  0
TABLE
  2
BLOCK_RECORD
  5
1
100
AcDbSymbolTable
 70
    14
  0
BLOCK_RECORD
  5
A
100
AcDbSymbolTableRecord
100
AcDbBlockTableRecord
  2
*MODEL_SPACE
340
20
  0
BLOCK_RECORD
  5
B
100
AcDbSymbolTableRecord
100
AcDbBlockTableRecord
  2
*PAPER_SPACE
340
21
  0
BLOCK_RECORD
  5
49
100
AcDbSymbolTableRecord
100
AcDbBlockTableRecord
  2
*G0
340
0
102
{BLKREFS
331
4C
102
}
  0
BLOCK_RECORD
  5
70
100
AcDbSymbolTableRecord
100
AcDbBlockTableRecord
  2
*G1
340
0
102
{BLKREFS
331
74
102
}
  0
BLOCK_RECORD
  5
276
100
AcDbSymbolTableRecord
100
AcDbBlockTableRecord
  2
*D2
340
0
  0
BLOCK_RECORD
  5
282
100
AcDbSymbolTableRecord
100
AcDbBlockTableRecord
  2
*D3
340
0
  0
BLOCK_RECORD
  5
28E
100
AcDbSymbolTableRecord
100
AcDbBlockTableRecord
  2
*D4
340
0
  0
BLOCK_RECORD
  5
29A
100
AcDbSymbolTableRecord
100
AcDbBlockTableRecord
  2
*D5
340
0
  0
BLOCK_RECORD
  5
2A6
100
AcDbSymbolTableRecord
100
AcDbBlockTableRecord
  2
*D6
340
0
  0
BLOCK_RECORD
  5
2B2
100
AcDbSymbolTableRecord
100
AcDbBlockTableRecord
  2
*D7
340
0
  0
BLOCK_RECORD
  5
2BE
100
AcDbSymbolTableRecord
100
AcDbBlockTableRecord
  2
*D8
340
0
  0
BLOCK_RECORD
  5
2CA
100
AcDbSymbolTableRecord
100
AcDbBlockTableRecord
  2
*D9
340
0
  0
BLOCK_RECORD
  5
312
100
AcDbSymbolTableRecord
100
AcDbBlockTableRecord
  2
*D10
340
0
  0
BLOCK_RECORD
  5
31E
100
AcDbSymbolTableRecord
100
AcDbBlockTableRecord
  2
*D11
340
0
  0
BLOCK_RECORD
  5
32A
100
AcDbSymbolTableRecord
100
AcDbBlockTableRecord
  2
*D12
340
0
  0
BLOCK_RECORD
  5
336
100
AcDbSymbolTableRecord
100
AcDbBlockTableRecord
  2
*D13
340
0
  0
ENDTAB
  0
ENDSEC
  0
SECTION
  2
BLOCKS
  0
BLOCK
  5
D
100
AcDbEntity
  8
0
100
AcDbBlockBegin
  2
*MODEL_SPACE
 70
     0
 10
0.0
 20
0.0
 30
0.0
  3
*MODEL_SPACE
  1

  0
ENDBLK
  5
E
100
AcDbEntity
  8
0
100
AcDbBlockEnd
  0
BLOCK
  5
F
100
AcDbEntity
 67
     1
  8
0
100
AcDbBlockBegin
  2
*PAPER_SPACE
 70
     0
 10
0.0
 20
0.0
 30
0.0
  3
*PAPER_SPACE
  1

  0
ENDBLK
  5
10
100
AcDbEntity
 67
     1
  8
0
100
AcDbBlockEnd
  0
BLOCK
  5
4A
100
AcDbEntity
  8
0
370
     9
  6
Continuous
 62
     7
100
AcDbBlockBegin
  2
*G0
 70
     0
 10
0.0
 20
0.0
 30
0.0
  3
*G0
  1

  0
ENDBLK
  5
4B
100
AcDbEntity
  8
0
100
AcDbBlockEnd
  0
BLOCK
  5
71
100
AcDbEntity
  8
0
370
     9
  6
Continuous
 62
    96
100
AcDbBlockBegin
  2
*G1
 70
     0
 10
0.0
 20
0.0
 30
0.0
  3
*G1
  1

  0
LINE
  5
72
100
AcDbEntity
  8
15
370
     9
  6
Continuous
 62
    96
100
AcDbLine
 10
973.031748
 20
77.236999
 30
0.0
 11
973.831714
 21
77.236999
 31
0.0
  0
ENDBLK
  5
73
100
AcDbEntity
  8
0
100
AcDbBlockEnd
  0
BLOCK
  5
277
100
AcDbEntity
  8
2
370
     9
  6
Continuous
 62
   214
100
AcDbBlockBegin
  2
*D2
 70
     0
 10
0.0
 20
0.0
 30
0.0
  3
*D2
  1

  0
LINE
  5
278
100
AcDbEntity
  8
2
370
     9
  6
Continuous
 62
   214
100
AcDbLine
 10
645.398852
 20
256.121206
 30
0.0
 11
837.398852
 21
256.121206
 31
0.0
  0
LINE
  5
279
100
AcDbEntity
  8
2
370
     9
  6
Continuous
 62
   214
100
AcDbLine
 10
645.398852
 20
250.121206
 30
0.0
 11
645.398852
 21
284.121206
 31
0.0
  0
LINE
  5
27A
100
AcDbEntity
  8
2
370
     9
  6
Continuous
 62
   214
100
AcDbLine
 10
837.398852
 20
250.121206
 30
0.0
 11
837.398852
 21
284.121206
 31
0.0
  0
LINE
  5
27B
100
AcDbEntity
  8
2
370
     9
  6
Continuous
 62
   214
100
AcDbLine
 10
645.398852
 20
256.121206
 30
0.0
 11
652.353518
 21
257.984703
 31
0.0
  0
LINE
  5
27C
100
AcDbEntity
  8
2
370
     9
  6
Continuous
 62
   214
100
AcDbLine
 10
645.398852
 20
256.121206
 30
0.0
 11
652.353518
 21
254.257709
 31
0.0
  0
LINE
  5
27D
100
AcDbEntity
  8
2
370
     9
  6
Continuous
 62
   214
100
AcDbLine
 10
837.398852
 20
256.121206
 30
0.0
 11
830.444186
 21
254.257709
 31
0.0
  0
LINE
  5
27E
100
AcDbEntity
  8
2
370
     9
  6
Continuous
 62
   214
100
AcDbLine
 10
837.398852
 20
256.121206
 30
0.0
 11
830.444186
 21
257.984703
 31
0.0
  0
TEXT
  5
27F
100
AcDbEntity
  8
2
370
     9
  6
Continuous
 62
   214
100
AcDbText
 10
734.048852
 20
257.621206
 30
0.0
 40
9.0
  1
192
 41
0.544444
 11
734.048852
 21
257.621206
 31
0.0
100
AcDbText
 73
     1
  0
ENDBLK
  5
280
100
AcDbEntity
  8
2
370
     9
  6
Continuous
 62
   214
100
AcDbBlockEnd
  0
BLOCK
  5
283
100
AcDbEntity
  8
2
370
     9
  6
Continuous
 62
   214
100
AcDbBlockBegin
  2
*D3
 70
     0
 10
0.0
 20
0.0
 30
0.0
  3
*D3
  1

  0
LINE
  5
284
100
AcDbEntity
  8
2
370
     9
  6
Continuous
 62
   214
100
AcDbLine
 10
766.398852
 20
462.461207
 30
0.0
 11
741.398852
 21
462.461207
 31
0.0
  0
LINE
  5
285
100
AcDbEntity
  8
2
370
     9
  6
Continuous
 62
   214
100
AcDbLine
 10
766.398852
 20
468.461207
 30
0.0
 11
766.398852
 21
450.425513
 31
0.0
  0
LINE
  5
286
100
AcDbEntity
  8
2
370
     9
  6
Continuous
 62
   214
100
AcDbLine
 10
741.398852
 20
468.461207
 30
0.0
 11
741.398852
 21
450.222865
 31
0.0
  0
LINE
  5
287
100
AcDbEntity
  8
2
370
     9
  6
Continuous
 62
   214
100
AcDbLine
 10
766.398852
 20
462.461207
 30
0.0
 11
759.444186
 21
460.597709
 31
0.0
  0
LINE
  5
288
100
AcDbEntity
  8
2
370
     9
  6
Continuous
 62
   214
100
AcDbLine
 10
766.398852
 20
462.461207
 30
0.0
 11
759.444186
 21
464.324704
 31
0.0
  0
LINE
  5
289
100
AcDbEntity
  8
2
370
     9
  6
Continuous
 62
   214
100
AcDbLine
 10
741.398852
 20
462.461207
 30
0.0
 11
748.353518
 21
464.324704
 31
0.0
  0
LINE
  5
28A
100
AcDbEntity
  8
2
370
     9
  6
Continuous
 62
   214
100
AcDbLine
 10
741.398852
 20
462.461207
 30
0.0
 11
748.353518
 21
460.597709
 31
0.0
  0
TEXT
  5
28B
100
AcDbEntity
  8
2
370
     9
  6
Continuous
 62
   214
100
AcDbText
 10
749.098852
 20
463.961207
 30
0.0
 40
9.0
  1
25
 41
0.533333
 11
749.098852
 21
463.961207
 31
0.0
100
AcDbText
 73
     1
  0
ENDBLK
  5
28C
100
AcDbEntity
  8
2
370
     9
  6
Continuous
 62
   214
100
AcDbBlockEnd
  0
BLOCK
  5
28F
100
AcDbEntity
  8
2
370
     9
  6
Continuous
 62
   214
100
AcDbBlockBegin
  2
*D4
 70
     0
 10
0.0
 20
0.0
 30
0.0
  3
*D4
  1

  0
LINE
  5
290
100
AcDbEntity
  8
2
370
     9
  6
Continuous
 62
   214
100
AcDbLine
 10
729.898852
 20
383.101902
 30
0.0
 11
802.898852
 21
383.101902
 31
0.0
  0
LINE
  5
291
100
AcDbEntity
  8
2
370
     9
  6
Continuous
 62
   214
100
AcDbLine
 10
729.898852
 20
377.101902
 30
0.0
 11
729.898852
 21
411.121206
 31
0.0
  0
LINE
  5
292
100
AcDbEntity
  8
2
370
     9
  6
Continuous
 62
   214
100
AcDbLine
 10
802.898852
 20
377.101902
 30
0.0
 11
802.898852
 21
411.121206
 31
0.0
  0
LINE
  5
293
100
AcDbEntity
  8
2
370
     9
  6
Continuous
 62
   214
100
AcDbLine
 10
729.898852
 20
383.101902
 30
0.0
 11
736.853518
 21
384.9654
 31
0.0
  0
LINE
  5
294
100
AcDbEntity
  8
2
370
     9
  6
Continuous
 62
   214
100
AcDbLine
 10
729.898852
 20
383.101902
 30
0.0
 11
736.853518
 21
381.238405
 31
0.0
  0
LINE
  5
295
100
AcDbEntity
  8
2
370
     9
  6
Continuous
 62
   214
100
AcDbLine
 10
802.898852
 20
383.101902
 30
0.0
 11
795.944186
 21
381.238405
 31
0.0
  0
LINE
  5
296
100
AcDbEntity
  8
2
370
     9
  6
Continuous
 62
   214
100
AcDbLine
 10
802.898852
 20
383.101902
 30
0.0
 11
795.944186
 21
384.9654
 31
0.0
  0
TEXT
  5
297
100
AcDbEntity
  8
2
370
     9
  6
Continuous
 62
   214
100
AcDbText
 10
761.598852
 20
384.601902
 30
0.0
 40
9.0
  1
73
 41
0.533333
 11
761.598852
 21
384.601902
 31
0.0
100
AcDbText
 73
     1
  0
ENDBLK
  5
298
100
AcDbEntity
  8
2
370
     9
  6
Continuous
 62
   214
100
AcDbBlockEnd
  0
BLOCK
  5
29B
100
AcDbEntity
  8
2
370
     9
  6
Continuous
 62
   214
100
AcDbBlockBegin
  2
*D5
 70
     0
 10
0.0
 20
0.0
 30
0.0
  3
*D5
  1

  0
LINE
  5
29C
100
AcDbEntity
  8
2
370
     9
  6
Continuous
 62
   214
100
AcDbLine
 10
384.106379
 20
586.121206
 30
0.0
 11
384.106379
 21
286.121206
 31
0.0
  0
LINE
  5
29D
100
AcDbEntity
  8
2
370
     9
  6
Continuous
 62
   214
100
AcDbLine
 10
390.106379
 20
586.121206
 30
0.0
 11
360.106379
 21
586.121206
 31
0.0
  0
LINE
  5
29E
100
AcDbEntity
  8
2
370
     9
  6
Continuous
 62
   214
100
AcDbLine
 10
390.106379
 20
286.121206
 30
0.0
 11
360.106379
 21
286.121206
 31
0.0
  0
LINE
  5
29F
100
AcDbEntity
  8
2
370
     9
  6
Continuous
 62
   214
100
AcDbLine
 10
384.106379
 20
586.121206
 30
0.0
 11
385.969876
 21
579.16654
 31
0.0
  0
LINE
  5
2A0
100
AcDbEntity
  8
2
370
     9
  6
Continuous
 62
   214
100
AcDbLine
 10
384.106379
 20
586.121206
 30
0.0
 11
382.242882
 21
579.16654
 31
0.0
  0
LINE
  5
2A1
100
AcDbEntity
  8
2
370
     9
  6
Continuous
 62
   214
100
AcDbLine
 10
384.106379
 20
286.121206
 30
0.0
 11
382.242882
 21
293.075872
 31
0.0
  0
LINE
  5
2A2
100
AcDbEntity
  8
2
370
     9
  6
Continuous
 62
   214
100
AcDbLine
 10
384.106379
 20
286.121206
 30
0.0
 11
385.969876
 21
293.075872
 31
0.0
  0
TEXT
  5
2A3
100
AcDbEntity
  8
2
370
     9
  6
Continuous
 62
   214
100
AcDbText
 10
382.606379
 20
428.771206
 30
0.0
 40
9.0
  1
300
 50
90.0
 41
0.544444
 11
382.606379
 21
428.771206
 31
0.0
100
AcDbText
 73
     1
  0
ENDBLK
  5
2A4
100
AcDbEntity
  8
2
370
     9
  6
Continuous
 62
   214
100
AcDbBlockEnd
  0
BLOCK
  5
2A7
100
AcDbEntity
  8
2
370
     9
  6
Continuous
 62
   214
100
AcDbBlockBegin
  2
*D6
 70
     0
 10
0.0
 20
0.0
 30
0.0
  3
*D6
  1

  0
LINE
  5
2A8
100
AcDbEntity
  8
2
370
     9
  6
Continuous
 62
   214
100
AcDbLine
 10
878.898852
 20
577.621206
 30
0.0
 11
878.898852
 21
297.621206
 31
0.0
  0
LINE
  5
2A9
100
AcDbEntity
  8
2
370
     9
  6
Continuous
 62
   214
100
AcDbLine
 10
884.898852
 20
577.621206
 30
0.0
 11
753.601072
 21
577.621206
 31
0.0
  0
LINE
  5
2AA
100
AcDbEntity
  8
2
370
     9
  6
Continuous
 62
   214
100
AcDbLine
 10
884.898852
 20
297.621206
 30
0.0
 11
850.898852
 21
297.621206
 31
0.0
  0
LINE
  5
2AB
100
AcDbEntity
  8
2
370
     9
  6
Continuous
 62
   214
100
AcDbLine
 10
878.898852
 20
577.621206
 30
0.0
 11
880.762349
 21
570.66654
 31
0.0
  0
LINE
  5
2AC
100
AcDbEntity
  8
2
370
     9
  6
Continuous
 62
   214
100
AcDbLine
 10
878.898852
 20
577.621206
 30
0.0
 11
877.035355
 21
570.66654
 31
0.0
  0
LINE
  5
2AD
100
AcDbEntity
  8
2
370
     9
  6
Continuous
 62
   214
100
AcDbLine
 10
878.898852
 20
297.621206
 30
0.0
 11
877.035355
 21
304.575872
 31
0.0
  0
LINE
  5
2AE
100
AcDbEntity
  8
2
370
     9
  6
Continuous
 62
   214
100
AcDbLine
 10
878.898852
 20
297.621206
 30
0.0
 11
880.762349
 21
304.575872
 31
0.0
  0
TEXT
  5
2AF
100
AcDbEntity
  8
2
370
     9
  6
Continuous
 62
   214
100
AcDbText
 10
877.398852
 20
430.271206
 30
0.0
 40
9.0
  1
280
 50
90.0
 41
0.544444
 11
877.398852
 21
430.271206
 31
0.0
100
AcDbText
 73
     1
  0
ENDBLK
  5
2B0
100
AcDbEntity
  8
2
370
     9
  6
Continuous
 62
   214
100
AcDbBlockEnd
  0
BLOCK
  5
2B3
100
AcDbEntity
  8
2
370
     9
  6
Continuous
 62
   214
100
AcDbBlockBegin
  2
*D7
 70
     0
 10
0.0
 20
0.0
 30
0.0
  3
*D7
  1

  0
LINE
  5
2B4
100
AcDbEntity
  8
2
370
     9
  6
Continuous
 62
   214
100
AcDbLine
 10
878.898852
 20
297.621206
 30
0.0
 11
878.898852
 21
256.121206
 31
0.0
  0
LINE
  5
2B5
100
AcDbEntity
  8
2
370
     9
  6
Continuous
 62
   214
100
AcDbLine
 10
884.898852
 20
297.621206
 30
0.0
 11
850.898852
 21
297.621206
 31
0.0
  0
LINE
  5
2B6
100
AcDbEntity
  8
2
370
     9
  6
Continuous
 62
   214
100
AcDbLine
 10
884.898852
 20
286.121206
 30
0.0
 11
854.898852
 21
286.121206
 31
0.0
  0
LINE
  5
2B7
100
AcDbEntity
  8
2
370
     9
  6
Continuous
 62
   214
100
AcDbLine
 10
878.898852
 20
297.621206
 30
0.0
 11
877.035355
 21
304.575872
 31
0.0
  0
LINE
  5
2B8
100
AcDbEntity
  8
2
370
     9
  6
Continuous
 62
   214
100
AcDbLine
 10
878.898852
 20
297.621206
 30
0.0
 11
880.762349
 21
304.575872
 31
0.0
  0
LINE
  5
2B9
100
AcDbEntity
  8
2
370
     9
  6
Continuous
 62
   214
100
AcDbLine
 10
878.898852
 20
286.121206
 30
0.0
 11
880.762349
 21
279.16654
 31
0.0
  0
LINE
  5
2BA
100
AcDbEntity
  8
2
370
     9
  6
Continuous
 62
   214
100
AcDbLine
 10
878.898852
 20
286.121206
 30
0.0
 11
877.035355
 21
279.16654
 31
0.0
  0
TEXT
  5
2BB
100
AcDbEntity
  8
2
370
     9
  6
Continuous
 62
   214
100
AcDbText
 10
877.398852
 20
256.470807
 30
0.0
 40
9.0
  1
11.5
 50
90.0
 41
0.611111
 11
877.398852
 21
256.470807
 31
0.0
100
AcDbText
 73
     1
  0
ENDBLK
  5
2BC
100
AcDbEntity
  8
2
370
     9
  6
Continuous
 62
   214
100
AcDbBlockEnd
  0
BLOCK
  5
2BF
100
AcDbEntity
  8
2
370
     9
  6
Continuous
 62
   214
100
AcDbBlockBegin
  2
*D8
 70
     0
 10
0.0
 20
0.0
 30
0.0
  3
*D8
  1

  0
LINE
  5
2C0
100
AcDbEntity
  8
2
370
     9
  6
Continuous
 62
   214
100
AcDbLine
 10
832.497995
 20
428.121206
 30
0.0
 11
832.497995
 21
406.121206
 31
0.0
  0
LINE
  5
2C1
100
AcDbEntity
  8
2
370
     9
  6
Continuous
 62
   214
100
AcDbLine
 10
838.497995
 20
428.121206
 30
0.0
 11
797.898852
 21
428.121206
 31
0.0
  0
LINE
  5
2C2
100
AcDbEntity
  8
2
370
     9
  6
Continuous
 62
   214
100
AcDbLine
 10
838.497995
 20
406.121206
 30
0.0
 11
797.498852
 21
406.121206
 31
0.0
  0
LINE
  5
2C3
100
AcDbEntity
  8
2
370
     9
  6
Continuous
 62
   214
100
AcDbLine
 10
832.497995
 20
428.121206
 30
0.0
 11
834.361492
 21
421.16654
 31
0.0
  0
LINE
  5
2C4
100
AcDbEntity
  8
2
370
     9
  6
Continuous
 62
   214
100
AcDbLine
 10
832.497995
 20
428.121206
 30
0.0
 11
830.634498
 21
421.16654
 31
0.0
  0
LINE
  5
2C5
100
AcDbEntity
  8
2
370
     9
  6
Continuous
 62
   214
100
AcDbLine
 10
832.497995
 20
406.121206
 30
0.0
 11
830.634498
 21
413.075872
 31
0.0
  0
LINE
  5
2C6
100
AcDbEntity
  8
2
370
     9
  6
Continuous
 62
   214
100
AcDbLine
 10
832.497995
 20
406.121206
 30
0.0
 11
834.361492
 21
413.075872
 31
0.0
  0
TEXT
  5
2C7
100
AcDbEntity
  8
2
370
     9
  6
Continuous
 62
   214
100
AcDbText
 10
830.997995
 20
412.321206
 30
0.0
 40
9.0
  1
22
 50
90.0
 41
0.533333
 11
830.997995
 21
412.321206
 31
0.0
100
AcDbText
 73
     1
  0
ENDBLK
  5
2C8
100
AcDbEntity
  8
2
370
     9
  6
Continuous
 62
   214
100
AcDbBlockEnd
  0
BLOCK
  5
2CB
100
AcDbEntity
  8
2
370
     9
  6
Continuous
 62
   214
100
AcDbBlockBegin
  2
*D9
 70
     0
 10
0.0
 20
0.0
 30
0.0
  3
*D9
  1

  0
LINE
  5
2CC
100
AcDbEntity
  8
2
370
     9
  6
Continuous
 62
   214
100
AcDbLine
 10
706.23688
 20
417.121206
 30
0.0
 11
706.23688
 21
436.121206
 31
0.0
  0
LINE
  5
2CD
100
AcDbEntity
  8
2
370
     9
  6
Continuous
 62
   214
100
AcDbLine
 10
700.23688
 20
417.121206
 30
0.0
 11
716.854037
 21
417.121206
 31
0.0
  0
LINE
  5
2CE
100
AcDbEntity
  8
2
370
     9
  6
Continuous
 62
   214
100
AcDbLine
 10
700.23688
 20
436.121206
 30
0.0
 11
716.854037
 21
436.121206
 31
0.0
  0
LINE
  5
2CF
100
AcDbEntity
  8
2
370
     9
  6
Continuous
 62
   214
100
AcDbLine
 10
706.23688
 20
417.121206
 30
0.0
 11
704.373383
 21
424.075872
 31
0.0
  0
LINE
  5
2D0
100
AcDbEntity
  8
2
370
     9
  6
Continuous
 62
   214
100
AcDbLine
 10
706.23688
 20
417.121206
 30
0.0
 11
708.100378
 21
424.075872
 31
0.0
  0
LINE
  5
2D1
100
AcDbEntity
  8
2
370
     9
  6
Continuous
 62
   214
100
AcDbLine
 10
706.23688
 20
436.121206
 30
0.0
 11
708.100378
 21
429.16654
 31
0.0
  0
LINE
  5
2D2
100
AcDbEntity
  8
2
370
     9
  6
Continuous
 62
   214
100
AcDbLine
 10
706.23688
 20
436.121206
 30
0.0
 11
704.373383
 21
429.16654
 31
0.0
  0
TEXT
  5
2D3
100
AcDbEntity
  8
2
370
     9
  6
Continuous
 62
   214
100
AcDbText
 10
704.73688
 20
421.821206
 30
0.0
 40
9.0
  1
19
 50
90.0
 41
0.533333
 11
704.73688
 21
421.821206
 31
0.0
100
AcDbText
 73
     1
  0
ENDBLK
  5
2D4
100
AcDbEntity
  8
2
370
     9
  6
Continuous
 62
   214
100
AcDbBlockEnd
  0
BLOCK
  5
313
100
AcDbEntity
  8
2
370
     9
  6
Continuous
 62
   214
100
AcDbBlockBegin
  2
*D10
 70
     0
 10
0.0
 20
0.0
 30
0.0
  3
*D10
  1

  0
LINE
  5
314
100
AcDbEntity
  8
2
370
     9
  6
Continuous
 62
   214
100
AcDbLine
 10
139.106379
 20
646.121206
 30
0.0
 11
354.106379
 21
646.121206
 31
0.0
  0
LINE
  5
315
100
AcDbEntity
  8
2
370
     9
  6
Continuous
 62
   214
100
AcDbLine
 10
139.106379
 20
652.121206
 30
0.0
 11
139.106379
 21
592.121206
 31
0.0
  0
LINE
  5
316
100
AcDbEntity
  8
2
370
     9
  6
Continuous
 62
   214
100
AcDbLine
 10
354.106379
 20
652.121206
 30
0.0
 11
354.106379
 21
592.121206
 31
0.0
  0
LINE
  5
317
100
AcDbEntity
  8
2
370
     9
  6
Continuous
 62
   214
100
AcDbLine
 10
139.106379
 20
646.121206
 30
0.0
 11
146.061045
 21
647.984703
 31
0.0
  0
LINE
  5
318
100
AcDbEntity
  8
2
370
     9
  6
Continuous
 62
   214
100
AcDbLine
 10
139.106379
 20
646.121206
 30
0.0
 11
146.061045
 21
644.257709
 31
0.0
  0
LINE
  5
319
100
AcDbEntity
  8
2
370
     9
  6
Continuous
 62
   214
100
AcDbLine
 10
354.106379
 20
646.121206
 30
0.0
 11
347.151713
 21
644.257709
 31
0.0
  0
LINE
  5
31A
100
AcDbEntity
  8
2
370
     9
  6
Continuous
 62
   214
100
AcDbLine
 10
354.106379
 20
646.121206
 30
0.0
 11
347.151713
 21
647.984703
 31
0.0
  0
TEXT
  5
31B
100
AcDbEntity
  8
2
370
     9
  6
Continuous
 62
   214
100
AcDbText
 10
239.256379
 20
647.621206
 30
0.0
 40
9.0
  1
215
 41
0.544444
 11
239.256379
 21
647.621206
 31
0.0
100
AcDbText
 73
     1
  0
ENDBLK
  5
31C
100
AcDbEntity
  8
2
370
     9
  6
Continuous
 62
   214
100
AcDbBlockEnd
  0
BLOCK
  5
31F
100
AcDbEntity
  8
2
370
     9
  6
Continuous
 62
   214
100
AcDbBlockBegin
  2
*D11
 70
     0
 10
0.0
 20
0.0
 30
0.0
  3
*D11
  1

  0
LINE
  5
320
100
AcDbEntity
  8
2
370
     9
  6
Continuous
 62
   214
100
AcDbLine
 10
456.173547
 20
646.121206
 30
0.0
 11
531.173547
 21
646.121206
 31
0.0
  0
LINE
  5
321
100
AcDbEntity
  8
2
370
     9
  6
Continuous
 62
   214
100
AcDbLine
 10
456.173547
 20
652.121206
 30
0.0
 11
456.173547
 21
591.130775
 31
0.0
  0
LINE
  5
322
100
AcDbEntity
  8
2
370
     9
  6
Continuous
 62
   214
100
AcDbLine
 10
531.173547
 20
652.121206
 30
0.0
 11
531.173547
 21
592.130775
 31
0.0
  0
LINE
  5
323
100
AcDbEntity
  8
2
370
     9
  6
Continuous
 62
   214
100
AcDbLine
 10
456.173547
 20
646.121206
 30
0.0
 11
463.128213
 21
647.984703
 31
0.0
  0
LINE
  5
324
100
AcDbEntity
  8
2
370
     9
  6
Continuous
 62
   214
100
AcDbLine
 10
456.173547
 20
646.121206
 30
0.0
 11
463.128213
 21
644.257709
 31
0.0
  0
LINE
  5
325
100
AcDbEntity
  8
2
370
     9
  6
Continuous
 62
   214
100
AcDbLine
 10
531.173547
 20
646.121206
 30
0.0
 11
524.218881
 21
644.257709
 31
0.0
  0
LINE
  5
326
100
AcDbEntity
  8
2
370
     9
  6
Continuous
 62
   214
100
AcDbLine
 10
531.173547
 20
646.121206
 30
0.0
 11
524.218881
 21
647.984703
 31
0.0
  0
TEXT
  5
327
100
AcDbEntity
  8
2
370
     9
  6
Continuous
 62
   214
100
AcDbText
 10
488.873547
 20
647.621206
 30
0.0
 40
9.0
  1
75
 41
0.533333
 11
488.873547
 21
647.621206
 31
0.0
100
AcDbText
 73
     1
  0
ENDBLK
  5
328
100
AcDbEntity
  8
2
370
     9
  6
Continuous
 62
   214
100
AcDbBlockEnd
  0
BLOCK
  5
32B
100
AcDbEntity
  8
2
370
     9
  6
Continuous
 62
   214
100
AcDbBlockBegin
  2
*D12
 70
     0
 10
0.0
 20
0.0
 30
0.0
  3
*D12
  1

  0
LINE
  5
32C
100
AcDbEntity
  8
2
370
     9
  6
Continuous
 62
   214
100
AcDbLine
 10
354.106379
 20
616.121206
 30
0.0
 11
274.606379
 21
616.121206
 31
0.0
  0
LINE
  5
32D
100
AcDbEntity
  8
2
370
     9
  6
Continuous
 62
   214
100
AcDbLine
 10
354.106379
 20
622.121206
 30
0.0
 11
354.106379
 21
592.121206
 31
0.0
  0
LINE
  5
32E
100
AcDbEntity
  8
2
370
     9
  6
Continuous
 62
   214
100
AcDbLine
 10
274.606379
 20
622.121206
 30
0.0
 11
274.606379
 21
598.121206
 31
0.0
  0
LINE
  5
32F
100
AcDbEntity
  8
2
370
     9
  6
Continuous
 62
   214
100
AcDbLine
 10
354.106379
 20
616.121206
 30
0.0
 11
347.151713
 21
614.257709
 31
0.0
  0
LINE
  5
330
100
AcDbEntity
  8
2
370
     9
  6
Continuous
 62
   214
100
AcDbLine
 10
354.106379
 20
616.121206
 30
0.0
 11
347.151713
 21
617.984703
 31
0.0
  0
LINE
  5
331
100
AcDbEntity
  8
2
370
     9
  6
Continuous
 62
   214
100
AcDbLine
 10
274.606379
 20
616.121206
 30
0.0
 11
281.561045
 21
617.984703
 31
0.0
  0
LINE
  5
332
100
AcDbEntity
  8
2
370
     9
  6
Continuous
 62
   214
100
AcDbLine
 10
274.606379
 20
616.121206
 30
0.0
 11
281.561045
 21
614.257709
 31
0.0
  0
TEXT
  5
333
100
AcDbEntity
  8
2
370
     9
  6
Continuous
 62
   214
100
AcDbText
 10
304.456379
 20
617.621206
 30
0.0
 40
9.0
  1
79.5
 41
0.611111
 11
304.456379
 21
617.621206
 31
0.0
100
AcDbText
 73
     1
  0
ENDBLK
  5
334
100
AcDbEntity
  8
2
370
     9
  6
Continuous
 62
   214
100
AcDbBlockEnd
  0
BLOCK
  5
337
100
AcDbEntity
  8
2
370
     9
  6
Continuous
 62
   214
100
AcDbBlockBegin
  2
*D13
 70
     0
 10
0.0
 20
0.0
 30
0.0
  3
*D13
  1

  0
LINE
  5
338
100
AcDbEntity
  8
2
370
     9
  6
Continuous
 62
   214
100
AcDbLine
 10
531.173547
 20
616.121206
 30
0.0
 11
506.173547
 21
616.121206
 31
0.0
  0
LINE
  5
339
100
AcDbEntity
  8
2
370
     9
  6
Continuous
 62
   214
100
AcDbLine
 10
531.173547
 20
622.121206
 30
0.0
 11
531.173547
 21
592.130775
 31
0.0
  0
LINE
  5
33A
100
AcDbEntity
  8
2
370
     9
  6
Continuous
 62
   214
100
AcDbLine
 10
506.173547
 20
622.121206
 30
0.0
 11
506.173547
 21
598.130775
 31
0.0
  0
LINE
  5
33B
100
AcDbEntity
  8
2
370
     9
  6
Continuous
 62
   214
100
AcDbLine
 10
531.173547
 20
616.121206
 30
0.0
 11
524.218881
 21
614.257709
 31
0.0
  0
LINE
  5
33C
100
AcDbEntity
  8
2
370
     9
  6
Continuous
 62
   214
100
AcDbLine
 10
531.173547
 20
616.121206
 30
0.0
 11
524.218881
 21
617.984703
 31
0.0
  0
LINE
  5
33D
100
AcDbEntity
  8
2
370
     9
  6
Continuous
 62
   214
100
AcDbLine
 10
506.173547
 20
616.121206
 30
0.0
 11
513.128213
 21
617.984703
 31
0.0
  0
LINE
  5
33E
100
AcDbEntity
  8
2
370
     9
  6
Continuous
 62
   214
100
AcDbLine
 10
506.173547
 20
616.121206
 30
0.0
 11
513.128213
 21
614.257709
 31
0.0
  0
TEXT
  5
33F
100
AcDbEntity
  8
2
370
     9
  6
Continuous
 62
   214
100
AcDbText
 10
513.873547
 20
617.621206
 30
0.0
 40
9.0
  1
25
 41
0.533333
 11
513.873547
 21
617.621206
 31
0.0
100
AcDbText
 73
     1
  0
ENDBLK
  5
340
100
AcDbEntity
  8
2
370
     9
  6
Continuous
 62
   214
100
AcDbBlockEnd
  0
ENDSEC
  0
SECTION
  2
ENTITIES
  0
INSERT
  5
4C
100
AcDbEntity
  8
0
370
     9
  6
Continuous
 62
     7
100
AcDbBlockReference
  2
*G0
 10
0.0
 20
0.0
 30
0.0
  0
LINE
  5
4D
100
AcDbEntity
  8
15
370
    50
  6
Continuous
 62
    96
100
AcDbLine
 10
45.0
 20
816.227376
 30
0.0
 11
45.0
 21
45.0
 31
0.0
  0
LINE
  5
4E
100
AcDbEntity
  8
15
370
    50
  6
Continuous
 62
    96
100
AcDbLine
 10
45.0
 20
45.0
 30
0.0
 11
1200.340622
 21
45.0
 31
0.0
  0
LINE
  5
4F
100
AcDbEntity
  8
15
370
     9
  6
Continuous
 62
    96
100
AcDbLine
 10
1093.318513
 20
62.105331
 30
0.0
 11
1055.919498
 21
62.105331
 31
0.0
  0
TEXT
  5
50
100
AcDbEntity
  8
15
370
     9
  6
Continuous
 62
    96
100
AcDbText
 10
1002.614054
 20
59.073423
 30
0.0
 40
5.401593
  1
出入管理システム
 41
1.018519
 11
1002.614054
 21
59.073423
 31
0.0
100
AcDbText
 73
     1
  0
TEXT
  5
51
100
AcDbEntity
  8
15
370
     9
  6
Continuous
 62
    96
100
AcDbText
 10
1002.82579
 20
47.427952
 30
0.0
 40
10.803185
  1
株式会社
 41
1.753472
 11
1002.82579
 21
47.427952
 31
0.0
100
AcDbText
 73
     1
  0
LINE
  5
52
100
AcDbEntity
  8
15
370
    30
  6
Continuous
 62
    96
100
AcDbLine
 10
943.135196
 20
47.63646
 30
0.0
 11
952.638554
 21
47.63646
 31
0.0
  0
LINE
  5
53
100
AcDbEntity
  8
15
370
    30
  6
Continuous
 62
    96
100
AcDbLine
 10
999.057562
 20
59.185644
 30
0.0
 11
999.057562
 21
62.832749
 31
0.0
  0
LINE
  5
54
100
AcDbEntity
  8
15
370
    30
  6
Continuous
 62
    96
100
AcDbLine
 10
995.106543
 20
59.185644
 30
0.0
 11
999.057562
 21
59.185644
 31
0.0
  0
LINE
  5
55
100
AcDbEntity
  8
15
370
    30
  6
Continuous
 62
    96
100
AcDbLine
 10
995.106543
 20
47.63646
 30
0.0
 11
995.106543
 21
59.185644
 31
0.0
  0
LINE
  5
56
100
AcDbEntity
  8
15
370
    30
  6
Continuous
 62
    96
100
AcDbLine
 10
990.851576
 20
47.63646
 30
0.0
 11
995.106543
 21
47.63646
 31
0.0
  0
LINE
  5
57
100
AcDbEntity
  8
15
370
    30
  6
Continuous
 62
    96
100
AcDbLine
 10
988.294674
 20
47.63646
 30
0.0
 11
982.949504
 21
47.63646
 31
0.0
  0
LINE
  5
58
100
AcDbEntity
  8
15
370
    30
  6
Continuous
 62
    96
100
AcDbLine
 10
960.762912
 20
47.63646
 30
0.0
 11
973.831714
 21
47.63646
 31
0.0
  0
LINE
  5
59
100
AcDbEntity
  8
15
370
    30
  6
Continuous
 62
    96
100
AcDbLine
 10
960.762912
 20
54.018901
 30
0.0
 11
960.762912
 21
47.63646
 31
0.0
  0
LINE
  5
5A
100
AcDbEntity
  8
15
370
    30
  6
Continuous
 62
    96
100
AcDbLine
 10
952.638554
 20
47.63646
 30
0.0
 11
967.449281
 21
62.300544
 31
0.0
  0
LINE
  5
5B
100
AcDbEntity
  8
15
370
    30
  6
Continuous
 62
    96
100
AcDbLine
 10
967.449281
 20
62.300544
 30
0.0
 11
967.449281
 21
54.018901
 31
0.0
  0
LINE
  5
5C
100
AcDbEntity
  8
15
370
    30
  6
Continuous
 62
    96
100
AcDbLine
 10
967.449281
 20
54.018901
 30
0.0
 11
960.762912
 21
54.018901
 31
0.0
  0
LINE
  5
5D
100
AcDbEntity
  8
15
370
    30
  6
Continuous
 62
    96
100
AcDbLine
 10
973.831714
 20
56.146381
 30
0.0
 11
982.949504
 21
47.63646
 31
0.0
  0
ARC
  5
5E
100
AcDbEntity
  8
15
370
    30
  6
Continuous
 62
    96
100
AcDbCircle
 10
981.125944
 20
57.666012
 30
0.0
 40
1.519632
100
AcDbArc
 50
-90.0
 51
90.0
  0
LINE
  5
5F
100
AcDbEntity
  8
15
370
    30
  6
Continuous
 62
    96
100
AcDbLine
 10
973.831714
 20
56.146381
 30
0.0
 11
981.125944
 21
56.146381
 31
0.0
  0
LINE
  5
60
100
AcDbEntity
  8
15
370
    30
  6
Continuous
 62
    96
100
AcDbLine
 10
975.047425
 20
59.185644
 30
0.0
 11
981.125944
 21
59.185644
 31
0.0
  0
LINE
  5
61
100
AcDbEntity
  8
15
370
    30
  6
Continuous
 62
    96
100
AcDbLine
 10
975.047425
 20
62.832749
 30
0.0
 11
975.047425
 21
59.185644
 31
0.0
  0
LINE
  5
62
100
AcDbEntity
  8
15
370
    30
  6
Continuous
 62
    96
100
AcDbLine
 10
975.047425
 20
62.832749
 30
0.0
 11
982.277667
 21
62.832749
 31
0.0
  0
ARC
  5
63
100
AcDbEntity
  8
15
370
    30
  6
Continuous
 62
    96
100
AcDbCircle
 10
981.701799
 20
57.666012
 30
0.0
 40
5.19873
100
AcDbArc
 50
-76.055153
 51
83.640296
  0
LINE
  5
64
100
AcDbEntity
  8
15
370
    30
  6
Continuous
 62
    96
100
AcDbLine
 10
982.949504
 20
52.62529
 30
0.0
 11
988.294674
 21
47.63646
 31
0.0
  0
LINE
  5
65
100
AcDbEntity
  8
15
370
    30
  6
Continuous
 62
    96
100
AcDbLine
 10
999.057562
 20
62.832749
 30
0.0
 11
986.90053
 21
62.832749
 31
0.0
  0
LINE
  5
66
100
AcDbEntity
  8
15
370
    30
  6
Continuous
 62
    96
100
AcDbLine
 10
986.90053
 20
62.832749
 30
0.0
 11
986.90053
 21
59.185644
 31
0.0
  0
LINE
  5
67
100
AcDbEntity
  8
15
370
    30
  6
Continuous
 62
    96
100
AcDbLine
 10
986.90053
 20
59.185644
 30
0.0
 11
990.851576
 21
59.185644
 31
0.0
  0
LINE
  5
68
100
AcDbEntity
  8
15
370
    30
  6
Continuous
 62
    96
100
AcDbLine
 10
990.851576
 20
59.185644
 30
0.0
 11
990.851576
 21
47.63646
 31
0.0
  0
LINE
  5
69
100
AcDbEntity
  8
15
370
    30
  6
Continuous
 62
    96
100
AcDbLine
 10
930.260996
 20
45.0
 30
0.0
 11
930.260996
 21
180.039833
 31
0.0
  0
LINE
  5
6A
100
AcDbEntity
  8
15
370
     9
  6
Continuous
 62
    96
100
AcDbLine
 10
930.260996
 20
153.031871
 30
0.0
 11
1200.340622
 21
153.031871
 31
0.0
  0
LINE
  5
6B
100
AcDbEntity
  8
15
370
     9
  6
Continuous
 62
    96
100
AcDbLine
 10
930.260996
 20
153.03185
 30
0.0
 11
1200.340622
 21
153.031871
 31
0.0
  0
LINE
  5
6C
100
AcDbEntity
  8
15
370
     9
  6
Continuous
 62
    96
100
AcDbLine
 10
1200.340622
 20
81.010637
 30
0.0
 11
930.260996
 21
81.010617
 31
0.0
  0
LINE
  5
6D
100
AcDbEntity
  8
15
370
     9
  6
Continuous
 62
    96
100
AcDbLine
 10
975.274267
 20
99.015929
 30
0.0
 11
975.274267
 21
81.01062
 31
0.0
  0
LINE
  5
6E
100
AcDbEntity
  8
15
370
     9
  6
Continuous
 62
    96
100
AcDbLine
 10
973.831714
 20
47.63646
 30
0.0
 11
973.831714
 21
78.029044
 31
0.0
  0
LINE
  5
6F
100
AcDbEntity
  8
15
370
     9
  6
Continuous
 62
    96
100
AcDbLine
 10
973.831714
 20
78.029044
 30
0.0
 11
943.135196
 21
47.63646
 31
0.0
  0
INSERT
  5
74
100
AcDbEntity
  8
0
370
     9
  6
Continuous
 62
    96
100
AcDbBlockReference
  2
*G1
 10
0.0
 20
0.0
 30
0.0
  0
TEXT
  5
75
100
AcDbEntity
  8
15
370
     9
  6
Continuous
 62
    96
100
AcDbText
 10
1099.837449
 20
46.160977
 30
0.0
 40
30.008847
  1
アート
 41
0.833333
 11
1099.837449
 21
46.160977
 31
0.0
100
AcDbText
 73
     1
  0
LINE
  5
76
100
AcDbEntity
  8
15
370
     9
  6
Continuous
 62
    96
100
AcDbLine
 10
975.274267
 20
126.023888
 30
0.0
 11
975.274267
 21
99.015929
 31
0.0
  0
LINE
  5
77
100
AcDbEntity
  8
15
370
     9
  6
Continuous
 62
    96
100
AcDbLine
 10
1050.296385
 20
126.023888
 30
0.0
 11
1050.296385
 21
99.015934
 31
0.0
  0
LINE
  5
78
100
AcDbEntity
  8
15
370
     9
  6
Continuous
 62
    96
100
AcDbLine
 10
1125.318504
 20
126.023888
 30
0.0
 11
1125.318504
 21
99.01594
 31
0.0
  0
LINE
  5
79
100
AcDbEntity
  8
15
370
    30
  6
Continuous
 62
    96
100
AcDbLine
 10
930.260996
 20
799.72251
 30
0.0
 11
1200.340622
 21
799.72251
 31
0.0
  0
LINE
  5
7A
100
AcDbEntity
  8
15
370
    30
  6
Continuous
 62
    96
100
AcDbLine
 10
930.260996
 20
783.217644
 30
0.0
 11
1200.340622
 21
783.217644
 31
0.0
  0
LINE
  5
7B
100
AcDbEntity
  8
15
370
     9
  6
Continuous
 62
    96
100
AcDbLine
 10
930.260996
 20
766.712778
 30
0.0
 11
1200.340622
 21
766.712778
 31
0.0
  0
LINE
  5
7C
100
AcDbEntity
  8
15
370
     9
  6
Continuous
 62
    96
100
AcDbLine
 10
1200.340622
 20
750.207912
 30
0.0
 11
930.260996
 21
750.207912
 31
0.0
  0
LINE
  5
7D
100
AcDbEntity
  8
15
370
     9
  6
Continuous
 62
    96
100
AcDbLine
 10
930.260996
 20
684.188448
 30
0.0
 11
1200.340622
 21
684.188448
 31
0.0
  0
LINE
  5
7E
100
AcDbEntity
  8
15
370
     9
  6
Continuous
 62
    96
100
AcDbLine
 10
930.260996
 20
700.693314
 30
0.0
 11
1200.340622
 21
700.693314
 31
0.0
  0
LINE
  5
7F
100
AcDbEntity
  8
15
370
    30
  6
Continuous
 62
    96
100
AcDbLine
 10
930.260996
 20
816.227376
 30
0.0
 11
930.260996
 21
217.550893
 31
0.0
  0
LINE
  5
80
100
AcDbEntity
  8
15
370
    30
  6
Continuous
 62
    96
100
AcDbLine
 10
930.260996
 20
180.039833
 30
0.0
 11
930.260996
 21
217.550893
 31
0.0
  0
LINE
  5
81
100
AcDbEntity
  8
15
370
    50
  6
Continuous
 62
    96
100
AcDbLine
 10
45.0
 20
816.227376
 30
0.0
 11
1200.3414
 21
816.227376
 31
0.0
  0
LINE
  5
82
100
AcDbEntity
  8
15
370
    50
  6
Continuous
 62
    96
100
AcDbLine
 10
1200.3414
 20
44.999031
 30
0.0
 11
1200.3414
 21
816.226408
 31
0.0
  0
LINE
  5
83
100
AcDbEntity
  8
15
370
     9
  6
Continuous
 62
    96
100
AcDbLine
 10
930.259433
 20
178.539371
 30
0.0
 11
1200.339059
 21
178.539371
 31
0.0
  0
LINE
  5
84
100
AcDbEntity
  8
15
370
     9
  6
Continuous
 62
    96
100
AcDbLine
 10
1004.857971
 20
816.227376
 30
0.0
 11
1004.857971
 21
799.72251
 31
0.0
  0
LINE
  5
85
100
AcDbEntity
  8
15
370
    30
  6
Continuous
 62
    96
100
AcDbLine
 10
930.259433
 20
195.044237
 30
0.0
 11
1200.339059
 21
195.044237
 31
0.0
  0
LINE
  5
86
100
AcDbEntity
  8
15
370
    30
  6
Continuous
 62
    96
100
AcDbLine
 10
930.259433
 20
178.539371
 30
0.0
 11
1200.339059
 21
178.539371
 31
0.0
  0
LINE
  5
87
100
AcDbEntity
  8
15
370
     9
  6
Continuous
 62
    96
100
AcDbLine
 10
1005.281551
 20
195.044237
 30
0.0
 11
1005.281551
 21
178.539371
 31
0.0
  0
LINE
  5
88
100
AcDbEntity
  8
15
370
    30
  6
Continuous
 62
    96
100
AcDbLine
 10
930.259433
 20
178.539371
 30
0.0
 11
1200.339059
 21
178.539371
 31
0.0
  0
LINE
  5
89
100
AcDbEntity
  8
15
370
     9
  6
Continuous
 62
    96
100
AcDbLine
 10
1065.361504
 20
99.010627
 30
0.0
 11
1065.361504
 21
81.010627
 31
0.0
  0
LINE
  5
8A
100
AcDbEntity
  8
15
370
     9
  6
Continuous
 62
    96
100
AcDbLine
 10
1086.361504
 20
99.010642
 30
0.0
 11
1086.361504
 21
81.010642
 31
0.0
  0
LINE
  5
8B
100
AcDbEntity
  8
15
370
     9
  6
Continuous
 62
    96
100
AcDbLine
 10
1164.340622
 20
99.010635
 30
0.0
 11
1164.340622
 21
81.010635
 31
0.0
  0
LINE
  5
8C
100
AcDbEntity
  8
15
370
     9
  6
Continuous
 62
    96
100
AcDbLine
 10
1173.49269
 20
96.730635
 30
0.0
 11
1173.49269
 21
83.290635
 31
0.0
  0
CIRCLE
  5
8D
100
AcDbEntity
  8
15
370
     9
  6
Continuous
 62
    96
100
AcDbCircle
 10
1173.49269
 20
90.010635
 30
0.0
 40
2.88
  0
CIRCLE
  5
8E
100
AcDbEntity
  8
15
370
     9
  6
Continuous
 62
    96
100
AcDbCircle
 10
1173.49269
 20
90.010635
 30
0.0
 40
4.8
  0
LINE
  5
8F
100
AcDbEntity
  8
15
370
     9
  6
Continuous
 62
    96
100
AcDbLine
 10
1181.410504
 20
92.890635
 30
0.0
 11
1181.410504
 21
87.130635
 31
0.0
  0
LINE
  5
90
100
AcDbEntity
  8
15
370
     9
  6
Continuous
 62
    96
100
AcDbLine
 10
1196.770504
 20
94.810635
 30
0.0
 11
1196.770504
 21
85.210635
 31
0.0
  0
LINE
  5
91
100
AcDbEntity
  8
15
370
     9
  6
Continuous
 62
    96
100
AcDbLine
 10
1181.410504
 20
92.890635
 30
0.0
 11
1196.770504
 21
94.810635
 31
0.0
  0
LINE
  5
92
100
AcDbEntity
  8
15
370
     9
  6
Continuous
 62
    96
100
AcDbLine
 10
1181.410504
 20
87.130635
 30
0.0
 11
1196.770504
 21
85.210635
 31
0.0
  0
LINE
  5
93
100
AcDbEntity
  8
15
370
     9
  6
Continuous
 62
    96
100
AcDbLine
 10
1166.77269
 20
90.010635
 30
0.0
 11
1198.408504
 21
90.010635
 31
0.0
  0
LINE
  5
94
100
AcDbEntity
  8
15
370
     9
  6
Continuous
 62
    96
100
AcDbLine
 10
1200.3414
 20
99.015946
 30
0.0
 11
930.260996
 21
99.015925
 31
0.0
  0
LINE
  5
95
100
AcDbEntity
  8
15
370
     9
  6
Continuous
 62
    96
100
AcDbLine
 10
930.260996
 20
126.023888
 30
0.0
 11
1200.3414
 21
126.023888
 31
0.0
  0
LINE
  5
96
100
AcDbEntity
  8
15
370
     9
  6
Continuous
 62
    96
100
AcDbLine
 10
967.559483
 20
733.703046
 30
0.0
 11
1200.340622
 21
733.703046
 31
0.0
  0
LINE
  5
97
100
AcDbEntity
  8
15
370
    30
  6
Continuous
 62
    96
100
AcDbLine
 10
1200.776988
 20
436.304389
 30
0.0
 11
1200.776988
 21
442.700583
 31
0.0
  0
TEXT
  5
98
100
AcDbEntity
  8
15
370
     9
  6
PHANTOM
 62
    96
100
AcDbText
 10
944.072055
 20
803.474943
 30
0.0
 40
9.0
  1
商品コード
 41
0.877778
 11
944.072055
 21
803.474943
 31
0.0
100
AcDbText
 73
     1
  0
TEXT
  5
99
100
AcDbEntity
  8
15
370
     9
  6
PHANTOM
 62
    96
100
AcDbText
 10
1032.000809
 20
786.970077
 30
0.0
 40
9.0
  1
定　　　　　格
 41
0.880952
 11
1032.000809
 21
786.970077
 31
0.0
100
AcDbText
 73
     1
  0
TEXT
  5
9A
100
AcDbEntity
  8
15
370
     9
  6
PHANTOM
 62
    96
100
AcDbText
 10
953.672055
 20
770.465211
 30
0.0
 40
9.0
  1
材　質
 41
0.87037
 11
953.672055
 21
770.465211
 31
0.0
100
AcDbText
 73
     1
  0
TEXT
  5
9B
100
AcDbEntity
  8
15
370
     9
  6
PHANTOM
 62
    96
100
AcDbText
 10
953.672055
 20
753.960345
 30
0.0
 40
9.0
  1
仕　上
 41
0.87037
 11
953.672055
 21
753.960345
 31
0.0
100
AcDbText
 73
     1
  0
TEXT
  5
9C
100
AcDbEntity
  8
15
370
     9
  6
PHANTOM
 62
    96
100
AcDbText
 10
972.252255
 20
737.023329
 30
0.0
 40
9.0
  1
本　体
 41
0.87037
 11
972.252255
 21
737.023329
 31
0.0
100
AcDbText
 73
     1
  0
TEXT
  5
9D
100
AcDbEntity
  8
15
370
    30
  6
Continuous
 62
    96
100
AcDbText
 10
931.808944
 20
169.414195
 30
0.0
 40
7.5
  1
型　式
 41
0.877778
 11
931.808944
 21
169.414195
 31
0.0
100
AcDbText
 73
     1
  0
TEXT
  5
9E
100
AcDbEntity
  8
15
370
     9
  6
Continuous
 62
    96
100
AcDbText
 10
948.870492
 20
182.291804
 30
0.0
 40
9.0
  1
図面履歴
 41
0.875
 11
948.870492
 21
182.291804
 31
0.0
100
AcDbText
 73
     1
  0
TEXT
  5
9F
100
AcDbEntity
  8
15
370
     9
  6
Continuous
 62
    96
100
AcDbText
 10
934.755442
 20
85.444
 30
0.0
 40
9.0
  1
図面番号
 41
0.875
 11
934.755442
 21
85.444
 31
0.0
100
AcDbText
 73
     1
  0
TEXT
  5
A0
100
AcDbEntity
  8
15
370
     9
  6
Continuous
 62
    96
100
AcDbText
 10
1066.241002
 20
85.416239
 30
0.0
 40
9.0
  1
日付
 41
0.861111
 11
1066.241002
 21
85.416239
 31
0.0
100
AcDbText
 73
     1
  0
TEXT
  5
A1
100
AcDbEntity
  8
15
370
     9
  6
Continuous
 62
    96
100
AcDbText
 10
1128.480361
 20
116.567609
 30
0.0
 40
7.5
  1
作図
 41
0.866667
 11
1128.480361
 21
116.567609
 31
0.0
100
AcDbText
 73
     1
  0
TEXT
  5
A2
100
AcDbEntity
  8
15
370
     9
  6
Continuous
 62
    96
100
AcDbText
 10
1052.458363
 20
116.595656
 30
0.0
 40
7.5
  1
検図
 41
0.866667
 11
1052.458363
 21
116.595656
 31
0.0
100
AcDbText
 73
     1
  0
TEXT
  5
A3
100
AcDbEntity
  8
15
370
     9
  6
Continuous
 62
    96
100
AcDbText
 10
977.407745
 20
116.140556
 30
0.0
 40
7.5
  1
承認
 41
0.866667
 11
977.407745
 21
116.140556
 31
0.0
100
AcDbText
 73
     1
  0
TEXT
  5
A4
100
AcDbEntity
  8
15
370
    30
  6
Continuous
 62
    96
100
AcDbText
 10
932.066557
 20
143.765082
 30
0.0
 40
7.5
  1
製品名
 41
0.877778
 11
932.066557
 21
143.765082
 31
0.0
100
AcDbText
 73
     1
  0
TEXT
  5
A5
100
AcDbEntity
  8
15
370
     9
  6
Continuous
 62
    96
100
AcDbText
 10
932.498971
 20
116.118126
 30
0.0
 40
7.5
  1
縮尺（Ａ３）
 41
0.833333
 11
932.498971
 21
116.118126
 31
0.0
100
AcDbText
 73
     1
  0
TEXT
  5
A6
100
AcDbEntity
  8
15
370
     9
  6
Continuous
 62
    96
100
AcDbText
 10
938.765593
 20
103.545625
 30
0.0
 40
9.0
  1
１：３
 41
0.87037
 11
938.765593
 21
103.545625
 31
0.0
100
AcDbText
 73
     1
  0
TEXT
  5
A7
100
AcDbEntity
  8
15
370
     9
  6
Continuous
 62
    96
100
AcDbText
 10
579.210195
 20
56.803586
 30
0.0
 40
9.0
  1
＊記載されている会社名、製品名は、各社の登録商標または商標です。
 41
0.887153
 11
579.210195
 21
56.803586
 31
0.0
100
AcDbText
 73
     1
  0
TEXT
  5
A8
100
AcDbEntity
  8
15
370
     9
  6
PHANTOM
 62
    96
100
AcDbText
 10
1069.511868
 20
803.474943
 30
0.0
 40
9.0
  1
０３０３１０７
 41
0.880952
 11
1069.511868
 21
803.474943
 31
0.0
100
AcDbText
 73
     1
  0
TEXT
  5
A9
100
AcDbEntity
  8
15
370
     9
  6
PHANTOM
 62
    96
100
AcDbText
 10
1073.111868
 20
770.465211
 30
0.0
 40
9.0
  1
SPCDS　ｔ1.0
 41
0.66
 11
1073.111868
 21
770.465211
 31
0.0
100
AcDbText
 73
     1
  0
TEXT
  5
AA
100
AcDbEntity
  8
15
370
     9
  6
PHANTOM
 62
    96
100
AcDbText
 10
1055.111868
 20
753.960345
 30
0.0
 40
9.0
  1
メラミン樹脂焼付塗装
 41
0.883333
 11
1055.111868
 21
753.960345
 31
0.0
100
AcDbText
 73
     1
  0
TEXT
  5
AB
100
AcDbEntity
  8
15
370
     9
  6
PHANTOM
 62
    96
100
AcDbText
 10
1023.0237
 20
737.5668
 30
0.0
 40
9.0
  1
マンセル　2.5Ｙ 9/1　近似色　半艶
 41
0.814985
 11
1023.0237
 21
737.5668
 31
0.0
100
AcDbText
 73
     1
  0
TEXT
  5
AC
100
AcDbEntity
  8
15
370
     9
  6
PHANTOM
 62
    96
100
AcDbText
 10
972.252255
 20
720.518463
 30
0.0
 40
9.0
  1
文　字
 41
0.87037
 11
972.252255
 21
720.518463
 31
0.0
100
AcDbText
 73
     1
  0
LINE
  5
AD
100
AcDbEntity
  8
15
370
     9
  6
Continuous
 62
    96
100
AcDbLine
 10
930.258571
 20
717.19818
 30
0.0
 11
1200.340622
 21
717.19818
 31
0.0
  0
TEXT
  5
AE
100
AcDbEntity
  8
15
370
     9
  6
PHANTOM
 62
    96
100
AcDbText
 10
934.463975
 20
729.18401
 30
0.0
 40
9.0
  1
彩　色
 41
0.87037
 11
934.463975
 21
729.18401
 31
0.0
100
AcDbText
 73
     1
  0
LINE
  5
AF
100
AcDbEntity
  8
15
370
     9
  6
Continuous
 62
    96
100
AcDbLine
 10
967.559483
 20
750.207912
 30
0.0
 11
967.559483
 21
717.19818
 31
0.0
  0
TEXT
  5
B0
100
AcDbEntity
  8
15
370
     9
  6
PHANTOM
 62
    96
100
AcDbText
 10
1088.39655
 20
704.3589
 30
0.0
 40
9.0
  1
約３kg
 41
0.727273
 11
1088.39655
 21
704.3589
 31
0.0
100
AcDbText
 73
     1
  0
TEXT
  5
B1
100
AcDbEntity
  8
15
370
     9
  6
Continuous
 62
    96
100
AcDbText
 10
949.48
 20
687.54655
 30
0.0
 40
9.0
  1
入力電源
 41
0.875
 11
949.48
 21
687.54655
 31
0.0
100
AcDbText
 73
     1
  0
TEXT
  5
B2
100
AcDbEntity
  8
15
370
     9
  6
Continuous
 62
    96
100
AcDbText
 10
949.48
 20
671.041684
 30
0.0
 40
9.0
  1
消費電力
 41
0.875
 11
949.48
 21
671.041684
 31
0.0
100
AcDbText
 73
     1
  0
TEXT
  5
B3
100
AcDbEntity
  8
15
370
     9
  6
PHANTOM
 62
    96
100
AcDbText
 10
954.28
 20
704.051416
 30
0.0
 40
9.0
  1
重　量
 41
0.87037
 11
954.28
 21
704.051416
 31
0.0
100
AcDbText
 73
     1
  0
TEXT
  5
B4
100
AcDbEntity
  8
15
370
     9
  6
PHANTOM
 62
    96
100
AcDbText
 10
1070.9583
 20
687.94095
 30
0.0
 40
9.0
  1
AC100Ｖ%%p10％
 41
0.682692
 11
1070.9583
 21
687.94095
 31
0.0
100
AcDbText
 73
     1
  0
TEXT
  5
B5
100
AcDbEntity
  8
15
370
     9
  6
Continuous
 62
    96
100
AcDbText
 10
1082.711868
 20
671.436015
 30
0.0
 40
9.0
  1
40VA max
 41
0.587719
 11
1082.711868
 21
671.436015
 31
0.0
100
AcDbText
 73
     1
  0
LINE
  5
B6
100
AcDbEntity
  8
15
370
     9
  6
Continuous
 62
    96
100
AcDbLine
 10
1004.857971
 20
783.258069
 30
0.0
 11
1004.857971
 21
667.683582
 31
0.0
  0
LINE
  5
B7
100
AcDbEntity
  8
15
370
     9
  6
Continuous
 62
    96
100
AcDbLine
 10
930.260996
 20
651.178716
 30
0.0
 11
1200.3414
 21
651.178716
 31
0.0
  0
LINE
  5
B8
100
AcDbEntity
  8
15
370
    30
  6
Continuous
 62
    96
100
AcDbLine
 10
930.260996
 20
667.683582
 30
0.0
 11
1200.3414
 21
667.683582
 31
0.0
  0
TEXT
  5
B9
100
AcDbEntity
  8
15
370
     9
  6
Continuous
 62
    96
100
AcDbText
 10
951.086778
 20
654.913065
 30
0.0
 40
9.0
  1
外部入力　：電源搬送波重畳方式（Ｔ－３８３０Ｓ）
 41
0.886574
 11
951.086778
 21
654.913065
 31
0.0
100
AcDbText
 73
     1
  0
TEXT
  5
BA
100
AcDbEntity
  8
15
370
     9
  6
Continuous
 62
    96
100
AcDbText
 10
939.607953
 20
638.426283
 30
0.0
 40
9.0
  1
テンキー入力
 41
0.87963
 11
939.607953
 21
638.426283
 31
0.0
100
AcDbText
 73
     1
  0
TEXT
  5
BB
100
AcDbEntity
  8
15
370
     9
  6
Continuous
 62
    96
100
AcDbText
 10
1024.244227
 20
638.426283
 30
0.0
 40
9.0
  1
電源　および　データ伝送供給
 41
0.884921
 11
1024.244227
 21
638.426283
 31
0.0
100
AcDbText
 73
     1
  0
TEXT
  5
BC
100
AcDbEntity
  8
15
370
     9
  6
Continuous
 62
    96
100
AcDbText
 10
1179.705798
 20
638.776182
 30
0.0
 40
9.0
  1
８点
 41
0.861111
 11
1179.705798
 21
638.776182
 31
0.0
100
AcDbText
 73
     1
  0
LINE
  5
BD
100
AcDbEntity
  8
15
370
     9
  6
Continuous
 62
    96
100
AcDbLine
 10
1004.857971
 20
651.178716
 30
0.0
 11
1004.857971
 21
634.67385
 31
0.0
  0
LINE
  5
BE
100
AcDbEntity
  8
15
370
     9
  6
Continuous
 62
    96
100
AcDbLine
 10
1175.9084
 20
651.179371
 30
0.0
 11
1175.9084
 21
634.67385
 31
0.0
  0
LINE
  5
BF
100
AcDbEntity
  8
15
370
    30
  6
Continuous
 62
    96
100
AcDbLine
 10
930.260996
 20
634.67385
 30
0.0
 11
1199.89459
 21
634.67385
 31
0.0
  0
LINE
  5
C0
100
AcDbEntity
  8
15
370
     9
  6
Continuous
 62
    96
100
AcDbLine
 10
930.260996
 20
618.168984
 30
0.0
 11
1200.3414
 21
618.168984
 31
0.0
  0
TEXT
  5
C1
100
AcDbEntity
  8
15
370
     9
  6
Continuous
 62
    96
100
AcDbText
 10
974.15088
 20
621.903333
 30
0.0
 40
9.0
  1
外部出力　：接点容量　DC24Ｖ　１Ａ以下
 41
0.833333
 11
974.15088
 21
621.903333
 31
0.0
100
AcDbText
 73
     1
  0
TEXT
  5
C2
100
AcDbEntity
  8
15
370
     9
  6
Continuous
 62
    96
100
AcDbText
 10
948.446912
 20
605.416551
 30
0.0
 40
9.0
  1
接点出力
 41
0.875
 11
948.446912
 21
605.416551
 31
0.0
100
AcDbText
 73
     1
  0
LINE
  5
C3
100
AcDbEntity
  8
15
370
     9
  6
Continuous
 62
    96
100
AcDbLine
 10
1004.857971
 20
618.168984
 30
0.0
 11
1004.857971
 21
601.664118
 31
0.0
  0
LINE
  5
C4
100
AcDbEntity
  8
15
370
     9
  6
Continuous
 62
    96
100
AcDbLine
 10
1175.9084
 20
618.168984
 30
0.0
 11
1175.9084
 21
601.664118
 31
0.0
  0
TEXT
  5
C5
100
AcDbEntity
  8
15
370
     9
  6
Continuous
 62
    96
100
AcDbText
 10
1033.244227
 20
605.416551
 30
0.0
 40
9.0
  1
照合OK時　設定時間出力ON
 41
0.804167
 11
1033.244227
 21
605.416551
 31
0.0
100
AcDbText
 73
     1
  0
TEXT
  5
C6
100
AcDbEntity
  8
15
370
     9
  6
Continuous
 62
    96
100
AcDbText
 10
1178.816656
 20
605.333382
 30
0.0
 40
9.0
  1
８点
 41
0.861111
 11
1178.816656
 21
605.333382
 31
0.0
100
AcDbText
 73
     1
  0
LINE
  5
C7
100
AcDbEntity
  8
15
370
    30
  6
Continuous
 62
    96
100
AcDbLine
 10
930.260996
 20
601.664118
 30
0.0
 11
1200.3414
 21
601.664118
 31
0.0
  0
TEXT
  5
C8
100
AcDbEntity
  8
15
370
     9
  6
Continuous
 62
    96
100
AcDbText
 10
1095.280587
 20
182.312525
 30
0.0
 40
9.0
  1
---
 41
0.544444
 11
1095.280587
 21
182.312525
 31
0.0
100
AcDbText
 73
     1
  0
TEXT
  5
C9
100
AcDbEntity
  8
15
370
     9
  6
Continuous
 62
    96
100
AcDbText
 10
995.399246
 20
157.535389
 30
0.0
 40
15.0
  1
Ｃ－３８３０ＮＸＢ
 41
0.862963
 11
995.399246
 21
157.535389
 31
0.0
100
AcDbText
 73
     1
  0
TEXT
  5
CA
100
AcDbEntity
  8
15
370
     9
  6
Continuous
 62
    96
100
AcDbText
 10
971.910552
 20
131.833043
 30
0.0
 40
15.0
  1
デジタルテンキー入力装置
 41
0.863889
 11
971.910552
 21
131.833043
 31
0.0
100
AcDbText
 73
     1
  0
TEXT
  5
CB
100
AcDbEntity
  8
15
370
     9
  6
Continuous
 62
    96
100
AcDbText
 10
1001.462422
 20
103.711831
 30
0.0
 40
15.0
  1
加川
 41
0.85
 11
1001.462422
 21
103.711831
 31
0.0
100
AcDbText
 73
     1
  0
TEXT
  5
CC
100
AcDbEntity
  8
15
370
     9
  6
Continuous
 62
    96
100
AcDbText
 10
981.276872
 20
84.78999
 30
0.0
 40
10.5
  1
G20033-01-20331
 41
0.5
 11
981.276872
 21
84.78999
 31
0.0
100
AcDbText
 73
     1
  0
TEXT
  5
CD
100
AcDbEntity
  8
15
370
     9
  6
Continuous
 62
    96
100
AcDbText
 10
1092.832417
 20
85.521472
 30
0.0
 40
9.0
  1
2020年03月31日
 41
0.66092
 11
1092.832417
 21
85.521472
 31
0.0
100
AcDbText
 73
     1
  0
LINE
  5
CE
100
AcDbEntity
  8
1
370
    30
  6
Continuous
 62
     7
100
AcDbLine
 10
247.606379
 20
325.471206
 30
0.0
 11
247.606379
 21
321.70883
 31
0.0
  0
LINE
  5
CF
100
AcDbEntity
  8
1
370
    30
  6
Continuous
 62
     7
100
AcDbLine
 10
247.206379
 20
329.671206
 30
0.0
 11
247.206379
 21
325.471206
 31
0.0
  0
LINE
  5
D0
100
AcDbEntity
  8
1
370
    30
  6
Continuous
 62
     7
100
AcDbLine
 10
247.206379
 20
325.471206
 30
0.0
 11
247.606379
 21
325.471206
 31
0.0
  0
LINE
  5
D1
100
AcDbEntity
  8
1
370
    30
  6
Continuous
 62
     7
100
AcDbLine
 10
246.006379
 20
329.671206
 30
0.0
 11
247.206379
 21
329.671206
 31
0.0
  0
LINE
  5
D2
100
AcDbEntity
  8
1
370
    30
  6
Continuous
 62
     7
100
AcDbLine
 10
246.006379
 20
325.471206
 30
0.0
 11
246.006379
 21
329.671206
 31
0.0
  0
LINE
  5
D3
100
AcDbEntity
  8
1
370
    30
  6
Continuous
 62
     7
100
AcDbLine
 10
245.60638
 20
325.471206
 30
0.0
 11
246.006379
 21
325.471206
 31
0.0
  0
LINE
  5
D4
100
AcDbEntity
  8
1
370
    30
  6
Continuous
 62
     7
100
AcDbLine
 10
245.606379
 20
321.70883
 30
0.0
 11
245.60638
 21
325.471206
 31
0.0
  0
ARC
  5
D5
100
AcDbEntity
  8
1
370
    30
  6
Continuous
 62
     7
100
AcDbCircle
 10
246.606379
 20
327.564026
 30
0.0
 40
1.3
100
AcDbArc
 50
-117.486426
 51
-62.513574
  0
CIRCLE
  5
D6
100
AcDbEntity
  8
1
370
    30
  6
Continuous
 62
     7
100
AcDbCircle
 10
246.606379
 20
329.871206
 30
0.0
 40
9.0
  0
ARC
  5
D7
100
AcDbEntity
  8
1
370
    30
  6
Continuous
 62
     7
100
AcDbCircle
 10
246.606379
 20
324.871206
 30
0.0
 40
2.5
100
AcDbArc
 50
103.88654
 51
-113.578178
  0
ARC
  5
D8
100
AcDbEntity
  8
1
370
    30
  6
Continuous
 62
     7
100
AcDbCircle
 10
246.606379
 20
327.371206
 30
0.0
 40
5.0
100
AcDbArc
 50
-101.536959
 51
-78.463041
  0
ARC
  5
D9
100
AcDbEntity
  8
1
370
    30
  6
Continuous
 62
     7
100
AcDbCircle
 10
246.606379
 20
324.871206
 30
0.0
 40
2.5
100
AcDbArc
 50
-66.421822
 51
76.11346
  0
CIRCLE
  5
DA
100
AcDbEntity
  8
1
370
    30
  6
Continuous
 62
     7
100
AcDbCircle
 10
246.606379
 20
329.871206
 30
0.0
 40
10.0
  0
CIRCLE
  5
DB
100
AcDbEntity
  8
1
370
    30
  6
Continuous
 62
     7
100
AcDbCircle
 10
246.606379
 20
327.371206
 30
0.0
 40
5.75
  0
LINE
  5
DC
100
AcDbEntity
  8
1
370
    30
  6
Continuous
 62
     7
100
AcDbLine
 10
249.531379
 20
335.121206
 30
0.0
 11
249.531379
 21
335.496206
 31
0.0
  0
LINE
  5
DD
100
AcDbEntity
  8
1
370
    30
  6
Continuous
 62
     7
100
AcDbLine
 10
249.981379
 20
335.121206
 30
0.0
 11
249.981379
 21
336.096206
 31
0.0
  0
LINE
  5
DE
100
AcDbEntity
  8
1
370
    30
  6
Continuous
 62
     7
100
AcDbLine
 10
249.606379
 20
335.121206
 30
0.0
 11
249.981379
 21
335.121206
 31
0.0
  0
LINE
  5
DF
100
AcDbEntity
  8
1
370
    30
  6
Continuous
 62
     7
100
AcDbLine
 10
249.606379
 20
336.621206
 30
0.0
 11
249.606379
 21
335.121206
 31
0.0
  0
LINE
  5
E0
100
AcDbEntity
  8
1
370
    30
  6
Continuous
 62
     7
100
AcDbLine
 10
250.056379
 20
336.621206
 30
0.0
 11
249.606379
 21
336.621206
 31
0.0
  0
LINE
  5
E1
100
AcDbEntity
  8
1
370
    30
  6
Continuous
 62
     7
100
AcDbLine
 10
250.056379
 20
336.621206
 30
0.0
 11
250.731379
 21
335.646206
 31
0.0
  0
LINE
  5
E2
100
AcDbEntity
  8
1
370
    30
  6
Continuous
 62
     7
100
AcDbLine
 10
250.731379
 20
336.621206
 30
0.0
 11
250.731379
 21
335.646206
 31
0.0
  0
LINE
  5
E3
100
AcDbEntity
  8
1
370
    30
  6
Continuous
 62
     7
100
AcDbLine
 10
251.106379
 20
336.621206
 30
0.0
 11
250.731379
 21
336.621206
 31
0.0
  0
LINE
  5
E4
100
AcDbEntity
  8
1
370
    30
  6
Continuous
 62
     7
100
AcDbLine
 10
251.106379
 20
335.121206
 30
0.0
 11
250.656379
 21
335.121206
 31
0.0
  0
LINE
  5
E5
100
AcDbEntity
  8
1
370
    30
  6
Continuous
 62
     7
100
AcDbLine
 10
248.181379
 20
336.021206
 30
0.0
 11
248.181379
 21
336.171206
 31
0.0
  0
LINE
  5
E6
100
AcDbEntity
  8
1
370
    30
  6
Continuous
 62
     7
100
AcDbLine
 10
247.806379
 20
336.021206
 30
0.0
 11
248.181379
 21
336.021206
 31
0.0
  0
LINE
  5
E7
100
AcDbEntity
  8
1
370
    30
  6
Continuous
 62
     7
100
AcDbLine
 10
247.806379
 20
336.096206
 30
0.0
 11
247.806379
 21
336.021206
 31
0.0
  0
LINE
  5
E8
100
AcDbEntity
  8
1
370
    30
  6
Continuous
 62
     7
100
AcDbLine
 10
247.206379
 20
336.246206
 30
0.0
 11
247.656379
 21
336.246206
 31
0.0
  0
LINE
  5
E9
100
AcDbEntity
  8
1
370
    30
  6
Continuous
 62
     7
100
AcDbLine
 10
247.056379
 20
335.646206
 30
0.0
 11
247.056379
 21
336.096206
 31
0.0
  0
LINE
  5
EA
100
AcDbEntity
  8
1
370
    30
  6
Continuous
 62
     7
100
AcDbLine
 10
247.656379
 20
335.496206
 30
0.0
 11
247.206379
 21
335.496206
 31
0.0
  0
LINE
  5
EB
100
AcDbEntity
  8
1
370
    30
  6
Continuous
 62
     7
100
AcDbLine
 10
247.431379
 20
335.646206
 30
0.0
 11
247.806379
 21
335.646206
 31
0.0
  0
LINE
  5
EC
100
AcDbEntity
  8
1
370
    30
  6
Continuous
 62
     7
100
AcDbLine
 10
247.431379
 20
335.946206
 30
0.0
 11
247.431379
 21
335.646206
 31
0.0
  0
LINE
  5
ED
100
AcDbEntity
  8
1
370
    30
  6
Continuous
 62
     7
100
AcDbLine
 10
248.181379
 20
335.946206
 30
0.0
 11
247.431379
 21
335.946206
 31
0.0
  0
LINE
  5
EE
100
AcDbEntity
  8
1
370
    30
  6
Continuous
 62
     7
100
AcDbLine
 10
248.181379
 20
335.571206
 30
0.0
 11
248.181379
 21
335.946206
 31
0.0
  0
LINE
  5
EF
100
AcDbEntity
  8
1
370
    30
  6
Continuous
 62
     7
100
AcDbLine
 10
248.256379
 20
335.121206
 30
0.0
 11
249.531379
 21
335.121206
 31
0.0
  0
LINE
  5
F0
100
AcDbEntity
  8
1
370
    30
  6
Continuous
 62
     7
100
AcDbLine
 10
248.256379
 20
336.621206
 30
0.0
 11
248.256379
 21
335.121206
 31
0.0
  0
LINE
  5
F1
100
AcDbEntity
  8
1
370
    30
  6
Continuous
 62
     7
100
AcDbLine
 10
249.531379
 20
336.621206
 30
0.0
 11
248.256379
 21
336.621206
 31
0.0
  0
LINE
  5
F2
100
AcDbEntity
  8
1
370
    30
  6
Continuous
 62
     7
100
AcDbLine
 10
251.106379
 20
336.621206
 30
0.0
 11
251.106379
 21
335.121206
 31
0.0
  0
LINE
  5
F3
100
AcDbEntity
  8
1
370
    30
  6
Continuous
 62
     7
100
AcDbLine
 10
245.556379
 20
335.946206
 30
0.0
 11
246.081379
 21
336.621206
 31
0.0
  0
LINE
  5
F4
100
AcDbEntity
  8
1
370
    30
  6
Continuous
 62
     7
100
AcDbLine
 10
246.231379
 20
335.121206
 30
0.0
 11
246.606379
 21
335.121206
 31
0.0
  0
LINE
  5
F5
100
AcDbEntity
  8
1
370
    30
  6
Continuous
 62
     7
100
AcDbLine
 10
246.081379
 20
336.621206
 30
0.0
 11
245.631379
 21
336.621206
 31
0.0
  0
LINE
  5
F6
100
AcDbEntity
  8
1
370
    30
  6
Continuous
 62
     7
100
AcDbLine
 10
245.631379
 20
336.621206
 30
0.0
 11
245.106379
 21
335.946206
 31
0.0
  0
LINE
  5
F7
100
AcDbEntity
  8
1
370
    30
  6
Continuous
 62
     7
100
AcDbLine
 10
246.606379
 20
336.621206
 30
0.0
 11
246.231379
 21
336.621206
 31
0.0
  0
LINE
  5
F8
100
AcDbEntity
  8
1
370
    30
  6
Continuous
 62
     7
100
AcDbLine
 10
245.706379
 20
335.121206
 30
0.0
 11
246.156379
 21
335.121206
 31
0.0
  0
LINE
  5
F9
100
AcDbEntity
  8
1
370
    30
  6
Continuous
 62
     7
100
AcDbLine
 10
246.156379
 20
335.121206
 30
0.0
 11
245.556379
 21
335.946206
 31
0.0
  0
LINE
  5
FA
100
AcDbEntity
  8
1
370
    30
  6
Continuous
 62
     7
100
AcDbLine
 10
246.606379
 20
335.121206
 30
0.0
 11
246.606379
 21
336.621206
 31
0.0
  0
LINE
  5
FB
100
AcDbEntity
  8
1
370
    30
  6
Continuous
 62
     7
100
AcDbLine
 10
245.106379
 20
336.621206
 30
0.0
 11
244.731379
 21
336.621206
 31
0.0
  0
LINE
  5
FC
100
AcDbEntity
  8
1
370
    30
  6
Continuous
 62
     7
100
AcDbLine
 10
245.106379
 20
335.946206
 30
0.0
 11
245.706379
 21
335.121206
 31
0.0
  0
LINE
  5
FD
100
AcDbEntity
  8
1
370
    30
  6
Continuous
 62
     7
100
AcDbLine
 10
244.215379
 20
335.346206
 30
0.0
 11
244.296379
 21
335.121206
 31
0.0
  0
LINE
  5
FE
100
AcDbEntity
  8
1
370
    30
  6
Continuous
 62
     7
100
AcDbLine
 10
248.631379
 20
335.496206
 30
0.0
 11
248.631379
 21
335.721206
 31
0.0
  0
LINE
  5
FF
100
AcDbEntity
  8
1
370
    30
  6
Continuous
 62
     7
100
AcDbLine
 10
249.531379
 20
335.496206
 30
0.0
 11
248.631379
 21
335.496206
 31
0.0
  0
LINE
  5
100
100
AcDbEntity
  8
1
370
    30
  6
Continuous
 62
     7
100
AcDbLine
 10
243.906379
 20
336.20454
 30
0.0
 11
244.085779
 21
335.706206
 31
0.0
  0
LINE
  5
101
100
AcDbEntity
  8
1
370
    30
  6
Continuous
 62
     7
100
AcDbLine
 10
244.671379
 20
335.121206
 30
0.0
 11
244.296379
 21
335.121206
 31
0.0
  0
LINE
  5
102
100
AcDbEntity
  8
1
370
    30
  6
Continuous
 62
     7
100
AcDbLine
 10
243.906379
 20
336.20454
 30
0.0
 11
243.726979
 21
335.706206
 31
0.0
  0
LINE
  5
103
100
AcDbEntity
  8
1
370
    30
  6
Continuous
 62
     7
100
AcDbLine
 10
245.106379
 20
335.121206
 30
0.0
 11
245.106379
 21
336.621206
 31
0.0
  0
LINE
  5
104
100
AcDbEntity
  8
1
370
    30
  6
Continuous
 62
     7
100
AcDbLine
 10
243.141379
 20
335.121206
 30
0.0
 11
243.516379
 21
335.121206
 31
0.0
  0
LINE
  5
105
100
AcDbEntity
  8
1
370
    30
  6
Continuous
 62
     7
100
AcDbLine
 10
243.681379
 20
336.621206
 30
0.0
 11
244.131379
 21
336.621206
 31
0.0
  0
LINE
  5
106
100
AcDbEntity
  8
1
370
    30
  6
Continuous
 62
     7
100
AcDbLine
 10
244.131379
 20
336.621206
 30
0.0
 11
244.671379
 21
335.121206
 31
0.0
  0
LINE
  5
107
100
AcDbEntity
  8
1
370
    30
  6
Continuous
 62
     7
100
AcDbLine
 10
243.681379
 20
336.621206
 30
0.0
 11
243.141379
 21
335.121206
 31
0.0
  0
LINE
  5
108
100
AcDbEntity
  8
1
370
    30
  6
Continuous
 62
     7
100
AcDbLine
 10
246.231379
 20
336.621206
 30
0.0
 11
246.231379
 21
335.121206
 31
0.0
  0
LINE
  5
109
100
AcDbEntity
  8
1
370
    30
  6
Continuous
 62
     7
100
AcDbLine
 10
249.981379
 20
336.096206
 30
0.0
 11
250.656379
 21
335.121206
 31
0.0
  0
LINE
  5
10A
100
AcDbEntity
  8
1
370
    30
  6
Continuous
 62
     7
100
AcDbLine
 10
243.726979
 20
335.706206
 30
0.0
 11
244.085779
 21
335.706206
 31
0.0
  0
LINE
  5
10B
100
AcDbEntity
  8
1
370
    30
  6
Continuous
 62
     7
100
AcDbLine
 10
243.597379
 20
335.346206
 30
0.0
 11
243.516379
 21
335.121206
 31
0.0
  0
LINE
  5
10C
100
AcDbEntity
  8
1
370
    30
  6
Continuous
 62
     7
100
AcDbLine
 10
244.215379
 20
335.346206
 30
0.0
 11
243.597379
 21
335.346206
 31
0.0
  0
LINE
  5
10D
100
AcDbEntity
  8
1
370
    30
  6
Continuous
 62
     7
100
AcDbLine
 10
247.731379
 20
336.621206
 30
0.0
 11
247.131379
 21
336.621206
 31
0.0
  0
LINE
  5
10E
100
AcDbEntity
  8
1
370
    30
  6
Continuous
 62
     7
100
AcDbLine
 10
243.531379
 20
336.291206
 30
0.0
 11
243.531379
 21
336.621206
 31
0.0
  0
LINE
  5
10F
100
AcDbEntity
  8
1
370
    30
  6
Continuous
 62
     7
100
AcDbLine
 10
243.006379
 20
336.291206
 30
0.0
 11
243.531379
 21
336.291206
 31
0.0
  0
LINE
  5
110
100
AcDbEntity
  8
1
370
    30
  6
Continuous
 62
     7
100
AcDbLine
 10
243.006379
 20
335.121206
 30
0.0
 11
243.006379
 21
336.291206
 31
0.0
  0
LINE
  5
111
100
AcDbEntity
  8
1
370
    30
  6
Continuous
 62
     7
100
AcDbLine
 10
242.631379
 20
335.121206
 30
0.0
 11
243.006379
 21
335.121206
 31
0.0
  0
LINE
  5
112
100
AcDbEntity
  8
1
370
    30
  6
Continuous
 62
     7
100
AcDbLine
 10
242.631379
 20
336.291206
 30
0.0
 11
242.631379
 21
335.121206
 31
0.0
  0
LINE
  5
113
100
AcDbEntity
  8
1
370
    30
  6
Continuous
 62
     7
100
AcDbLine
 10
242.106379
 20
336.291206
 30
0.0
 11
242.631379
 21
336.291206
 31
0.0
  0
LINE
  5
114
100
AcDbEntity
  8
1
370
    30
  6
Continuous
 62
     7
100
AcDbLine
 10
242.106379
 20
336.621206
 30
0.0
 11
242.106379
 21
336.291206
 31
0.0
  0
LINE
  5
115
100
AcDbEntity
  8
1
370
    30
  6
Continuous
 62
     7
100
AcDbLine
 10
243.531379
 20
336.621206
 30
0.0
 11
242.106379
 21
336.621206
 31
0.0
  0
LINE
  5
116
100
AcDbEntity
  8
1
370
    30
  6
Continuous
 62
     7
100
AcDbLine
 10
244.731379
 20
335.121206
 30
0.0
 11
245.106379
 21
335.121206
 31
0.0
  0
LINE
  5
117
100
AcDbEntity
  8
1
370
    30
  6
Continuous
 62
     7
100
AcDbLine
 10
244.731379
 20
336.621206
 30
0.0
 11
244.731379
 21
335.121206
 31
0.0
  0
LINE
  5
118
100
AcDbEntity
  8
1
370
    30
  6
Continuous
 62
     7
100
AcDbLine
 10
246.681379
 20
336.171206
 30
0.0
 11
246.681379
 21
335.571206
 31
0.0
  0
LINE
  5
119
100
AcDbEntity
  8
1
370
    30
  6
Continuous
 62
     7
100
AcDbLine
 10
247.131379
 20
335.121206
 30
0.0
 11
247.731379
 21
335.121206
 31
0.0
  0
LINE
  5
11A
100
AcDbEntity
  8
1
370
    30
  6
Continuous
 62
     7
100
AcDbLine
 10
248.631379
 20
335.721206
 30
0.0
 11
249.456379
 21
335.721206
 31
0.0
  0
LINE
  5
11B
100
AcDbEntity
  8
1
370
    30
  6
Continuous
 62
     7
100
AcDbLine
 10
249.456379
 20
335.721206
 30
0.0
 11
249.456379
 21
336.058706
 31
0.0
  0
LINE
  5
11C
100
AcDbEntity
  8
1
370
    30
  6
Continuous
 62
     7
100
AcDbLine
 10
249.456379
 20
336.058706
 30
0.0
 11
248.631379
 21
336.058706
 31
0.0
  0
LINE
  5
11D
100
AcDbEntity
  8
1
370
    30
  6
Continuous
 62
     7
100
AcDbLine
 10
248.631379
 20
336.058706
 30
0.0
 11
248.631379
 21
336.291206
 31
0.0
  0
LINE
  5
11E
100
AcDbEntity
  8
1
370
    30
  6
Continuous
 62
     7
100
AcDbLine
 10
248.631379
 20
336.291206
 30
0.0
 11
249.531379
 21
336.291206
 31
0.0
  0
LINE
  5
11F
100
AcDbEntity
  8
1
370
    30
  6
Continuous
 62
     7
100
AcDbLine
 10
249.531379
 20
336.291206
 30
0.0
 11
249.531379
 21
336.621206
 31
0.0
  0
ARC
  5
120
100
AcDbEntity
  8
1
370
    30
  6
Continuous
 62
     7
100
AcDbCircle
 10
247.731379
 20
335.571206
 30
0.0
 40
0.45
100
AcDbArc
 50
-90.0
 51
0.0
  0
ARC
  5
121
100
AcDbEntity
  8
1
370
    30
  6
Continuous
 62
     7
100
AcDbCircle
 10
247.131379
 20
335.571206
 30
0.0
 40
0.45
100
AcDbArc
 50
180.0
 51
-90.0
  0
ARC
  5
122
100
AcDbEntity
  8
1
370
    30
  6
Continuous
 62
     7
100
AcDbCircle
 10
247.656379
 20
336.096206
 30
0.0
 40
0.15
100
AcDbArc
 50
0.0
 51
90.0
  0
ARC
  5
123
100
AcDbEntity
  8
1
370
    30
  6
Continuous
 62
     7
100
AcDbCircle
 10
247.731379
 20
336.171206
 30
0.0
 40
0.45
100
AcDbArc
 50
0.0
 51
90.0
  0
ARC
  5
124
100
AcDbEntity
  8
1
370
    30
  6
Continuous
 62
     7
100
AcDbCircle
 10
247.206379
 20
335.646206
 30
0.0
 40
0.15
100
AcDbArc
 50
180.0
 51
-90.0
  0
ARC
  5
125
100
AcDbEntity
  8
1
370
    30
  6
Continuous
 62
     7
100
AcDbCircle
 10
247.131379
 20
336.171206
 30
0.0
 40
0.45
100
AcDbArc
 50
90.0
 51
180.0
  0
ARC
  5
126
100
AcDbEntity
  8
1
370
    30
  6
Continuous
 62
     7
100
AcDbCircle
 10
247.656379
 20
335.646206
 30
0.0
 40
0.15
100
AcDbArc
 50
-90.0
 51
0.0
  0
ARC
  5
127
100
AcDbEntity
  8
1
370
    30
  6
Continuous
 62
     7
100
AcDbCircle
 10
247.206379
 20
336.096206
 30
0.0
 40
0.15
100
AcDbArc
 50
90.0
 51
180.0
  0
LINE
  5
128
100
AcDbEntity
  8
1
370
    30
  6
Continuous
 62
     7
100
AcDbLine
 10
139.106379
 20
586.121206
 30
0.0
 11
139.106379
 21
286.121206
 31
0.0
  0
LINE
  5
129
100
AcDbEntity
  8
1
370
    30
  6
Continuous
 62
     7
100
AcDbLine
 10
354.106379
 20
586.121206
 30
0.0
 11
354.106379
 21
286.121206
 31
0.0
  0
LINE
  5
12A
100
AcDbEntity
  8
1
370
    30
  6
Continuous
 62
     7
100
AcDbLine
 10
139.106379
 20
586.121206
 30
0.0
 11
354.106379
 21
586.121206
 31
0.0
  0
LINE
  5
12B
100
AcDbEntity
  8
1
370
    30
  6
Continuous
 62
     7
100
AcDbLine
 10
139.106379
 20
286.121206
 30
0.0
 11
354.106379
 21
286.121206
 31
0.0
  0
LINE
  5
12C
100
AcDbEntity
  8
1
370
    30
  6
Continuous
 62
     7
100
AcDbLine
 10
259.106379
 20
586.121206
 30
0.0
 11
290.106379
 21
586.121206
 31
0.0
  0
LINE
  5
12D
100
AcDbEntity
  8
1
370
    30
  6
Continuous
 62
     7
100
AcDbLine
 10
290.106379
 20
586.121206
 30
0.0
 11
290.106379
 21
587.621206
 31
0.0
  0
ARC
  5
12E
100
AcDbEntity
  8
1
370
    30
  6
Continuous
 62
     7
100
AcDbCircle
 10
286.606379
 20
587.621206
 30
0.0
 40
3.5
100
AcDbArc
 50
0.0
 51
90.0
  0
LINE
  5
12F
100
AcDbEntity
  8
1
370
    30
  6
Continuous
 62
     7
100
AcDbLine
 10
286.606379
 20
591.121206
 30
0.0
 11
262.606379
 21
591.121206
 31
0.0
  0
LINE
  5
130
100
AcDbEntity
  8
1
370
    30
  6
Continuous
 62
     7
100
AcDbLine
 10
259.106379
 20
587.621206
 30
0.0
 11
259.106379
 21
586.121206
 31
0.0
  0
ARC
  5
131
100
AcDbEntity
  8
1
370
    30
  6
Continuous
 62
     7
100
AcDbCircle
 10
262.606379
 20
587.621206
 30
0.0
 40
3.5
100
AcDbArc
 50
90.0
 51
180.0
  0
ARC
  5
132
100
AcDbEntity
  8
1
370
    30
  6
Continuous
 62
     7
100
AcDbCircle
 10
284.606379
 20
591.621206
 30
0.0
 40
0.5
100
AcDbArc
 50
0.0
 51
90.0
  0
LINE
  5
133
100
AcDbEntity
  8
1
370
    30
  6
Continuous
 62
     7
100
AcDbLine
 10
285.106379
 20
591.621206
 30
0.0
 11
285.106379
 21
591.121206
 31
0.0
  0
ARC
  5
134
100
AcDbEntity
  8
1
370
    30
  6
Continuous
 62
     7
100
AcDbCircle
 10
264.606379
 20
591.621206
 30
0.0
 40
0.5
100
AcDbArc
 50
90.0
 51
180.0
  0
LINE
  5
135
100
AcDbEntity
  8
1
370
    30
  6
Continuous
 62
     7
100
AcDbLine
 10
264.106379
 20
591.621206
 30
0.0
 11
264.106379
 21
591.121206
 31
0.0
  0
LINE
  5
136
100
AcDbEntity
  8
1
370
    30
  6
Continuous
 62
     7
100
AcDbLine
 10
284.606379
 20
592.121206
 30
0.0
 11
264.606379
 21
592.121206
 31
0.0
  0
LINE
  5
137
100
AcDbEntity
  8
1
370
     9
  6
Continuous
 62
     7
100
AcDbLine
 10
246.606379
 20
319.871206
 30
0.0
 11
251.594627
 21
314.679156
 31
0.0
  0
LINE
  5
138
100
AcDbEntity
  8
1
370
     9
  6
Continuous
 62
     7
100
AcDbLine
 10
246.606379
 20
319.871206
 30
0.0
 11
248.330303
 21
312.880635
 31
0.0
  0
POLYLINE
  5
139
100
AcDbEntity
  8
1
370
     9
  6
Continuous
 62
     7
100
AcDb2dPolyline
 66
     1
 10
0.0
 20
0.0
 30
0.0
  0
VERTEX
  5
13A
100
AcDbEntity
  8
1
370
     9
  6
Continuous
 62
     7
100
AcDbVertex
100
AcDb2dVertex
 10
246.606379
 20
319.871206
 30
0.0
  0
VERTEX
  5
13B
100
AcDbEntity
  8
1
370
     9
  6
Continuous
 62
     7
100
AcDbVertex
100
AcDb2dVertex
 10
286.645434
 20
247.200148
 30
0.0
  0
VERTEX
  5
13C
100
AcDbEntity
  8
1
370
     9
  6
Continuous
 62
     7
100
AcDbVertex
100
AcDb2dVertex
 10
343.645434
 20
247.200148
 30
0.0
  0
SEQEND
  5
13D
100
AcDbEntity
  8
1
370
     9
  6
Continuous
 62
     7
  0
TEXT
  5
13E
100
AcDbEntity
  8
1
370
     9
  6
Continuous
 62
     7
100
AcDbText
 10
286.645434
 20
248.700148
 30
0.0
 40
9.0
  1
シリンダー錠
 41
0.87963
 11
286.645434
 21
248.700148
 31
0.0
100
AcDbText
 73
     1
  0
LINE
  5
13F
100
AcDbEntity
  8
1
370
    30
  6
Continuous
 62
     7
100
AcDbLine
 10
456.173547
 20
339.880775
 30
0.0
 11
455.173547
 21
339.880775
 31
0.0
  0
LINE
  5
140
100
AcDbEntity
  8
1
370
    30
  6
Continuous
 62
     7
100
AcDbLine
 10
454.173547
 20
338.880775
 30
0.0
 11
454.173547
 21
320.880775
 31
0.0
  0
LINE
  5
141
100
AcDbEntity
  8
1
370
    30
  6
Continuous
 62
     7
100
AcDbLine
 10
455.173547
 20
319.880775
 30
0.0
 11
456.173547
 21
319.880775
 31
0.0
  0
LINE
  5
142
100
AcDbEntity
  8
1
370
    30
  6
Continuous
 62
     7
100
AcDbLine
 10
456.173547
 20
319.880775
 30
0.0
 11
456.173547
 21
339.880775
 31
0.0
  0
LINE
  5
143
100
AcDbEntity
  8
1
370
    30
  6
Continuous
 62
     7
100
AcDbLine
 10
455.173547
 20
339.880775
 30
0.0
 11
454.173547
 21
338.880775
 31
0.0
  0
LINE
  5
144
100
AcDbEntity
  8
1
370
    30
  6
Continuous
 62
     7
100
AcDbLine
 10
454.173547
 20
320.880775
 30
0.0
 11
455.173547
 21
319.880775
 31
0.0
  0
LINE
  5
145
100
AcDbEntity
  8
1
370
    30
  6
Continuous
 62
     7
100
AcDbLine
 10
455.173547
 20
339.880775
 30
0.0
 11
455.173547
 21
319.880775
 31
0.0
  0
LINE
  5
146
100
AcDbEntity
  8
1
370
    30
  6
Continuous
 62
     7
100
AcDbLine
 10
457.173547
 20
286.130775
 30
0.0
 11
531.173547
 21
286.130775
 31
0.0
  0
LINE
  5
147
100
AcDbEntity
  8
1
370
    30
  6
Continuous
 62
     7
100
AcDbLine
 10
531.173547
 20
586.130775
 30
0.0
 11
531.173547
 21
286.130775
 31
0.0
  0
LINE
  5
148
100
AcDbEntity
  8
1
370
    30
  6
Continuous
 62
     7
100
AcDbLine
 10
531.173547
 20
586.130775
 30
0.0
 11
457.173547
 21
586.130775
 31
0.0
  0
LINE
  5
149
100
AcDbEntity
  8
1
370
    30
  6
Continuous
 62
     7
100
AcDbLine
 10
531.173547
 20
585.130775
 30
0.0
 11
456.93104
 21
585.130775
 31
0.0
  0
LINE
  5
14A
100
AcDbEntity
  8
1
370
    30
  6
Continuous
 62
     7
100
AcDbLine
 10
457.136348
 20
287.130775
 30
0.0
 11
531.173547
 21
287.130775
 31
0.0
  0
LINE
  5
14B
100
AcDbEntity
  8
1
370
    30
  6
Continuous
 62
     7
100
AcDbLine
 10
456.173547
 20
585.130775
 30
0.0
 11
456.173547
 21
287.130775
 31
0.0
  0
ARC
  5
14C
100
AcDbEntity
  8
1
370
    30
  6
Continuous
 62
     7
100
AcDbCircle
 10
457.173547
 20
585.130775
 30
0.0
 40
1.0
100
AcDbArc
 50
90.0
 51
180.0
  0
ARC
  5
14D
100
AcDbEntity
  8
1
370
    30
  6
Continuous
 62
     7
100
AcDbCircle
 10
457.173547
 20
287.130775
 30
0.0
 40
1.0
100
AcDbArc
 50
180.0
 51
-90.0
  0
LINE
  5
14E
100
AcDbEntity
  8
1
370
    30
  6
Continuous
 62
     7
100
AcDbLine
 10
521.673547
 20
586.130775
 30
0.0
 11
521.673547
 21
587.630775
 31
0.0
  0
LINE
  5
14F
100
AcDbEntity
  8
1
370
    30
  6
Continuous
 62
     7
100
AcDbLine
 10
490.673547
 20
587.630775
 30
0.0
 11
490.673547
 21
586.130775
 31
0.0
  0
LINE
  5
150
100
AcDbEntity
  8
1
370
    30
  6
Continuous
 62
     7
100
AcDbLine
 10
516.173547
 20
592.130775
 30
0.0
 11
496.173547
 21
592.130775
 31
0.0
  0
LINE
  5
151
100
AcDbEntity
  8
1
370
    30
  6
Continuous
 62
     7
100
AcDbLine
 10
495.673547
 20
591.630775
 30
0.0
 11
495.673547
 21
591.130775
 31
0.0
  0
ARC
  5
152
100
AcDbEntity
  8
1
370
    30
  6
Continuous
 62
     7
100
AcDbCircle
 10
496.173547
 20
591.630775
 30
0.0
 40
0.5
100
AcDbArc
 50
90.0
 51
180.0
  0
LINE
  5
153
100
AcDbEntity
  8
1
370
    30
  6
Continuous
 62
     7
100
AcDbLine
 10
516.673547
 20
591.630775
 30
0.0
 11
516.673547
 21
591.130775
 31
0.0
  0
ARC
  5
154
100
AcDbEntity
  8
1
370
    30
  6
Continuous
 62
     7
100
AcDbCircle
 10
516.173547
 20
591.630775
 30
0.0
 40
0.5
100
AcDbArc
 50
0.0
 51
90.0
  0
ARC
  5
155
100
AcDbEntity
  8
1
370
    30
  6
Continuous
 62
     7
100
AcDbCircle
 10
494.173547
 20
587.630775
 30
0.0
 40
3.5
100
AcDbArc
 50
90.0
 51
180.0
  0
LINE
  5
156
100
AcDbEntity
  8
1
370
    30
  6
Continuous
 62
     7
100
AcDbLine
 10
518.173547
 20
591.130775
 30
0.0
 11
494.173547
 21
591.130775
 31
0.0
  0
ARC
  5
157
100
AcDbEntity
  8
1
370
    30
  6
Continuous
 62
     7
100
AcDbCircle
 10
518.173547
 20
587.630775
 30
0.0
 40
3.5
100
AcDbArc
 50
0.0
 51
90.0
  0
LINE
  5
158
100
AcDbEntity
  8
1
370
    30
  6
Continuous
 62
     7
100
AcDbLine
 10
743.898852
 20
577.621206
 30
0.0
 11
743.898852
 21
573.951333
 31
0.0
  0
LINE
  5
159
100
AcDbEntity
  8
1
370
    30
  6
Continuous
 62
     7
100
AcDbLine
 10
738.898852
 20
577.621206
 30
0.0
 11
738.898852
 21
573.951333
 31
0.0
  0
LINE
  5
15A
100
AcDbEntity
  8
1
370
    30
  6
Continuous
 62
     7
100
AcDbLine
 10
847.398852
 20
288.621206
 30
0.0
 11
635.398852
 21
288.621206
 31
0.0
  0
LINE
  5
15B
100
AcDbEntity
  8
1
370
    30
  6
Continuous
 62
     7
100
AcDbLine
 10
847.398852
 20
583.621206
 30
0.0
 11
833.898852
 21
583.621206
 31
0.0
  0
LINE
  5
15C
100
AcDbEntity
  8
1
370
    30
  6
Continuous
 62
     7
100
AcDbLine
 10
635.398852
 20
583.621206
 30
0.0
 11
635.398852
 21
288.621206
 31
0.0
  0
LINE
  5
15D
100
AcDbEntity
  8
1
370
    30
  6
Continuous
 62
     7
100
AcDbLine
 10
847.398852
 20
583.621206
 30
0.0
 11
847.398852
 21
288.621206
 31
0.0
  0
LINE
  5
15E
100
AcDbEntity
  8
1
370
    30
  6
Continuous
 62
     7
100
AcDbLine
 10
847.398852
 20
582.421206
 30
0.0
 11
833.198852
 21
582.421206
 31
0.0
  0
LINE
  5
15F
100
AcDbEntity
  8
1
370
    30
  6
Continuous
 62
     7
100
AcDbLine
 10
636.598852
 20
582.421206
 30
0.0
 11
636.598852
 21
289.821206
 31
0.0
  0
LINE
  5
160
100
AcDbEntity
  8
1
370
    30
  6
Continuous
 62
     7
100
AcDbLine
 10
846.198852
 20
582.421206
 30
0.0
 11
846.198852
 21
289.821206
 31
0.0
  0
LINE
  5
161
100
AcDbEntity
  8
1
370
    30
  6
Continuous
 62
     7
100
AcDbLine
 10
847.398852
 20
289.821206
 30
0.0
 11
635.398852
 21
289.821206
 31
0.0
  0
LINE
  5
162
100
AcDbEntity
  8
1
370
    30
  6
Continuous
 62
     7
100
AcDbLine
 10
848.898852
 20
586.121206
 30
0.0
 11
848.898852
 21
585.121206
 31
0.0
  0
LINE
  5
163
100
AcDbEntity
  8
1
370
    30
  6
Continuous
 62
     7
100
AcDbLine
 10
633.898852
 20
586.121206
 30
0.0
 11
633.898852
 21
585.121206
 31
0.0
  0
LINE
  5
164
100
AcDbEntity
  8
1
370
    30
  6
Continuous
 62
     7
100
AcDbLine
 10
848.898852
 20
586.121206
 30
0.0
 11
633.898852
 21
586.121206
 31
0.0
  0
LINE
  5
165
100
AcDbEntity
  8
1
370
    30
  6
Continuous
 62
     7
100
AcDbLine
 10
848.898852
 20
286.121206
 30
0.0
 11
633.898852
 21
286.121206
 31
0.0
  0
LINE
  5
166
100
AcDbEntity
  8
1
370
    30
  6
Continuous
 62
     7
100
AcDbLine
 10
633.898852
 20
584.621206
 30
0.0
 11
633.898852
 21
287.621206
 31
0.0
  0
LINE
  5
167
100
AcDbEntity
  8
1
370
    30
  6
Continuous
 62
     7
100
AcDbLine
 10
847.898852
 20
288.121206
 30
0.0
 11
839.898852
 21
288.121206
 31
0.0
  0
LINE
  5
168
100
AcDbEntity
  8
1
370
    30
  6
Continuous
 62
     7
100
AcDbLine
 10
839.898852
 20
288.121206
 30
0.0
 11
839.898852
 21
287.121206
 31
0.0
  0
LINE
  5
169
100
AcDbEntity
  8
1
370
    30
  6
Continuous
 62
     7
100
AcDbLine
 10
847.898852
 20
584.121206
 30
0.0
 11
839.898852
 21
584.121206
 31
0.0
  0
LINE
  5
16A
100
AcDbEntity
  8
1
370
    30
  6
Continuous
 62
     7
100
AcDbLine
 10
642.898852
 20
585.121206
 30
0.0
 11
642.898852
 21
584.121206
 31
0.0
  0
LINE
  5
16B
100
AcDbEntity
  8
1
370
    30
  6
Continuous
 62
     7
100
AcDbLine
 10
848.898852
 20
585.121206
 30
0.0
 11
833.898852
 21
585.121206
 31
0.0
  0
LINE
  5
16C
100
AcDbEntity
  8
1
370
    30
  6
Continuous
 62
     7
100
AcDbLine
 10
642.898852
 20
288.121206
 30
0.0
 11
634.898852
 21
288.121206
 31
0.0
  0
LINE
  5
16D
100
AcDbEntity
  8
1
370
    30
  6
Continuous
 62
     7
100
AcDbLine
 10
847.898852
 20
584.121206
 30
0.0
 11
847.898852
 21
288.121206
 31
0.0
  0
LINE
  5
16E
100
AcDbEntity
  8
1
370
    30
  6
Continuous
 62
     7
100
AcDbLine
 10
839.898852
 20
585.121206
 30
0.0
 11
839.898852
 21
584.121206
 31
0.0
  0
LINE
  5
16F
100
AcDbEntity
  8
1
370
    30
  6
Continuous
 62
     7
100
AcDbLine
 10
634.898852
 20
584.121206
 30
0.0
 11
634.898852
 21
288.121206
 31
0.0
  0
LINE
  5
170
100
AcDbEntity
  8
1
370
    30
  6
Continuous
 62
     7
100
AcDbLine
 10
642.898852
 20
288.121206
 30
0.0
 11
642.898852
 21
287.121206
 31
0.0
  0
LINE
  5
171
100
AcDbEntity
  8
1
370
    30
  6
Continuous
 62
     7
100
AcDbLine
 10
848.898852
 20
287.121206
 30
0.0
 11
633.898852
 21
287.121206
 31
0.0
  0
LINE
  5
172
100
AcDbEntity
  8
1
370
    30
  6
Continuous
 62
     7
100
AcDbLine
 10
642.898852
 20
584.121206
 30
0.0
 11
634.898852
 21
584.121206
 31
0.0
  0
LINE
  5
173
100
AcDbEntity
  8
1
370
    30
  6
Continuous
 62
     7
100
AcDbLine
 10
663.898852
 20
586.121206
 30
0.0
 11
663.898852
 21
583.121206
 31
0.0
  0
LINE
  5
174
100
AcDbEntity
  8
1
370
    30
  6
Continuous
 62
     7
100
AcDbLine
 10
648.898852
 20
586.121206
 30
0.0
 11
648.898852
 21
583.121206
 31
0.0
  0
LINE
  5
175
100
AcDbEntity
  8
1
370
    30
  6
Continuous
 62
     7
100
AcDbLine
 10
833.898852
 20
586.121206
 30
0.0
 11
833.898852
 21
583.121206
 31
0.0
  0
LINE
  5
176
100
AcDbEntity
  8
1
370
    30
  6
Continuous
 62
     7
100
AcDbLine
 10
818.898852
 20
586.121206
 30
0.0
 11
818.898852
 21
583.121206
 31
0.0
  0
LINE
  5
177
100
AcDbEntity
  8
1
370
    30
  6
Continuous
 62
     7
100
AcDbLine
 10
832.898852
 20
582.121206
 30
0.0
 11
819.898852
 21
582.121206
 31
0.0
  0
LINE
  5
178
100
AcDbEntity
  8
1
370
    30
  6
Continuous
 62
     7
100
AcDbLine
 10
662.898852
 20
582.121206
 30
0.0
 11
663.898852
 21
583.121206
 31
0.0
  0
LINE
  5
179
100
AcDbEntity
  8
1
370
    30
  6
Continuous
 62
     7
100
AcDbLine
 10
648.898852
 20
583.121206
 30
0.0
 11
649.898852
 21
582.121206
 31
0.0
  0
LINE
  5
17A
100
AcDbEntity
  8
1
370
    30
  6
Continuous
 62
     7
100
AcDbLine
 10
818.898852
 20
585.121206
 30
0.0
 11
663.898852
 21
585.121206
 31
0.0
  0
LINE
  5
17B
100
AcDbEntity
  8
1
370
    30
  6
Continuous
 62
     7
100
AcDbLine
 10
648.898852
 20
585.121206
 30
0.0
 11
633.898852
 21
585.121206
 31
0.0
  0
LINE
  5
17C
100
AcDbEntity
  8
1
370
    30
  6
Continuous
 62
     7
100
AcDbLine
 10
662.898852
 20
582.121206
 30
0.0
 11
649.898852
 21
582.121206
 31
0.0
  0
LINE
  5
17D
100
AcDbEntity
  8
1
370
    30
  6
Continuous
 62
     7
100
AcDbLine
 10
818.898852
 20
583.121206
 30
0.0
 11
819.898852
 21
582.121206
 31
0.0
  0
LINE
  5
17E
100
AcDbEntity
  8
1
370
    30
  6
Continuous
 62
     7
100
AcDbLine
 10
832.898852
 20
582.121206
 30
0.0
 11
833.898852
 21
583.121206
 31
0.0
  0
LINE
  5
17F
100
AcDbEntity
  8
1
370
    30
  6
Continuous
 62
     7
100
AcDbLine
 10
848.898852
 20
584.621206
 30
0.0
 11
848.898852
 21
287.621206
 31
0.0
  0
LINE
  5
180
100
AcDbEntity
  8
1
370
    30
  6
Continuous
 62
     7
100
AcDbLine
 10
633.898852
 20
287.121206
 30
0.0
 11
633.898852
 21
286.121206
 31
0.0
  0
LINE
  5
181
100
AcDbEntity
  8
1
370
    30
  6
Continuous
 62
     7
100
AcDbLine
 10
848.898852
 20
287.121206
 30
0.0
 11
848.898852
 21
286.121206
 31
0.0
  0
LINE
  5
182
100
AcDbEntity
  8
1
370
    30
  6
Continuous
 62
     7
100
AcDbLine
 10
647.898852
 20
583.621206
 30
0.0
 11
647.898852
 21
582.421206
 31
0.0
  0
LINE
  5
183
100
AcDbEntity
  8
1
370
    30
  6
Continuous
 62
     7
100
AcDbLine
 10
664.898852
 20
583.621206
 30
0.0
 11
664.898852
 21
582.421206
 31
0.0
  0
LINE
  5
184
100
AcDbEntity
  8
1
370
    30
  6
Continuous
 62
     7
100
AcDbLine
 10
648.898852
 20
583.621206
 30
0.0
 11
635.398852
 21
583.621206
 31
0.0
  0
LINE
  5
185
100
AcDbEntity
  8
1
370
    30
  6
Continuous
 62
     7
100
AcDbLine
 10
649.598852
 20
582.421206
 30
0.0
 11
635.398852
 21
582.421206
 31
0.0
  0
LINE
  5
186
100
AcDbEntity
  8
1
370
    30
  6
Continuous
 62
     7
100
AcDbLine
 10
817.898852
 20
583.621206
 30
0.0
 11
817.898852
 21
582.421206
 31
0.0
  0
LINE
  5
187
100
AcDbEntity
  8
1
370
    30
  6
Continuous
 62
     7
100
AcDbLine
 10
834.898852
 20
583.621206
 30
0.0
 11
834.898852
 21
582.421206
 31
0.0
  0
LINE
  5
188
100
AcDbEntity
  8
1
370
    30
  6
Continuous
 62
     7
100
AcDbLine
 10
819.598852
 20
582.421206
 30
0.0
 11
663.198852
 21
582.421206
 31
0.0
  0
LINE
  5
189
100
AcDbEntity
  8
1
370
    30
  6
Continuous
 62
     7
100
AcDbLine
 10
818.898852
 20
583.621206
 30
0.0
 11
663.898852
 21
583.621206
 31
0.0
  0
LINE
  5
18A
100
AcDbEntity
  8
1
370
    30
  6
Continuous
 62
     7
100
AcDbLine
 10
791.498852
 20
405.121206
 30
0.0
 11
790.998852
 21
405.121206
 31
0.0
  0
LINE
  5
18B
100
AcDbEntity
  8
1
370
    30
  6
Continuous
 62
     7
100
AcDbLine
 10
769.298852
 20
431.121206
 30
0.0
 11
769.298852
 21
429.121206
 31
0.0
  0
LINE
  5
18C
100
AcDbEntity
  8
1
370
    30
  6
Continuous
 62
     7
100
AcDbLine
 10
774.598852
 20
431.121206
 30
0.0
 11
774.598852
 21
429.121206
 31
0.0
  0
LINE
  5
18D
100
AcDbEntity
  8
1
370
    30
  6
Continuous
 62
     7
100
AcDbLine
 10
769.298852
 20
431.121206
 30
0.0
 11
771.098852
 21
431.121206
 31
0.0
  0
LINE
  5
18E
100
AcDbEntity
  8
1
370
    30
  6
Continuous
 62
     7
100
AcDbLine
 10
776.298852
 20
431.121206
 30
0.0
 11
778.098852
 21
431.121206
 31
0.0
  0
LINE
  5
18F
100
AcDbEntity
  8
1
370
    30
  6
Continuous
 62
     7
100
AcDbLine
 10
740.898852
 20
428.121206
 30
0.0
 11
791.898852
 21
428.121206
 31
0.0
  0
LINE
  5
190
100
AcDbEntity
  8
1
370
    30
  6
Continuous
 62
     7
100
AcDbLine
 10
791.498852
 20
406.121206
 30
0.0
 11
740.898852
 21
406.121206
 31
0.0
  0
LINE
  5
191
100
AcDbEntity
  8
1
370
    30
  6
Continuous
 62
     7
100
AcDbLine
 10
772.798852
 20
431.121206
 30
0.0
 11
774.598852
 21
431.121206
 31
0.0
  0
LINE
  5
192
100
AcDbEntity
  8
1
370
    30
  6
Continuous
 62
     7
100
AcDbLine
 10
772.798852
 20
431.121206
 30
0.0
 11
772.798852
 21
429.121206
 31
0.0
  0
LINE
  5
193
100
AcDbEntity
  8
1
370
    30
  6
Continuous
 62
     7
100
AcDbLine
 10
771.098852
 20
431.121206
 30
0.0
 11
771.098852
 21
429.121206
 31
0.0
  0
LINE
  5
194
100
AcDbEntity
  8
1
370
    30
  6
Continuous
 62
     7
100
AcDbLine
 10
778.098852
 20
431.121206
 30
0.0
 11
778.098852
 21
429.121206
 31
0.0
  0
LINE
  5
195
100
AcDbEntity
  8
1
370
    30
  6
Continuous
 62
     7
100
AcDbLine
 10
779.798852
 20
431.121206
 30
0.0
 11
781.598852
 21
431.121206
 31
0.0
  0
LINE
  5
196
100
AcDbEntity
  8
1
370
    30
  6
Continuous
 62
     7
100
AcDbLine
 10
776.298852
 20
431.121206
 30
0.0
 11
776.298852
 21
429.121206
 31
0.0
  0
LINE
  5
197
100
AcDbEntity
  8
1
370
    30
  6
Continuous
 62
     7
100
AcDbLine
 10
771.098852
 20
429.121206
 30
0.0
 11
772.798852
 21
429.121206
 31
0.0
  0
LINE
  5
198
100
AcDbEntity
  8
1
370
    30
  6
Continuous
 62
     7
100
AcDbLine
 10
781.598852
 20
431.121206
 30
0.0
 11
781.598852
 21
429.121206
 31
0.0
  0
LINE
  5
199
100
AcDbEntity
  8
1
370
    30
  6
Continuous
 62
     7
100
AcDbLine
 10
779.798852
 20
431.121206
 30
0.0
 11
779.798852
 21
429.121206
 31
0.0
  0
LINE
  5
19A
100
AcDbEntity
  8
1
370
    30
  6
Continuous
 62
     7
100
AcDbLine
 10
783.298852
 20
431.121206
 30
0.0
 11
785.098852
 21
431.121206
 31
0.0
  0
LINE
  5
19B
100
AcDbEntity
  8
1
370
    30
  6
Continuous
 62
     7
100
AcDbLine
 10
785.098852
 20
431.121206
 30
0.0
 11
785.098852
 21
429.121206
 31
0.0
  0
LINE
  5
19C
100
AcDbEntity
  8
1
370
    30
  6
Continuous
 62
     7
100
AcDbLine
 10
783.298852
 20
431.121206
 30
0.0
 11
783.298852
 21
429.121206
 31
0.0
  0
LINE
  5
19D
100
AcDbEntity
  8
1
370
    30
  6
Continuous
 62
     7
100
AcDbLine
 10
786.798852
 20
431.121206
 30
0.0
 11
788.598852
 21
431.121206
 31
0.0
  0
LINE
  5
19E
100
AcDbEntity
  8
1
370
    30
  6
Continuous
 62
     7
100
AcDbLine
 10
788.598852
 20
431.121206
 30
0.0
 11
788.598852
 21
429.121206
 31
0.0
  0
LINE
  5
19F
100
AcDbEntity
  8
1
370
    30
  6
Continuous
 62
     7
100
AcDbLine
 10
786.798852
 20
431.121206
 30
0.0
 11
786.798852
 21
429.121206
 31
0.0
  0
LINE
  5
1A0
100
AcDbEntity
  8
1
370
    30
  6
Continuous
 62
     7
100
AcDbLine
 10
790.298852
 20
431.121206
 30
0.0
 11
792.098852
 21
431.121206
 31
0.0
  0
LINE
  5
1A1
100
AcDbEntity
  8
1
370
    30
  6
Continuous
 62
     7
100
AcDbLine
 10
792.098852
 20
431.121206
 30
0.0
 11
792.098852
 21
429.121206
 31
0.0
  0
LINE
  5
1A2
100
AcDbEntity
  8
1
370
    30
  6
Continuous
 62
     7
100
AcDbLine
 10
790.298852
 20
431.121206
 30
0.0
 11
790.298852
 21
429.121206
 31
0.0
  0
LINE
  5
1A3
100
AcDbEntity
  8
1
370
    30
  6
Continuous
 62
     7
100
AcDbLine
 10
762.298852
 20
431.121206
 30
0.0
 11
762.298852
 21
429.121206
 31
0.0
  0
LINE
  5
1A4
100
AcDbEntity
  8
1
370
    30
  6
Continuous
 62
     7
100
AcDbLine
 10
762.298852
 20
431.121206
 30
0.0
 11
764.098852
 21
431.121206
 31
0.0
  0
LINE
  5
1A5
100
AcDbEntity
  8
1
370
    30
  6
Continuous
 62
     7
100
AcDbLine
 10
764.098852
 20
431.121206
 30
0.0
 11
764.098852
 21
429.121206
 31
0.0
  0
LINE
  5
1A6
100
AcDbEntity
  8
1
370
    30
  6
Continuous
 62
     7
100
AcDbLine
 10
758.798852
 20
431.121206
 30
0.0
 11
758.798852
 21
429.121206
 31
0.0
  0
LINE
  5
1A7
100
AcDbEntity
  8
1
370
    30
  6
Continuous
 62
     7
100
AcDbLine
 10
758.798852
 20
431.121206
 30
0.0
 11
760.598852
 21
431.121206
 31
0.0
  0
LINE
  5
1A8
100
AcDbEntity
  8
1
370
    30
  6
Continuous
 62
     7
100
AcDbLine
 10
760.598852
 20
431.121206
 30
0.0
 11
760.598852
 21
429.121206
 31
0.0
  0
LINE
  5
1A9
100
AcDbEntity
  8
1
370
    30
  6
Continuous
 62
     7
100
AcDbLine
 10
751.798852
 20
431.121206
 30
0.0
 11
751.798852
 21
429.121206
 31
0.0
  0
LINE
  5
1AA
100
AcDbEntity
  8
1
370
    30
  6
Continuous
 62
     7
100
AcDbLine
 10
751.798852
 20
431.121206
 30
0.0
 11
753.598852
 21
431.121206
 31
0.0
  0
LINE
  5
1AB
100
AcDbEntity
  8
1
370
    30
  6
Continuous
 62
     7
100
AcDbLine
 10
753.598852
 20
431.121206
 30
0.0
 11
753.598852
 21
429.121206
 31
0.0
  0
LINE
  5
1AC
100
AcDbEntity
  8
1
370
    30
  6
Continuous
 62
     7
100
AcDbLine
 10
748.298852
 20
431.121206
 30
0.0
 11
748.298852
 21
429.121206
 31
0.0
  0
LINE
  5
1AD
100
AcDbEntity
  8
1
370
    30
  6
Continuous
 62
     7
100
AcDbLine
 10
748.298852
 20
431.121206
 30
0.0
 11
750.098852
 21
431.121206
 31
0.0
  0
LINE
  5
1AE
100
AcDbEntity
  8
1
370
    30
  6
Continuous
 62
     7
100
AcDbLine
 10
750.098852
 20
431.121206
 30
0.0
 11
750.098852
 21
429.121206
 31
0.0
  0
LINE
  5
1AF
100
AcDbEntity
  8
1
370
    30
  6
Continuous
 62
     7
100
AcDbLine
 10
744.798852
 20
431.121206
 30
0.0
 11
744.798852
 21
429.121206
 31
0.0
  0
LINE
  5
1B0
100
AcDbEntity
  8
1
370
    30
  6
Continuous
 62
     7
100
AcDbLine
 10
744.798852
 20
431.121206
 30
0.0
 11
746.598852
 21
431.121206
 31
0.0
  0
LINE
  5
1B1
100
AcDbEntity
  8
1
370
    30
  6
Continuous
 62
     7
100
AcDbLine
 10
746.598852
 20
431.121206
 30
0.0
 11
746.598852
 21
429.121206
 31
0.0
  0
LINE
  5
1B2
100
AcDbEntity
  8
1
370
    30
  6
Continuous
 62
     7
100
AcDbLine
 10
741.298852
 20
431.121206
 30
0.0
 11
741.298852
 21
429.114538
 31
0.0
  0
LINE
  5
1B3
100
AcDbEntity
  8
1
370
    30
  6
Continuous
 62
     7
100
AcDbLine
 10
741.298852
 20
431.121206
 30
0.0
 11
743.098852
 21
431.121206
 31
0.0
  0
LINE
  5
1B4
100
AcDbEntity
  8
1
370
    30
  6
Continuous
 62
     7
100
AcDbLine
 10
743.098852
 20
431.121206
 30
0.0
 11
743.098852
 21
429.121206
 31
0.0
  0
LINE
  5
1B5
100
AcDbEntity
  8
1
370
    30
  6
Continuous
 62
     7
100
AcDbLine
 10
774.598852
 20
429.121206
 30
0.0
 11
776.298852
 21
429.121206
 31
0.0
  0
LINE
  5
1B6
100
AcDbEntity
  8
1
370
    30
  6
Continuous
 62
     7
100
AcDbLine
 10
768.198852
 20
403.121206
 30
0.0
 11
768.198852
 21
405.121206
 31
0.0
  0
LINE
  5
1B7
100
AcDbEntity
  8
1
370
    30
  6
Continuous
 62
     7
100
AcDbLine
 10
773.498852
 20
403.121206
 30
0.0
 11
773.498852
 21
405.121206
 31
0.0
  0
LINE
  5
1B8
100
AcDbEntity
  8
1
370
    30
  6
Continuous
 62
     7
100
AcDbLine
 10
768.198852
 20
403.121206
 30
0.0
 11
769.998852
 21
403.121206
 31
0.0
  0
LINE
  5
1B9
100
AcDbEntity
  8
1
370
    30
  6
Continuous
 62
     7
100
AcDbLine
 10
775.198852
 20
403.121206
 30
0.0
 11
776.998852
 21
403.121206
 31
0.0
  0
LINE
  5
1BA
100
AcDbEntity
  8
1
370
    30
  6
Continuous
 62
     7
100
AcDbLine
 10
771.698852
 20
403.121206
 30
0.0
 11
773.498852
 21
403.121206
 31
0.0
  0
LINE
  5
1BB
100
AcDbEntity
  8
1
370
    30
  6
Continuous
 62
     7
100
AcDbLine
 10
771.698852
 20
403.121206
 30
0.0
 11
771.698852
 21
405.121206
 31
0.0
  0
LINE
  5
1BC
100
AcDbEntity
  8
1
370
    30
  6
Continuous
 62
     7
100
AcDbLine
 10
769.998852
 20
403.121206
 30
0.0
 11
769.998852
 21
405.121206
 31
0.0
  0
LINE
  5
1BD
100
AcDbEntity
  8
1
370
    30
  6
Continuous
 62
     7
100
AcDbLine
 10
776.998852
 20
403.121206
 30
0.0
 11
776.998852
 21
405.121206
 31
0.0
  0
LINE
  5
1BE
100
AcDbEntity
  8
1
370
    30
  6
Continuous
 62
     7
100
AcDbLine
 10
778.698852
 20
403.121206
 30
0.0
 11
780.498852
 21
403.121206
 31
0.0
  0
LINE
  5
1BF
100
AcDbEntity
  8
1
370
    30
  6
Continuous
 62
     7
100
AcDbLine
 10
775.198852
 20
403.121206
 30
0.0
 11
775.198852
 21
405.121206
 31
0.0
  0
LINE
  5
1C0
100
AcDbEntity
  8
1
370
    30
  6
Continuous
 62
     7
100
AcDbLine
 10
780.498852
 20
403.121206
 30
0.0
 11
780.498852
 21
405.121206
 31
0.0
  0
LINE
  5
1C1
100
AcDbEntity
  8
1
370
    30
  6
Continuous
 62
     7
100
AcDbLine
 10
778.698852
 20
403.121206
 30
0.0
 11
778.698852
 21
405.121206
 31
0.0
  0
LINE
  5
1C2
100
AcDbEntity
  8
1
370
    30
  6
Continuous
 62
     7
100
AcDbLine
 10
782.198852
 20
403.121206
 30
0.0
 11
783.998852
 21
403.121206
 31
0.0
  0
LINE
  5
1C3
100
AcDbEntity
  8
1
370
    30
  6
Continuous
 62
     7
100
AcDbLine
 10
783.998852
 20
403.121206
 30
0.0
 11
783.998852
 21
405.121206
 31
0.0
  0
LINE
  5
1C4
100
AcDbEntity
  8
1
370
    30
  6
Continuous
 62
     7
100
AcDbLine
 10
782.198852
 20
403.121206
 30
0.0
 11
782.198852
 21
405.121206
 31
0.0
  0
LINE
  5
1C5
100
AcDbEntity
  8
1
370
    30
  6
Continuous
 62
     7
100
AcDbLine
 10
785.698852
 20
403.121206
 30
0.0
 11
787.498852
 21
403.121206
 31
0.0
  0
LINE
  5
1C6
100
AcDbEntity
  8
1
370
    30
  6
Continuous
 62
     7
100
AcDbLine
 10
787.498852
 20
403.121206
 30
0.0
 11
787.498852
 21
405.121206
 31
0.0
  0
LINE
  5
1C7
100
AcDbEntity
  8
1
370
    30
  6
Continuous
 62
     7
100
AcDbLine
 10
785.698852
 20
403.121206
 30
0.0
 11
785.698852
 21
405.121206
 31
0.0
  0
LINE
  5
1C8
100
AcDbEntity
  8
1
370
    30
  6
Continuous
 62
     7
100
AcDbLine
 10
789.198852
 20
403.121206
 30
0.0
 11
790.998852
 21
403.121206
 31
0.0
  0
LINE
  5
1C9
100
AcDbEntity
  8
1
370
    30
  6
Continuous
 62
     7
100
AcDbLine
 10
790.998852
 20
403.121206
 30
0.0
 11
790.998852
 21
405.121206
 31
0.0
  0
LINE
  5
1CA
100
AcDbEntity
  8
1
370
    30
  6
Continuous
 62
     7
100
AcDbLine
 10
789.198852
 20
403.121206
 30
0.0
 11
789.198852
 21
405.121206
 31
0.0
  0
LINE
  5
1CB
100
AcDbEntity
  8
1
370
    30
  6
Continuous
 62
     7
100
AcDbLine
 10
761.198852
 20
403.121206
 30
0.0
 11
761.198852
 21
405.121206
 31
0.0
  0
LINE
  5
1CC
100
AcDbEntity
  8
1
370
    30
  6
Continuous
 62
     7
100
AcDbLine
 10
761.198852
 20
403.121206
 30
0.0
 11
762.998852
 21
403.121206
 31
0.0
  0
LINE
  5
1CD
100
AcDbEntity
  8
1
370
    30
  6
Continuous
 62
     7
100
AcDbLine
 10
762.998852
 20
403.121206
 30
0.0
 11
762.998852
 21
405.121206
 31
0.0
  0
LINE
  5
1CE
100
AcDbEntity
  8
1
370
    30
  6
Continuous
 62
     7
100
AcDbLine
 10
754.198852
 20
403.121206
 30
0.0
 11
754.198852
 21
405.121206
 31
0.0
  0
LINE
  5
1CF
100
AcDbEntity
  8
1
370
    30
  6
Continuous
 62
     7
100
AcDbLine
 10
757.698852
 20
403.121206
 30
0.0
 11
759.498852
 21
403.121206
 31
0.0
  0
LINE
  5
1D0
100
AcDbEntity
  8
1
370
    30
  6
Continuous
 62
     7
100
AcDbLine
 10
759.498852
 20
403.121206
 30
0.0
 11
759.498852
 21
405.121206
 31
0.0
  0
LINE
  5
1D1
100
AcDbEntity
  8
1
370
    30
  6
Continuous
 62
     7
100
AcDbLine
 10
750.698852
 20
403.121206
 30
0.0
 11
750.698852
 21
405.121206
 31
0.0
  0
LINE
  5
1D2
100
AcDbEntity
  8
1
370
    30
  6
Continuous
 62
     7
100
AcDbLine
 10
750.698852
 20
403.121206
 30
0.0
 11
752.498852
 21
403.121206
 31
0.0
  0
LINE
  5
1D3
100
AcDbEntity
  8
1
370
    30
  6
Continuous
 62
     7
100
AcDbLine
 10
752.498852
 20
403.121206
 30
0.0
 11
752.498852
 21
405.121206
 31
0.0
  0
LINE
  5
1D4
100
AcDbEntity
  8
1
370
    30
  6
Continuous
 62
     7
100
AcDbLine
 10
747.198852
 20
403.121206
 30
0.0
 11
747.198852
 21
405.121206
 31
0.0
  0
LINE
  5
1D5
100
AcDbEntity
  8
1
370
    30
  6
Continuous
 62
     7
100
AcDbLine
 10
747.198852
 20
403.121206
 30
0.0
 11
748.998852
 21
403.121206
 31
0.0
  0
LINE
  5
1D6
100
AcDbEntity
  8
1
370
    30
  6
Continuous
 62
     7
100
AcDbLine
 10
748.998852
 20
403.121206
 30
0.0
 11
748.998852
 21
405.121206
 31
0.0
  0
LINE
  5
1D7
100
AcDbEntity
  8
1
370
    30
  6
Continuous
 62
     7
100
AcDbLine
 10
743.698852
 20
403.121206
 30
0.0
 11
743.698852
 21
405.121206
 31
0.0
  0
LINE
  5
1D8
100
AcDbEntity
  8
1
370
    30
  6
Continuous
 62
     7
100
AcDbLine
 10
743.698852
 20
403.121206
 30
0.0
 11
745.498852
 21
403.121206
 31
0.0
  0
LINE
  5
1D9
100
AcDbEntity
  8
1
370
    30
  6
Continuous
 62
     7
100
AcDbLine
 10
745.498852
 20
403.121206
 30
0.0
 11
745.498852
 21
405.121206
 31
0.0
  0
LINE
  5
1DA
100
AcDbEntity
  8
1
370
    30
  6
Continuous
 62
     7
100
AcDbLine
 10
740.198852
 20
403.121206
 30
0.0
 11
740.198852
 21
405.14164
 31
0.0
  0
LINE
  5
1DB
100
AcDbEntity
  8
1
370
    30
  6
Continuous
 62
     7
100
AcDbLine
 10
740.198852
 20
403.121206
 30
0.0
 11
741.998852
 21
403.121206
 31
0.0
  0
LINE
  5
1DC
100
AcDbEntity
  8
1
370
    30
  6
Continuous
 62
     7
100
AcDbLine
 10
741.998852
 20
403.121206
 30
0.0
 11
741.998852
 21
405.121206
 31
0.0
  0
LINE
  5
1DD
100
AcDbEntity
  8
1
370
    30
  6
Continuous
 62
     7
100
AcDbLine
 10
727.047998
 20
414.805212
 30
0.0
 11
729.090718
 21
414.983926
 31
0.0
  0
LINE
  5
1DE
100
AcDbEntity
  8
1
370
    30
  6
Continuous
 62
     7
100
AcDbLine
 10
726.891117
 20
416.598362
 30
0.0
 11
727.047998
 21
414.805212
 31
0.0
  0
LINE
  5
1DF
100
AcDbEntity
  8
1
370
    30
  6
Continuous
 62
     7
100
AcDbLine
 10
726.976083
 20
418.956007
 30
0.0
 11
728.981797
 21
418.52968
 31
0.0
  0
LINE
  5
1E0
100
AcDbEntity
  8
1
370
    30
  6
Continuous
 62
     7
100
AcDbLine
 10
726.891117
 20
416.598362
 30
0.0
 11
728.903863
 21
416.774454
 31
0.0
  0
LINE
  5
1E1
100
AcDbEntity
  8
1
370
    30
  6
Continuous
 62
     7
100
AcDbLine
 10
727.350324
 20
420.716673
 30
0.0
 11
726.976083
 21
418.956007
 31
0.0
  0
LINE
  5
1E2
100
AcDbEntity
  8
1
370
    30
  6
Continuous
 62
     7
100
AcDbLine
 10
729.578285
 20
408.854723
 30
0.0
 11
731.148457
 21
410.126223
 31
0.0
  0
LINE
  5
1E3
100
AcDbEntity
  8
1
370
    30
  6
Continuous
 62
     7
100
AcDbLine
 10
727.656054
 20
412.525742
 30
0.0
 11
729.529368
 21
413.28261
 31
0.0
  0
LINE
  5
1E4
100
AcDbEntity
  8
1
370
    30
  6
Continuous
 62
     7
100
AcDbLine
 10
729.578285
 20
408.854723
 30
0.0
 11
730.711061
 21
407.45586
 31
0.0
  0
LINE
  5
1E5
100
AcDbEntity
  8
1
370
    30
  6
Continuous
 62
     7
100
AcDbLine
 10
733.982093
 20
404.899568
 30
0.0
 11
735.128731
 21
406.599529
 31
0.0
  0
LINE
  5
1E6
100
AcDbEntity
  8
1
370
    30
  6
Continuous
 62
     7
100
AcDbLine
 10
737.857584
 20
403.411331
 30
0.0
 11
738.457099
 21
405.372256
 31
0.0
  0
LINE
  5
1E7
100
AcDbEntity
  8
1
370
    30
  6
Continuous
 62
     7
100
AcDbLine
 10
791.898852
 20
406.121206
 30
0.0
 11
791.898852
 21
405.121206
 31
0.0
  0
LINE
  5
1E8
100
AcDbEntity
  8
1
370
    30
  6
Continuous
 62
     7
100
AcDbLine
 10
799.987221
 20
428.548729
 30
0.0
 11
798.820138
 21
426.924562
 31
0.0
  0
LINE
  5
1E9
100
AcDbEntity
  8
1
370
    30
  6
Continuous
 62
     7
100
AcDbLine
 10
804.370119
 20
423.760294
 30
0.0
 11
804.994604
 21
422.072094
 31
0.0
  0
LINE
  5
1EA
100
AcDbEntity
  8
1
370
    30
  6
Continuous
 62
     7
100
AcDbLine
 10
796.292713
 20
430.414211
 30
0.0
 11
795.651487
 21
428.519791
 31
0.0
  0
LINE
  5
1EB
100
AcDbEntity
  8
1
370
    30
  6
Continuous
 62
     7
100
AcDbLine
 10
805.869881
 20
418.026936
 30
0.0
 11
803.873197
 21
417.911808
 31
0.0
  0
LINE
  5
1EC
100
AcDbEntity
  8
1
370
    30
  6
Continuous
 62
     7
100
AcDbLine
 10
805.524223
 20
413.902627
 30
0.0
 11
803.581125
 21
414.376303
 31
0.0
  0
LINE
  5
1ED
100
AcDbEntity
  8
1
370
    30
  6
Continuous
 62
     7
100
AcDbLine
 10
804.370119
 20
423.760294
 30
0.0
 11
802.352372
 21
423.013906
 31
0.0
  0
LINE
  5
1EE
100
AcDbEntity
  8
1
370
    30
  6
Continuous
 62
     7
100
AcDbLine
 10
802.726326
 20
408.045094
 30
0.0
 11
801.39499
 21
406.833672
 31
0.0
  0
LINE
  5
1EF
100
AcDbEntity
  8
1
370
    30
  6
Continuous
 62
     7
100
AcDbLine
 10
804.906815
 20
411.607324
 30
0.0
 11
803.056953
 21
412.705692
 31
0.0
  0
LINE
  5
1F0
100
AcDbEntity
  8
1
370
    30
  6
Continuous
 62
     7
100
AcDbLine
 10
805.950532
 20
415.651415
 30
0.0
 11
803.860369
 21
416.160942
 31
0.0
  0
LINE
  5
1F1
100
AcDbEntity
  8
1
370
    30
  6
Continuous
 62
     7
100
AcDbLine
 10
799.599618
 20
405.27603
 30
0.0
 11
798.680213
 21
407.221047
 31
0.0
  0
LINE
  5
1F2
100
AcDbEntity
  8
1
370
    30
  6
Continuous
 62
     7
100
AcDbLine
 10
805.950532
 20
415.651415
 30
0.0
 11
805.524223
 21
413.902627
 31
0.0
  0
LINE
  5
1F3
100
AcDbEntity
  8
1
370
    30
  6
Continuous
 62
     7
100
AcDbLine
 10
804.906815
 20
411.607324
 30
0.0
 11
803.987838
 21
410.05959
 31
0.0
  0
LINE
  5
1F4
100
AcDbEntity
  8
1
370
    30
  6
Continuous
 62
     7
100
AcDbLine
 10
794.018791
 20
403.282281
 30
0.0
 11
793.730078
 21
405.261332
 31
0.0
  0
LINE
  5
1F5
100
AcDbEntity
  8
1
370
    30
  6
Continuous
 62
     7
100
AcDbLine
 10
727.350324
 20
420.716673
 30
0.0
 11
729.326607
 21
420.296601
 31
0.0
  0
LINE
  5
1F6
100
AcDbEntity
  8
1
370
    30
  6
Continuous
 62
     7
100
AcDbLine
 10
795.799937
 20
403.542122
 30
0.0
 11
795.489373
 21
405.670959
 31
0.0
  0
LINE
  5
1F7
100
AcDbEntity
  8
1
370
    30
  6
Continuous
 62
     7
100
AcDbLine
 10
794.587735
 20
430.991315
 30
0.0
 11
796.292713
 21
430.414211
 31
0.0
  0
LINE
  5
1F8
100
AcDbEntity
  8
1
370
    30
  6
Continuous
 62
     7
100
AcDbLine
 10
798.52547
 20
429.599104
 30
0.0
 11
799.987221
 21
428.548729
 31
0.0
  0
LINE
  5
1F9
100
AcDbEntity
  8
1
370
    30
  6
Continuous
 62
     7
100
AcDbLine
 10
737.384489
 20
430.717502
 30
0.0
 11
737.740559
 21
428.698131
 31
0.0
  0
LINE
  5
1FA
100
AcDbEntity
  8
1
370
    30
  6
Continuous
 62
     7
100
AcDbLine
 10
728.993543
 20
424.520775
 30
0.0
 11
730.760655
 21
423.541249
 31
0.0
  0
LINE
  5
1FB
100
AcDbEntity
  8
1
370
    30
  6
Continuous
 62
     7
100
AcDbLine
 10
733.562878
 20
429.095908
 30
0.0
 11
734.493796
 21
427.268878
 31
0.0
  0
LINE
  5
1FC
100
AcDbEntity
  8
1
370
    30
  6
Continuous
 62
     7
100
AcDbLine
 10
731.677173
 20
427.678224
 30
0.0
 11
730.382361
 21
426.427839
 31
0.0
  0
LINE
  5
1FD
100
AcDbEntity
  8
1
370
    30
  6
Continuous
 62
     7
100
AcDbLine
 10
736.136235
 20
403.9376
 30
0.0
 11
737.857584
 21
403.411331
 31
0.0
  0
LINE
  5
1FE
100
AcDbEntity
  8
1
370
    30
  6
Continuous
 62
     7
100
AcDbLine
 10
735.16669
 20
429.913091
 30
0.0
 11
733.562878
 21
429.095908
 31
0.0
  0
LINE
  5
1FF
100
AcDbEntity
  8
1
370
    30
  6
Continuous
 62
     7
100
AcDbLine
 10
728.120886
 20
422.946459
 30
0.0
 11
729.914314
 21
421.952346
 31
0.0
  0
LINE
  5
200
100
AcDbEntity
  8
1
370
    30
  6
Continuous
 62
     7
100
AcDbLine
 10
730.382361
 20
426.427839
 30
0.0
 11
731.806774
 21
424.952816
 31
0.0
  0
LINE
  5
201
100
AcDbEntity
  8
1
370
    30
  6
Continuous
 62
     7
100
AcDbLine
 10
732.489825
 20
405.906115
 30
0.0
 11
733.619638
 21
407.581131
 31
0.0
  0
LINE
  5
202
100
AcDbEntity
  8
1
370
    30
  6
Continuous
 62
     7
100
AcDbLine
 10
731.677173
 20
427.678224
 30
0.0
 11
733.080684
 21
426.224846
 31
0.0
  0
LINE
  5
203
100
AcDbEntity
  8
1
370
    30
  6
Continuous
 62
     7
100
AcDbLine
 10
802.974882
 20
425.684591
 30
0.0
 11
801.383935
 21
424.472614
 31
0.0
  0
LINE
  5
204
100
AcDbEntity
  8
1
370
    30
  6
Continuous
 62
     7
100
AcDbLine
 10
791.498852
 20
406.121206
 30
0.0
 11
791.498852
 21
405.121206
 31
0.0
  0
LINE
  5
205
100
AcDbEntity
  8
1
370
    30
  6
Continuous
 62
     7
100
AcDbLine
 10
801.884103
 20
427.116443
 30
0.0
 11
800.172744
 21
425.812737
 31
0.0
  0
LINE
  5
206
100
AcDbEntity
  8
1
370
    30
  6
Continuous
 62
     7
100
AcDbLine
 10
788.598852
 20
429.121206
 30
0.0
 11
790.298852
 21
429.121206
 31
0.0
  0
LINE
  5
207
100
AcDbEntity
  8
1
370
    30
  6
Continuous
 62
     7
100
AcDbLine
 10
785.098852
 20
429.121206
 30
0.0
 11
786.798852
 21
429.121206
 31
0.0
  0
LINE
  5
208
100
AcDbEntity
  8
1
370
    30
  6
Continuous
 62
     7
100
AcDbLine
 10
781.598852
 20
429.121206
 30
0.0
 11
783.298852
 21
429.121206
 31
0.0
  0
LINE
  5
209
100
AcDbEntity
  8
1
370
    30
  6
Continuous
 62
     7
100
AcDbLine
 10
778.098852
 20
429.121206
 30
0.0
 11
779.798852
 21
429.121206
 31
0.0
  0
LINE
  5
20A
100
AcDbEntity
  8
1
370
    30
  6
Continuous
 62
     7
100
AcDbLine
 10
785.698852
 20
405.121206
 30
0.0
 11
783.998852
 21
405.121206
 31
0.0
  0
LINE
  5
20B
100
AcDbEntity
  8
1
370
    30
  6
Continuous
 62
     7
100
AcDbLine
 10
789.198852
 20
405.121206
 30
0.0
 11
787.498852
 21
405.121206
 31
0.0
  0
LINE
  5
20C
100
AcDbEntity
  8
1
370
    30
  6
Continuous
 62
     7
100
AcDbLine
 10
743.098852
 20
429.121206
 30
0.0
 11
744.798852
 21
429.121206
 31
0.0
  0
LINE
  5
20D
100
AcDbEntity
  8
1
370
    30
  6
Continuous
 62
     7
100
AcDbLine
 10
746.598852
 20
429.121206
 30
0.0
 11
748.298852
 21
429.121206
 31
0.0
  0
LINE
  5
20E
100
AcDbEntity
  8
1
370
    30
  6
Continuous
 62
     7
100
AcDbLine
 10
750.098852
 20
429.121206
 30
0.0
 11
751.798852
 21
429.121206
 31
0.0
  0
LINE
  5
20F
100
AcDbEntity
  8
1
370
    30
  6
Continuous
 62
     7
100
AcDbLine
 10
757.098852
 20
429.121206
 30
0.0
 11
758.798852
 21
429.121206
 31
0.0
  0
LINE
  5
210
100
AcDbEntity
  8
1
370
    30
  6
Continuous
 62
     7
100
AcDbLine
 10
760.598852
 20
429.121206
 30
0.0
 11
762.298852
 21
429.121206
 31
0.0
  0
LINE
  5
211
100
AcDbEntity
  8
1
370
    30
  6
Continuous
 62
     7
100
AcDbLine
 10
764.098852
 20
429.121206
 30
0.0
 11
765.798852
 21
429.121206
 31
0.0
  0
LINE
  5
212
100
AcDbEntity
  8
1
370
    30
  6
Continuous
 62
     7
100
AcDbLine
 10
782.198852
 20
405.121206
 30
0.0
 11
780.498852
 21
405.121206
 31
0.0
  0
LINE
  5
213
100
AcDbEntity
  8
1
370
    30
  6
Continuous
 62
     7
100
AcDbLine
 10
778.698852
 20
405.121206
 30
0.0
 11
776.998852
 21
405.121206
 31
0.0
  0
LINE
  5
214
100
AcDbEntity
  8
1
370
    30
  6
Continuous
 62
     7
100
AcDbLine
 10
775.198852
 20
405.121206
 30
0.0
 11
773.498852
 21
405.121206
 31
0.0
  0
LINE
  5
215
100
AcDbEntity
  8
1
370
    30
  6
Continuous
 62
     7
100
AcDbLine
 10
771.698852
 20
405.121206
 30
0.0
 11
769.998852
 21
405.121206
 31
0.0
  0
LINE
  5
216
100
AcDbEntity
  8
1
370
    30
  6
Continuous
 62
     7
100
AcDbLine
 10
764.698852
 20
405.121206
 30
0.0
 11
762.998852
 21
405.121206
 31
0.0
  0
LINE
  5
217
100
AcDbEntity
  8
1
370
    30
  6
Continuous
 62
     7
100
AcDbLine
 10
761.198852
 20
405.121206
 30
0.0
 11
759.498852
 21
405.121206
 31
0.0
  0
LINE
  5
218
100
AcDbEntity
  8
1
370
    30
  6
Continuous
 62
     7
100
AcDbLine
 10
754.198852
 20
405.121206
 30
0.0
 11
752.498852
 21
405.121206
 31
0.0
  0
LINE
  5
219
100
AcDbEntity
  8
1
370
    30
  6
Continuous
 62
     7
100
AcDbLine
 10
750.698852
 20
405.121206
 30
0.0
 11
748.998852
 21
405.121206
 31
0.0
  0
LINE
  5
21A
100
AcDbEntity
  8
1
370
    30
  6
Continuous
 62
     7
100
AcDbLine
 10
747.198852
 20
405.121206
 30
0.0
 11
745.498852
 21
405.121206
 31
0.0
  0
LINE
  5
21B
100
AcDbEntity
  8
1
370
    30
  6
Continuous
 62
     7
100
AcDbLine
 10
743.698852
 20
405.121206
 30
0.0
 11
741.998852
 21
405.121206
 31
0.0
  0
LINE
  5
21C
100
AcDbEntity
  8
1
370
    30
  6
Continuous
 62
     7
100
AcDbLine
 10
801.884103
 20
427.116443
 30
0.0
 11
802.974882
 21
425.684591
 31
0.0
  0
LINE
  5
21D
100
AcDbEntity
  8
1
370
    30
  6
Continuous
 62
     7
100
AcDbLine
 10
728.993543
 20
424.520775
 30
0.0
 11
728.120886
 21
422.946459
 31
0.0
  0
LINE
  5
21E
100
AcDbEntity
  8
1
370
    30
  6
Continuous
 62
     7
100
AcDbLine
 10
736.136235
 20
403.9376
 30
0.0
 11
736.726953
 21
405.86975
 31
0.0
  0
LINE
  5
21F
100
AcDbEntity
  8
1
370
    30
  6
Continuous
 62
     7
100
AcDbLine
 10
735.16669
 20
429.913091
 30
0.0
 11
736.083948
 21
428.112871
 31
0.0
  0
LINE
  5
220
100
AcDbEntity
  8
1
370
    30
  6
Continuous
 62
     7
100
AcDbLine
 10
804.994604
 20
422.072094
 30
0.0
 11
803.118435
 21
421.378078
 31
0.0
  0
LINE
  5
221
100
AcDbEntity
  8
1
370
    30
  6
Continuous
 62
     7
100
AcDbLine
 10
805.766266
 20
419.823952
 30
0.0
 11
803.618462
 21
419.70011
 31
0.0
  0
LINE
  5
222
100
AcDbEntity
  8
1
370
    30
  6
Continuous
 62
     7
100
AcDbLine
 10
801.39499
 20
406.833672
 30
0.0
 11
800.048965
 21
408.312934
 31
0.0
  0
LINE
  5
223
100
AcDbEntity
  8
1
370
    30
  6
Continuous
 62
     7
100
AcDbLine
 10
799.599618
 20
405.27603
 30
0.0
 11
797.97227
 21
404.506786
 31
0.0
  0
LINE
  5
224
100
AcDbEntity
  8
1
370
    30
  6
Continuous
 62
     7
100
AcDbLine
 10
767.598852
 20
429.121206
 30
0.0
 11
769.298852
 21
429.121206
 31
0.0
  0
LINE
  5
225
100
AcDbEntity
  8
1
370
    30
  6
Continuous
 62
     7
100
AcDbLine
 10
730.711061
 20
407.45586
 30
0.0
 11
732.304617
 21
408.746296
 31
0.0
  0
LINE
  5
226
100
AcDbEntity
  8
1
370
    30
  6
Continuous
 62
     7
100
AcDbLine
 10
732.489825
 20
405.906115
 30
0.0
 11
733.982093
 21
404.899568
 31
0.0
  0
LINE
  5
227
100
AcDbEntity
  8
1
370
    30
  6
Continuous
 62
     7
100
AcDbLine
 10
727.656054
 20
412.525742
 30
0.0
 11
728.330346
 21
410.856812
 31
0.0
  0
LINE
  5
228
100
AcDbEntity
  8
1
370
    30
  6
Continuous
 62
     7
100
AcDbLine
 10
767.598852
 20
431.121206
 30
0.0
 11
767.598852
 21
429.121206
 31
0.0
  0
LINE
  5
229
100
AcDbEntity
  8
1
370
    30
  6
Continuous
 62
     7
100
AcDbLine
 10
765.798852
 20
431.121206
 30
0.0
 11
765.798852
 21
429.121206
 31
0.0
  0
LINE
  5
22A
100
AcDbEntity
  8
1
370
    30
  6
Continuous
 62
     7
100
AcDbLine
 10
765.798852
 20
431.121206
 30
0.0
 11
767.598852
 21
431.121206
 31
0.0
  0
LINE
  5
22B
100
AcDbEntity
  8
1
370
    30
  6
Continuous
 62
     7
100
AcDbLine
 10
802.726326
 20
408.045094
 30
0.0
 11
801.278426
 21
409.636315
 31
0.0
  0
LINE
  5
22C
100
AcDbEntity
  8
1
370
    30
  6
Continuous
 62
     7
100
AcDbLine
 10
764.698852
 20
403.121206
 30
0.0
 11
766.498852
 21
403.121206
 31
0.0
  0
LINE
  5
22D
100
AcDbEntity
  8
1
370
    30
  6
Continuous
 62
     7
100
AcDbLine
 10
766.498852
 20
403.121206
 30
0.0
 11
766.498852
 21
405.121206
 31
0.0
  0
LINE
  5
22E
100
AcDbEntity
  8
1
370
    30
  6
Continuous
 62
     7
100
AcDbLine
 10
768.198852
 20
405.121206
 30
0.0
 11
766.498852
 21
405.121206
 31
0.0
  0
LINE
  5
22F
100
AcDbEntity
  8
1
370
    30
  6
Continuous
 62
     7
100
AcDbLine
 10
795.799937
 20
403.542122
 30
0.0
 11
794.018791
 21
403.282281
 31
0.0
  0
LINE
  5
230
100
AcDbEntity
  8
1
370
    30
  6
Continuous
 62
     7
100
AcDbLine
 10
739.157143
 20
431.030068
 30
0.0
 11
739.507988
 21
429.040329
 31
0.0
  0
LINE
  5
231
100
AcDbEntity
  8
1
370
    30
  6
Continuous
 62
     7
100
AcDbLine
 10
728.330346
 20
410.856812
 30
0.0
 11
730.231557
 21
411.624951
 31
0.0
  0
LINE
  5
232
100
AcDbEntity
  8
1
370
    30
  6
Continuous
 62
     7
100
AcDbLine
 10
764.698852
 20
403.121206
 30
0.0
 11
764.698852
 21
405.121206
 31
0.0
  0
LINE
  5
233
100
AcDbEntity
  8
1
370
    30
  6
Continuous
 62
     7
100
AcDbLine
 10
805.766266
 20
419.823952
 30
0.0
 11
805.869881
 21
418.026936
 31
0.0
  0
LINE
  5
234
100
AcDbEntity
  8
1
370
    30
  6
Continuous
 62
     7
100
AcDbLine
 10
803.987838
 20
410.05959
 30
0.0
 11
802.268133
 21
411.080676
 31
0.0
  0
LINE
  5
235
100
AcDbEntity
  8
1
370
    30
  6
Continuous
 62
     7
100
AcDbLine
 10
797.97227
 20
404.506786
 30
0.0
 11
797.117554
 21
406.314951
 31
0.0
  0
LINE
  5
236
100
AcDbEntity
  8
1
370
    30
  6
Continuous
 62
     7
100
AcDbLine
 10
798.52547
 20
429.599104
 30
0.0
 11
797.270057
 21
427.85201
 31
0.0
  0
LINE
  5
237
100
AcDbEntity
  8
1
370
    30
  6
Continuous
 62
     7
100
AcDbLine
 10
794.587735
 20
430.991315
 30
0.0
 11
793.897977
 21
428.953514
 31
0.0
  0
LINE
  5
238
100
AcDbEntity
  8
1
370
    30
  6
Continuous
 62
     7
100
AcDbLine
 10
739.157143
 20
431.030068
 30
0.0
 11
737.384489
 21
430.717502
 31
0.0
  0
LINE
  5
239
100
AcDbEntity
  8
1
370
    30
  6
Continuous
 62
     7
100
AcDbLine
 10
755.298852
 20
431.121206
 30
0.0
 11
755.298852
 21
429.121206
 31
0.0
  0
LINE
  5
23A
100
AcDbEntity
  8
1
370
    30
  6
Continuous
 62
     7
100
AcDbLine
 10
755.298852
 20
431.121206
 30
0.0
 11
757.098852
 21
431.121206
 31
0.0
  0
LINE
  5
23B
100
AcDbEntity
  8
1
370
    30
  6
Continuous
 62
     7
100
AcDbLine
 10
757.098852
 20
431.121206
 30
0.0
 11
757.098852
 21
429.121206
 31
0.0
  0
LINE
  5
23C
100
AcDbEntity
  8
1
370
    30
  6
Continuous
 62
     7
100
AcDbLine
 10
757.698852
 20
403.121206
 30
0.0
 11
757.698852
 21
405.121206
 31
0.0
  0
LINE
  5
23D
100
AcDbEntity
  8
1
370
    30
  6
Continuous
 62
     7
100
AcDbLine
 10
754.198852
 20
403.121206
 30
0.0
 11
755.998852
 21
403.121206
 31
0.0
  0
LINE
  5
23E
100
AcDbEntity
  8
1
370
    30
  6
Continuous
 62
     7
100
AcDbLine
 10
755.998852
 20
403.121206
 30
0.0
 11
755.998852
 21
405.121206
 31
0.0
  0
LINE
  5
23F
100
AcDbEntity
  8
1
370
    30
  6
Continuous
 62
     7
100
AcDbLine
 10
753.598852
 20
429.121206
 30
0.0
 11
755.298852
 21
429.121206
 31
0.0
  0
LINE
  5
240
100
AcDbEntity
  8
1
370
    30
  6
Continuous
 62
     7
100
AcDbLine
 10
757.698852
 20
405.121206
 30
0.0
 11
755.998852
 21
405.121206
 31
0.0
  0
ARC
  5
241
100
AcDbEntity
  8
1
370
    30
  6
Continuous
 62
     7
100
AcDbCircle
 10
741.398852
 20
577.621206
 30
0.0
 40
2.5
100
AcDbArc
 50
0.0
 51
180.0
  0
ARC
  5
242
100
AcDbEntity
  8
1
370
    30
  6
Continuous
 62
     7
100
AcDbCircle
 10
741.398852
 20
569.621206
 30
0.0
 40
5.0
100
AcDbArc
 50
120.0
 51
60.0
  0
CIRCLE
  5
243
100
AcDbEntity
  8
1
370
    30
  6
Continuous
 62
     7
100
AcDbCircle
 10
645.398852
 20
297.621206
 30
0.0
 40
2.5
  0
CIRCLE
  5
244
100
AcDbEntity
  8
1
370
    30
  6
Continuous
 62
     7
100
AcDbCircle
 10
837.398852
 20
297.621206
 30
0.0
 40
2.5
  0
ARC
  5
245
100
AcDbEntity
  8
1
370
    30
  6
Continuous
 62
     7
100
AcDbCircle
 10
634.398852
 20
287.621206
 30
0.0
 40
0.5
100
AcDbArc
 50
180.0
 51
-90.0
  0
ARC
  5
246
100
AcDbEntity
  8
1
370
    30
  6
Continuous
 62
     7
100
AcDbCircle
 10
848.398852
 20
287.621206
 30
0.0
 40
0.5
100
AcDbArc
 50
-90.0
 51
0.0
  0
ARC
  5
247
100
AcDbEntity
  8
1
370
    30
  6
Continuous
 62
     7
100
AcDbCircle
 10
848.398852
 20
584.621206
 30
0.0
 40
0.5
100
AcDbArc
 50
0.0
 51
90.0
  0
ARC
  5
248
100
AcDbEntity
  8
1
370
    30
  6
Continuous
 62
     7
100
AcDbCircle
 10
634.398852
 20
584.621206
 30
0.0
 40
0.5
100
AcDbArc
 50
90.0
 51
180.0
  0
ARC
  5
249
100
AcDbEntity
  8
1
370
    30
  6
Continuous
 62
     7
100
AcDbCircle
 10
791.898852
 20
417.121206
 30
0.0
 40
12.0
100
AcDbArc
 50
-55.589832
 51
-47.222532
  0
ARC
  5
24A
100
AcDbEntity
  8
1
370
    30
  6
Continuous
 62
     7
100
AcDbCircle
 10
740.898852
 20
417.121206
 30
0.0
 40
12.0
100
AcDbArc
 50
88.089787
 51
96.655848
  0
ARC
  5
24B
100
AcDbEntity
  8
1
370
    30
  6
Continuous
 62
     7
100
AcDbCircle
 10
791.898852
 20
417.121206
 30
0.0
 40
12.0
100
AcDbArc
 50
-38.589832
 51
-30.222532
  0
ARC
  5
24C
100
AcDbEntity
  8
1
370
    30
  6
Continuous
 62
     7
100
AcDbCircle
 10
740.898852
 20
417.121206
 30
0.0
 40
12.0
100
AcDbArc
 50
156.259496
 51
164.655848
  0
ARC
  5
24D
100
AcDbEntity
  8
1
370
    30
  6
Continuous
 62
     7
100
AcDbCircle
 10
740.898852
 20
417.121206
 30
0.0
 40
12.0
100
AcDbArc
 50
-169.740504
 51
-161.344152
  0
ARC
  5
24E
100
AcDbEntity
  8
1
370
    30
  6
Continuous
 62
     7
100
AcDbCircle
 10
740.898852
 20
417.121206
 30
0.0
 40
12.0
100
AcDbArc
 50
-118.740504
 51
-110.344152
  0
ARC
  5
24F
100
AcDbEntity
  8
1
370
    30
  6
Continuous
 62
     7
100
AcDbCircle
 10
791.898852
 20
417.121206
 30
0.0
 40
12.0
100
AcDbArc
 50
63.410168
 51
71.777468
  0
ARC
  5
250
100
AcDbEntity
  8
1
370
    30
  6
Continuous
 62
     7
100
AcDbCircle
 10
740.898852
 20
417.121206
 30
0.0
 40
12.0
100
AcDbArc
 50
-101.740504
 51
-93.344152
  0
ARC
  5
251
100
AcDbEntity
  8
1
370
    30
  6
Continuous
 62
     7
100
AcDbCircle
 10
791.898852
 20
417.121206
 30
0.0
 40
11.0
100
AcDbArc
 50
-90.0
 51
90.0
  0
ARC
  5
252
100
AcDbEntity
  8
1
370
    30
  6
Continuous
 62
     7
100
AcDbCircle
 10
791.898852
 20
417.121206
 30
0.0
 40
12.0
100
AcDbArc
 50
46.410168
 51
54.777468
  0
ARC
  5
253
100
AcDbEntity
  8
1
370
    30
  6
Continuous
 62
     7
100
AcDbCircle
 10
791.898852
 20
417.121206
 30
0.0
 40
12.0
100
AcDbArc
 50
29.410168
 51
37.777468
  0
ARC
  5
254
100
AcDbEntity
  8
1
370
    30
  6
Continuous
 62
     7
100
AcDbCircle
 10
791.898852
 20
417.121206
 30
0.0
 40
12.0
100
AcDbArc
 50
-21.589832
 51
-13.222532
  0
ARC
  5
255
100
AcDbEntity
  8
1
370
    30
  6
Continuous
 62
     7
100
AcDbCircle
 10
791.898852
 20
417.121206
 30
0.0
 40
12.0
100
AcDbArc
 50
80.410168
 51
89.045024
  0
ARC
  5
256
100
AcDbEntity
  8
1
370
    30
  6
Continuous
 62
     7
100
AcDbCircle
 10
740.898852
 20
417.121206
 30
0.0
 40
11.0
100
AcDbArc
 50
90.0
 51
-90.0
  0
ARC
  5
257
100
AcDbEntity
  8
1
370
    30
  6
Continuous
 62
     7
100
AcDbCircle
 10
740.898852
 20
417.121206
 30
0.0
 40
12.0
100
AcDbArc
 50
-152.740504
 51
-144.344152
  0
ARC
  5
258
100
AcDbEntity
  8
1
370
    30
  6
Continuous
 62
     7
100
AcDbCircle
 10
791.898852
 20
417.121206
 30
0.0
 40
12.0
100
AcDbArc
 50
12.410168
 51
20.777468
  0
ARC
  5
259
100
AcDbEntity
  8
1
370
    30
  6
Continuous
 62
     7
100
AcDbCircle
 10
791.898852
 20
417.121206
 30
0.0
 40
12.0
100
AcDbArc
 50
-72.589832
 51
-64.222532
  0
ARC
  5
25A
100
AcDbEntity
  8
1
370
    30
  6
Continuous
 62
     7
100
AcDbCircle
 10
740.898852
 20
417.121206
 30
0.0
 40
12.0
100
AcDbArc
 50
139.259496
 51
147.655848
  0
ARC
  5
25B
100
AcDbEntity
  8
1
370
    30
  6
Continuous
 62
     7
100
AcDbCircle
 10
740.898852
 20
417.121206
 30
0.0
 40
12.0
100
AcDbArc
 50
122.259496
 51
130.655848
  0
ARC
  5
25C
100
AcDbEntity
  8
1
370
    30
  6
Continuous
 62
     7
100
AcDbCircle
 10
740.898852
 20
417.121206
 30
0.0
 40
12.0
100
AcDbArc
 50
105.259496
 51
113.655848
  0
ARC
  5
25D
100
AcDbEntity
  8
1
370
    30
  6
Continuous
 62
     7
100
AcDbCircle
 10
740.898852
 20
417.121206
 30
0.0
 40
12.0
100
AcDbArc
 50
-135.740504
 51
-127.344152
  0
ARC
  5
25E
100
AcDbEntity
  8
1
370
    30
  6
Continuous
 62
     7
100
AcDbCircle
 10
791.898852
 20
417.121206
 30
0.0
 40
12.0
100
AcDbArc
 50
-90.0
 51
-81.222532
  0
ARC
  5
25F
100
AcDbEntity
  8
1
370
    30
  6
Continuous
 62
     7
100
AcDbCircle
 10
740.898852
 20
417.121206
 30
0.0
 40
12.0
100
AcDbArc
 50
173.259496
 51
-178.344152
  0
ARC
  5
260
100
AcDbEntity
  8
1
370
    30
  6
Continuous
 62
     7
100
AcDbCircle
 10
791.898852
 20
418.121206
 30
0.0
 40
13.0
100
AcDbArc
 50
-90.0
 51
-89.559261
  0
ARC
  5
261
100
AcDbEntity
  8
1
370
    30
  6
Continuous
 62
     7
100
AcDbCircle
 10
791.898852
 20
417.121206
 30
0.0
 40
12.0
100
AcDbArc
 50
-4.589832
 51
3.777468
  0
LINE
  5
262
100
AcDbEntity
  8
1
370
    30
  6
Continuous
 62
     7
100
AcDbLine
 10
731.398852
 20
286.121206
 30
0.0
 11
751.398852
 21
286.121206
 31
0.0
  0
LINE
  5
263
100
AcDbEntity
  8
1
370
    30
  6
Continuous
 62
     7
100
AcDbLine
 10
728.898852
 20
586.121206
 30
0.0
 11
728.898852
 21
587.621206
 31
0.0
  0
LINE
  5
264
100
AcDbEntity
  8
1
370
    30
  6
Continuous
 62
     7
100
AcDbLine
 10
697.898852
 20
587.621206
 30
0.0
 11
697.898852
 21
586.121206
 31
0.0
  0
ARC
  5
265
100
AcDbEntity
  8
1
370
    30
  6
Continuous
 62
     7
100
AcDbCircle
 10
725.398852
 20
587.621206
 30
0.0
 40
3.5
100
AcDbArc
 50
0.0
 51
90.0
  0
LINE
  5
266
100
AcDbEntity
  8
1
370
    30
  6
Continuous
 62
     7
100
AcDbLine
 10
725.398852
 20
591.121206
 30
0.0
 11
701.398852
 21
591.121206
 31
0.0
  0
ARC
  5
267
100
AcDbEntity
  8
1
370
    30
  6
Continuous
 62
     7
100
AcDbCircle
 10
701.398852
 20
587.621206
 30
0.0
 40
3.5
100
AcDbArc
 50
90.0
 51
180.0
  0
ARC
  5
268
100
AcDbEntity
  8
1
370
    30
  6
Continuous
 62
     7
100
AcDbCircle
 10
723.398852
 20
591.621206
 30
0.0
 40
0.5
100
AcDbArc
 50
0.0
 51
90.0
  0
LINE
  5
269
100
AcDbEntity
  8
1
370
    30
  6
Continuous
 62
     7
100
AcDbLine
 10
723.898852
 20
591.621206
 30
0.0
 11
723.898852
 21
591.121206
 31
0.0
  0
ARC
  5
26A
100
AcDbEntity
  8
1
370
    30
  6
Continuous
 62
     7
100
AcDbCircle
 10
703.398852
 20
591.621206
 30
0.0
 40
0.5
100
AcDbArc
 50
90.0
 51
180.0
  0
LINE
  5
26B
100
AcDbEntity
  8
1
370
    30
  6
Continuous
 62
     7
100
AcDbLine
 10
702.898852
 20
591.621206
 30
0.0
 11
702.898852
 21
591.121206
 31
0.0
  0
LINE
  5
26C
100
AcDbEntity
  8
1
370
    30
  6
Continuous
 62
     7
100
AcDbLine
 10
723.398852
 20
592.121206
 30
0.0
 11
703.398852
 21
592.121206
 31
0.0
  0
LINE
  5
26D
100
AcDbEntity
  8
1
370
     9
  6
CENTER
 62
     7
100
AcDbLine
 10
747.601072
 20
577.621206
 30
0.0
 11
732.909494
 21
577.621206
 31
0.0
  0
LINE
  5
26E
100
AcDbEntity
  8
1
370
     9
  6
CENTER
 62
     7
100
AcDbLine
 10
622.752587
 20
436.121206
 30
0.0
 11
863.387624
 21
436.121206
 31
0.0
  0
LINE
  5
26F
100
AcDbEntity
  8
1
370
     9
  6
CENTER
 62
     7
100
AcDbLine
 10
719.648852
 20
417.121206
 30
0.0
 11
809.648852
 21
417.121206
 31
0.0
  0
LINE
  5
270
100
AcDbEntity
  8
1
370
     9
  6
CENTER
 62
     7
100
AcDbLine
 10
652.898852
 20
297.621206
 30
0.0
 11
637.898852
 21
297.621206
 31
0.0
  0
LINE
  5
271
100
AcDbEntity
  8
1
370
     9
  6
CENTER
 62
     7
100
AcDbLine
 10
645.398852
 20
305.121206
 30
0.0
 11
645.398852
 21
290.121206
 31
0.0
  0
LINE
  5
272
100
AcDbEntity
  8
1
370
     9
  6
CENTER
 62
     7
100
AcDbLine
 10
837.398852
 20
305.121206
 30
0.0
 11
837.398852
 21
290.121206
 31
0.0
  0
LINE
  5
273
100
AcDbEntity
  8
1
370
     9
  6
CENTER
 62
     7
100
AcDbLine
 10
844.898852
 20
297.621206
 30
0.0
 11
829.898852
 21
297.621206
 31
0.0
  0
LINE
  5
274
100
AcDbEntity
  8
1
370
     9
  6
CENTER
 62
     7
100
AcDbLine
 10
741.398852
 20
599.229376
 30
0.0
 11
741.398852
 21
271.484904
 31
0.0
  0
LINE
  5
275
100
AcDbEntity
  8
1
370
     9
  6
CENTER
 62
     7
100
AcDbLine
 10
766.398852
 20
474.896237
 30
0.0
 11
766.398852
 21
394.621206
 31
0.0
  0
DIMENSION
  5
281
100
AcDbEntity
  8
2
370
     9
  6
Continuous
 62
   214
100
AcDbDimension
  2
*D2
 10
645.398852
 20
256.121206
 30
0.0
 11
741.398852
 21
257.621206
 31
0.0
 71
     5
 72
     1
 41
1.0
 42
0.0
  1
192
100
AcDbAlignedDimension
 13
645.398852
 23
284.121206
 33
0.0
 14
837.398852
 24
284.121206
 34
0.0
100
AcDbRotatedDimension
  0
DIMENSION
  5
28D
100
AcDbEntity
  8
2
370
     9
  6
Continuous
 62
   214
100
AcDbDimension
  2
*D3
 10
766.398852
 20
462.461207
 30
0.0
 11
753.898852
 21
463.961207
 31
0.0
 71
     5
 72
     1
 41
1.0
 42
0.0
  1
25
100
AcDbAlignedDimension
 13
766.398852
 23
450.425513
 33
0.0
 14
741.398852
 24
450.222865
 34
0.0
100
AcDbRotatedDimension
  0
DIMENSION
  5
299
100
AcDbEntity
  8
2
370
     9
  6
Continuous
 62
   214
100
AcDbDimension
  2
*D4
 10
729.898852
 20
383.101902
 30
0.0
 11
766.398852
 21
384.601902
 31
0.0
 71
     5
 72
     1
 41
1.0
 42
0.0
  1
73
100
AcDbAlignedDimension
 13
729.898852
 23
411.121206
 33
0.0
 14
802.898852
 24
411.121206
 34
0.0
100
AcDbRotatedDimension
  0
DIMENSION
  5
2A5
100
AcDbEntity
  8
2
370
     9
  6
Continuous
 62
   214
100
AcDbDimension
  2
*D5
 10
384.106379
 20
586.121206
 30
0.0
 11
382.606379
 21
436.121206
 31
0.0
 71
     5
 72
     1
 41
1.0
 42
0.0
  1
300
100
AcDbAlignedDimension
 13
360.106379
 23
586.121206
 33
0.0
 14
360.106379
 24
286.121206
 34
0.0
 50
90.0
100
AcDbRotatedDimension
  0
DIMENSION
  5
2B1
100
AcDbEntity
  8
2
370
     9
  6
Continuous
 62
   214
100
AcDbDimension
  2
*D6
 10
878.898852
 20
577.621206
 30
0.0
 11
877.398852
 21
437.621206
 31
0.0
 71
     5
 72
     1
 41
1.0
 42
0.0
  1
280
100
AcDbAlignedDimension
 13
753.601072
 23
577.621206
 33
0.0
 14
850.898852
 24
297.621206
 34
0.0
 50
90.0
100
AcDbRotatedDimension
  0
DIMENSION
  5
2BD
100
AcDbEntity
  8
2
370
     9
  6
Continuous
 62
   214
100
AcDbDimension
  2
*D7
 10
878.898852
 20
297.621206
 30
0.0
 11
877.398852
 21
266.370807
 31
0.0
 71
     5
 72
     1
 41
1.0
 42
0.0
  1
11.5
100
AcDbAlignedDimension
 13
850.898852
 23
297.621206
 33
0.0
 14
854.898852
 24
286.121206
 34
0.0
 50
90.0
100
AcDbRotatedDimension
  0
DIMENSION
  5
2C9
100
AcDbEntity
  8
2
370
     9
  6
Continuous
 62
   214
100
AcDbDimension
  2
*D8
 10
832.497995
 20
428.121206
 30
0.0
 11
830.997995
 21
417.121206
 31
0.0
 71
     5
 72
     1
 41
1.0
 42
0.0
  1
22
100
AcDbAlignedDimension
 13
797.898852
 23
428.121206
 33
0.0
 14
797.498852
 24
406.121206
 34
0.0
 50
90.0
100
AcDbRotatedDimension
  0
DIMENSION
  5
2D5
100
AcDbEntity
  8
2
370
     9
  6
Continuous
 62
   214
100
AcDbDimension
  2
*D9
 10
706.23688
 20
417.121206
 30
0.0
 11
704.73688
 21
426.621206
 31
0.0
 71
     5
 72
     1
 41
1.0
 42
0.0
  1
19
100
AcDbAlignedDimension
 13
716.854037
 23
417.121206
 33
0.0
 14
716.854037
 24
436.121206
 34
0.0
 50
90.0
100
AcDbRotatedDimension
  0
LINE
  5
2D6
100
AcDbEntity
  8
2
370
     9
  6
Continuous
 62
   214
100
AcDbLine
 10
787.697243
 20
428.121206
 30
0.0
 11
788.773846
 21
435.24026
 31
0.0
  0
LINE
  5
2D7
100
AcDbEntity
  8
2
370
     9
  6
Continuous
 62
   214
100
AcDbLine
 10
787.697243
 20
428.121206
 30
0.0
 11
792.189135
 21
433.748186
 31
0.0
  0
POLYLINE
  5
2D8
100
AcDbEntity
  8
2
370
     9
  6
Continuous
 62
   214
100
AcDb2dPolyline
 66
     1
 10
0.0
 20
0.0
 30
0.0
  0
VERTEX
  5
2D9
100
AcDbEntity
  8
2
370
     9
  6
Continuous
 62
   214
100
AcDbVertex
100
AcDb2dVertex
 10
787.697243
 20
428.121206
 30
0.0
  0
VERTEX
  5
2DA
100
AcDbEntity
  8
2
370
     9
  6
Continuous
 62
   214
100
AcDbVertex
100
AcDb2dVertex
 10
794.722382
 20
444.201433
 30
0.0
  0
VERTEX
  5
2DB
100
AcDbEntity
  8
2
370
     9
  6
Continuous
 62
   214
100
AcDbVertex
100
AcDb2dVertex
 10
822.922382
 20
444.201433
 30
0.0
  0
SEQEND
  5
2DC
100
AcDbEntity
  8
2
370
     9
  6
Continuous
 62
   214
  0
TEXT
  5
2DD
100
AcDbEntity
  8
2
370
     9
  6
Continuous
 62
   214
100
AcDbText
 10
794.722382
 20
445.701433
 30
0.0
 40
9.0
  1
通線孔
 41
0.87037
 11
794.722382
 21
445.701433
 31
0.0
100
AcDbText
 73
     1
  0
TEXT
  5
2DE
100
AcDbEntity
  8
15
370
     9
  6
PHANTOM
 62
    96
100
AcDbText
 10
1064.70585
 20
720.8559
 30
0.0
 40
9.0
  1
黒色（ＡＲＴ部）
 41
0.881944
 11
1064.70585
 21
720.8559
 31
0.0
100
AcDbText
 73
     1
  0
TEXT
  5
2DF
100
AcDbEntity
  8
15
370
     9
  6
Continuous
 62
    96
100
AcDbText
 10
1080.307444
 20
103.711831
 30
0.0
 40
15.0
  1
辻
 41
0.833333
 11
1080.307444
 21
103.711831
 31
0.0
100
AcDbText
 73
     1
  0
TEXT
  5
2E0
100
AcDbEntity
  8
15
370
     9
  6
Continuous
 62
    96
100
AcDbText
 10
1155.329563
 20
103.711831
 30
0.0
 40
15.0
  1
東
 41
0.833333
 11
1155.329563
 21
103.711831
 31
0.0
100
AcDbText
 73
     1
  0
LINE
  5
2E1
100
AcDbEntity
  8
1
370
    30
  6
Continuous
 62
     7
100
AcDbLine
 10
319.216233
 20
325.088129
 30
0.0
 11
295.019248
 21
301.130717
 31
0.0
  0
LINE
  5
2E2
100
AcDbEntity
  8
1
370
    30
  6
Continuous
 62
     7
100
AcDbLine
 10
295.019248
 20
301.130717
 30
0.0
 11
302.510405
 21
301.130717
 31
0.0
  0
LINE
  5
2E3
100
AcDbEntity
  8
1
370
    30
  6
Continuous
 62
     7
100
AcDbLine
 10
302.510405
 20
301.130717
 30
0.0
 11
314.185173
 21
312.689895
 31
0.0
  0
LINE
  5
2E4
100
AcDbEntity
  8
1
370
    30
  6
Continuous
 62
     7
100
AcDbLine
 10
314.185173
 20
312.689895
 30
0.0
 11
314.185173
 21
306.161772
 31
0.0
  0
LINE
  5
2E5
100
AcDbEntity
  8
1
370
    30
  6
Continuous
 62
     7
100
AcDbLine
 10
314.185173
 20
306.161772
 30
0.0
 11
308.914545
 21
306.161772
 31
0.0
  0
LINE
  5
2E6
100
AcDbEntity
  8
1
370
    30
  6
Continuous
 62
     7
100
AcDbLine
 10
308.914545
 20
306.161772
 30
0.0
 11
308.914545
 21
301.130717
 31
0.0
  0
LINE
  5
2E7
100
AcDbEntity
  8
1
370
    30
  6
Continuous
 62
     7
100
AcDbLine
 10
308.914545
 20
301.130717
 30
0.0
 11
319.216233
 21
301.130717
 31
0.0
  0
LINE
  5
2E8
100
AcDbEntity
  8
1
370
    30
  6
Continuous
 62
     7
100
AcDbLine
 10
319.216233
 20
301.130717
 30
0.0
 11
319.216233
 21
325.088129
 31
0.0
  0
LINE
  5
2E9
100
AcDbEntity
  8
1
370
    30
  6
Continuous
 62
     7
100
AcDbLine
 10
319.216233
 20
307.83879
 30
0.0
 11
326.403452
 21
301.130717
 31
0.0
  0
ARC
  5
2EA
100
AcDbEntity
  8
1
370
    30
  6
Continuous
 62
     7
100
AcDbCircle
 10
324.966012
 20
309.036662
 30
0.0
 40
1.197871
100
AcDbArc
 50
-90.0
 51
90.0
  0
LINE
  5
2EB
100
AcDbEntity
  8
1
370
    30
  6
Continuous
 62
     7
100
AcDbLine
 10
319.216233
 20
307.83879
 30
0.0
 11
324.966012
 21
307.83879
 31
0.0
  0
LINE
  5
2EC
100
AcDbEntity
  8
1
370
    30
  6
Continuous
 62
     7
100
AcDbLine
 10
320.174526
 20
310.234533
 30
0.0
 11
324.966012
 21
310.234533
 31
0.0
  0
LINE
  5
2ED
100
AcDbEntity
  8
1
370
    30
  6
Continuous
 62
     7
100
AcDbLine
 10
320.174526
 20
313.109423
 30
0.0
 11
320.174526
 21
310.234533
 31
0.0
  0
LINE
  5
2EE
100
AcDbEntity
  8
1
370
    30
  6
Continuous
 62
     7
100
AcDbLine
 10
320.174526
 20
313.109423
 30
0.0
 11
325.873874
 21
313.109423
 31
0.0
  0
ARC
  5
2EF
100
AcDbEntity
  8
1
370
    30
  6
Continuous
 62
     7
100
AcDbCircle
 10
325.419938
 20
309.036662
 30
0.0
 40
4.097977
100
AcDbArc
 50
-76.055153
 51
83.640296
  0
LINE
  5
2F0
100
AcDbEntity
  8
1
370
    30
  6
Continuous
 62
     7
100
AcDbLine
 10
326.403452
 20
305.063237
 30
0.0
 11
330.616868
 21
301.130717
 31
0.0
  0
LINE
  5
2F1
100
AcDbEntity
  8
1
370
    30
  6
Continuous
 62
     7
100
AcDbLine
 10
330.616868
 20
301.130717
 30
0.0
 11
326.403452
 21
301.130717
 31
0.0
  0
LINE
  5
2F2
100
AcDbEntity
  8
1
370
    30
  6
Continuous
 62
     7
100
AcDbLine
 10
339.100883
 20
313.109423
 30
0.0
 11
329.517915
 21
313.109423
 31
0.0
  0
LINE
  5
2F3
100
AcDbEntity
  8
1
370
    30
  6
Continuous
 62
     7
100
AcDbLine
 10
329.517915
 20
313.109423
 30
0.0
 11
329.517915
 21
310.234533
 31
0.0
  0
LINE
  5
2F4
100
AcDbEntity
  8
1
370
    30
  6
Continuous
 62
     7
100
AcDbLine
 10
329.517915
 20
310.234533
 30
0.0
 11
332.632378
 21
310.234533
 31
0.0
  0
LINE
  5
2F5
100
AcDbEntity
  8
1
370
    30
  6
Continuous
 62
     7
100
AcDbLine
 10
332.632378
 20
310.234533
 30
0.0
 11
332.632378
 21
301.130717
 31
0.0
  0
LINE
  5
2F6
100
AcDbEntity
  8
1
370
    30
  6
Continuous
 62
     7
100
AcDbLine
 10
332.632378
 20
301.130717
 30
0.0
 11
335.986419
 21
301.130717
 31
0.0
  0
LINE
  5
2F7
100
AcDbEntity
  8
1
370
    30
  6
Continuous
 62
     7
100
AcDbLine
 10
335.986419
 20
301.130717
 30
0.0
 11
335.986419
 21
310.234533
 31
0.0
  0
LINE
  5
2F8
100
AcDbEntity
  8
1
370
    30
  6
Continuous
 62
     7
100
AcDbLine
 10
335.986419
 20
310.234533
 30
0.0
 11
339.100883
 21
310.234533
 31
0.0
  0
LINE
  5
2F9
100
AcDbEntity
  8
1
370
    30
  6
Continuous
 62
     7
100
AcDbLine
 10
339.100883
 20
310.234533
 30
0.0
 11
339.100883
 21
313.109423
 31
0.0
  0
LINE
  5
2FA
100
AcDbEntity
  8
1
370
    30
  6
Continuous
 62
     7
100
AcDbLine
 10
295.019248
 20
301.134158
 30
0.0
 11
302.510405
 21
301.134158
 31
0.0
  0
LINE
  5
2FB
100
AcDbEntity
  8
1
370
    30
  6
Continuous
 62
     7
100
AcDbLine
 10
302.510405
 20
301.134158
 30
0.0
 11
314.185173
 21
312.693336
 31
0.0
  0
LINE
  5
2FC
100
AcDbEntity
  8
1
370
    30
  6
Continuous
 62
     7
100
AcDbLine
 10
314.185173
 20
312.693336
 30
0.0
 11
314.185173
 21
306.165213
 31
0.0
  0
LINE
  5
2FD
100
AcDbEntity
  8
1
370
    30
  6
Continuous
 62
     7
100
AcDbLine
 10
314.185173
 20
306.165213
 30
0.0
 11
308.914545
 21
306.165213
 31
0.0
  0
LINE
  5
2FE
100
AcDbEntity
  8
1
370
    30
  6
Continuous
 62
     7
100
AcDbLine
 10
308.914545
 20
306.165213
 30
0.0
 11
308.914545
 21
301.134158
 31
0.0
  0
LINE
  5
2FF
100
AcDbEntity
  8
1
370
    30
  6
Continuous
 62
     7
100
AcDbLine
 10
308.914545
 20
301.134158
 30
0.0
 11
319.216233
 21
301.134158
 31
0.0
  0
LINE
  5
300
100
AcDbEntity
  8
1
370
    30
  6
Continuous
 62
     7
100
AcDbLine
 10
319.216233
 20
301.134158
 30
0.0
 11
319.216233
 21
325.09157
 31
0.0
  0
LINE
  5
301
100
AcDbEntity
  8
1
370
    30
  6
Continuous
 62
     7
100
AcDbLine
 10
319.216233
 20
307.842231
 30
0.0
 11
326.403452
 21
301.134158
 31
0.0
  0
ARC
  5
302
100
AcDbEntity
  8
1
370
    30
  6
Continuous
 62
     7
100
AcDbCircle
 10
324.966012
 20
309.040103
 30
0.0
 40
1.197871
100
AcDbArc
 50
-90.0
 51
90.0
  0
LINE
  5
303
100
AcDbEntity
  8
1
370
    30
  6
Continuous
 62
     7
100
AcDbLine
 10
319.216233
 20
307.842231
 30
0.0
 11
324.966012
 21
307.842231
 31
0.0
  0
LINE
  5
304
100
AcDbEntity
  8
1
370
    30
  6
Continuous
 62
     7
100
AcDbLine
 10
320.174526
 20
310.237974
 30
0.0
 11
324.966012
 21
310.237974
 31
0.0
  0
LINE
  5
305
100
AcDbEntity
  8
1
370
    30
  6
Continuous
 62
     7
100
AcDbLine
 10
320.174526
 20
313.112864
 30
0.0
 11
320.174526
 21
310.237974
 31
0.0
  0
LINE
  5
306
100
AcDbEntity
  8
1
370
    30
  6
Continuous
 62
     7
100
AcDbLine
 10
320.174526
 20
313.112864
 30
0.0
 11
325.873874
 21
313.112864
 31
0.0
  0
ARC
  5
307
100
AcDbEntity
  8
1
370
    30
  6
Continuous
 62
     7
100
AcDbCircle
 10
325.419938
 20
309.040103
 30
0.0
 40
4.097977
100
AcDbArc
 50
-76.055153
 51
83.640296
  0
LINE
  5
308
100
AcDbEntity
  8
1
370
    30
  6
Continuous
 62
     7
100
AcDbLine
 10
326.403452
 20
305.066678
 30
0.0
 11
330.616868
 21
301.134158
 31
0.0
  0
LINE
  5
309
100
AcDbEntity
  8
1
370
    30
  6
Continuous
 62
     7
100
AcDbLine
 10
330.616868
 20
301.134158
 30
0.0
 11
326.403452
 21
301.134158
 31
0.0
  0
LINE
  5
30A
100
AcDbEntity
  8
1
370
    30
  6
Continuous
 62
     7
100
AcDbLine
 10
339.100883
 20
313.112864
 30
0.0
 11
329.517915
 21
313.112864
 31
0.0
  0
LINE
  5
30B
100
AcDbEntity
  8
1
370
    30
  6
Continuous
 62
     7
100
AcDbLine
 10
329.517915
 20
313.112864
 30
0.0
 11
329.517915
 21
310.237974
 31
0.0
  0
LINE
  5
30C
100
AcDbEntity
  8
1
370
    30
  6
Continuous
 62
     7
100
AcDbLine
 10
329.517915
 20
310.237974
 30
0.0
 11
332.632378
 21
310.237974
 31
0.0
  0
LINE
  5
30D
100
AcDbEntity
  8
1
370
    30
  6
Continuous
 62
     7
100
AcDbLine
 10
332.632378
 20
310.237974
 30
0.0
 11
332.632378
 21
301.134158
 31
0.0
  0
LINE
  5
30E
100
AcDbEntity
  8
1
370
    30
  6
Continuous
 62
     7
100
AcDbLine
 10
332.632378
 20
301.134158
 30
0.0
 11
335.986419
 21
301.134158
 31
0.0
  0
LINE
  5
30F
100
AcDbEntity
  8
1
370
    30
  6
Continuous
 62
     7
100
AcDbLine
 10
335.986419
 20
301.134158
 30
0.0
 11
335.986419
 21
310.237974
 31
0.0
  0
LINE
  5
310
100
AcDbEntity
  8
1
370
    30
  6
Continuous
 62
     7
100
AcDbLine
 10
335.986419
 20
310.237974
 30
0.0
 11
339.100883
 21
310.237974
 31
0.0
  0
LINE
  5
311
100
AcDbEntity
  8
1
370
    30
  6
Continuous
 62
     7
100
AcDbLine
 10
339.100883
 20
310.237974
 30
0.0
 11
339.100883
 21
313.112864
 31
0.0
  0
DIMENSION
  5
31D
100
AcDbEntity
  8
2
370
     9
  6
Continuous
 62
   214
100
AcDbDimension
  2
*D10
 10
139.106379
 20
646.121206
 30
0.0
 11
246.606379
 21
647.621206
 31
0.0
 71
     5
 72
     1
 41
1.0
 42
0.0
  1
215
100
AcDbAlignedDimension
 13
139.106379
 23
592.121206
 33
0.0
 14
354.106379
 24
592.121206
 34
0.0
100
AcDbRotatedDimension
  0
DIMENSION
  5
329
100
AcDbEntity
  8
2
370
     9
  6
Continuous
 62
   214
100
AcDbDimension
  2
*D11
 10
456.173547
 20
646.121206
 30
0.0
 11
493.673547
 21
647.621206
 31
0.0
 71
     5
 72
     1
 41
1.0
 42
0.0
  1
75
100
AcDbAlignedDimension
 13
456.173547
 23
591.130775
 33
0.0
 14
531.173547
 24
592.130775
 34
0.0
100
AcDbRotatedDimension
  0
DIMENSION
  5
335
100
AcDbEntity
  8
2
370
     9
  6
Continuous
 62
   214
100
AcDbDimension
  2
*D12
 10
354.106379
 20
616.121206
 30
0.0
 11
314.356379
 21
617.621206
 31
0.0
 71
     5
 72
     1
 41
1.0
 42
0.0
  1
79.5
100
AcDbAlignedDimension
 13
354.106379
 23
592.121206
 33
0.0
 14
274.606379
 24
598.121206
 34
0.0
100
AcDbRotatedDimension
  0
DIMENSION
  5
341
100
AcDbEntity
  8
2
370
     9
  6
Continuous
 62
   214
100
AcDbDimension
  2
*D13
 10
531.173547
 20
616.121206
 30
0.0
 11
518.673547
 21
617.621206
 31
0.0
 71
     5
 72
     1
 41
1.0
 42
0.0
  1
25
100
AcDbAlignedDimension
 13
531.173547
 23
592.130775
 33
0.0
 14
506.173547
 24
598.130775
 34
0.0
100
AcDbRotatedDimension
  0
ENDSEC
  0
SECTION
  2
OBJECTS
  0
DICTIONARY
  5
19
100
AcDbDictionary
280
     0
281
     1
  3
ACAD_GROUP
350
1A
  3
ACAD_MLINESTYLE
350
1B
  3
ACAD_LAYOUT
350
1E
  3
ACAD_PLOTSETTINGS
350
22
  3
ACAD_PLOTSTYLENAME
350
1F
  3
ACAD_WIPEOUT_VARS
350
23
  0
DICTIONARY
  5
1A
102
{ACAD_REACTORS
330
19
102
}
100
AcDbDictionary
280
     0
281
     1
  0
DICTIONARY
  5
1B
102
{ACAD_REACTORS
330
19
102
}
100
AcDbDictionary
280
     0
281
     1
  3
Standard
350
1C
  0
MLINESTYLE
  5
1C
102
{ACAD_REACTORS
330
1B
102
}
100
AcDbMlineStyle
  2
Standard
 70
     0
  3

 62
     0
 51
90.0
 52
90.0
 71
     2
 49
0.5
 62
   256
  6
ByLayer
 49
-0.5
 62
   256
  6
ByLayer
  0
ACDBDICTIONARYWDFLT
  5
1F
102
{ACAD_REACTORS
330
19
102
}
100
AcDbDictionary
281
     1
  3
Normal
350
1D
100
AcDbDictionaryWithDefault
340
1D
  0
ACDBPLACEHOLDER
  5
1D
102
{ACAD_REACTORS
330
1F
102
}
  0
LAYOUT
  5
20
102
{ACAD_REACTORS
330
1E
102
}
100
AcDbPlotSettings
  1

  2

  4

  6

 40
0.0
 41
0.0
 42
0.0
 43
0.0
 44
0.0
 45
0.0
 46
0.0
 47
0.0
 48
0.0
 49
0.0
140
0.0
141
0.0
142
1.0
143
1.0
 70
  1024
 72
     0
 73
     0
 74
     0
  7

 75
     0
147
1.0
148
0.0
149
0.0
100
AcDbLayout
  1
Model
 70
     0
 71
     0
 10
0.0
 20
0.0
 11
0.0
 21
0.0
 12
0.0
 22
0.0
 32
0.0
 14
0.0
 24
0.0
 34
0.0
 15
0.0
 25
0.0
 35
0.0
146
0.0
 13
0.0
 23
0.0
 33
0.0
 16
0.0
 26
0.0
 36
0.0
 17
0.0
 27
0.0
 37
0.0
 76
     0
330
A
331
0
345
0
346
0
  0
LAYOUT
  5
21
102
{ACAD_REACTORS
330
1E
102
}
100
AcDbPlotSettings
  1

  2

  4

  6

 40
0.0
 41
0.0
 42
0.0
 43
0.0
 44
0.0
 45
0.0
 46
0.0
 47
0.0
 48
0.0
 49
0.0
140
0.0
141
0.0
142
1.0
143
1.0
 70
     0
 72
     0
 73
     0
 74
     0
  7

 75
     0
147
1.0
148
0.0
149
0.0
100
AcDbLayout
  1
Layout1
 70
     0
 71
     0
 10
0.0
 20
0.0
 11
0.0
 21
0.0
 12
0.0
 22
0.0
 32
0.0
 14
0.0
 24
0.0
 34
0.0
 15
0.0
 25
0.0
 35
0.0
146
0.0
 13
0.0
 23
0.0
 33
0.0
 16
0.0
 26
0.0
 36
0.0
 17
0.0
 27
0.0
 37
0.0
 76
     0
330
B
331
0
345
0
346
0
  0
DICTIONARY
  5
1E
102
{ACAD_REACTORS
330
19
102
}
100
AcDbDictionary
280
     0
281
     1
  3
Layout1
350
21
  3
Model
350
20
  0
DICTIONARY
  5
22
102
{ACAD_REACTORS
330
19
102
}
100
AcDbDictionary
280
     0
281
     1
  0
WIPEOUTVARIABLES
  5
23
100
AcDbWipeoutVariables
 70
     1
  0
ENDSEC
  0
EOF
