  0
SECTION
  2
HEADER
  9
$ACADVER
  1
AC1015
  9
$ACADMAINTVER
 70
    20
  9
$DWGCODEPAGE
  3
ANSI_932
  9
$INSBASE
 10
0.0
 20
0.0
 30
0.0
  9
$EXTMIN
 10
14.9835215031444
 20
14.99139475192805
 30
-0.0015258207003583
  9
$EXTMAX
 10
400.0177011499387
 20
272.0158545442576
 30
0.0000000349246037
  9
$LIMMIN
 10
0.0
 20
0.0
  9
$LIMMAX
 10
420.0
 20
297.0
  9
$ORTHOMODE
 70
     0
  9
$REGENMODE
 70
     1
  9
$FILLMODE
 70
     1
  9
$QTEXTMODE
 70
     0
  9
$MIRRTEXT
 70
     0
  9
$LTSCALE
 40
0.25
  9
$ATTMODE
 70
     1
  9
$TEXTSIZE
 40
0.2
  9
$TRACEWID
 40
0.05
  9
$TEXTSTYLE
  7
STANDARD
  9
$CLAYER
  8
0
  9
$CELTYPE
  6
ByLayer
  9
$CECOLOR
 62
   256
  9
$CELTSCALE
 40
1.0
  9
$DISPSILH
 70
     0
  9
$DIMSCALE
 40
1.0
  9
$DIMASZ
 40
1.0
  9
$DIMEXO
 40
0.0
  9
$DIMDLI
 40
0.5
  9
$DIMRND
 40
0.0
  9
$DIMDLE
 40
0.0
  9
$DIMEXE
 40
0.0
  9
$DIMTP
 40
0.0
  9
$DIMTM
 40
0.0
  9
$DIMTXT
 40
0.18
  9
$DIMCEN
 40
0.0
  9
$DIMTSZ
 40
0.0
  9
$DIMTOL
 70
     0
  9
$DIMLIM
 70
     0
  9
$DIMTIH
 70
     1
  9
$DIMTOH
 70
     1
  9
$DIMSE1
 70
     0
  9
$DIMSE2
 70
     0
  9
$DIMTAD
 70
     0
  9
$DIMZIN
 70
     0
  9
$DIMBLK
  1

  9
$DIMASO
 70
     0
  9
$DIMSHO
 70
     0
  9
$DIMPOST
  1

  9
$DIMAPOST
  1

  9
$DIMALT
 70
     0
  9
$DIMALTD
 70
     0
  9
$DIMALTF
 40
25.4
  9
$DIMLFAC
 40
1.0
  9
$DIMTOFL
 70
     0
  9
$DIMTVP
 40
0.0
  9
$DIMTIX
 70
     0
  9
$DIMSOXD
 70
     0
  9
$DIMSAH
 70
     0
  9
$DIMBLK1
  1

  9
$DIMBLK2
  1

  9
$DIMSTYLE
  2
Standard
  9
$DIMCLRD
 70
     0
  9
$DIMCLRE
 70
     0
  9
$DIMCLRT
 70
     0
  9
$DIMTFAC
 40
1.0
  9
$DIMGAP
 40
0.09
  9
$DIMJUST
 70
     0
  9
$DIMSD1
 70
     0
  9
$DIMSD2
 70
     0
  9
$DIMTOLJ
 70
     1
  9
$DIMTZIN
 70
     0
  9
$DIMALTZ
 70
     0
  9
$DIMALTTZ
 70
     0
  9
$DIMUPT
 70
     0
  9
$DIMDEC
 70
     4
  9
$DIMTDEC
 70
     4
  9
$DIMALTU
 70
     2
  9
$DIMALTTD
 70
     2
  9
$DIMTXSTY
  7
STANDARD
  9
$DIMAUNIT
 70
     0
  9
$DIMADEC
 70
     0
  9
$DIMALTRND
 40
0.0
  9
$DIMAZIN
 70
     0
  9
$DIMDSEP
 70
    46
  9
$DIMATFIT
 70
     3
  9
$DIMFRAC
 70
     0
  9
$DIMLDRBLK
  1

  9
$DIMLUNIT
 70
     2
  9
$DIMLWD
 70
    -2
  9
$DIMLWE
 70
    -2
  9
$DIMTMOVE
 70
     0
  9
$LUNITS
 70
     2
  9
$LUPREC
 70
     2
  9
$SKETCHINC
 40
0.0
  9
$FILLETRAD
 40
0.0
  9
$AUNITS
 70
     1
  9
$AUPREC
 70
     2
  9
$MENU
  1
ACAD
  9
$ELEVATION
 40
0.0
  9
$PELEVATION
 40
0.0
  9
$THICKNESS
 40
0.0
  9
$LIMCHECK
 70
     1
  9
$CHAMFERA
 40
0.0
  9
$CHAMFERB
 40
0.0
  9
$CHAMFERC
 40
0.0
  9
$CHAMFERD
 40
0.0
  9
$SKPOLY
 70
     0
  9
$TDCREATE
 40
2305814.417176053
  9
$TDUCREATE
 40
6.0000000000
  9
$TDUPDATE
 40
2455775.741351979
  9
$TDUUPDATE
 40
2455775.366351979
  9
$TDINDWG
 40
0.0005399884
  9
$TDUSRTIMER
 40
0.0005392708
  9
$USRTIMER
 70
     1
  9
$ANGBASE
 50
0.0
  9
$ANGDIR
 70
     0
  9
$PDMODE
 70
     0
  9
$PDSIZE
 40
0.0
  9
$PLINEWID
 40
0.0
  9
$SPLFRAME
 70
     0
  9
$SPLINETYPE
 70
     6
  9
$SPLINESEGS
 70
     8
  9
$HANDSEED
  5
2EC
  9
$SURFTAB1
 70
     6
  9
$SURFTAB2
 70
     6
  9
$SURFTYPE
 70
     6
  9
$SURFU
 70
     6
  9
$SURFV
 70
     6
  9
$UCSBASE
  2

  9
$UCSNAME
  2

  9
$UCSORG
 10
0.0
 20
0.0
 30
0.0
  9
$UCSXDIR
 10
1.0
 20
0.0
 30
0.0
  9
$UCSYDIR
 10
0.0
 20
1.0
 30
0.0
  9
$UCSORTHOREF
  2

  9
$UCSORTHOVIEW
 70
     0
  9
$UCSORGTOP
 10
0.0
 20
0.0
 30
0.0
  9
$UCSORGBOTTOM
 10
0.0
 20
0.0
 30
0.0
  9
$UCSORGLEFT
 10
0.0
 20
0.0
 30
0.0
  9
$UCSORGRIGHT
 10
0.0
 20
0.0
 30
0.0
  9
$UCSORGFRONT
 10
0.0
 20
0.0
 30
0.0
  9
$UCSORGBACK
 10
0.0
 20
0.0
 30
0.0
  9
$PUCSBASE
  2

  9
$PUCSNAME
  2

  9
$PUCSORG
 10
0.0
 20
0.0
 30
0.0
  9
$PUCSXDIR
 10
1.0
 20
0.0
 30
0.0
  9
$PUCSYDIR
 10
0.0
 20
1.0
 30
0.0
  9
$PUCSORTHOREF
  2

  9
$PUCSORTHOVIEW
 70
     0
  9
$PUCSORGTOP
 10
0.0
 20
0.0
 30
0.0
  9
$PUCSORGBOTTOM
 10
0.0
 20
0.0
 30
0.0
  9
$PUCSORGLEFT
 10
0.0
 20
0.0
 30
0.0
  9
$PUCSORGRIGHT
 10
0.0
 20
0.0
 30
0.0
  9
$PUCSORGFRONT
 10
0.0
 20
0.0
 30
0.0
  9
$PUCSORGBACK
 10
0.0
 20
0.0
 30
0.0
  9
$USERI1
 70
     0
  9
$USERI2
 70
     0
  9
$USERI3
 70
     0
  9
$USERI4
 70
     0
  9
$USERI5
 70
     0
  9
$USERR1
 40
0.0
  9
$USERR2
 40
0.0
  9
$USERR3
 40
0.0
  9
$USERR4
 40
0.0
  9
$USERR5
 40
0.0
  9
$WORLDVIEW
 70
     1
  9
$SHADEDGE
 70
     3
  9
$SHADEDIF
 70
    70
  9
$TILEMODE
 70
     1
  9
$MAXACTVP
 70
    64
  9
$PINSBASE
 10
0.0
 20
0.0
 30
0.0
  9
$PLIMCHECK
 70
     0
  9
$PEXTMIN
 10
0.0
 20
0.0
 30
0.0
  9
$PEXTMAX
 10
420.0
 20
297.0
 30
0.0
  9
$PLIMMIN
 10
0.0
 20
0.0
  9
$PLIMMAX
 10
12.0
 20
9.0
  9
$UNITMODE
 70
     0
  9
$VISRETAIN
 70
     1
  9
$PLINEGEN
 70
     0
  9
$PSLTSCALE
 70
     1
  9
$TREEDEPTH
 70
  3020
  9
$CMLSTYLE
  2
Standard
  9
$CMLJUST
 70
     0
  9
$CMLSCALE
 40
1.0
  9
$PROXYGRAPHICS
 70
     1
  9
$MEASUREMENT
 70
     0
  9
$CELWEIGHT
370
    -1
  9
$ENDCAPS
280
     0
  9
$JOINSTYLE
280
     0
  9
$LWDISPLAY
290
     0
  9
$INSUNITS
 70
     0
  9
$HYPERLINKBASE
  1

  9
$STYLESHEET
  1

  9
$XEDIT
290
     1
  9
$CEPSNTYPE
380
     0
  9
$PSTYLEMODE
290
     1
  9
$FINGERPRINTGUID
  2
{EA202F63-16A6-4222-ABDF-F428CA369085}
  9
$VERSIONGUID
  2
{4AC36B23-AAE9-46D3-926B-56F37BEFBD17}
  9
$EXTNAMES
290
     1
  9
$PSVPSCALE
 40
0.0
  9
$OLESTARTUP
290
     0
  0
ENDSEC
  0
SECTION
  2
CLASSES
  0
CLASS
  1
ACDBDICTIONARYWDFLT
  2
AcDbDictionaryWithDefault
  3
ObjectDBX Classes
 90
        0
280
     0
281
     0
  0
CLASS
  1
TABLESTYLE
  2
AcDbTableStyle
  3
ObjectDBX Classes
 90
     2047
280
     0
281
     0
  0
CLASS
  1
DICTIONARYVAR
  2
AcDbDictionaryVar
  3
ObjectDBX Classes
 90
        0
280
     0
281
     0
  0
CLASS
  1
ACDBPLACEHOLDER
  2
AcDbPlaceHolder
  3
ObjectDBX Classes
 90
        0
280
     0
281
     0
  0
CLASS
  1
LAYOUT
  2
AcDbLayout
  3
ObjectDBX Classes
 90
        0
280
     0
281
     0
  0
ENDSEC
  0
SECTION
  2
TABLES
  0
TABLE
  2
VPORT
  5
8
330
0
100
AcDbSymbolTable
 70
     2
  0
VPORT
  5
2E6
330
8
100
AcDbSymbolTableRecord
100
AcDbViewportTableRecord
  2
*Active
 70
     0
 10
0.0
 20
0.0
 11
1.0
 21
1.0
 12
432.4027681613863
 22
52.32129529497711
 13
0.0
 23
0.0
 14
1.0
 24
1.0
 15
0.0
 25
0.0
 16
0.0
 26
0.0
 36
1.0
 17
0.0
 27
0.0
 37
0.0
 40
663.7761012779328
 41
1.981907894736841
 42
50.0
 43
0.0
 44
0.0
 50
0.0
 51
0.0
 71
     0
 72
   100
 73
     1
 74
     1
 75
     0
 76
     0
 77
     0
 78
     0
281
     0
 65
     1
110
0.0
120
0.0
130
0.0
111
1.0
121
0.0
131
0.0
112
0.0
122
1.0
132
0.0
 79
     0
146
0.0
  0
ENDTAB
  0
TABLE
  2
LTYPE
  5
5
330
0
100
AcDbSymbolTable
 70
     5
  0
LTYPE
  5
13
330
5
100
AcDbSymbolTableRecord
100
AcDbLinetypeTableRecord
  2
ByBlock
 70
     0
  3

 72
    65
 73
     0
 40
0.0
  0
LTYPE
  5
14
330
5
100
AcDbSymbolTableRecord
100
AcDbLinetypeTableRecord
  2
ByLayer
 70
     0
  3

 72
    65
 73
     0
 40
0.0
  0
LTYPE
  5
15
330
5
100
AcDbSymbolTableRecord
100
AcDbLinetypeTableRecord
  2
CONTINUOUS
 70
     0
  3
Solid line
 72
    65
 73
     0
 40
0.0
  0
LTYPE
  5
26
330
5
100
AcDbSymbolTableRecord
100
AcDbLinetypeTableRecord
  2
HIDDEN
 70
     0
  3
------------------------
 72
    65
 73
     2
 40
12.6
 49
8.4
 74
     0
 49
-4.2
 74
     0
  0
LTYPE
  5
27
330
5
100
AcDbSymbolTableRecord
100
AcDbLinetypeTableRecord
  2
DOT
 70
     0
  3
････････････････････････
 72
    65
 73
     2
 40
8.0
 49
6.0
 74
     0
 49
-2.0
 74
     0
  0
LTYPE
  5
28
330
5
100
AcDbSymbolTableRecord
100
AcDbLinetypeTableRecord
  2
DASHDOT
 70
     0
  3
--･--･--･--･--･--･--･--
 72
    65
 73
     4
 40
50.5
 49
30.0
 74
     0
 49
-9.0
 74
     0
 49
2.5
 74
     0
 49
-9.0
 74
     0
  0
LTYPE
  5
29
330
5
100
AcDbSymbolTableRecord
100
AcDbLinetypeTableRecord
  2
DIVIDE
 70
     0
  3
--･･--･･--･･--･･--･･--
 72
    65
 73
     6
 40
58.0
 49
30.0
 74
     0
 49
-9.0
 74
     0
 49
2.5
 74
     0
 49
-5.0
 74
     0
 49
2.5
 74
     0
 49
-9.0
 74
     0
  0
ENDTAB
  0
TABLE
  2
LAYER
  5
2
330
0
100
AcDbSymbolTable
 70
     3
  0
LAYER
  5
10
330
2
100
AcDbSymbolTableRecord
100
AcDbLayerTableRecord
  2
0
 70
     0
 62
     7
  6
CONTINUOUS
370
    -3
390
F
  0
LAYER
  5
2A
330
2
100
AcDbSymbolTableRecord
100
AcDbLayerTableRecord
  2
1
 70
     0
 62
     7
  6
CONTINUOUS
370
    -3
390
F
  0
LAYER
  5
2B
330
2
100
AcDbSymbolTableRecord
100
AcDbLayerTableRecord
  2
15
 70
     0
 62
    96
  6
CONTINUOUS
370
    -3
390
F
  0
ENDTAB
  0
TABLE
  2
STYLE
  5
3
330
0
100
AcDbSymbolTable
 70
     2
  0
STYLE
  5
11
330
3
100
AcDbSymbolTableRecord
100
AcDbTextStyleTableRecord
  2
STANDARD
 70
     0
 40
0.0
 41
1.0
 50
0.0
 71
     0
 42
0.2
  3
TXT
  4

  0
STYLE
  5
2C
330
3
100
AcDbSymbolTableRecord
100
AcDbTextStyleTableRecord
  2
KANJI
 70
     0
 40
0.0
 41
1.0
 50
0.0
 71
     0
 42
0.2
  3
TXT
  4
BIGFONT
  0
ENDTAB
  0
TABLE
  2
VIEW
  5
6
330
0
100
AcDbSymbolTable
 70
     0
  0
ENDTAB
  0
TABLE
  2
UCS
  5
7
330
0
100
AcDbSymbolTable
 70
     0
  0
ENDTAB
  0
TABLE
  2
APPID
  5
9
330
0
100
AcDbSymbolTable
 70
     1
  0
APPID
  5
12
330
9
100
AcDbSymbolTableRecord
100
AcDbRegAppTableRecord
  2
ACAD
 70
     0
  0
ENDTAB
  0
TABLE
  2
DIMSTYLE
  5
A
330
0
100
AcDbSymbolTable
 70
     1
100
AcDbDimStyleTable
 71
     0
  0
DIMSTYLE
105
2E0
330
A
100
AcDbSymbolTableRecord
100
AcDbDimStyleTableRecord
  2
Standard
 70
     0
340
11
  0
ENDTAB
  0
TABLE
  2
BLOCK_RECORD
  5
1
330
0
100
AcDbSymbolTable
 70
     5
  0
BLOCK_RECORD
  5
22
330
1
100
AcDbSymbolTableRecord
100
AcDbBlockTableRecord
  2
*Model_Space
340
25
  0
BLOCK_RECORD
  5
1E
330
1
100
AcDbSymbolTableRecord
100
AcDbBlockTableRecord
  2
*Paper_Space
340
21
  0
BLOCK_RECORD
  5
30
330
1
100
AcDbSymbolTableRecord
100
AcDbBlockTableRecord
  2
*D0
340
0
  0
BLOCK_RECORD
  5
3B
330
1
100
AcDbSymbolTableRecord
100
AcDbBlockTableRecord
  2
*D1
340
0
  0
BLOCK_RECORD
  5
46
330
1
100
AcDbSymbolTableRecord
100
AcDbBlockTableRecord
  2
*D2
340
0
  0
BLOCK_RECORD
  5
51
330
1
100
AcDbSymbolTableRecord
100
AcDbBlockTableRecord
  2
*D3
340
0
  0
BLOCK_RECORD
  5
5C
330
1
100
AcDbSymbolTableRecord
100
AcDbBlockTableRecord
  2
*D4
340
0
  0
ENDTAB
  0
ENDSEC
  0
SECTION
  2
BLOCKS
  0
BLOCK
  5
23
330
22
100
AcDbEntity
  8
0
100
AcDbBlockBegin
  2
*Model_Space
 70
     0
 10
0.0
 20
0.0
 30
0.0
  3
*Model_Space
  1

  0
ENDBLK
  5
24
330
22
100
AcDbEntity
  8
0
100
AcDbBlockEnd
  0
BLOCK
  5
1F
330
1E
100
AcDbEntity
 67
     1
  8
0
100
AcDbBlockBegin
  2
*Paper_Space
 70
     0
 10
0.0
 20
0.0
 30
0.0
  3
*Paper_Space
  1

  0
ENDBLK
  5
20
330
1E
100
AcDbEntity
 67
     1
  8
0
100
AcDbBlockEnd
  0
BLOCK
  5
31
330
30
100
AcDbEntity
  8
1
  6
Continuous
 62
     7
100
AcDbBlockBegin
  2
*D0
 70
     1
 10
0.0
 20
0.0
 30
0.0
  3
*D0
  1

  0
LINE
  5
32
330
30
100
AcDbEntity
  8
1
  6
Continuous
 62
     7
100
AcDbLine
 10
187.6
 20
143.014
 30
0.0
 11
266.9
 21
143.014
 31
0.0
  0
LINE
  5
33
330
30
100
AcDbEntity
  8
1
  6
Continuous
 62
     7
100
AcDbLine
 10
187.6
 20
141.014
 30
0.0
 11
187.6
 21
176.014
 31
0.0
  0
LINE
  5
34
330
30
100
AcDbEntity
  8
1
  6
Continuous
 62
     7
100
AcDbLine
 10
266.9
 20
141.014
 30
0.0
 11
266.9
 21
176.467984
 31
0.0
  0
LINE
  5
35
330
30
100
AcDbEntity
  8
1
  6
Continuous
 62
     7
100
AcDbLine
 10
187.6
 20
143.014
 30
0.0
 11
191.463703
 21
144.049276
 31
0.0
  0
LINE
  5
36
330
30
100
AcDbEntity
  8
1
  6
Continuous
 62
     7
100
AcDbLine
 10
187.6
 20
143.014
 30
0.0
 11
191.463703
 21
141.978724
 31
0.0
  0
LINE
  5
37
330
30
100
AcDbEntity
  8
1
  6
Continuous
 62
     7
100
AcDbLine
 10
266.9
 20
143.014
 30
0.0
 11
263.0362970000001
 21
141.978724
 31
0.0
  0
LINE
  5
38
330
30
100
AcDbEntity
  8
1
  6
Continuous
 62
     7
100
AcDbLine
 10
266.9
 20
143.014
 30
0.0
 11
263.0362970000001
 21
144.049276
 31
0.0
  0
TEXT
  5
39
330
30
100
AcDbEntity
  8
1
  6
Continuous
 62
     7
100
AcDbText
 10
222.0
 20
143.014
 30
0.0
 40
3.0
  1
115±18
 41
0.5645160000000001
  7
KANJI
100
AcDbText
  0
ENDBLK
  5
3A
330
30
100
AcDbEntity
  8
0
100
AcDbBlockEnd
  0
BLOCK
  5
3C
330
3B
100
AcDbEntity
  8
1
  6
Continuous
 62
     7
100
AcDbBlockBegin
  2
*D1
 70
     1
 10
0.0
 20
0.0
 30
0.0
  3
*D1
  1

  0
LINE
  5
3D
330
3B
100
AcDbEntity
  8
1
  6
Continuous
 62
     7
100
AcDbLine
 10
187.6
 20
143.014
 30
0.0
 11
117.6
 21
143.014
 31
0.0
  0
LINE
  5
3E
330
3B
100
AcDbEntity
  8
1
  6
Continuous
 62
     7
100
AcDbLine
 10
187.6
 20
141.014
 30
0.0
 11
187.6
 21
176.014
 31
0.0
  0
LINE
  5
3F
330
3B
100
AcDbEntity
  8
1
  6
Continuous
 62
     7
100
AcDbLine
 10
117.6
 20
141.014
 30
0.0
 11
117.6
 21
176.014
 31
0.0
  0
LINE
  5
40
330
3B
100
AcDbEntity
  8
1
  6
Continuous
 62
     7
100
AcDbLine
 10
187.6
 20
143.014
 30
0.0
 11
183.736297
 21
141.978724
 31
0.0
  0
LINE
  5
41
330
3B
100
AcDbEntity
  8
1
  6
Continuous
 62
     7
100
AcDbLine
 10
187.6
 20
143.014
 30
0.0
 11
183.736297
 21
144.049276
 31
0.0
  0
LINE
  5
42
330
3B
100
AcDbEntity
  8
1
  6
Continuous
 62
     7
100
AcDbLine
 10
117.6
 20
143.014
 30
0.0
 11
121.463703
 21
144.049276
 31
0.0
  0
LINE
  5
43
330
3B
100
AcDbEntity
  8
1
  6
Continuous
 62
     7
100
AcDbLine
 10
117.6
 20
143.014
 30
0.0
 11
121.463703
 21
141.978724
 31
0.0
  0
TEXT
  5
44
330
3B
100
AcDbEntity
  8
1
  6
Continuous
 62
     7
100
AcDbText
 10
148.85
 20
143.014
 30
0.0
 40
3.0
  1
70±5
 41
0.5952380000000001
  7
KANJI
100
AcDbText
  0
ENDBLK
  5
45
330
3B
100
AcDbEntity
  8
0
100
AcDbBlockEnd
  0
BLOCK
  5
47
330
46
100
AcDbEntity
  8
1
  6
Continuous
 62
     7
100
AcDbBlockBegin
  2
*D2
 70
     1
 10
0.0
 20
0.0
 30
0.0
  3
*D2
  1

  0
LINE
  5
48
330
46
100
AcDbEntity
  8
1
  6
Continuous
 62
     7
100
AcDbLine
 10
117.6
 20
143.014
 30
0.0
 11
58.1
 21
143.014
 31
0.0
  0
LINE
  5
49
330
46
100
AcDbEntity
  8
1
  6
Continuous
 62
     7
100
AcDbLine
 10
117.6
 20
141.014
 30
0.0
 11
117.6
 21
176.014
 31
0.0
  0
LINE
  5
4A
330
46
100
AcDbEntity
  8
1
  6
Continuous
 62
     7
100
AcDbLine
 10
58.1
 20
141.014
 30
0.0
 11
58.1
 21
191.251105
 31
0.0
  0
LINE
  5
4B
330
46
100
AcDbEntity
  8
1
  6
Continuous
 62
     7
100
AcDbLine
 10
117.6
 20
143.014
 30
0.0
 11
113.736297
 21
141.978724
 31
0.0
  0
LINE
  5
4C
330
46
100
AcDbEntity
  8
1
  6
Continuous
 62
     7
100
AcDbLine
 10
117.6
 20
143.014
 30
0.0
 11
113.736297
 21
144.049276
 31
0.0
  0
LINE
  5
4D
330
46
100
AcDbEntity
  8
1
  6
Continuous
 62
     7
100
AcDbLine
 10
58.1
 20
143.014
 30
0.0
 11
61.963703
 21
144.049276
 31
0.0
  0
LINE
  5
4E
330
46
100
AcDbEntity
  8
1
  6
Continuous
 62
     7
100
AcDbLine
 10
58.1
 20
143.014
 30
0.0
 11
61.963703
 21
141.978724
 31
0.0
  0
TEXT
  5
4F
330
46
100
AcDbEntity
  8
1
  6
Continuous
 62
     7
100
AcDbText
 10
83.34999999999999
 20
143.014
 30
0.0
 40
3.0
  1
95±18
 41
0.576923
  7
KANJI
100
AcDbText
  0
ENDBLK
  5
50
330
46
100
AcDbEntity
  8
0
100
AcDbBlockEnd
  0
BLOCK
  5
52
330
51
100
AcDbEntity
  8
1
  6
Continuous
 62
     7
100
AcDbBlockBegin
  2
*D3
 70
     1
 10
0.0
 20
0.0
 30
0.0
  3
*D3
  1

  0
LINE
  5
53
330
51
100
AcDbEntity
  8
1
  6
Continuous
 62
     7
100
AcDbLine
 10
87.59999999999999
 20
116.22
 30
0.0
 11
87.59999999999999
 21
85.51399999999999
 31
0.0
  0
LINE
  5
54
330
51
100
AcDbEntity
  8
1
  6
Continuous
 62
     7
100
AcDbLine
 10
85.6
 20
104.514
 30
0.0
 11
120.6
 21
104.514
 31
0.0
  0
LINE
  5
55
330
51
100
AcDbEntity
  8
1
  6
Continuous
 62
     7
100
AcDbLine
 10
85.6
 20
93.51399999999999
 30
0.0
 11
120.6
 21
93.51399999999999
 31
0.0
  0
LINE
  5
56
330
51
100
AcDbEntity
  8
1
  6
Continuous
 62
     7
100
AcDbLine
 10
87.59999999999999
 20
104.514
 30
0.0
 11
86.564724
 21
108.377703
 31
0.0
  0
LINE
  5
57
330
51
100
AcDbEntity
  8
1
  6
Continuous
 62
     7
100
AcDbLine
 10
87.59999999999999
 20
104.514
 30
0.0
 11
88.63527600000001
 21
108.377703
 31
0.0
  0
LINE
  5
58
330
51
100
AcDbEntity
  8
1
  6
Continuous
 62
     7
100
AcDbLine
 10
87.59999999999999
 20
93.51399999999999
 30
0.0
 11
88.63527600000001
 21
89.650297
 31
0.0
  0
LINE
  5
59
330
51
100
AcDbEntity
  8
1
  6
Continuous
 62
     7
100
AcDbLine
 10
87.59999999999999
 20
93.51399999999999
 30
0.0
 11
86.564724
 21
89.650297
 31
0.0
  0
TEXT
  5
5A
330
51
100
AcDbEntity
  8
1
  6
Continuous
 62
     7
100
AcDbText
 10
87.59999999999999
 20
108.72
 30
0.0
 40
3.0
  1
11±1
 50
90.0
 41
0.5952380000000001
  7
KANJI
100
AcDbText
  0
ENDBLK
  5
5B
330
51
100
AcDbEntity
  8
0
100
AcDbBlockEnd
  0
BLOCK
  5
5D
330
5C
100
AcDbEntity
  8
1
  6
Continuous
 62
     7
100
AcDbBlockBegin
  2
*D4
 70
     1
 10
0.0
 20
0.0
 30
0.0
  3
*D4
  1

  0
LINE
  5
5E
330
5C
100
AcDbEntity
  8
1
  6
Continuous
 62
     7
100
AcDbLine
 10
102.6
 20
217.134
 30
0.0
 11
102.6
 21
164.514
 31
0.0
  0
LINE
  5
5F
330
5C
100
AcDbEntity
  8
1
  6
Continuous
 62
     7
100
AcDbLine
 10
100.6
 20
203.514
 30
0.0
 11
121.135184
 21
203.514
 31
0.0
  0
LINE
  5
60
330
5C
100
AcDbEntity
  8
1
  6
Continuous
 62
     7
100
AcDbLine
 10
100.6
 20
172.514
 30
0.0
 11
121.533
 21
172.514
 31
0.0
  0
LINE
  5
61
330
5C
100
AcDbEntity
  8
1
  6
Continuous
 62
     7
100
AcDbLine
 10
102.6
 20
203.514
 30
0.0
 11
101.564724
 21
207.377703
 31
0.0
  0
LINE
  5
62
330
5C
100
AcDbEntity
  8
1
  6
Continuous
 62
     7
100
AcDbLine
 10
102.6
 20
203.514
 30
0.0
 11
103.635276
 21
207.377703
 31
0.0
  0
LINE
  5
63
330
5C
100
AcDbEntity
  8
1
  6
Continuous
 62
     7
100
AcDbLine
 10
102.6
 20
172.514
 30
0.0
 11
103.635276
 21
168.650297
 31
0.0
  0
LINE
  5
64
330
5C
100
AcDbEntity
  8
1
  6
Continuous
 62
     7
100
AcDbLine
 10
102.6
 20
172.514
 30
0.0
 11
101.564724
 21
168.650297
 31
0.0
  0
TEXT
  5
65
330
5C
100
AcDbEntity
  8
1
  6
Continuous
 62
     7
100
AcDbText
 10
102.6
 20
209.634
 30
0.0
 40
3.0
  1
31±1
 50
90.0
 41
0.5952380000000001
  7
KANJI
100
AcDbText
  0
ENDBLK
  5
66
330
5C
100
AcDbEntity
  8
0
100
AcDbBlockEnd
  0
ENDSEC
  0
SECTION
  2
ENTITIES
  0
LINE
  5
67
330
22
100
AcDbEntity
  8
15
  6
Continuous
 62
    96
100
AcDbLine
 10
15.0
 20
272.0
 30
0.0
 11
15.0
 21
15.0
 31
0.0
  0
LINE
  5
68
330
22
100
AcDbEntity
  8
15
  6
Continuous
 62
    96
100
AcDbLine
 10
15.0
 20
15.0
 30
0.0
 11
400.0
 21
15.0
 31
0.0
  0
LINE
  5
69
330
22
100
AcDbEntity
  8
15
  6
Continuous
 62
    96
100
AcDbLine
 10
15.0
 20
272.0
 30
0.0
 11
400.0
 21
272.0
 31
0.0
  0
LINE
  5
6A
330
22
100
AcDbEntity
  8
15
  6
Continuous
 62
    96
100
AcDbLine
 10
400.0
 20
272.0
 30
0.0
 11
400.0
 21
15.0
 31
0.0
  0
LINE
  5
6B
330
22
100
AcDbEntity
  8
15
  6
Continuous
 62
    96
100
AcDbLine
 10
364.336481
 20
20.700096
 30
0.0
 11
351.873818
 21
20.700096
 31
0.0
  0
TEXT
  5
6C
330
22
100
AcDbEntity
  8
15
  6
Continuous
 62
    96
100
AcDbText
 10
334.110576
 20
19.689758
 30
0.0
 40
1.8
  1
出入管理システム
 41
1.018518999999999
  7
KANJI
100
AcDbText
  0
TEXT
  5
6D
330
22
100
AcDbEntity
  8
15
  6
Continuous
 62
    96
100
AcDbText
 10
334.181133
 20
15.809079
 30
0.0
 40
3.6
  1
株式会社
 41
1.782407
  7
KANJI
100
AcDbText
  0
LINE
  5
6E
330
22
100
AcDbEntity
  8
15
  6
Continuous
 62
    96
100
AcDbLine
 10
314.290135
 20
15.878561
 30
0.0
 11
317.456987
 21
15.878561
 31
0.0
  0
LINE
  5
6F
330
22
100
AcDbEntity
  8
15
  6
Continuous
 62
    96
100
AcDbLine
 10
332.925428
 20
19.727154
 30
0.0
 11
332.925428
 21
20.942497
 31
0.0
  0
LINE
  5
70
330
22
100
AcDbEntity
  8
15
  6
Continuous
 62
    96
100
AcDbLine
 10
331.60881
 20
19.727154
 30
0.0
 11
332.925428
 21
19.727154
 31
0.0
  0
LINE
  5
71
330
22
100
AcDbEntity
  8
15
  6
Continuous
 62
    96
100
AcDbLine
 10
331.60881
 20
15.878561
 30
0.0
 11
331.60881
 21
19.727154
 31
0.0
  0
LINE
  5
72
330
22
100
AcDbEntity
  8
15
  6
Continuous
 62
    96
100
AcDbLine
 10
330.190905
 20
15.878561
 30
0.0
 11
331.60881
 21
15.878561
 31
0.0
  0
LINE
  5
73
330
22
100
AcDbEntity
  8
15
  6
Continuous
 62
    96
100
AcDbLine
 10
329.338856
 20
15.878561
 30
0.0
 11
327.557658
 21
15.878561
 31
0.0
  0
LINE
  5
74
330
22
100
AcDbEntity
  8
15
  6
Continuous
 62
    96
100
AcDbLine
 10
320.164308
 20
15.878561
 30
0.0
 11
324.519291
 21
15.878561
 31
0.0
  0
LINE
  5
75
330
22
100
AcDbEntity
  8
15
  6
Continuous
 62
    96
100
AcDbLine
 10
320.164308
 20
18.005414
 30
0.0
 11
320.164308
 21
15.878561
 31
0.0
  0
LINE
  5
76
330
22
100
AcDbEntity
  8
15
  6
Continuous
 62
    96
100
AcDbLine
 10
317.456987
 20
15.878561
 30
0.0
 11
322.39244
 21
20.765148
 31
0.0
  0
LINE
  5
77
330
22
100
AcDbEntity
  8
15
  6
Continuous
 62
    96
100
AcDbLine
 10
322.39244
 20
20.765148
 30
0.0
 11
322.39244
 21
18.005414
 31
0.0
  0
LINE
  5
78
330
22
100
AcDbEntity
  8
15
  6
Continuous
 62
    96
100
AcDbLine
 10
322.39244
 20
18.005414
 30
0.0
 11
320.164308
 21
18.005414
 31
0.0
  0
LINE
  5
79
330
22
100
AcDbEntity
  8
15
  6
Continuous
 62
    96
100
AcDbLine
 10
324.519291
 20
18.714365
 30
0.0
 11
327.557658
 21
15.878561
 31
0.0
  0
ARC
  5
7A
330
22
100
AcDbEntity
  8
15
  6
Continuous
 62
    96
100
AcDbCircle
 10
326.949984
 20
19.220759
 30
0.0
 40
0.506395
100
AcDbArc
 50
270.0
 51
90.0
  0
LINE
  5
7B
330
22
100
AcDbEntity
  8
15
  6
Continuous
 62
    96
100
AcDbLine
 10
324.519291
 20
18.714365
 30
0.0
 11
326.949984
 21
18.714365
 31
0.0
  0
LINE
  5
7C
330
22
100
AcDbEntity
  8
15
  6
Continuous
 62
    96
100
AcDbLine
 10
324.924408
 20
19.727154
 30
0.0
 11
326.949984
 21
19.727154
 31
0.0
  0
LINE
  5
7D
330
22
100
AcDbEntity
  8
15
  6
Continuous
 62
    96
100
AcDbLine
 10
324.924408
 20
20.942497
 30
0.0
 11
324.924408
 21
19.727154
 31
0.0
  0
LINE
  5
7E
330
22
100
AcDbEntity
  8
15
  6
Continuous
 62
    96
100
AcDbLine
 10
324.924408
 20
20.942497
 30
0.0
 11
327.333779
 21
20.942497
 31
0.0
  0
ARC
  5
7F
330
22
100
AcDbEntity
  8
15
  6
Continuous
 62
    96
100
AcDbCircle
 10
327.141879
 20
19.220759
 30
0.0
 40
1.732399
100
AcDbArc
 50
283.944847
 51
83.640296
  0
LINE
  5
80
330
22
100
AcDbEntity
  8
15
  6
Continuous
 62
    96
100
AcDbLine
 10
327.557658
 20
17.541014
 30
0.0
 11
329.338856
 21
15.878561
 31
0.0
  0
LINE
  5
81
330
22
100
AcDbEntity
  8
15
  6
Continuous
 62
    96
100
AcDbLine
 10
332.925428
 20
20.942497
 30
0.0
 11
328.874278
 21
20.942497
 31
0.0
  0
LINE
  5
82
330
22
100
AcDbEntity
  8
15
  6
Continuous
 62
    96
100
AcDbLine
 10
328.874278
 20
20.942497
 30
0.0
 11
328.874278
 21
19.727154
 31
0.0
  0
LINE
  5
83
330
22
100
AcDbEntity
  8
15
  6
Continuous
 62
    96
100
AcDbLine
 10
328.874278
 20
19.727154
 30
0.0
 11
330.190905
 21
19.727154
 31
0.0
  0
LINE
  5
84
330
22
100
AcDbEntity
  8
15
  6
Continuous
 62
    96
100
AcDbLine
 10
330.190905
 20
19.727154
 30
0.0
 11
330.190905
 21
15.878561
 31
0.0
  0
TEXT
  5
85
330
22
100
AcDbEntity
  8
15
  6
Continuous
 62
    96
100
AcDbText
 10
310.431027
 20
57.11558199999999
 30
0.0
 40
2.5
  1
型　式
 41
0.9
  7
KANJI
100
AcDbText
  0
TEXT
  5
86
330
22
100
AcDbEntity
  8
15
  6
Continuous
 62
    96
100
AcDbText
 10
310.431027
 20
47.954625
 30
0.0
 40
2.5
  1
製品名
 41
0.9
  7
KANJI
100
AcDbText
  0
LINE
  5
87
330
22
100
AcDbEntity
  8
15
  6
Continuous
 62
    96
100
AcDbLine
 10
310.0
 20
15.0
 30
0.0
 11
310.0
 21
60.000007
 31
0.0
  0
LINE
  5
88
330
22
100
AcDbEntity
  8
15
  6
Continuous
 62
    96
100
AcDbLine
 10
310.0
 20
51.000007
 30
0.0
 11
400.0
 21
51.000007
 31
0.0
  0
LINE
  5
89
330
22
100
AcDbEntity
  8
15
  6
Continuous
 62
    96
100
AcDbLine
 10
310.0
 20
51.0
 30
0.0
 11
400.0
 21
51.000007
 31
0.0
  0
LINE
  5
8A
330
22
100
AcDbEntity
  8
15
  6
Continuous
 62
    96
100
AcDbLine
 10
400.0
 20
27.000007
 30
0.0
 11
310.0
 21
27.0
 31
0.0
  0
LINE
  5
8B
330
22
100
AcDbEntity
  8
15
  6
Continuous
 62
    96
100
AcDbLine
 10
310.0
 20
42.0
 30
0.0
 11
399.698557
 21
42.0
 31
0.0
  0
LINE
  5
8C
330
22
100
AcDbEntity
  8
15
  6
Continuous
 62
    96
100
AcDbLine
 10
310.0
 20
60.000007
 30
0.0
 11
400.0
 21
60.000007
 31
0.0
  0
LINE
  5
8D
330
22
100
AcDbEntity
  8
15
  6
Continuous
 62
    96
100
AcDbLine
 10
324.519291
 20
15.878561
 30
0.0
 11
324.519291
 21
26.006435
 31
0.0
  0
LINE
  5
8E
330
22
100
AcDbEntity
  8
15
  6
Continuous
 62
    96
100
AcDbLine
 10
324.519291
 20
26.006435
 30
0.0
 11
314.290135
 21
15.878561
 31
0.0
  0
LINE
  5
8F
330
22
100
AcDbEntity
  8
15
  6
Continuous
 62
    96
100
AcDbLine
 10
324.252714
 20
25.742498
 30
0.0
 11
324.519291
 21
25.742498
 31
0.0
  0
TEXT
  5
90
330
22
100
AcDbEntity
  8
15
  6
Continuous
 62
    96
100
AcDbText
 10
366.508819
 20
15.386878
 30
0.0
 40
10.0
  1
アート
 41
0.833333
  7
KANJI
100
AcDbText
  0
LINE
  5
91
330
22
100
AcDbEntity
  8
15
  6
Continuous
 62
    96
100
AcDbLine
 10
335.0
 20
272.0
 30
0.0
 11
335.0
 21
266.5
 31
0.0
  0
LINE
  5
92
330
22
100
AcDbEntity
  8
15
  6
Continuous
 62
    96
100
AcDbLine
 10
310.0
 20
266.5
 30
0.0
 11
400.0
 21
266.5
 31
0.0
  0
LINE
  5
93
330
22
100
AcDbEntity
  8
15
  6
Continuous
 62
    96
100
AcDbLine
 10
310.0
 20
261.0
 30
0.0
 11
400.0
 21
261.0
 31
0.0
  0
LINE
  5
94
330
22
100
AcDbEntity
  8
15
  6
Continuous
 62
    96
100
AcDbLine
 10
310.0
 20
255.5
 30
0.0
 11
400.0
 21
255.5
 31
0.0
  0
LINE
  5
95
330
22
100
AcDbEntity
  8
15
  6
Continuous
 62
    96
100
AcDbLine
 10
400.0
 20
250.0
 30
0.0
 11
310.0
 21
250.0
 31
0.0
  0
LINE
  5
96
330
22
100
AcDbEntity
  8
15
  6
Continuous
 62
    96
100
AcDbLine
 10
400.0
 20
113.000021
 30
0.0
 11
400.0
 21
100.200016
 31
0.0
  0
TEXT
  5
97
330
22
100
AcDbEntity
  8
15
  6
DIVIDE
 62
    96
100
AcDbText
 10
315.0
 20
267.75
 30
0.0
 40
3.0
  1
商品コード
 41
0.833333
  7
KANJI
100
AcDbText
  0
TEXT
  5
98
330
22
100
AcDbEntity
  8
15
  6
DIVIDE
 62
    96
100
AcDbText
 10
344.5
 20
262.25
 30
0.0
 40
3.0
  1
定　　　　　格
 41
0.833333
  7
KANJI
100
AcDbText
  0
LINE
  5
99
330
22
100
AcDbEntity
  8
15
  6
Continuous
 62
    96
100
AcDbLine
 10
310.0
 20
60.000007
 30
0.0
 11
400.0
 21
60.000007
 31
0.0
  0
LINE
  5
9A
330
22
100
AcDbEntity
  8
15
  6
Continuous
 62
    96
100
AcDbLine
 10
310.0
 20
65.500007
 30
0.0
 11
400.0
 21
65.500007
 31
0.0
  0
LINE
  5
9B
330
22
100
AcDbEntity
  8
15
  6
Continuous
 62
    96
100
AcDbLine
 10
335.0
 20
65.500007
 30
0.0
 11
335.0
 21
60.000007
 31
0.0
  0
TEXT
  5
9C
330
22
100
AcDbEntity
  8
15
  6
Continuous
 62
    96
100
AcDbText
 10
316.2
 20
61.250007
 30
0.0
 40
3.0
  1
図面履歴
 41
0.944444
  7
KANJI
100
AcDbText
  0
LINE
  5
9D
330
22
100
AcDbEntity
  8
15
  6
Continuous
 62
    96
100
AcDbLine
 10
310.0
 20
272.0
 30
0.0
 11
310.0
 21
63.50000699999999
 31
0.0
  0
LINE
  5
9E
330
22
100
AcDbEntity
  8
15
  6
Continuous
 62
    96
100
AcDbLine
 10
310.0
 20
60.000007
 30
0.0
 11
310.0
 21
63.50000699999999
 31
0.0
  0
LINE
  5
9F
330
22
100
AcDbEntity
  8
15
  6
Continuous
 62
    96
100
AcDbLine
 10
400.0
 20
63.49320999999999
 30
0.0
 11
400.0
 21
110.924646
 31
0.0
  0
LINE
  5
A0
330
22
100
AcDbEntity
  8
15
  6
Continuous
 62
    96
100
AcDbLine
 10
400.0
 20
63.50000699999999
 30
0.0
 11
400.0
 21
111.178469
 31
0.0
  0
TEXT
  5
A1
330
22
100
AcDbEntity
  8
15
  6
Continuous
 62
    96
100
AcDbText
 10
310.71945
 20
39.084987
 30
0.0
 40
2.500736999999999
  1
縮尺（Ａ３）
 41
0.9
  7
KANJI
100
AcDbText
  0
LINE
  5
A2
330
22
100
AcDbEntity
  8
15
  6
Continuous
 62
    96
100
AcDbLine
 10
324.9778819999999
 20
33.00177100000001
 30
0.0
 11
324.9778819999999
 21
27.000001
 31
0.0
  0
TEXT
  5
A3
330
22
100
AcDbEntity
  8
15
  6
Continuous
 62
    96
100
AcDbText
 10
312.111695
 20
28.509844
 30
0.0
 40
2.500736999999999
  1
図面番号
 41
0.9
  7
KANJI
100
AcDbText
  0
TEXT
  5
A4
330
22
100
AcDbEntity
  8
15
  6
Continuous
 62
    96
100
AcDbText
 10
376.04658
 20
38.852331
 30
0.0
 40
2.500736999999999
  1
作図
 41
0.9
  7
KANJI
100
AcDbText
  0
LINE
  5
A5
330
22
100
AcDbEntity
  8
15
  6
Continuous
 62
    96
100
AcDbLine
 10
324.9778819999999
 20
42.004424
 30
0.0
 11
324.9778819999999
 21
33.00177100000001
 31
0.0
  0
LINE
  5
A6
330
22
100
AcDbEntity
  8
15
  6
Continuous
 62
    96
100
AcDbLine
 10
349.985254
 20
42.004424
 30
0.0
 11
349.985254
 21
33.001773
 31
0.0
  0
LINE
  5
A7
330
22
100
AcDbEntity
  8
15
  6
Continuous
 62
    96
100
AcDbLine
 10
374.992627
 20
42.004424
 30
0.0
 11
374.992627
 21
33.001774
 31
0.0
  0
LINE
  5
A8
330
22
100
AcDbEntity
  8
15
  6
Continuous
 62
    96
100
AcDbLine
 10
355.006961
 20
33.000003
 30
0.0
 11
355.006961
 21
27.00000300000001
 31
0.0
  0
LINE
  5
A9
330
22
100
AcDbEntity
  8
15
  6
Continuous
 62
    96
100
AcDbLine
 10
362.006961
 20
33.000008
 30
0.0
 11
362.006961
 21
27.000008
 31
0.0
  0
TEXT
  5
AA
330
22
100
AcDbEntity
  8
15
  6
Continuous
 62
    96
100
AcDbText
 10
356.018627
 20
28.617941
 30
0.0
 40
2.5
  1
日付
 41
0.9
  7
KANJI
100
AcDbText
  0
LINE
  5
AB
330
22
100
AcDbEntity
  8
15
  6
Continuous
 62
    96
100
AcDbLine
 10
388.0
 20
33.000006
 30
0.0
 11
388.0
 21
27.000006
 31
0.0
  0
LINE
  5
AC
330
22
100
AcDbEntity
  8
15
  6
Continuous
 62
    96
100
AcDbLine
 10
391.050689
 20
32.240006
 30
0.0
 11
391.050689
 21
27.760006
 31
0.0
  0
CIRCLE
  5
AD
330
22
100
AcDbEntity
  8
15
  6
Continuous
 62
    96
100
AcDbCircle
 10
391.050689
 20
30.000006
 30
0.0
 40
0.9599999999999999
  0
CIRCLE
  5
AE
330
22
100
AcDbEntity
  8
15
  6
Continuous
 62
    96
100
AcDbCircle
 10
391.050689
 20
30.000006
 30
0.0
 40
1.6
  0
LINE
  5
AF
330
22
100
AcDbEntity
  8
15
  6
Continuous
 62
    96
100
AcDbLine
 10
393.689961
 20
30.960006
 30
0.0
 11
393.689961
 21
29.040006
 31
0.0
  0
LINE
  5
B0
330
22
100
AcDbEntity
  8
15
  6
Continuous
 62
    96
100
AcDbLine
 10
398.809961
 20
31.600006
 30
0.0
 11
398.809961
 21
28.400006
 31
0.0
  0
LINE
  5
B1
330
22
100
AcDbEntity
  8
15
  6
Continuous
 62
    96
100
AcDbLine
 10
393.689961
 20
30.960006
 30
0.0
 11
398.809961
 21
31.600006
 31
0.0
  0
LINE
  5
B2
330
22
100
AcDbEntity
  8
15
  6
Continuous
 62
    96
100
AcDbLine
 10
393.689961
 20
29.040006
 30
0.0
 11
398.809961
 21
28.400006
 31
0.0
  0
LINE
  5
B3
330
22
100
AcDbEntity
  8
15
  6
Continuous
 62
    96
100
AcDbLine
 10
388.810689
 20
30.000006
 30
0.0
 11
399.355961
 21
30.000006
 31
0.0
  0
TEXT
  5
B4
330
22
100
AcDbEntity
  8
15
  6
Continuous
 62
    96
100
AcDbText
 10
325.689041
 20
39.17943
 30
0.0
 40
2.500736999999999
  1
承認
 41
0.9
  7
KANJI
100
AcDbText
  0
TEXT
  5
B5
330
22
100
AcDbEntity
  8
15
  6
Continuous
 62
    96
100
AcDbText
 10
350.696414
 20
39.17943
 30
0.0
 40
2.500736999999999
  1
検図
 41
0.9
  7
KANJI
100
AcDbText
  0
LINE
  5
B6
330
22
100
AcDbEntity
  8
15
  6
Continuous
 62
    96
100
AcDbLine
 10
400.0002589999999
 20
33.001776
 30
0.0
 11
309.973458
 21
33.001769
 31
0.0
  0
TEXT
  5
B7
330
22
100
AcDbEntity
  8
15
  6
Continuous
 62
    96
100
AcDbText
 10
312.808324
 20
34.511669
 30
0.0
 40
3.000884999999999
  1
１：１
 41
0.833333
  7
KANJI
100
AcDbText
  0
TEXT
  5
B8
330
22
100
AcDbEntity
  8
15
  6
Continuous
 62
    96
100
AcDbText
 10
202.036
 20
17.149
 30
0.0
 40
3.0
  1
*　記載されている会社名、製品名は、登録商標または商標です。
 41
0.9338919999999999
  7
KANJI
100
AcDbText
  0
TEXT
  5
B9
330
22
100
AcDbEntity
  8
15
  6
DIVIDE
 62
    96
100
AcDbText
 10
318.0
 20
251.25
 30
0.0
 40
3.0
  1
重　量
 41
0.833333
  7
KANJI
100
AcDbText
  0
TEXT
  5
BA
330
22
100
AcDbEntity
  8
15
  6
DIVIDE
 62
    96
100
AcDbText
 10
318.0
 20
256.75
 30
0.0
 40
3.0
  1
彩　色
 41
0.833333
  7
KANJI
100
AcDbText
  0
TEXT
  5
BB
330
22
100
AcDbEntity
  8
15
  6
DIVIDE
 62
    96
100
AcDbText
 10
360.0
 20
256.75
 30
0.0
 40
3.0
  1
黒（本体）
 41
0.833333
  7
KANJI
100
AcDbText
  0
TEXT
  5
BC
330
22
100
AcDbEntity
  8
15
  6
DIVIDE
 62
    96
100
AcDbText
 10
363.0
 20
251.25
 30
0.0
 40
3.0
  1
約20ｇ
 41
0.681818
  7
KANJI
100
AcDbText
  0
LINE
  5
BD
330
22
100
AcDbEntity
  8
15
  6
Continuous
 62
    96
100
AcDbLine
 10
335.0
 20
261.00005
 30
0.0
 11
335.0
 21
250.0
 31
0.0
  0
LINE
  5
BE
330
22
100
AcDbEntity
  8
15
  6
Continuous
 62
    96
100
AcDbLine
 10
399.993039
 20
250.0
 30
0.0
 11
309.993039
 21
250.0
 31
0.0
  0
TEXT
  5
BF
330
22
100
AcDbEntity
  8
15
  6
Continuous
 62
    96
100
AcDbText
 10
332.37354
 20
34.567071
 30
0.0
 40
5.001475
  1
加藤
 41
0.9
  7
KANJI
100
AcDbText
  0
TEXT
  5
C0
330
22
100
AcDbEntity
  8
15
  6
Continuous
 62
    96
100
AcDbText
 10
360.304013
 20
34.567071
 30
0.0
 40
5.001475
  1
辻
 41
0.9
  7
KANJI
100
AcDbText
  0
TEXT
  5
C1
330
22
100
AcDbEntity
  8
15
  6
Continuous
 62
    96
100
AcDbText
 10
342.0
 20
53.000007
 30
0.0
 40
5.0
  1
TSアダプタ
 41
0.7941180000000001
  7
KANJI
100
AcDbText
  0
TEXT
  5
C2
330
22
100
AcDbEntity
  8
15
  6
Continuous
 62
    96
100
AcDbText
 10
342.0
 20
44.0
 30
0.0
 40
5.0
  1
TSアダプタ
 41
0.7941180000000001
  7
KANJI
100
AcDbText
  0
TEXT
  5
C3
330
22
100
AcDbEntity
  8
15
  6
Continuous
 62
    96
100
AcDbText
 10
383.722012
 20
34.567071
 30
0.0
 40
5.001475
  1
江辺
 41
0.9
  7
KANJI
100
AcDbText
  0
LINE
  5
C4
330
22
100
AcDbEntity
  8
1
  6
Continuous
 62
     7
100
AcDbLine
 10
158.344
 20
199.514
 30
0.0
 11
166.727
 21
217.75
 31
0.0
  0
LINE
  5
C5
330
22
100
AcDbEntity
  8
1
  6
Continuous
 62
     7
100
AcDbLine
 10
166.727
 20
217.75
 30
0.0
 11
196.727
 21
217.75
 31
0.0
  0
TEXT
  5
C6
330
22
100
AcDbEntity
  8
1
  6
Continuous
 62
     7
100
AcDbText
 10
166.727
 20
217.75
 30
0.0
 40
3.0
  1
収縮チューブ（黒色）
 41
0.833333
  7
KANJI
100
AcDbText
  0
LINE
  5
C7
330
22
100
AcDbEntity
  8
1
  6
Continuous
 62
     7
100
AcDbLine
 10
158.344
 20
199.514
 30
0.0
 11
159.017132
 21
203.456955
 31
0.0
  0
LINE
  5
C8
330
22
100
AcDbEntity
  8
1
  6
Continuous
 62
     7
100
AcDbLine
 10
158.344
 20
199.514
 30
0.0
 11
160.898427
 21
202.592133
 31
0.0
  0
LINE
  5
C9
330
22
100
AcDbEntity
  8
1
  6
HIDDEN
 62
     7
100
AcDbLine
 10
122.6
 20
173.014
 30
0.0
 11
182.6
 21
173.014
 31
0.0
  0
LINE
  5
CA
330
22
100
AcDbEntity
  8
1
  6
HIDDEN
 62
     7
100
AcDbLine
 10
182.6
 20
203.014
 30
0.0
 11
182.6
 21
173.014
 31
0.0
  0
LINE
  5
CB
330
22
100
AcDbEntity
  8
1
  6
HIDDEN
 62
     7
100
AcDbLine
 10
122.720485
 20
203.014
 30
0.0
 11
182.6
 21
203.014
 31
0.0
  0
LINE
  5
CC
330
22
100
AcDbEntity
  8
1
  6
HIDDEN
 62
     7
100
AcDbLine
 10
122.6
 20
203.014
 30
0.0
 11
122.6
 21
173.014
 31
0.0
  0
LINE
  5
CD
330
22
100
AcDbEntity
  8
1
  6
Continuous
 62
     7
100
AcDbLine
 10
58.1
 20
198.231105
 30
0.0
 11
86.39169499999999
 21
197.39152
 31
0.0
  0
LINE
  5
CE
330
22
100
AcDbEntity
  8
1
  6
Continuous
 62
     7
100
AcDbLine
 10
58.1
 20
194.551105
 30
0.0
 11
85.2923
 21
194.282115
 31
0.0
  0
LINE
  5
CF
330
22
100
AcDbEntity
  8
1
  6
Continuous
 62
     7
100
AcDbLine
 10
85.60397
 20
192.97903
 30
0.0
 11
58.1
 21
193.251105
 31
0.0
  0
LINE
  5
D0
330
22
100
AcDbEntity
  8
1
  6
Continuous
 62
     7
100
AcDbLine
 10
87.292675
 20
194.26233
 30
0.0
 11
117.6
 21
193.962525
 31
0.0
  0
LINE
  5
D1
330
22
100
AcDbEntity
  8
1
  6
Continuous
 62
     7
100
AcDbLine
 10
85.700765
 20
196.11201
 30
0.0
 11
58.1
 21
196.931105
 31
0.0
  0
LINE
  5
D2
330
22
100
AcDbEntity
  8
1
  6
Continuous
 62
     7
100
AcDbLine
 10
88.35438000000001
 20
197.333275
 30
0.0
 11
117.6
 21
196.46538
 31
0.0
  0
LINE
  5
D3
330
22
100
AcDbEntity
  8
1
  6
Continuous
 62
     7
100
AcDbLine
 10
117.6
 20
192.662525
 30
0.0
 11
87.61304
 21
192.959155
 31
0.0
  0
LINE
  5
D4
330
22
100
AcDbEntity
  8
1
  6
Continuous
 62
     7
100
AcDbLine
 10
117.6
 20
195.16535
 30
0.0
 11
87.67608499999999
 21
196.05339
 31
0.0
  0
LINE
  5
D5
330
22
100
AcDbEntity
  8
1
  6
Continuous
 62
     7
100
AcDbLine
 10
89.17044
 20
198.465357
 30
0.0
 11
89.149171
 21
198.432484
 31
0.0
  0
LINE
  5
D6
330
22
100
AcDbEntity
  8
1
  6
Continuous
 62
     7
100
AcDbLine
 10
89.149171
 20
198.432484
 30
0.0
 11
89.08596999999998
 21
198.334762
 31
0.0
  0
LINE
  5
D7
330
22
100
AcDbEntity
  8
1
  6
Continuous
 62
     7
100
AcDbLine
 10
89.08596999999998
 20
198.334762
 30
0.0
 11
88.98277
 21
198.174871
 31
0.0
  0
LINE
  5
D8
330
22
100
AcDbEntity
  8
1
  6
Continuous
 62
     7
100
AcDbLine
 10
88.98277
 20
198.174871
 30
0.0
 11
88.843141
 21
197.957217
 31
0.0
  0
LINE
  5
D9
330
22
100
AcDbEntity
  8
1
  6
Continuous
 62
     7
100
AcDbLine
 10
88.843141
 20
197.957217
 30
0.0
 11
88.67264499999999
 21
197.687844
 31
0.0
  0
LINE
  5
DA
330
22
100
AcDbEntity
  8
1
  6
Continuous
 62
     7
100
AcDbLine
 10
88.67264499999999
 20
197.687844
 30
0.0
 11
88.479057
 21
197.374289
 31
0.0
  0
LINE
  5
DB
330
22
100
AcDbEntity
  8
1
  6
Continuous
 62
     7
100
AcDbLine
 10
88.479057
 20
197.374289
 30
0.0
 11
88.272255
 21
197.025385
 31
0.0
  0
LINE
  5
DC
330
22
100
AcDbEntity
  8
1
  6
Continuous
 62
     7
100
AcDbLine
 10
88.272255
 20
197.025385
 30
0.0
 11
88.063686
 21
196.651001
 31
0.0
  0
LINE
  5
DD
330
22
100
AcDbEntity
  8
1
  6
Continuous
 62
     7
100
AcDbLine
 10
88.063686
 20
196.651001
 30
0.0
 11
87.86537299999999
 21
196.261735
 31
0.0
  0
LINE
  5
DE
330
22
100
AcDbEntity
  8
1
  6
Continuous
 62
     7
100
AcDbLine
 10
87.86537299999999
 20
196.261735
 30
0.0
 11
87.68859599999998
 21
195.86856
 31
0.0
  0
LINE
  5
DF
330
22
100
AcDbEntity
  8
1
  6
Continuous
 62
     7
100
AcDbLine
 10
87.68859599999998
 20
195.86856
 30
0.0
 11
87.54244300000001
 21
195.482461
 31
0.0
  0
LINE
  5
E0
330
22
100
AcDbEntity
  8
1
  6
Continuous
 62
     7
100
AcDbLine
 10
87.54244300000001
 20
195.482461
 30
0.0
 11
87.43254
 21
195.114069
 31
0.0
  0
LINE
  5
E1
330
22
100
AcDbEntity
  8
1
  6
Continuous
 62
     7
100
AcDbLine
 10
87.43254
 20
195.114069
 30
0.0
 11
87.36022
 21
194.773332
 31
0.0
  0
LINE
  5
E2
330
22
100
AcDbEntity
  8
1
  6
Continuous
 62
     7
100
AcDbLine
 10
87.36022
 20
194.773332
 30
0.0
 11
87.322356
 21
194.469234
 31
0.0
  0
LINE
  5
E3
330
22
100
AcDbEntity
  8
1
  6
Continuous
 62
     7
100
AcDbLine
 10
87.322356
 20
194.469234
 30
0.0
 11
87.311951
 21
194.209583
 31
0.0
  0
LINE
  5
E4
330
22
100
AcDbEntity
  8
1
  6
Continuous
 62
     7
100
AcDbLine
 10
87.311951
 20
194.209583
 30
0.0
 11
87.31943000000001
 21
194.000862
 31
0.0
  0
LINE
  5
E5
330
22
100
AcDbEntity
  8
1
  6
Continuous
 62
     7
100
AcDbLine
 10
87.31943000000001
 20
194.000862
 30
0.0
 11
87.334417
 21
193.848148
 31
0.0
  0
LINE
  5
E6
330
22
100
AcDbEntity
  8
1
  6
Continuous
 62
     7
100
AcDbLine
 10
87.334417
 20
193.848148
 30
0.0
 11
87.347672
 21
193.75507
 31
0.0
  0
LINE
  5
E7
330
22
100
AcDbEntity
  8
1
  6
Continuous
 62
     7
100
AcDbLine
 10
87.347672
 20
193.75507
 30
0.0
 11
87.35284399999999
 21
193.723803
 31
0.0
  0
LINE
  5
E8
330
22
100
AcDbEntity
  8
1
  6
Continuous
 62
     7
100
AcDbLine
 10
87.35284399999999
 20
193.723803
 30
0.0
 11
87.358378
 21
193.692557
 31
0.0
  0
LINE
  5
E9
330
22
100
AcDbEntity
  8
1
  6
Continuous
 62
     7
100
AcDbLine
 10
87.358378
 20
193.692557
 30
0.0
 11
87.376923
 21
193.599803
 31
0.0
  0
LINE
  5
EA
330
22
100
AcDbEntity
  8
1
  6
Continuous
 62
     7
100
AcDbLine
 10
87.376923
 20
193.599803
 30
0.0
 11
87.413751
 21
193.448447
 31
0.0
  0
LINE
  5
EB
330
22
100
AcDbEntity
  8
1
  6
Continuous
 62
     7
100
AcDbLine
 10
87.413751
 20
193.448447
 30
0.0
 11
87.47591099999999
 21
193.2432
 31
0.0
  0
LINE
  5
EC
330
22
100
AcDbEntity
  8
1
  6
Continuous
 62
     7
100
AcDbLine
 10
87.47591099999999
 20
193.2432
 30
0.0
 11
87.570087
 21
192.990385
 31
0.0
  0
LINE
  5
ED
330
22
100
AcDbEntity
  8
1
  6
Continuous
 62
     7
100
AcDbLine
 10
87.570087
 20
192.990385
 30
0.0
 11
87.70036800000001
 21
192.697686
 31
0.0
  0
LINE
  5
EE
330
22
100
AcDbEntity
  8
1
  6
Continuous
 62
     7
100
AcDbLine
 10
87.70036800000001
 20
192.697686
 30
0.0
 11
87.86652
 21
192.373854
 31
0.0
  0
LINE
  5
EF
330
22
100
AcDbEntity
  8
1
  6
Continuous
 62
     7
100
AcDbLine
 10
87.86652
 20
192.373854
 30
0.0
 11
88.063163
 21
192.028385
 31
0.0
  0
LINE
  5
F0
330
22
100
AcDbEntity
  8
1
  6
Continuous
 62
     7
100
AcDbLine
 10
88.063163
 20
192.028385
 30
0.0
 11
88.28011100000001
 21
191.671187
 31
0.0
  0
LINE
  5
F1
330
22
100
AcDbEntity
  8
1
  6
Continuous
 62
     7
100
AcDbLine
 10
88.28011100000001
 20
191.671187
 30
0.0
 11
88.503796
 21
191.312262
 31
0.0
  0
LINE
  5
F2
330
22
100
AcDbEntity
  8
1
  6
Continuous
 62
     7
100
AcDbLine
 10
88.503796
 20
191.312262
 30
0.0
 11
88.71947699999999
 21
190.9614
 31
0.0
  0
LINE
  5
F3
330
22
100
AcDbEntity
  8
1
  6
Continuous
 62
     7
100
AcDbLine
 10
88.71947699999999
 20
190.9614
 30
0.0
 11
88.91372399999999
 21
190.627915
 31
0.0
  0
LINE
  5
F4
330
22
100
AcDbEntity
  8
1
  6
Continuous
 62
     7
100
AcDbLine
 10
88.91372399999999
 20
190.627915
 30
0.0
 11
89.076608
 21
190.320417
 31
0.0
  0
LINE
  5
F5
330
22
100
AcDbEntity
  8
1
  6
Continuous
 62
     7
100
AcDbLine
 10
89.076608
 20
190.320417
 30
0.0
 11
89.20310699999999
 21
190.046632
 31
0.0
  0
LINE
  5
F6
330
22
100
AcDbEntity
  8
1
  6
Continuous
 62
     7
100
AcDbLine
 10
89.20310699999999
 20
190.046632
 30
0.0
 11
89.29339399999999
 21
189.81326
 31
0.0
  0
LINE
  5
F7
330
22
100
AcDbEntity
  8
1
  6
Continuous
 62
     7
100
AcDbLine
 10
89.29339399999999
 20
189.81326
 30
0.0
 11
89.351981
 21
189.625881
 31
0.0
  0
LINE
  5
F8
330
22
100
AcDbEntity
  8
1
  6
Continuous
 62
     7
100
AcDbLine
 10
89.351981
 20
189.625881
 30
0.0
 11
89.385937
 21
189.48888
 31
0.0
  0
LINE
  5
F9
330
22
100
AcDbEntity
  8
1
  6
Continuous
 62
     7
100
AcDbLine
 10
89.385937
 20
189.48888
 30
0.0
 11
89.402626
 21
189.405412
 31
0.0
  0
LINE
  5
FA
330
22
100
AcDbEntity
  8
1
  6
Continuous
 62
     7
100
AcDbLine
 10
89.402626
 20
189.405412
 30
0.0
 11
89.40751699999999
 21
189.377378
 31
0.0
  0
LINE
  5
FB
330
22
100
AcDbEntity
  8
1
  6
Continuous
 62
     7
100
AcDbLine
 10
89.40751699999999
 20
189.377378
 30
0.0
 11
89.412038
 21
189.349366
 31
0.0
  0
LINE
  5
FC
330
22
100
AcDbEntity
  8
1
  6
Continuous
 62
     7
100
AcDbLine
 10
89.412038
 20
189.349366
 30
0.0
 11
89.42330600000001
 21
189.266222
 31
0.0
  0
LINE
  5
FD
330
22
100
AcDbEntity
  8
1
  6
Continuous
 62
     7
100
AcDbLine
 10
89.42330600000001
 20
189.266222
 30
0.0
 11
89.43487799999999
 21
189.130579
 31
0.0
  0
LINE
  5
FE
330
22
100
AcDbEntity
  8
1
  6
Continuous
 62
     7
100
AcDbLine
 10
89.43487799999999
 20
189.130579
 30
0.0
 11
89.43739499999999
 21
188.946673
 31
0.0
  0
LINE
  5
FF
330
22
100
AcDbEntity
  8
1
  6
Continuous
 62
     7
100
AcDbLine
 10
89.43739499999999
 20
188.946673
 30
0.0
 11
89.420367
 21
188.720137
 31
0.0
  0
LINE
  5
100
330
22
100
AcDbEntity
  8
1
  6
Continuous
 62
     7
100
AcDbLine
 10
89.420367
 20
188.720137
 30
0.0
 11
89.37416
 21
188.457751
 31
0.0
  0
LINE
  5
101
330
22
100
AcDbEntity
  8
1
  6
Continuous
 62
     7
100
AcDbLine
 10
89.37416
 20
188.457751
 30
0.0
 11
89.29181099999999
 21
188.167158
 31
0.0
  0
LINE
  5
102
330
22
100
AcDbEntity
  8
1
  6
Continuous
 62
     7
100
AcDbLine
 10
89.29181099999999
 20
188.167158
 30
0.0
 11
89.170343
 21
187.856595
 31
0.0
  0
LINE
  5
103
330
22
100
AcDbEntity
  8
1
  6
Continuous
 62
     7
100
AcDbLine
 10
89.170343
 20
187.856595
 30
0.0
 11
89.01136300000001
 21
187.534635
 31
0.0
  0
LINE
  5
104
330
22
100
AcDbEntity
  8
1
  6
Continuous
 62
     7
100
AcDbLine
 10
89.01136300000001
 20
187.534635
 30
0.0
 11
88.820885
 21
187.20996
 31
0.0
  0
LINE
  5
105
330
22
100
AcDbEntity
  8
1
  6
Continuous
 62
     7
100
AcDbLine
 10
88.820885
 20
187.20996
 30
0.0
 11
88.608478
 21
186.891167
 31
0.0
  0
LINE
  5
106
330
22
100
AcDbEntity
  8
1
  6
Continuous
 62
     7
100
AcDbLine
 10
88.608478
 20
186.891167
 30
0.0
 11
88.38594599999998
 21
186.586596
 31
0.0
  0
LINE
  5
107
330
22
100
AcDbEntity
  8
1
  6
Continuous
 62
     7
100
AcDbLine
 10
88.38594599999998
 20
186.586596
 30
0.0
 11
88.165849
 21
186.30417
 31
0.0
  0
LINE
  5
108
330
22
100
AcDbEntity
  8
1
  6
Continuous
 62
     7
100
AcDbLine
 10
88.165849
 20
186.30417
 30
0.0
 11
87.96013499999999
 21
186.051241
 31
0.0
  0
LINE
  5
109
330
22
100
AcDbEntity
  8
1
  6
Continuous
 62
     7
100
AcDbLine
 10
87.96013499999999
 20
186.051241
 30
0.0
 11
87.77912699999999
 21
185.834427
 31
0.0
  0
LINE
  5
10A
330
22
100
AcDbEntity
  8
1
  6
Continuous
 62
     7
100
AcDbLine
 10
87.77912699999999
 20
185.834427
 30
0.0
 11
87.63096199999999
 21
185.659455
 31
0.0
  0
LINE
  5
10B
330
22
100
AcDbEntity
  8
1
  6
Continuous
 62
     7
100
AcDbLine
 10
87.63096199999999
 20
185.659455
 30
0.0
 11
87.521476
 21
185.530989
 31
0.0
  0
LINE
  5
10C
330
22
100
AcDbEntity
  8
1
  6
Continuous
 62
     7
100
AcDbLine
 10
87.521476
 20
185.530989
 30
0.0
 11
87.45443100000001
 21
185.452489
 31
0.0
  0
LINE
  5
10D
330
22
100
AcDbEntity
  8
1
  6
Continuous
 62
     7
100
AcDbLine
 10
87.45443100000001
 20
185.452489
 30
0.0
 11
87.43186999999998
 21
185.426082
 31
0.0
  0
LINE
  5
10E
330
22
100
AcDbEntity
  8
1
  6
Continuous
 62
     7
100
AcDbLine
 10
87.17043999999999
 20
198.465357
 30
0.0
 11
87.14917099999999
 21
198.432484
 31
0.0
  0
LINE
  5
10F
330
22
100
AcDbEntity
  8
1
  6
Continuous
 62
     7
100
AcDbLine
 10
87.14917099999999
 20
198.432484
 30
0.0
 11
87.08596999999999
 21
198.334762
 31
0.0
  0
LINE
  5
110
330
22
100
AcDbEntity
  8
1
  6
Continuous
 62
     7
100
AcDbLine
 10
87.08596999999999
 20
198.334762
 30
0.0
 11
86.98277
 21
198.174871
 31
0.0
  0
LINE
  5
111
330
22
100
AcDbEntity
  8
1
  6
Continuous
 62
     7
100
AcDbLine
 10
86.98277
 20
198.174871
 30
0.0
 11
86.84314099999999
 21
197.957217
 31
0.0
  0
LINE
  5
112
330
22
100
AcDbEntity
  8
1
  6
Continuous
 62
     7
100
AcDbLine
 10
86.84314099999999
 20
197.957217
 30
0.0
 11
86.67264499999999
 21
197.687844
 31
0.0
  0
LINE
  5
113
330
22
100
AcDbEntity
  8
1
  6
Continuous
 62
     7
100
AcDbLine
 10
86.67264499999999
 20
197.687844
 30
0.0
 11
86.479057
 21
197.374289
 31
0.0
  0
LINE
  5
114
330
22
100
AcDbEntity
  8
1
  6
Continuous
 62
     7
100
AcDbLine
 10
86.479057
 20
197.374289
 30
0.0
 11
86.27225499999999
 21
197.025385
 31
0.0
  0
LINE
  5
115
330
22
100
AcDbEntity
  8
1
  6
Continuous
 62
     7
100
AcDbLine
 10
86.27225499999999
 20
197.025385
 30
0.0
 11
86.06368600000001
 21
196.651001
 31
0.0
  0
LINE
  5
116
330
22
100
AcDbEntity
  8
1
  6
Continuous
 62
     7
100
AcDbLine
 10
86.06368600000001
 20
196.651001
 30
0.0
 11
85.86537299999999
 21
196.261735
 31
0.0
  0
LINE
  5
117
330
22
100
AcDbEntity
  8
1
  6
Continuous
 62
     7
100
AcDbLine
 10
85.86537299999999
 20
196.261735
 30
0.0
 11
85.68859599999999
 21
195.86856
 31
0.0
  0
LINE
  5
118
330
22
100
AcDbEntity
  8
1
  6
Continuous
 62
     7
100
AcDbLine
 10
85.68859599999999
 20
195.86856
 30
0.0
 11
85.542443
 21
195.482461
 31
0.0
  0
LINE
  5
119
330
22
100
AcDbEntity
  8
1
  6
Continuous
 62
     7
100
AcDbLine
 10
85.542443
 20
195.482461
 30
0.0
 11
85.43254000000001
 21
195.114069
 31
0.0
  0
LINE
  5
11A
330
22
100
AcDbEntity
  8
1
  6
Continuous
 62
     7
100
AcDbLine
 10
85.43254000000001
 20
195.114069
 30
0.0
 11
85.36022
 21
194.773332
 31
0.0
  0
LINE
  5
11B
330
22
100
AcDbEntity
  8
1
  6
Continuous
 62
     7
100
AcDbLine
 10
85.36022
 20
194.773332
 30
0.0
 11
85.32235599999999
 21
194.469234
 31
0.0
  0
LINE
  5
11C
330
22
100
AcDbEntity
  8
1
  6
Continuous
 62
     7
100
AcDbLine
 10
85.32235599999999
 20
194.469234
 30
0.0
 11
85.31195100000001
 21
194.209583
 31
0.0
  0
LINE
  5
11D
330
22
100
AcDbEntity
  8
1
  6
Continuous
 62
     7
100
AcDbLine
 10
85.31195100000001
 20
194.209583
 30
0.0
 11
85.31943000000001
 21
194.000862
 31
0.0
  0
LINE
  5
11E
330
22
100
AcDbEntity
  8
1
  6
Continuous
 62
     7
100
AcDbLine
 10
85.31943000000001
 20
194.000862
 30
0.0
 11
85.334417
 21
193.848148
 31
0.0
  0
LINE
  5
11F
330
22
100
AcDbEntity
  8
1
  6
Continuous
 62
     7
100
AcDbLine
 10
85.334417
 20
193.848148
 30
0.0
 11
85.347672
 21
193.75507
 31
0.0
  0
LINE
  5
120
330
22
100
AcDbEntity
  8
1
  6
Continuous
 62
     7
100
AcDbLine
 10
85.347672
 20
193.75507
 30
0.0
 11
85.352844
 21
193.723803
 31
0.0
  0
LINE
  5
121
330
22
100
AcDbEntity
  8
1
  6
Continuous
 62
     7
100
AcDbLine
 10
85.352844
 20
193.723803
 30
0.0
 11
85.35837800000001
 21
193.692557
 31
0.0
  0
LINE
  5
122
330
22
100
AcDbEntity
  8
1
  6
Continuous
 62
     7
100
AcDbLine
 10
85.35837800000001
 20
193.692557
 30
0.0
 11
85.37692300000001
 21
193.599803
 31
0.0
  0
LINE
  5
123
330
22
100
AcDbEntity
  8
1
  6
Continuous
 62
     7
100
AcDbLine
 10
85.37692300000001
 20
193.599803
 30
0.0
 11
85.41375100000001
 21
193.448447
 31
0.0
  0
LINE
  5
124
330
22
100
AcDbEntity
  8
1
  6
Continuous
 62
     7
100
AcDbLine
 10
85.41375100000001
 20
193.448447
 30
0.0
 11
85.47591099999999
 21
193.2432
 31
0.0
  0
LINE
  5
125
330
22
100
AcDbEntity
  8
1
  6
Continuous
 62
     7
100
AcDbLine
 10
85.47591099999999
 20
193.2432
 30
0.0
 11
85.570087
 21
192.990385
 31
0.0
  0
LINE
  5
126
330
22
100
AcDbEntity
  8
1
  6
Continuous
 62
     7
100
AcDbLine
 10
85.570087
 20
192.990385
 30
0.0
 11
85.70036800000002
 21
192.697686
 31
0.0
  0
LINE
  5
127
330
22
100
AcDbEntity
  8
1
  6
Continuous
 62
     7
100
AcDbLine
 10
85.70036800000002
 20
192.697686
 30
0.0
 11
85.86651999999999
 21
192.373854
 31
0.0
  0
LINE
  5
128
330
22
100
AcDbEntity
  8
1
  6
Continuous
 62
     7
100
AcDbLine
 10
85.86651999999999
 20
192.373854
 30
0.0
 11
86.06316300000001
 21
192.028385
 31
0.0
  0
LINE
  5
129
330
22
100
AcDbEntity
  8
1
  6
Continuous
 62
     7
100
AcDbLine
 10
86.06316300000001
 20
192.028385
 30
0.0
 11
86.280111
 21
191.671187
 31
0.0
  0
LINE
  5
12A
330
22
100
AcDbEntity
  8
1
  6
Continuous
 62
     7
100
AcDbLine
 10
86.280111
 20
191.671187
 30
0.0
 11
86.50379599999999
 21
191.312262
 31
0.0
  0
LINE
  5
12B
330
22
100
AcDbEntity
  8
1
  6
Continuous
 62
     7
100
AcDbLine
 10
86.50379599999999
 20
191.312262
 30
0.0
 11
86.719477
 21
190.9614
 31
0.0
  0
LINE
  5
12C
330
22
100
AcDbEntity
  8
1
  6
Continuous
 62
     7
100
AcDbLine
 10
86.719477
 20
190.9614
 30
0.0
 11
86.913724
 21
190.627915
 31
0.0
  0
LINE
  5
12D
330
22
100
AcDbEntity
  8
1
  6
Continuous
 62
     7
100
AcDbLine
 10
86.913724
 20
190.627915
 30
0.0
 11
87.07660799999999
 21
190.320417
 31
0.0
  0
LINE
  5
12E
330
22
100
AcDbEntity
  8
1
  6
Continuous
 62
     7
100
AcDbLine
 10
87.07660799999999
 20
190.320417
 30
0.0
 11
87.20310699999998
 21
190.046632
 31
0.0
  0
LINE
  5
12F
330
22
100
AcDbEntity
  8
1
  6
Continuous
 62
     7
100
AcDbLine
 10
87.20310699999998
 20
190.046632
 30
0.0
 11
87.29339399999998
 21
189.81326
 31
0.0
  0
LINE
  5
130
330
22
100
AcDbEntity
  8
1
  6
Continuous
 62
     7
100
AcDbLine
 10
87.29339399999998
 20
189.81326
 30
0.0
 11
87.35198100000001
 21
189.625881
 31
0.0
  0
LINE
  5
131
330
22
100
AcDbEntity
  8
1
  6
Continuous
 62
     7
100
AcDbLine
 10
87.35198100000001
 20
189.625881
 30
0.0
 11
87.385937
 21
189.48888
 31
0.0
  0
LINE
  5
132
330
22
100
AcDbEntity
  8
1
  6
Continuous
 62
     7
100
AcDbLine
 10
87.385937
 20
189.48888
 30
0.0
 11
87.40262599999999
 21
189.405412
 31
0.0
  0
LINE
  5
133
330
22
100
AcDbEntity
  8
1
  6
Continuous
 62
     7
100
AcDbLine
 10
87.40262599999999
 20
189.405412
 30
0.0
 11
87.407517
 21
189.377378
 31
0.0
  0
LINE
  5
134
330
22
100
AcDbEntity
  8
1
  6
Continuous
 62
     7
100
AcDbLine
 10
87.407517
 20
189.377378
 30
0.0
 11
87.41203799999999
 21
189.349366
 31
0.0
  0
LINE
  5
135
330
22
100
AcDbEntity
  8
1
  6
Continuous
 62
     7
100
AcDbLine
 10
87.41203799999999
 20
189.349366
 30
0.0
 11
87.423306
 21
189.266222
 31
0.0
  0
LINE
  5
136
330
22
100
AcDbEntity
  8
1
  6
Continuous
 62
     7
100
AcDbLine
 10
87.423306
 20
189.266222
 30
0.0
 11
87.434878
 21
189.130579
 31
0.0
  0
LINE
  5
137
330
22
100
AcDbEntity
  8
1
  6
Continuous
 62
     7
100
AcDbLine
 10
87.434878
 20
189.130579
 30
0.0
 11
87.437395
 21
188.946673
 31
0.0
  0
LINE
  5
138
330
22
100
AcDbEntity
  8
1
  6
Continuous
 62
     7
100
AcDbLine
 10
87.437395
 20
188.946673
 30
0.0
 11
87.42036699999999
 21
188.720137
 31
0.0
  0
LINE
  5
139
330
22
100
AcDbEntity
  8
1
  6
Continuous
 62
     7
100
AcDbLine
 10
87.42036699999999
 20
188.720137
 30
0.0
 11
87.37416000000001
 21
188.457751
 31
0.0
  0
LINE
  5
13A
330
22
100
AcDbEntity
  8
1
  6
Continuous
 62
     7
100
AcDbLine
 10
87.37416000000001
 20
188.457751
 30
0.0
 11
87.29181099999999
 21
188.167158
 31
0.0
  0
LINE
  5
13B
330
22
100
AcDbEntity
  8
1
  6
Continuous
 62
     7
100
AcDbLine
 10
87.29181099999999
 20
188.167158
 30
0.0
 11
87.17034299999999
 21
187.856595
 31
0.0
  0
LINE
  5
13C
330
22
100
AcDbEntity
  8
1
  6
Continuous
 62
     7
100
AcDbLine
 10
87.17034299999999
 20
187.856595
 30
0.0
 11
87.01136299999999
 21
187.534635
 31
0.0
  0
LINE
  5
13D
330
22
100
AcDbEntity
  8
1
  6
Continuous
 62
     7
100
AcDbLine
 10
87.01136299999999
 20
187.534635
 30
0.0
 11
86.820885
 21
187.20996
 31
0.0
  0
LINE
  5
13E
330
22
100
AcDbEntity
  8
1
  6
Continuous
 62
     7
100
AcDbLine
 10
86.820885
 20
187.20996
 30
0.0
 11
86.608478
 21
186.891167
 31
0.0
  0
LINE
  5
13F
330
22
100
AcDbEntity
  8
1
  6
Continuous
 62
     7
100
AcDbLine
 10
86.608478
 20
186.891167
 30
0.0
 11
86.38594599999999
 21
186.586596
 31
0.0
  0
LINE
  5
140
330
22
100
AcDbEntity
  8
1
  6
Continuous
 62
     7
100
AcDbLine
 10
86.38594599999999
 20
186.586596
 30
0.0
 11
86.16584899999999
 21
186.30417
 31
0.0
  0
LINE
  5
141
330
22
100
AcDbEntity
  8
1
  6
Continuous
 62
     7
100
AcDbLine
 10
86.16584899999999
 20
186.30417
 30
0.0
 11
85.96013499999999
 21
186.051241
 31
0.0
  0
LINE
  5
142
330
22
100
AcDbEntity
  8
1
  6
Continuous
 62
     7
100
AcDbLine
 10
85.96013499999999
 20
186.051241
 30
0.0
 11
85.779127
 21
185.834427
 31
0.0
  0
LINE
  5
143
330
22
100
AcDbEntity
  8
1
  6
Continuous
 62
     7
100
AcDbLine
 10
85.779127
 20
185.834427
 30
0.0
 11
85.630962
 21
185.659455
 31
0.0
  0
LINE
  5
144
330
22
100
AcDbEntity
  8
1
  6
Continuous
 62
     7
100
AcDbLine
 10
85.630962
 20
185.659455
 30
0.0
 11
85.52147600000001
 21
185.530989
 31
0.0
  0
LINE
  5
145
330
22
100
AcDbEntity
  8
1
  6
Continuous
 62
     7
100
AcDbLine
 10
85.52147600000001
 20
185.530989
 30
0.0
 11
85.45443099999999
 21
185.452489
 31
0.0
  0
LINE
  5
146
330
22
100
AcDbEntity
  8
1
  6
Continuous
 62
     7
100
AcDbLine
 10
85.45443099999999
 20
185.452489
 30
0.0
 11
85.43186999999999
 21
185.426082
 31
0.0
  0
LINE
  5
147
330
22
100
AcDbEntity
  8
1
  6
Continuous
 62
     7
100
AcDbLine
 10
58.1
 20
196.931105
 30
0.0
 11
58.1
 21
198.231105
 31
0.0
  0
LINE
  5
148
330
22
100
AcDbEntity
  8
1
  6
Continuous
 62
     7
100
AcDbLine
 10
58.1
 20
193.251105
 30
0.0
 11
58.1
 21
194.551105
 31
0.0
  0
LINE
  5
149
330
22
100
AcDbEntity
  8
1
  6
HIDDEN
 62
     7
100
AcDbLine
 10
117.6
 20
196.46538
 30
0.0
 11
122.6
 21
196.317
 31
0.0
  0
LINE
  5
14A
330
22
100
AcDbEntity
  8
1
  6
HIDDEN
 62
     7
100
AcDbLine
 10
122.6
 20
195.016967
 30
0.0
 11
117.6
 21
195.16535
 31
0.0
  0
LINE
  5
14B
330
22
100
AcDbEntity
  8
1
  6
HIDDEN
 62
     7
100
AcDbLine
 10
117.6
 20
193.962525
 30
0.0
 11
122.6
 21
193.913065
 31
0.0
  0
LINE
  5
14C
330
22
100
AcDbEntity
  8
1
  6
HIDDEN
 62
     7
100
AcDbLine
 10
122.6
 20
192.613062
 30
0.0
 11
117.6
 21
192.662525
 31
0.0
  0
LINE
  5
14D
330
22
100
AcDbEntity
  8
1
  6
Continuous
 62
     7
100
AcDbLine
 10
102.686705
 20
98.51399999999999
 30
0.0
 11
117.6
 21
98.51399999999999
 31
0.0
  0
LINE
  5
14E
330
22
100
AcDbEntity
  8
1
  6
Continuous
 62
     7
100
AcDbLine
 10
101.577404
 20
99.51399999999999
 30
0.0
 11
117.6
 21
99.51399999999999
 31
0.0
  0
LINE
  5
14F
330
22
100
AcDbEntity
  8
1
  6
Continuous
 62
     7
100
AcDbLine
 10
187.6
 20
98.51399999999999
 30
0.0
 11
202.686705
 21
98.51399999999999
 31
0.0
  0
LINE
  5
150
330
22
100
AcDbEntity
  8
1
  6
Continuous
 62
     7
100
AcDbLine
 10
187.6
 20
99.51399999999999
 30
0.0
 11
201.577404
 21
99.51399999999999
 31
0.0
  0
LINE
  5
151
330
22
100
AcDbEntity
  8
1
  6
Continuous
 62
     7
100
AcDbLine
 10
102.786361
 20
102.888661
 30
0.0
 11
102.766488
 21
102.869395
 31
0.0
  0
LINE
  5
152
330
22
100
AcDbEntity
  8
1
  6
Continuous
 62
     7
100
AcDbLine
 10
102.766488
 20
102.869395
 30
0.0
 11
102.707433
 21
102.812127
 31
0.0
  0
LINE
  5
153
330
22
100
AcDbEntity
  8
1
  6
Continuous
 62
     7
100
AcDbLine
 10
102.707433
 20
102.812127
 30
0.0
 11
102.610996
 21
102.718442
 31
0.0
  0
LINE
  5
154
330
22
100
AcDbEntity
  8
1
  6
Continuous
 62
     7
100
AcDbLine
 10
102.610996
 20
102.718442
 30
0.0
 11
102.48049
 21
102.590985
 31
0.0
  0
LINE
  5
155
330
22
100
AcDbEntity
  8
1
  6
Continuous
 62
     7
100
AcDbLine
 10
102.48049
 20
102.590985
 30
0.0
 11
102.321061
 21
102.433435
 31
0.0
  0
LINE
  5
156
330
22
100
AcDbEntity
  8
1
  6
Continuous
 62
     7
100
AcDbLine
 10
102.321061
 20
102.433435
 30
0.0
 11
102.13988
 21
102.250455
 31
0.0
  0
LINE
  5
157
330
22
100
AcDbEntity
  8
1
  6
Continuous
 62
     7
100
AcDbLine
 10
102.13988
 20
102.250455
 30
0.0
 11
101.946048
 21
102.047571
 31
0.0
  0
LINE
  5
158
330
22
100
AcDbEntity
  8
1
  6
Continuous
 62
     7
100
AcDbLine
 10
101.946048
 20
102.047571
 30
0.0
 11
101.7501
 21
101.830992
 31
0.0
  0
LINE
  5
159
330
22
100
AcDbEntity
  8
1
  6
Continuous
 62
     7
100
AcDbLine
 10
101.7501
 20
101.830992
 30
0.0
 11
101.563106
 21
101.607365
 31
0.0
  0
LINE
  5
15A
330
22
100
AcDbEntity
  8
1
  6
Continuous
 62
     7
100
AcDbLine
 10
101.563106
 20
101.607365
 30
0.0
 11
101.395474
 21
101.383472
 31
0.0
  0
LINE
  5
15B
330
22
100
AcDbEntity
  8
1
  6
Continuous
 62
     7
100
AcDbLine
 10
101.395474
 20
101.383472
 30
0.0
 11
101.255634
 21
101.165917
 31
0.0
  0
LINE
  5
15C
330
22
100
AcDbEntity
  8
1
  6
Continuous
 62
     7
100
AcDbLine
 10
101.255634
 20
101.165917
 30
0.0
 11
101.148882
 21
100.960826
 31
0.0
  0
LINE
  5
15D
330
22
100
AcDbEntity
  8
1
  6
Continuous
 62
     7
100
AcDbLine
 10
101.148882
 20
100.960826
 30
0.0
 11
101.076625
 21
100.773599
 31
0.0
  0
LINE
  5
15E
330
22
100
AcDbEntity
  8
1
  6
Continuous
 62
     7
100
AcDbLine
 10
101.076625
 20
100.773599
 30
0.0
 11
101.036222
 21
100.608749
 31
0.0
  0
LINE
  5
15F
330
22
100
AcDbEntity
  8
1
  6
Continuous
 62
     7
100
AcDbLine
 10
101.036222
 20
100.608749
 30
0.0
 11
101.021518
 21
100.469838
 31
0.0
  0
LINE
  5
160
330
22
100
AcDbEntity
  8
1
  6
Continuous
 62
     7
100
AcDbLine
 10
101.021518
 20
100.469838
 30
0.0
 11
101.024002
 21
100.359508
 31
0.0
  0
LINE
  5
161
330
22
100
AcDbEntity
  8
1
  6
Continuous
 62
     7
100
AcDbLine
 10
101.024002
 20
100.359508
 30
0.0
 11
101.034408
 21
100.279584
 31
0.0
  0
LINE
  5
162
330
22
100
AcDbEntity
  8
1
  6
Continuous
 62
     7
100
AcDbLine
 10
101.034408
 20
100.279584
 30
0.0
 11
101.044471
 21
100.231217
 31
0.0
  0
LINE
  5
163
330
22
100
AcDbEntity
  8
1
  6
Continuous
 62
     7
100
AcDbLine
 10
101.044471
 20
100.231217
 30
0.0
 11
101.048501
 21
100.21503
 31
0.0
  0
LINE
  5
164
330
22
100
AcDbEntity
  8
1
  6
Continuous
 62
     7
100
AcDbLine
 10
101.048501
 20
100.21503
 30
0.0
 11
101.052858
 21
100.198885
 31
0.0
  0
LINE
  5
165
330
22
100
AcDbEntity
  8
1
  6
Continuous
 62
     7
100
AcDbLine
 10
101.052858
 20
100.198885
 30
0.0
 11
101.067705
 21
100.151136
 31
0.0
  0
LINE
  5
166
330
22
100
AcDbEntity
  8
1
  6
Continuous
 62
     7
100
AcDbLine
 10
101.067705
 20
100.151136
 30
0.0
 11
101.097878
 21
100.073771
 31
0.0
  0
LINE
  5
167
330
22
100
AcDbEntity
  8
1
  6
Continuous
 62
     7
100
AcDbLine
 10
101.097878
 20
100.073771
 30
0.0
 11
101.149898
 21
99.96988700000001
 31
0.0
  0
LINE
  5
168
330
22
100
AcDbEntity
  8
1
  6
Continuous
 62
     7
100
AcDbLine
 10
101.149898
 20
99.96988700000001
 30
0.0
 11
101.230067
 21
99.843407
 31
0.0
  0
LINE
  5
169
330
22
100
AcDbEntity
  8
1
  6
Continuous
 62
     7
100
AcDbLine
 10
101.230067
 20
99.843407
 30
0.0
 11
101.34248
 21
99.69875700000001
 31
0.0
  0
LINE
  5
16A
330
22
100
AcDbEntity
  8
1
  6
Continuous
 62
     7
100
AcDbLine
 10
101.34248
 20
99.69875700000001
 30
0.0
 11
101.487454
 21
99.540565
 31
0.0
  0
LINE
  5
16B
330
22
100
AcDbEntity
  8
1
  6
Continuous
 62
     7
100
AcDbLine
 10
101.487454
 20
99.540565
 30
0.0
 11
101.660754
 21
99.37342199999999
 31
0.0
  0
LINE
  5
16C
330
22
100
AcDbEntity
  8
1
  6
Continuous
 62
     7
100
AcDbLine
 10
101.660754
 20
99.37342199999999
 30
0.0
 11
101.853824
 21
99.201735
 31
0.0
  0
LINE
  5
16D
330
22
100
AcDbEntity
  8
1
  6
Continuous
 62
     7
100
AcDbLine
 10
101.853824
 20
99.201735
 30
0.0
 11
102.054972
 21
99.02967400000001
 31
0.0
  0
LINE
  5
16E
330
22
100
AcDbEntity
  8
1
  6
Continuous
 62
     7
100
AcDbLine
 10
102.054972
 20
99.02967400000001
 30
0.0
 11
102.251257
 21
98.861202
 31
0.0
  0
LINE
  5
16F
330
22
100
AcDbEntity
  8
1
  6
Continuous
 62
     7
100
AcDbLine
 10
102.251257
 20
98.861202
 30
0.0
 11
102.430639
 21
98.700141
 31
0.0
  0
LINE
  5
170
330
22
100
AcDbEntity
  8
1
  6
Continuous
 62
     7
100
AcDbLine
 10
102.430639
 20
98.700141
 30
0.0
 11
102.583902
 21
98.55023800000001
 31
0.0
  0
LINE
  5
171
330
22
100
AcDbEntity
  8
1
  6
Continuous
 62
     7
100
AcDbLine
 10
102.583902
 20
98.55023800000001
 30
0.0
 11
102.705913
 21
98.41518700000001
 31
0.0
  0
LINE
  5
172
330
22
100
AcDbEntity
  8
1
  6
Continuous
 62
     7
100
AcDbLine
 10
102.705913
 20
98.41518700000001
 30
0.0
 11
102.79595
 21
98.29857400000001
 31
0.0
  0
LINE
  5
173
330
22
100
AcDbEntity
  8
1
  6
Continuous
 62
     7
100
AcDbLine
 10
102.79595
 20
98.29857400000001
 30
0.0
 11
102.857038
 21
98.203758
 31
0.0
  0
LINE
  5
174
330
22
100
AcDbEntity
  8
1
  6
Continuous
 62
     7
100
AcDbLine
 10
102.857038
 20
98.203758
 30
0.0
 11
102.894495
 21
98.13367800000001
 31
0.0
  0
LINE
  5
175
330
22
100
AcDbEntity
  8
1
  6
Continuous
 62
     7
100
AcDbLine
 10
102.894495
 20
98.13367800000001
 30
0.0
 11
102.914056
 21
98.090641
 31
0.0
  0
LINE
  5
176
330
22
100
AcDbEntity
  8
1
  6
Continuous
 62
     7
100
AcDbLine
 10
102.914056
 20
98.090641
 30
0.0
 11
102.920042
 21
98.076126
 31
0.0
  0
LINE
  5
177
330
22
100
AcDbEntity
  8
1
  6
Continuous
 62
     7
100
AcDbLine
 10
102.920042
 20
98.076126
 30
0.0
 11
102.925724
 21
98.06159100000002
 31
0.0
  0
LINE
  5
178
330
22
100
AcDbEntity
  8
1
  6
Continuous
 62
     7
100
AcDbLine
 10
102.925724
 20
98.06159100000002
 30
0.0
 11
102.940829
 21
98.018266
 31
0.0
  0
LINE
  5
179
330
22
100
AcDbEntity
  8
1
  6
Continuous
 62
     7
100
AcDbLine
 10
102.940829
 20
98.018266
 30
0.0
 11
102.959898
 21
97.94700400000001
 31
0.0
  0
LINE
  5
17A
330
22
100
AcDbEntity
  8
1
  6
Continuous
 62
     7
100
AcDbLine
 10
102.959898
 20
97.94700400000001
 30
0.0
 11
102.974975
 21
97.84926699999999
 31
0.0
  0
LINE
  5
17B
330
22
100
AcDbEntity
  8
1
  6
Continuous
 62
     7
100
AcDbLine
 10
102.974975
 20
97.84926699999999
 30
0.0
 11
102.977077
 21
97.72716199999999
 31
0.0
  0
LINE
  5
17C
330
22
100
AcDbEntity
  8
1
  6
Continuous
 62
     7
100
AcDbLine
 10
102.977077
 20
97.72716199999999
 30
0.0
 11
102.957842
 21
97.58348000000001
 31
0.0
  0
LINE
  5
17D
330
22
100
AcDbEntity
  8
1
  6
Continuous
 62
     7
100
AcDbLine
 10
102.957842
 20
97.58348000000001
 30
0.0
 11
102.911032
 21
97.421701
 31
0.0
  0
LINE
  5
17E
330
22
100
AcDbEntity
  8
1
  6
Continuous
 62
     7
100
AcDbLine
 10
102.911032
 20
97.421701
 30
0.0
 11
102.833627
 21
97.245957
 31
0.0
  0
LINE
  5
17F
330
22
100
AcDbEntity
  8
1
  6
Continuous
 62
     7
100
AcDbLine
 10
102.833627
 20
97.245957
 30
0.0
 11
102.726337
 21
97.060952
 31
0.0
  0
LINE
  5
180
330
22
100
AcDbEntity
  8
1
  6
Continuous
 62
     7
100
AcDbLine
 10
102.726337
 20
97.060952
 30
0.0
 11
102.593467
 21
96.87182100000001
 31
0.0
  0
LINE
  5
181
330
22
100
AcDbEntity
  8
1
  6
Continuous
 62
     7
100
AcDbLine
 10
102.593467
 20
96.87182100000001
 30
0.0
 11
102.442238
 21
96.68395799999998
 31
0.0
  0
LINE
  5
182
330
22
100
AcDbEntity
  8
1
  6
Continuous
 62
     7
100
AcDbLine
 10
102.442238
 20
96.68395799999998
 30
0.0
 11
102.281719
 21
96.502809
 31
0.0
  0
LINE
  5
183
330
22
100
AcDbEntity
  8
1
  6
Continuous
 62
     7
100
AcDbLine
 10
102.281719
 20
96.502809
 30
0.0
 11
102.121623
 21
96.33366099999999
 31
0.0
  0
LINE
  5
184
330
22
100
AcDbEntity
  8
1
  6
Continuous
 62
     7
100
AcDbLine
 10
102.121623
 20
96.33366099999999
 30
0.0
 11
101.971209
 21
96.181447
 31
0.0
  0
LINE
  5
185
330
22
100
AcDbEntity
  8
1
  6
Continuous
 62
     7
100
AcDbLine
 10
101.971209
 20
96.181447
 30
0.0
 11
101.838453
 21
96.05057099999999
 31
0.0
  0
LINE
  5
186
330
22
100
AcDbEntity
  8
1
  6
Continuous
 62
     7
100
AcDbLine
 10
101.838453
 20
96.05057099999999
 30
0.0
 11
101.729607
 21
95.944774
 31
0.0
  0
LINE
  5
187
330
22
100
AcDbEntity
  8
1
  6
Continuous
 62
     7
100
AcDbLine
 10
101.729607
 20
95.944774
 30
0.0
 11
101.649119
 21
95.86703699999999
 31
0.0
  0
LINE
  5
188
330
22
100
AcDbEntity
  8
1
  6
Continuous
 62
     7
100
AcDbLine
 10
101.649119
 20
95.86703699999999
 30
0.0
 11
101.599818
 21
95.81952300000001
 31
0.0
  0
LINE
  5
189
330
22
100
AcDbEntity
  8
1
  6
Continuous
 62
     7
100
AcDbLine
 10
101.599818
 20
95.81952300000001
 30
0.0
 11
101.583227
 21
95.80353999999999
 31
0.0
  0
LINE
  5
18A
330
22
100
AcDbEntity
  8
1
  6
Continuous
 62
     7
100
AcDbLine
 10
202.786361
 20
102.888661
 30
0.0
 11
202.766488
 21
102.869395
 31
0.0
  0
LINE
  5
18B
330
22
100
AcDbEntity
  8
1
  6
Continuous
 62
     7
100
AcDbLine
 10
202.766488
 20
102.869395
 30
0.0
 11
202.707433
 21
102.812127
 31
0.0
  0
LINE
  5
18C
330
22
100
AcDbEntity
  8
1
  6
Continuous
 62
     7
100
AcDbLine
 10
202.707433
 20
102.812127
 30
0.0
 11
202.610996
 21
102.718442
 31
0.0
  0
LINE
  5
18D
330
22
100
AcDbEntity
  8
1
  6
Continuous
 62
     7
100
AcDbLine
 10
202.610996
 20
102.718442
 30
0.0
 11
202.48049
 21
102.590985
 31
0.0
  0
LINE
  5
18E
330
22
100
AcDbEntity
  8
1
  6
Continuous
 62
     7
100
AcDbLine
 10
202.48049
 20
102.590985
 30
0.0
 11
202.321061
 21
102.433435
 31
0.0
  0
LINE
  5
18F
330
22
100
AcDbEntity
  8
1
  6
Continuous
 62
     7
100
AcDbLine
 10
202.321061
 20
102.433435
 30
0.0
 11
202.13988
 21
102.250455
 31
0.0
  0
LINE
  5
190
330
22
100
AcDbEntity
  8
1
  6
Continuous
 62
     7
100
AcDbLine
 10
202.13988
 20
102.250455
 30
0.0
 11
201.946048
 21
102.047571
 31
0.0
  0
LINE
  5
191
330
22
100
AcDbEntity
  8
1
  6
Continuous
 62
     7
100
AcDbLine
 10
201.946048
 20
102.047571
 30
0.0
 11
201.7501
 21
101.830992
 31
0.0
  0
LINE
  5
192
330
22
100
AcDbEntity
  8
1
  6
Continuous
 62
     7
100
AcDbLine
 10
201.7501
 20
101.830992
 30
0.0
 11
201.563106
 21
101.607365
 31
0.0
  0
LINE
  5
193
330
22
100
AcDbEntity
  8
1
  6
Continuous
 62
     7
100
AcDbLine
 10
201.563106
 20
101.607365
 30
0.0
 11
201.395474
 21
101.383472
 31
0.0
  0
LINE
  5
194
330
22
100
AcDbEntity
  8
1
  6
Continuous
 62
     7
100
AcDbLine
 10
201.395474
 20
101.383472
 30
0.0
 11
201.255634
 21
101.165917
 31
0.0
  0
LINE
  5
195
330
22
100
AcDbEntity
  8
1
  6
Continuous
 62
     7
100
AcDbLine
 10
201.255634
 20
101.165917
 30
0.0
 11
201.148882
 21
100.960826
 31
0.0
  0
LINE
  5
196
330
22
100
AcDbEntity
  8
1
  6
Continuous
 62
     7
100
AcDbLine
 10
201.148882
 20
100.960826
 30
0.0
 11
201.076625
 21
100.773599
 31
0.0
  0
LINE
  5
197
330
22
100
AcDbEntity
  8
1
  6
Continuous
 62
     7
100
AcDbLine
 10
201.076625
 20
100.773599
 30
0.0
 11
201.036222
 21
100.608749
 31
0.0
  0
LINE
  5
198
330
22
100
AcDbEntity
  8
1
  6
Continuous
 62
     7
100
AcDbLine
 10
201.036222
 20
100.608749
 30
0.0
 11
201.021518
 21
100.469838
 31
0.0
  0
LINE
  5
199
330
22
100
AcDbEntity
  8
1
  6
Continuous
 62
     7
100
AcDbLine
 10
201.021518
 20
100.469838
 30
0.0
 11
201.024002
 21
100.359508
 31
0.0
  0
LINE
  5
19A
330
22
100
AcDbEntity
  8
1
  6
Continuous
 62
     7
100
AcDbLine
 10
201.024002
 20
100.359508
 30
0.0
 11
201.034408
 21
100.279584
 31
0.0
  0
LINE
  5
19B
330
22
100
AcDbEntity
  8
1
  6
Continuous
 62
     7
100
AcDbLine
 10
201.034408
 20
100.279584
 30
0.0
 11
201.044471
 21
100.231217
 31
0.0
  0
LINE
  5
19C
330
22
100
AcDbEntity
  8
1
  6
Continuous
 62
     7
100
AcDbLine
 10
201.044471
 20
100.231217
 30
0.0
 11
201.048501
 21
100.21503
 31
0.0
  0
LINE
  5
19D
330
22
100
AcDbEntity
  8
1
  6
Continuous
 62
     7
100
AcDbLine
 10
201.048501
 20
100.21503
 30
0.0
 11
201.052858
 21
100.198885
 31
0.0
  0
LINE
  5
19E
330
22
100
AcDbEntity
  8
1
  6
Continuous
 62
     7
100
AcDbLine
 10
201.052858
 20
100.198885
 30
0.0
 11
201.067705
 21
100.151136
 31
0.0
  0
LINE
  5
19F
330
22
100
AcDbEntity
  8
1
  6
Continuous
 62
     7
100
AcDbLine
 10
201.067705
 20
100.151136
 30
0.0
 11
201.097878
 21
100.073771
 31
0.0
  0
LINE
  5
1A0
330
22
100
AcDbEntity
  8
1
  6
Continuous
 62
     7
100
AcDbLine
 10
201.097878
 20
100.073771
 30
0.0
 11
201.149898
 21
99.96988700000001
 31
0.0
  0
LINE
  5
1A1
330
22
100
AcDbEntity
  8
1
  6
Continuous
 62
     7
100
AcDbLine
 10
201.149898
 20
99.96988700000001
 30
0.0
 11
201.230067
 21
99.843407
 31
0.0
  0
LINE
  5
1A2
330
22
100
AcDbEntity
  8
1
  6
Continuous
 62
     7
100
AcDbLine
 10
201.230067
 20
99.843407
 30
0.0
 11
201.34248
 21
99.69875700000001
 31
0.0
  0
LINE
  5
1A3
330
22
100
AcDbEntity
  8
1
  6
Continuous
 62
     7
100
AcDbLine
 10
201.34248
 20
99.69875700000001
 30
0.0
 11
201.487454
 21
99.540565
 31
0.0
  0
LINE
  5
1A4
330
22
100
AcDbEntity
  8
1
  6
Continuous
 62
     7
100
AcDbLine
 10
201.487454
 20
99.540565
 30
0.0
 11
201.660754
 21
99.37342199999999
 31
0.0
  0
LINE
  5
1A5
330
22
100
AcDbEntity
  8
1
  6
Continuous
 62
     7
100
AcDbLine
 10
201.660754
 20
99.37342199999999
 30
0.0
 11
201.853824
 21
99.201735
 31
0.0
  0
LINE
  5
1A6
330
22
100
AcDbEntity
  8
1
  6
Continuous
 62
     7
100
AcDbLine
 10
201.853824
 20
99.201735
 30
0.0
 11
202.054972
 21
99.02967400000001
 31
0.0
  0
LINE
  5
1A7
330
22
100
AcDbEntity
  8
1
  6
Continuous
 62
     7
100
AcDbLine
 10
202.054972
 20
99.02967400000001
 30
0.0
 11
202.251257
 21
98.861202
 31
0.0
  0
LINE
  5
1A8
330
22
100
AcDbEntity
  8
1
  6
Continuous
 62
     7
100
AcDbLine
 10
202.251257
 20
98.861202
 30
0.0
 11
202.430639
 21
98.700141
 31
0.0
  0
LINE
  5
1A9
330
22
100
AcDbEntity
  8
1
  6
Continuous
 62
     7
100
AcDbLine
 10
202.430639
 20
98.700141
 30
0.0
 11
202.583902
 21
98.55023800000001
 31
0.0
  0
LINE
  5
1AA
330
22
100
AcDbEntity
  8
1
  6
Continuous
 62
     7
100
AcDbLine
 10
202.583902
 20
98.55023800000001
 30
0.0
 11
202.705913
 21
98.41518700000001
 31
0.0
  0
LINE
  5
1AB
330
22
100
AcDbEntity
  8
1
  6
Continuous
 62
     7
100
AcDbLine
 10
202.705913
 20
98.41518700000001
 30
0.0
 11
202.79595
 21
98.29857400000001
 31
0.0
  0
LINE
  5
1AC
330
22
100
AcDbEntity
  8
1
  6
Continuous
 62
     7
100
AcDbLine
 10
202.79595
 20
98.29857400000001
 30
0.0
 11
202.857038
 21
98.203758
 31
0.0
  0
LINE
  5
1AD
330
22
100
AcDbEntity
  8
1
  6
Continuous
 62
     7
100
AcDbLine
 10
202.857038
 20
98.203758
 30
0.0
 11
202.894495
 21
98.13367800000001
 31
0.0
  0
LINE
  5
1AE
330
22
100
AcDbEntity
  8
1
  6
Continuous
 62
     7
100
AcDbLine
 10
202.894495
 20
98.13367800000001
 30
0.0
 11
202.914056
 21
98.090641
 31
0.0
  0
LINE
  5
1AF
330
22
100
AcDbEntity
  8
1
  6
Continuous
 62
     7
100
AcDbLine
 10
202.914056
 20
98.090641
 30
0.0
 11
202.920042
 21
98.076126
 31
0.0
  0
LINE
  5
1B0
330
22
100
AcDbEntity
  8
1
  6
Continuous
 62
     7
100
AcDbLine
 10
202.920042
 20
98.076126
 30
0.0
 11
202.925724
 21
98.06159100000002
 31
0.0
  0
LINE
  5
1B1
330
22
100
AcDbEntity
  8
1
  6
Continuous
 62
     7
100
AcDbLine
 10
202.925724
 20
98.06159100000002
 30
0.0
 11
202.940829
 21
98.018266
 31
0.0
  0
LINE
  5
1B2
330
22
100
AcDbEntity
  8
1
  6
Continuous
 62
     7
100
AcDbLine
 10
202.940829
 20
98.018266
 30
0.0
 11
202.959898
 21
97.94700400000001
 31
0.0
  0
LINE
  5
1B3
330
22
100
AcDbEntity
  8
1
  6
Continuous
 62
     7
100
AcDbLine
 10
202.959898
 20
97.94700400000001
 30
0.0
 11
202.974975
 21
97.84926699999999
 31
0.0
  0
LINE
  5
1B4
330
22
100
AcDbEntity
  8
1
  6
Continuous
 62
     7
100
AcDbLine
 10
202.974975
 20
97.84926699999999
 30
0.0
 11
202.977077
 21
97.72716199999999
 31
0.0
  0
LINE
  5
1B5
330
22
100
AcDbEntity
  8
1
  6
Continuous
 62
     7
100
AcDbLine
 10
202.977077
 20
97.72716199999999
 30
0.0
 11
202.957842
 21
97.58348000000001
 31
0.0
  0
LINE
  5
1B6
330
22
100
AcDbEntity
  8
1
  6
Continuous
 62
     7
100
AcDbLine
 10
202.957842
 20
97.58348000000001
 30
0.0
 11
202.911032
 21
97.421701
 31
0.0
  0
LINE
  5
1B7
330
22
100
AcDbEntity
  8
1
  6
Continuous
 62
     7
100
AcDbLine
 10
202.911032
 20
97.421701
 30
0.0
 11
202.833627
 21
97.245957
 31
0.0
  0
LINE
  5
1B8
330
22
100
AcDbEntity
  8
1
  6
Continuous
 62
     7
100
AcDbLine
 10
202.833627
 20
97.245957
 30
0.0
 11
202.726337
 21
97.060952
 31
0.0
  0
LINE
  5
1B9
330
22
100
AcDbEntity
  8
1
  6
Continuous
 62
     7
100
AcDbLine
 10
202.726337
 20
97.060952
 30
0.0
 11
202.593467
 21
96.87182100000001
 31
0.0
  0
LINE
  5
1BA
330
22
100
AcDbEntity
  8
1
  6
Continuous
 62
     7
100
AcDbLine
 10
202.593467
 20
96.87182100000001
 30
0.0
 11
202.442238
 21
96.68395799999998
 31
0.0
  0
LINE
  5
1BB
330
22
100
AcDbEntity
  8
1
  6
Continuous
 62
     7
100
AcDbLine
 10
202.442238
 20
96.68395799999998
 30
0.0
 11
202.281719
 21
96.502809
 31
0.0
  0
LINE
  5
1BC
330
22
100
AcDbEntity
  8
1
  6
Continuous
 62
     7
100
AcDbLine
 10
202.281719
 20
96.502809
 30
0.0
 11
202.121623
 21
96.33366099999999
 31
0.0
  0
LINE
  5
1BD
330
22
100
AcDbEntity
  8
1
  6
Continuous
 62
     7
100
AcDbLine
 10
202.121623
 20
96.33366099999999
 30
0.0
 11
201.971209
 21
96.181447
 31
0.0
  0
LINE
  5
1BE
330
22
100
AcDbEntity
  8
1
  6
Continuous
 62
     7
100
AcDbLine
 10
201.971209
 20
96.181447
 30
0.0
 11
201.838453
 21
96.05057099999999
 31
0.0
  0
LINE
  5
1BF
330
22
100
AcDbEntity
  8
1
  6
Continuous
 62
     7
100
AcDbLine
 10
201.838453
 20
96.05057099999999
 30
0.0
 11
201.729607
 21
95.944774
 31
0.0
  0
LINE
  5
1C0
330
22
100
AcDbEntity
  8
1
  6
Continuous
 62
     7
100
AcDbLine
 10
201.729607
 20
95.944774
 30
0.0
 11
201.649119
 21
95.86703699999999
 31
0.0
  0
LINE
  5
1C1
330
22
100
AcDbEntity
  8
1
  6
Continuous
 62
     7
100
AcDbLine
 10
201.649119
 20
95.86703699999999
 30
0.0
 11
201.599818
 21
95.81952300000001
 31
0.0
  0
LINE
  5
1C2
330
22
100
AcDbEntity
  8
1
  6
Continuous
 62
     7
100
AcDbLine
 10
201.599818
 20
95.81952300000001
 30
0.0
 11
201.583227
 21
95.80353999999999
 31
0.0
  0
LINE
  5
1C3
330
22
100
AcDbEntity
  8
1
  6
HIDDEN
 62
     7
100
AcDbLine
 10
182.6
 20
97.81399999999999
 30
0.0
 11
182.6
 21
96.21400000000001
 31
0.0
  0
LINE
  5
1C4
330
22
100
AcDbEntity
  8
1
  6
HIDDEN
 62
     7
100
AcDbLine
 10
177.2
 20
100.614
 30
0.0
 11
177.2
 21
97.81399999999999
 31
0.0
  0
LINE
  5
1C5
330
22
100
AcDbEntity
  8
1
  6
HIDDEN
 62
     7
100
AcDbLine
 10
182.1
 20
100.614
 30
0.0
 11
182.1
 21
97.81399999999999
 31
0.0
  0
LINE
  5
1C6
330
22
100
AcDbEntity
  8
1
  6
HIDDEN
 62
     7
100
AcDbLine
 10
177.2
 20
100.614
 30
0.0
 11
182.1
 21
100.614
 31
0.0
  0
LINE
  5
1C7
330
22
100
AcDbEntity
  8
1
  6
HIDDEN
 62
     7
100
AcDbLine
 10
182.1
 20
99.51399999999999
 30
0.0
 11
192.6
 21
99.51399999999999
 31
0.0
  0
LINE
  5
1C8
330
22
100
AcDbEntity
  8
1
  6
HIDDEN
 62
     7
100
AcDbLine
 10
182.1
 20
98.51399999999999
 30
0.0
 11
192.6
 21
98.51399999999999
 31
0.0
  0
LINE
  5
1C9
330
22
100
AcDbEntity
  8
1
  6
HIDDEN
 62
     7
100
AcDbLine
 10
179.406317
 20
96.21400000000001
 30
0.0
 11
179.413301
 21
96.19794399999999
 31
0.0
  0
LINE
  5
1CA
330
22
100
AcDbEntity
  8
1
  6
HIDDEN
 62
     7
100
AcDbLine
 10
179.413301
 20
96.19794399999999
 30
0.0
 11
179.434061
 21
96.150227
 31
0.0
  0
LINE
  5
1CB
330
22
100
AcDbEntity
  8
1
  6
HIDDEN
 62
     7
100
AcDbLine
 10
179.434061
 20
96.150227
 30
0.0
 11
179.468026
 21
96.072278
 31
0.0
  0
LINE
  5
1CC
330
22
100
AcDbEntity
  8
1
  6
HIDDEN
 62
     7
100
AcDbLine
 10
179.468026
 20
96.072278
 30
0.0
 11
179.514256
 21
95.966678
 31
0.0
  0
LINE
  5
1CD
330
22
100
AcDbEntity
  8
1
  6
HIDDEN
 62
     7
100
AcDbLine
 10
179.514256
 20
95.966678
 30
0.0
 11
179.571451
 21
95.83736599999999
 31
0.0
  0
LINE
  5
1CE
330
22
100
AcDbEntity
  8
1
  6
HIDDEN
 62
     7
100
AcDbLine
 10
179.571451
 20
95.83736599999999
 30
0.0
 11
179.637988
 21
95.689752
 31
0.0
  0
LINE
  5
1CF
330
22
100
AcDbEntity
  8
1
  6
HIDDEN
 62
     7
100
AcDbLine
 10
179.637988
 20
95.689752
 30
0.0
 11
179.711957
 21
95.530637
 31
0.0
  0
LINE
  5
1D0
330
22
100
AcDbEntity
  8
1
  6
HIDDEN
 62
     7
100
AcDbLine
 10
179.711957
 20
95.530637
 30
0.0
 11
179.791218
 21
95.36786199999999
 31
0.0
  0
LINE
  5
1D1
330
22
100
AcDbEntity
  8
1
  6
HIDDEN
 62
     7
100
AcDbLine
 10
179.791218
 20
95.36786199999999
 30
0.0
 11
179.87348
 21
95.209688
 31
0.0
  0
LINE
  5
1D2
330
22
100
AcDbEntity
  8
1
  6
HIDDEN
 62
     7
100
AcDbLine
 10
179.87348
 20
95.209688
 30
0.0
 11
179.956377
 21
95.063969
 31
0.0
  0
LINE
  5
1D3
330
22
100
AcDbEntity
  8
1
  6
HIDDEN
 62
     7
100
AcDbLine
 10
179.956377
 20
95.063969
 30
0.0
 11
180.037559
 21
94.93725500000001
 31
0.0
  0
LINE
  5
1D4
330
22
100
AcDbEntity
  8
1
  6
HIDDEN
 62
     7
100
AcDbLine
 10
180.037559
 20
94.93725500000001
 30
0.0
 11
180.114777
 21
94.833989
 31
0.0
  0
LINE
  5
1D5
330
22
100
AcDbEntity
  8
1
  6
HIDDEN
 62
     7
100
AcDbLine
 10
180.114777
 20
94.833989
 30
0.0
 11
180.185961
 21
94.755985
 31
0.0
  0
LINE
  5
1D6
330
22
100
AcDbEntity
  8
1
  6
HIDDEN
 62
     7
100
AcDbLine
 10
180.185961
 20
94.755985
 30
0.0
 11
180.249274
 21
94.70229399999999
 31
0.0
  0
LINE
  5
1D7
330
22
100
AcDbEntity
  8
1
  6
HIDDEN
 62
     7
100
AcDbLine
 10
180.249274
 20
94.70229399999999
 30
0.0
 11
180.303154
 21
94.669538
 31
0.0
  0
LINE
  5
1D8
330
22
100
AcDbEntity
  8
1
  6
HIDDEN
 62
     7
100
AcDbLine
 10
180.303154
 20
94.669538
 30
0.0
 11
180.346338
 21
94.652665
 31
0.0
  0
LINE
  5
1D9
330
22
100
AcDbEntity
  8
1
  6
HIDDEN
 62
     7
100
AcDbLine
 10
180.346338
 20
94.652665
 30
0.0
 11
180.377856
 21
94.645998
 31
0.0
  0
LINE
  5
1DA
330
22
100
AcDbEntity
  8
1
  6
HIDDEN
 62
     7
100
AcDbLine
 10
180.377856
 20
94.645998
 30
0.0
 11
180.397033
 21
94.64439499999999
 31
0.0
  0
LINE
  5
1DB
330
22
100
AcDbEntity
  8
1
  6
HIDDEN
 62
     7
100
AcDbLine
 10
180.397033
 20
94.64439499999999
 30
0.0
 11
180.403469
 21
94.64428599999999
 31
0.0
  0
LINE
  5
1DC
330
22
100
AcDbEntity
  8
1
  6
HIDDEN
 62
     7
100
AcDbLine
 10
180.403469
 20
94.64428599999999
 30
0.0
 11
180.409898
 21
94.64439499999999
 31
0.0
  0
LINE
  5
1DD
330
22
100
AcDbEntity
  8
1
  6
HIDDEN
 62
     7
100
AcDbLine
 10
180.409898
 20
94.64439499999999
 30
0.0
 11
180.428965
 21
94.645998
 31
0.0
  0
LINE
  5
1DE
330
22
100
AcDbEntity
  8
1
  6
HIDDEN
 62
     7
100
AcDbLine
 10
180.428965
 20
94.645998
 30
0.0
 11
180.460026
 21
94.652665
 31
0.0
  0
LINE
  5
1DF
330
22
100
AcDbEntity
  8
1
  6
HIDDEN
 62
     7
100
AcDbLine
 10
180.460026
 20
94.652665
 30
0.0
 11
180.50205
 21
94.669538
 31
0.0
  0
LINE
  5
1E0
330
22
100
AcDbEntity
  8
1
  6
HIDDEN
 62
     7
100
AcDbLine
 10
180.50205
 20
94.669538
 30
0.0
 11
180.553682
 21
94.70229399999999
 31
0.0
  0
LINE
  5
1E1
330
22
100
AcDbEntity
  8
1
  6
HIDDEN
 62
     7
100
AcDbLine
 10
180.553682
 20
94.70229399999999
 30
0.0
 11
180.613308
 21
94.755985
 31
0.0
  0
LINE
  5
1E2
330
22
100
AcDbEntity
  8
1
  6
HIDDEN
 62
     7
100
AcDbLine
 10
180.613308
 20
94.755985
 30
0.0
 11
180.679136
 21
94.833989
 31
0.0
  0
LINE
  5
1E3
330
22
100
AcDbEntity
  8
1
  6
HIDDEN
 62
     7
100
AcDbLine
 10
180.679136
 20
94.833989
 30
0.0
 11
180.7492639999999
 21
94.93725500000001
 31
0.0
  0
LINE
  5
1E4
330
22
100
AcDbEntity
  8
1
  6
HIDDEN
 62
     7
100
AcDbLine
 10
180.7492639999999
 20
94.93725500000001
 30
0.0
 11
180.821746
 21
95.063969
 31
0.0
  0
LINE
  5
1E5
330
22
100
AcDbEntity
  8
1
  6
HIDDEN
 62
     7
100
AcDbLine
 10
180.821746
 20
95.063969
 30
0.0
 11
180.894637
 21
95.209688
 31
0.0
  0
LINE
  5
1E6
330
22
100
AcDbEntity
  8
1
  6
HIDDEN
 62
     7
100
AcDbLine
 10
180.894637
 20
95.209688
 30
0.0
 11
180.966039
 21
95.36786199999999
 31
0.0
  0
LINE
  5
1E7
330
22
100
AcDbEntity
  8
1
  6
HIDDEN
 62
     7
100
AcDbLine
 10
180.966039
 20
95.36786199999999
 30
0.0
 11
181.0341239999999
 21
95.530637
 31
0.0
  0
LINE
  5
1E8
330
22
100
AcDbEntity
  8
1
  6
HIDDEN
 62
     7
100
AcDbLine
 10
181.0341239999999
 20
95.530637
 30
0.0
 11
181.0971669999999
 21
95.689752
 31
0.0
  0
LINE
  5
1E9
330
22
100
AcDbEntity
  8
1
  6
HIDDEN
 62
     7
100
AcDbLine
 10
181.0971669999999
 20
95.689752
 30
0.0
 11
181.153569
 21
95.83736599999999
 31
0.0
  0
LINE
  5
1EA
330
22
100
AcDbEntity
  8
1
  6
HIDDEN
 62
     7
100
AcDbLine
 10
181.153569
 20
95.83736599999999
 30
0.0
 11
181.201886
 21
95.966678
 31
0.0
  0
LINE
  5
1EB
330
22
100
AcDbEntity
  8
1
  6
HIDDEN
 62
     7
100
AcDbLine
 10
181.201886
 20
95.966678
 30
0.0
 11
181.240865
 21
96.072278
 31
0.0
  0
LINE
  5
1EC
330
22
100
AcDbEntity
  8
1
  6
HIDDEN
 62
     7
100
AcDbLine
 10
181.240865
 20
96.072278
 30
0.0
 11
181.269478
 21
96.150227
 31
0.0
  0
LINE
  5
1ED
330
22
100
AcDbEntity
  8
1
  6
HIDDEN
 62
     7
100
AcDbLine
 10
181.269478
 20
96.150227
 30
0.0
 11
181.286962
 21
96.19794399999999
 31
0.0
  0
LINE
  5
1EE
330
22
100
AcDbEntity
  8
1
  6
HIDDEN
 62
     7
100
AcDbLine
 10
181.286962
 20
96.19794399999999
 30
0.0
 11
181.292843
 21
96.21400000000001
 31
0.0
  0
LINE
  5
1EF
330
22
100
AcDbEntity
  8
1
  6
HIDDEN
 62
     7
100
AcDbLine
 10
122.6
 20
97.81399999999999
 30
0.0
 11
122.6
 21
96.21400000000001
 31
0.0
  0
LINE
  5
1F0
330
22
100
AcDbEntity
  8
1
  6
HIDDEN
 62
     7
100
AcDbLine
 10
123.1
 20
100.614
 30
0.0
 11
123.1
 21
97.81399999999999
 31
0.0
  0
LINE
  5
1F1
330
22
100
AcDbEntity
  8
1
  6
HIDDEN
 62
     7
100
AcDbLine
 10
128.0
 20
100.614
 30
0.0
 11
128.0
 21
97.81399999999999
 31
0.0
  0
LINE
  5
1F2
330
22
100
AcDbEntity
  8
1
  6
HIDDEN
 62
     7
100
AcDbLine
 10
123.1
 20
100.614
 30
0.0
 11
128.0
 21
100.614
 31
0.0
  0
LINE
  5
1F3
330
22
100
AcDbEntity
  8
1
  6
HIDDEN
 62
     7
100
AcDbLine
 10
112.6
 20
99.51399999999999
 30
0.0
 11
123.1
 21
99.51399999999999
 31
0.0
  0
LINE
  5
1F4
330
22
100
AcDbEntity
  8
1
  6
HIDDEN
 62
     7
100
AcDbLine
 10
112.6
 20
98.51399999999999
 30
0.0
 11
123.1
 21
98.51399999999999
 31
0.0
  0
LINE
  5
1F5
330
22
100
AcDbEntity
  8
1
  6
HIDDEN
 62
     7
100
AcDbLine
 10
123.806317
 20
96.21400000000001
 30
0.0
 11
123.813301
 21
96.19794399999999
 31
0.0
  0
LINE
  5
1F6
330
22
100
AcDbEntity
  8
1
  6
HIDDEN
 62
     7
100
AcDbLine
 10
123.813301
 20
96.19794399999999
 30
0.0
 11
123.834061
 21
96.150227
 31
0.0
  0
LINE
  5
1F7
330
22
100
AcDbEntity
  8
1
  6
HIDDEN
 62
     7
100
AcDbLine
 10
123.834061
 20
96.150227
 30
0.0
 11
123.868026
 21
96.072278
 31
0.0
  0
LINE
  5
1F8
330
22
100
AcDbEntity
  8
1
  6
HIDDEN
 62
     7
100
AcDbLine
 10
123.868026
 20
96.072278
 30
0.0
 11
123.914256
 21
95.966678
 31
0.0
  0
LINE
  5
1F9
330
22
100
AcDbEntity
  8
1
  6
HIDDEN
 62
     7
100
AcDbLine
 10
123.914256
 20
95.966678
 30
0.0
 11
123.971451
 21
95.83736599999999
 31
0.0
  0
LINE
  5
1FA
330
22
100
AcDbEntity
  8
1
  6
HIDDEN
 62
     7
100
AcDbLine
 10
123.971451
 20
95.83736599999999
 30
0.0
 11
124.037988
 21
95.689752
 31
0.0
  0
LINE
  5
1FB
330
22
100
AcDbEntity
  8
1
  6
HIDDEN
 62
     7
100
AcDbLine
 10
124.037988
 20
95.689752
 30
0.0
 11
124.111957
 21
95.530637
 31
0.0
  0
LINE
  5
1FC
330
22
100
AcDbEntity
  8
1
  6
HIDDEN
 62
     7
100
AcDbLine
 10
124.111957
 20
95.530637
 30
0.0
 11
124.191218
 21
95.36786199999999
 31
0.0
  0
LINE
  5
1FD
330
22
100
AcDbEntity
  8
1
  6
HIDDEN
 62
     7
100
AcDbLine
 10
124.191218
 20
95.36786199999999
 30
0.0
 11
124.27348
 21
95.209688
 31
0.0
  0
LINE
  5
1FE
330
22
100
AcDbEntity
  8
1
  6
HIDDEN
 62
     7
100
AcDbLine
 10
124.27348
 20
95.209688
 30
0.0
 11
124.356377
 21
95.063969
 31
0.0
  0
LINE
  5
1FF
330
22
100
AcDbEntity
  8
1
  6
HIDDEN
 62
     7
100
AcDbLine
 10
124.356377
 20
95.063969
 30
0.0
 11
124.437559
 21
94.93725500000001
 31
0.0
  0
LINE
  5
200
330
22
100
AcDbEntity
  8
1
  6
HIDDEN
 62
     7
100
AcDbLine
 10
124.437559
 20
94.93725500000001
 30
0.0
 11
124.514777
 21
94.833989
 31
0.0
  0
LINE
  5
201
330
22
100
AcDbEntity
  8
1
  6
HIDDEN
 62
     7
100
AcDbLine
 10
124.514777
 20
94.833989
 30
0.0
 11
124.585961
 21
94.755985
 31
0.0
  0
LINE
  5
202
330
22
100
AcDbEntity
  8
1
  6
HIDDEN
 62
     7
100
AcDbLine
 10
124.585961
 20
94.755985
 30
0.0
 11
124.649274
 21
94.70229399999999
 31
0.0
  0
LINE
  5
203
330
22
100
AcDbEntity
  8
1
  6
HIDDEN
 62
     7
100
AcDbLine
 10
124.649274
 20
94.70229399999999
 30
0.0
 11
124.703154
 21
94.669538
 31
0.0
  0
LINE
  5
204
330
22
100
AcDbEntity
  8
1
  6
HIDDEN
 62
     7
100
AcDbLine
 10
124.703154
 20
94.669538
 30
0.0
 11
124.746338
 21
94.652665
 31
0.0
  0
LINE
  5
205
330
22
100
AcDbEntity
  8
1
  6
HIDDEN
 62
     7
100
AcDbLine
 10
124.746338
 20
94.652665
 30
0.0
 11
124.777856
 21
94.645998
 31
0.0
  0
LINE
  5
206
330
22
100
AcDbEntity
  8
1
  6
HIDDEN
 62
     7
100
AcDbLine
 10
124.777856
 20
94.645998
 30
0.0
 11
124.797033
 21
94.64439499999999
 31
0.0
  0
LINE
  5
207
330
22
100
AcDbEntity
  8
1
  6
HIDDEN
 62
     7
100
AcDbLine
 10
124.797033
 20
94.64439499999999
 30
0.0
 11
124.803469
 21
94.64428599999999
 31
0.0
  0
LINE
  5
208
330
22
100
AcDbEntity
  8
1
  6
HIDDEN
 62
     7
100
AcDbLine
 10
124.803469
 20
94.64428599999999
 30
0.0
 11
124.809898
 21
94.64439499999999
 31
0.0
  0
LINE
  5
209
330
22
100
AcDbEntity
  8
1
  6
HIDDEN
 62
     7
100
AcDbLine
 10
124.809898
 20
94.64439499999999
 30
0.0
 11
124.828965
 21
94.645998
 31
0.0
  0
LINE
  5
20A
330
22
100
AcDbEntity
  8
1
  6
HIDDEN
 62
     7
100
AcDbLine
 10
124.828965
 20
94.645998
 30
0.0
 11
124.860026
 21
94.652665
 31
0.0
  0
LINE
  5
20B
330
22
100
AcDbEntity
  8
1
  6
HIDDEN
 62
     7
100
AcDbLine
 10
124.860026
 20
94.652665
 30
0.0
 11
124.90205
 21
94.669538
 31
0.0
  0
LINE
  5
20C
330
22
100
AcDbEntity
  8
1
  6
HIDDEN
 62
     7
100
AcDbLine
 10
124.90205
 20
94.669538
 30
0.0
 11
124.953682
 21
94.70229399999999
 31
0.0
  0
LINE
  5
20D
330
22
100
AcDbEntity
  8
1
  6
HIDDEN
 62
     7
100
AcDbLine
 10
124.953682
 20
94.70229399999999
 30
0.0
 11
125.013308
 21
94.755985
 31
0.0
  0
LINE
  5
20E
330
22
100
AcDbEntity
  8
1
  6
HIDDEN
 62
     7
100
AcDbLine
 10
125.013308
 20
94.755985
 30
0.0
 11
125.079136
 21
94.833989
 31
0.0
  0
LINE
  5
20F
330
22
100
AcDbEntity
  8
1
  6
HIDDEN
 62
     7
100
AcDbLine
 10
125.079136
 20
94.833989
 30
0.0
 11
125.149264
 21
94.93725500000001
 31
0.0
  0
LINE
  5
210
330
22
100
AcDbEntity
  8
1
  6
HIDDEN
 62
     7
100
AcDbLine
 10
125.149264
 20
94.93725500000001
 30
0.0
 11
125.221746
 21
95.063969
 31
0.0
  0
LINE
  5
211
330
22
100
AcDbEntity
  8
1
  6
HIDDEN
 62
     7
100
AcDbLine
 10
125.221746
 20
95.063969
 30
0.0
 11
125.294637
 21
95.209688
 31
0.0
  0
LINE
  5
212
330
22
100
AcDbEntity
  8
1
  6
HIDDEN
 62
     7
100
AcDbLine
 10
125.294637
 20
95.209688
 30
0.0
 11
125.366039
 21
95.36786199999999
 31
0.0
  0
LINE
  5
213
330
22
100
AcDbEntity
  8
1
  6
HIDDEN
 62
     7
100
AcDbLine
 10
125.366039
 20
95.36786199999999
 30
0.0
 11
125.434124
 21
95.530637
 31
0.0
  0
LINE
  5
214
330
22
100
AcDbEntity
  8
1
  6
HIDDEN
 62
     7
100
AcDbLine
 10
125.434124
 20
95.530637
 30
0.0
 11
125.497167
 21
95.689752
 31
0.0
  0
LINE
  5
215
330
22
100
AcDbEntity
  8
1
  6
HIDDEN
 62
     7
100
AcDbLine
 10
125.497167
 20
95.689752
 30
0.0
 11
125.553569
 21
95.83736599999999
 31
0.0
  0
LINE
  5
216
330
22
100
AcDbEntity
  8
1
  6
HIDDEN
 62
     7
100
AcDbLine
 10
125.553569
 20
95.83736599999999
 30
0.0
 11
125.601886
 21
95.966678
 31
0.0
  0
LINE
  5
217
330
22
100
AcDbEntity
  8
1
  6
HIDDEN
 62
     7
100
AcDbLine
 10
125.601886
 20
95.966678
 30
0.0
 11
125.640865
 21
96.072278
 31
0.0
  0
LINE
  5
218
330
22
100
AcDbEntity
  8
1
  6
HIDDEN
 62
     7
100
AcDbLine
 10
125.640865
 20
96.072278
 30
0.0
 11
125.669478
 21
96.150227
 31
0.0
  0
LINE
  5
219
330
22
100
AcDbEntity
  8
1
  6
HIDDEN
 62
     7
100
AcDbLine
 10
125.669478
 20
96.150227
 30
0.0
 11
125.686962
 21
96.19794399999999
 31
0.0
  0
LINE
  5
21A
330
22
100
AcDbEntity
  8
1
  6
HIDDEN
 62
     7
100
AcDbLine
 10
125.686962
 20
96.19794399999999
 30
0.0
 11
125.692843
 21
96.21400000000001
 31
0.0
  0
LINE
  5
21B
330
22
100
AcDbEntity
  8
1
  6
HIDDEN
 62
     7
100
AcDbLine
 10
122.6
 20
96.21400000000001
 30
0.0
 11
182.6
 21
96.21400000000001
 31
0.0
  0
LINE
  5
21C
330
22
100
AcDbEntity
  8
1
  6
HIDDEN
 62
     7
100
AcDbLine
 10
122.6
 20
97.81399999999999
 30
0.0
 11
182.6
 21
97.81399999999999
 31
0.0
  0
ARC
  5
21D
330
22
100
AcDbEntity
  8
1
  6
Continuous
 62
     7
100
AcDbCircle
 10
171.6
 20
198.014
 30
0.0
 40
1.0
100
AcDbArc
 50
0.0
 51
90.0
  0
LINE
  5
21E
330
22
100
AcDbEntity
  8
1
  6
Continuous
 62
     7
100
AcDbLine
 10
172.6
 20
198.014
 30
0.0
 11
172.6
 21
178.014
 31
0.0
  0
ARC
  5
21F
330
22
100
AcDbEntity
  8
1
  6
Continuous
 62
     7
100
AcDbCircle
 10
171.6
 20
178.014
 30
0.0
 40
1.0
100
AcDbArc
 50
270.0
 51
0.0
  0
LINE
  5
220
330
22
100
AcDbEntity
  8
1
  6
Continuous
 62
     7
100
AcDbLine
 10
171.6
 20
177.014
 30
0.0
 11
163.6
 21
177.014
 31
0.0
  0
ARC
  5
221
330
22
100
AcDbEntity
  8
1
  6
Continuous
 62
     7
100
AcDbCircle
 10
163.6
 20
178.014
 30
0.0
 40
1.0
100
AcDbArc
 50
180.0
 51
270.0
  0
LINE
  5
222
330
22
100
AcDbEntity
  8
1
  6
Continuous
 62
     7
100
AcDbLine
 10
163.6
 20
199.014
 30
0.0
 11
171.6
 21
199.014
 31
0.0
  0
LINE
  5
223
330
22
100
AcDbEntity
  8
1
  6
Continuous
 62
     7
100
AcDbLine
 10
162.6
 20
178.014
 30
0.0
 11
162.6
 21
198.014
 31
0.0
  0
ARC
  5
224
330
22
100
AcDbEntity
  8
1
  6
Continuous
 62
     7
100
AcDbCircle
 10
163.6
 20
198.014
 30
0.0
 40
1.0
100
AcDbArc
 50
90.0
 51
180.0
  0
TEXT
  5
225
330
22
100
AcDbEntity
  8
1
  6
Continuous
 62
     7
100
AcDbText
 10
167.054437
 20
196.809
 30
0.0
 40
4.0
  1
ＴＳアダプタ
 50
270.0
 41
0.625
  7
KANJI
100
AcDbText
  0
TEXT
  5
226
330
22
100
AcDbEntity
  8
1
  6
Continuous
 62
     7
100
AcDbText
 10
163.206888
 20
193.47
 30
0.0
 40
4.0
  1
XXXXXXXX
 50
270.0
 41
0.375
  7
KANJI
100
AcDbText
  0
LINE
  5
227
330
22
100
AcDbEntity
  8
1
  6
Continuous
 62
     7
100
AcDbLine
 10
247.1
 20
190.867984
 30
0.0
 11
247.1
 21
178.467984
 31
0.0
  0
LINE
  5
228
330
22
100
AcDbEntity
  8
1
  6
Continuous
 62
     7
100
AcDbLine
 10
247.1
 20
190.867984
 30
0.0
 11
266.9
 21
190.867984
 31
0.0
  0
LINE
  5
229
330
22
100
AcDbEntity
  8
1
  6
Continuous
 62
     7
100
AcDbLine
 10
247.1
 20
178.467984
 30
0.0
 11
266.9
 21
178.467984
 31
0.0
  0
LINE
  5
22A
330
22
100
AcDbEntity
  8
1
  6
Continuous
 62
     7
100
AcDbLine
 10
266.9
 20
190.867984
 30
0.0
 11
266.9
 21
178.467984
 31
0.0
  0
LINE
  5
22B
330
22
100
AcDbEntity
  8
1
  6
Continuous
 62
     7
100
AcDbLine
 10
265.7
 20
185.767984
 30
0.0
 11
265.7
 21
183.567984
 31
0.0
  0
LINE
  5
22C
330
22
100
AcDbEntity
  8
1
  6
Continuous
 62
     7
100
AcDbLine
 10
263.9
 20
185.767984
 30
0.0
 11
263.9
 21
183.567984
 31
0.0
  0
LINE
  5
22D
330
22
100
AcDbEntity
  8
1
  6
Continuous
 62
     7
100
AcDbLine
 10
262.8
 20
185.767984
 30
0.0
 11
262.8
 21
183.567984
 31
0.0
  0
LINE
  5
22E
330
22
100
AcDbEntity
  8
1
  6
Continuous
 62
     7
100
AcDbLine
 10
261.0
 20
185.767984
 30
0.0
 11
261.0
 21
183.567984
 31
0.0
  0
LINE
  5
22F
330
22
100
AcDbEntity
  8
1
  6
Continuous
 62
     7
100
AcDbLine
 10
261.0
 20
185.767984
 30
0.0
 11
265.7
 21
185.767984
 31
0.0
  0
LINE
  5
230
330
22
100
AcDbEntity
  8
1
  6
Continuous
 62
     7
100
AcDbLine
 10
261.0
 20
183.567984
 30
0.0
 11
265.7
 21
183.567984
 31
0.0
  0
LINE
  5
231
330
22
100
AcDbEntity
  8
1
  6
Continuous
 62
     7
100
AcDbLine
 10
247.10189
 20
187.957999
 30
0.0
 11
215.311635
 21
187.3571639999999
 31
0.0
  0
LINE
  5
232
330
22
100
AcDbEntity
  8
1
  6
Continuous
 62
     7
100
AcDbLine
 10
213.301655
 20
187.319174
 30
0.0
 11
187.6
 21
186.8334139999999
 31
0.0
  0
LINE
  5
233
330
22
100
AcDbEntity
  8
1
  6
Continuous
 62
     7
100
AcDbLine
 10
215.69521
 20
180.143439
 30
0.0
 11
187.6
 21
180.112534
 31
0.0
  0
LINE
  5
234
330
22
100
AcDbEntity
  8
1
  6
Continuous
 62
     7
100
AcDbLine
 10
247.1
 20
180.177984
 30
0.0
 11
217.696045
 21
180.145639
 31
0.0
  0
LINE
  5
235
330
22
100
AcDbEntity
  8
1
  6
Continuous
 62
     7
100
AcDbLine
 10
187.6
 20
189.273434
 30
0.0
 11
214.24483
 21
189.244124
 31
0.0
  0
LINE
  5
236
330
22
100
AcDbEntity
  8
1
  6
Continuous
 62
     7
100
AcDbLine
 10
216.243305
 20
189.241924
 30
0.0
 11
247.1
 21
189.207984
 31
0.0
  0
LINE
  5
237
330
22
100
AcDbEntity
  8
1
  6
Continuous
 62
     7
100
AcDbLine
 10
215.51396
 20
187.942729
 30
0.0
 11
247.1
 21
187.907984
 31
0.0
  0
LINE
  5
238
330
22
100
AcDbEntity
  8
1
  6
Continuous
 62
     7
100
AcDbLine
 10
187.6
 20
187.973434
 30
0.0
 11
213.51488
 21
187.9449239999999
 31
0.0
  0
LINE
  5
239
330
22
100
AcDbEntity
  8
1
  6
Continuous
 62
     7
100
AcDbLine
 10
187.6
 20
184.017984
 30
0.0
 11
214.44752
 21
184.017984
 31
0.0
  0
LINE
  5
23A
330
22
100
AcDbEntity
  8
1
  6
Continuous
 62
     7
100
AcDbLine
 10
187.6
 20
185.317984
 30
0.0
 11
213.50645
 21
185.317984
 31
0.0
  0
LINE
  5
23B
330
22
100
AcDbEntity
  8
1
  6
Continuous
 62
     7
100
AcDbLine
 10
215.50645
 20
185.317984
 30
0.0
 11
247.1
 21
185.317984
 31
0.0
  0
LINE
  5
23C
330
22
100
AcDbEntity
  8
1
  6
Continuous
 62
     7
100
AcDbLine
 10
216.44752
 20
184.017984
 30
0.0
 11
247.1
 21
184.017984
 31
0.0
  0
LINE
  5
23D
330
22
100
AcDbEntity
  8
1
  6
Continuous
 62
     7
100
AcDbLine
 10
215.80869
 20
182.019414
 30
0.0
 11
187.6
 21
182.552559
 31
0.0
  0
LINE
  5
23E
330
22
100
AcDbEntity
  8
1
  6
Continuous
 62
     7
100
AcDbLine
 10
187.6
 20
181.252504
 30
0.0
 11
215.86614
 21
180.718274
 31
0.0
  0
LINE
  5
23F
330
22
100
AcDbEntity
  8
1
  6
Continuous
 62
     7
100
AcDbLine
 10
217.85804
 20
180.680629
 30
0.0
 11
247.1
 21
180.127954
 31
0.0
  0
LINE
  5
240
330
22
100
AcDbEntity
  8
1
  6
Continuous
 62
     7
100
AcDbLine
 10
247.1
 20
181.428009
 30
0.0
 11
217.82128
 21
181.981379
 31
0.0
  0
LINE
  5
241
330
22
100
AcDbEntity
  8
1
  6
Continuous
 62
     7
100
AcDbLine
 10
215.37384
 20
179.458529
 30
0.0
 11
187.6
 21
178.872499
 31
0.0
  0
LINE
  5
242
330
22
100
AcDbEntity
  8
1
  6
Continuous
 62
     7
100
AcDbLine
 10
247.1
 20
180.127949
 30
0.0
 11
217.397245
 21
179.501219
 31
0.0
  0
LINE
  5
243
330
22
100
AcDbEntity
  8
1
  6
Continuous
 62
     7
100
AcDbLine
 10
257.1
 20
191.867984
 30
0.0
 11
257.1
 21
190.867984
 31
0.0
  0
LINE
  5
244
330
22
100
AcDbEntity
  8
1
  6
Continuous
 62
     7
100
AcDbLine
 10
248.1
 20
191.867984
 30
0.0
 11
257.1
 21
191.867984
 31
0.0
  0
ARC
  5
245
330
22
100
AcDbEntity
  8
1
  6
Continuous
 62
     7
100
AcDbCircle
 10
248.1
 20
190.867984
 30
0.0
 40
1.0
100
AcDbArc
 50
90.0
 51
180.0
  0
LINE
  5
246
330
22
100
AcDbEntity
  8
1
  6
Continuous
 62
     7
100
AcDbLine
 10
215.643774
 20
190.893635
 30
0.0
 11
215.616318
 21
190.857979
 31
0.0
  0
LINE
  5
247
330
22
100
AcDbEntity
  8
1
  6
Continuous
 62
     7
100
AcDbLine
 10
215.616318
 20
190.857979
 30
0.0
 11
215.534729
 21
190.751988
 31
0.0
  0
LINE
  5
248
330
22
100
AcDbEntity
  8
1
  6
Continuous
 62
     7
100
AcDbLine
 10
215.534729
 20
190.751988
 30
0.0
 11
215.401498
 21
190.578593
 31
0.0
  0
LINE
  5
249
330
22
100
AcDbEntity
  8
1
  6
Continuous
 62
     7
100
AcDbLine
 10
215.401498
 20
190.578593
 30
0.0
 11
215.221219
 21
190.342665
 31
0.0
  0
LINE
  5
24A
330
22
100
AcDbEntity
  8
1
  6
Continuous
 62
     7
100
AcDbLine
 10
215.221219
 20
190.342665
 30
0.0
 11
215.001037
 21
190.050971
 31
0.0
  0
LINE
  5
24B
330
22
100
AcDbEntity
  8
1
  6
Continuous
 62
     7
100
AcDbLine
 10
215.001037
 20
190.050971
 30
0.0
 11
214.750927
 21
189.712056
 31
0.0
  0
LINE
  5
24C
330
22
100
AcDbEntity
  8
1
  6
Continuous
 62
     7
100
AcDbLine
 10
214.750927
 20
189.712056
 30
0.0
 11
214.483554
 21
189.336031
 31
0.0
  0
LINE
  5
24D
330
22
100
AcDbEntity
  8
1
  6
Continuous
 62
     7
100
AcDbLine
 10
214.483554
 20
189.336031
 30
0.0
 11
214.213585
 21
188.934248
 31
0.0
  0
LINE
  5
24E
330
22
100
AcDbEntity
  8
1
  6
Continuous
 62
     7
100
AcDbLine
 10
214.213585
 20
188.934248
 30
0.0
 11
213.956433
 21
188.518858
 31
0.0
  0
LINE
  5
24F
330
22
100
AcDbEntity
  8
1
  6
Continuous
 62
     7
100
AcDbLine
 10
213.956433
 20
188.518858
 30
0.0
 11
213.726568
 21
188.1023
 31
0.0
  0
LINE
  5
250
330
22
100
AcDbEntity
  8
1
  6
Continuous
 62
     7
100
AcDbLine
 10
213.726568
 20
188.1023
 30
0.0
 11
213.535683
 21
187.69674
 31
0.0
  0
LINE
  5
251
330
22
100
AcDbEntity
  8
1
  6
Continuous
 62
     7
100
AcDbLine
 10
213.535683
 20
187.69674
 30
0.0
 11
213.391066
 21
187.313549
 31
0.0
  0
LINE
  5
252
330
22
100
AcDbEntity
  8
1
  6
Continuous
 62
     7
100
AcDbLine
 10
213.391066
 20
187.313549
 30
0.0
 11
213.294546
 21
186.962866
 31
0.0
  0
LINE
  5
253
330
22
100
AcDbEntity
  8
1
  6
Continuous
 62
     7
100
AcDbLine
 10
213.294546
 20
186.962866
 30
0.0
 11
213.242277
 21
186.6532959999999
 31
0.0
  0
LINE
  5
254
330
22
100
AcDbEntity
  8
1
  6
Continuous
 62
     7
100
AcDbLine
 10
213.242277
 20
186.6532959999999
 30
0.0
 11
213.225485
 21
186.39177
 31
0.0
  0
LINE
  5
255
330
22
100
AcDbEntity
  8
1
  6
Continuous
 62
     7
100
AcDbLine
 10
213.225485
 20
186.39177
 30
0.0
 11
213.232102
 21
186.183564
 31
0.0
  0
LINE
  5
256
330
22
100
AcDbEntity
  8
1
  6
Continuous
 62
     7
100
AcDbLine
 10
213.232102
 20
186.183564
 30
0.0
 11
213.249022
 21
186.03244
 31
0.0
  0
LINE
  5
257
330
22
100
AcDbEntity
  8
1
  6
Continuous
 62
     7
100
AcDbLine
 10
213.249022
 20
186.03244
 30
0.0
 11
213.264567
 21
185.940856
 31
0.0
  0
LINE
  5
258
330
22
100
AcDbEntity
  8
1
  6
Continuous
 62
     7
100
AcDbLine
 10
213.264567
 20
185.940856
 30
0.0
 11
213.270702
 21
185.910182
 31
0.0
  0
LINE
  5
259
330
22
100
AcDbEntity
  8
1
  6
Continuous
 62
     7
100
AcDbLine
 10
213.270702
 20
185.910182
 30
0.0
 11
213.277297
 21
185.879577
 31
0.0
  0
LINE
  5
25A
330
22
100
AcDbEntity
  8
1
  6
Continuous
 62
     7
100
AcDbLine
 10
213.277297
 20
185.879577
 30
0.0
 11
213.299564
 21
185.788992
 31
0.0
  0
LINE
  5
25B
330
22
100
AcDbEntity
  8
1
  6
Continuous
 62
     7
100
AcDbLine
 10
213.299564
 20
185.788992
 30
0.0
 11
213.344245
 21
185.642004
 31
0.0
  0
LINE
  5
25C
330
22
100
AcDbEntity
  8
1
  6
Continuous
 62
     7
100
AcDbLine
 10
213.344245
 20
185.642004
 30
0.0
 11
213.420393
 21
185.444198
 31
0.0
  0
LINE
  5
25D
330
22
100
AcDbEntity
  8
1
  6
Continuous
 62
     7
100
AcDbLine
 10
213.420393
 20
185.444198
 30
0.0
 11
213.536659
 21
185.202685
 31
0.0
  0
LINE
  5
25E
330
22
100
AcDbEntity
  8
1
  6
Continuous
 62
     7
100
AcDbLine
 10
213.536659
 20
185.202685
 30
0.0
 11
213.698488
 21
184.925549
 31
0.0
  0
LINE
  5
25F
330
22
100
AcDbEntity
  8
1
  6
Continuous
 62
     7
100
AcDbLine
 10
213.698488
 20
184.925549
 30
0.0
 11
213.905904
 21
184.621333
 31
0.0
  0
LINE
  5
260
330
22
100
AcDbEntity
  8
1
  6
Continuous
 62
     7
100
AcDbLine
 10
213.905904
 20
184.621333
 30
0.0
 11
214.152461
 21
184.298623
 31
0.0
  0
LINE
  5
261
330
22
100
AcDbEntity
  8
1
  6
Continuous
 62
     7
100
AcDbLine
 10
214.152461
 20
184.298623
 30
0.0
 11
214.425617
 21
183.965807
 31
0.0
  0
LINE
  5
262
330
22
100
AcDbEntity
  8
1
  6
Continuous
 62
     7
100
AcDbLine
 10
214.425617
 20
183.965807
 30
0.0
 11
214.70849
 21
183.630974
 31
0.0
  0
LINE
  5
263
330
22
100
AcDbEntity
  8
1
  6
Continuous
 62
     7
100
AcDbLine
 10
214.70849
 20
183.630974
 30
0.0
 11
214.982597
 21
183.301963
 31
0.0
  0
LINE
  5
264
330
22
100
AcDbEntity
  8
1
  6
Continuous
 62
     7
100
AcDbLine
 10
214.982597
 20
183.301963
 30
0.0
 11
215.230953
 21
182.986451
 31
0.0
  0
LINE
  5
265
330
22
100
AcDbEntity
  8
1
  6
Continuous
 62
     7
100
AcDbLine
 10
215.230953
 20
182.986451
 30
0.0
 11
215.440822
 21
182.692044
 31
0.0
  0
LINE
  5
266
330
22
100
AcDbEntity
  8
1
  6
Continuous
 62
     7
100
AcDbLine
 10
215.440822
 20
182.692044
 30
0.0
 11
215.60549
 21
182.426267
 31
0.0
  0
LINE
  5
267
330
22
100
AcDbEntity
  8
1
  6
Continuous
 62
     7
100
AcDbLine
 10
215.60549
 20
182.426267
 30
0.0
 11
215.724676
 21
182.196432
 31
0.0
  0
LINE
  5
268
330
22
100
AcDbEntity
  8
1
  6
Continuous
 62
     7
100
AcDbLine
 10
215.724676
 20
182.196432
 30
0.0
 11
215.803506
 21
182.009357
 31
0.0
  0
LINE
  5
269
330
22
100
AcDbEntity
  8
1
  6
Continuous
 62
     7
100
AcDbLine
 10
215.803506
 20
182.009357
 30
0.0
 11
215.850343
 21
181.8709899999999
 31
0.0
  0
LINE
  5
26A
330
22
100
AcDbEntity
  8
1
  6
Continuous
 62
     7
100
AcDbLine
 10
215.850343
 20
181.8709899999999
 30
0.0
 11
215.874005
 21
181.785982
 31
0.0
  0
LINE
  5
26B
330
22
100
AcDbEntity
  8
1
  6
Continuous
 62
     7
100
AcDbLine
 10
215.874005
 20
181.785982
 30
0.0
 11
215.881082
 21
181.757305
 31
0.0
  0
LINE
  5
26C
330
22
100
AcDbEntity
  8
1
  6
Continuous
 62
     7
100
AcDbLine
 10
215.881082
 20
181.757305
 30
0.0
 11
215.887706
 21
181.728587
 31
0.0
  0
LINE
  5
26D
330
22
100
AcDbEntity
  8
1
  6
Continuous
 62
     7
100
AcDbLine
 10
215.887706
 20
181.728587
 30
0.0
 11
215.904742
 21
181.64297
 31
0.0
  0
LINE
  5
26E
330
22
100
AcDbEntity
  8
1
  6
Continuous
 62
     7
100
AcDbLine
 10
215.904742
 20
181.64297
 30
0.0
 11
215.924225
 21
181.502099
 31
0.0
  0
LINE
  5
26F
330
22
100
AcDbEntity
  8
1
  6
Continuous
 62
     7
100
AcDbLine
 10
215.924225
 20
181.502099
 30
0.0
 11
215.934568
 21
181.308795
 31
0.0
  0
LINE
  5
270
330
22
100
AcDbEntity
  8
1
  6
Continuous
 62
     7
100
AcDbLine
 10
215.934568
 20
181.308795
 30
0.0
 11
215.922748
 21
181.067157
 31
0.0
  0
LINE
  5
271
330
22
100
AcDbEntity
  8
1
  6
Continuous
 62
     7
100
AcDbLine
 10
215.922748
 20
181.067157
 30
0.0
 11
215.876741
 21
180.782638
 31
0.0
  0
LINE
  5
272
330
22
100
AcDbEntity
  8
1
  6
Continuous
 62
     7
100
AcDbLine
 10
215.876741
 20
180.782638
 30
0.0
 11
215.78775
 21
180.462071
 31
0.0
  0
LINE
  5
273
330
22
100
AcDbEntity
  8
1
  6
Continuous
 62
     7
100
AcDbLine
 10
215.78775
 20
180.462071
 30
0.0
 11
215.651817
 21
180.113611
 31
0.0
  0
LINE
  5
274
330
22
100
AcDbEntity
  8
1
  6
Continuous
 62
     7
100
AcDbLine
 10
215.651817
 20
180.113611
 30
0.0
 11
215.470561
 21
179.746572
 31
0.0
  0
LINE
  5
275
330
22
100
AcDbEntity
  8
1
  6
Continuous
 62
     7
100
AcDbLine
 10
215.470561
 20
179.746572
 30
0.0
 11
215.250981
 21
179.371153
 31
0.0
  0
LINE
  5
276
330
22
100
AcDbEntity
  8
1
  6
Continuous
 62
     7
100
AcDbLine
 10
215.250981
 20
179.371153
 30
0.0
 11
215.004411
 21
178.998089
 31
0.0
  0
LINE
  5
277
330
22
100
AcDbEntity
  8
1
  6
Continuous
 62
     7
100
AcDbLine
 10
215.004411
 20
178.998089
 30
0.0
 11
214.744924
 21
178.638234
 31
0.0
  0
LINE
  5
278
330
22
100
AcDbEntity
  8
1
  6
Continuous
 62
     7
100
AcDbLine
 10
214.744924
 20
178.638234
 30
0.0
 11
214.487532
 21
178.302135
 31
0.0
  0
LINE
  5
279
330
22
100
AcDbEntity
  8
1
  6
Continuous
 62
     7
100
AcDbLine
 10
214.487532
 20
178.302135
 30
0.0
 11
214.246524
 21
177.99963
 31
0.0
  0
LINE
  5
27A
330
22
100
AcDbEntity
  8
1
  6
Continuous
 62
     7
100
AcDbLine
 10
214.246524
 20
177.99963
 30
0.0
 11
214.034235
 21
177.739502
 31
0.0
  0
LINE
  5
27B
330
22
100
AcDbEntity
  8
1
  6
Continuous
 62
     7
100
AcDbLine
 10
214.034235
 20
177.739502
 30
0.0
 11
213.860364
 21
177.529208
 31
0.0
  0
LINE
  5
27C
330
22
100
AcDbEntity
  8
1
  6
Continuous
 62
     7
100
AcDbLine
 10
213.860364
 20
177.529208
 30
0.0
 11
213.731851
 21
177.374687
 31
0.0
  0
LINE
  5
27D
330
22
100
AcDbEntity
  8
1
  6
Continuous
 62
     7
100
AcDbLine
 10
213.731851
 20
177.374687
 30
0.0
 11
213.653148
 21
177.280239
 31
0.0
  0
LINE
  5
27E
330
22
100
AcDbEntity
  8
1
  6
Continuous
 62
     7
100
AcDbLine
 10
213.653148
 20
177.280239
 30
0.0
 11
213.626663
 21
177.248467
 31
0.0
  0
LINE
  5
27F
330
22
100
AcDbEntity
  8
1
  6
Continuous
 62
     7
100
AcDbLine
 10
217.643774
 20
190.893635
 30
0.0
 11
217.616318
 21
190.857979
 31
0.0
  0
LINE
  5
280
330
22
100
AcDbEntity
  8
1
  6
Continuous
 62
     7
100
AcDbLine
 10
217.616318
 20
190.857979
 30
0.0
 11
217.534729
 21
190.751988
 31
0.0
  0
LINE
  5
281
330
22
100
AcDbEntity
  8
1
  6
Continuous
 62
     7
100
AcDbLine
 10
217.534729
 20
190.751988
 30
0.0
 11
217.401498
 21
190.578593
 31
0.0
  0
LINE
  5
282
330
22
100
AcDbEntity
  8
1
  6
Continuous
 62
     7
100
AcDbLine
 10
217.401498
 20
190.578593
 30
0.0
 11
217.221219
 21
190.342665
 31
0.0
  0
LINE
  5
283
330
22
100
AcDbEntity
  8
1
  6
Continuous
 62
     7
100
AcDbLine
 10
217.221219
 20
190.342665
 30
0.0
 11
217.001037
 21
190.050971
 31
0.0
  0
LINE
  5
284
330
22
100
AcDbEntity
  8
1
  6
Continuous
 62
     7
100
AcDbLine
 10
217.001037
 20
190.050971
 30
0.0
 11
216.750927
 21
189.712056
 31
0.0
  0
LINE
  5
285
330
22
100
AcDbEntity
  8
1
  6
Continuous
 62
     7
100
AcDbLine
 10
216.750927
 20
189.712056
 30
0.0
 11
216.483554
 21
189.336031
 31
0.0
  0
LINE
  5
286
330
22
100
AcDbEntity
  8
1
  6
Continuous
 62
     7
100
AcDbLine
 10
216.483554
 20
189.336031
 30
0.0
 11
216.213585
 21
188.934248
 31
0.0
  0
LINE
  5
287
330
22
100
AcDbEntity
  8
1
  6
Continuous
 62
     7
100
AcDbLine
 10
216.213585
 20
188.934248
 30
0.0
 11
215.956433
 21
188.518858
 31
0.0
  0
LINE
  5
288
330
22
100
AcDbEntity
  8
1
  6
Continuous
 62
     7
100
AcDbLine
 10
215.956433
 20
188.518858
 30
0.0
 11
215.726568
 21
188.1023
 31
0.0
  0
LINE
  5
289
330
22
100
AcDbEntity
  8
1
  6
Continuous
 62
     7
100
AcDbLine
 10
215.726568
 20
188.1023
 30
0.0
 11
215.535683
 21
187.69674
 31
0.0
  0
LINE
  5
28A
330
22
100
AcDbEntity
  8
1
  6
Continuous
 62
     7
100
AcDbLine
 10
215.535683
 20
187.69674
 30
0.0
 11
215.391066
 21
187.313549
 31
0.0
  0
LINE
  5
28B
330
22
100
AcDbEntity
  8
1
  6
Continuous
 62
     7
100
AcDbLine
 10
215.391066
 20
187.313549
 30
0.0
 11
215.294546
 21
186.962866
 31
0.0
  0
LINE
  5
28C
330
22
100
AcDbEntity
  8
1
  6
Continuous
 62
     7
100
AcDbLine
 10
215.294546
 20
186.962866
 30
0.0
 11
215.242277
 21
186.6532959999999
 31
0.0
  0
LINE
  5
28D
330
22
100
AcDbEntity
  8
1
  6
Continuous
 62
     7
100
AcDbLine
 10
215.242277
 20
186.6532959999999
 30
0.0
 11
215.225485
 21
186.39177
 31
0.0
  0
LINE
  5
28E
330
22
100
AcDbEntity
  8
1
  6
Continuous
 62
     7
100
AcDbLine
 10
215.225485
 20
186.39177
 30
0.0
 11
215.232102
 21
186.183564
 31
0.0
  0
LINE
  5
28F
330
22
100
AcDbEntity
  8
1
  6
Continuous
 62
     7
100
AcDbLine
 10
215.232102
 20
186.183564
 30
0.0
 11
215.249022
 21
186.03244
 31
0.0
  0
LINE
  5
290
330
22
100
AcDbEntity
  8
1
  6
Continuous
 62
     7
100
AcDbLine
 10
215.249022
 20
186.03244
 30
0.0
 11
215.264567
 21
185.940856
 31
0.0
  0
LINE
  5
291
330
22
100
AcDbEntity
  8
1
  6
Continuous
 62
     7
100
AcDbLine
 10
215.264567
 20
185.940856
 30
0.0
 11
215.270702
 21
185.910182
 31
0.0
  0
LINE
  5
292
330
22
100
AcDbEntity
  8
1
  6
Continuous
 62
     7
100
AcDbLine
 10
215.270702
 20
185.910182
 30
0.0
 11
215.277297
 21
185.879577
 31
0.0
  0
LINE
  5
293
330
22
100
AcDbEntity
  8
1
  6
Continuous
 62
     7
100
AcDbLine
 10
215.277297
 20
185.879577
 30
0.0
 11
215.299564
 21
185.788992
 31
0.0
  0
LINE
  5
294
330
22
100
AcDbEntity
  8
1
  6
Continuous
 62
     7
100
AcDbLine
 10
215.299564
 20
185.788992
 30
0.0
 11
215.344245
 21
185.642004
 31
0.0
  0
LINE
  5
295
330
22
100
AcDbEntity
  8
1
  6
Continuous
 62
     7
100
AcDbLine
 10
215.344245
 20
185.642004
 30
0.0
 11
215.420393
 21
185.444198
 31
0.0
  0
LINE
  5
296
330
22
100
AcDbEntity
  8
1
  6
Continuous
 62
     7
100
AcDbLine
 10
215.420393
 20
185.444198
 30
0.0
 11
215.536659
 21
185.202685
 31
0.0
  0
LINE
  5
297
330
22
100
AcDbEntity
  8
1
  6
Continuous
 62
     7
100
AcDbLine
 10
215.536659
 20
185.202685
 30
0.0
 11
215.698488
 21
184.925549
 31
0.0
  0
LINE
  5
298
330
22
100
AcDbEntity
  8
1
  6
Continuous
 62
     7
100
AcDbLine
 10
215.698488
 20
184.925549
 30
0.0
 11
215.905904
 21
184.621333
 31
0.0
  0
LINE
  5
299
330
22
100
AcDbEntity
  8
1
  6
Continuous
 62
     7
100
AcDbLine
 10
215.905904
 20
184.621333
 30
0.0
 11
216.152461
 21
184.298623
 31
0.0
  0
LINE
  5
29A
330
22
100
AcDbEntity
  8
1
  6
Continuous
 62
     7
100
AcDbLine
 10
216.152461
 20
184.298623
 30
0.0
 11
216.425617
 21
183.965807
 31
0.0
  0
LINE
  5
29B
330
22
100
AcDbEntity
  8
1
  6
Continuous
 62
     7
100
AcDbLine
 10
216.425617
 20
183.965807
 30
0.0
 11
216.70849
 21
183.630974
 31
0.0
  0
LINE
  5
29C
330
22
100
AcDbEntity
  8
1
  6
Continuous
 62
     7
100
AcDbLine
 10
216.70849
 20
183.630974
 30
0.0
 11
216.982597
 21
183.301963
 31
0.0
  0
LINE
  5
29D
330
22
100
AcDbEntity
  8
1
  6
Continuous
 62
     7
100
AcDbLine
 10
216.982597
 20
183.301963
 30
0.0
 11
217.230953
 21
182.986451
 31
0.0
  0
LINE
  5
29E
330
22
100
AcDbEntity
  8
1
  6
Continuous
 62
     7
100
AcDbLine
 10
217.230953
 20
182.986451
 30
0.0
 11
217.440822
 21
182.692044
 31
0.0
  0
LINE
  5
29F
330
22
100
AcDbEntity
  8
1
  6
Continuous
 62
     7
100
AcDbLine
 10
217.440822
 20
182.692044
 30
0.0
 11
217.60549
 21
182.426267
 31
0.0
  0
LINE
  5
2A0
330
22
100
AcDbEntity
  8
1
  6
Continuous
 62
     7
100
AcDbLine
 10
217.60549
 20
182.426267
 30
0.0
 11
217.724676
 21
182.196432
 31
0.0
  0
LINE
  5
2A1
330
22
100
AcDbEntity
  8
1
  6
Continuous
 62
     7
100
AcDbLine
 10
217.724676
 20
182.196432
 30
0.0
 11
217.803506
 21
182.009357
 31
0.0
  0
LINE
  5
2A2
330
22
100
AcDbEntity
  8
1
  6
Continuous
 62
     7
100
AcDbLine
 10
217.803506
 20
182.009357
 30
0.0
 11
217.850343
 21
181.8709899999999
 31
0.0
  0
LINE
  5
2A3
330
22
100
AcDbEntity
  8
1
  6
Continuous
 62
     7
100
AcDbLine
 10
217.850343
 20
181.8709899999999
 30
0.0
 11
217.874005
 21
181.785982
 31
0.0
  0
LINE
  5
2A4
330
22
100
AcDbEntity
  8
1
  6
Continuous
 62
     7
100
AcDbLine
 10
217.874005
 20
181.785982
 30
0.0
 11
217.881082
 21
181.757305
 31
0.0
  0
LINE
  5
2A5
330
22
100
AcDbEntity
  8
1
  6
Continuous
 62
     7
100
AcDbLine
 10
217.881082
 20
181.757305
 30
0.0
 11
217.887706
 21
181.728587
 31
0.0
  0
LINE
  5
2A6
330
22
100
AcDbEntity
  8
1
  6
Continuous
 62
     7
100
AcDbLine
 10
217.887706
 20
181.728587
 30
0.0
 11
217.904742
 21
181.64297
 31
0.0
  0
LINE
  5
2A7
330
22
100
AcDbEntity
  8
1
  6
Continuous
 62
     7
100
AcDbLine
 10
217.904742
 20
181.64297
 30
0.0
 11
217.924225
 21
181.502099
 31
0.0
  0
LINE
  5
2A8
330
22
100
AcDbEntity
  8
1
  6
Continuous
 62
     7
100
AcDbLine
 10
217.924225
 20
181.502099
 30
0.0
 11
217.934568
 21
181.308795
 31
0.0
  0
LINE
  5
2A9
330
22
100
AcDbEntity
  8
1
  6
Continuous
 62
     7
100
AcDbLine
 10
217.934568
 20
181.308795
 30
0.0
 11
217.922748
 21
181.067157
 31
0.0
  0
LINE
  5
2AA
330
22
100
AcDbEntity
  8
1
  6
Continuous
 62
     7
100
AcDbLine
 10
217.922748
 20
181.067157
 30
0.0
 11
217.876741
 21
180.782638
 31
0.0
  0
LINE
  5
2AB
330
22
100
AcDbEntity
  8
1
  6
Continuous
 62
     7
100
AcDbLine
 10
217.876741
 20
180.782638
 30
0.0
 11
217.78775
 21
180.462071
 31
0.0
  0
LINE
  5
2AC
330
22
100
AcDbEntity
  8
1
  6
Continuous
 62
     7
100
AcDbLine
 10
217.78775
 20
180.462071
 30
0.0
 11
217.651817
 21
180.113611
 31
0.0
  0
LINE
  5
2AD
330
22
100
AcDbEntity
  8
1
  6
Continuous
 62
     7
100
AcDbLine
 10
217.651817
 20
180.113611
 30
0.0
 11
217.470561
 21
179.746572
 31
0.0
  0
LINE
  5
2AE
330
22
100
AcDbEntity
  8
1
  6
Continuous
 62
     7
100
AcDbLine
 10
217.470561
 20
179.746572
 30
0.0
 11
217.250981
 21
179.371153
 31
0.0
  0
LINE
  5
2AF
330
22
100
AcDbEntity
  8
1
  6
Continuous
 62
     7
100
AcDbLine
 10
217.250981
 20
179.371153
 30
0.0
 11
217.004411
 21
178.998089
 31
0.0
  0
LINE
  5
2B0
330
22
100
AcDbEntity
  8
1
  6
Continuous
 62
     7
100
AcDbLine
 10
217.004411
 20
178.998089
 30
0.0
 11
216.744924
 21
178.638234
 31
0.0
  0
LINE
  5
2B1
330
22
100
AcDbEntity
  8
1
  6
Continuous
 62
     7
100
AcDbLine
 10
216.744924
 20
178.638234
 30
0.0
 11
216.487532
 21
178.302135
 31
0.0
  0
LINE
  5
2B2
330
22
100
AcDbEntity
  8
1
  6
Continuous
 62
     7
100
AcDbLine
 10
216.487532
 20
178.302135
 30
0.0
 11
216.246524
 21
177.99963
 31
0.0
  0
LINE
  5
2B3
330
22
100
AcDbEntity
  8
1
  6
Continuous
 62
     7
100
AcDbLine
 10
216.246524
 20
177.99963
 30
0.0
 11
216.034235
 21
177.739502
 31
0.0
  0
LINE
  5
2B4
330
22
100
AcDbEntity
  8
1
  6
Continuous
 62
     7
100
AcDbLine
 10
216.034235
 20
177.739502
 30
0.0
 11
215.860364
 21
177.529208
 31
0.0
  0
LINE
  5
2B5
330
22
100
AcDbEntity
  8
1
  6
Continuous
 62
     7
100
AcDbLine
 10
215.860364
 20
177.529208
 30
0.0
 11
215.731851
 21
177.374687
 31
0.0
  0
LINE
  5
2B6
330
22
100
AcDbEntity
  8
1
  6
Continuous
 62
     7
100
AcDbLine
 10
215.731851
 20
177.374687
 30
0.0
 11
215.653148
 21
177.280239
 31
0.0
  0
LINE
  5
2B7
330
22
100
AcDbEntity
  8
1
  6
Continuous
 62
     7
100
AcDbLine
 10
215.653148
 20
177.280239
 30
0.0
 11
215.626663
 21
177.248467
 31
0.0
  0
LINE
  5
2B8
330
22
100
AcDbEntity
  8
1
  6
HIDDEN
 62
     7
100
AcDbLine
 10
182.6
 20
189.284434
 30
0.0
 11
187.600055
 21
189.278934
 31
0.0
  0
LINE
  5
2B9
330
22
100
AcDbEntity
  8
1
  6
HIDDEN
 62
     7
100
AcDbLine
 10
182.6
 20
187.938949
 30
0.0
 11
187.6
 21
188.033449
 31
0.0
  0
LINE
  5
2BA
330
22
100
AcDbEntity
  8
1
  6
HIDDEN
 62
     7
100
AcDbLine
 10
182.599796
 20
187.984434
 30
0.0
 11
187.599835
 21
187.978933
 31
0.0
  0
LINE
  5
2BB
330
22
100
AcDbEntity
  8
1
  6
HIDDEN
 62
     7
100
AcDbLine
 10
187.6
 20
186.8334139999999
 30
0.0
 11
182.6
 21
186.738914
 31
0.0
  0
LINE
  5
2BC
330
22
100
AcDbEntity
  8
1
  6
HIDDEN
 62
     7
100
AcDbLine
 10
182.6
 20
185.317984
 30
0.0
 11
187.6
 21
185.317984
 31
0.0
  0
LINE
  5
2BD
330
22
100
AcDbEntity
  8
1
  6
HIDDEN
 62
     7
100
AcDbLine
 10
182.6
 20
184.017984
 30
0.0
 11
187.6
 21
184.017984
 31
0.0
  0
LINE
  5
2BE
330
22
100
AcDbEntity
  8
1
  6
HIDDEN
 62
     7
100
AcDbLine
 10
187.600945
 20
182.552544
 30
0.0
 11
182.6
 21
182.64706
 31
0.0
  0
LINE
  5
2BF
330
22
100
AcDbEntity
  8
1
  6
HIDDEN
 62
     7
100
AcDbLine
 10
182.6
 20
181.347004
 30
0.0
 11
187.597165
 21
181.252559
 31
0.0
  0
LINE
  5
2C0
330
22
100
AcDbEntity
  8
1
  6
HIDDEN
 62
     7
100
AcDbLine
 10
182.599884
 20
181.307034
 30
0.0
 11
187.6
 21
181.312534
 31
0.0
  0
LINE
  5
2C1
330
22
100
AcDbEntity
  8
1
  6
HIDDEN
 62
     7
100
AcDbLine
 10
187.60011
 20
180.112534
 30
0.0
 11
182.6
 21
180.107034
 31
0.0
  0
LINE
  5
2C2
330
22
100
AcDbEntity
  8
1
  6
HIDDEN
 62
     7
100
AcDbLine
 10
182.6
 20
180.067064
 30
0.0
 11
184.59833
 21
180.109229
 31
0.0
  0
LINE
  5
2C3
330
22
100
AcDbEntity
  8
1
  6
HIDDEN
 62
     7
100
AcDbLine
 10
187.601055
 20
178.872524
 30
0.0
 11
182.6
 21
178.767
 31
0.0
  0
DIMENSION
  5
2C4
330
22
100
AcDbEntity
  8
1
  6
Continuous
 62
     7
100
AcDbDimension
  2
*D0
 10
187.6
 20
143.014
 30
0.0
 11
227.25
 21
143.014
 31
0.0
  1
115±18
 71
     5
 42
-1.0
100
AcDbAlignedDimension
 13
187.6
 23
176.014
 33
0.0
 14
266.9
 24
176.467984
 34
0.0
100
AcDbRotatedDimension
  0
DIMENSION
  5
2C5
330
22
100
AcDbEntity
  8
1
  6
Continuous
 62
     7
100
AcDbDimension
  2
*D1
 10
187.6
 20
143.014
 30
0.0
 11
152.6
 21
143.014
 31
0.0
  1
70±5
 71
     5
 42
-1.0
100
AcDbAlignedDimension
 13
187.6
 23
176.014
 33
0.0
 14
117.6
 24
176.014
 34
0.0
 50
180.0
100
AcDbRotatedDimension
  0
DIMENSION
  5
2C6
330
22
100
AcDbEntity
  8
1
  6
Continuous
 62
     7
100
AcDbDimension
  2
*D2
 10
117.6
 20
143.014
 30
0.0
 11
87.85
 21
143.014
 31
0.0
  1
95±18
 71
     5
 42
-1.0
100
AcDbAlignedDimension
 13
117.6
 23
176.014
 33
0.0
 14
58.1
 24
191.251105
 34
0.0
 50
180.0
100
AcDbRotatedDimension
  0
ARC
  5
2C7
330
22
100
AcDbEntity
  8
1
  6
Continuous
 62
     7
100
AcDbCircle
 10
114.204
 20
204.435456
 30
0.0
 40
8.225663
100
AcDbArc
 50
294.384261
 51
349.937479
  0
ARC
  5
2C8
330
22
100
AcDbEntity
  8
1
  6
Continuous
 62
     7
100
AcDbCircle
 10
190.995999
 20
204.435456
 30
0.0
 40
8.225663
100
AcDbArc
 50
190.062524
 51
245.615742
  0
ARC
  5
2C9
330
22
100
AcDbEntity
  8
1
  6
Continuous
 62
     7
100
AcDbCircle
 10
114.204
 20
171.451385
 30
0.0
 40
8.225663
100
AcDbArc
 50
10.062521
 51
65.615739
  0
ARC
  5
2CA
330
22
100
AcDbEntity
  8
1
  6
Continuous
 62
     7
100
AcDbCircle
 10
190.996
 20
171.451385
 30
0.0
 40
8.225663
100
AcDbArc
 50
114.384261
 51
169.937479
  0
LINE
  5
2CB
330
22
100
AcDbEntity
  8
1
  6
Continuous
 62
     7
100
AcDbLine
 10
117.6
 20
196.943546
 30
0.0
 11
117.6
 21
178.943296
 31
0.0
  0
LINE
  5
2CC
330
22
100
AcDbEntity
  8
1
  6
Continuous
 62
     7
100
AcDbLine
 10
187.6
 20
196.943546
 30
0.0
 11
187.6
 21
178.872501
 31
0.0
  0
LINE
  5
2CD
330
22
100
AcDbEntity
  8
1
  6
Continuous
 62
     7
100
AcDbLine
 10
122.6
 20
104.514
 30
0.0
 11
182.601429
 21
104.514
 31
0.0
  0
ARC
  5
2CE
330
22
100
AcDbEntity
  8
1
  6
Continuous
 62
     7
100
AcDbCircle
 10
188.225895
 20
106.888183
 30
0.0
 40
6.106343999999999
100
AcDbArc
 50
202.88022
 51
264.116898
  0
ARC
  5
2CF
330
22
100
AcDbEntity
  8
1
  6
Continuous
 62
     7
100
AcDbCircle
 10
116.974105
 20
106.888183
 30
0.0
 40
6.106343999999999
100
AcDbArc
 50
275.883102
 51
337.11978
  0
ARC
  5
2D0
330
22
100
AcDbEntity
  8
1
  6
Continuous
 62
     7
100
AcDbCircle
 10
188.225895
 20
91.13981700000001
 30
0.0
 40
6.106343999999999
100
AcDbArc
 50
95.883102
 51
157.11978
  0
LINE
  5
2D1
330
22
100
AcDbEntity
  8
1
  6
Continuous
 62
     7
100
AcDbLine
 10
122.6
 20
93.51399999999999
 30
0.0
 11
182.6
 21
93.51399999999999
 31
0.0
  0
ARC
  5
2D2
330
22
100
AcDbEntity
  8
1
  6
Continuous
 62
     7
100
AcDbCircle
 10
116.974105
 20
91.13981700000001
 30
0.0
 40
6.106343999999999
100
AcDbArc
 50
22.88022000000001
 51
84.11689799999999
  0
LINE
  5
2D3
330
22
100
AcDbEntity
  8
1
  6
Continuous
 62
     7
100
AcDbLine
 10
187.6
 20
100.814
 30
0.0
 11
187.6
 21
97.214
 31
0.0
  0
LINE
  5
2D4
330
22
100
AcDbEntity
  8
1
  6
Continuous
 62
     7
100
AcDbLine
 10
117.6
 20
100.814
 30
0.0
 11
117.6
 21
97.214
 31
0.0
  0
DIMENSION
  5
2D5
330
22
100
AcDbEntity
  8
1
  6
Continuous
 62
     7
100
AcDbDimension
  2
*D3
 10
87.59999999999999
 20
104.514
 30
0.0
 11
87.59999999999999
 21
112.47
 31
0.0
  1
11±1
 71
     5
 42
-1.0
100
AcDbAlignedDimension
 13
120.6
 23
104.514
 33
0.0
 14
120.6
 24
93.51399999999999
 34
0.0
 50
270.0
100
AcDbRotatedDimension
  0
ARC
  5
2D6
330
22
100
AcDbEntity
  8
1
  6
Continuous
 62
     7
100
AcDbCircle
 10
123.135184
 20
173.514
 30
0.0
 40
1.0
100
AcDbArc
 50
213.690068
 51
270.0
  0
ARC
  5
2D7
330
22
100
AcDbEntity
  8
1
  6
Continuous
 62
     7
100
AcDbCircle
 10
182.064816
 20
173.514
 30
0.0
 40
1.0
100
AcDbArc
 50
270.0
 51
326.309932
  0
LINE
  5
2D8
330
22
100
AcDbEntity
  8
1
  6
Continuous
 62
     7
100
AcDbLine
 10
123.135184
 20
172.514
 30
0.0
 11
182.167829
 21
172.514
 31
0.0
  0
ARC
  5
2D9
330
22
100
AcDbEntity
  8
1
  6
Continuous
 62
     7
100
AcDbCircle
 10
123.135184
 20
202.514
 30
0.0
 40
1.0
100
AcDbArc
 50
90.0
 51
146.309932
  0
ARC
  5
2DA
330
22
100
AcDbEntity
  8
1
  6
Continuous
 62
     7
100
AcDbCircle
 10
182.064815
 20
202.514
 30
0.0
 40
1.0
100
AcDbArc
 50
33.69007
 51
90.00000300000001
  0
LINE
  5
2DB
330
22
100
AcDbEntity
  8
1
  6
Continuous
 62
     7
100
AcDbLine
 10
123.078248
 20
203.514
 30
0.0
 11
182.064815
 21
203.514
 31
0.0
  0
DIMENSION
  5
2DC
330
22
100
AcDbEntity
  8
1
  6
Continuous
 62
     7
100
AcDbDimension
  2
*D4
 10
102.6
 20
203.514
 30
0.0
 11
102.6
 21
213.384
 31
0.0
  1
31±1
 71
     5
 42
-1.0
100
AcDbAlignedDimension
 13
121.135184
 23
203.514
 33
0.0
 14
121.533
 24
172.514
 34
0.0
 50
270.0
100
AcDbRotatedDimension
  0
TEXT
  5
2DD
330
22
100
AcDbEntity
  8
15
  6
Continuous
 62
    96
100
AcDbText
 10
327.1708
 20
28.25979099999999
 30
0.0
 40
3.5
  1
G19022-01-11727
 41
0.5
  7
KANJI
100
AcDbText
  0
TEXT
  5
2DE
330
22
100
AcDbEntity
  8
15
  6
Continuous
 62
    96
100
AcDbText
 10
364.2919819999999
 20
28.440418
 30
0.0
 40
3.000884999999999
  1
2011年07月27日
 41
0.6034480000000001
  7
KANJI
100
AcDbText
  0
TEXT
  5
2DF
330
22
100
AcDbEntity
  8
15
  6
Continuous
 62
    96
100
AcDbText
 10
362.25
 20
267.75
 30
0.0
 40
3.0
  1
0501110
 41
0.5
  7
KANJI
100
AcDbText
  0
ENDSEC
  0
SECTION
  2
OBJECTS
  0
DICTIONARY
  5
C
330
0
100
AcDbDictionary
281
     1
  3
ACAD_COLOR
350
1B
  3
ACAD_GROUP
350
D
  3
ACAD_LAYOUT
350
19
  3
ACAD_MATERIAL
350
1A
  3
ACAD_MLINESTYLE
350
16
  3
ACAD_PLOTSETTINGS
350
18
  3
ACAD_PLOTSTYLENAME
350
E
  3
ACAD_TABLESTYLE
350
1C
  3
ACDBHEADERROUNDTRIPXREC
350
2E7
  3
AcDbVariableDictionary
350
2E2
  0
DICTIONARY
  5
1B
102
{ACAD_REACTORS
330
C
102
}
330
C
100
AcDbDictionary
281
     1
  0
DICTIONARY
  5
D
102
{ACAD_REACTORS
330
C
102
}
330
C
100
AcDbDictionary
281
     1
  0
DICTIONARY
  5
19
102
{ACAD_REACTORS
330
C
102
}
330
C
100
AcDbDictionary
281
     1
  3
Model
350
25
  3
レイアウト1
350
21
  0
DICTIONARY
  5
1A
102
{ACAD_REACTORS
330
C
102
}
330
C
100
AcDbDictionary
281
     1
  0
DICTIONARY
  5
16
102
{ACAD_REACTORS
330
C
102
}
330
C
100
AcDbDictionary
281
     1
  3
Standard
350
17
  0
DICTIONARY
  5
18
102
{ACAD_REACTORS
330
C
102
}
330
C
100
AcDbDictionary
281
     1
  0
ACDBDICTIONARYWDFLT
  5
E
102
{ACAD_REACTORS
330
C
102
}
330
C
100
AcDbDictionary
281
     1
  3
Normal
350
F
100
AcDbDictionaryWithDefault
340
F
  0
DICTIONARY
  5
1C
102
{ACAD_REACTORS
330
C
102
}
330
C
100
AcDbDictionary
281
     1
  3
Standard
350
1D
  0
DICTIONARY
  5
2E7
102
{ACAD_REACTORS
330
C
102
}
330
C
100
AcDbDictionary
281
     1
  0
DICTIONARY
  5
2E2
102
{ACAD_REACTORS
330
C
102
}
330
C
100
AcDbDictionary
281
     1
  3
CTABLESTYLE
350
2E3
  3
DIMASSOC
350
2E4
  3
PROJECTNAME
350
2E5
  0
LAYOUT
  5
25
102
{ACAD_XDICTIONARY
360
2EA
102
}
102
{ACAD_REACTORS
330
19
102
}
330
19
100
AcDbPlotSettings
  1

  2
DocuCentre a235
  4

  6

 40
0.0
 41
0.0
 42
0.0
 43
0.0
 44
0.0
 45
0.0
 46
0.0
 47
0.0
 48
0.0
 49
0.0
140
0.0
141
0.0
142
1.0
143
1.0
 70
  1712
 72
     0
 73
     0
 74
     0
  7
DocuCentre a235
 75
     0
147
1.0
148
0.0
149
0.0
100
AcDbLayout
  1
Model
 70
     1
 71
     0
 10
0.0
 20
0.0
 11
12.0
 21
9.0
 12
0.0
 22
0.0
 32
0.0
 14
0.0
 24
0.0
 34
0.0
 15
0.0
 25
0.0
 35
0.0
146
0.0
 13
0.0
 23
0.0
 33
0.0
 16
1.0
 26
0.0
 36
0.0
 17
0.0
 27
1.0
 37
0.0
 76
     0
330
22
  0
LAYOUT
  5
21
102
{ACAD_XDICTIONARY
360
2E8
102
}
102
{ACAD_REACTORS
330
19
102
}
330
19
100
AcDbPlotSettings
  1

  2
DocuCentre a235
  4

  6

 40
0.0
 41
0.0
 42
0.0
 43
0.0
 44
0.0
 45
0.0
 46
0.0
 47
0.0
 48
0.0
 49
0.0
140
0.0
141
0.0
142
1.0
143
1.0
 70
   688
 72
     0
 73
     0
 74
     5
  7
DocuCentre a235
 75
    16
147
1.0
148
0.0
149
0.0
100
AcDbLayout
  1
レイアウト1
 70
     1
 71
     1
 10
0.0
 20
0.0
 11
12.0
 21
9.0
 12
0.0
 22
0.0
 32
0.0
 14
0.0
 24
0.0
 34
0.0
 15
420.0
 25
297.0
 35
0.0
146
0.0
 13
0.0
 23
0.0
 33
0.0
 16
1.0
 26
0.0
 36
0.0
 17
0.0
 27
1.0
 37
0.0
 76
     0
330
1E
  0
MLINESTYLE
  5
17
102
{ACAD_REACTORS
330
16
102
}
330
16
100
AcDbMlineStyle
  2
STANDARD
 70
     0
  3

 62
   256
 51
90.0
 52
90.0
 71
     2
 49
0.5
 62
   256
  6
BYLAYER
 49
-0.5
 62
   256
  6
BYLAYER
  0
ACDBPLACEHOLDER
  5
F
102
{ACAD_REACTORS
330
E
102
}
330
E
  0
TABLESTYLE
  5
1D
102
{ACAD_REACTORS
330
1C
102
}
330
1C
100
AcDbTableStyle
  3
Standard
 70
     0
 71
     0
 40
0.06
 41
0.06
280
     0
281
     0
  7
STANDARD
140
0.18
170
     2
 62
     0
 63
     7
283
     0
274
    -2
284
     1
 64
     0
275
    -2
285
     1
 65
     0
276
    -2
286
     1
 66
     0
277
    -2
287
     1
 67
     0
278
    -2
288
     1
 68
     0
279
    -2
289
     1
 69
     0
  7
STANDARD
140
0.25
170
     5
 62
     0
 63
     7
283
     0
274
    -2
284
     1
 64
     0
275
    -2
285
     1
 65
     0
276
    -2
286
     1
 66
     0
277
    -2
287
     1
 67
     0
278
    -2
288
     1
 68
     0
279
    -2
289
     1
 69
     0
  7
STANDARD
140
0.18
170
     5
 62
     0
 63
     7
283
     0
274
    -2
284
     1
 64
     0
275
    -2
285
     1
 65
     0
276
    -2
286
     1
 66
     0
277
    -2
287
     1
 67
     0
278
    -2
288
     1
 68
     0
279
    -2
289
     1
 69
     0
  0
DICTIONARYVAR
  5
2E3
102
{ACAD_REACTORS
330
2E2
102
}
330
2E2
100
DictionaryVariables
280
     0
  1
STANDARD
  0
DICTIONARYVAR
  5
2E4
102
{ACAD_REACTORS
330
2E2
102
}
330
2E2
100
DictionaryVariables
280
     0
  1
0
  0
DICTIONARYVAR
  5
2E5
102
{ACAD_REACTORS
330
2E2
102
}
330
2E2
100
DictionaryVariables
280
     0
  1

  0
DICTIONARY
  5
2EA
330
25
100
AcDbDictionary
280
     1
281
     1
  3
ACAD_XREC_ROUNDTRIP
360
2EB
  0
DICTIONARY
  5
2E8
330
21
100
AcDbDictionary
280
     1
281
     1
  3
ACAD_XREC_ROUNDTRIP
360
2E9
  0
XRECORD
  5
2EB
102
{ACAD_REACTORS
330
2EA
102
}
330
2EA
100
AcDbXrecord
280
     1
102
SHADEPLOT
 70
     0
102
SHADEPLOTRESLEVEL
 70
     2
102
SHADEPLOTCUSTOMDPI
 70
   300
  0
XRECORD
  5
2E9
102
{ACAD_REACTORS
330
2E8
102
}
330
2E8
100
AcDbXrecord
280
     1
102
SHADEPLOT
 70
     0
102
SHADEPLOTRESLEVEL
 70
     2
102
SHADEPLOTCUSTOMDPI
 70
   300
  0
ENDSEC
  0
EOF
