  0
SECTION
  2
HEADER
  9
$ACADVER
  1
AC1003
  9
$INSBASE
 10
0.000000
 20
0.000000
  9
$EXTMIN
 10
0.000000
 20
0.000000
  9
$EXTMAX
 10
420.000000
 20
297.000000
  9
$LIMMIN
 10
0.000000
 20
0.000000
  9
$LIMMAX
 10
420.000000
 20
297.000000
  9
$VIEWCTR
 10
210.000000
 20
148.500000
  9
$VIEWSIZE
 40
297.000000
  9
$PEXTMIN
 10
0.000000
 20
0.000000
 30
0.000000
  9
$PEXTMAX
 10
420.000000
 20
297.000000
 30
0.000000
  9
$SNAPMODE
 70
     0
  9
$SNAPUNIT
 10
1.000000
 20
1.000000
  9
$SNAPBASE
 10
0.000000
 20
0.000000
  9
$SNAPANG
 50
0.000000
  9
$SNAPISOPAIR
 70
     0
  9
$SNAPSTYLE
 70
     0
  9
$GRIDMODE
 70
     0
  9
$GRIDUNIT
 10
0.000000
 20
0.000000
  9
$ORTHOMODE
 70
     0
  9
$REGENMODE
 70
     1
  9
$FILLMODE
 70
     1
  9
$QTEXTMODE
 70
     0
  9
$DRAGMODE
 70
     2
  9
$LTSCALE
 40
0.250000
  9
$OSMODE
 70
     0
  9
$ATTMODE
 70
     1
  9
$TEXTSIZE
 40
0.200000
  9
$TRACEWID
 40
0.050000
  9
$TEXTSTYLE
  7
STANDARD
  9
$CLAYER
  8
0
  9
$CELTYPE
  6
BYLAYER
  9
$CECOLOR
 62
   256
  9
$DIMSCALE
 40
1.000000
  9
$DIMASZ
 40
1.000000
  9
$DIMEXO
 40
0.000000
  9
$DIMDLI
 40
0.500000
  9
$DIMRND
 40
0.000000
  9
$DIMDLE
 40
0.000000
  9
$DIMEXE
 40
0.000000
  9
$DIMTP
 40
0.000000
  9
$DIMTM
 40
0.000000
  9
$DIMTXT
 40
0.180000
  9
$DIMCEN
 40
0.000000
  9
$DIMTSZ
 40
0.000000
  9
$DIMTOL
 70
     0
  9
$DIMLIM
 70
     0
  9
$DIMTIH
 70
     1
  9
$DIMTOH
 70
     1
  9
$DIMSE1
 70
     0
  9
$DIMSE2
 70
     0
  9
$DIMTAD
 70
     0
  9
$DIMZIN
 70
     0
  9
$DIMBLK
  1

  9
$DIMASO
 70
     0
  9
$DIMSHO
 70
     0
  9
$DIMPOST
  1

  9
$DIMAPOST
  1

  9
$DIMALT
 70
     0
  9
$DIMALTD
 70
     0
  9
$DIMALTF
 40
25.400000
  9
$DIMLFAC
 40
1.000000
  9
$DIMTOFL
 70
     0
  9
$DIMTVP
 40
0.000000
  9
$DIMTIX
 70
     0
  9
$DIMSOXD
 70
     0
  9
$DIMSAH
 70
     0
  9
$DIMBLKL
  1

  9
$DIMBLKR
  1

  9
$LUNITS
 70
     2
  9
$LUPREC
 70
     2
  9
$AXISMODE
 70
     0
  9
$AXISUNIT
 10
1.000000
 20
1.000000
  9
$SKETCHINC
 40
0.000000
  9
$FILLETRAD
 40
0.000000
  9
$AUNITS
 70
     1
  9
$AUPREC
 70
     2
  9
$MENU
  1
ACAD
  9
$ELEVATION
 40
0.000000
  9
$THICKNESS
 40
0.000000
  9
$VIEWDIR
 10
0.000000
 20
0.000000
 30
1.000000
  9
$LIMCHECK
 70
     1
  9
$BLIPMODE
 70
     1
  9
$CHAMFERA
 40
0.000000
  9
$CHAMFERB
 40
0.000000
  9
$FASTZOOM
 70
     1
  9
$SKPOLY
 70
     0
  9
$TDCREATE
 40
0.000000
  9
$TDUPDATE
 40
0.000000
  9
$TDINDWG
 40
0.000000
  9
$TDUSRTIMER
 40
0.000000
  9
$USRTIMER
 70
     1
  9
$ANGBASE
 50
0.000000
  9
$ANGDIR
 70
     0
  9
$PDMODE
 70
     0
  9
$PDSIZE
 40
0.000000
  9
$PLINEWID
 40
0.000000
  9
$COORDS
 70
     2
  9
$USERI1
 70
     0
  9
$USERI2
 70
     0
  9
$USERI3
 70
     0
  9
$USERI4
 70
     0
  9
$USERI5
 70
     0
  9
$USERR1
 40
0.000000
  9
$USERR2
 40
0.000000
  9
$USERR3
 40
0.000000
  9
$USERR4
 40
0.000000
  9
$USERR5
 40
0.000000
  0
ENDSEC
  0
SECTION
  2
TABLES
  0
TABLE
  2
LTYPE
 70
     5
  0
LTYPE
  2
CONTINUOUS
 70
    64
  3
Solid line
 72
    65
 73
     0
 40
0.0
  0
LTYPE
  2
HIDDEN
 70
    64
  3
------------------------
 72
    65
 73
     2
 40
12.6
 49
8.4
 49
-4.2
  0
LTYPE
  2
DOT
 70
    64
  3
････････････････････････
 72
    65
 73
     2
 40
8.0
 49
6.0
 49
-2.0
  0
LTYPE
  2
DASHDOT
 70
    64
  3
--･--･--･--･--･--･--･--
 72
    65
 73
     4
 40
50.5
 49
30.0
 49
-9.0
 49
2.5
 49
-9.0
  0
LTYPE
  2
DIVIDE
 70
    64
  3
--･･--･･--･･--･･--･･--
 72
    65
 73
     6
 40
58.0
 49
30.0
 49
-9.0
 49
2.5
 49
-5.0
 49
2.5
 49
-9.0
  0
ENDTAB
  0
TABLE
  2
LAYER
 70
2
  0
LAYER
  2
1
 70
64
 62
7
  6
CONTINUOUS
  0
LAYER
  2
15
 70
64
 62
96
  6
CONTINUOUS
  0
ENDTAB
  0
TABLE
  2
STYLE
 70
     2
  0
STYLE
  2
STANDARD
 70
    64
 40
0.0
 41
1.0
 50
0.0
 71
     0
 42
0.2
  3
TXT
  4

  0
STYLE
  2
KANJI
 70
    64
 40
0.0
 41
1.0
 50
0.0
 71
     0
 42
0.2
  3
TXT
  4
BIGFONT
  0
ENDTAB
  0
TABLE
  2
VIEW
 70
     0
  0
ENDTAB
  0
ENDSEC
  0
SECTION
  2
BLOCKS
  0
BLOCK
  8
1
 62
7
  6
CONTINUOUS
  2
*D1
 70
    65
 10
0.0
 20
0.0
  0
LINE
  8
1
 62
7
  6
CONTINUOUS
 10
191.195021
 20
218.000000
 11
218.574000
 21
218.000000
  0
LINE
  8
1
 62
7
  6
CONTINUOUS
 10
191.195021
 20
220.000000
 11
191.195021
 21
182.795187
  0
LINE
  8
1
 62
7
  6
CONTINUOUS
 10
218.574000
 20
220.000000
 11
218.574000
 21
199.992834
  0
LINE
  8
1
 62
7
  6
CONTINUOUS
 10
191.195021
 20
218.000000
 11
193.513243
 21
218.621166
  0
LINE
  8
1
 62
7
  6
CONTINUOUS
 10
191.195021
 20
218.000000
 11
193.513243
 21
217.378834
  0
LINE
  8
1
 62
7
  6
CONTINUOUS
 10
218.574000
 20
218.000000
 11
216.255778
 21
217.378834
  0
LINE
  8
1
 62
7
  6
CONTINUOUS
 10
218.574000
 20
218.000000
 11
216.255778
 21
218.621166
  0
TEXT
  8
1
 62
7
  6
CONTINUOUS
 10
200.584511
 20
218.500000
 40
3.000000
 41
0.733333
  1
(28)
  7
KANJI
 50
0.000000
 51
0.000000
  0
ENDBLK
  0
BLOCK
  8
1
 62
7
  6
CONTINUOUS
  2
*D2
 70
    65
 10
0.0
 20
0.0
  0
LINE
  8
1
 62
7
  6
CONTINUOUS
 10
67.564000
 20
208.000000
 11
119.564000
 21
208.000000
  0
LINE
  8
1
 62
7
  6
CONTINUOUS
 10
67.564000
 20
210.000000
 11
67.564000
 21
200.000000
  0
LINE
  8
1
 62
7
  6
CONTINUOUS
 10
119.564000
 20
210.000000
 11
119.564000
 21
200.000000
  0
LINE
  8
1
 62
7
  6
CONTINUOUS
 10
67.564000
 20
208.000000
 11
69.882222
 21
208.621166
  0
LINE
  8
1
 62
7
  6
CONTINUOUS
 10
67.564000
 20
208.000000
 11
69.882222
 21
207.378834
  0
LINE
  8
1
 62
7
  6
CONTINUOUS
 10
119.564000
 20
208.000000
 11
117.245778
 21
207.378834
  0
LINE
  8
1
 62
7
  6
CONTINUOUS
 10
119.564000
 20
208.000000
 11
117.245778
 21
208.621166
  0
TEXT
  8
1
 62
7
  6
CONTINUOUS
 10
91.464000
 20
208.500000
 40
3.000000
 41
0.733333
  1
52
  7
KANJI
 50
0.000000
 51
0.000000
  0
ENDBLK
  0
BLOCK
  8
1
 62
7
  6
CONTINUOUS
  2
*D3
 70
    65
 10
0.0
 20
0.0
  0
LINE
  8
1
 62
7
  6
CONTINUOUS
 10
63.564000
 20
218.000000
 11
123.564000
 21
218.000000
  0
LINE
  8
1
 62
7
  6
CONTINUOUS
 10
63.564000
 20
220.000000
 11
63.564000
 21
199.000000
  0
LINE
  8
1
 62
7
  6
CONTINUOUS
 10
123.564000
 20
220.000000
 11
123.564000
 21
199.000000
  0
LINE
  8
1
 62
7
  6
CONTINUOUS
 10
63.564000
 20
218.000000
 11
65.882222
 21
218.621166
  0
LINE
  8
1
 62
7
  6
CONTINUOUS
 10
63.564000
 20
218.000000
 11
65.882222
 21
217.378834
  0
LINE
  8
1
 62
7
  6
CONTINUOUS
 10
123.564000
 20
218.000000
 11
121.245778
 21
217.378834
  0
LINE
  8
1
 62
7
  6
CONTINUOUS
 10
123.564000
 20
218.000000
 11
121.245778
 21
218.621166
  0
TEXT
  8
1
 62
7
  6
CONTINUOUS
 10
91.464000
 20
218.500000
 40
3.000000
 41
0.733333
  1
60
  7
KANJI
 50
0.000000
 51
0.000000
  0
ENDBLK
  0
BLOCK
  8
1
 62
7
  6
CONTINUOUS
  2
*D4
 70
    65
 10
0.0
 20
0.0
  0
LINE
  8
1
 62
7
  6
CONTINUOUS
 10
43.564000
 20
198.000000
 11
43.564000
 21
129.000000
  0
LINE
  8
1
 62
7
  6
CONTINUOUS
 10
41.564000
 20
198.000000
 11
62.564000
 21
198.000000
  0
LINE
  8
1
 62
7
  6
CONTINUOUS
 10
41.564000
 20
129.000000
 11
61.564000
 21
129.000000
  0
LINE
  8
1
 62
7
  6
CONTINUOUS
 10
43.564000
 20
198.000000
 11
44.185166
 21
195.681778
  0
LINE
  8
1
 62
7
  6
CONTINUOUS
 10
43.564000
 20
198.000000
 11
42.942834
 21
195.681778
  0
LINE
  8
1
 62
7
  6
CONTINUOUS
 10
43.564000
 20
129.000000
 11
42.942834
 21
131.318222
  0
LINE
  8
1
 62
7
  6
CONTINUOUS
 10
43.564000
 20
129.000000
 11
44.185166
 21
131.318222
  0
TEXT
  8
1
 62
7
  6
CONTINUOUS
 10
43.064000
 20
161.400000
 40
3.000000
 41
0.733333
  1
69
  7
KANJI
 50
90.000000
 51
0.000000
  0
ENDBLK
  0
BLOCK
  8
1
 62
7
  6
CONTINUOUS
  2
*D5
 70
    65
 10
0.0
 20
0.0
  0
LINE
  8
1
 62
7
  6
CONTINUOUS
 10
53.564000
 20
194.500000
 11
53.564000
 21
132.500000
  0
LINE
  8
1
 62
7
  6
CONTINUOUS
 10
51.564000
 20
194.500000
 11
61.564000
 21
194.500000
  0
LINE
  8
1
 62
7
  6
CONTINUOUS
 10
51.564000
 20
132.500000
 11
112.564000
 21
132.500000
  0
LINE
  8
1
 62
7
  6
CONTINUOUS
 10
53.564000
 20
194.500000
 11
54.185166
 21
192.181778
  0
LINE
  8
1
 62
7
  6
CONTINUOUS
 10
53.564000
 20
194.500000
 11
52.942834
 21
192.181778
  0
LINE
  8
1
 62
7
  6
CONTINUOUS
 10
53.564000
 20
132.500000
 11
52.942834
 21
134.818222
  0
LINE
  8
1
 62
7
  6
CONTINUOUS
 10
53.564000
 20
132.500000
 11
54.185166
 21
134.818222
  0
TEXT
  8
1
 62
7
  6
CONTINUOUS
 10
53.064000
 20
161.400000
 40
3.000000
 41
0.733333
  1
62
  7
KANJI
 50
90.000000
 51
0.000000
  0
ENDBLK
  0
ENDSEC
  0
SECTION
  2
ENTITIES
  0
TEXT
  8
15
 62
96
  6
CONTINUOUS
 10
354.625253
 20
28.070845
 40
5.000000
 41
1.080000
  1
辻
  7
KANJI
 50
0.000000
 51
0.000000
  0
TEXT
  8
15
 62
96
  6
CONTINUOUS
 10
327.674478
 20
27.753840
 40
5.000000
 41
1.080000
  1
仲代
  7
KANJI
 50
0.000000
 51
0.000000
  0
TEXT
  8
15
 62
96
  6
CONTINUOUS
 10
346.521526
 20
32.449217
 40
2.500000
 41
1.080000
  1
検図
  7
KANJI
 50
0.000000
 51
0.000000
  0
TEXT
  8
15
 62
96
  6
CONTINUOUS
 10
321.024950
 20
32.475839
 40
2.500000
 41
1.080000
  1
承認
  7
KANJI
 50
0.000000
 51
0.000000
  0
TEXT
  8
15
 62
96
  6
CONTINUOUS
 10
314.298000
 20
46.350007
 40
5.000000
 41
0.745714
  1
C-U11用T-3830IF（取付金具付）
  7
KANJI
 50
0.000000
 51
0.000000
  0
TEXT
  8
15
 62
96
  6
CONTINUOUS
 10
372.857512
 20
21.940044
 40
3.000000
 41
0.636364
  1
2006年09月14日
  7
KANJI
 50
0.000000
 51
0.000000
  0
TEXT
  8
15
 62
96
  6
CONTINUOUS
 10
378.726811
 20
28.064840
 40
5.000000
 41
1.080000
  1
栗原
  7
KANJI
 50
0.000000
 51
0.000000
  0
TEXT
  8
15
 62
96
  6
DIVIDE
 10
341.493039
 20
228.250000
 40
3.000000
 41
0.875000
  1
－10℃～50℃（結露なきこと）
  7
KANJI
 50
0.000000
 51
0.000000
  0
TEXT
  8
15
 62
96
  6
DIVIDE
 10
357.250000
 20
233.750000
 40
3.000000
 41
0.700000
  1
約100ｇ
  7
KANJI
 50
0.000000
 51
0.000000
  0
TEXT
  8
15
 62
96
  6
CONTINUOUS
 10
330.408292
 20
21.918620
 40
3.000000
 41
0.500000
  1
G12002-05-06914
  7
KANJI
 50
0.000000
 51
0.000000
  0
TEXT
  8
15
 62
96
  6
DIVIDE
 10
349.000000
 20
239.250000
 40
3.000000
 41
1.000000
  1
電源搬送波重畳方式
  7
KANJI
 50
0.000000
 51
0.000000
  0
TEXT
  8
15
 62
96
  6
CONTINUOUS
 10
321.914000
 20
217.139000
 40
3.000000
 41
0.901515
  1
外部入力：接点容量　DC24V　0.1A以下
  7
KANJI
 50
0.000000
 51
0.000000
  0
TEXT
  8
15
 62
96
  6
CONTINUOUS
 10
321.914000
 20
200.639000
 40
3.000000
 41
0.901515
  1
外部出力：接点容量　DC24V　0.3A以下
  7
KANJI
 50
0.000000
 51
0.000000
  0
LINE
  8
15
 62
96
  6
CONTINUOUS
 10
305.000000
 20
221.500000
 11
395.000000
 21
221.500000
  0
TEXT
  8
15
 62
96
  6
DIVIDE
 10
342.993039
 20
195.250000
 40
3.000000
 41
1.000000
  1
無電圧ａ接点　連続（１秒）
  7
KANJI
 50
0.000000
 51
0.000000
  0
TEXT
  8
15
 62
96
  6
DIVIDE
 10
311.493039
 20
195.250000
 40
3.000000
 41
1.000000
  1
照合出力
  7
KANJI
 50
0.000000
 51
0.000000
  0
LINE
  8
15
 62
96
  6
CONTINUOUS
 10
330.000000
 20
216.000000
 11
330.000000
 21
204.998583
  0
LINE
  8
15
 62
96
  6
CONTINUOUS
 10
330.000000
 20
254.500000
 11
330.000000
 21
221.498204
  0
LINE
  8
15
 62
96
  6
CONTINUOUS
 10
305.000000
 20
216.000000
 11
395.000000
 21
216.000000
  0
LINE
  8
15
 62
96
  6
CONTINUOUS
 10
330.000000
 20
199.500000
 11
330.000000
 21
194.000000
  0
TEXT
  8
15
 62
96
  6
DIVIDE
 10
334.743039
 20
211.750000
 40
3.000000
 41
0.973684
  1
無電圧ａ接点　連続/ワンショット切替え
  7
KANJI
 50
0.000000
 51
0.000000
  0
TEXT
  8
15
 62
96
  6
DIVIDE
 10
311.493039
 20
211.750000
 40
3.000000
 41
1.000000
  1
解錠入力
  7
KANJI
 50
0.000000
 51
0.000000
  0
TEXT
  8
15
 62
96
  6
DIVIDE
 10
341.500000
 20
250.250000
 40
3.000000
 41
0.777778
  1
DC24V±10%　制御装置より供給
  7
KANJI
 50
0.000000
 51
0.000000
  0
TEXT
  8
15
 62
96
  6
DIVIDE
 10
308.493039
 20
228.250000
 40
3.000000
 41
1.000000
  1
使用環境温度
  7
KANJI
 50
0.000000
 51
0.000000
  0
TEXT
  8
15
 62
96
  6
DIVIDE
 10
313.000000
 20
233.750000
 40
3.000000
 41
1.000000
  1
重　量
  7
KANJI
 50
0.000000
 51
0.000000
  0
TEXT
  8
15
 62
96
  6
DIVIDE
 10
311.500000
 20
239.250000
 40
3.000000
 41
1.000000
  1
通信方式
  7
KANJI
 50
0.000000
 51
0.000000
  0
TEXT
  8
15
 62
96
  6
DIVIDE
 10
355.000000
 20
244.750000
 40
3.000000
 41
1.000000
  1
ＣＰＵ制御
  7
KANJI
 50
0.000000
 51
0.000000
  0
TEXT
  8
15
 62
96
  6
DIVIDE
 10
311.500000
 20
244.750000
 40
3.000000
 41
1.000000
  1
制御方式
  7
KANJI
 50
0.000000
 51
0.000000
  0
TEXT
  8
15
 62
96
  6
DIVIDE
 10
311.500000
 20
250.250000
 40
3.000000
 41
1.000000
  1
供給電源
  7
KANJI
 50
0.000000
 51
0.000000
  0
LINE
  8
15
 62
96
  6
CONTINUOUS
 10
10.000000
 20
265.500000
 11
395.000000
 21
265.500000
  0
LINE
  8
15
 62
96
  6
CONTINUOUS
 10
395.000000
 20
265.500000
 11
395.000000
 21
8.500000
  0
LINE
  8
15
 62
96
  6
CONTINUOUS
 10
330.000000
 20
265.500000
 11
330.000000
 21
260.000000
  0
LINE
  8
15
 62
96
  6
CONTINUOUS
 10
305.000000
 20
260.000000
 11
395.000000
 21
260.000000
  0
LINE
  8
15
 62
96
  6
CONTINUOUS
 10
305.000000
 20
254.500000
 11
395.000000
 21
254.500000
  0
LINE
  8
15
 62
96
  6
CONTINUOUS
 10
305.000000
 20
249.000000
 11
395.000000
 21
249.000000
  0
LINE
  8
15
 62
96
  6
CONTINUOUS
 10
395.000000
 20
243.500000
 11
305.000000
 21
243.500000
  0
LINE
  8
15
 62
96
  6
CONTINUOUS
 10
305.000000
 20
238.000000
 11
395.000000
 21
238.000000
  0
LINE
  8
15
 62
96
  6
CONTINUOUS
 10
305.000000
 20
232.500000
 11
395.000000
 21
232.500000
  0
LINE
  8
15
 62
96
  6
CONTINUOUS
 10
305.000000
 20
227.000000
 11
395.000000
 21
227.000000
  0
TEXT
  8
15
 62
96
  6
DIVIDE
 10
310.000000
 20
261.250000
 40
3.000000
 41
1.000000
  1
商品コード
  7
KANJI
 50
0.000000
 51
0.000000
  0
TEXT
  8
15
 62
96
  6
DIVIDE
 10
339.500000
 20
255.750000
 40
3.000000
 41
1.000000
  1
定　　　　　格
  7
KANJI
 50
0.000000
 51
0.000000
  0
LINE
  8
15
 62
96
  6
CONTINUOUS
 10
395.000000
 20
106.500021
 11
395.000000
 21
93.700016
  0
LINE
  8
15
 62
96
  6
CONTINUOUS
 10
395.000000
 20
66.000007
 11
395.000000
 21
104.678469
  0
LINE
  8
15
 62
96
  6
CONTINUOUS
 10
395.000000
 20
65.993210
 11
395.000000
 21
104.424646
  0
TEXT
  8
15
 62
96
  6
CONTINUOUS
 10
311.200000
 20
63.750007
 40
3.000000
 41
1.133333
  1
図面履歴
  7
KANJI
 50
0.000000
 51
0.000000
  0
LINE
  8
15
 62
96
  6
CONTINUOUS
 10
330.000000
 20
68.000007
 11
330.000000
 21
62.500007
  0
LINE
  8
15
 62
96
  6
CONTINUOUS
 10
370.000000
 20
35.500000
 11
370.000000
 21
26.500005
  0
LINE
  8
15
 62
96
  6
CONTINUOUS
 10
345.000000
 20
35.500000
 11
345.000000
 21
26.500003
  0
LINE
  8
15
 62
96
  6
CONTINUOUS
 10
320.000000
 20
35.500000
 11
320.000000
 21
26.500001
  0
TEXT
  8
15
 62
96
  6
CONTINUOUS
 10
371.053642
 20
32.348836
 40
2.500000
 41
1.080000
  1
作図
  7
KANJI
 50
0.000000
 51
0.000000
  0
TEXT
  8
15
 62
96
  6
CONTINUOUS
 10
363.916020
 20
22.089937
 40
2.500000
 41
1.080000
  1
日付
  7
KANJI
 50
0.000000
 51
0.000000
  0
LINE
  8
15
 62
96
  6
CONTINUOUS
 10
362.653354
 20
26.500000
 11
362.653354
 21
20.500000
  0
TEXT
  8
15
 62
96
  6
CONTINUOUS
 10
361.508819
 20
8.886878
 40
10.000000
 41
1.000000
  1
アート
  7
KANJI
 50
0.000000
 51
0.000000
  0
LINE
  8
15
 62
96
  6
CONTINUOUS
 10
370.000000
 20
26.500005
 11
370.000000
 21
20.500005
  0
LINE
  8
15
 62
96
  6
CONTINUOUS
 10
319.252714
 20
19.242498
 11
319.519291
 21
19.242498
  0
LINE
  8
15
 62
96
  6
CONTINUOUS
 10
319.519291
 20
19.506435
 11
309.290135
 21
9.378561
  0
LINE
  8
15
 62
96
  6
CONTINUOUS
 10
319.519291
 20
9.378561
 11
319.519291
 21
19.506435
  0
LINE
  8
15
 62
96
  6
CONTINUOUS
 10
320.000000
 20
26.500001
 11
320.000000
 21
20.500001
  0
LINE
  8
15
 62
96
  6
CONTINUOUS
 10
325.190905
 20
13.227154
 11
325.190905
 21
9.378561
  0
LINE
  8
15
 62
96
  6
CONTINUOUS
 10
323.874278
 20
13.227154
 11
325.190905
 21
13.227154
  0
LINE
  8
15
 62
96
  6
CONTINUOUS
 10
323.874278
 20
14.442497
 11
323.874278
 21
13.227154
  0
LINE
  8
15
 62
96
  6
CONTINUOUS
 10
327.925428
 20
14.442497
 11
323.874278
 21
14.442497
  0
LINE
  8
15
 62
96
  6
CONTINUOUS
 10
322.557658
 20
11.041014
 11
324.338856
 21
9.378561
  0
ARC
  8
15
 62
96
  6
CONTINUOUS
 10
322.141879
 20
12.720759
 40
1.732399
 50
-76.055153
 51
83.640296
  0
LINE
  8
15
 62
96
  6
CONTINUOUS
 10
319.924408
 20
14.442497
 11
322.333779
 21
14.442497
  0
LINE
  8
15
 62
96
  6
CONTINUOUS
 10
319.924408
 20
14.442497
 11
319.924408
 21
13.227154
  0
LINE
  8
15
 62
96
  6
CONTINUOUS
 10
319.924408
 20
13.227154
 11
321.949984
 21
13.227154
  0
LINE
  8
15
 62
96
  6
CONTINUOUS
 10
319.519291
 20
12.214365
 11
321.949984
 21
12.214365
  0
ARC
  8
15
 62
96
  6
CONTINUOUS
 10
321.949984
 20
12.720759
 40
0.506395
 50
-90.000000
 51
90.000000
  0
LINE
  8
15
 62
96
  6
CONTINUOUS
 10
319.519291
 20
12.214365
 11
322.557658
 21
9.378561
  0
LINE
  8
15
 62
96
  6
CONTINUOUS
 10
317.392440
 20
11.505414
 11
315.164308
 21
11.505414
  0
LINE
  8
15
 62
96
  6
CONTINUOUS
 10
317.392440
 20
14.265148
 11
317.392440
 21
11.505414
  0
LINE
  8
15
 62
96
  6
CONTINUOUS
 10
312.456987
 20
9.378561
 11
317.392440
 21
14.265148
  0
LINE
  8
15
 62
96
  6
CONTINUOUS
 10
315.164308
 20
11.505414
 11
315.164308
 21
9.378561
  0
LINE
  8
15
 62
96
  6
CONTINUOUS
 10
315.164308
 20
9.378561
 11
319.519291
 21
9.378561
  0
LINE
  8
15
 62
96
  6
CONTINUOUS
 10
324.338856
 20
9.378561
 11
322.557658
 21
9.378561
  0
LINE
  8
15
 62
96
  6
CONTINUOUS
 10
325.190905
 20
9.378561
 11
326.608810
 21
9.378561
  0
LINE
  8
15
 62
96
  6
CONTINUOUS
 10
326.608810
 20
9.378561
 11
326.608810
 21
13.227154
  0
LINE
  8
15
 62
96
  6
CONTINUOUS
 10
326.608810
 20
13.227154
 11
327.925428
 21
13.227154
  0
LINE
  8
15
 62
96
  6
CONTINUOUS
 10
327.925428
 20
13.227154
 11
327.925428
 21
14.442497
  0
LINE
  8
15
 62
96
  6
CONTINUOUS
 10
309.290135
 20
9.378561
 11
312.456987
 21
9.378561
  0
TEXT
  8
15
 62
96
  6
CONTINUOUS
 10
329.181133
 20
9.309079
 40
3.600000
 41
2.138889
  1
株式会社
  7
KANJI
 50
0.000000
 51
0.000000
  0
TEXT
  8
15
 62
96
  6
CONTINUOUS
 10
329.110576
 20
13.189758
 40
1.800000
 41
1.222222
  1
出入管理システム
  7
KANJI
 50
0.000000
 51
0.000000
  0
LINE
  8
15
 62
96
  6
CONTINUOUS
 10
359.336481
 20
14.200096
 11
346.873818
 21
14.200096
  0
TEXT
  8
15
 62
96
  6
CONTINUOUS
 10
322.750000
 20
37.500000
 40
5.000000
 41
1.030909
  1
デジタルＩ/Ｆユニット
  7
KANJI
 50
0.000000
 51
0.000000
  0
LINE
  8
15
 62
96
  6
CONTINUOUS
 10
10.000000
 20
8.500000
 11
395.000000
 21
8.500000
  0
TEXT
  8
15
 62
96
  6
CONTINUOUS
 10
305.499220
 20
59.563713
 40
2.500000
 41
1.080000
  1
現場名
  7
KANJI
 50
0.000000
 51
0.000000
  0
TEXT
  8
15
 62
96
  6
CONTINUOUS
 10
305.431027
 20
50.615582
 40
2.500000
 41
1.080000
  1
型　式
  7
KANJI
 50
0.000000
 51
0.000000
  0
TEXT
  8
15
 62
96
  6
CONTINUOUS
 10
305.431027
 20
41.454625
 40
2.500000
 41
1.080000
  1
製品名
  7
KANJI
 50
0.000000
 51
0.000000
  0
LINE
  8
15
 62
96
  6
CONTINUOUS
 10
305.000000
 20
62.500007
 11
395.000000
 21
62.500007
  0
LINE
  8
15
 62
96
  6
CONTINUOUS
 10
305.000000
 20
8.500000
 11
305.000000
 21
53.500007
  0
LINE
  8
15
 62
96
  6
CONTINUOUS
 10
305.000000
 20
44.500007
 11
395.000000
 21
44.500007
  0
LINE
  8
15
 62
96
  6
CONTINUOUS
 10
305.000000
 20
44.500000
 11
395.000000
 21
44.500007
  0
LINE
  8
15
 62
96
  6
CONTINUOUS
 10
395.000000
 20
20.500007
 11
305.000000
 21
20.500000
  0
LINE
  8
15
 62
96
  6
CONTINUOUS
 10
305.000000
 20
35.500000
 11
394.698557
 21
35.500000
  0
LINE
  8
15
 62
96
  6
CONTINUOUS
 10
305.000000
 20
53.500007
 11
395.000000
 21
53.500007
  0
LINE
  8
15
 62
96
  6
CONTINUOUS
 10
394.698557
 20
26.500007
 11
305.000000
 21
26.500000
  0
TEXT
  8
15
 62
96
  6
CONTINUOUS
 10
305.745772
 20
32.581424
 40
2.500000
 41
1.080000
  1
縮尺（Ａ３）
  7
KANJI
 50
0.000000
 51
0.000000
  0
TEXT
  8
15
 62
96
  6
CONTINUOUS
 10
307.137606
 20
22.009399
 40
2.500000
 41
1.080000
  1
図面番号
  7
KANJI
 50
0.000000
 51
0.000000
  0
LINE
  8
15
 62
96
  6
CONTINUOUS
 10
305.000000
 20
68.000007
 11
395.000000
 21
68.000007
  0
LINE
  8
15
 62
96
  6
CONTINUOUS
 10
305.000000
 20
53.500007
 11
305.000000
 21
66.000007
  0
TEXT
  8
15
 62
96
  6
CONTINUOUS
 10
307.834030
 20
28.009455
 40
3.000000
 41
1.000000
  1
１：１
  7
KANJI
 50
0.000000
 51
0.000000
  0
LINE
  8
15
 62
96
  6
CONTINUOUS
 10
305.000000
 20
265.500000
 11
305.000000
 21
66.000007
  0
LINE
  8
15
 62
96
  6
CONTINUOUS
 10
305.000000
 20
210.500000
 11
395.000000
 21
210.500000
  0
LINE
  8
15
 62
96
  6
CONTINUOUS
 10
394.993039
 20
194.000000
 11
304.993039
 21
194.000000
  0
LINE
  8
15
 62
96
  6
CONTINUOUS
 10
304.993039
 20
199.500000
 11
394.993039
 21
199.500000
  0
LINE
  8
15
 62
96
  6
CONTINUOUS
 10
305.000000
 20
205.000000
 11
395.000000
 21
205.000000
  0
LINE
  8
15
 62
96
  6
CONTINUOUS
 10
10.000000
 20
265.500000
 11
10.000000
 21
8.500000
  0
LINE
  8
1
 62
7
  6
CONTINUOUS
 10
206.874000
 20
128.992834
 11
218.575755
 21
128.992834
  0
LINE
  8
1
 62
7
  6
CONTINUOUS
 10
206.874000
 20
135.992834
 11
218.574000
 21
135.992834
  0
LINE
  8
1
 62
7
  6
CONTINUOUS
 10
206.874000
 20
190.992834
 11
218.574000
 21
190.992834
  0
LINE
  8
1
 62
7
  6
CONTINUOUS
 10
206.874000
 20
197.992834
 11
218.574000
 21
197.992834
  0
LINE
  8
1
 62
7
  6
CONTINUOUS
 10
218.574000
 20
197.992834
 11
218.574000
 21
128.992834
  0
LINE
  8
1
 62
7
  6
CONTINUOUS
 10
217.574000
 20
190.992834
 11
217.574000
 21
135.992834
  0
LINE
  8
1
 62
7
  6
CONTINUOUS
 10
217.574000
 20
189.792834
 11
218.574000
 21
189.792834
  0
LINE
  8
1
 62
7
  6
CONTINUOUS
 10
217.574000
 20
137.192834
 11
218.574000
 21
137.192834
  0
LINE
  8
1
 62
7
  6
CONTINUOUS
 10
206.874000
 20
197.992834
 11
206.874000
 21
190.992834
  0
LINE
  8
1
 62
7
  6
CONTINUOUS
 10
207.874000
 20
197.992834
 11
207.874000
 21
190.992834
  0
LINE
  8
1
 62
7
  6
CONTINUOUS
 10
206.874000
 20
196.992834
 11
207.874000
 21
196.992834
  0
LINE
  8
1
 62
7
  6
CONTINUOUS
 10
206.874000
 20
191.992834
 11
207.874000
 21
191.992834
  0
LINE
  8
1
 62
7
  6
CONTINUOUS
 10
207.874000
 20
135.992834
 11
207.874000
 21
128.992834
  0
LINE
  8
1
 62
7
  6
CONTINUOUS
 10
206.874000
 20
134.992834
 11
207.874000
 21
134.992834
  0
LINE
  8
1
 62
7
  6
CONTINUOUS
 10
206.874000
 20
129.992834
 11
207.874000
 21
129.992834
  0
LINE
  8
1
 62
7
  6
CONTINUOUS
 10
206.874000
 20
135.992834
 11
206.874000
 21
128.992834
  0
LINE
  8
1
 62
7
  6
CONTINUOUS
 10
197.522478
 20
189.985668
 11
199.103067
 21
189.985668
  0
LINE
  8
1
 62
7
  6
CONTINUOUS
 10
199.103067
 20
189.985668
 11
199.103067
 21
137.000000
  0
LINE
  8
1
 62
7
  6
CONTINUOUS
 10
199.103067
 20
137.000000
 11
197.522478
 21
137.000000
  0
LINE
  8
1
 62
7
  6
CONTINUOUS
 10
197.522478
 20
137.000000
 11
197.522478
 21
189.985668
  0
LINE
  8
1
 62
7
  6
CONTINUOUS
 10
210.993411
 20
189.985668
 11
212.574000
 21
189.985668
  0
LINE
  8
1
 62
7
  6
CONTINUOUS
 10
212.574000
 20
189.985668
 11
212.574000
 21
137.000000
  0
LINE
  8
1
 62
7
  6
CONTINUOUS
 10
212.574000
 20
137.000000
 11
210.993411
 21
137.000000
  0
LINE
  8
1
 62
7
  6
CONTINUOUS
 10
210.993411
 20
137.000000
 11
210.993411
 21
189.985668
  0
LINE
  8
1
 62
7
  6
CONTINUOUS
 10
199.103067
 20
189.087606
 11
210.993411
 21
189.087606
  0
LINE
  8
1
 62
7
  6
CONTINUOUS
 10
210.993411
 20
189.087606
 11
210.993411
 21
184.381760
  0
LINE
  8
1
 62
7
  6
CONTINUOUS
 10
210.993411
 20
184.381760
 11
199.103067
 21
184.381760
  0
LINE
  8
1
 62
7
  6
CONTINUOUS
 10
199.103067
 20
184.381760
 11
199.103067
 21
189.087606
  0
LINE
  8
1
 62
7
  6
CONTINUOUS
 10
199.103067
 20
142.603908
 11
210.993411
 21
142.603908
  0
LINE
  8
1
 62
7
  6
CONTINUOUS
 10
210.993411
 20
142.603908
 11
210.993411
 21
137.898062
  0
LINE
  8
1
 62
7
  6
CONTINUOUS
 10
210.993411
 20
137.898062
 11
199.103067
 21
137.898062
  0
LINE
  8
1
 62
7
  6
CONTINUOUS
 10
199.103067
 20
137.898062
 11
199.103067
 21
142.603908
  0
LINE
  8
1
 62
7
  6
CONTINUOUS
 10
210.922012
 20
172.438671
 11
201.359884
 21
172.438671
  0
LINE
  8
1
 62
7
  6
CONTINUOUS
 10
201.359884
 20
172.438671
 11
201.359884
 21
179.392946
  0
LINE
  8
1
 62
7
  6
CONTINUOUS
 10
201.359884
 20
179.392946
 11
210.922012
 21
179.392946
  0
LINE
  8
1
 62
7
  6
CONTINUOUS
 10
204.308868
 20
157.655430
 11
202.944099
 21
157.655430
  0
LINE
  8
1
 62
7
  6
CONTINUOUS
 10
202.944099
 20
157.655430
 11
202.944099
 21
168.573586
  0
LINE
  8
1
 62
7
  6
CONTINUOUS
 10
202.944099
 20
168.573586
 11
210.777876
 21
168.573586
  0
LINE
  8
1
 62
7
  6
CONTINUOUS
 10
210.993411
 20
164.811468
 11
204.286794
 21
164.811468
  0
LINE
  8
1
 62
7
  6
CONTINUOUS
 10
204.286794
 20
164.811468
 11
204.286794
 21
153.937365
  0
LINE
  8
1
 62
7
  6
CONTINUOUS
 10
204.286794
 20
153.937365
 11
210.993411
 21
153.937365
  0
LINE
  8
1
 62
7
  6
CONTINUOUS
 10
191.266460
 20
146.530237
 11
197.522478
 21
146.530237
  0
LINE
  8
1
 62
7
  6
CONTINUOUS
 10
197.522478
 20
180.795187
 11
191.195021
 21
180.795187
  0
LINE
  8
1
 62
7
  6
CONTINUOUS
 10
191.195021
 20
172.229743
 11
197.522478
 21
172.229743
  0
LINE
  8
1
 62
7
  6
CONTINUOUS
 10
191.195021
 20
155.095681
 11
197.522478
 21
155.095681
  0
LINE
  8
1
 62
7
  6
CONTINUOUS
 10
191.195021
 20
180.795187
 11
191.195021
 21
146.530237
  0
LINE
  8
1
 62
7
  6
CONTINUOUS
 10
197.522478
 20
170.116019
 11
193.522478
 21
170.116019
  0
LINE
  8
1
 62
7
  6
CONTINUOUS
 10
193.522478
 20
170.116019
 11
193.522478
 21
161.661126
  0
LINE
  8
1
 62
7
  6
CONTINUOUS
 10
193.522478
 20
161.661126
 11
197.522478
 21
161.661126
  0
LINE
  8
1
 62
7
  6
CONTINUOUS
 10
193.522478
 20
167.728572
 11
192.522478
 21
167.728572
  0
LINE
  8
1
 62
7
  6
CONTINUOUS
 10
192.522478
 20
167.728572
 11
192.522478
 21
165.888572
  0
LINE
  8
1
 62
7
  6
CONTINUOUS
 10
192.522478
 20
165.888572
 11
193.522478
 21
165.888572
  0
LINE
  8
1
 62
7
  6
CONTINUOUS
 10
197.522478
 20
153.769756
 11
194.522478
 21
153.769756
  0
LINE
  8
1
 62
7
  6
CONTINUOUS
 10
194.522478
 20
153.769756
 11
194.522478
 21
147.769756
  0
LINE
  8
1
 62
7
  6
CONTINUOUS
 10
194.522478
 20
147.769756
 11
197.522478
 21
147.769756
  0
LINE
  8
1
 62
7
  6
CONTINUOUS
 10
194.522478
 20
152.869756
 11
193.522478
 21
152.669756
  0
LINE
  8
1
 62
7
  6
CONTINUOUS
 10
193.522478
 20
152.669756
 11
193.522478
 21
148.869756
  0
LINE
  8
1
 62
7
  6
CONTINUOUS
 10
193.522478
 20
148.869756
 11
194.522478
 21
148.669756
  0
LINE
  8
1
 62
7
  6
CONTINUOUS
 10
191.195021
 20
163.661126
 11
193.522478
 21
163.661126
  0
LINE
  8
1
 62
7
  6
CONTINUOUS
 10
209.076685
 20
137.894716
 11
209.076685
 21
136.102517
  0
LINE
  8
1
 62
7
  6
CONTINUOUS
 10
206.911085
 20
137.894716
 11
206.911085
 21
133.947743
  0
LINE
  8
1
 62
7
  6
CONTINUOUS
 10
206.911085
 20
132.631275
 11
206.911085
 21
131.799743
  0
LINE
  8
1
 62
7
  6
CONTINUOUS
 10
209.014040
 20
111.286190
 11
209.014040
 21
96.912598
  0
LINE
  8
1
 62
7
  6
CONTINUOUS
 10
206.848440
 20
114.441246
 11
206.848440
 21
93.105633
  0
LINE
  8
1
 62
7
  6
CONTINUOUS
 10
211.321612
 20
90.848881
 11
213.466140
 21
90.848881
  0
LINE
  8
1
 62
7
  6
CONTINUOUS
 10
211.221345
 20
88.714155
 11
213.466140
 21
88.714155
  0
LINE
  8
1
 62
7
  6
CONTINUOUS
 10
211.268338
 20
92.488385
 11
213.466140
 21
92.488385
  0
LINE
  8
1
 62
7
  6
CONTINUOUS
 10
211.087452
 20
94.630543
 11
213.466140
 21
94.630543
  0
ARC
  8
1
 62
7
  6
CONTINUOUS
 10
211.221345
 20
93.106286
 40
4.392131
 50
180.000000
 51
-90.000000
  0
ARC
  8
1
 62
7
  6
CONTINUOUS
 10
211.321612
 20
93.106114
 40
2.257233
 50
180.000000
 51
-90.000000
  0
ARC
  8
1
 62
7
  6
CONTINUOUS
 10
211.268338
 20
96.880516
 40
4.392131
 50
180.000000
 51
-90.000000
  0
ARC
  8
1
 62
7
  6
CONTINUOUS
 10
211.268338
 20
96.880516
 40
2.257233
 50
180.000000
 51
-90.000000
  0
LINE
  8
1
 62
7
  6
CONTINUOUS
 10
209.042842
 20
117.732572
 11
209.042842
 21
114.977789
  0
ARC
  8
1
 62
7
  6
CONTINUOUS
 10
211.270614
 20
114.975311
 40
4.392131
 50
180.000000
 51
-90.000000
  0
ARC
  8
1
 62
7
  6
CONTINUOUS
 10
211.289872
 20
114.966814
 40
2.257233
 50
180.000000
 51
-90.000000
  0
ARC
  8
1
 62
7
  6
CONTINUOUS
 10
211.283048
 20
121.551002
 40
2.257233
 50
180.000000
 51
-90.000000
  0
ARC
  8
1
 62
7
  6
CONTINUOUS
 10
211.252757
 20
121.528239
 40
4.392131
 50
180.000000
 51
-90.000000
  0
LINE
  8
1
 62
7
  6
CONTINUOUS
 10
209.029056
 20
124.849400
 11
209.029056
 21
121.575824
  0
ARC
  8
1
 62
7
  6
CONTINUOUS
 10
211.331162
 20
128.322396
 40
4.392131
 50
180.000000
 51
-90.000000
  0
ARC
  8
1
 62
7
  6
CONTINUOUS
 10
211.331162
 20
128.322396
 40
2.257233
 50
180.000000
 51
-90.000000
  0
LINE
  8
1
 62
7
  6
CONTINUOUS
 10
206.911085
 20
131.799743
 11
206.911085
 21
114.975296
  0
LINE
  8
1
 62
7
  6
CONTINUOUS
 10
211.367465
 20
126.051880
 11
217.374727
 21
126.051880
  0
LINE
  8
1
 62
7
  6
CONTINUOUS
 10
211.367465
 20
123.916982
 11
217.374727
 21
123.916982
  0
LINE
  8
1
 62
7
  6
CONTINUOUS
 10
211.319350
 20
119.280486
 11
217.374727
 21
119.280486
  0
LINE
  8
1
 62
7
  6
CONTINUOUS
 10
211.289059
 20
117.122826
 11
217.374727
 21
117.122826
  0
LINE
  8
1
 62
7
  6
CONTINUOUS
 10
211.326175
 20
112.696298
 11
217.374727
 21
112.696298
  0
LINE
  8
1
 62
7
  6
CONTINUOUS
 10
211.306917
 20
110.569898
 11
217.374727
 21
110.569898
  0
LINE
  8
1
 62
7
  6
CONTINUOUS
 10
211.087452
 20
94.630543
 11
217.374727
 21
94.630543
  0
LINE
  8
1
 62
7
  6
CONTINUOUS
 10
211.268338
 20
92.488385
 11
217.374727
 21
92.488385
  0
LINE
  8
1
 62
7
  6
CONTINUOUS
 10
210.921985
 20
90.848881
 11
217.374727
 21
90.848881
  0
LINE
  8
1
 62
7
  6
CONTINUOUS
 10
210.410831
 20
88.714155
 11
217.374727
 21
88.714155
  0
LINE
  8
1
 62
7
  6
CONTINUOUS
 10
234.446267
 20
98.945864
 11
234.446267
 21
83.842239
  0
LINE
  8
1
 62
7
  6
CONTINUOUS
 10
234.446267
 20
83.842239
 11
229.115467
 21
83.842239
  0
LINE
  8
1
 62
7
  6
CONTINUOUS
 10
229.115467
 20
83.842239
 11
229.115467
 21
98.945864
  0
LINE
  8
1
 62
7
  6
CONTINUOUS
 10
229.115467
 20
98.945864
 11
234.446267
 21
98.945864
  0
LINE
  8
1
 62
7
  6
CONTINUOUS
 10
241.014494
 20
96.788203
 11
241.014494
 21
85.999900
  0
LINE
  8
1
 62
7
  6
CONTINUOUS
 10
241.014494
 20
85.999900
 11
234.446194
 21
85.999900
  0
LINE
  8
1
 62
7
  6
CONTINUOUS
 10
234.446194
 20
85.999900
 11
234.446194
 21
96.788203
  0
LINE
  8
1
 62
7
  6
CONTINUOUS
 10
234.446194
 20
96.788203
 11
241.014494
 21
96.788203
  0
LINE
  8
1
 62
7
  6
CONTINUOUS
 10
229.115467
 20
96.788203
 11
229.115467
 21
85.999900
  0
LINE
  8
1
 62
7
  6
CONTINUOUS
 10
229.115467
 20
85.999900
 11
222.547167
 21
85.999900
  0
LINE
  8
1
 62
7
  6
CONTINUOUS
 10
222.547167
 20
85.999900
 11
222.547167
 21
96.788203
  0
LINE
  8
1
 62
7
  6
CONTINUOUS
 10
222.547167
 20
96.788203
 11
229.115467
 21
96.788203
  0
LINE
  8
1
 62
7
  6
CONTINUOUS
 10
278.560203
 20
89.164757
 11
274.229003
 21
89.164757
  0
LINE
  8
1
 62
7
  6
CONTINUOUS
 10
278.560203
 20
90.188057
 11
278.560203
 21
89.164757
  0
LINE
  8
1
 62
7
  6
CONTINUOUS
 10
274.229003
 20
90.188057
 11
278.560203
 21
90.188057
  0
LINE
  8
1
 62
7
  6
CONTINUOUS
 10
278.643520
 20
92.972457
 11
274.138920
 21
92.972457
  0
LINE
  8
1
 62
7
  6
CONTINUOUS
 10
278.643520
 20
93.995757
 11
278.643520
 21
92.972457
  0
LINE
  8
1
 62
7
  6
CONTINUOUS
 10
274.138920
 20
93.995757
 11
278.643520
 21
93.995757
  0
LINE
  8
1
 62
7
  6
CONTINUOUS
 10
274.138920
 20
90.822016
 11
274.138920
 21
88.687289
  0
LINE
  8
1
 62
7
  6
CONTINUOUS
 10
274.138920
 20
94.603677
 11
274.138920
 21
92.461520
  0
LINE
  8
1
 62
7
  6
CONTINUOUS
 10
249.073552
 20
94.629068
 11
274.069820
 21
94.629068
  0
LINE
  8
1
 62
7
  6
CONTINUOUS
 10
252.579489
 20
92.486911
 11
274.132268
 21
92.486911
  0
LINE
  8
1
 62
7
  6
CONTINUOUS
 10
254.815646
 20
90.847407
 11
274.069820
 21
90.847407
  0
LINE
  8
1
 62
7
  6
CONTINUOUS
 10
256.189803
 20
88.712680
 11
274.069820
 21
88.712680
  0
LINE
  8
1
 62
7
  6
CONTINUOUS
 10
279.599852
 20
111.177957
 11
274.114409
 21
111.177957
  0
LINE
  8
1
 62
7
  6
CONTINUOUS
 10
279.599852
 20
112.248857
 11
279.599852
 21
111.177957
  0
LINE
  8
1
 62
7
  6
CONTINUOUS
 10
274.114409
 20
112.248857
 11
279.599852
 21
112.248857
  0
LINE
  8
1
 62
7
  6
CONTINUOUS
 10
274.078668
 20
112.733789
 11
274.078668
 21
110.607389
  0
LINE
  8
1
 62
7
  6
CONTINUOUS
 10
279.684668
 20
117.734357
 11
274.092168
 21
117.734357
  0
LINE
  8
1
 62
7
  6
CONTINUOUS
 10
279.684668
 20
118.805257
 11
279.684668
 21
117.734357
  0
LINE
  8
1
 62
7
  6
CONTINUOUS
 10
274.092168
 20
118.805257
 11
279.684668
 21
118.805257
  0
LINE
  8
1
 62
7
  6
CONTINUOUS
 10
274.068325
 20
119.317977
 11
274.068325
 21
117.160317
  0
LINE
  8
1
 62
7
  6
CONTINUOUS
 10
279.599852
 20
124.545561
 11
274.114409
 21
124.545561
  0
LINE
  8
1
 62
7
  6
CONTINUOUS
 10
279.599852
 20
125.616461
 11
279.599852
 21
124.545561
  0
LINE
  8
1
 62
7
  6
CONTINUOUS
 10
274.114409
 20
125.616461
 11
279.599852
 21
125.616461
  0
LINE
  8
1
 62
7
  6
CONTINUOUS
 10
274.078657
 20
126.089371
 11
274.078657
 21
123.950561
  0
LINE
  8
1
 62
7
  6
CONTINUOUS
 10
255.009918
 20
126.051880
 11
274.094784
 21
126.051880
  0
LINE
  8
1
 62
7
  6
CONTINUOUS
 10
274.098711
 20
123.913070
 11
252.311351
 21
123.913070
  0
LINE
  8
1
 62
7
  6
CONTINUOUS
 10
253.801869
 20
119.280486
 11
274.069820
 21
119.280486
  0
LINE
  8
1
 62
7
  6
CONTINUOUS
 10
257.123652
 20
117.122826
 11
274.069820
 21
117.122826
  0
LINE
  8
1
 62
7
  6
CONTINUOUS
 10
259.812848
 20
112.696298
 11
274.069820
 21
112.696298
  0
LINE
  8
1
 62
7
  6
CONTINUOUS
 10
274.069820
 20
110.569898
 11
258.359334
 21
110.569898
  0
LINE
  8
1
 62
7
  6
CONTINUOUS
 10
252.528571
 20
103.897604
 11
252.439463
 21
103.837616
  0
LINE
  8
1
 62
7
  6
CONTINUOUS
 10
252.439463
 20
103.837616
 11
252.174668
 21
103.659301
  0
LINE
  8
1
 62
7
  6
CONTINUOUS
 10
252.174668
 20
103.659301
 11
251.742254
 21
103.367617
  0
LINE
  8
1
 62
7
  6
CONTINUOUS
 10
251.742254
 20
103.367617
 11
251.157072
 21
102.970857
  0
LINE
  8
1
 62
7
  6
CONTINUOUS
 10
251.157072
 20
102.970857
 11
250.442182
 21
102.480633
  0
LINE
  8
1
 62
7
  6
CONTINUOUS
 10
250.442182
 20
102.480633
 11
249.629718
 21
101.911718
  0
LINE
  8
1
 62
7
  6
CONTINUOUS
 10
249.629718
 20
101.911718
 11
248.760452
 21
101.281694
  0
LINE
  8
1
 62
7
  6
CONTINUOUS
 10
248.760452
 20
101.281694
 11
247.881583
 21
100.610353
  0
LINE
  8
1
 62
7
  6
CONTINUOUS
 10
247.881583
 20
100.610353
 11
247.042715
 21
99.918849
  0
LINE
  8
1
 62
7
  6
CONTINUOUS
 10
247.042715
 20
99.918849
 11
246.290474
 21
99.228680
  0
LINE
  8
1
 62
7
  6
CONTINUOUS
 10
246.290474
 20
99.228680
 11
245.662650
 21
98.560586
  0
LINE
  8
1
 62
7
  6
CONTINUOUS
 10
245.662650
 20
98.560586
 11
245.182999
 21
97.933527
  0
LINE
  8
1
 62
7
  6
CONTINUOUS
 10
245.182999
 20
97.933527
 11
244.857865
 21
97.363860
  0
LINE
  8
1
 62
7
  6
CONTINUOUS
 10
244.857865
 20
97.363860
 11
244.675480
 21
96.864835
  0
LINE
  8
1
 62
7
  6
CONTINUOUS
 10
244.675480
 20
96.864835
 11
244.608338
 21
96.446461
  0
LINE
  8
1
 62
7
  6
CONTINUOUS
 10
244.608338
 20
96.446461
 11
244.618379
 21
96.115725
  0
LINE
  8
1
 62
7
  6
CONTINUOUS
 10
244.618379
 20
96.115725
 11
244.664162
 21
95.877083
  0
LINE
  8
1
 62
7
  6
CONTINUOUS
 10
244.664162
 20
95.877083
 11
244.708717
 21
95.733082
  0
LINE
  8
1
 62
7
  6
CONTINUOUS
 10
244.708717
 20
95.733082
 11
244.726590
 21
95.684962
  0
LINE
  8
1
 62
7
  6
CONTINUOUS
 10
244.726590
 20
95.684962
 11
244.745927
 21
95.637003
  0
LINE
  8
1
 62
7
  6
CONTINUOUS
 10
244.745927
 20
95.637003
 11
244.811889
 21
95.495369
  0
LINE
  8
1
 62
7
  6
CONTINUOUS
 10
244.811889
 20
95.495369
 11
244.946061
 21
95.266457
  0
LINE
  8
1
 62
7
  6
CONTINUOUS
 10
244.946061
 20
95.266457
 11
245.177417
 21
94.959911
  0
LINE
  8
1
 62
7
  6
CONTINUOUS
 10
245.177417
 20
94.959911
 11
245.533642
 21
94.587356
  0
LINE
  8
1
 62
7
  6
CONTINUOUS
 10
245.533642
 20
94.587356
 11
246.032142
 21
94.161057
  0
LINE
  8
1
 62
7
  6
CONTINUOUS
 10
246.032142
 20
94.161057
 11
246.673002
 21
93.692828
  0
LINE
  8
1
 62
7
  6
CONTINUOUS
 10
246.673002
 20
93.692828
 11
247.435643
 21
93.193414
  0
LINE
  8
1
 62
7
  6
CONTINUOUS
 10
247.435643
 20
93.193414
 11
248.280105
 21
92.672478
  0
LINE
  8
1
 62
7
  6
CONTINUOUS
 10
248.280105
 20
92.672478
 11
249.152730
 21
92.139132
  0
LINE
  8
1
 62
7
  6
CONTINUOUS
 10
249.152730
 20
92.139132
 11
249.994997
 21
91.602835
  0
LINE
  8
1
 62
7
  6
CONTINUOUS
 10
249.994997
 20
91.602835
 11
250.753486
 21
91.074365
  0
LINE
  8
1
 62
7
  6
CONTINUOUS
 10
250.753486
 20
91.074365
 11
251.388687
 21
90.566531
  0
LINE
  8
1
 62
7
  6
CONTINUOUS
 10
251.388687
 20
90.566531
 11
251.880635
 21
90.094372
  0
LINE
  8
1
 62
7
  6
CONTINUOUS
 10
251.880635
 20
90.094372
 11
252.230124
 21
89.674671
  0
LINE
  8
1
 62
7
  6
CONTINUOUS
 10
252.230124
 20
89.674671
 11
252.455290
 21
89.324802
  0
LINE
  8
1
 62
7
  6
CONTINUOUS
 10
252.455290
 20
89.324802
 11
252.584489
 21
89.061084
  0
LINE
  8
1
 62
7
  6
CONTINUOUS
 10
252.584489
 20
89.061084
 11
252.647234
 21
88.896934
  0
LINE
  8
1
 62
7
  6
CONTINUOUS
 10
252.647234
 20
88.896934
 11
252.665458
 21
88.841189
  0
LINE
  8
1
 62
7
  6
CONTINUOUS
 10
252.665458
 20
88.841189
 11
252.682204
 21
88.785175
  0
LINE
  8
1
 62
7
  6
CONTINUOUS
 10
252.682204
 20
88.785175
 11
252.723317
 21
88.617085
  0
LINE
  8
1
 62
7
  6
CONTINUOUS
 10
252.723317
 20
88.617085
 11
252.763186
 21
88.337051
  0
LINE
  8
1
 62
7
  6
CONTINUOUS
 10
252.763186
 20
88.337051
 11
252.764630
 21
87.946150
  0
LINE
  8
1
 62
7
  6
CONTINUOUS
 10
252.764630
 20
87.946150
 11
252.686015
 21
87.447481
  0
LINE
  8
1
 62
7
  6
CONTINUOUS
 10
252.686015
 20
87.447481
 11
252.489181
 21
86.847319
  0
LINE
  8
1
 62
7
  6
CONTINUOUS
 10
252.489181
 20
86.847319
 11
252.146674
 21
86.156068
  0
LINE
  8
1
 62
7
  6
CONTINUOUS
 10
252.146674
 20
86.156068
 11
251.646989
 21
85.388792
  0
LINE
  8
1
 62
7
  6
CONTINUOUS
 10
251.646989
 20
85.388792
 11
250.996945
 21
84.565181
  0
LINE
  8
1
 62
7
  6
CONTINUOUS
 10
250.996945
 20
84.565181
 11
250.220974
 21
83.708921
  0
LINE
  8
1
 62
7
  6
CONTINUOUS
 10
250.220974
 20
83.708921
 11
249.357691
 21
82.846541
  0
LINE
  8
1
 62
7
  6
CONTINUOUS
 10
249.357691
 20
82.846541
 11
248.454636
 21
82.005925
  0
LINE
  8
1
 62
7
  6
CONTINUOUS
 10
248.454636
 20
82.005925
 11
247.562340
 21
81.214712
  0
LINE
  8
1
 62
7
  6
CONTINUOUS
 10
247.562340
 20
81.214712
 11
246.728874
 21
80.498800
  0
LINE
  8
1
 62
7
  6
CONTINUOUS
 10
246.728874
 20
80.498800
 11
245.995775
 21
79.881135
  0
LINE
  8
1
 62
7
  6
CONTINUOUS
 10
245.995775
 20
79.881135
 11
245.395806
 21
79.380887
  0
LINE
  8
1
 62
7
  6
CONTINUOUS
 10
245.395806
 20
79.380887
 11
244.952506
 21
79.013005
  0
LINE
  8
1
 62
7
  6
CONTINUOUS
 10
244.952506
 20
79.013005
 11
244.681051
 21
78.788085
  0
LINE
  8
1
 62
7
  6
CONTINUOUS
 10
244.681051
 20
78.788085
 11
244.589703
 21
78.712417
  0
LINE
  8
1
 62
7
  6
CONTINUOUS
 10
255.955716
 20
104.035749
 11
255.866608
 21
103.975761
  0
LINE
  8
1
 62
7
  6
CONTINUOUS
 10
255.866608
 20
103.975761
 11
255.601813
 21
103.797446
  0
LINE
  8
1
 62
7
  6
CONTINUOUS
 10
255.601813
 20
103.797446
 11
255.169399
 21
103.505761
  0
LINE
  8
1
 62
7
  6
CONTINUOUS
 10
255.169399
 20
103.505761
 11
254.584217
 21
103.109002
  0
LINE
  8
1
 62
7
  6
CONTINUOUS
 10
254.584217
 20
103.109002
 11
253.869326
 21
102.618778
  0
LINE
  8
1
 62
7
  6
CONTINUOUS
 10
253.869326
 20
102.618778
 11
253.056863
 21
102.049863
  0
LINE
  8
1
 62
7
  6
CONTINUOUS
 10
253.056863
 20
102.049863
 11
252.187597
 21
101.419839
  0
LINE
  8
1
 62
7
  6
CONTINUOUS
 10
252.187597
 20
101.419839
 11
251.308728
 21
100.748498
  0
LINE
  8
1
 62
7
  6
CONTINUOUS
 10
251.308728
 20
100.748498
 11
250.469860
 21
100.056994
  0
LINE
  8
1
 62
7
  6
CONTINUOUS
 10
250.469860
 20
100.056994
 11
249.717619
 21
99.366824
  0
LINE
  8
1
 62
7
  6
CONTINUOUS
 10
249.717619
 20
99.366824
 11
249.089795
 21
98.698730
  0
LINE
  8
1
 62
7
  6
CONTINUOUS
 10
249.089795
 20
98.698730
 11
248.610144
 21
98.071671
  0
LINE
  8
1
 62
7
  6
CONTINUOUS
 10
248.610144
 20
98.071671
 11
248.285010
 21
97.502004
  0
LINE
  8
1
 62
7
  6
CONTINUOUS
 10
248.285010
 20
97.502004
 11
248.102625
 21
97.002979
  0
LINE
  8
1
 62
7
  6
CONTINUOUS
 10
248.102625
 20
97.002979
 11
248.035483
 21
96.584606
  0
LINE
  8
1
 62
7
  6
CONTINUOUS
 10
248.035483
 20
96.584606
 11
248.045524
 21
96.253870
  0
LINE
  8
1
 62
7
  6
CONTINUOUS
 10
248.045524
 20
96.253870
 11
248.091307
 21
96.015228
  0
LINE
  8
1
 62
7
  6
CONTINUOUS
 10
248.091307
 20
96.015228
 11
248.135862
 21
95.871227
  0
LINE
  8
1
 62
7
  6
CONTINUOUS
 10
248.135862
 20
95.871227
 11
248.153735
 21
95.823107
  0
LINE
  8
1
 62
7
  6
CONTINUOUS
 10
248.153735
 20
95.823107
 11
248.173072
 21
95.775148
  0
LINE
  8
1
 62
7
  6
CONTINUOUS
 10
248.173072
 20
95.775148
 11
248.239034
 21
95.633514
  0
LINE
  8
1
 62
7
  6
CONTINUOUS
 10
248.239034
 20
95.633514
 11
248.373206
 21
95.404602
  0
LINE
  8
1
 62
7
  6
CONTINUOUS
 10
248.373206
 20
95.404602
 11
248.604562
 21
95.098056
  0
LINE
  8
1
 62
7
  6
CONTINUOUS
 10
248.604562
 20
95.098056
 11
248.960787
 21
94.725500
  0
LINE
  8
1
 62
7
  6
CONTINUOUS
 10
248.960787
 20
94.725500
 11
249.459287
 21
94.299202
  0
LINE
  8
1
 62
7
  6
CONTINUOUS
 10
249.459287
 20
94.299202
 11
250.100147
 21
93.830973
  0
LINE
  8
1
 62
7
  6
CONTINUOUS
 10
250.100147
 20
93.830973
 11
250.862788
 21
93.331559
  0
LINE
  8
1
 62
7
  6
CONTINUOUS
 10
250.862788
 20
93.331559
 11
251.707250
 21
92.810623
  0
LINE
  8
1
 62
7
  6
CONTINUOUS
 10
251.707250
 20
92.810623
 11
252.579875
 21
92.277277
  0
LINE
  8
1
 62
7
  6
CONTINUOUS
 10
252.579875
 20
92.277277
 11
253.422142
 21
91.740980
  0
LINE
  8
1
 62
7
  6
CONTINUOUS
 10
253.422142
 20
91.740980
 11
254.180631
 21
91.212509
  0
LINE
  8
1
 62
7
  6
CONTINUOUS
 10
254.180631
 20
91.212509
 11
254.815832
 21
90.704676
  0
LINE
  8
1
 62
7
  6
CONTINUOUS
 10
254.815832
 20
90.704676
 11
255.307780
 21
90.232517
  0
LINE
  8
1
 62
7
  6
CONTINUOUS
 10
255.307780
 20
90.232517
 11
255.657269
 21
89.812816
  0
LINE
  8
1
 62
7
  6
CONTINUOUS
 10
255.657269
 20
89.812816
 11
255.882435
 21
89.462947
  0
LINE
  8
1
 62
7
  6
CONTINUOUS
 10
255.882435
 20
89.462947
 11
256.011633
 21
89.199229
  0
LINE
  8
1
 62
7
  6
CONTINUOUS
 10
256.011633
 20
89.199229
 11
256.074378
 21
89.035079
  0
LINE
  8
1
 62
7
  6
CONTINUOUS
 10
256.074378
 20
89.035079
 11
256.092603
 21
88.979334
  0
LINE
  8
1
 62
7
  6
CONTINUOUS
 10
256.092603
 20
88.979334
 11
256.109349
 21
88.923320
  0
LINE
  8
1
 62
7
  6
CONTINUOUS
 10
256.109349
 20
88.923320
 11
256.150462
 21
88.755230
  0
LINE
  8
1
 62
7
  6
CONTINUOUS
 10
256.150462
 20
88.755230
 11
256.190331
 21
88.475196
  0
LINE
  8
1
 62
7
  6
CONTINUOUS
 10
256.190331
 20
88.475196
 11
256.191775
 21
88.084295
  0
LINE
  8
1
 62
7
  6
CONTINUOUS
 10
256.191775
 20
88.084295
 11
256.113160
 21
87.585626
  0
LINE
  8
1
 62
7
  6
CONTINUOUS
 10
256.113160
 20
87.585626
 11
255.916326
 21
86.985464
  0
LINE
  8
1
 62
7
  6
CONTINUOUS
 10
255.916326
 20
86.985464
 11
255.573819
 21
86.294213
  0
LINE
  8
1
 62
7
  6
CONTINUOUS
 10
255.573819
 20
86.294213
 11
255.074134
 21
85.526937
  0
LINE
  8
1
 62
7
  6
CONTINUOUS
 10
255.074134
 20
85.526937
 11
254.424090
 21
84.703326
  0
LINE
  8
1
 62
7
  6
CONTINUOUS
 10
254.424090
 20
84.703326
 11
253.648119
 21
83.847066
  0
LINE
  8
1
 62
7
  6
CONTINUOUS
 10
253.648119
 20
83.847066
 11
252.784836
 21
82.984685
  0
LINE
  8
1
 62
7
  6
CONTINUOUS
 10
252.784836
 20
82.984685
 11
251.881781
 21
82.144070
  0
LINE
  8
1
 62
7
  6
CONTINUOUS
 10
251.881781
 20
82.144070
 11
250.989485
 21
81.352857
  0
LINE
  8
1
 62
7
  6
CONTINUOUS
 10
250.989485
 20
81.352857
 11
250.156019
 21
80.636945
  0
LINE
  8
1
 62
7
  6
CONTINUOUS
 10
250.156019
 20
80.636945
 11
249.422920
 21
80.019280
  0
LINE
  8
1
 62
7
  6
CONTINUOUS
 10
249.422920
 20
80.019280
 11
248.822951
 21
79.519032
  0
LINE
  8
1
 62
7
  6
CONTINUOUS
 10
248.822951
 20
79.519032
 11
248.379651
 21
79.151150
  0
LINE
  8
1
 62
7
  6
CONTINUOUS
 10
248.379651
 20
79.151150
 11
248.108196
 21
78.926229
  0
LINE
  8
1
 62
7
  6
CONTINUOUS
 10
248.108196
 20
78.926229
 11
248.016848
 21
78.850562
  0
LINE
  8
1
 62
7
  6
CONTINUOUS
 10
256.230428
 20
129.468473
 11
256.141320
 21
129.408486
  0
LINE
  8
1
 62
7
  6
CONTINUOUS
 10
256.141320
 20
129.408486
 11
255.876525
 21
129.230171
  0
LINE
  8
1
 62
7
  6
CONTINUOUS
 10
255.876525
 20
129.230171
 11
255.444111
 21
128.938486
  0
LINE
  8
1
 62
7
  6
CONTINUOUS
 10
255.444111
 20
128.938486
 11
254.858928
 21
128.541726
  0
LINE
  8
1
 62
7
  6
CONTINUOUS
 10
254.858928
 20
128.541726
 11
254.144038
 21
128.051502
  0
LINE
  8
1
 62
7
  6
CONTINUOUS
 10
254.144038
 20
128.051502
 11
253.331575
 21
127.482587
  0
LINE
  8
1
 62
7
  6
CONTINUOUS
 10
253.331575
 20
127.482587
 11
252.462309
 21
126.852564
  0
LINE
  8
1
 62
7
  6
CONTINUOUS
 10
252.462309
 20
126.852564
 11
251.583440
 21
126.181222
  0
LINE
  8
1
 62
7
  6
CONTINUOUS
 10
251.583440
 20
126.181222
 11
250.744572
 21
125.489719
  0
LINE
  8
1
 62
7
  6
CONTINUOUS
 10
250.744572
 20
125.489719
 11
249.992331
 21
124.799549
  0
LINE
  8
1
 62
7
  6
CONTINUOUS
 10
249.992331
 20
124.799549
 11
249.364507
 21
124.131455
  0
LINE
  8
1
 62
7
  6
CONTINUOUS
 10
249.364507
 20
124.131455
 11
248.884856
 21
123.504396
  0
LINE
  8
1
 62
7
  6
CONTINUOUS
 10
248.884856
 20
123.504396
 11
248.559722
 21
122.934729
  0
LINE
  8
1
 62
7
  6
CONTINUOUS
 10
248.559722
 20
122.934729
 11
248.377337
 21
122.435704
  0
LINE
  8
1
 62
7
  6
CONTINUOUS
 10
248.377337
 20
122.435704
 11
248.310195
 21
122.017330
  0
LINE
  8
1
 62
7
  6
CONTINUOUS
 10
248.310195
 20
122.017330
 11
248.320235
 21
121.686595
  0
LINE
  8
1
 62
7
  6
CONTINUOUS
 10
248.320235
 20
121.686595
 11
248.366018
 21
121.447953
  0
LINE
  8
1
 62
7
  6
CONTINUOUS
 10
248.366018
 20
121.447953
 11
248.410574
 21
121.303952
  0
LINE
  8
1
 62
7
  6
CONTINUOUS
 10
248.410574
 20
121.303952
 11
248.428447
 21
121.255831
  0
LINE
  8
1
 62
7
  6
CONTINUOUS
 10
248.428447
 20
121.255831
 11
248.447784
 21
121.207873
  0
LINE
  8
1
 62
7
  6
CONTINUOUS
 10
248.447784
 20
121.207873
 11
248.513746
 21
121.066239
  0
LINE
  8
1
 62
7
  6
CONTINUOUS
 10
248.513746
 20
121.066239
 11
248.647917
 21
120.837326
  0
LINE
  8
1
 62
7
  6
CONTINUOUS
 10
248.647917
 20
120.837326
 11
248.879274
 21
120.530780
  0
LINE
  8
1
 62
7
  6
CONTINUOUS
 10
248.879274
 20
120.530780
 11
249.235498
 21
120.158225
  0
LINE
  8
1
 62
7
  6
CONTINUOUS
 10
249.235498
 20
120.158225
 11
249.733999
 21
119.731926
  0
LINE
  8
1
 62
7
  6
CONTINUOUS
 10
249.733999
 20
119.731926
 11
250.374859
 21
119.263697
  0
LINE
  8
1
 62
7
  6
CONTINUOUS
 10
250.374859
 20
119.263697
 11
251.137499
 21
118.764284
  0
LINE
  8
1
 62
7
  6
CONTINUOUS
 10
251.137499
 20
118.764284
 11
251.981961
 21
118.243348
  0
LINE
  8
1
 62
7
  6
CONTINUOUS
 10
251.981961
 20
118.243348
 11
252.854586
 21
117.710001
  0
LINE
  8
1
 62
7
  6
CONTINUOUS
 10
252.854586
 20
117.710001
 11
253.696854
 21
117.173704
  0
LINE
  8
1
 62
7
  6
CONTINUOUS
 10
253.696854
 20
117.173704
 11
254.455343
 21
116.645234
  0
LINE
  8
1
 62
7
  6
CONTINUOUS
 10
254.455343
 20
116.645234
 11
255.090544
 21
116.137401
  0
LINE
  8
1
 62
7
  6
CONTINUOUS
 10
255.090544
 20
116.137401
 11
255.582492
 21
115.665242
  0
LINE
  8
1
 62
7
  6
CONTINUOUS
 10
255.582492
 20
115.665242
 11
255.931980
 21
115.245540
  0
LINE
  8
1
 62
7
  6
CONTINUOUS
 10
255.931980
 20
115.245540
 11
256.157147
 21
114.895671
  0
LINE
  8
1
 62
7
  6
CONTINUOUS
 10
256.157147
 20
114.895671
 11
256.286345
 21
114.631953
  0
LINE
  8
1
 62
7
  6
CONTINUOUS
 10
256.286345
 20
114.631953
 11
256.349090
 21
114.467804
  0
LINE
  8
1
 62
7
  6
CONTINUOUS
 10
256.349090
 20
114.467804
 11
256.367315
 21
114.412059
  0
LINE
  8
1
 62
7
  6
CONTINUOUS
 10
256.367315
 20
114.412059
 11
256.384060
 21
114.356044
  0
LINE
  8
1
 62
7
  6
CONTINUOUS
 10
256.384060
 20
114.356044
 11
256.425174
 21
114.187954
  0
LINE
  8
1
 62
7
  6
CONTINUOUS
 10
256.425174
 20
114.187954
 11
256.465043
 21
113.907921
  0
LINE
  8
1
 62
7
  6
CONTINUOUS
 10
256.465043
 20
113.907921
 11
256.466487
 21
113.517019
  0
LINE
  8
1
 62
7
  6
CONTINUOUS
 10
256.466487
 20
113.517019
 11
256.387872
 21
113.018351
  0
LINE
  8
1
 62
7
  6
CONTINUOUS
 10
256.387872
 20
113.018351
 11
256.191037
 21
112.418189
  0
LINE
  8
1
 62
7
  6
CONTINUOUS
 10
256.191037
 20
112.418189
 11
255.848531
 21
111.726937
  0
LINE
  8
1
 62
7
  6
CONTINUOUS
 10
255.848531
 20
111.726937
 11
255.348846
 21
110.959661
  0
LINE
  8
1
 62
7
  6
CONTINUOUS
 10
255.348846
 20
110.959661
 11
254.698802
 21
110.136051
  0
LINE
  8
1
 62
7
  6
CONTINUOUS
 10
254.698802
 20
110.136051
 11
253.922831
 21
109.279791
  0
LINE
  8
1
 62
7
  6
CONTINUOUS
 10
253.922831
 20
109.279791
 11
253.059548
 21
108.417410
  0
LINE
  8
1
 62
7
  6
CONTINUOUS
 10
253.059548
 20
108.417410
 11
252.156493
 21
107.576794
  0
LINE
  8
1
 62
7
  6
CONTINUOUS
 10
252.156493
 20
107.576794
 11
251.264197
 21
106.785582
  0
LINE
  8
1
 62
7
  6
CONTINUOUS
 10
251.264197
 20
106.785582
 11
250.430731
 21
106.069670
  0
LINE
  8
1
 62
7
  6
CONTINUOUS
 10
250.430731
 20
106.069670
 11
249.697632
 21
105.452005
  0
LINE
  8
1
 62
7
  6
CONTINUOUS
 10
249.697632
 20
105.452005
 11
249.097663
 21
104.951756
  0
LINE
  8
1
 62
7
  6
CONTINUOUS
 10
249.097663
 20
104.951756
 11
248.654362
 21
104.583874
  0
LINE
  8
1
 62
7
  6
CONTINUOUS
 10
248.654362
 20
104.583874
 11
248.382908
 21
104.358954
  0
LINE
  8
1
 62
7
  6
CONTINUOUS
 10
248.382908
 20
104.358954
 11
248.291560
 21
104.283287
  0
LINE
  8
1
 62
7
  6
CONTINUOUS
 10
259.657573
 20
129.606618
 11
259.568465
 21
129.546631
  0
LINE
  8
1
 62
7
  6
CONTINUOUS
 10
259.568465
 20
129.546631
 11
259.303670
 21
129.368316
  0
LINE
  8
1
 62
7
  6
CONTINUOUS
 10
259.303670
 20
129.368316
 11
258.871256
 21
129.076631
  0
LINE
  8
1
 62
7
  6
CONTINUOUS
 10
258.871256
 20
129.076631
 11
258.286073
 21
128.679871
  0
LINE
  8
1
 62
7
  6
CONTINUOUS
 10
258.286073
 20
128.679871
 11
257.571183
 21
128.189647
  0
LINE
  8
1
 62
7
  6
CONTINUOUS
 10
257.571183
 20
128.189647
 11
256.758720
 21
127.620732
  0
LINE
  8
1
 62
7
  6
CONTINUOUS
 10
256.758720
 20
127.620732
 11
255.889454
 21
126.990708
  0
LINE
  8
1
 62
7
  6
CONTINUOUS
 10
255.889454
 20
126.990708
 11
255.010585
 21
126.319367
  0
LINE
  8
1
 62
7
  6
CONTINUOUS
 10
255.010585
 20
126.319367
 11
254.171716
 21
125.627863
  0
LINE
  8
1
 62
7
  6
CONTINUOUS
 10
254.171716
 20
125.627863
 11
253.419476
 21
124.937694
  0
LINE
  8
1
 62
7
  6
CONTINUOUS
 10
253.419476
 20
124.937694
 11
252.791652
 21
124.269600
  0
LINE
  8
1
 62
7
  6
CONTINUOUS
 10
252.791652
 20
124.269600
 11
252.312001
 21
123.642541
  0
LINE
  8
1
 62
7
  6
CONTINUOUS
 10
252.312001
 20
123.642541
 11
251.986867
 21
123.072874
  0
LINE
  8
1
 62
7
  6
CONTINUOUS
 10
251.986867
 20
123.072874
 11
251.804482
 21
122.573849
  0
LINE
  8
1
 62
7
  6
CONTINUOUS
 10
251.804482
 20
122.573849
 11
251.737340
 21
122.155475
  0
LINE
  8
1
 62
7
  6
CONTINUOUS
 10
251.737340
 20
122.155475
 11
251.747380
 21
121.824739
  0
LINE
  8
1
 62
7
  6
CONTINUOUS
 10
251.747380
 20
121.824739
 11
251.793163
 21
121.586098
  0
LINE
  8
1
 62
7
  6
CONTINUOUS
 10
251.793163
 20
121.586098
 11
251.837719
 21
121.442097
  0
LINE
  8
1
 62
7
  6
CONTINUOUS
 10
251.837719
 20
121.442097
 11
251.855592
 21
121.393976
  0
LINE
  8
1
 62
7
  6
CONTINUOUS
 10
251.855592
 20
121.393976
 11
251.874929
 21
121.346017
  0
LINE
  8
1
 62
7
  6
CONTINUOUS
 10
251.874929
 20
121.346017
 11
251.940891
 21
121.204384
  0
LINE
  8
1
 62
7
  6
CONTINUOUS
 10
251.940891
 20
121.204384
 11
252.075062
 21
120.975471
  0
LINE
  8
1
 62
7
  6
CONTINUOUS
 10
252.075062
 20
120.975471
 11
252.306419
 21
120.668925
  0
LINE
  8
1
 62
7
  6
CONTINUOUS
 10
252.306419
 20
120.668925
 11
252.662643
 21
120.296370
  0
LINE
  8
1
 62
7
  6
CONTINUOUS
 10
252.662643
 20
120.296370
 11
253.161144
 21
119.870071
  0
LINE
  8
1
 62
7
  6
CONTINUOUS
 10
253.161144
 20
119.870071
 11
253.802004
 21
119.401842
  0
LINE
  8
1
 62
7
  6
CONTINUOUS
 10
253.802004
 20
119.401842
 11
254.564644
 21
118.902429
  0
LINE
  8
1
 62
7
  6
CONTINUOUS
 10
254.564644
 20
118.902429
 11
255.409106
 21
118.381493
  0
LINE
  8
1
 62
7
  6
CONTINUOUS
 10
255.409106
 20
118.381493
 11
256.281731
 21
117.848146
  0
LINE
  8
1
 62
7
  6
CONTINUOUS
 10
256.281731
 20
117.848146
 11
257.123998
 21
117.311849
  0
LINE
  8
1
 62
7
  6
CONTINUOUS
 10
257.123998
 20
117.311849
 11
257.882488
 21
116.783379
  0
LINE
  8
1
 62
7
  6
CONTINUOUS
 10
257.882488
 20
116.783379
 11
258.517689
 21
116.275545
  0
LINE
  8
1
 62
7
  6
CONTINUOUS
 10
258.517689
 20
116.275545
 11
259.009637
 21
115.803387
  0
LINE
  8
1
 62
7
  6
CONTINUOUS
 10
259.009637
 20
115.803387
 11
259.359125
 21
115.383685
  0
LINE
  8
1
 62
7
  6
CONTINUOUS
 10
259.359125
 20
115.383685
 11
259.584292
 21
115.033816
  0
LINE
  8
1
 62
7
  6
CONTINUOUS
 10
259.584292
 20
115.033816
 11
259.713490
 21
114.770098
  0
LINE
  8
1
 62
7
  6
CONTINUOUS
 10
259.713490
 20
114.770098
 11
259.776235
 21
114.605948
  0
LINE
  8
1
 62
7
  6
CONTINUOUS
 10
259.776235
 20
114.605948
 11
259.794460
 21
114.550203
  0
LINE
  8
1
 62
7
  6
CONTINUOUS
 10
259.794460
 20
114.550203
 11
259.811205
 21
114.494189
  0
LINE
  8
1
 62
7
  6
CONTINUOUS
 10
259.811205
 20
114.494189
 11
259.852319
 21
114.326099
  0
LINE
  8
1
 62
7
  6
CONTINUOUS
 10
259.852319
 20
114.326099
 11
259.892188
 21
114.046065
  0
LINE
  8
1
 62
7
  6
CONTINUOUS
 10
259.892188
 20
114.046065
 11
259.893632
 21
113.655164
  0
LINE
  8
1
 62
7
  6
CONTINUOUS
 10
259.893632
 20
113.655164
 11
259.815017
 21
113.156495
  0
LINE
  8
1
 62
7
  6
CONTINUOUS
 10
259.815017
 20
113.156495
 11
259.618182
 21
112.556334
  0
LINE
  8
1
 62
7
  6
CONTINUOUS
 10
259.618182
 20
112.556334
 11
259.275676
 21
111.865082
  0
LINE
  8
1
 62
7
  6
CONTINUOUS
 10
259.275676
 20
111.865082
 11
258.775991
 21
111.097806
  0
LINE
  8
1
 62
7
  6
CONTINUOUS
 10
258.775991
 20
111.097806
 11
258.125947
 21
110.274196
  0
LINE
  8
1
 62
7
  6
CONTINUOUS
 10
258.125947
 20
110.274196
 11
257.349976
 21
109.417936
  0
LINE
  8
1
 62
7
  6
CONTINUOUS
 10
257.349976
 20
109.417936
 11
256.486693
 21
108.555555
  0
LINE
  8
1
 62
7
  6
CONTINUOUS
 10
256.486693
 20
108.555555
 11
255.583638
 21
107.714939
  0
LINE
  8
1
 62
7
  6
CONTINUOUS
 10
255.583638
 20
107.714939
 11
254.691342
 21
106.923726
  0
LINE
  8
1
 62
7
  6
CONTINUOUS
 10
254.691342
 20
106.923726
 11
253.857876
 21
106.207814
  0
LINE
  8
1
 62
7
  6
CONTINUOUS
 10
253.857876
 20
106.207814
 11
253.124777
 21
105.590150
  0
LINE
  8
1
 62
7
  6
CONTINUOUS
 10
253.124777
 20
105.590150
 11
252.524808
 21
105.089901
  0
LINE
  8
1
 62
7
  6
CONTINUOUS
 10
252.524808
 20
105.089901
 11
252.081507
 21
104.722019
  0
LINE
  8
1
 62
7
  6
CONTINUOUS
 10
252.081507
 20
104.722019
 11
251.810053
 21
104.497099
  0
LINE
  8
1
 62
7
  6
CONTINUOUS
 10
251.810053
 20
104.497099
 11
251.718705
 21
104.421431
  0
LINE
  8
1
 62
7
  6
CONTINUOUS
 10
240.926727
 20
126.051880
 11
251.583596
 21
126.051880
  0
LINE
  8
1
 62
7
  6
CONTINUOUS
 10
240.926727
 20
123.916982
 11
249.364954
 21
123.916982
  0
LINE
  8
1
 62
7
  6
CONTINUOUS
 10
240.926727
 20
119.280486
 11
250.374861
 21
119.280486
  0
LINE
  8
1
 62
7
  6
CONTINUOUS
 10
240.926727
 20
117.122826
 11
253.696877
 21
117.122826
  0
LINE
  8
1
 62
7
  6
CONTINUOUS
 10
240.926727
 20
112.696298
 11
256.191700
 21
112.696298
  0
LINE
  8
1
 62
7
  6
CONTINUOUS
 10
240.926727
 20
110.569898
 11
254.700457
 21
110.569898
  0
LINE
  8
1
 62
7
  6
CONTINUOUS
 10
240.926727
 20
94.629068
 11
245.219737
 21
94.629068
  0
LINE
  8
1
 62
7
  6
CONTINUOUS
 10
240.926727
 20
92.486911
 11
247.959331
 21
92.486911
  0
LINE
  8
1
 62
7
  6
CONTINUOUS
 10
240.926727
 20
90.847407
 11
250.787203
 21
90.847407
  0
LINE
  8
1
 62
7
  6
CONTINUOUS
 10
240.926727
 20
88.712680
 11
252.618206
 21
88.712680
  0
LINE
  8
1
 62
7
  6
CONTINUOUS
 10
217.374727
 20
126.051880
 11
240.926727
 21
126.051880
  0
LINE
  8
1
 62
7
  6
CONTINUOUS
 10
217.374727
 20
123.916982
 11
240.926727
 21
123.916982
  0
LINE
  8
1
 62
7
  6
CONTINUOUS
 10
217.374727
 20
119.280486
 11
240.926727
 21
119.280486
  0
LINE
  8
1
 62
7
  6
CONTINUOUS
 10
217.374727
 20
117.122826
 11
240.926727
 21
117.122826
  0
LINE
  8
1
 62
7
  6
CONTINUOUS
 10
217.374727
 20
112.696298
 11
240.926727
 21
112.696298
  0
LINE
  8
1
 62
7
  6
CONTINUOUS
 10
217.374727
 20
110.569898
 11
240.926727
 21
110.569898
  0
LINE
  8
1
 62
7
  6
CONTINUOUS
 10
217.374727
 20
94.630543
 11
222.547167
 21
94.630543
  0
LINE
  8
1
 62
7
  6
CONTINUOUS
 10
217.374727
 20
92.488385
 11
222.547173
 21
92.488385
  0
LINE
  8
1
 62
7
  6
CONTINUOUS
 10
217.374727
 20
90.848881
 11
222.547438
 21
90.848881
  0
LINE
  8
1
 62
7
  6
CONTINUOUS
 10
217.374727
 20
88.714155
 11
222.554913
 21
88.714155
  0
TEXT
  8
1
 62
7
  6
CONTINUOUS
 10
225.672974
 20
126.999163
 40
3.000000
 41
0.566667
  1
200mm
  7
KANJI
 50
0.000000
 51
0.000000
  0
TEXT
  8
1
 62
7
  6
CONTINUOUS
 10
210.815974
 20
96.904943
 40
3.000000
 41
0.566667
  1
150mm
  7
KANJI
 50
0.000000
 51
0.000000
  0
TEXT
  8
1
 62
7
  6
CONTINUOUS
 10
259.734374
 20
95.161980
 40
3.000000
 41
0.566667
  1
150mm
  7
KANJI
 50
0.000000
 51
0.000000
  0
LINE
  8
1
 62
7
  6
CONTINUOUS
 10
209.076685
 20
128.666198
 11
209.076685
 21
128.250600
  0
LINE
  8
1
 62
7
  6
CONTINUOUS
 10
209.076685
 20
128.992834
 11
209.076685
 21
128.666198
  0
DIMENSION
  8
1
 62
7
  6
CONTINUOUS
  2
*D1
 10
191.195021
 20
218.000000
 11
204.884511
 21
218.500000
 70
     0
  1
(28)
 13
191.195021
 23
182.795187
 14
218.574000
 24
199.992834
 50
0.000000
  0
LINE
  8
1
 62
7
  6
CONTINUOUS
 10
64.336711
 20
152.227800
 11
64.336711
 21
174.883600
  0
LINE
  8
1
 62
7
  6
CONTINUOUS
 10
68.939175
 20
152.227800
 11
64.336711
 21
152.227800
  0
LINE
  8
1
 62
7
  6
CONTINUOUS
 10
64.336711
 20
174.883600
 11
68.843975
 21
174.883600
  0
LINE
  8
1
 62
7
  6
CONTINUOUS
 10
83.901600
 20
137.000420
 11
83.901600
 21
111.586971
  0
LINE
  8
1
 62
7
  6
CONTINUOUS
 10
86.067200
 20
137.000008
 11
86.067200
 21
109.199970
  0
LINE
  8
1
 62
7
  6
CONTINUOUS
 10
88.232800
 20
137.000608
 11
88.232800
 21
108.125058
  0
LINE
  8
1
 62
7
  6
CONTINUOUS
 10
90.398400
 20
137.001720
 11
90.398400
 21
109.116328
  0
LINE
  8
1
 62
7
  6
CONTINUOUS
 10
92.564000
 20
137.000000
 11
92.564000
 21
111.328582
  0
LINE
  8
1
 62
7
  6
CONTINUOUS
 10
94.729600
 20
137.000067
 11
94.729600
 21
113.059840
  0
LINE
  8
1
 62
7
  6
CONTINUOUS
 10
96.895200
 20
137.000063
 11
96.895200
 21
113.109747
  0
LINE
  8
1
 62
7
  6
CONTINUOUS
 10
99.060800
 20
137.000583
 11
99.060800
 21
111.685548
  0
LINE
  8
1
 62
7
  6
CONTINUOUS
 10
101.226400
 20
137.000069
 11
101.226400
 21
109.616228
  0
TEXT
  8
1
 62
7
  6
CONTINUOUS
 10
34.009636
 20
90.452681
 40
3.000000
 41
1.133333
  1
テンキーへ
  7
KANJI
 50
0.000000
 51
0.000000
  0
LINE
  8
1
 62
7
  6
CONTINUOUS
 10
119.766389
 20
67.046389
 11
114.280946
 21
67.046389
  0
LINE
  8
1
 62
7
  6
CONTINUOUS
 10
119.766389
 20
68.117289
 11
119.766389
 21
67.046389
  0
LINE
  8
1
 62
7
  6
CONTINUOUS
 10
114.280946
 20
68.117289
 11
119.766389
 21
68.117289
  0
LINE
  8
1
 62
7
  6
CONTINUOUS
 10
119.790149
 20
73.507589
 11
114.304706
 21
73.507589
  0
LINE
  8
1
 62
7
  6
CONTINUOUS
 10
119.790149
 20
74.578489
 11
119.790149
 21
73.507589
  0
LINE
  8
1
 62
7
  6
CONTINUOUS
 10
114.304706
 20
74.578489
 11
119.790149
 21
74.578489
  0
LINE
  8
1
 62
7
  6
CONTINUOUS
 10
119.742494
 20
79.861689
 11
114.257051
 21
79.861689
  0
LINE
  8
1
 62
7
  6
CONTINUOUS
 10
119.742494
 20
80.932589
 11
119.742494
 21
79.861689
  0
LINE
  8
1
 62
7
  6
CONTINUOUS
 10
114.257051
 20
80.932589
 11
119.742494
 21
80.932589
  0
LINE
  8
1
 62
7
  6
CONTINUOUS
 10
119.742595
 20
86.525189
 11
114.257152
 21
86.525189
  0
LINE
  8
1
 62
7
  6
CONTINUOUS
 10
119.742595
 20
87.596089
 11
119.742595
 21
86.525189
  0
LINE
  8
1
 62
7
  6
CONTINUOUS
 10
114.257152
 20
87.596089
 11
119.742595
 21
87.596089
  0
LINE
  8
1
 62
7
  6
CONTINUOUS
 10
119.742585
 20
92.902989
 11
114.257142
 21
92.902989
  0
LINE
  8
1
 62
7
  6
CONTINUOUS
 10
119.742585
 20
93.973889
 11
119.742585
 21
92.902989
  0
LINE
  8
1
 62
7
  6
CONTINUOUS
 10
114.257142
 20
93.973889
 11
119.742585
 21
93.973889
  0
LINE
  8
1
 62
7
  6
CONTINUOUS
 10
119.837743
 20
99.459389
 11
114.245243
 21
99.459389
  0
LINE
  8
1
 62
7
  6
CONTINUOUS
 10
119.837743
 20
100.530289
 11
119.837743
 21
99.459389
  0
LINE
  8
1
 62
7
  6
CONTINUOUS
 10
114.245243
 20
100.530289
 11
119.837743
 21
100.530289
  0
LINE
  8
1
 62
7
  6
CONTINUOUS
 10
114.221400
 20
66.439589
 11
92.634576
 21
66.439589
  0
LINE
  8
1
 62
7
  6
CONTINUOUS
 10
114.221400
 20
68.616579
 11
114.221400
 21
66.439589
  0
LINE
  8
1
 62
7
  6
CONTINUOUS
 10
92.634576
 20
68.616579
 11
114.221400
 21
68.616579
  0
LINE
  8
1
 62
7
  6
CONTINUOUS
 10
114.221400
 20
72.912589
 11
94.856887
 21
72.912589
  0
LINE
  8
1
 62
7
  6
CONTINUOUS
 10
114.221400
 20
75.133491
 11
114.221400
 21
72.912589
  0
LINE
  8
1
 62
7
  6
CONTINUOUS
 10
94.818781
 20
75.133491
 11
114.221400
 21
75.133491
  0
LINE
  8
1
 62
7
  6
CONTINUOUS
 10
114.221400
 20
79.290489
 11
96.991600
 21
79.290489
  0
LINE
  8
1
 62
7
  6
CONTINUOUS
 10
114.221400
 20
81.446324
 11
114.221400
 21
79.290489
  0
LINE
  8
1
 62
7
  6
CONTINUOUS
 10
96.999266
 20
81.446324
 11
114.221400
 21
81.446324
  0
LINE
  8
1
 62
7
  6
CONTINUOUS
 10
114.221400
 20
101.043010
 11
114.221400
 21
98.885349
  0
LINE
  8
1
 62
7
  6
CONTINUOUS
 10
114.221400
 20
85.930189
 11
99.149677
 21
85.930189
  0
LINE
  8
1
 62
7
  6
CONTINUOUS
 10
114.221400
 20
88.069000
 11
114.221400
 21
85.930189
  0
LINE
  8
1
 62
7
  6
CONTINUOUS
 10
99.149677
 20
88.069000
 11
114.221400
 21
88.069000
  0
LINE
  8
1
 62
7
  6
CONTINUOUS
 10
114.221400
 20
92.332422
 11
101.288572
 21
92.332422
  0
LINE
  8
1
 62
7
  6
CONTINUOUS
 10
114.221400
 20
94.458822
 11
114.221400
 21
92.332422
  0
LINE
  8
1
 62
7
  6
CONTINUOUS
 10
101.307831
 20
94.458822
 11
114.221400
 21
94.458822
  0
LINE
  8
1
 62
7
  6
CONTINUOUS
 10
103.450101
 20
98.885349
 11
114.221400
 21
98.885349
  0
LINE
  8
1
 62
7
  6
CONTINUOUS
 10
103.480392
 20
101.043010
 11
114.102400
 21
101.043010
  0
ARC
  8
1
 62
7
  6
CONTINUOUS
 10
81.694296
 20
99.518753
 40
4.392131
 50
-90.000000
 51
0.000000
  0
LINE
  8
1
 62
7
  6
CONTINUOUS
 10
86.067200
 20
106.337547
 11
86.067200
 21
99.518100
  0
ARC
  8
1
 62
7
  6
CONTINUOUS
 10
81.594029
 20
99.518582
 40
2.257233
 50
-90.000000
 51
0.000000
  0
ARC
  8
1
 62
7
  6
CONTINUOUS
 10
81.647303
 20
103.292984
 40
4.392131
 50
-90.000000
 51
0.000000
  0
ARC
  8
1
 62
7
  6
CONTINUOUS
 10
81.647303
 20
103.292984
 40
2.257233
 50
-90.000000
 51
0.000000
  0
LINE
  8
1
 62
7
  6
CONTINUOUS
 10
88.232800
 20
105.514465
 11
88.232800
 21
70.835758
  0
ARC
  8
1
 62
7
  6
CONTINUOUS
 10
92.634576
 20
70.873811
 40
4.392131
 50
180.000000
 51
-90.000000
  0
ARC
  8
1
 62
7
  6
CONTINUOUS
 10
92.634576
 20
70.873811
 40
2.257233
 50
180.000000
 51
-90.000000
  0
LINE
  8
1
 62
7
  6
CONTINUOUS
 10
90.398400
 20
106.718968
 11
90.398400
 21
70.835572
  0
ARC
  8
1
 62
7
  6
CONTINUOUS
 10
94.818781
 20
77.390724
 40
2.257233
 50
180.000000
 51
-90.000000
  0
ARC
  8
1
 62
7
  6
CONTINUOUS
 10
94.856887
 20
77.395110
 40
4.392131
 50
180.000000
 51
-90.000000
  0
LINE
  8
1
 62
7
  6
CONTINUOUS
 10
92.564000
 20
108.964203
 11
92.564000
 21
77.308680
  0
ARC
  8
1
 62
7
  6
CONTINUOUS
 10
96.999266
 20
83.703557
 40
4.392131
 50
180.000000
 51
-90.000000
  0
ARC
  8
1
 62
7
  6
CONTINUOUS
 10
96.999266
 20
83.703557
 40
2.257233
 50
180.000000
 51
-90.000000
  0
LINE
  8
1
 62
7
  6
CONTINUOUS
 10
94.729600
 20
110.338577
 11
94.729600
 21
83.773584
  0
ARC
  8
1
 62
7
  6
CONTINUOUS
 10
99.149677
 20
90.326233
 40
4.392131
 50
180.000000
 51
-90.000000
  0
ARC
  8
1
 62
7
  6
CONTINUOUS
 10
99.149677
 20
90.326233
 40
2.257233
 50
180.000000
 51
-90.000000
  0
LINE
  8
1
 62
7
  6
CONTINUOUS
 10
96.895200
 20
110.357407
 11
96.895200
 21
90.254437
  0
ARC
  8
1
 62
7
  6
CONTINUOUS
 10
101.288572
 20
96.724553
 40
4.392131
 50
180.000000
 51
-90.000000
  0
ARC
  8
1
 62
7
  6
CONTINUOUS
 10
101.307831
 20
96.716055
 40
2.257233
 50
180.000000
 51
-90.000000
  0
LINE
  8
1
 62
7
  6
CONTINUOUS
 10
99.060800
 20
108.843691
 11
99.060800
 21
96.727030
  0
ARC
  8
1
 62
7
  6
CONTINUOUS
 10
103.480392
 20
103.300243
 40
2.257233
 50
180.000000
 51
-90.000000
  0
ARC
  8
1
 62
7
  6
CONTINUOUS
 10
103.450101
 20
103.277480
 40
4.392131
 50
180.000000
 51
-90.000000
  0
LINE
  8
1
 62
7
  6
CONTINUOUS
 10
101.226400
 20
106.598641
 11
101.226400
 21
103.325065
  0
LINE
  8
1
 62
7
  6
CONTINUOUS
 10
83.901600
 20
108.607958
 11
83.901600
 21
103.325065
  0
LINE
  8
1
 62
7
  6
CONTINUOUS
 10
82.463399
 20
113.508573
 11
82.507349
 21
113.448694
  0
LINE
  8
1
 62
7
  6
CONTINUOUS
 10
82.507349
 20
113.448694
 11
82.637998
 21
113.270754
  0
LINE
  8
1
 62
7
  6
CONTINUOUS
 10
82.637998
 20
113.270754
 11
82.851774
 21
112.980161
  0
LINE
  8
1
 62
7
  6
CONTINUOUS
 10
82.851774
 20
112.980161
 11
83.142808
 21
112.586846
  0
LINE
  8
1
 62
7
  6
CONTINUOUS
 10
83.142808
 20
112.586846
 11
83.503078
 21
112.106193
  0
LINE
  8
1
 62
7
  6
CONTINUOUS
 10
83.503078
 20
112.106193
 11
83.922608
 21
111.559600
  0
LINE
  8
1
 62
7
  6
CONTINUOUS
 10
83.922608
 20
111.559600
 11
84.389735
 21
110.974181
  0
LINE
  8
1
 62
7
  6
CONTINUOUS
 10
84.389735
 20
110.974181
 11
84.891439
 21
110.381310
  0
LINE
  8
1
 62
7
  6
CONTINUOUS
 10
84.891439
 20
110.381310
 11
85.413732
 21
109.813969
  0
LINE
  8
1
 62
7
  6
CONTINUOUS
 10
85.413732
 20
109.813969
 11
85.942088
 21
109.303208
  0
LINE
  8
1
 62
7
  6
CONTINUOUS
 10
85.942088
 20
109.303208
 11
86.461890
 21
108.874286
  0
LINE
  8
1
 62
7
  6
CONTINUOUS
 10
86.461890
 20
108.874286
 11
86.958881
 21
108.543251
  0
LINE
  8
1
 62
7
  6
CONTINUOUS
 10
86.958881
 20
108.543251
 11
87.419585
 21
108.314712
  0
LINE
  8
1
 62
7
  6
CONTINUOUS
 10
87.419585
 20
108.314712
 11
87.831677
 21
108.181370
  0
LINE
  8
1
 62
7
  6
CONTINUOUS
 10
87.831677
 20
108.181370
 11
88.184301
 21
108.125557
  0
LINE
  8
1
 62
7
  6
CONTINUOUS
 10
88.184301
 20
108.125557
 11
88.468309
 21
108.122632
  0
LINE
  8
1
 62
7
  6
CONTINUOUS
 10
88.468309
 20
108.122632
 11
88.676440
 21
108.145676
  0
LINE
  8
1
 62
7
  6
CONTINUOUS
 10
88.676440
 20
108.145676
 11
88.803438
 21
108.170630
  0
LINE
  8
1
 62
7
  6
CONTINUOUS
 10
88.803438
 20
108.170630
 11
88.846125
 21
108.180916
  0
LINE
  8
1
 62
7
  6
CONTINUOUS
 10
88.846125
 20
108.180916
 11
88.888795
 21
108.192163
  0
LINE
  8
1
 62
7
  6
CONTINUOUS
 10
88.888795
 20
108.192163
 11
89.015544
 21
108.231159
  0
LINE
  8
1
 62
7
  6
CONTINUOUS
 10
89.015544
 20
108.231159
 11
89.222670
 21
108.312187
  0
LINE
  8
1
 62
7
  6
CONTINUOUS
 10
89.222670
 20
108.312187
 11
89.504254
 21
108.454482
  0
LINE
  8
1
 62
7
  6
CONTINUOUS
 10
89.504254
 20
108.454482
 11
89.852479
 21
108.676548
  0
LINE
  8
1
 62
7
  6
CONTINUOUS
 10
89.852479
 20
108.676548
 11
90.258000
 21
108.990281
  0
LINE
  8
1
 62
7
  6
CONTINUOUS
 10
90.258000
 20
108.990281
 11
90.710291
 21
109.396334
  0
LINE
  8
1
 62
7
  6
CONTINUOUS
 10
90.710291
 20
109.396334
 11
91.197934
 21
109.881902
  0
LINE
  8
1
 62
7
  6
CONTINUOUS
 10
91.197934
 20
109.881902
 11
91.708813
 21
110.421504
  0
LINE
  8
1
 62
7
  6
CONTINUOUS
 10
91.708813
 20
110.421504
 11
92.230245
 21
110.980641
  0
LINE
  8
1
 62
7
  6
CONTINUOUS
 10
92.230245
 20
110.980641
 11
92.749064
 21
111.521512
  0
LINE
  8
1
 62
7
  6
CONTINUOUS
 10
92.749064
 20
111.521512
 11
93.251726
 21
112.009480
  0
LINE
  8
1
 62
7
  6
CONTINUOUS
 10
93.251726
 20
112.009480
 11
93.724489
 21
112.418804
  0
LINE
  8
1
 62
7
  6
CONTINUOUS
 10
93.724489
 20
112.418804
 11
94.153715
 21
112.736325
  0
LINE
  8
1
 62
7
  6
CONTINUOUS
 10
94.153715
 20
112.736325
 11
94.526310
 21
112.962285
  0
LINE
  8
1
 62
7
  6
CONTINUOUS
 10
94.526310
 20
112.962285
 11
94.830287
 21
113.108158
  0
LINE
  8
1
 62
7
  6
CONTINUOUS
 10
94.830287
 20
113.108158
 11
95.055405
 21
113.192060
  0
LINE
  8
1
 62
7
  6
CONTINUOUS
 10
95.055405
 20
113.192060
 11
95.193793
 21
113.232916
  0
LINE
  8
1
 62
7
  6
CONTINUOUS
 10
95.193793
 20
113.232916
 11
95.240488
 21
113.244806
  0
LINE
  8
1
 62
7
  6
CONTINUOUS
 10
95.240488
 20
113.244806
 11
95.287255
 21
113.255744
  0
LINE
  8
1
 62
7
  6
CONTINUOUS
 10
95.287255
 20
113.255744
 11
95.426705
 21
113.282688
  0
LINE
  8
1
 62
7
  6
CONTINUOUS
 10
95.426705
 20
113.282688
 11
95.656231
 21
113.309150
  0
LINE
  8
1
 62
7
  6
CONTINUOUS
 10
95.656231
 20
113.309150
 11
95.971339
 21
113.311195
  0
LINE
  8
1
 62
7
  6
CONTINUOUS
 10
95.971339
 20
113.311195
 11
96.365468
 21
113.262013
  0
LINE
  8
1
 62
7
  6
CONTINUOUS
 10
96.365468
 20
113.262013
 11
96.829838
 21
113.137025
  0
LINE
  8
1
 62
7
  6
CONTINUOUS
 10
96.829838
 20
113.137025
 11
97.353390
 21
112.918528
  0
LINE
  8
1
 62
7
  6
CONTINUOUS
 10
97.353390
 20
112.918528
 11
97.922860
 21
112.599074
  0
LINE
  8
1
 62
7
  6
CONTINUOUS
 10
97.922860
 20
112.599074
 11
98.523049
 21
112.182996
  0
LINE
  8
1
 62
7
  6
CONTINUOUS
 10
98.523049
 20
112.182996
 11
99.137258
 21
111.685953
  0
LINE
  8
1
 62
7
  6
CONTINUOUS
 10
99.137258
 20
111.685953
 11
99.747879
 21
111.132726
  0
LINE
  8
1
 62
7
  6
CONTINUOUS
 10
99.747879
 20
111.132726
 11
100.337081
 21
110.553836
  0
LINE
  8
1
 62
7
  6
CONTINUOUS
 10
100.337081
 20
110.553836
 11
100.887527
 21
109.981730
  0
LINE
  8
1
 62
7
  6
CONTINUOUS
 10
100.887527
 20
109.981730
 11
101.383041
 21
109.447278
  0
LINE
  8
1
 62
7
  6
CONTINUOUS
 10
101.383041
 20
109.447278
 11
101.809186
 21
108.977151
  0
LINE
  8
1
 62
7
  6
CONTINUOUS
 10
101.809186
 20
108.977151
 11
102.153714
 21
108.592384
  0
LINE
  8
1
 62
7
  6
CONTINUOUS
 10
102.153714
 20
108.592384
 11
102.406876
 21
108.308085
  0
LINE
  8
1
 62
7
  6
CONTINUOUS
 10
102.406876
 20
108.308085
 11
102.561616
 21
108.133994
  0
LINE
  8
1
 62
7
  6
CONTINUOUS
 10
102.561616
 20
108.133994
 11
102.613671
 21
108.075409
  0
LINE
  8
1
 62
7
  6
CONTINUOUS
 10
82.193473
 20
110.868883
 11
82.237423
 21
110.809004
  0
LINE
  8
1
 62
7
  6
CONTINUOUS
 10
82.237423
 20
110.809004
 11
82.368073
 21
110.631063
  0
LINE
  8
1
 62
7
  6
CONTINUOUS
 10
82.368073
 20
110.631063
 11
82.581848
 21
110.340471
  0
LINE
  8
1
 62
7
  6
CONTINUOUS
 10
82.581848
 20
110.340471
 11
82.872882
 21
109.947156
  0
LINE
  8
1
 62
7
  6
CONTINUOUS
 10
82.872882
 20
109.947156
 11
83.233153
 21
109.466503
  0
LINE
  8
1
 62
7
  6
CONTINUOUS
 10
83.233153
 20
109.466503
 11
83.652683
 21
108.919910
  0
LINE
  8
1
 62
7
  6
CONTINUOUS
 10
83.652683
 20
108.919910
 11
84.119809
 21
108.334491
  0
LINE
  8
1
 62
7
  6
CONTINUOUS
 10
84.119809
 20
108.334491
 11
84.621513
 21
107.741620
  0
LINE
  8
1
 62
7
  6
CONTINUOUS
 10
84.621513
 20
107.741620
 11
85.143806
 21
107.174279
  0
LINE
  8
1
 62
7
  6
CONTINUOUS
 10
85.143806
 20
107.174279
 11
85.672162
 21
106.663518
  0
LINE
  8
1
 62
7
  6
CONTINUOUS
 10
85.672162
 20
106.663518
 11
86.191964
 21
106.234596
  0
LINE
  8
1
 62
7
  6
CONTINUOUS
 10
86.191964
 20
106.234596
 11
86.688956
 21
105.903561
  0
LINE
  8
1
 62
7
  6
CONTINUOUS
 10
86.688956
 20
105.903561
 11
87.149659
 21
105.675022
  0
LINE
  8
1
 62
7
  6
CONTINUOUS
 10
87.149659
 20
105.675022
 11
87.561752
 21
105.541680
  0
LINE
  8
1
 62
7
  6
CONTINUOUS
 10
87.561752
 20
105.541680
 11
87.914376
 21
105.485867
  0
LINE
  8
1
 62
7
  6
CONTINUOUS
 10
87.914376
 20
105.485867
 11
88.198384
 21
105.482942
  0
LINE
  8
1
 62
7
  6
CONTINUOUS
 10
88.198384
 20
105.482942
 11
88.406514
 21
105.505985
  0
LINE
  8
1
 62
7
  6
CONTINUOUS
 10
88.406514
 20
105.505985
 11
88.533512
 21
105.530940
  0
LINE
  8
1
 62
7
  6
CONTINUOUS
 10
88.533512
 20
105.530940
 11
88.576199
 21
105.541226
  0
LINE
  8
1
 62
7
  6
CONTINUOUS
 10
88.576199
 20
105.541226
 11
88.618869
 21
105.552473
  0
LINE
  8
1
 62
7
  6
CONTINUOUS
 10
88.618869
 20
105.552473
 11
88.745618
 21
105.591469
  0
LINE
  8
1
 62
7
  6
CONTINUOUS
 10
88.745618
 20
105.591469
 11
88.952745
 21
105.672497
  0
LINE
  8
1
 62
7
  6
CONTINUOUS
 10
88.952745
 20
105.672497
 11
89.234329
 21
105.814791
  0
LINE
  8
1
 62
7
  6
CONTINUOUS
 10
89.234329
 20
105.814791
 11
89.582553
 21
106.036858
  0
LINE
  8
1
 62
7
  6
CONTINUOUS
 10
89.582553
 20
106.036858
 11
89.988074
 21
106.350590
  0
LINE
  8
1
 62
7
  6
CONTINUOUS
 10
89.988074
 20
106.350590
 11
90.440366
 21
106.756644
  0
LINE
  8
1
 62
7
  6
CONTINUOUS
 10
90.440366
 20
106.756644
 11
90.928008
 21
107.242212
  0
LINE
  8
1
 62
7
  6
CONTINUOUS
 10
90.928008
 20
107.242212
 11
91.438887
 21
107.781814
  0
LINE
  8
1
 62
7
  6
CONTINUOUS
 10
91.438887
 20
107.781814
 11
91.960319
 21
108.340951
  0
LINE
  8
1
 62
7
  6
CONTINUOUS
 10
91.960319
 20
108.340951
 11
92.479138
 21
108.881821
  0
LINE
  8
1
 62
7
  6
CONTINUOUS
 10
92.479138
 20
108.881821
 11
92.981800
 21
109.369789
  0
LINE
  8
1
 62
7
  6
CONTINUOUS
 10
92.981800
 20
109.369789
 11
93.454563
 21
109.779114
  0
LINE
  8
1
 62
7
  6
CONTINUOUS
 10
93.454563
 20
109.779114
 11
93.883789
 21
110.096635
  0
LINE
  8
1
 62
7
  6
CONTINUOUS
 10
93.883789
 20
110.096635
 11
94.256384
 21
110.322595
  0
LINE
  8
1
 62
7
  6
CONTINUOUS
 10
94.256384
 20
110.322595
 11
94.560362
 21
110.468467
  0
LINE
  8
1
 62
7
  6
CONTINUOUS
 10
94.560362
 20
110.468467
 11
94.785480
 21
110.552370
  0
LINE
  8
1
 62
7
  6
CONTINUOUS
 10
94.785480
 20
110.552370
 11
94.923867
 21
110.593225
  0
LINE
  8
1
 62
7
  6
CONTINUOUS
 10
94.923867
 20
110.593225
 11
94.970562
 21
110.605116
  0
LINE
  8
1
 62
7
  6
CONTINUOUS
 10
94.970562
 20
110.605116
 11
95.017329
 21
110.616054
  0
LINE
  8
1
 62
7
  6
CONTINUOUS
 10
95.017329
 20
110.616054
 11
95.156779
 21
110.642998
  0
LINE
  8
1
 62
7
  6
CONTINUOUS
 10
95.156779
 20
110.642998
 11
95.386305
 21
110.669460
  0
LINE
  8
1
 62
7
  6
CONTINUOUS
 10
95.386305
 20
110.669460
 11
95.701413
 21
110.671504
  0
LINE
  8
1
 62
7
  6
CONTINUOUS
 10
95.701413
 20
110.671504
 11
96.095542
 21
110.622323
  0
LINE
  8
1
 62
7
  6
CONTINUOUS
 10
96.095542
 20
110.622323
 11
96.559913
 21
110.497334
  0
LINE
  8
1
 62
7
  6
CONTINUOUS
 10
96.559913
 20
110.497334
 11
97.083464
 21
110.278838
  0
LINE
  8
1
 62
7
  6
CONTINUOUS
 10
97.083464
 20
110.278838
 11
97.652934
 21
109.959384
  0
LINE
  8
1
 62
7
  6
CONTINUOUS
 10
97.652934
 20
109.959384
 11
98.253124
 21
109.543306
  0
LINE
  8
1
 62
7
  6
CONTINUOUS
 10
98.253124
 20
109.543306
 11
98.867332
 21
109.046263
  0
LINE
  8
1
 62
7
  6
CONTINUOUS
 10
98.867332
 20
109.046263
 11
99.477953
 21
108.493036
  0
LINE
  8
1
 62
7
  6
CONTINUOUS
 10
99.477953
 20
108.493036
 11
100.067156
 21
107.914146
  0
LINE
  8
1
 62
7
  6
CONTINUOUS
 10
100.067156
 20
107.914146
 11
100.617601
 21
107.342040
  0
LINE
  8
1
 62
7
  6
CONTINUOUS
 10
100.617601
 20
107.342040
 11
101.113115
 21
106.807588
  0
LINE
  8
1
 62
7
  6
CONTINUOUS
 10
101.113115
 20
106.807588
 11
101.539260
 21
106.337461
  0
LINE
  8
1
 62
7
  6
CONTINUOUS
 10
101.539260
 20
106.337461
 11
101.883788
 21
105.952693
  0
LINE
  8
1
 62
7
  6
CONTINUOUS
 10
101.883788
 20
105.952693
 11
102.136950
 21
105.668394
  0
LINE
  8
1
 62
7
  6
CONTINUOUS
 10
102.136950
 20
105.668394
 11
102.291690
 21
105.494303
  0
LINE
  8
1
 62
7
  6
CONTINUOUS
 10
102.291690
 20
105.494303
 11
102.343745
 21
105.435719
  0
LINE
  8
1
 62
7
  6
CONTINUOUS
 10
81.828188
 20
101.043010
 11
76.906813
 21
101.043010
  0
LINE
  8
1
 62
7
  6
CONTINUOUS
 10
81.647303
 20
98.900852
 11
76.906813
 21
98.900852
  0
LINE
  8
1
 62
7
  6
CONTINUOUS
 10
81.594029
 20
97.261349
 11
76.906813
 21
97.261349
  0
LINE
  8
1
 62
7
  6
CONTINUOUS
 10
81.694296
 20
95.126622
 11
76.906813
 21
95.126622
  0
LINE
  8
1
 62
7
  6
CONTINUOUS
 10
60.135600
 20
105.358331
 11
60.135600
 21
90.254706
  0
LINE
  8
1
 62
7
  6
CONTINUOUS
 10
60.135600
 20
90.254706
 11
65.466400
 21
90.254706
  0
LINE
  8
1
 62
7
  6
CONTINUOUS
 10
65.466400
 20
90.254706
 11
65.466400
 21
105.358331
  0
LINE
  8
1
 62
7
  6
CONTINUOUS
 10
65.466400
 20
105.358331
 11
60.135600
 21
105.358331
  0
LINE
  8
1
 62
7
  6
CONTINUOUS
 10
53.567372
 20
103.200671
 11
53.567372
 21
92.412367
  0
LINE
  8
1
 62
7
  6
CONTINUOUS
 10
53.567372
 20
92.412367
 11
60.135672
 21
92.412367
  0
LINE
  8
1
 62
7
  6
CONTINUOUS
 10
60.135672
 20
92.412367
 11
60.135672
 21
103.200671
  0
LINE
  8
1
 62
7
  6
CONTINUOUS
 10
60.135672
 20
103.200671
 11
53.567372
 21
103.200671
  0
LINE
  8
1
 62
7
  6
CONTINUOUS
 10
65.466400
 20
103.200671
 11
65.466400
 21
92.412367
  0
LINE
  8
1
 62
7
  6
CONTINUOUS
 10
65.466400
 20
92.412367
 11
72.034700
 21
92.412367
  0
LINE
  8
1
 62
7
  6
CONTINUOUS
 10
72.034700
 20
92.412367
 11
72.034700
 21
103.200671
  0
LINE
  8
1
 62
7
  6
CONTINUOUS
 10
72.034700
 20
103.200671
 11
65.466400
 21
103.200671
  0
LINE
  8
1
 62
7
  6
CONTINUOUS
 10
76.906813
 20
101.043010
 11
72.034700
 21
101.043010
  0
LINE
  8
1
 62
7
  6
CONTINUOUS
 10
76.906813
 20
98.900852
 11
72.034694
 21
98.900852
  0
LINE
  8
1
 62
7
  6
CONTINUOUS
 10
76.906813
 20
97.261349
 11
72.034429
 21
97.261349
  0
LINE
  8
1
 62
7
  6
CONTINUOUS
 10
76.906813
 20
95.126622
 11
72.026954
 21
95.126622
  0
LINE
  8
1
 62
7
  6
CONTINUOUS
 10
53.651154
 20
101.043010
 11
52.236522
 21
101.043010
  0
LINE
  8
1
 62
7
  6
CONTINUOUS
 10
53.508366
 20
98.900852
 11
52.236522
 21
98.900852
  0
LINE
  8
1
 62
7
  6
CONTINUOUS
 10
53.508366
 20
97.261349
 11
52.236522
 21
97.261349
  0
LINE
  8
1
 62
7
  6
CONTINUOUS
 10
53.508366
 20
95.126622
 11
52.236522
 21
95.126622
  0
LINE
  8
1
 62
7
  6
CONTINUOUS
 10
34.299826
 20
95.604089
 11
38.631026
 21
95.604089
  0
LINE
  8
1
 62
7
  6
CONTINUOUS
 10
34.299826
 20
96.627389
 11
34.299826
 21
95.604089
  0
LINE
  8
1
 62
7
  6
CONTINUOUS
 10
38.631026
 20
96.627389
 11
34.299826
 21
96.627389
  0
LINE
  8
1
 62
7
  6
CONTINUOUS
 10
34.216509
 20
99.411789
 11
38.721109
 21
99.411789
  0
LINE
  8
1
 62
7
  6
CONTINUOUS
 10
34.216509
 20
100.435089
 11
34.216509
 21
99.411789
  0
LINE
  8
1
 62
7
  6
CONTINUOUS
 10
38.721109
 20
100.435089
 11
34.216509
 21
100.435089
  0
LINE
  8
1
 62
7
  6
CONTINUOUS
 10
38.721109
 20
97.261349
 11
38.721109
 21
95.126622
  0
LINE
  8
1
 62
7
  6
CONTINUOUS
 10
38.721109
 20
101.043010
 11
38.721109
 21
98.900852
  0
LINE
  8
1
 62
7
  6
CONTINUOUS
 10
52.236522
 20
101.043010
 11
38.721109
 21
101.043010
  0
LINE
  8
1
 62
7
  6
CONTINUOUS
 10
52.236522
 20
98.900852
 11
38.721109
 21
98.900852
  0
LINE
  8
1
 62
7
  6
CONTINUOUS
 10
52.236522
 20
97.261349
 11
38.721109
 21
97.261349
  0
LINE
  8
1
 62
7
  6
CONTINUOUS
 10
52.236522
 20
95.126622
 11
38.721109
 21
95.126622
  0
LINE
  8
1
 62
7
  6
DASHDOT
 10
76.564000
 20
144.701100
 11
76.564000
 21
139.318574
  0
LINE
  8
1
 62
7
  6
DASHDOT
 10
73.779279
 20
142.000000
 11
79.300813
 21
142.000000
  0
LINE
  8
1
 62
7
  6
DASHDOT
 10
108.564000
 20
144.701100
 11
108.564000
 21
139.318574
  0
LINE
  8
1
 62
7
  6
DASHDOT
 10
105.779279
 20
142.000000
 11
111.300813
 21
142.000000
  0
LINE
  8
1
 62
7
  6
DASHDOT
 10
108.564000
 20
187.701100
 11
108.564000
 21
182.318574
  0
LINE
  8
1
 62
7
  6
DASHDOT
 10
105.779279
 20
185.000000
 11
111.300813
 21
185.000000
  0
LINE
  8
1
 62
7
  6
DASHDOT
 10
76.564000
 20
187.701100
 11
76.564000
 21
182.318574
  0
LINE
  8
1
 62
7
  6
DASHDOT
 10
73.779279
 20
185.000000
 11
79.300813
 21
185.000000
  0
LINE
  8
1
 62
7
  6
CONTINUOUS
 10
71.486088
 20
174.883600
 11
68.174955
 21
174.883600
  0
LINE
  8
1
 62
7
  6
CONTINUOUS
 10
68.079755
 20
152.227800
 11
71.486088
 21
152.227800
  0
LINE
  8
1
 62
7
  6
CONTINUOUS
 10
71.564000
 20
137.000000
 11
71.564000
 21
152.227800
  0
LINE
  8
1
 62
7
  6
CONTINUOUS
 10
113.564000
 20
137.000000
 11
71.564000
 21
137.000000
  0
LINE
  8
1
 62
7
  6
CONTINUOUS
 10
113.564000
 20
190.000000
 11
113.564000
 21
137.000000
  0
LINE
  8
1
 62
7
  6
CONTINUOUS
 10
71.564000
 20
190.000000
 11
113.564000
 21
190.000000
  0
LINE
  8
1
 62
7
  6
CONTINUOUS
 10
71.564000
 20
174.883600
 11
71.564000
 21
190.000000
  0
LINE
  8
1
 62
7
  6
CONTINUOUS
 10
85.391155
 20
178.047448
 11
85.186497
 21
177.826045
  0
CIRCLE
  8
1
 62
7
  6
CONTINUOUS
 10
85.577035
 20
167.958180
 40
4.171834
  0
LINE
  8
1
 62
7
  6
CONTINUOUS
 10
81.186484
 20
163.675458
 11
89.967586
 21
163.675458
  0
LINE
  8
1
 62
7
  6
CONTINUOUS
 10
89.967586
 20
163.675458
 11
89.967586
 21
172.240902
  0
LINE
  8
1
 62
7
  6
CONTINUOUS
 10
89.967586
 20
172.240902
 11
81.186484
 21
172.240902
  0
LINE
  8
1
 62
7
  6
CONTINUOUS
 10
81.186484
 20
172.240902
 11
81.186484
 21
163.675458
  0
CIRCLE
  8
1
 62
7
  6
CONTINUOUS
 10
85.577035
 20
167.958180
 40
2.271129
  0
LINE
  8
1
 62
7
  6
CONTINUOUS
 10
85.468737
 20
169.498196
 11
85.264079
 21
169.276793
  0
LINE
  8
1
 62
7
  6
CONTINUOUS
 10
85.264079
 20
169.276793
 11
84.179205
 21
168.186525
  0
LINE
  8
1
 62
7
  6
CONTINUOUS
 10
84.179205
 20
168.186525
 11
84.987232
 21
168.186525
  0
LINE
  8
1
 62
7
  6
CONTINUOUS
 10
84.987232
 20
168.186525
 11
84.987232
 21
166.509445
  0
LINE
  8
1
 62
7
  6
CONTINUOUS
 10
84.987232
 20
166.509445
 11
86.166062
 21
166.515027
  0
LINE
  8
1
 62
7
  6
CONTINUOUS
 10
86.166062
 20
166.515027
 11
86.166062
 21
168.186525
  0
LINE
  8
1
 62
7
  6
CONTINUOUS
 10
86.166062
 20
168.186525
 11
86.785990
 21
168.186525
  0
LINE
  8
1
 62
7
  6
CONTINUOUS
 10
86.785990
 20
168.186525
 11
85.468737
 21
169.498196
  0
CIRCLE
  8
1
 62
7
  6
CONTINUOUS
 10
85.571306
 20
176.526797
 40
4.171834
  0
LINE
  8
1
 62
7
  6
CONTINUOUS
 10
81.180755
 20
172.244075
 11
89.961857
 21
172.244075
  0
LINE
  8
1
 62
7
  6
CONTINUOUS
 10
89.961857
 20
172.244075
 11
89.961857
 21
180.809519
  0
LINE
  8
1
 62
7
  6
CONTINUOUS
 10
89.961857
 20
180.809519
 11
81.180755
 21
180.809519
  0
LINE
  8
1
 62
7
  6
CONTINUOUS
 10
81.180755
 20
180.809519
 11
81.180755
 21
172.244075
  0
CIRCLE
  8
1
 62
7
  6
CONTINUOUS
 10
85.571306
 20
176.526797
 40
2.271129
  0
LINE
  8
1
 62
7
  6
CONTINUOUS
 10
85.258350
 20
177.845410
 11
84.173476
 21
176.755142
  0
LINE
  8
1
 62
7
  6
CONTINUOUS
 10
84.173476
 20
176.755142
 11
84.981503
 21
176.755142
  0
LINE
  8
1
 62
7
  6
CONTINUOUS
 10
84.981503
 20
176.755142
 11
84.981503
 21
175.078062
  0
LINE
  8
1
 62
7
  6
CONTINUOUS
 10
84.981503
 20
175.078062
 11
86.160333
 21
175.083644
  0
LINE
  8
1
 62
7
  6
CONTINUOUS
 10
86.160333
 20
175.083644
 11
86.160333
 21
176.755142
  0
LINE
  8
1
 62
7
  6
CONTINUOUS
 10
86.160333
 20
176.755142
 11
86.780261
 21
176.755142
  0
LINE
  8
1
 62
7
  6
CONTINUOUS
 10
86.780261
 20
176.755142
 11
85.463008
 21
178.066813
  0
CIRCLE
  8
1
 62
7
  6
CONTINUOUS
 10
85.579000
 20
159.392735
 40
4.171834
  0
LINE
  8
1
 62
7
  6
CONTINUOUS
 10
81.188449
 20
155.110013
 11
89.969550
 21
155.110013
  0
LINE
  8
1
 62
7
  6
CONTINUOUS
 10
89.969550
 20
155.110013
 11
89.969550
 21
163.675458
  0
LINE
  8
1
 62
7
  6
CONTINUOUS
 10
89.969550
 20
163.675458
 11
81.188449
 21
163.675458
  0
LINE
  8
1
 62
7
  6
CONTINUOUS
 10
81.188449
 20
163.675458
 11
81.188449
 21
155.110013
  0
CIRCLE
  8
1
 62
7
  6
CONTINUOUS
 10
85.579000
 20
159.392735
 40
2.271129
  0
LINE
  8
1
 62
7
  6
CONTINUOUS
 10
85.470702
 20
160.932752
 11
85.266044
 21
160.711349
  0
LINE
  8
1
 62
7
  6
CONTINUOUS
 10
85.266044
 20
160.711349
 11
84.181170
 21
159.621080
  0
LINE
  8
1
 62
7
  6
CONTINUOUS
 10
84.181170
 20
159.621080
 11
84.989197
 21
159.621080
  0
LINE
  8
1
 62
7
  6
CONTINUOUS
 10
84.989197
 20
159.621080
 11
84.989197
 21
157.944001
  0
LINE
  8
1
 62
7
  6
CONTINUOUS
 10
84.989197
 20
157.944001
 11
86.168027
 21
157.949583
  0
LINE
  8
1
 62
7
  6
CONTINUOUS
 10
86.168027
 20
157.949583
 11
86.168027
 21
159.621080
  0
LINE
  8
1
 62
7
  6
CONTINUOUS
 10
86.168027
 20
159.621080
 11
86.787955
 21
159.621080
  0
LINE
  8
1
 62
7
  6
CONTINUOUS
 10
86.787955
 20
159.621080
 11
85.470702
 21
160.932752
  0
CIRCLE
  8
1
 62
7
  6
CONTINUOUS
 10
85.561521
 20
150.827291
 40
4.171834
  0
LINE
  8
1
 62
7
  6
CONTINUOUS
 10
81.170970
 20
146.544569
 11
89.952071
 21
146.544569
  0
LINE
  8
1
 62
7
  6
CONTINUOUS
 10
89.952071
 20
146.544569
 11
89.952071
 21
155.110013
  0
LINE
  8
1
 62
7
  6
CONTINUOUS
 10
89.952071
 20
155.110013
 11
81.170970
 21
155.110013
  0
LINE
  8
1
 62
7
  6
CONTINUOUS
 10
81.170970
 20
155.110013
 11
81.170970
 21
146.544569
  0
CIRCLE
  8
1
 62
7
  6
CONTINUOUS
 10
85.561521
 20
150.827291
 40
2.271129
  0
LINE
  8
1
 62
7
  6
CONTINUOUS
 10
85.453222
 20
152.367307
 11
85.248564
 21
152.145905
  0
LINE
  8
1
 62
7
  6
CONTINUOUS
 10
85.248564
 20
152.145905
 11
84.163691
 21
151.055636
  0
LINE
  8
1
 62
7
  6
CONTINUOUS
 10
84.163691
 20
151.055636
 11
84.971718
 21
151.055636
  0
LINE
  8
1
 62
7
  6
CONTINUOUS
 10
84.971718
 20
151.055636
 11
84.971718
 21
149.378557
  0
LINE
  8
1
 62
7
  6
CONTINUOUS
 10
84.971718
 20
149.378557
 11
86.150548
 21
149.384138
  0
LINE
  8
1
 62
7
  6
CONTINUOUS
 10
86.150548
 20
149.384138
 11
86.150548
 21
151.055636
  0
LINE
  8
1
 62
7
  6
CONTINUOUS
 10
86.150548
 20
151.055636
 11
86.770476
 21
151.055636
  0
LINE
  8
1
 62
7
  6
CONTINUOUS
 10
86.770476
 20
151.055636
 11
85.453222
 21
152.367307
  0
LINE
  8
1
 62
7
  6
CONTINUOUS
 10
77.099322
 20
152.227800
 11
77.099322
 21
174.883600
  0
LINE
  8
1
 62
7
  6
CONTINUOUS
 10
75.094810
 20
177.168200
 11
75.094810
 21
174.883600
  0
LINE
  8
1
 62
7
  6
CONTINUOUS
 10
79.626642
 20
177.168200
 11
75.094810
 21
177.168200
  0
LINE
  8
1
 62
7
  6
CONTINUOUS
 10
79.626642
 20
149.943200
 11
79.626642
 21
177.168200
  0
LINE
  8
1
 62
7
  6
CONTINUOUS
 10
75.094810
 20
149.943200
 11
79.626642
 21
149.943200
  0
LINE
  8
1
 62
7
  6
CONTINUOUS
 10
75.094810
 20
152.227800
 11
75.094810
 21
149.943200
  0
CIRCLE
  8
1
 62
7
  6
CONTINUOUS
 10
76.564000
 20
185.000000
 40
1.750000
  0
CIRCLE
  8
1
 62
7
  6
CONTINUOUS
 10
108.564000
 20
185.000000
 40
1.750000
  0
CIRCLE
  8
1
 62
7
  6
CONTINUOUS
 10
108.564000
 20
142.000000
 40
1.750000
  0
CIRCLE
  8
1
 62
7
  6
CONTINUOUS
 10
76.564000
 20
142.000000
 40
1.750000
  0
LINE
  8
1
 62
7
  6
CONTINUOUS
 10
107.064000
 20
177.497389
 11
107.064000
 21
175.997389
  0
LINE
  8
1
 62
7
  6
CONTINUOUS
 10
107.064000
 20
175.997389
 11
110.064000
 21
175.997389
  0
LINE
  8
1
 62
7
  6
CONTINUOUS
 10
110.064000
 20
175.997389
 11
110.064000
 21
177.497389
  0
LINE
  8
1
 62
7
  6
CONTINUOUS
 10
110.064000
 20
177.497389
 11
107.064000
 21
177.497389
  0
LINE
  8
1
 62
7
  6
CONTINUOUS
 10
107.064000
 20
168.897444
 11
107.064000
 21
167.397444
  0
LINE
  8
1
 62
7
  6
CONTINUOUS
 10
107.064000
 20
167.397444
 11
110.064000
 21
167.397444
  0
LINE
  8
1
 62
7
  6
CONTINUOUS
 10
110.064000
 20
167.397444
 11
110.064000
 21
168.897444
  0
LINE
  8
1
 62
7
  6
CONTINUOUS
 10
110.064000
 20
168.897444
 11
107.064000
 21
168.897444
  0
LINE
  8
1
 62
7
  6
CONTINUOUS
 10
107.064000
 20
160.492420
 11
107.064000
 21
158.992420
  0
LINE
  8
1
 62
7
  6
CONTINUOUS
 10
107.064000
 20
158.992420
 11
110.064000
 21
158.992420
  0
LINE
  8
1
 62
7
  6
CONTINUOUS
 10
110.064000
 20
158.992420
 11
110.064000
 21
160.492420
  0
LINE
  8
1
 62
7
  6
CONTINUOUS
 10
110.064000
 20
160.492420
 11
107.064000
 21
160.492420
  0
LINE
  8
1
 62
7
  6
CONTINUOUS
 10
107.064000
 20
151.815885
 11
107.064000
 21
150.315885
  0
LINE
  8
1
 62
7
  6
CONTINUOUS
 10
107.064000
 20
150.315885
 11
110.064000
 21
150.315885
  0
LINE
  8
1
 62
7
  6
CONTINUOUS
 10
110.064000
 20
150.315885
 11
110.064000
 21
151.815885
  0
LINE
  8
1
 62
7
  6
CONTINUOUS
 10
110.064000
 20
151.815885
 11
107.064000
 21
151.815885
  0
LINE
  8
1
 62
7
  6
CONTINUOUS
 10
95.515793
 20
153.784088
 11
95.515793
 21
147.784088
  0
LINE
  8
1
 62
7
  6
CONTINUOUS
 10
95.515793
 20
147.784088
 11
101.515793
 21
147.784088
  0
LINE
  8
1
 62
7
  6
CONTINUOUS
 10
101.515793
 20
147.784088
 11
101.515793
 21
153.784088
  0
LINE
  8
1
 62
7
  6
CONTINUOUS
 10
101.515793
 20
153.784088
 11
95.515793
 21
153.784088
  0
LINE
  8
1
 62
7
  6
CONTINUOUS
 10
95.515793
 20
153.784088
 11
95.515793
 21
147.784088
  0
CIRCLE
  8
1
 62
7
  6
CONTINUOUS
 10
98.515793
 20
150.784088
 40
2.100000
  0
CIRCLE
  8
1
 62
7
  6
CONTINUOUS
 10
98.515793
 20
150.784088
 40
1.900000
  0
TEXT
  8
1
 62
7
  6
CONTINUOUS
 10
105.699686
 20
169.511501
 40
3.000000
 41
1.133333
  1
照合
  7
KANJI
 50
0.000000
 51
0.000000
  0
TEXT
  8
1
 62
7
  6
CONTINUOUS
 10
105.699725
 20
178.150438
 40
3.000000
 41
1.133333
  1
電源
  7
KANJI
 50
0.000000
 51
0.000000
  0
TEXT
  8
1
 62
7
  6
CONTINUOUS
 10
105.699686
 20
161.130199
 40
3.000000
 41
1.133333
  1
解錠
  7
KANJI
 50
0.000000
 51
0.000000
  0
TEXT
  8
1
 62
7
  6
CONTINUOUS
 10
104.088931
 20
152.084196
 40
3.000000
 41
0.566667
  1
ｱﾄﾞﾚｽ
  7
KANJI
 50
0.000000
 51
0.000000
  0
LINE
  8
1
 62
7
  6
CONTINUOUS
 10
97.315793
 20
167.742904
 11
97.315793
 21
165.902904
  0
LINE
  8
1
 62
7
  6
CONTINUOUS
 10
97.315793
 20
165.902904
 11
99.715793
 21
165.902904
  0
LINE
  8
1
 62
7
  6
CONTINUOUS
 10
99.715793
 20
165.902904
 11
99.715793
 21
167.742904
  0
LINE
  8
1
 62
7
  6
CONTINUOUS
 10
97.315793
 20
167.742904
 11
99.715793
 21
167.742904
  0
LINE
  8
1
 62
7
  6
CONTINUOUS
 10
97.315793
 20
165.902904
 11
97.315793
 21
164.062904
  0
LINE
  8
1
 62
7
  6
CONTINUOUS
 10
97.315793
 20
164.062904
 11
99.715793
 21
164.062904
  0
LINE
  8
1
 62
7
  6
CONTINUOUS
 10
99.715793
 20
164.062904
 11
99.715793
 21
165.902904
  0
LINE
  8
1
 62
7
  6
CONTINUOUS
 10
97.315793
 20
165.902904
 11
99.715793
 21
165.902904
  0
LINE
  8
1
 62
7
  6
CONTINUOUS
 10
96.515793
 20
170.130351
 11
96.515793
 21
161.675458
  0
LINE
  8
1
 62
7
  6
CONTINUOUS
 10
96.515793
 20
161.675458
 11
100.515793
 21
161.675458
  0
LINE
  8
1
 62
7
  6
CONTINUOUS
 10
100.515793
 20
161.675458
 11
100.515793
 21
170.130351
  0
LINE
  8
1
 62
7
  6
CONTINUOUS
 10
100.515793
 20
170.130351
 11
96.515793
 21
170.130351
  0
LINE
  8
1
 62
7
  6
CONTINUOUS
 10
77.099322
 20
174.883600
 11
68.174955
 21
174.883600
  0
LINE
  8
1
 62
7
  6
CONTINUOUS
 10
68.174955
 20
152.227800
 11
77.099322
 21
152.227800
  0
LINE
  8
1
 62
7
  6
CONTINUOUS
 10
98.515793
 20
150.784088
 11
116.078256
 21
144.575788
  0
LINE
  8
1
 62
7
  6
CONTINUOUS
 10
116.078256
 20
144.575788
 11
148.200955
 21
144.575788
  0
TEXT
  8
1
 62
7
  6
CONTINUOUS
 10
116.400955
 20
145.480688
 40
3.000000
 41
1.133333
  1
解錠入力切替スイッチ
  7
KANJI
 50
0.000000
 51
0.000000
  0
LINE
  8
1
 62
7
  6
CONTINUOUS
 10
98.515793
 20
150.784088
 11
100.908498
 21
150.597105
  0
LINE
  8
1
 62
7
  6
CONTINUOUS
 10
98.515793
 20
150.784088
 11
100.494445
 21
149.425803
  0
LINE
  8
1
 62
7
  6
CONTINUOUS
 10
86.679711
 20
146.544569
 11
116.294711
 21
123.471000
  0
LINE
  8
1
 62
7
  6
CONTINUOUS
 10
116.294711
 20
123.471000
 11
163.937711
 21
123.471000
  0
TEXT
  8
1
 62
7
  6
CONTINUOUS
 10
116.137711
 20
123.471000
 40
3.000000
 41
1.133333
  1
暗証番号設定ロータリースイッチ
  7
KANJI
 50
0.000000
 51
0.000000
  0
LINE
  8
1
 62
7
  6
CONTINUOUS
 10
86.679711
 20
146.544569
 11
90.363833
 21
144.986608
  0
LINE
  8
1
 62
7
  6
CONTINUOUS
 10
86.679711
 20
146.544569
 11
89.091274
 21
143.353274
  0
TEXT
  8
1
 62
7
  6
CONTINUOUS
 10
125.299771
 20
65.992189
 40
3.000000
 41
1.030303
  1
電源ＤＣ２４Ｖ　(赤)
  7
KANJI
 50
0.000000
 51
0.000000
  0
TEXT
  8
1
 62
7
  6
CONTINUOUS
 10
125.293949
 20
97.967189
 40
3.000000
 41
0.991667
  1
解錠入力　(白)
  7
KANJI
 50
0.000000
 51
0.000000
  0
TEXT
  8
1
 62
7
  6
CONTINUOUS
 10
125.335600
 20
91.684489
 40
3.000000
 41
0.991667
  1
解錠入力　(白)
  7
KANJI
 50
0.000000
 51
0.000000
  0
TEXT
  8
1
 62
7
  6
CONTINUOUS
 10
125.317000
 20
85.287189
 40
3.000000
 41
1.062500
  1
照合出力　(黄）
  7
KANJI
 50
0.000000
 51
0.000000
  0
TEXT
  8
1
 62
7
  6
CONTINUOUS
 10
125.334600
 20
78.547989
 40
3.000000
 41
0.991667
  1
照合出力　(黄)
  7
KANJI
 50
0.000000
 51
0.000000
  0
TEXT
  8
1
 62
7
  6
CONTINUOUS
 10
125.312600
 20
72.141889
 40
3.000000
 41
0.881481
  1
電源0Ｖ　 (黒)
  7
KANJI
 50
0.000000
 51
0.000000
  0
CIRCLE
  8
1
 62
7
  6
CONTINUOUS
 10
67.564000
 20
194.500000
 40
1.600000
  0
CIRCLE
  8
1
 62
7
  6
CONTINUOUS
 10
119.564000
 20
194.500000
 40
1.600000
  0
CIRCLE
  8
1
 62
7
  6
CONTINUOUS
 10
119.564000
 20
132.500000
 40
1.600000
  0
LINE
  8
1
 62
7
  6
CONTINUOUS
 10
122.564000
 20
136.000000
 11
123.564000
 21
135.000000
  0
LINE
  8
1
 62
7
  6
CONTINUOUS
 10
123.564000
 20
130.000000
 11
122.564000
 21
129.000000
  0
LINE
  8
1
 62
7
  6
CONTINUOUS
 10
123.564000
 20
135.000000
 11
123.564000
 21
130.000000
  0
LINE
  8
1
 62
7
  6
CONTINUOUS
 10
122.564000
 20
198.000000
 11
64.564000
 21
198.000000
  0
LINE
  8
1
 62
7
  6
CONTINUOUS
 10
63.564000
 20
197.000000
 11
63.564000
 21
192.000000
  0
LINE
  8
1
 62
7
  6
CONTINUOUS
 10
123.564000
 20
192.000000
 11
122.564000
 21
191.000000
  0
LINE
  8
1
 62
7
  6
CONTINUOUS
 10
122.564000
 20
198.000000
 11
123.564000
 21
197.000000
  0
LINE
  8
1
 62
7
  6
CONTINUOUS
 10
64.564000
 20
198.000000
 11
63.564000
 21
197.000000
  0
LINE
  8
1
 62
7
  6
CONTINUOUS
 10
63.564000
 20
192.000000
 11
64.564000
 21
191.000000
  0
LINE
  8
1
 62
7
  6
CONTINUOUS
 10
123.564000
 20
197.000000
 11
123.564000
 21
192.000000
  0
LINE
  8
1
 62
7
  6
CONTINUOUS
 10
71.564000
 20
189.800000
 11
71.564000
 21
130.000000
  0
LINE
  8
1
 62
7
  6
CONTINUOUS
 10
71.564000
 20
130.000000
 11
72.564000
 21
129.000000
  0
LINE
  8
1
 62
7
  6
CONTINUOUS
 10
72.564000
 20
191.000000
 11
64.564000
 21
191.000000
  0
LINE
  8
1
 62
7
  6
CONTINUOUS
 10
114.564000
 20
198.000000
 11
114.564000
 21
189.800000
  0
LINE
  8
1
 62
7
  6
CONTINUOUS
 10
114.564000
 20
129.000000
 11
114.564000
 21
137.200000
  0
LINE
  8
1
 62
7
  6
CONTINUOUS
 10
115.564000
 20
189.800000
 11
115.564000
 21
137.200000
  0
LINE
  8
1
 62
7
  6
CONTINUOUS
 10
115.564000
 20
137.200000
 11
114.564000
 21
137.200000
  0
LINE
  8
1
 62
7
  6
CONTINUOUS
 10
115.564000
 20
189.800000
 11
114.564000
 21
189.800000
  0
LINE
  8
1
 62
7
  6
CONTINUOUS
 10
114.564000
 20
191.000000
 11
122.564000
 21
191.000000
  0
LINE
  8
1
 62
7
  6
CONTINUOUS
 10
114.564000
 20
136.000000
 11
122.564000
 21
136.000000
  0
LINE
  8
1
 62
7
  6
CONTINUOUS
 10
72.564000
 20
198.000000
 11
72.564000
 21
190.000000
  0
DIMENSION
  8
1
 62
7
  6
CONTINUOUS
  2
*D2
 10
67.564000
 20
208.000000
 11
93.564000
 21
208.500000
 70
     0
  1
52
 13
67.564000
 23
200.000000
 14
119.564000
 24
200.000000
 50
0.000000
  0
DIMENSION
  8
1
 62
7
  6
CONTINUOUS
  2
*D3
 10
63.564000
 20
218.000000
 11
93.564000
 21
218.500000
 70
     0
  1
60
 13
63.564000
 23
199.000000
 14
123.564000
 24
199.000000
 50
0.000000
  0
DIMENSION
  8
1
 62
7
  6
CONTINUOUS
  2
*D4
 10
43.564000
 20
198.000000
 11
43.064000
 21
163.500000
 70
     0
  1
69
 13
62.564000
 23
198.000000
 14
61.564000
 24
129.000000
 50
-90.000000
  0
DIMENSION
  8
1
 62
7
  6
CONTINUOUS
  2
*D5
 10
53.564000
 20
194.500000
 11
53.064000
 21
163.500000
 70
     0
  1
62
 13
61.564000
 23
194.500000
 14
112.564000
 24
132.500000
 50
-90.000000
  0
LINE
  8
1
 62
7
  6
CONTINUOUS
 10
83.901600
 20
129.000000
 11
72.564000
 21
129.000000
  0
LINE
  8
1
 62
7
  6
CONTINUOUS
 10
88.232800
 20
129.000000
 11
86.067200
 21
129.000000
  0
LINE
  8
1
 62
7
  6
CONTINUOUS
 10
122.564000
 20
129.000000
 11
101.226400
 21
129.000000
  0
LINE
  8
1
 62
7
  6
DASHDOT
 10
58.564000
 20
163.500000
 11
128.564000
 21
163.500000
  0
LINE
  8
1
 62
7
  6
DASHDOT
 10
93.564000
 20
203.000000
 11
93.564000
 21
124.000000
  0
LINE
  8
1
 62
7
  6
CONTINUOUS
 10
119.564000
 20
135.500000
 11
119.564000
 21
129.500000
  0
LINE
  8
1
 62
7
  6
CONTINUOUS
 10
116.564000
 20
132.500000
 11
122.564000
 21
132.500000
  0
LINE
  8
1
 62
7
  6
CONTINUOUS
 10
116.564000
 20
194.500000
 11
122.564000
 21
194.500000
  0
LINE
  8
1
 62
7
  6
CONTINUOUS
 10
119.564000
 20
197.500000
 11
119.564000
 21
191.500000
  0
LINE
  8
1
 62
7
  6
CONTINUOUS
 10
67.564000
 20
197.500000
 11
67.564000
 21
191.500000
  0
LINE
  8
1
 62
7
  6
CONTINUOUS
 10
64.564000
 20
194.500000
 11
70.564000
 21
194.500000
  0
LINE
  8
1
 62
7
  6
DASHDOT
 10
98.507000
 20
170.130351
 11
108.448918
 21
188.686000
  0
LINE
  8
1
 62
7
  6
DASHDOT
 10
108.448918
 20
188.686000
 11
165.348918
 21
188.686000
  0
TEXT
  8
1
 62
7
  6
DASHDOT
 10
108.448918
 20
188.686000
 40
3.000000
 41
0.862319
  1
          解錠入力有/無切替スイッチ
  7
KANJI
 50
0.000000
 51
0.000000
  0
LINE
  8
1
 62
7
  6
DASHDOT
 10
98.507000
 20
170.130351
 11
99.419175
 21
174.024955
  0
LINE
  8
1
 62
7
  6
DASHDOT
 10
98.507000
 20
170.130351
 11
101.244269
 21
173.047089
  0
LINE
  8
1
 62
7
  6
CONTINUOUS
 10
110.064000
 20
151.079000
 11
116.727500
 21
157.700881
  0
LINE
  8
1
 62
7
  6
CONTINUOUS
 10
116.727500
 20
157.700881
 11
153.740955
 21
157.700881
  0
TEXT
  8
1
 62
7
  6
CONTINUOUS
 10
117.040955
 20
157.700881
 40
3.000000
 41
1.086111
  1
アドレス設定表示灯(橙）
  7
KANJI
 50
0.000000
 51
0.000000
  0
LINE
  8
1
 62
7
  6
CONTINUOUS
 10
110.064000
 20
151.079000
 11
111.270505
 21
153.153692
  0
LINE
  8
1
 62
7
  6
CONTINUOUS
 10
110.064000
 20
151.079000
 11
112.146210
 21
152.272483
  0
LINE
  8
1
 62
7
  6
CONTINUOUS
 10
110.064000
 20
159.755535
 11
116.727500
 21
166.377416
  0
LINE
  8
1
 62
7
  6
CONTINUOUS
 10
116.727500
 20
166.377416
 11
139.472162
 21
166.377416
  0
TEXT
  8
1
 62
7
  6
CONTINUOUS
 10
117.072162
 20
166.377416
 40
3.000000
 41
0.991667
  1
解錠表示灯(赤)
  7
KANJI
 50
0.000000
 51
0.000000
  0
LINE
  8
1
 62
7
  6
CONTINUOUS
 10
110.064000
 20
159.755535
 11
111.270505
 21
161.830227
  0
LINE
  8
1
 62
7
  6
CONTINUOUS
 10
110.064000
 20
159.755535
 11
112.146210
 21
160.949018
  0
LINE
  8
1
 62
7
  6
CONTINUOUS
 10
110.064000
 20
168.160559
 11
116.727500
 21
174.782439
  0
LINE
  8
1
 62
7
  6
CONTINUOUS
 10
116.727500
 20
174.782439
 11
140.831049
 21
174.782439
  0
TEXT
  8
1
 62
7
  6
CONTINUOUS
 10
116.931049
 20
174.782439
 40
3.000000
 41
1.062500
  1
照合表示灯(緑）
  7
KANJI
 50
0.000000
 51
0.000000
  0
LINE
  8
1
 62
7
  6
CONTINUOUS
 10
110.064000
 20
168.160559
 11
111.270505
 21
170.235250
  0
LINE
  8
1
 62
7
  6
CONTINUOUS
 10
110.064000
 20
168.160559
 11
112.146210
 21
169.354042
  0
LINE
  8
1
 62
7
  6
CONTINUOUS
 10
110.064000
 20
176.760504
 11
116.727500
 21
183.382384
  0
LINE
  8
1
 62
7
  6
CONTINUOUS
 10
116.727500
 20
183.382384
 11
139.286955
 21
183.382384
  0
TEXT
  8
1
 62
7
  6
CONTINUOUS
 10
116.886955
 20
183.382384
 40
3.000000
 41
0.991667
  1
電源表示灯(赤)
  7
KANJI
 50
0.000000
 51
0.000000
  0
LINE
  8
1
 62
7
  6
CONTINUOUS
 10
110.064000
 20
176.760504
 11
111.270505
 21
178.835195
  0
LINE
  8
1
 62
7
  6
CONTINUOUS
 10
110.064000
 20
176.760504
 11
112.146210
 21
177.953987
  0
TEXT
  8
15
 62
96
  6
CONTINUOUS
 10
352.000000
 20
261.250000
 40
3.000000
 41
1.000000
  1
０５０１０９２
  7
KANJI
 50
0.000000
 51
0.000000
  0
ENDSEC
  0
EOF
