  0
SECTION
  2
HEADER
  9
$ACADVER
  1
AC1015
  9
$ACADMAINTVER
 70
     6
  9
$DWGCODEPAGE
  3
DOS932
  9
$INSBASE
 10
0.0
 20
0.0
 30
0.0
  9
$EXTMIN
 10
0.0
 20
0.0
 30
0.0
  9
$EXTMAX
 10
420.0
 20
297.0
 30
0.0
  9
$LIMMIN
 10
0.0
 20
0.0
  9
$LIMMAX
 10
420.0
 20
297.0
  9
$ORTHOMODE
 70
     0
  9
$REGENMODE
 70
     1
  9
$FILLMODE
 70
     1
  9
$QTEXTMODE
 70
     0
  9
$MIRRTEXT
 70
     1
  9
$LTSCALE
 40
0.25
  9
$ATTMODE
 70
     1
  9
$TEXTSIZE
 40
5.0
  9
$TRACEWID
 40
0.05
  9
$TEXTSTYLE
  7
Standard
  9
$CLAYER
  8
0
  9
$CELTYPE
  6
Continuous
  9
$CECOLOR
 62
   256
  9
$CELTSCALE
 40
1.0
  9
$DISPSILH
 70
     0
  9
$DIMSCALE
 40
1.0
  9
$DIMASZ
 40
4.0
  9
$DIMEXO
 40
2.0
  9
$DIMDLI
 40
10.0
  9
$DIMRND
 40
0.0
  9
$DIMDLE
 40
0.0
  9
$DIMEXE
 40
2.0
  9
$DIMTP
 40
0.0
  9
$DIMTM
 40
0.0
  9
$DIMTXT
 40
4.0
  9
$DIMCEN
 40
0.09
  9
$DIMTSZ
 40
0.0
  9
$DIMTOL
 70
     0
  9
$DIMLIM
 70
     0
  9
$DIMTIH
 70
     0
  9
$DIMTOH
 70
     0
  9
$DIMSE1
 70
     0
  9
$DIMSE2
 70
     0
  9
$DIMTAD
 70
     3
  9
$DIMZIN
 70
     0
  9
$DIMBLK
  1

  9
$DIMASO
 70
     1
  9
$DIMSHO
 70
     1
  9
$DIMPOST
  1

  9
$DIMAPOST
  1

  9
$DIMALT
 70
     0
  9
$DIMALTD
 70
     2
  9
$DIMALTF
 40
25.4
  9
$DIMLFAC
 40
1.0
  9
$DIMTOFL
 70
     1
  9
$DIMTVP
 40
0.7
  9
$DIMTIX
 70
     0
  9
$DIMSOXD
 70
     0
  9
$DIMSAH
 70
     0
  9
$DIMBLK1
  1

  9
$DIMBLK2
  1

  9
$DIMSTYLE
  2
Standard
  9
$DIMCLRD
 70
     0
  9
$DIMCLRE
 70
     0
  9
$DIMCLRT
 70
     0
  9
$DIMTFAC
 40
0.5
  9
$DIMGAP
 40
0.0
  9
$DIMJUST
 70
     0
  9
$DIMSD1
 70
     0
  9
$DIMSD2
 70
     0
  9
$DIMTOLJ
 70
     1
  9
$DIMTZIN
 70
     0
  9
$DIMALTZ
 70
     0
  9
$DIMALTTZ
 70
     0
  9
$DIMUPT
 70
     0
  9
$DIMDEC
 70
     2
  9
$DIMTDEC
 70
     4
  9
$DIMALTU
 70
     2
  9
$DIMALTTD
 70
     2
  9
$DIMTXSTY
  7
Standard
  9
$DIMAUNIT
 70
     0
  9
$DIMADEC
 70
     0
  9
$DIMALTRND
 40
0.0
  9
$DIMAZIN
 70
     0
  9
$DIMDSEP
 70
     0
  9
$DIMATFIT
 70
     3
  9
$DIMFRAC
 70
     0
  9
$DIMLDRBLK
  1

  9
$DIMLUNIT
 70
     2
  9
$DIMLWD
 70
     0
  9
$DIMLWE
 70
     0
  9
$DIMTMOVE
 70
     0
  9
$LUNITS
 70
     2
  9
$LUPREC
 70
     4
  9
$SKETCHINC
 40
0.1
  9
$FILLETRAD
 40
0.0
  9
$AUNITS
 70
     0
  9
$AUPREC
 70
     0
  9
$MENU
  1
acad
  9
$ELEVATION
 40
0.0
  9
$PELEVATION
 40
0.0
  9
$THICKNESS
 40
0.0
  9
$LIMCHECK
 70
     0
  9
$CHAMFERA
 40
0.0
  9
$CHAMFERB
 40
0.0
  9
$CHAMFERC
 40
0.0
  9
$CHAMFERD
 40
0.0
  9
$SKPOLY
 70
     0
  9
$TDCREATE
 40
2458788.369629629
  9
$TDUCREATE
 40
0.000000000
  9
$TDUPDATE
 40
2458788.369629629
  9
$TDUUPDATE
 40
0.000000000
  9
$TDINDWG
 40
0.0000000000
  9
$TDUSRTIMER
 40
0.0000000000
  9
$USRTIMER
 70
     1
  9
$ANGBASE
 50
0.0
  9
$ANGDIR
 70
     0
  9
$PDMODE
 70
     0
  9
$PDSIZE
 40
0.0
  9
$PLINEWID
 40
0.0
  9
$SPLFRAME
 70
     0
  9
$SPLINETYPE
 70
     6
  9
$SPLINESEGS
 70
     8
  9
$HANDSEED
  5
3DD
  9
$SURFTAB1
 70
     6
  9
$SURFTAB2
 70
     6
  9
$SURFTYPE
 70
     6
  9
$SURFU
 70
     6
  9
$SURFV
 70
     6
  9
$UCSBASE
  2

  9
$UCSNAME
  2

  9
$UCSORG
 10
0.0
 20
0.0
 30
0.0
  9
$UCSXDIR
 10
1.0
 20
0.0
 30
0.0
  9
$UCSYDIR
 10
0.0
 20
1.0
 30
0.0
  9
$UCSORTHOREF
  2

  9
$UCSORTHOVIEW
 70
     0
  9
$UCSORGTOP
 10
0.0
 20
0.0
 30
0.0
  9
$UCSORGBOTTOM
 10
0.0
 20
0.0
 30
0.0
  9
$UCSORGLEFT
 10
0.0
 20
0.0
 30
0.0
  9
$UCSORGRIGHT
 10
0.0
 20
0.0
 30
0.0
  9
$UCSORGFRONT
 10
0.0
 20
0.0
 30
0.0
  9
$UCSORGBACK
 10
0.0
 20
0.0
 30
0.0
  9
$PUCSBASE
  2

  9
$PUCSNAME
  2

  9
$PUCSORG
 10
0.0
 20
0.0
 30
0.0
  9
$PUCSXDIR
 10
1.0
 20
0.0
 30
0.0
  9
$PUCSYDIR
 10
0.0
 20
1.0
 30
0.0
  9
$PUCSORTHOREF
  2

  9
$PUCSORTHOVIEW
 70
     0
  9
$PUCSORGTOP
 10
0.0
 20
0.0
 30
0.0
  9
$PUCSORGBOTTOM
 10
0.0
 20
0.0
 30
0.0
  9
$PUCSORGLEFT
 10
0.0
 20
0.0
 30
0.0
  9
$PUCSORGRIGHT
 10
0.0
 20
0.0
 30
0.0
  9
$PUCSORGFRONT
 10
0.0
 20
0.0
 30
0.0
  9
$PUCSORGBACK
 10
0.0
 20
0.0
 30
0.0
  9
$USERI1
 70
     0
  9
$USERI2
 70
     0
  9
$USERI3
 70
     0
  9
$USERI4
 70
     0
  9
$USERI5
 70
     0
  9
$USERR1
 40
0.0
  9
$USERR2
 40
0.0
  9
$USERR3
 40
0.0
  9
$USERR4
 40
0.0
  9
$USERR5
 40
0.0
  9
$WORLDVIEW
 70
     1
  9
$SHADEDGE
 70
     3
  9
$SHADEDIF
 70
    70
  9
$TILEMODE
 70
     1
  9
$MAXACTVP
 70
    16
  9
$PINSBASE
 10
0.0
 20
0.0
 30
0.0
  9
$PLIMCHECK
 70
     0
  9
$PEXTMIN
 10
0.0
 20
0.0
 30
0.0
  9
$PEXTMAX
 10
420.0
 20
297.0
 30
0.0
  9
$PLIMMIN
 10
0.0
 20
0.0
  9
$PLIMMAX
 10
420.0
 20
297.0
  9
$UNITMODE
 70
     0
  9
$VISRETAIN
 70
     0
  9
$PLINEGEN
 70
     1
  9
$PSLTSCALE
 70
     0
  9
$TREEDEPTH
 70
  3020
  9
$CMLSTYLE
  2
Standard
  9
$CMLJUST
 70
     0
  9
$CMLSCALE
 40
1.0
  9
$PROXYGRAPHICS
 70
     0
  9
$MEASUREMENT
 70
     0
  9
$CELWEIGHT
370
     0
  9
$ENDCAPS
280
     0
  9
$JOINSTYLE
280
     0
  9
$LWDISPLAY
290
     0
  9
$INSUNITS
 70
     0
  9
$HYPERLINKBASE
  1

  9
$STYLESHEET
  1

  9
$XEDIT
290
     1
  9
$CEPSNTYPE
380
     0
  9
$PSTYLEMODE
290
     1
  9
$FINGERPRINTGUID
  2

  9
$VERSIONGUID
  2

  9
$EXTNAMES
290
     1
  9
$PSVPSCALE
 40
0.0
  0
ENDSEC
  0
SECTION
  2
CLASSES
  0
CLASS
  1
LWPOLYLINE
  2
AcDbPolyline
  3
AutoCAD 2000
 90
    32768
280
     0
281
     1
  0
CLASS
  1
IMAGE
  2
AcDbRasterImage
  3
ISM
 90
    32895
280
     0
281
     1
  0
CLASS
  1
OLE2FRAME
  2
AcDbOle2Frame
  3
AutoCAD 2000
 90
    32768
280
     0
281
     1
  0
CLASS
  1
HATCH
  2
AcDbHatch
  3
AutoCAD 2000
 90
    32768
280
     0
281
     1
  0
CLASS
  1
DICTIONARYVAR
  2
AcDbDictionaryVar
  3
AutoCAD 2000
 90
    32768
280
     0
281
     0
  0
CLASS
  1
RASTERVARIABLES
  2
AcDbRasterVariables
  3
ISM
 90
    32768
280
     0
281
     0
  0
CLASS
  1
IMAGEDEF
  2
AcDbRasterImageDef
  3
ISM
 90
    32768
280
     0
281
     0
  0
CLASS
  1
IMAGEDEF_REACTOR
  2
AcDbRasterImageDefReactor
  3
ISM
 90
    32769
280
     0
281
     0
  0
CLASS
  1
IDBUFFER
  2
AcDbIdBuffer
  3
AutoCAD 2000
 90
    32768
280
     0
281
     0
  0
CLASS
  1
SPATIAL_FILTER
  2
AcDbSpatialFilter
  3
AutoCAD 2000
 90
    32768
280
     0
281
     0
  0
CLASS
  1
XRECORD
  2
AcDbXrecord
  3
AutoCAD 2000
 90
    32768
280
     0
281
     0
  0
CLASS
  1
SORTENTSTABLE
  2
AcDbSortentsTable
  3
AutoCAD 2000
 90
    32768
280
     0
281
     0
  0
CLASS
  1
LAYER_INDEX
  2
AcDbLayerIndex
  3
AutoCAD 2000
 90
    32768
280
     0
281
     0
  0
CLASS
  1
SPATIAL_INDEX
  2
AcDbSpatialIndex
  3
AutoCAD 2000
 90
    32768
280
     0
281
     0
  0
CLASS
  1
OBJECT_PTR
  2
CAseDLPNTableRecord
  3
"ASE-LPNTableRecord"
 90
    32769
280
     0
281
     0
  0
CLASS
  1
LAYOUT
  2
AcDbLayout
  3
AutoCAD 2000
 90
        0
280
     0
281
     0
  0
CLASS
  1
PLOTSETTINGS
  2
AcDbPlotSettings
  3
AutoCAD 2000
 90
    32768
280
     0
281
     0
  0
CLASS
  1
ACDBDICTIONARYWDFLT
  2
AcDbDictionaryWithDefault
  3
AutoCAD 2000
 90
        0
280
     0
281
     0
  0
CLASS
  1
ACDBPLACEHOLDER
  2
AcDbPlaceHolder
  3
AutoCAD 2000
 90
        0
280
     0
281
     0
  0
CLASS
  1
VBA_PROJECT
  2
AcDbVbaProject
  3
acadvba
 90
    32768
280
     0
281
     0
  0
CLASS
  1
WIPEOUT
  2
AcDbWipeout
  3
WipeOut|AutoCAD Express Tool|expresstools@autodesk.com
 90
    32895
280
     0
281
     1
  0
CLASS
  1
WIPEOUTVARIABLES
  2
AcDbWipeoutVariables
  3
WipeOut|AutoCAD Express Tool|expresstools@autodesk.com
 90
        0
280
     0
281
     0
  0
CLASS
  1
RTEXT
  2
RText
  3
RText|AutoCAD Express Tool|expresstools@autodesk.com
 90
    32768
280
     0
281
     1
  0
CLASS
  1
ARCALIGNEDTEXT
  2
AcDbArcAlignedText
  3
ATEXT|AutoCAD Express Tool|expresstools@autodesk.com
 90
    32768
280
     0
281
     1
  0
ENDSEC
  0
SECTION
  2
TABLES
  0
TABLE
  2
VPORT
  5
7
100
AcDbSymbolTable
 70
     1
  0
VPORT
  5
15
100
AcDbSymbolTableRecord
100
AcDbViewportTableRecord
  2
*ACTIVE
 70
     0
 10
0.0
 20
0.0
 11
1.0
 21
1.0
 12
6.591288
 22
4.579184
 13
0.0
 23
0.0
 14
1.0
 24
1.0
 15
0.0
 25
0.0
 16
0.0
 26
0.0
 36
1.0
 17
0.0
 27
0.0
 37
0.0
 40
9.158369
 41
0.688564
 42
50.0
 43
0.0
 44
0.0
 50
0.0
 51
0.0
 71
     0
 72
   100
 73
     1
 74
     1
 75
     0
 76
     0
 77
     0
 78
     0
281
     0
 65
     0
110
0.0
120
0.0
130
0.0
111
1.0
121
0.0
131
0.0
112
0.0
122
1.0
132
0.0
345
0
346
0
 79
     0
146
0.0
  0
ENDTAB
  0
TABLE
  2
LTYPE
  5
4
100
AcDbSymbolTable
 70
     9
  0
LTYPE
  5
11
100
AcDbSymbolTableRecord
100
AcDbLinetypeTableRecord
  2
ByBlock
 70
    64
  3

 72
    65
 73
     0
 40
0.0
  0
LTYPE
  5
12
100
AcDbSymbolTableRecord
100
AcDbLinetypeTableRecord
  2
ByLayer
 70
    64
  3

 72
    65
 73
     0
 40
0.0
  0
LTYPE
  5
13
100
AcDbSymbolTableRecord
100
AcDbLinetypeTableRecord
  2
Continuous
 70
    64
  3
Solid line
 72
    65
 73
     0
 40
0.0
  0
LTYPE
  5
25
100
AcDbSymbolTableRecord
100
AcDbLinetypeTableRecord
  2
HIDDEN
 70
    64
  3
- - - - - - - - 
 72
    65
 73
     2
 40
12.6
 49
8.4
 74
     0
 49
-4.2
 74
     0
  0
LTYPE
  5
26
100
AcDbSymbolTableRecord
100
AcDbLinetypeTableRecord
  2
DOT
 70
    64
  3
･ ･ ･ ･ ･ ･ ･ ･ 
 72
    65
 73
     2
 40
8.0
 49
6.0
 74
     0
 49
-2.0
 74
     0
  0
LTYPE
  5
27
100
AcDbSymbolTableRecord
100
AcDbLinetypeTableRecord
  2
CENTER
 70
    64
  3
- ･ - ･ - ･ - ･ 
 72
    65
 73
     4
 40
50.5
 49
30.0
 74
     0
 49
-9.0
 74
     0
 49
2.5
 74
     0
 49
-9.0
 74
     0
  0
LTYPE
  5
28
100
AcDbSymbolTableRecord
100
AcDbLinetypeTableRecord
  2
PHANTOM
 70
    64
  3
- ･･ - ･･ - ･･ - ･･ 
 72
    65
 73
     6
 40
58.0
 49
30.0
 74
     0
 49
-9.0
 74
     0
 49
2.5
 74
     0
 49
-5.0
 74
     0
 49
2.5
 74
     0
 49
-9.0
 74
     0
  0
LTYPE
  5
29
100
AcDbSymbolTableRecord
100
AcDbLinetypeTableRecord
  2
ACAD_ISO06W100
 70
    64
  3
____ ... ____ ... ____
 72
    65
 73
     8
 40
37.5
 49
24.0
 74
     0
 49
-3.0
 74
     0
 49
0.5
 74
     0
 49
-3.0
 74
     0
 49
0.5
 74
     0
 49
-3.0
 74
     0
 49
0.5
 74
     0
 49
-3.0
 74
     0
  0
LTYPE
  5
2A
100
AcDbSymbolTableRecord
100
AcDbLinetypeTableRecord
  2
ACAD_ISO14W100
 70
    64
  3
__ . . . __ . . . __ . . . 
 72
    65
 73
     8
 40
25.5
 49
12.0
 74
     0
 49
-3.0
 74
     0
 49
0.5
 74
     0
 49
-3.0
 74
     0
 49
0.5
 74
     0
 49
-3.0
 74
     0
 49
0.5
 74
     0
 49
-3.0
 74
     0
  0
ENDTAB
  0
TABLE
  2
LAYER
  5
2
100
AcDbSymbolTable
 70
    31
  0
LAYER
  5
14
100
AcDbSymbolTableRecord
100
AcDbLayerTableRecord
  2
0
 70
     0
 62
     7
  6
Continuous
290
     1
370
    -3
390
1D
  0
LAYER
  5
2B
100
AcDbSymbolTableRecord
100
AcDbLayerTableRecord
  2
1
 70
     0
 62
     7
  6
Continuous
290
     1
370
    -3
390
1D
  0
LAYER
  5
2C
100
AcDbSymbolTableRecord
100
AcDbLayerTableRecord
  2
2
 70
     0
 62
   214
  6
Continuous
290
     1
370
    -3
390
1D
  0
LAYER
  5
2D
100
AcDbSymbolTableRecord
100
AcDbLayerTableRecord
  2
3
 70
     0
 62
     5
  6
Continuous
290
     1
370
    -3
390
1D
  0
LAYER
  5
2E
100
AcDbSymbolTableRecord
100
AcDbLayerTableRecord
  2
4
 70
     0
 62
    54
  6
Continuous
290
     1
370
    -3
390
1D
  0
LAYER
  5
2F
100
AcDbSymbolTableRecord
100
AcDbLayerTableRecord
  2
5
 70
     0
 62
    94
  6
Continuous
290
     1
370
    -3
390
1D
  0
LAYER
  5
30
100
AcDbSymbolTableRecord
100
AcDbLayerTableRecord
  2
6
 70
     0
 62
    14
  6
Continuous
290
     1
370
    -3
390
1D
  0
LAYER
  5
31
100
AcDbSymbolTableRecord
100
AcDbLayerTableRecord
  2
7
 70
     0
 62
     4
  6
Continuous
290
     1
370
    -3
390
1D
  0
LAYER
  5
32
100
AcDbSymbolTableRecord
100
AcDbLayerTableRecord
  2
8
 70
     0
 62
     6
  6
Continuous
290
     1
370
    -3
390
1D
  0
LAYER
  5
33
100
AcDbSymbolTableRecord
100
AcDbLayerTableRecord
  2
9
 70
     0
 62
     2
  6
Continuous
290
     1
370
    -3
390
1D
  0
LAYER
  5
34
100
AcDbSymbolTableRecord
100
AcDbLayerTableRecord
  2
10
 70
     0
 62
     3
  6
Continuous
290
     1
370
    -3
390
1D
  0
LAYER
  5
35
100
AcDbSymbolTableRecord
100
AcDbLayerTableRecord
  2
11
 70
     0
 62
   251
  6
Continuous
290
     1
370
    -3
390
1D
  0
LAYER
  5
36
100
AcDbSymbolTableRecord
100
AcDbLayerTableRecord
  2
12
 70
     0
 62
   136
  6
Continuous
290
     1
370
    -3
390
1D
  0
LAYER
  5
37
100
AcDbSymbolTableRecord
100
AcDbLayerTableRecord
  2
13
 70
     0
 62
     7
  6
Continuous
290
     1
370
    -3
390
1D
  0
LAYER
  5
38
100
AcDbSymbolTableRecord
100
AcDbLayerTableRecord
  2
14
 70
     0
 62
    56
  6
Continuous
290
     1
370
    -3
390
1D
  0
LAYER
  5
39
100
AcDbSymbolTableRecord
100
AcDbLayerTableRecord
  2
15
 70
     0
 62
    96
  6
Continuous
290
     1
370
    -3
390
1D
  0
LAYER
  5
3A
100
AcDbSymbolTableRecord
100
AcDbLayerTableRecord
  2
16
 70
     0
 62
    16
  6
Continuous
290
     1
370
    -3
390
1D
  0
LAYER
  5
3B
100
AcDbSymbolTableRecord
100
AcDbLayerTableRecord
  2
17
 70
     0
 62
   132
  6
Continuous
290
     1
370
    -3
390
1D
  0
LAYER
  5
3C
100
AcDbSymbolTableRecord
100
AcDbLayerTableRecord
  2
18
 70
     0
 62
   212
  6
Continuous
290
     1
370
    -3
390
1D
  0
LAYER
  5
3D
100
AcDbSymbolTableRecord
100
AcDbLayerTableRecord
  2
19
 70
     0
 62
    52
  6
Continuous
290
     1
370
    -3
390
1D
  0
LAYER
  5
3E
100
AcDbSymbolTableRecord
100
AcDbLayerTableRecord
  2
20
 70
     0
 62
   250
  6
Continuous
290
     1
370
    -3
390
1D
  0
LAYER
  5
3F
100
AcDbSymbolTableRecord
100
AcDbLayerTableRecord
  2
22
 70
     0
 62
     7
  6
Continuous
290
     1
370
    -3
390
1D
  0
LAYER
  5
40
100
AcDbSymbolTableRecord
100
AcDbLayerTableRecord
  2
24
 70
     0
 62
     7
  6
Continuous
290
     1
370
    -3
390
1D
  0
LAYER
  5
41
100
AcDbSymbolTableRecord
100
AcDbLayerTableRecord
  2
25
 70
     0
 62
     7
  6
Continuous
290
     1
370
    -3
390
1D
  0
LAYER
  5
42
100
AcDbSymbolTableRecord
100
AcDbLayerTableRecord
  2
128
 70
     0
 62
     7
  6
Continuous
290
     1
370
    -3
390
1D
  0
LAYER
  5
43
100
AcDbSymbolTableRecord
100
AcDbLayerTableRecord
  2
129
 70
     0
 62
     7
  6
Continuous
290
     1
370
    -3
390
1D
  0
LAYER
  5
44
100
AcDbSymbolTableRecord
100
AcDbLayerTableRecord
  2
130
 70
     0
 62
     7
  6
Continuous
290
     1
370
    -3
390
1D
  0
LAYER
  5
45
100
AcDbSymbolTableRecord
100
AcDbLayerTableRecord
  2
131
 70
     0
 62
     7
  6
Continuous
290
     1
370
    -3
390
1D
  0
LAYER
  5
46
100
AcDbSymbolTableRecord
100
AcDbLayerTableRecord
  2
258
 70
     0
 62
     7
  6
Continuous
290
     1
370
    -3
390
1D
  0
LAYER
  5
47
100
AcDbSymbolTableRecord
100
AcDbLayerTableRecord
  2
260
 70
     0
 62
     7
  6
Continuous
290
     1
370
    -3
390
1D
  0
LAYER
  5
48
100
AcDbSymbolTableRecord
100
AcDbLayerTableRecord
  2
261
 70
     0
 62
     5
  6
Continuous
290
     1
370
    -3
390
1D
  0
ENDTAB
  0
TABLE
  2
STYLE
  5
3
100
AcDbSymbolTable
 70
     2
  0
STYLE
  5
17
100
AcDbSymbolTableRecord
100
AcDbTextStyleTableRecord
  2
Standard
 70
     0
 40
0.0
 41
1.0
 50
0.0
 71
     0
 42
0.0
  3
txt
  4
bigfont
  0
STYLE
  5
24
100
AcDbSymbolTableRecord
100
AcDbTextStyleTableRecord
  2
T_STANDARD
 70
    68
 40
10.0
 41
1.0
 50
0.0
 71
     0
 42
10.0
  3
txt
  4
bigfont
  0
ENDTAB
  0
TABLE
  2
VIEW
  5
5
100
AcDbSymbolTable
 70
     0
  0
ENDTAB
  0
TABLE
  2
UCS
  5
6
100
AcDbSymbolTable
 70
     0
  0
ENDTAB
  0
TABLE
  2
APPID
  5
8
100
AcDbSymbolTable
 70
     1
  0
APPID
  5
16
100
AcDbSymbolTableRecord
100
AcDbRegAppTableRecord
  2
ACAD
 70
     0
  0
ENDTAB
  0
TABLE
  2
DIMSTYLE
  5
9
100
AcDbSymbolTable
 70
     1
100
AcDbDimStyleTable
 71
     0
  0
DIMSTYLE
105
18
100
AcDbSymbolTableRecord
100
AcDbDimStyleTableRecord
  2
Standard
 70
     0
  3

  4

 40
1.0
 41
0.18
 42
0.0625
 43
0.38
 44
0.18
 45
0.0
 46
0.0
 47
0.0
 48
0.0
 71
     0
 72
     0
 73
     1
 74
     1
 75
     0
 76
     0
 77
     0
 78
     0
 79
     0
140
0.18
141
0.09
142
0.0
143
25.4
144
1.0
145
0.0
146
1.0
147
0.09
148
0.0
170
     0
171
     2
172
     0
173
     0
174
     0
175
     0
176
     0
177
     0
178
     0
179
     0
271
     4
272
     4
273
     2
274
     2
275
     0
276
     0
277
     2
278
    46
279
     0
280
     0
281
     0
282
     0
283
     1
284
     0
285
     0
286
     0
288
     0
340
17
341
0
342
0
343
0
344
0
371
    -2
372
    -2
  0
ENDTAB
  0
TABLE
  2
BLOCK_RECORD
  5
1
100
AcDbSymbolTable
 70
    25
  0
BLOCK_RECORD
  5
A
100
AcDbSymbolTableRecord
100
AcDbBlockTableRecord
  2
*MODEL_SPACE
340
20
  0
BLOCK_RECORD
  5
B
100
AcDbSymbolTableRecord
100
AcDbBlockTableRecord
  2
*PAPER_SPACE
340
21
  0
BLOCK_RECORD
  5
49
100
AcDbSymbolTableRecord
100
AcDbBlockTableRecord
  2
*G0
340
0
102
{BLKREFS
331
4C
102
}
  0
BLOCK_RECORD
  5
70
100
AcDbSymbolTableRecord
100
AcDbBlockTableRecord
  2
*G1
340
0
102
{BLKREFS
331
74
102
}
  0
BLOCK_RECORD
  5
A7
100
AcDbSymbolTableRecord
100
AcDbBlockTableRecord
  2
*G2
340
0
102
{BLKREFS
331
AE
102
}
  0
BLOCK_RECORD
  5
B2
100
AcDbSymbolTableRecord
100
AcDbBlockTableRecord
  2
*G3
340
0
102
{BLKREFS
331
B9
102
}
  0
BLOCK_RECORD
  5
BA
100
AcDbSymbolTableRecord
100
AcDbBlockTableRecord
  2
*G4
340
0
102
{BLKREFS
331
C1
102
}
  0
BLOCK_RECORD
  5
C2
100
AcDbSymbolTableRecord
100
AcDbBlockTableRecord
  2
*G5
340
0
102
{BLKREFS
331
C9
102
}
  0
BLOCK_RECORD
  5
CA
100
AcDbSymbolTableRecord
100
AcDbBlockTableRecord
  2
*G6
340
0
102
{BLKREFS
331
D1
102
}
  0
BLOCK_RECORD
  5
D2
100
AcDbSymbolTableRecord
100
AcDbBlockTableRecord
  2
*G7
340
0
102
{BLKREFS
331
D9
102
}
  0
BLOCK_RECORD
  5
305
100
AcDbSymbolTableRecord
100
AcDbBlockTableRecord
  2
*D8
340
0
  0
BLOCK_RECORD
  5
311
100
AcDbSymbolTableRecord
100
AcDbBlockTableRecord
  2
*D9
340
0
  0
BLOCK_RECORD
  5
31D
100
AcDbSymbolTableRecord
100
AcDbBlockTableRecord
  2
*D10
340
0
  0
BLOCK_RECORD
  5
329
100
AcDbSymbolTableRecord
100
AcDbBlockTableRecord
  2
*D11
340
0
  0
BLOCK_RECORD
  5
335
100
AcDbSymbolTableRecord
100
AcDbBlockTableRecord
  2
*D12
340
0
  0
BLOCK_RECORD
  5
341
100
AcDbSymbolTableRecord
100
AcDbBlockTableRecord
  2
*D13
340
0
  0
BLOCK_RECORD
  5
34D
100
AcDbSymbolTableRecord
100
AcDbBlockTableRecord
  2
*D14
340
0
  0
BLOCK_RECORD
  5
359
100
AcDbSymbolTableRecord
100
AcDbBlockTableRecord
  2
*D15
340
0
  0
BLOCK_RECORD
  5
37C
100
AcDbSymbolTableRecord
100
AcDbBlockTableRecord
  2
*G16
340
0
102
{BLKREFS
331
383
102
}
  0
BLOCK_RECORD
  5
384
100
AcDbSymbolTableRecord
100
AcDbBlockTableRecord
  2
*G17
340
0
102
{BLKREFS
331
38B
102
}
  0
BLOCK_RECORD
  5
38C
100
AcDbSymbolTableRecord
100
AcDbBlockTableRecord
  2
*G18
340
0
102
{BLKREFS
331
393
102
}
  0
BLOCK_RECORD
  5
3A8
100
AcDbSymbolTableRecord
100
AcDbBlockTableRecord
  2
*G19
340
0
102
{BLKREFS
331
3AF
102
}
  0
BLOCK_RECORD
  5
3B0
100
AcDbSymbolTableRecord
100
AcDbBlockTableRecord
  2
*G20
340
0
102
{BLKREFS
331
3B7
102
}
  0
BLOCK_RECORD
  5
3B8
100
AcDbSymbolTableRecord
100
AcDbBlockTableRecord
  2
*G21
340
0
102
{BLKREFS
331
3BF
102
}
  0
BLOCK_RECORD
  5
3C0
100
AcDbSymbolTableRecord
100
AcDbBlockTableRecord
  2
*G22
340
0
102
{BLKREFS
331
3C7
102
}
  0
BLOCK_RECORD
  5
3C8
100
AcDbSymbolTableRecord
100
AcDbBlockTableRecord
  2
*G23
340
0
102
{BLKREFS
331
3CF
102
}
  0
BLOCK_RECORD
  5
3D3
100
AcDbSymbolTableRecord
100
AcDbBlockTableRecord
  2
*G24
340
0
102
{BLKREFS
331
3DA
102
}
  0
ENDTAB
  0
ENDSEC
  0
SECTION
  2
BLOCKS
  0
BLOCK
  5
D
100
AcDbEntity
  8
0
100
AcDbBlockBegin
  2
*MODEL_SPACE
 70
     0
 10
0.0
 20
0.0
 30
0.0
  3
*MODEL_SPACE
  1

  0
ENDBLK
  5
E
100
AcDbEntity
  8
0
100
AcDbBlockEnd
  0
BLOCK
  5
F
100
AcDbEntity
 67
     1
  8
0
100
AcDbBlockBegin
  2
*PAPER_SPACE
 70
     0
 10
0.0
 20
0.0
 30
0.0
  3
*PAPER_SPACE
  1

  0
ENDBLK
  5
10
100
AcDbEntity
 67
     1
  8
0
100
AcDbBlockEnd
  0
BLOCK
  5
4A
100
AcDbEntity
  8
0
370
     9
  6
Continuous
 62
     7
100
AcDbBlockBegin
  2
*G0
 70
     0
 10
0.0
 20
0.0
 30
0.0
  3
*G0
  1

  0
ENDBLK
  5
4B
100
AcDbEntity
  8
0
100
AcDbBlockEnd
  0
BLOCK
  5
71
100
AcDbEntity
  8
0
370
     9
  6
Continuous
 62
    96
100
AcDbBlockBegin
  2
*G1
 70
     0
 10
0.0
 20
0.0
 30
0.0
  3
*G1
  1

  0
LINE
  5
72
100
AcDbEntity
  8
15
370
     9
  6
Continuous
 62
    96
100
AcDbLine
 10
324.343916
 20
25.745666
 30
0.0
 11
324.610571
 21
25.745666
 31
0.0
  0
ENDBLK
  5
73
100
AcDbEntity
  8
0
100
AcDbBlockEnd
  0
BLOCK
  5
A8
100
AcDbEntity
  8
0
370
     9
  6
Continuous
 62
     7
100
AcDbBlockBegin
  2
*G2
 70
     0
 10
0.0
 20
0.0
 30
0.0
  3
*G2
  1

  0
LINE
  5
A9
100
AcDbEntity
  8
1
370
     9
  6
Continuous
 62
     7
100
AcDbLine
 10
138.480802
 20
170.760199
 30
0.0
 11
214.480802
 21
170.760199
 31
0.0
  0
LINE
  5
AA
100
AcDbEntity
  8
1
370
     9
  6
Continuous
 62
     7
100
AcDbLine
 10
214.480802
 20
170.760199
 30
0.0
 11
214.480802
 21
131.760199
 31
0.0
  0
LINE
  5
AB
100
AcDbEntity
  8
1
370
     9
  6
Continuous
 62
     7
100
AcDbLine
 10
214.480802
 20
131.760199
 30
0.0
 11
138.480802
 21
131.760199
 31
0.0
  0
LINE
  5
AC
100
AcDbEntity
  8
1
370
     9
  6
Continuous
 62
     7
100
AcDbLine
 10
138.480802
 20
131.760199
 30
0.0
 11
138.480802
 21
170.760199
 31
0.0
  0
ENDBLK
  5
AD
100
AcDbEntity
  8
0
100
AcDbBlockEnd
  0
BLOCK
  5
B3
100
AcDbEntity
  8
0
370
     9
  6
Continuous
 62
     7
100
AcDbBlockBegin
  2
*G3
 70
     0
 10
0.0
 20
0.0
 30
0.0
  3
*G3
  1

  0
LINE
  5
B4
100
AcDbEntity
  8
1
370
     9
  6
Continuous
 62
     7
100
AcDbLine
 10
180.480802
 20
148.760199
 30
0.0
 11
206.480802
 21
148.760199
 31
0.0
  0
LINE
  5
B5
100
AcDbEntity
  8
1
370
     9
  6
Continuous
 62
     7
100
AcDbLine
 10
206.480802
 20
148.760199
 30
0.0
 11
206.480802
 21
136.760199
 31
0.0
  0
LINE
  5
B6
100
AcDbEntity
  8
1
370
     9
  6
Continuous
 62
     7
100
AcDbLine
 10
206.480802
 20
136.760199
 30
0.0
 11
180.480802
 21
136.760199
 31
0.0
  0
LINE
  5
B7
100
AcDbEntity
  8
1
370
     9
  6
Continuous
 62
     7
100
AcDbLine
 10
180.480802
 20
136.760199
 30
0.0
 11
180.480802
 21
148.760199
 31
0.0
  0
ENDBLK
  5
B8
100
AcDbEntity
  8
0
100
AcDbBlockEnd
  0
BLOCK
  5
BB
100
AcDbEntity
  8
0
370
     9
  6
Continuous
 62
     7
100
AcDbBlockBegin
  2
*G4
 70
     0
 10
0.0
 20
0.0
 30
0.0
  3
*G4
  1

  0
LINE
  5
BC
100
AcDbEntity
  8
1
370
     9
  6
Continuous
 62
     7
100
AcDbLine
 10
179.480802
 20
148.760199
 30
0.0
 11
146.480802
 21
148.760199
 31
0.0
  0
LINE
  5
BD
100
AcDbEntity
  8
1
370
     9
  6
Continuous
 62
     7
100
AcDbLine
 10
146.480802
 20
148.760199
 30
0.0
 11
146.480802
 21
136.760199
 31
0.0
  0
LINE
  5
BE
100
AcDbEntity
  8
1
370
     9
  6
Continuous
 62
     7
100
AcDbLine
 10
146.480802
 20
136.760199
 30
0.0
 11
179.480802
 21
136.760199
 31
0.0
  0
LINE
  5
BF
100
AcDbEntity
  8
1
370
     9
  6
Continuous
 62
     7
100
AcDbLine
 10
179.480802
 20
136.760199
 30
0.0
 11
179.480802
 21
148.760199
 31
0.0
  0
ENDBLK
  5
C0
100
AcDbEntity
  8
0
100
AcDbBlockEnd
  0
BLOCK
  5
C3
100
AcDbEntity
  8
0
370
     9
  6
Continuous
 62
     7
100
AcDbBlockBegin
  2
*G5
 70
     0
 10
0.0
 20
0.0
 30
0.0
  3
*G5
  1

  0
LINE
  5
C4
100
AcDbEntity
  8
1
370
     9
  6
Continuous
 62
     7
100
AcDbLine
 10
140.480802
 20
160.760199
 30
0.0
 11
152.680802
 21
160.760199
 31
0.0
  0
LINE
  5
C5
100
AcDbEntity
  8
1
370
     9
  6
Continuous
 62
     7
100
AcDbLine
 10
152.680802
 20
160.760199
 30
0.0
 11
152.680802
 21
153.560199
 31
0.0
  0
LINE
  5
C6
100
AcDbEntity
  8
1
370
     9
  6
Continuous
 62
     7
100
AcDbLine
 10
152.680802
 20
153.560199
 30
0.0
 11
140.480802
 21
153.560199
 31
0.0
  0
LINE
  5
C7
100
AcDbEntity
  8
1
370
     9
  6
Continuous
 62
     7
100
AcDbLine
 10
140.480802
 20
153.560199
 30
0.0
 11
140.480802
 21
160.760199
 31
0.0
  0
ENDBLK
  5
C8
100
AcDbEntity
  8
0
100
AcDbBlockEnd
  0
BLOCK
  5
CB
100
AcDbEntity
  8
0
370
     9
  6
Continuous
 62
     7
100
AcDbBlockBegin
  2
*G6
 70
     0
 10
0.0
 20
0.0
 30
0.0
  3
*G6
  1

  0
LINE
  5
CC
100
AcDbEntity
  8
1
370
     9
  6
Continuous
 62
     7
100
AcDbLine
 10
154.030802
 20
160.760199
 30
0.0
 11
166.230802
 21
160.760199
 31
0.0
  0
LINE
  5
CD
100
AcDbEntity
  8
1
370
     9
  6
Continuous
 62
     7
100
AcDbLine
 10
166.230802
 20
160.760199
 30
0.0
 11
166.230802
 21
153.560199
 31
0.0
  0
LINE
  5
CE
100
AcDbEntity
  8
1
370
     9
  6
Continuous
 62
     7
100
AcDbLine
 10
166.230802
 20
153.560199
 30
0.0
 11
154.030802
 21
153.560199
 31
0.0
  0
LINE
  5
CF
100
AcDbEntity
  8
1
370
     9
  6
Continuous
 62
     7
100
AcDbLine
 10
154.030802
 20
153.560199
 30
0.0
 11
154.030802
 21
160.760199
 31
0.0
  0
ENDBLK
  5
D0
100
AcDbEntity
  8
0
100
AcDbBlockEnd
  0
BLOCK
  5
D3
100
AcDbEntity
  8
0
370
     9
  6
Continuous
 62
     7
100
AcDbBlockBegin
  2
*G7
 70
     0
 10
0.0
 20
0.0
 30
0.0
  3
*G7
  1

  0
LINE
  5
D4
100
AcDbEntity
  8
1
370
     9
  6
Continuous
 62
     7
100
AcDbLine
 10
167.580802
 20
160.760199
 30
0.0
 11
179.780802
 21
160.760199
 31
0.0
  0
LINE
  5
D5
100
AcDbEntity
  8
1
370
     9
  6
Continuous
 62
     7
100
AcDbLine
 10
179.780802
 20
160.760199
 30
0.0
 11
179.780802
 21
153.560199
 31
0.0
  0
LINE
  5
D6
100
AcDbEntity
  8
1
370
     9
  6
Continuous
 62
     7
100
AcDbLine
 10
179.780802
 20
153.560199
 30
0.0
 11
167.580802
 21
153.560199
 31
0.0
  0
LINE
  5
D7
100
AcDbEntity
  8
1
370
     9
  6
Continuous
 62
     7
100
AcDbLine
 10
167.580802
 20
153.560199
 30
0.0
 11
167.580802
 21
160.760199
 31
0.0
  0
ENDBLK
  5
D8
100
AcDbEntity
  8
0
100
AcDbBlockEnd
  0
BLOCK
  5
306
100
AcDbEntity
  8
1
370
     9
  6
Continuous
 62
     7
100
AcDbBlockBegin
  2
*D8
 70
     0
 10
0.0
 20
0.0
 30
0.0
  3
*D8
  1

  0
LINE
  5
307
100
AcDbEntity
  8
1
370
     9
  6
Continuous
 62
     7
100
AcDbLine
 10
136.080802
 20
116.760199
 30
0.0
 11
144.880802
 21
116.760199
 31
0.0
  0
LINE
  5
308
100
AcDbEntity
  8
1
370
     9
  6
Continuous
 62
     7
100
AcDbLine
 10
138.480802
 20
114.760199
 30
0.0
 11
138.480802
 21
129.760199
 31
0.0
  0
LINE
  5
309
100
AcDbEntity
  8
1
370
     9
  6
Continuous
 62
     7
100
AcDbLine
 10
142.480802
 20
114.760199
 30
0.0
 11
142.480802
 21
130.74053
 31
0.0
  0
LINE
  5
30A
100
AcDbEntity
  8
1
370
     9
  6
Continuous
 62
     7
100
AcDbLine
 10
138.480802
 20
116.760199
 30
0.0
 11
136.16258
 21
116.139034
 31
0.0
  0
LINE
  5
30B
100
AcDbEntity
  8
1
370
     9
  6
Continuous
 62
     7
100
AcDbLine
 10
138.480802
 20
116.760199
 30
0.0
 11
136.16258
 21
117.381365
 31
0.0
  0
LINE
  5
30C
100
AcDbEntity
  8
1
370
     9
  6
Continuous
 62
     7
100
AcDbLine
 10
142.480802
 20
116.760199
 30
0.0
 11
144.799024
 21
117.381365
 31
0.0
  0
LINE
  5
30D
100
AcDbEntity
  8
1
370
     9
  6
Continuous
 62
     7
100
AcDbLine
 10
142.480802
 20
116.760199
 30
0.0
 11
144.799024
 21
116.139034
 31
0.0
  0
TEXT
  5
30E
100
AcDbEntity
  8
1
370
     9
  6
Continuous
 62
     7
100
AcDbText
 10
139.730802
 20
117.260199
 30
0.0
 40
3.0
  1
4
 41
0.5
 11
139.730802
 21
117.260199
 31
0.0
100
AcDbText
 73
     1
  0
ENDBLK
  5
30F
100
AcDbEntity
  8
1
370
     9
  6
Continuous
 62
     7
100
AcDbBlockEnd
  0
BLOCK
  5
312
100
AcDbEntity
  8
1
370
     9
  6
Continuous
 62
     7
100
AcDbBlockBegin
  2
*D9
 70
     0
 10
0.0
 20
0.0
 30
0.0
  3
*D9
  1

  0
LINE
  5
313
100
AcDbEntity
  8
1
370
     9
  6
Continuous
 62
     7
100
AcDbLine
 10
142.480802
 20
116.760199
 30
0.0
 11
210.480802
 21
116.760199
 31
0.0
  0
LINE
  5
314
100
AcDbEntity
  8
1
370
     9
  6
Continuous
 62
     7
100
AcDbLine
 10
142.480802
 20
114.760199
 30
0.0
 11
142.480802
 21
131.324176
 31
0.0
  0
LINE
  5
315
100
AcDbEntity
  8
1
370
     9
  6
Continuous
 62
     7
100
AcDbLine
 10
210.480802
 20
114.760199
 30
0.0
 11
210.480802
 21
130.74053
 31
0.0
  0
LINE
  5
316
100
AcDbEntity
  8
1
370
     9
  6
Continuous
 62
     7
100
AcDbLine
 10
142.480802
 20
116.760199
 30
0.0
 11
144.799024
 21
117.381365
 31
0.0
  0
LINE
  5
317
100
AcDbEntity
  8
1
370
     9
  6
Continuous
 62
     7
100
AcDbLine
 10
142.480802
 20
116.760199
 30
0.0
 11
144.799024
 21
116.139034
 31
0.0
  0
LINE
  5
318
100
AcDbEntity
  8
1
370
     9
  6
Continuous
 62
     7
100
AcDbLine
 10
210.480802
 20
116.760199
 30
0.0
 11
208.16258
 21
116.139034
 31
0.0
  0
LINE
  5
319
100
AcDbEntity
  8
1
370
     9
  6
Continuous
 62
     7
100
AcDbLine
 10
210.480802
 20
116.760199
 30
0.0
 11
208.16258
 21
117.381365
 31
0.0
  0
TEXT
  5
31A
100
AcDbEntity
  8
1
370
     9
  6
Continuous
 62
     7
100
AcDbText
 10
174.880802
 20
117.260199
 30
0.0
 40
3.0
  1
68
 41
0.533333
 11
174.880802
 21
117.260199
 31
0.0
100
AcDbText
 73
     1
  0
ENDBLK
  5
31B
100
AcDbEntity
  8
1
370
     9
  6
Continuous
 62
     7
100
AcDbBlockEnd
  0
BLOCK
  5
31E
100
AcDbEntity
  8
1
370
     9
  6
Continuous
 62
     7
100
AcDbBlockBegin
  2
*D10
 70
     0
 10
0.0
 20
0.0
 30
0.0
  3
*D10
  1

  0
LINE
  5
31F
100
AcDbEntity
  8
1
370
     9
  6
Continuous
 62
     7
100
AcDbLine
 10
208.080802
 20
116.760199
 30
0.0
 11
216.880802
 21
116.760199
 31
0.0
  0
LINE
  5
320
100
AcDbEntity
  8
1
370
     9
  6
Continuous
 62
     7
100
AcDbLine
 10
210.480802
 20
114.760199
 30
0.0
 11
210.480802
 21
130.74053
 31
0.0
  0
LINE
  5
321
100
AcDbEntity
  8
1
370
     9
  6
Continuous
 62
     7
100
AcDbLine
 10
214.480802
 20
114.760199
 30
0.0
 11
214.480802
 21
129.760199
 31
0.0
  0
LINE
  5
322
100
AcDbEntity
  8
1
370
     9
  6
Continuous
 62
     7
100
AcDbLine
 10
210.480802
 20
116.760199
 30
0.0
 11
208.16258
 21
116.139034
 31
0.0
  0
LINE
  5
323
100
AcDbEntity
  8
1
370
     9
  6
Continuous
 62
     7
100
AcDbLine
 10
210.480802
 20
116.760199
 30
0.0
 11
208.16258
 21
117.381365
 31
0.0
  0
LINE
  5
324
100
AcDbEntity
  8
1
370
     9
  6
Continuous
 62
     7
100
AcDbLine
 10
214.480802
 20
116.760199
 30
0.0
 11
216.799024
 21
117.381365
 31
0.0
  0
LINE
  5
325
100
AcDbEntity
  8
1
370
     9
  6
Continuous
 62
     7
100
AcDbLine
 10
214.480802
 20
116.760199
 30
0.0
 11
216.799024
 21
116.139034
 31
0.0
  0
TEXT
  5
326
100
AcDbEntity
  8
1
370
     9
  6
Continuous
 62
     7
100
AcDbText
 10
210.030802
 20
117.260199
 30
0.0
 40
3.0
  1
(4)
 41
0.544444
 11
210.030802
 21
117.260199
 31
0.0
100
AcDbText
 73
     1
  0
ENDBLK
  5
327
100
AcDbEntity
  8
1
370
     9
  6
Continuous
 62
     7
100
AcDbBlockEnd
  0
BLOCK
  5
32A
100
AcDbEntity
  8
1
370
     9
  6
Continuous
 62
     7
100
AcDbBlockBegin
  2
*D11
 70
     0
 10
0.0
 20
0.0
 30
0.0
  3
*D11
  1

  0
LINE
  5
32B
100
AcDbEntity
  8
1
370
     9
  6
Continuous
 62
     7
100
AcDbLine
 10
138.480802
 20
101.760199
 30
0.0
 11
214.480802
 21
101.760199
 31
0.0
  0
LINE
  5
32C
100
AcDbEntity
  8
1
370
     9
  6
Continuous
 62
     7
100
AcDbLine
 10
138.480802
 20
99.760199
 30
0.0
 11
138.480802
 21
129.760199
 31
0.0
  0
LINE
  5
32D
100
AcDbEntity
  8
1
370
     9
  6
Continuous
 62
     7
100
AcDbLine
 10
214.480802
 20
99.760199
 30
0.0
 11
214.480802
 21
129.760199
 31
0.0
  0
LINE
  5
32E
100
AcDbEntity
  8
1
370
     9
  6
Continuous
 62
     7
100
AcDbLine
 10
138.480802
 20
101.760199
 30
0.0
 11
140.799024
 21
102.381365
 31
0.0
  0
LINE
  5
32F
100
AcDbEntity
  8
1
370
     9
  6
Continuous
 62
     7
100
AcDbLine
 10
138.480802
 20
101.760199
 30
0.0
 11
140.799024
 21
101.139034
 31
0.0
  0
LINE
  5
330
100
AcDbEntity
  8
1
370
     9
  6
Continuous
 62
     7
100
AcDbLine
 10
214.480802
 20
101.760199
 30
0.0
 11
212.16258
 21
101.139034
 31
0.0
  0
LINE
  5
331
100
AcDbEntity
  8
1
370
     9
  6
Continuous
 62
     7
100
AcDbLine
 10
214.480802
 20
101.760199
 30
0.0
 11
212.16258
 21
102.381365
 31
0.0
  0
TEXT
  5
332
100
AcDbEntity
  8
1
370
     9
  6
Continuous
 62
     7
100
AcDbText
 10
174.880802
 20
102.260199
 30
0.0
 40
3.0
  1
76
 41
0.533333
 11
174.880802
 21
102.260199
 31
0.0
100
AcDbText
 73
     1
  0
ENDBLK
  5
333
100
AcDbEntity
  8
1
370
     9
  6
Continuous
 62
     7
100
AcDbBlockEnd
  0
BLOCK
  5
336
100
AcDbEntity
  8
1
370
     9
  6
Continuous
 62
     7
100
AcDbBlockBegin
  2
*D12
 70
     0
 10
0.0
 20
0.0
 30
0.0
  3
*D12
  1

  0
LINE
  5
337
100
AcDbEntity
  8
1
370
     9
  6
Continuous
 62
     7
100
AcDbLine
 10
123.480802
 20
135.760199
 30
0.0
 11
123.480802
 21
166.760199
 31
0.0
  0
LINE
  5
338
100
AcDbEntity
  8
1
370
     9
  6
Continuous
 62
     7
100
AcDbLine
 10
121.480802
 20
135.760199
 30
0.0
 11
137.461133
 21
135.760199
 31
0.0
  0
LINE
  5
339
100
AcDbEntity
  8
1
370
     9
  6
Continuous
 62
     7
100
AcDbLine
 10
121.480802
 20
166.760199
 30
0.0
 11
137.461133
 21
166.760199
 31
0.0
  0
LINE
  5
33A
100
AcDbEntity
  8
1
370
     9
  6
Continuous
 62
     7
100
AcDbLine
 10
123.480802
 20
135.760199
 30
0.0
 11
122.859636
 21
138.078421
 31
0.0
  0
LINE
  5
33B
100
AcDbEntity
  8
1
370
     9
  6
Continuous
 62
     7
100
AcDbLine
 10
123.480802
 20
135.760199
 30
0.0
 11
124.101968
 21
138.078421
 31
0.0
  0
LINE
  5
33C
100
AcDbEntity
  8
1
370
     9
  6
Continuous
 62
     7
100
AcDbLine
 10
123.480802
 20
166.760199
 30
0.0
 11
124.101968
 21
164.441977
 31
0.0
  0
LINE
  5
33D
100
AcDbEntity
  8
1
370
     9
  6
Continuous
 62
     7
100
AcDbLine
 10
123.480802
 20
166.760199
 30
0.0
 11
122.859636
 21
164.441977
 31
0.0
  0
TEXT
  5
33E
100
AcDbEntity
  8
1
370
     9
  6
Continuous
 62
     7
100
AcDbText
 10
122.980802
 20
149.660199
 30
0.0
 40
3.0
  1
31
 50
90.0
 41
0.533333
 11
122.980802
 21
149.660199
 31
0.0
100
AcDbText
 73
     1
  0
ENDBLK
  5
33F
100
AcDbEntity
  8
1
370
     9
  6
Continuous
 62
     7
100
AcDbBlockEnd
  0
BLOCK
  5
342
100
AcDbEntity
  8
1
370
     9
  6
Continuous
 62
     7
100
AcDbBlockBegin
  2
*D13
 70
     0
 10
0.0
 20
0.0
 30
0.0
  3
*D13
  1

  0
LINE
  5
343
100
AcDbEntity
  8
1
370
     9
  6
Continuous
 62
     7
100
AcDbLine
 10
123.480802
 20
129.360199
 30
0.0
 11
123.480802
 21
138.160199
 31
0.0
  0
LINE
  5
344
100
AcDbEntity
  8
1
370
     9
  6
Continuous
 62
     7
100
AcDbLine
 10
121.480802
 20
131.760199
 30
0.0
 11
136.480802
 21
131.760199
 31
0.0
  0
LINE
  5
345
100
AcDbEntity
  8
1
370
     9
  6
Continuous
 62
     7
100
AcDbLine
 10
121.480802
 20
135.760199
 30
0.0
 11
137.461133
 21
135.760199
 31
0.0
  0
LINE
  5
346
100
AcDbEntity
  8
1
370
     9
  6
Continuous
 62
     7
100
AcDbLine
 10
123.480802
 20
131.760199
 30
0.0
 11
124.101968
 21
129.441977
 31
0.0
  0
LINE
  5
347
100
AcDbEntity
  8
1
370
     9
  6
Continuous
 62
     7
100
AcDbLine
 10
123.480802
 20
131.760199
 30
0.0
 11
122.859636
 21
129.441977
 31
0.0
  0
LINE
  5
348
100
AcDbEntity
  8
1
370
     9
  6
Continuous
 62
     7
100
AcDbLine
 10
123.480802
 20
135.760199
 30
0.0
 11
122.859636
 21
138.078421
 31
0.0
  0
LINE
  5
349
100
AcDbEntity
  8
1
370
     9
  6
Continuous
 62
     7
100
AcDbLine
 10
123.480802
 20
135.760199
 30
0.0
 11
124.101968
 21
138.078421
 31
0.0
  0
TEXT
  5
34A
100
AcDbEntity
  8
1
370
     9
  6
Continuous
 62
     7
100
AcDbText
 10
122.980802
 20
133.010199
 30
0.0
 40
3.0
  1
4
 50
90.0
 41
0.5
 11
122.980802
 21
133.010199
 31
0.0
100
AcDbText
 73
     1
  0
ENDBLK
  5
34B
100
AcDbEntity
  8
1
370
     9
  6
Continuous
 62
     7
100
AcDbBlockEnd
  0
BLOCK
  5
34E
100
AcDbEntity
  8
1
370
     9
  6
Continuous
 62
     7
100
AcDbBlockBegin
  2
*D14
 70
     0
 10
0.0
 20
0.0
 30
0.0
  3
*D14
  1

  0
LINE
  5
34F
100
AcDbEntity
  8
1
370
     9
  6
Continuous
 62
     7
100
AcDbLine
 10
108.480802
 20
131.760199
 30
0.0
 11
108.480802
 21
170.760199
 31
0.0
  0
LINE
  5
350
100
AcDbEntity
  8
1
370
     9
  6
Continuous
 62
     7
100
AcDbLine
 10
106.480802
 20
131.760199
 30
0.0
 11
136.480802
 21
131.760199
 31
0.0
  0
LINE
  5
351
100
AcDbEntity
  8
1
370
     9
  6
Continuous
 62
     7
100
AcDbLine
 10
106.480802
 20
170.760199
 30
0.0
 11
136.480802
 21
170.760199
 31
0.0
  0
LINE
  5
352
100
AcDbEntity
  8
1
370
     9
  6
Continuous
 62
     7
100
AcDbLine
 10
108.480802
 20
131.760199
 30
0.0
 11
107.859636
 21
134.078421
 31
0.0
  0
LINE
  5
353
100
AcDbEntity
  8
1
370
     9
  6
Continuous
 62
     7
100
AcDbLine
 10
108.480802
 20
131.760199
 30
0.0
 11
109.101968
 21
134.078421
 31
0.0
  0
LINE
  5
354
100
AcDbEntity
  8
1
370
     9
  6
Continuous
 62
     7
100
AcDbLine
 10
108.480802
 20
170.760199
 30
0.0
 11
109.101968
 21
168.441977
 31
0.0
  0
LINE
  5
355
100
AcDbEntity
  8
1
370
     9
  6
Continuous
 62
     7
100
AcDbLine
 10
108.480802
 20
170.760199
 30
0.0
 11
107.859636
 21
168.441977
 31
0.0
  0
TEXT
  5
356
100
AcDbEntity
  8
1
370
     9
  6
Continuous
 62
     7
100
AcDbText
 10
107.980802
 20
149.660199
 30
0.0
 40
3.0
  1
39
 50
90.0
 41
0.533333
 11
107.980802
 21
149.660199
 31
0.0
100
AcDbText
 73
     1
  0
ENDBLK
  5
357
100
AcDbEntity
  8
1
370
     9
  6
Continuous
 62
     7
100
AcDbBlockEnd
  0
BLOCK
  5
35A
100
AcDbEntity
  8
1
370
     9
  6
Continuous
 62
     7
100
AcDbBlockBegin
  2
*D15
 70
     0
 10
0.0
 20
0.0
 30
0.0
  3
*D15
  1

  0
LINE
  5
35B
100
AcDbEntity
  8
1
370
     9
  6
Continuous
 62
     7
100
AcDbLine
 10
123.480802
 20
164.360199
 30
0.0
 11
123.480802
 21
173.160199
 31
0.0
  0
LINE
  5
35C
100
AcDbEntity
  8
1
370
     9
  6
Continuous
 62
     7
100
AcDbLine
 10
121.480802
 20
166.760199
 30
0.0
 11
137.461133
 21
166.760199
 31
0.0
  0
LINE
  5
35D
100
AcDbEntity
  8
1
370
     9
  6
Continuous
 62
     7
100
AcDbLine
 10
121.480802
 20
170.760199
 30
0.0
 11
136.480802
 21
170.760199
 31
0.0
  0
LINE
  5
35E
100
AcDbEntity
  8
1
370
     9
  6
Continuous
 62
     7
100
AcDbLine
 10
123.480802
 20
166.760199
 30
0.0
 11
124.101968
 21
164.441977
 31
0.0
  0
LINE
  5
35F
100
AcDbEntity
  8
1
370
     9
  6
Continuous
 62
     7
100
AcDbLine
 10
123.480802
 20
166.760199
 30
0.0
 11
122.859636
 21
164.441977
 31
0.0
  0
LINE
  5
360
100
AcDbEntity
  8
1
370
     9
  6
Continuous
 62
     7
100
AcDbLine
 10
123.480802
 20
170.760199
 30
0.0
 11
122.859636
 21
173.078421
 31
0.0
  0
LINE
  5
361
100
AcDbEntity
  8
1
370
     9
  6
Continuous
 62
     7
100
AcDbLine
 10
123.480802
 20
170.760199
 30
0.0
 11
124.101968
 21
173.078421
 31
0.0
  0
TEXT
  5
362
100
AcDbEntity
  8
1
370
     9
  6
Continuous
 62
     7
100
AcDbText
 10
122.980802
 20
166.310199
 30
0.0
 40
3.0
  1
(4)
 50
90.0
 41
0.544444
 11
122.980802
 21
166.310199
 31
0.0
100
AcDbText
 73
     1
  0
ENDBLK
  5
363
100
AcDbEntity
  8
1
370
     9
  6
Continuous
 62
     7
100
AcDbBlockEnd
  0
BLOCK
  5
37D
100
AcDbEntity
  8
0
370
     9
  6
Continuous
 62
     5
100
AcDbBlockBegin
  2
*G16
 70
     0
 10
0.0
 20
0.0
 30
0.0
  3
*G16
  1

  0
LINE
  5
37E
100
AcDbEntity
  8
1
370
     9
  6
Continuous
 62
     7
100
AcDbLine
 10
208.605802
 20
158.035199
 30
0.0
 11
208.855802
 21
158.035199
 31
0.0
  0
LINE
  5
37F
100
AcDbEntity
  8
1
370
     9
  6
Continuous
 62
     7
100
AcDbLine
 10
208.855802
 20
158.035199
 30
0.0
 11
208.855802
 21
157.785199
 31
0.0
  0
LINE
  5
380
100
AcDbEntity
  8
1
370
     9
  6
Continuous
 62
     7
100
AcDbLine
 10
208.855802
 20
157.785199
 30
0.0
 11
208.605802
 21
157.785199
 31
0.0
  0
LINE
  5
381
100
AcDbEntity
  8
1
370
     9
  6
Continuous
 62
     7
100
AcDbLine
 10
208.605802
 20
157.785199
 30
0.0
 11
208.605802
 21
158.035199
 31
0.0
  0
ENDBLK
  5
382
100
AcDbEntity
  8
0
100
AcDbBlockEnd
  0
BLOCK
  5
385
100
AcDbEntity
  8
0
370
     9
  6
Continuous
 62
     5
100
AcDbBlockBegin
  2
*G17
 70
     0
 10
0.0
 20
0.0
 30
0.0
  3
*G17
  1

  0
LINE
  5
386
100
AcDbEntity
  8
1
370
     9
  6
Continuous
 62
     7
100
AcDbLine
 10
208.605802
 20
160.035199
 30
0.0
 11
208.855802
 21
160.035199
 31
0.0
  0
LINE
  5
387
100
AcDbEntity
  8
1
370
     9
  6
Continuous
 62
     7
100
AcDbLine
 10
208.855802
 20
160.035199
 30
0.0
 11
208.855802
 21
159.785199
 31
0.0
  0
LINE
  5
388
100
AcDbEntity
  8
1
370
     9
  6
Continuous
 62
     7
100
AcDbLine
 10
208.855802
 20
159.785199
 30
0.0
 11
208.605802
 21
159.785199
 31
0.0
  0
LINE
  5
389
100
AcDbEntity
  8
1
370
     9
  6
Continuous
 62
     7
100
AcDbLine
 10
208.605802
 20
159.785199
 30
0.0
 11
208.605802
 21
160.035199
 31
0.0
  0
ENDBLK
  5
38A
100
AcDbEntity
  8
0
100
AcDbBlockEnd
  0
BLOCK
  5
38D
100
AcDbEntity
  8
0
370
     9
  6
Continuous
 62
     5
100
AcDbBlockBegin
  2
*G18
 70
     0
 10
0.0
 20
0.0
 30
0.0
  3
*G18
  1

  0
LINE
  5
38E
100
AcDbEntity
  8
1
370
     9
  6
Continuous
 62
     7
100
AcDbLine
 10
208.605802
 20
162.035199
 30
0.0
 11
208.855802
 21
162.035199
 31
0.0
  0
LINE
  5
38F
100
AcDbEntity
  8
1
370
     9
  6
Continuous
 62
     7
100
AcDbLine
 10
208.855802
 20
162.035199
 30
0.0
 11
208.855802
 21
161.785199
 31
0.0
  0
LINE
  5
390
100
AcDbEntity
  8
1
370
     9
  6
Continuous
 62
     7
100
AcDbLine
 10
208.855802
 20
161.785199
 30
0.0
 11
208.605802
 21
161.785199
 31
0.0
  0
LINE
  5
391
100
AcDbEntity
  8
1
370
     9
  6
Continuous
 62
     7
100
AcDbLine
 10
208.605802
 20
161.785199
 30
0.0
 11
208.605802
 21
162.035199
 31
0.0
  0
ENDBLK
  5
392
100
AcDbEntity
  8
0
100
AcDbBlockEnd
  0
BLOCK
  5
3A9
100
AcDbEntity
  8
0
370
     9
  6
Continuous
 62
     5
100
AcDbBlockBegin
  2
*G19
 70
     0
 10
0.0
 20
0.0
 30
0.0
  3
*G19
  1

  0
LINE
  5
3AA
100
AcDbEntity
  8
1
370
     9
  6
Continuous
 62
     7
100
AcDbLine
 10
208.230802
 20
160.410199
 30
0.0
 11
209.230802
 21
160.410199
 31
0.0
  0
LINE
  5
3AB
100
AcDbEntity
  8
1
370
     9
  6
Continuous
 62
     7
100
AcDbLine
 10
209.230802
 20
160.410199
 30
0.0
 11
209.230802
 21
159.410199
 31
0.0
  0
LINE
  5
3AC
100
AcDbEntity
  8
1
370
     9
  6
Continuous
 62
     7
100
AcDbLine
 10
209.230802
 20
159.410199
 30
0.0
 11
208.230802
 21
159.410199
 31
0.0
  0
LINE
  5
3AD
100
AcDbEntity
  8
1
370
     9
  6
Continuous
 62
     7
100
AcDbLine
 10
208.230802
 20
159.410199
 30
0.0
 11
208.230802
 21
160.410199
 31
0.0
  0
ENDBLK
  5
3AE
100
AcDbEntity
  8
0
100
AcDbBlockEnd
  0
BLOCK
  5
3B1
100
AcDbEntity
  8
0
370
     9
  6
Continuous
 62
     5
100
AcDbBlockBegin
  2
*G20
 70
     0
 10
0.0
 20
0.0
 30
0.0
  3
*G20
  1

  0
LINE
  5
3B2
100
AcDbEntity
  8
1
370
     9
  6
Continuous
 62
     7
100
AcDbLine
 10
208.230802
 20
162.410199
 30
0.0
 11
209.230802
 21
162.410199
 31
0.0
  0
LINE
  5
3B3
100
AcDbEntity
  8
1
370
     9
  6
Continuous
 62
     7
100
AcDbLine
 10
209.230802
 20
162.410199
 30
0.0
 11
209.230802
 21
161.410199
 31
0.0
  0
LINE
  5
3B4
100
AcDbEntity
  8
1
370
     9
  6
Continuous
 62
     7
100
AcDbLine
 10
209.230802
 20
161.410199
 30
0.0
 11
208.230802
 21
161.410199
 31
0.0
  0
LINE
  5
3B5
100
AcDbEntity
  8
1
370
     9
  6
Continuous
 62
     7
100
AcDbLine
 10
208.230802
 20
161.410199
 30
0.0
 11
208.230802
 21
162.410199
 31
0.0
  0
ENDBLK
  5
3B6
100
AcDbEntity
  8
0
100
AcDbBlockEnd
  0
BLOCK
  5
3B9
100
AcDbEntity
  8
0
370
     9
  6
Continuous
 62
     5
100
AcDbBlockBegin
  2
*G21
 70
     0
 10
0.0
 20
0.0
 30
0.0
  3
*G21
  1

  0
LINE
  5
3BA
100
AcDbEntity
  8
1
370
     9
  6
Continuous
 62
     7
100
AcDbLine
 10
208.480802
 20
158.160199
 30
0.0
 11
208.980802
 21
158.160199
 31
0.0
  0
LINE
  5
3BB
100
AcDbEntity
  8
1
370
     9
  6
Continuous
 62
     7
100
AcDbLine
 10
208.980802
 20
158.160199
 30
0.0
 11
208.980802
 21
157.660199
 31
0.0
  0
LINE
  5
3BC
100
AcDbEntity
  8
1
370
     9
  6
Continuous
 62
     7
100
AcDbLine
 10
208.980802
 20
157.660199
 30
0.0
 11
208.480802
 21
157.660199
 31
0.0
  0
LINE
  5
3BD
100
AcDbEntity
  8
1
370
     9
  6
Continuous
 62
     7
100
AcDbLine
 10
208.480802
 20
157.660199
 30
0.0
 11
208.480802
 21
158.160199
 31
0.0
  0
ENDBLK
  5
3BE
100
AcDbEntity
  8
0
100
AcDbBlockEnd
  0
BLOCK
  5
3C1
100
AcDbEntity
  8
0
370
     9
  6
Continuous
 62
     5
100
AcDbBlockBegin
  2
*G22
 70
     0
 10
0.0
 20
0.0
 30
0.0
  3
*G22
  1

  0
LINE
  5
3C2
100
AcDbEntity
  8
1
370
     9
  6
Continuous
 62
     7
100
AcDbLine
 10
208.480802
 20
160.160199
 30
0.0
 11
208.980802
 21
160.160199
 31
0.0
  0
LINE
  5
3C3
100
AcDbEntity
  8
1
370
     9
  6
Continuous
 62
     7
100
AcDbLine
 10
208.980802
 20
160.160199
 30
0.0
 11
208.980802
 21
159.660199
 31
0.0
  0
LINE
  5
3C4
100
AcDbEntity
  8
1
370
     9
  6
Continuous
 62
     7
100
AcDbLine
 10
208.980802
 20
159.660199
 30
0.0
 11
208.480802
 21
159.660199
 31
0.0
  0
LINE
  5
3C5
100
AcDbEntity
  8
1
370
     9
  6
Continuous
 62
     7
100
AcDbLine
 10
208.480802
 20
159.660199
 30
0.0
 11
208.480802
 21
160.160199
 31
0.0
  0
ENDBLK
  5
3C6
100
AcDbEntity
  8
0
100
AcDbBlockEnd
  0
BLOCK
  5
3C9
100
AcDbEntity
  8
0
370
     9
  6
Continuous
 62
     5
100
AcDbBlockBegin
  2
*G23
 70
     0
 10
0.0
 20
0.0
 30
0.0
  3
*G23
  1

  0
LINE
  5
3CA
100
AcDbEntity
  8
1
370
     9
  6
Continuous
 62
     7
100
AcDbLine
 10
208.480802
 20
162.160199
 30
0.0
 11
208.980802
 21
162.160199
 31
0.0
  0
LINE
  5
3CB
100
AcDbEntity
  8
1
370
     9
  6
Continuous
 62
     7
100
AcDbLine
 10
208.980802
 20
162.160199
 30
0.0
 11
208.980802
 21
161.660199
 31
0.0
  0
LINE
  5
3CC
100
AcDbEntity
  8
1
370
     9
  6
Continuous
 62
     7
100
AcDbLine
 10
208.980802
 20
161.660199
 30
0.0
 11
208.480802
 21
161.660199
 31
0.0
  0
LINE
  5
3CD
100
AcDbEntity
  8
1
370
     9
  6
Continuous
 62
     7
100
AcDbLine
 10
208.480802
 20
161.660199
 30
0.0
 11
208.480802
 21
162.160199
 31
0.0
  0
ENDBLK
  5
3CE
100
AcDbEntity
  8
0
100
AcDbBlockEnd
  0
BLOCK
  5
3D4
100
AcDbEntity
  8
0
370
     9
  6
Continuous
 62
     5
100
AcDbBlockBegin
  2
*G24
 70
     0
 10
0.0
 20
0.0
 30
0.0
  3
*G24
  1

  0
LINE
  5
3D5
100
AcDbEntity
  8
1
370
     9
  6
Continuous
 62
     7
100
AcDbLine
 10
207.730802
 20
162.910199
 30
0.0
 11
209.730802
 21
162.910199
 31
0.0
  0
LINE
  5
3D6
100
AcDbEntity
  8
1
370
     9
  6
Continuous
 62
     7
100
AcDbLine
 10
209.730802
 20
162.910199
 30
0.0
 11
209.730802
 21
158.910199
 31
0.0
  0
LINE
  5
3D7
100
AcDbEntity
  8
1
370
     9
  6
Continuous
 62
     7
100
AcDbLine
 10
209.730802
 20
158.910199
 30
0.0
 11
207.730802
 21
158.910199
 31
0.0
  0
LINE
  5
3D8
100
AcDbEntity
  8
1
370
     9
  6
Continuous
 62
     7
100
AcDbLine
 10
207.730802
 20
158.910199
 30
0.0
 11
207.730802
 21
162.910199
 31
0.0
  0
ENDBLK
  5
3D9
100
AcDbEntity
  8
0
100
AcDbBlockEnd
  0
ENDSEC
  0
SECTION
  2
ENTITIES
  0
INSERT
  5
4C
100
AcDbEntity
  8
0
370
     9
  6
Continuous
 62
     7
100
AcDbBlockReference
  2
*G0
 10
0.0
 20
0.0
 30
0.0
  0
LINE
  5
4D
100
AcDbEntity
  8
15
370
    50
  6
Continuous
 62
    96
100
AcDbLine
 10
15.0
 20
272.075792
 30
0.0
 11
15.0
 21
15.0
 31
0.0
  0
LINE
  5
4E
100
AcDbEntity
  8
15
370
    50
  6
Continuous
 62
    96
100
AcDbLine
 10
15.0
 20
15.0
 30
0.0
 11
400.113541
 21
15.0
 31
0.0
  0
LINE
  5
4F
100
AcDbEntity
  8
15
370
     9
  6
Continuous
 62
    96
100
AcDbLine
 10
364.439504
 20
20.701777
 30
0.0
 11
351.973166
 21
20.701777
 31
0.0
  0
TEXT
  5
50
100
AcDbEntity
  8
15
370
     9
  6
Continuous
 62
    96
100
AcDbText
 10
334.204685
 20
19.691141
 30
0.0
 40
1.800531
  1
出入管理システム
 41
1.018519
 11
334.204685
 21
19.691141
 31
0.0
100
AcDbText
 73
     1
  0
TEXT
  5
51
100
AcDbEntity
  8
15
370
     9
  6
Continuous
 62
    96
100
AcDbText
 10
334.275263
 20
15.809317
 30
0.0
 40
3.601062
  1
株式会社
 41
1.753472
 11
334.275263
 21
15.809317
 31
0.0
100
AcDbText
 73
     1
  0
LINE
  5
52
100
AcDbEntity
  8
15
370
    30
  6
Continuous
 62
    96
100
AcDbLine
 10
314.378399
 20
15.87882
 30
0.0
 11
317.546185
 21
15.87882
 31
0.0
  0
LINE
  5
53
100
AcDbEntity
  8
15
370
    30
  6
Continuous
 62
    96
100
AcDbLine
 10
333.019187
 20
19.728548
 30
0.0
 11
333.019187
 21
20.94425
 31
0.0
  0
LINE
  5
54
100
AcDbEntity
  8
15
370
    30
  6
Continuous
 62
    96
100
AcDbLine
 10
331.702181
 20
19.728548
 30
0.0
 11
333.019187
 21
19.728548
 31
0.0
  0
LINE
  5
55
100
AcDbEntity
  8
15
370
    30
  6
Continuous
 62
    96
100
AcDbLine
 10
331.702181
 20
15.87882
 30
0.0
 11
331.702181
 21
19.728548
 31
0.0
  0
LINE
  5
56
100
AcDbEntity
  8
15
370
    30
  6
Continuous
 62
    96
100
AcDbLine
 10
330.283859
 20
15.87882
 30
0.0
 11
331.702181
 21
15.87882
 31
0.0
  0
LINE
  5
57
100
AcDbEntity
  8
15
370
    30
  6
Continuous
 62
    96
100
AcDbLine
 10
329.431558
 20
15.87882
 30
0.0
 11
327.649835
 21
15.87882
 31
0.0
  0
LINE
  5
58
100
AcDbEntity
  8
15
370
    30
  6
Continuous
 62
    96
100
AcDbLine
 10
320.254304
 20
15.87882
 30
0.0
 11
324.610571
 21
15.87882
 31
0.0
  0
LINE
  5
59
100
AcDbEntity
  8
15
370
    30
  6
Continuous
 62
    96
100
AcDbLine
 10
320.254304
 20
18.0063
 30
0.0
 11
320.254304
 21
15.87882
 31
0.0
  0
LINE
  5
5A
100
AcDbEntity
  8
15
370
    30
  6
Continuous
 62
    96
100
AcDbLine
 10
317.546185
 20
15.87882
 30
0.0
 11
322.483094
 21
20.766848
 31
0.0
  0
LINE
  5
5B
100
AcDbEntity
  8
15
370
    30
  6
Continuous
 62
    96
100
AcDbLine
 10
322.483094
 20
20.766848
 30
0.0
 11
322.483094
 21
18.0063
 31
0.0
  0
LINE
  5
5C
100
AcDbEntity
  8
15
370
    30
  6
Continuous
 62
    96
100
AcDbLine
 10
322.483094
 20
18.0063
 30
0.0
 11
320.254304
 21
18.0063
 31
0.0
  0
LINE
  5
5D
100
AcDbEntity
  8
15
370
    30
  6
Continuous
 62
    96
100
AcDbLine
 10
324.610571
 20
18.71546
 30
0.0
 11
327.649835
 21
15.87882
 31
0.0
  0
ARC
  5
5E
100
AcDbEntity
  8
15
370
    30
  6
Continuous
 62
    96
100
AcDbCircle
 10
327.041981
 20
19.222004
 30
0.0
 40
0.506544
100
AcDbArc
 50
-90.0
 51
90.0
  0
LINE
  5
5F
100
AcDbEntity
  8
15
370
    30
  6
Continuous
 62
    96
100
AcDbLine
 10
324.610571
 20
18.71546
 30
0.0
 11
327.041981
 21
18.71546
 31
0.0
  0
LINE
  5
60
100
AcDbEntity
  8
15
370
    30
  6
Continuous
 62
    96
100
AcDbLine
 10
325.015808
 20
19.728548
 30
0.0
 11
327.041981
 21
19.728548
 31
0.0
  0
LINE
  5
61
100
AcDbEntity
  8
15
370
    30
  6
Continuous
 62
    96
100
AcDbLine
 10
325.015808
 20
20.94425
 30
0.0
 11
325.015808
 21
19.728548
 31
0.0
  0
LINE
  5
62
100
AcDbEntity
  8
15
370
    30
  6
Continuous
 62
    96
100
AcDbLine
 10
325.015808
 20
20.94425
 30
0.0
 11
327.425889
 21
20.94425
 31
0.0
  0
ARC
  5
63
100
AcDbEntity
  8
15
370
    30
  6
Continuous
 62
    96
100
AcDbCircle
 10
327.233933
 20
19.222004
 30
0.0
 40
1.73291
100
AcDbArc
 50
-76.055153
 51
83.640296
  0
LINE
  5
64
100
AcDbEntity
  8
15
370
    30
  6
Continuous
 62
    96
100
AcDbLine
 10
327.649835
 20
17.541763
 30
0.0
 11
329.431558
 21
15.87882
 31
0.0
  0
LINE
  5
65
100
AcDbEntity
  8
15
370
    30
  6
Continuous
 62
    96
100
AcDbLine
 10
333.019187
 20
20.94425
 30
0.0
 11
328.966843
 21
20.94425
 31
0.0
  0
LINE
  5
66
100
AcDbEntity
  8
15
370
    30
  6
Continuous
 62
    96
100
AcDbLine
 10
328.966843
 20
20.94425
 30
0.0
 11
328.966843
 21
19.728548
 31
0.0
  0
LINE
  5
67
100
AcDbEntity
  8
15
370
    30
  6
Continuous
 62
    96
100
AcDbLine
 10
328.966843
 20
19.728548
 30
0.0
 11
330.283859
 21
19.728548
 31
0.0
  0
LINE
  5
68
100
AcDbEntity
  8
15
370
    30
  6
Continuous
 62
    96
100
AcDbLine
 10
330.283859
 20
19.728548
 30
0.0
 11
330.283859
 21
15.87882
 31
0.0
  0
LINE
  5
69
100
AcDbEntity
  8
15
370
    30
  6
Continuous
 62
    96
100
AcDbLine
 10
310.086999
 20
15.0
 30
0.0
 11
310.086999
 21
60.013278
 31
0.0
  0
LINE
  5
6A
100
AcDbEntity
  8
15
370
     9
  6
Continuous
 62
    96
100
AcDbLine
 10
310.086999
 20
51.010624
 30
0.0
 11
400.113541
 21
51.010624
 31
0.0
  0
LINE
  5
6B
100
AcDbEntity
  8
15
370
     9
  6
Continuous
 62
    96
100
AcDbLine
 10
310.086999
 20
51.010617
 30
0.0
 11
400.113541
 21
51.010624
 31
0.0
  0
LINE
  5
6C
100
AcDbEntity
  8
15
370
     9
  6
Continuous
 62
    96
100
AcDbLine
 10
400.113541
 20
27.003546
 30
0.0
 11
310.086999
 21
27.003539
 31
0.0
  0
LINE
  5
6D
100
AcDbEntity
  8
15
370
     9
  6
Continuous
 62
    96
100
AcDbLine
 10
325.091422
 20
33.00531
 30
0.0
 11
325.091422
 21
27.00354
 31
0.0
  0
LINE
  5
6E
100
AcDbEntity
  8
15
370
     9
  6
Continuous
 62
    96
100
AcDbLine
 10
324.610571
 20
15.87882
 30
0.0
 11
324.610571
 21
26.009681
 31
0.0
  0
LINE
  5
6F
100
AcDbEntity
  8
15
370
     9
  6
Continuous
 62
    96
100
AcDbLine
 10
324.610571
 20
26.009681
 30
0.0
 11
314.378399
 21
15.87882
 31
0.0
  0
INSERT
  5
74
100
AcDbEntity
  8
0
370
     9
  6
Continuous
 62
    96
100
AcDbBlockReference
  2
*G1
 10
0.0
 20
0.0
 30
0.0
  0
TEXT
  5
75
100
AcDbEntity
  8
15
370
     9
  6
Continuous
 62
    96
100
AcDbText
 10
366.612483
 20
15.386992
 30
0.0
 40
10.002949
  1
アート
 41
0.833333
 11
366.612483
 21
15.386992
 31
0.0
100
AcDbText
 73
     1
  0
LINE
  5
76
100
AcDbEntity
  8
15
370
     9
  6
Continuous
 62
    96
100
AcDbLine
 10
325.091422
 20
42.007963
 30
0.0
 11
325.091422
 21
33.00531
 31
0.0
  0
LINE
  5
77
100
AcDbEntity
  8
15
370
     9
  6
Continuous
 62
    96
100
AcDbLine
 10
350.098795
 20
42.007963
 30
0.0
 11
350.098795
 21
33.005311
 31
0.0
  0
LINE
  5
78
100
AcDbEntity
  8
15
370
     9
  6
Continuous
 62
    96
100
AcDbLine
 10
375.106168
 20
42.007963
 30
0.0
 11
375.106168
 21
33.005313
 31
0.0
  0
LINE
  5
79
100
AcDbEntity
  8
15
370
    30
  6
Continuous
 62
    96
100
AcDbLine
 10
310.086999
 20
266.57417
 30
0.0
 11
400.113541
 21
266.57417
 31
0.0
  0
LINE
  5
7A
100
AcDbEntity
  8
15
370
    30
  6
Continuous
 62
    96
100
AcDbLine
 10
310.086999
 20
261.072548
 30
0.0
 11
400.113541
 21
261.072548
 31
0.0
  0
LINE
  5
7B
100
AcDbEntity
  8
15
370
    30
  6
Continuous
 62
    96
100
AcDbLine
 10
310.086999
 20
272.075792
 30
0.0
 11
310.086999
 21
72.516964
 31
0.0
  0
LINE
  5
7C
100
AcDbEntity
  8
15
370
    30
  6
Continuous
 62
    96
100
AcDbLine
 10
310.086999
 20
60.013278
 30
0.0
 11
310.086999
 21
72.516964
 31
0.0
  0
LINE
  5
7D
100
AcDbEntity
  8
15
370
    50
  6
Continuous
 62
    96
100
AcDbLine
 10
15.0
 20
272.075792
 30
0.0
 11
400.1138
 21
272.075792
 31
0.0
  0
LINE
  5
7E
100
AcDbEntity
  8
15
370
    50
  6
Continuous
 62
    96
100
AcDbLine
 10
400.1138
 20
14.999677
 30
0.0
 11
400.1138
 21
272.075469
 31
0.0
  0
LINE
  5
7F
100
AcDbEntity
  8
15
370
     9
  6
Continuous
 62
    96
100
AcDbLine
 10
310.086478
 20
59.513124
 30
0.0
 11
400.11302
 21
59.513124
 31
0.0
  0
LINE
  5
80
100
AcDbEntity
  8
15
370
     9
  6
Continuous
 62
    96
100
AcDbLine
 10
334.952657
 20
272.075792
 30
0.0
 11
334.952657
 21
266.57417
 31
0.0
  0
LINE
  5
81
100
AcDbEntity
  8
15
370
    30
  6
Continuous
 62
    96
100
AcDbLine
 10
310.086478
 20
65.014746
 30
0.0
 11
400.11302
 21
65.014746
 31
0.0
  0
LINE
  5
82
100
AcDbEntity
  8
15
370
    30
  6
Continuous
 62
    96
100
AcDbLine
 10
310.086478
 20
59.513124
 30
0.0
 11
400.11302
 21
59.513124
 31
0.0
  0
LINE
  5
83
100
AcDbEntity
  8
15
370
     9
  6
Continuous
 62
    96
100
AcDbLine
 10
335.09385
 20
65.014746
 30
0.0
 11
335.09385
 21
59.513124
 31
0.0
  0
LINE
  5
84
100
AcDbEntity
  8
15
370
    30
  6
Continuous
 62
    96
100
AcDbLine
 10
310.086478
 20
59.513124
 30
0.0
 11
400.11302
 21
59.513124
 31
0.0
  0
LINE
  5
85
100
AcDbEntity
  8
15
370
     9
  6
Continuous
 62
    96
100
AcDbLine
 10
355.120501
 20
33.003542
 30
0.0
 11
355.120501
 21
27.003542
 31
0.0
  0
LINE
  5
86
100
AcDbEntity
  8
15
370
     9
  6
Continuous
 62
    96
100
AcDbLine
 10
362.120501
 20
33.003547
 30
0.0
 11
362.120501
 21
27.003547
 31
0.0
  0
LINE
  5
87
100
AcDbEntity
  8
15
370
     9
  6
Continuous
 62
    96
100
AcDbLine
 10
388.113541
 20
33.003545
 30
0.0
 11
388.113541
 21
27.003545
 31
0.0
  0
LINE
  5
88
100
AcDbEntity
  8
15
370
     9
  6
Continuous
 62
    96
100
AcDbLine
 10
391.16423
 20
32.243545
 30
0.0
 11
391.16423
 21
27.763545
 31
0.0
  0
CIRCLE
  5
89
100
AcDbEntity
  8
15
370
     9
  6
Continuous
 62
    96
100
AcDbCircle
 10
391.16423
 20
30.003545
 30
0.0
 40
0.96
  0
CIRCLE
  5
8A
100
AcDbEntity
  8
15
370
     9
  6
Continuous
 62
    96
100
AcDbCircle
 10
391.16423
 20
30.003545
 30
0.0
 40
1.6
  0
LINE
  5
8B
100
AcDbEntity
  8
15
370
     9
  6
Continuous
 62
    96
100
AcDbLine
 10
393.803501
 20
30.963545
 30
0.0
 11
393.803501
 21
29.043545
 31
0.0
  0
LINE
  5
8C
100
AcDbEntity
  8
15
370
     9
  6
Continuous
 62
    96
100
AcDbLine
 10
398.923501
 20
31.603545
 30
0.0
 11
398.923501
 21
28.403545
 31
0.0
  0
LINE
  5
8D
100
AcDbEntity
  8
15
370
     9
  6
Continuous
 62
    96
100
AcDbLine
 10
393.803501
 20
30.963545
 30
0.0
 11
398.923501
 21
31.603545
 31
0.0
  0
LINE
  5
8E
100
AcDbEntity
  8
15
370
     9
  6
Continuous
 62
    96
100
AcDbLine
 10
393.803501
 20
29.043545
 30
0.0
 11
398.923501
 21
28.403545
 31
0.0
  0
LINE
  5
8F
100
AcDbEntity
  8
15
370
     9
  6
Continuous
 62
    96
100
AcDbLine
 10
388.92423
 20
30.003545
 30
0.0
 11
399.469501
 21
30.003545
 31
0.0
  0
LINE
  5
90
100
AcDbEntity
  8
15
370
     9
  6
Continuous
 62
    96
100
AcDbLine
 10
400.1138
 20
33.005315
 30
0.0
 11
310.086999
 21
33.005308
 31
0.0
  0
LINE
  5
91
100
AcDbEntity
  8
15
370
     9
  6
Continuous
 62
    96
100
AcDbLine
 10
310.086999
 20
42.007963
 30
0.0
 11
400.1138
 21
42.007963
 31
0.0
  0
LINE
  5
92
100
AcDbEntity
  8
15
370
    30
  6
Continuous
 62
    96
100
AcDbLine
 10
400.258996
 20
145.434796
 30
0.0
 11
400.258996
 21
147.566861
 31
0.0
  0
TEXT
  5
93
100
AcDbEntity
  8
15
370
     9
  6
PHANTOM
 62
    96
100
AcDbText
 10
314.690685
 20
267.824981
 30
0.0
 40
3.0
  1
商品コード
 41
0.877778
 11
314.690685
 21
267.824981
 31
0.0
100
AcDbText
 73
     1
  0
TEXT
  5
94
100
AcDbEntity
  8
15
370
     9
  6
PHANTOM
 62
    96
100
AcDbText
 10
344.00027
 20
262.323359
 30
0.0
 40
3.0
  1
定　　　　　格
 41
0.880952
 11
344.00027
 21
262.323359
 31
0.0
100
AcDbText
 73
     1
  0
TEXT
  5
95
100
AcDbEntity
  8
15
370
    30
  6
Continuous
 62
    96
100
AcDbText
 10
310.688852
 20
47.921694
 30
0.0
 40
2.5
  1
製品名
 41
0.855562
 11
310.688852
 21
47.921694
 31
0.0
100
AcDbText
 73
     1
  0
TEXT
  5
96
100
AcDbEntity
  8
15
370
    30
  6
Continuous
 62
    96
100
AcDbText
 10
310.602981
 20
56.471398
 30
0.0
 40
2.5
  1
型　式
 41
0.877778
 11
310.602981
 21
56.471398
 31
0.0
100
AcDbText
 73
     1
  0
TEXT
  5
97
100
AcDbEntity
  8
15
370
     9
  6
Continuous
 62
    96
100
AcDbText
 10
316.290164
 20
60.763935
 30
0.0
 40
3.0
  1
図面履歴
 41
0.875
 11
316.290164
 21
60.763935
 31
0.0
100
AcDbText
 73
     1
  0
TEXT
  5
98
100
AcDbEntity
  8
15
370
     9
  6
Continuous
 62
    96
100
AcDbText
 10
311.585147
 20
28.481333
 30
0.0
 40
3.0
  1
図面番号
 41
0.875
 11
311.585147
 21
28.481333
 31
0.0
100
AcDbText
 73
     1
  0
TEXT
  5
99
100
AcDbEntity
  8
15
370
     9
  6
Continuous
 62
    96
100
AcDbText
 10
355.413667
 20
28.47208
 30
0.0
 40
3.0
  1
日付
 41
0.861111
 11
355.413667
 21
28.47208
 31
0.0
100
AcDbText
 73
     1
  0
TEXT
  5
9A
100
AcDbEntity
  8
15
370
     9
  6
Continuous
 62
    96
100
AcDbText
 10
376.16012
 20
38.85587
 30
0.0
 40
2.5
  1
作図
 41
0.866667
 11
376.16012
 21
38.85587
 31
0.0
100
AcDbText
 73
     1
  0
TEXT
  5
9B
100
AcDbEntity
  8
15
370
     9
  6
Continuous
 62
    96
100
AcDbText
 10
350.819454
 20
38.865219
 30
0.0
 40
2.5
  1
検図
 41
0.866667
 11
350.819454
 21
38.865219
 31
0.0
100
AcDbText
 73
     1
  0
TEXT
  5
9C
100
AcDbEntity
  8
15
370
     9
  6
Continuous
 62
    96
100
AcDbText
 10
325.802582
 20
38.713519
 30
0.0
 40
2.5
  1
承認
 41
0.866667
 11
325.802582
 21
38.713519
 31
0.0
100
AcDbText
 73
     1
  0
TEXT
  5
9D
100
AcDbEntity
  8
15
370
     9
  6
Continuous
 62
    96
100
AcDbText
 10
310.83299
 20
38.748675
 30
0.0
 40
2.5
  1
縮尺（Ａ３）
 41
0.833333
 11
310.83299
 21
38.748675
 31
0.0
100
AcDbText
 73
     1
  0
TEXT
  5
9E
100
AcDbEntity
  8
15
370
     9
  6
Continuous
 62
    96
100
AcDbText
 10
312.921864
 20
34.515208
 30
0.0
 40
3.0
  1
１：１
 41
0.87037
 11
312.921864
 21
34.515208
 31
0.0
100
AcDbText
 73
     1
  0
TEXT
  5
9F
100
AcDbEntity
  8
15
370
     9
  6
Continuous
 62
    96
100
AcDbText
 10
211.894018
 20
18.329525
 30
0.0
 40
3.0
  1
＊　記載されている会社名、製品名は、登録商標または商標です。
 41
0.887037
 11
211.894018
 21
18.329525
 31
0.0
100
AcDbText
 73
     1
  0
TEXT
  5
A0
100
AcDbEntity
  8
15
370
     9
  6
PHANTOM
 62
    96
100
AcDbText
 10
356.503956
 20
267.824981
 30
0.0
 40
3.0
  1
０５０４２３８
 41
0.880952
 11
356.503956
 21
267.824981
 31
0.0
100
AcDbText
 73
     1
  0
TEXT
  5
A1
100
AcDbEntity
  8
15
370
     9
  6
Continuous
 62
    96
100
AcDbText
 10
359.643529
 20
60.770842
 30
0.0
 40
3.0
  1
―――――
 41
0.877778
 11
359.643529
 21
60.770842
 31
0.0
100
AcDbText
 73
     1
  0
TEXT
  5
A2
100
AcDbEntity
  8
15
370
     9
  6
Continuous
 62
    96
100
AcDbText
 10
334.399749
 20
52.511796
 30
0.0
 40
5.0
  1
ＯＰ－ＴＣＲ－Ｃ
 41
0.8625
 11
334.399749
 21
52.511796
 31
0.0
100
AcDbText
 73
     1
  0
TEXT
  5
A3
100
AcDbEntity
  8
15
370
     9
  6
Continuous
 62
    96
100
AcDbText
 10
320.770184
 20
44.444348
 30
0.0
 40
4.0
  1
BAN-F04C/06C/08C用オプション基板
 41
0.669922
 11
320.770184
 21
44.444348
 31
0.0
100
AcDbText
 73
     1
  0
TEXT
  5
A4
100
AcDbEntity
  8
15
370
     9
  6
Continuous
 62
    96
100
AcDbText
 10
383.835553
 20
34.57061
 30
0.0
 40
5.0
  1
宮村
 41
0.85
 11
383.835553
 21
34.57061
 31
0.0
100
AcDbText
 73
     1
  0
TEXT
  5
A5
100
AcDbEntity
  8
15
370
     9
  6
Continuous
 62
    96
100
AcDbText
 10
360.27818
 20
34.57061
 30
0.0
 40
5.0
  1
辻
 41
0.833333
 11
360.27818
 21
34.57061
 31
0.0
100
AcDbText
 73
     1
  0
TEXT
  5
A6
100
AcDbEntity
  8
15
370
     9
  6
Continuous
 62
    96
100
AcDbText
 10
333.820807
 20
34.57061
 30
0.0
 40
5.0
  1
加川
 41
0.85
 11
333.820807
 21
34.57061
 31
0.0
100
AcDbText
 73
     1
  0
INSERT
  5
AE
100
AcDbEntity
  8
0
370
     9
  6
Continuous
 62
     7
100
AcDbBlockReference
  2
*G2
 10
0.0
 20
0.0
 30
0.0
  0
CIRCLE
  5
AF
100
AcDbEntity
  8
1
370
     9
  6
Continuous
 62
     7
100
AcDbCircle
 10
142.480802
 20
135.760199
 30
0.0
 40
1.75
  0
CIRCLE
  5
B0
100
AcDbEntity
  8
1
370
     9
  6
Continuous
 62
     7
100
AcDbCircle
 10
142.480802
 20
166.760199
 30
0.0
 40
1.75
  0
CIRCLE
  5
B1
100
AcDbEntity
  8
1
370
     9
  6
Continuous
 62
     7
100
AcDbCircle
 10
210.480802
 20
135.760199
 30
0.0
 40
1.75
  0
INSERT
  5
B9
100
AcDbEntity
  8
0
370
     9
  6
Continuous
 62
     7
100
AcDbBlockReference
  2
*G3
 10
0.0
 20
0.0
 30
0.0
  0
INSERT
  5
C1
100
AcDbEntity
  8
0
370
     9
  6
Continuous
 62
     7
100
AcDbBlockReference
  2
*G4
 10
0.0
 20
0.0
 30
0.0
  0
INSERT
  5
C9
100
AcDbEntity
  8
0
370
     9
  6
Continuous
 62
     7
100
AcDbBlockReference
  2
*G5
 10
0.0
 20
0.0
 30
0.0
  0
INSERT
  5
D1
100
AcDbEntity
  8
0
370
     9
  6
Continuous
 62
     7
100
AcDbBlockReference
  2
*G6
 10
0.0
 20
0.0
 30
0.0
  0
INSERT
  5
D9
100
AcDbEntity
  8
0
370
     9
  6
Continuous
 62
     7
100
AcDbBlockReference
  2
*G7
 10
0.0
 20
0.0
 30
0.0
  0
CIRCLE
  5
DA
100
AcDbEntity
  8
1
370
     9
  6
Continuous
 62
     7
100
AcDbCircle
 10
192.380802
 20
158.660199
 30
0.0
 40
5.1
  0
LINE
  5
DB
100
AcDbEntity
  8
1
370
     9
  6
Continuous
 62
     7
100
AcDbLine
 10
202.980802
 20
148.760199
 30
0.0
 11
202.980802
 21
136.760199
 31
0.0
  0
LINE
  5
DC
100
AcDbEntity
  8
1
370
     9
  6
Continuous
 62
     7
100
AcDbLine
 10
202.980802
 20
146.760199
 30
0.0
 11
205.480802
 21
146.760199
 31
0.0
  0
LINE
  5
DD
100
AcDbEntity
  8
1
370
     9
  6
Continuous
 62
     7
100
AcDbLine
 10
205.480802
 20
146.760199
 30
0.0
 11
205.480802
 21
144.260199
 31
0.0
  0
LINE
  5
DE
100
AcDbEntity
  8
1
370
     9
  6
Continuous
 62
     7
100
AcDbLine
 10
205.480802
 20
144.260199
 30
0.0
 11
202.980802
 21
144.260199
 31
0.0
  0
LINE
  5
DF
100
AcDbEntity
  8
1
370
     9
  6
Continuous
 62
     7
100
AcDbLine
 10
203.980802
 20
142.260199
 30
0.0
 11
203.980802
 21
141.139584
 31
0.0
  0
ARC
  5
E0
100
AcDbEntity
  8
1
370
     9
  6
Continuous
 62
     7
100
AcDbCircle
 10
204.680802
 20
142.260199
 30
0.0
 40
0.7
100
AcDbArc
 50
90.0
 51
180.0
  0
LINE
  5
E1
100
AcDbEntity
  8
1
370
     9
  6
Continuous
 62
     7
100
AcDbLine
 10
204.680802
 20
142.960199
 30
0.0
 11
204.780802
 21
142.960199
 31
0.0
  0
LINE
  5
E2
100
AcDbEntity
  8
1
370
     9
  6
Continuous
 62
     7
100
AcDbLine
 10
205.480802
 20
142.260199
 30
0.0
 11
205.480802
 21
141.139584
 31
0.0
  0
ARC
  5
E3
100
AcDbEntity
  8
1
370
     9
  6
Continuous
 62
     7
100
AcDbCircle
 10
204.780802
 20
142.260199
 30
0.0
 40
0.7
100
AcDbArc
 50
0.0
 51
90.0
  0
LINE
  5
E4
100
AcDbEntity
  8
1
370
     9
  6
Continuous
 62
     7
100
AcDbLine
 10
202.980802
 20
142.060199
 30
0.0
 11
203.600259
 21
142.060199
 31
0.0
  0
LINE
  5
E5
100
AcDbEntity
  8
1
370
     9
  6
Continuous
 62
     7
100
AcDbLine
 10
202.980802
 20
141.760199
 30
0.0
 11
203.591461
 21
141.760199
 31
0.0
  0
LINE
  5
E6
100
AcDbEntity
  8
1
370
     9
  6
Continuous
 62
     7
100
AcDbLine
 10
205.861345
 20
142.060199
 30
0.0
 11
206.480802
 21
142.060199
 31
0.0
  0
LINE
  5
E7
100
AcDbEntity
  8
1
370
     9
  6
Continuous
 62
     7
100
AcDbLine
 10
206.480802
 20
141.760199
 30
0.0
 11
205.870143
 21
141.760199
 31
0.0
  0
ELLIPSE
  5
E8
100
AcDbEntity
  8
1
370
     9
  6
Continuous
 62
     7
100
AcDbEllipse
 10
204.730802
 20
140.010199
 30
0.0
 11
1.75
 21
0.0000000000000568
 31
0.0
210
0.0
220
0.0
230
1.0
 40
0.714286
 41
2.0137073708685156
 42
1.1278852827212327
  0
ELLIPSE
  5
E9
100
AcDbEntity
  8
1
370
     9
  6
Continuous
 62
     7
100
AcDbEllipse
 10
204.730802
 20
141.860199
 30
0.0
 11
0.0000000000003887
 21
1.3999999999996788
 31
0.0
210
0.0
220
0.0
230
1.0
 40
0.815899
 41
-2.1752114950182886
 42
2.1752129921753127
  0
LINE
  5
EA
100
AcDbEntity
  8
1
370
     9
  6
Continuous
 62
     7
100
AcDbLine
 10
203.615076
 20
142.160199
 30
0.0
 11
203.980802
 21
142.160199
 31
0.0
  0
LINE
  5
EB
100
AcDbEntity
  8
1
370
     9
  6
Continuous
 62
     7
100
AcDbLine
 10
203.636158
 20
142.260199
 30
0.0
 11
203.980802
 21
142.260199
 31
0.0
  0
LINE
  5
EC
100
AcDbEntity
  8
1
370
     9
  6
Continuous
 62
     7
100
AcDbLine
 10
205.480802
 20
142.260199
 30
0.0
 11
205.825446
 21
142.260199
 31
0.0
  0
LINE
  5
ED
100
AcDbEntity
  8
1
370
     9
  6
Continuous
 62
     7
100
AcDbLine
 10
205.480802
 20
142.160199
 30
0.0
 11
205.846527
 21
142.160199
 31
0.0
  0
LINE
  5
EE
100
AcDbEntity
  8
1
370
     9
  6
Continuous
 62
     7
100
AcDbLine
 10
205.410092
 20
146.760199
 30
0.0
 11
202.980802
 21
144.33091
 31
0.0
  0
LINE
  5
EF
100
AcDbEntity
  8
1
370
     9
  6
Continuous
 62
     7
100
AcDbLine
 10
203.051513
 20
144.260199
 30
0.0
 11
205.480802
 21
146.689488
 31
0.0
  0
LINE
  5
F0
100
AcDbEntity
  8
1
370
     9
  6
Continuous
 62
     7
100
AcDbLine
 10
202.980802
 20
146.260199
 30
0.0
 11
204.344406
 21
146.260199
 31
0.0
  0
LINE
  5
F1
100
AcDbEntity
  8
1
370
     9
  6
Continuous
 62
     7
100
AcDbLine
 10
204.344406
 20
146.260199
 30
0.0
 11
205.410092
 21
146.760199
 31
0.0
  0
LINE
  5
F2
100
AcDbEntity
  8
1
370
     9
  6
Continuous
 62
     7
100
AcDbLine
 10
204.344406
 20
146.2602
 30
0.0
 11
202.980802
 21
144.896595
 31
0.0
  0
LINE
  5
F3
100
AcDbEntity
  8
1
370
     9
  6
Continuous
 62
     7
100
AcDbLine
 10
204.117199
 20
144.760199
 30
0.0
 11
203.051513
 21
144.260199
 31
0.0
  0
LINE
  5
F4
100
AcDbEntity
  8
1
370
     9
  6
Continuous
 62
     7
100
AcDbLine
 10
204.117199
 20
144.760199
 30
0.0
 11
205.480802
 21
146.123802
 31
0.0
  0
LINE
  5
F5
100
AcDbEntity
  8
1
370
     9
  6
Continuous
 62
     7
100
AcDbLine
 10
204.117199
 20
144.760199
 30
0.0
 11
205.480802
 21
144.760199
 31
0.0
  0
ELLIPSE
  5
F6
100
AcDbEntity
  8
1
370
     9
  6
Continuous
 62
     7
100
AcDbEllipse
 10
204.730802
 20
140.460199
 30
0.0
 11
1.4325591934990314
 21
0.0
 31
0.0
210
0.0
220
0.0
230
1.0
 40
0.820871
 41
2.8659245593296023
 42
0.2756680942606942
  0
ELLIPSE
  5
F7
100
AcDbEntity
  8
1
370
     9
  6
Continuous
 62
     7
100
AcDbEllipse
 10
204.730101
 20
141.299273
 30
0.0
 11
1.423582467809041
 21
-0.0097461054135124
 31
0.0
210
0.0
220
0.0
230
1.0
 40
0.87095
 41
-2.7474777550974694
 42
-0.3787206361744824
  0
LINE
  5
F8
100
AcDbEntity
  8
1
370
     9
  6
Continuous
 62
     7
100
AcDbLine
 10
202.980802
 20
147.760199
 30
0.0
 11
206.480802
 21
147.760199
 31
0.0
  0
LINE
  5
F9
100
AcDbEntity
  8
1
370
     9
  6
Continuous
 62
     7
100
AcDbLine
 10
206.480802
 20
147.260199
 30
0.0
 11
202.980802
 21
147.260199
 31
0.0
  0
LINE
  5
FA
100
AcDbEntity
  8
1
370
     9
  6
Continuous
 62
     7
100
AcDbLine
 10
180.480802
 20
137.060199
 30
0.0
 11
206.480802
 21
137.060199
 31
0.0
  0
LINE
  5
FB
100
AcDbEntity
  8
1
370
     9
  6
Continuous
 62
     7
100
AcDbLine
 10
146.480802
 20
137.060199
 30
0.0
 11
179.480802
 21
137.060199
 31
0.0
  0
LINE
  5
FC
100
AcDbEntity
  8
1
370
     9
  6
Continuous
 62
     7
100
AcDbLine
 10
180.480802
 20
142.060199
 30
0.0
 11
181.980802
 21
142.060199
 31
0.0
  0
LINE
  5
FD
100
AcDbEntity
  8
1
370
     9
  6
Continuous
 62
     7
100
AcDbLine
 10
181.980802
 20
141.760199
 30
0.0
 11
180.480802
 21
141.760199
 31
0.0
  0
LINE
  5
FE
100
AcDbEntity
  8
1
370
     9
  6
Continuous
 62
     7
100
AcDbLine
 10
146.480802
 20
142.060199
 30
0.0
 11
147.980802
 21
142.060199
 31
0.0
  0
LINE
  5
FF
100
AcDbEntity
  8
1
370
     9
  6
Continuous
 62
     7
100
AcDbLine
 10
147.980802
 20
141.760199
 30
0.0
 11
146.480802
 21
141.760199
 31
0.0
  0
LINE
  5
100
100
AcDbEntity
  8
1
370
     9
  6
Continuous
 62
     7
100
AcDbLine
 10
199.480802
 20
148.760199
 30
0.0
 11
199.480802
 21
136.760199
 31
0.0
  0
LINE
  5
101
100
AcDbEntity
  8
1
370
     9
  6
Continuous
 62
     7
100
AcDbLine
 10
199.480802
 20
146.760199
 30
0.0
 11
201.980802
 21
146.760199
 31
0.0
  0
LINE
  5
102
100
AcDbEntity
  8
1
370
     9
  6
Continuous
 62
     7
100
AcDbLine
 10
201.980802
 20
146.760199
 30
0.0
 11
201.980802
 21
144.260199
 31
0.0
  0
LINE
  5
103
100
AcDbEntity
  8
1
370
     9
  6
Continuous
 62
     7
100
AcDbLine
 10
201.980802
 20
144.260199
 30
0.0
 11
199.480802
 21
144.260199
 31
0.0
  0
LINE
  5
104
100
AcDbEntity
  8
1
370
     9
  6
Continuous
 62
     7
100
AcDbLine
 10
200.480802
 20
142.260199
 30
0.0
 11
200.480802
 21
141.139584
 31
0.0
  0
ARC
  5
105
100
AcDbEntity
  8
1
370
     9
  6
Continuous
 62
     7
100
AcDbCircle
 10
201.180802
 20
142.260199
 30
0.0
 40
0.7
100
AcDbArc
 50
90.0
 51
180.0
  0
LINE
  5
106
100
AcDbEntity
  8
1
370
     9
  6
Continuous
 62
     7
100
AcDbLine
 10
201.180802
 20
142.960199
 30
0.0
 11
201.280802
 21
142.960199
 31
0.0
  0
LINE
  5
107
100
AcDbEntity
  8
1
370
     9
  6
Continuous
 62
     7
100
AcDbLine
 10
201.980802
 20
142.260199
 30
0.0
 11
201.980802
 21
141.139584
 31
0.0
  0
ARC
  5
108
100
AcDbEntity
  8
1
370
     9
  6
Continuous
 62
     7
100
AcDbCircle
 10
201.280802
 20
142.260199
 30
0.0
 40
0.7
100
AcDbArc
 50
0.0
 51
90.0
  0
LINE
  5
109
100
AcDbEntity
  8
1
370
     9
  6
Continuous
 62
     7
100
AcDbLine
 10
199.480802
 20
142.060199
 30
0.0
 11
200.100259
 21
142.060199
 31
0.0
  0
LINE
  5
10A
100
AcDbEntity
  8
1
370
     9
  6
Continuous
 62
     7
100
AcDbLine
 10
199.480802
 20
141.760199
 30
0.0
 11
200.091461
 21
141.760199
 31
0.0
  0
LINE
  5
10B
100
AcDbEntity
  8
1
370
     9
  6
Continuous
 62
     7
100
AcDbLine
 10
202.361345
 20
142.060199
 30
0.0
 11
202.980802
 21
142.060199
 31
0.0
  0
LINE
  5
10C
100
AcDbEntity
  8
1
370
     9
  6
Continuous
 62
     7
100
AcDbLine
 10
202.980802
 20
141.760199
 30
0.0
 11
202.370143
 21
141.760199
 31
0.0
  0
ELLIPSE
  5
10D
100
AcDbEntity
  8
1
370
     9
  6
Continuous
 62
     7
100
AcDbEllipse
 10
201.230802
 20
140.010199
 30
0.0
 11
1.75
 21
0.0000000000000568
 31
0.0
210
0.0
220
0.0
230
1.0
 40
0.714286
 41
2.0137073708685156
 42
1.1278852827212327
  0
ELLIPSE
  5
10E
100
AcDbEntity
  8
1
370
     9
  6
Continuous
 62
     7
100
AcDbEllipse
 10
201.230802
 20
141.860199
 30
0.0
 11
0.0000000000003887
 21
1.3999999999996788
 31
0.0
210
0.0
220
0.0
230
1.0
 40
0.815899
 41
-2.1752114950182886
 42
2.1752129921753127
  0
LINE
  5
10F
100
AcDbEntity
  8
1
370
     9
  6
Continuous
 62
     7
100
AcDbLine
 10
200.115076
 20
142.160199
 30
0.0
 11
200.480802
 21
142.160199
 31
0.0
  0
LINE
  5
110
100
AcDbEntity
  8
1
370
     9
  6
Continuous
 62
     7
100
AcDbLine
 10
200.136158
 20
142.260199
 30
0.0
 11
200.480802
 21
142.260199
 31
0.0
  0
LINE
  5
111
100
AcDbEntity
  8
1
370
     9
  6
Continuous
 62
     7
100
AcDbLine
 10
201.980802
 20
142.260199
 30
0.0
 11
202.325446
 21
142.260199
 31
0.0
  0
LINE
  5
112
100
AcDbEntity
  8
1
370
     9
  6
Continuous
 62
     7
100
AcDbLine
 10
201.980802
 20
142.160199
 30
0.0
 11
202.346527
 21
142.160199
 31
0.0
  0
LINE
  5
113
100
AcDbEntity
  8
1
370
     9
  6
Continuous
 62
     7
100
AcDbLine
 10
201.910092
 20
146.760199
 30
0.0
 11
199.480802
 21
144.33091
 31
0.0
  0
LINE
  5
114
100
AcDbEntity
  8
1
370
     9
  6
Continuous
 62
     7
100
AcDbLine
 10
199.551513
 20
144.260199
 30
0.0
 11
201.980802
 21
146.689488
 31
0.0
  0
LINE
  5
115
100
AcDbEntity
  8
1
370
     9
  6
Continuous
 62
     7
100
AcDbLine
 10
199.480802
 20
146.260199
 30
0.0
 11
200.844406
 21
146.260199
 31
0.0
  0
LINE
  5
116
100
AcDbEntity
  8
1
370
     9
  6
Continuous
 62
     7
100
AcDbLine
 10
200.844406
 20
146.260199
 30
0.0
 11
201.910092
 21
146.760199
 31
0.0
  0
LINE
  5
117
100
AcDbEntity
  8
1
370
     9
  6
Continuous
 62
     7
100
AcDbLine
 10
200.844406
 20
146.2602
 30
0.0
 11
199.480802
 21
144.896595
 31
0.0
  0
LINE
  5
118
100
AcDbEntity
  8
1
370
     9
  6
Continuous
 62
     7
100
AcDbLine
 10
200.617199
 20
144.760199
 30
0.0
 11
199.551513
 21
144.260199
 31
0.0
  0
LINE
  5
119
100
AcDbEntity
  8
1
370
     9
  6
Continuous
 62
     7
100
AcDbLine
 10
200.617199
 20
144.760199
 30
0.0
 11
201.980802
 21
146.123802
 31
0.0
  0
LINE
  5
11A
100
AcDbEntity
  8
1
370
     9
  6
Continuous
 62
     7
100
AcDbLine
 10
200.617199
 20
144.760199
 30
0.0
 11
201.980802
 21
144.760199
 31
0.0
  0
ELLIPSE
  5
11B
100
AcDbEntity
  8
1
370
     9
  6
Continuous
 62
     7
100
AcDbEllipse
 10
201.230802
 20
140.460199
 30
0.0
 11
1.4325591934990314
 21
0.0
 31
0.0
210
0.0
220
0.0
230
1.0
 40
0.820871
 41
2.8659245593296023
 42
0.2756680942606942
  0
ELLIPSE
  5
11C
100
AcDbEntity
  8
1
370
     9
  6
Continuous
 62
     7
100
AcDbEllipse
 10
201.230101
 20
141.299273
 30
0.0
 11
1.423582467809041
 21
-0.0097461054135124
 31
0.0
210
0.0
220
0.0
230
1.0
 40
0.87095
 41
-2.7474777550974694
 42
-0.3787206361744824
  0
LINE
  5
11D
100
AcDbEntity
  8
1
370
     9
  6
Continuous
 62
     7
100
AcDbLine
 10
199.480802
 20
147.760199
 30
0.0
 11
202.980802
 21
147.760199
 31
0.0
  0
LINE
  5
11E
100
AcDbEntity
  8
1
370
     9
  6
Continuous
 62
     7
100
AcDbLine
 10
202.980802
 20
147.260199
 30
0.0
 11
199.480802
 21
147.260199
 31
0.0
  0
LINE
  5
11F
100
AcDbEntity
  8
1
370
     9
  6
Continuous
 62
     7
100
AcDbLine
 10
195.980802
 20
148.760199
 30
0.0
 11
195.980802
 21
136.760199
 31
0.0
  0
LINE
  5
120
100
AcDbEntity
  8
1
370
     9
  6
Continuous
 62
     7
100
AcDbLine
 10
195.980802
 20
146.760199
 30
0.0
 11
198.480802
 21
146.760199
 31
0.0
  0
LINE
  5
121
100
AcDbEntity
  8
1
370
     9
  6
Continuous
 62
     7
100
AcDbLine
 10
198.480802
 20
146.760199
 30
0.0
 11
198.480802
 21
144.260199
 31
0.0
  0
LINE
  5
122
100
AcDbEntity
  8
1
370
     9
  6
Continuous
 62
     7
100
AcDbLine
 10
198.480802
 20
144.260199
 30
0.0
 11
195.980802
 21
144.260199
 31
0.0
  0
LINE
  5
123
100
AcDbEntity
  8
1
370
     9
  6
Continuous
 62
     7
100
AcDbLine
 10
196.980802
 20
142.260199
 30
0.0
 11
196.980802
 21
141.139584
 31
0.0
  0
ARC
  5
124
100
AcDbEntity
  8
1
370
     9
  6
Continuous
 62
     7
100
AcDbCircle
 10
197.680802
 20
142.260199
 30
0.0
 40
0.7
100
AcDbArc
 50
90.0
 51
180.0
  0
LINE
  5
125
100
AcDbEntity
  8
1
370
     9
  6
Continuous
 62
     7
100
AcDbLine
 10
197.680802
 20
142.960199
 30
0.0
 11
197.780802
 21
142.960199
 31
0.0
  0
LINE
  5
126
100
AcDbEntity
  8
1
370
     9
  6
Continuous
 62
     7
100
AcDbLine
 10
198.480802
 20
142.260199
 30
0.0
 11
198.480802
 21
141.139584
 31
0.0
  0
ARC
  5
127
100
AcDbEntity
  8
1
370
     9
  6
Continuous
 62
     7
100
AcDbCircle
 10
197.780802
 20
142.260199
 30
0.0
 40
0.7
100
AcDbArc
 50
0.0
 51
90.0
  0
LINE
  5
128
100
AcDbEntity
  8
1
370
     9
  6
Continuous
 62
     7
100
AcDbLine
 10
195.980802
 20
142.060199
 30
0.0
 11
196.600259
 21
142.060199
 31
0.0
  0
LINE
  5
129
100
AcDbEntity
  8
1
370
     9
  6
Continuous
 62
     7
100
AcDbLine
 10
195.980802
 20
141.760199
 30
0.0
 11
196.591461
 21
141.760199
 31
0.0
  0
LINE
  5
12A
100
AcDbEntity
  8
1
370
     9
  6
Continuous
 62
     7
100
AcDbLine
 10
198.861345
 20
142.060199
 30
0.0
 11
199.480802
 21
142.060199
 31
0.0
  0
LINE
  5
12B
100
AcDbEntity
  8
1
370
     9
  6
Continuous
 62
     7
100
AcDbLine
 10
199.480802
 20
141.760199
 30
0.0
 11
198.870143
 21
141.760199
 31
0.0
  0
ELLIPSE
  5
12C
100
AcDbEntity
  8
1
370
     9
  6
Continuous
 62
     7
100
AcDbEllipse
 10
197.730802
 20
140.010199
 30
0.0
 11
1.75
 21
0.0000000000000568
 31
0.0
210
0.0
220
0.0
230
1.0
 40
0.714286
 41
2.0137073708685156
 42
1.1278852827212327
  0
ELLIPSE
  5
12D
100
AcDbEntity
  8
1
370
     9
  6
Continuous
 62
     7
100
AcDbEllipse
 10
197.730802
 20
141.860199
 30
0.0
 11
0.0000000000003887
 21
1.3999999999996788
 31
0.0
210
0.0
220
0.0
230
1.0
 40
0.815899
 41
-2.1752114950182886
 42
2.1752129921753127
  0
LINE
  5
12E
100
AcDbEntity
  8
1
370
     9
  6
Continuous
 62
     7
100
AcDbLine
 10
196.615076
 20
142.160199
 30
0.0
 11
196.980802
 21
142.160199
 31
0.0
  0
LINE
  5
12F
100
AcDbEntity
  8
1
370
     9
  6
Continuous
 62
     7
100
AcDbLine
 10
196.636158
 20
142.260199
 30
0.0
 11
196.980802
 21
142.260199
 31
0.0
  0
LINE
  5
130
100
AcDbEntity
  8
1
370
     9
  6
Continuous
 62
     7
100
AcDbLine
 10
198.480802
 20
142.260199
 30
0.0
 11
198.825446
 21
142.260199
 31
0.0
  0
LINE
  5
131
100
AcDbEntity
  8
1
370
     9
  6
Continuous
 62
     7
100
AcDbLine
 10
198.480802
 20
142.160199
 30
0.0
 11
198.846527
 21
142.160199
 31
0.0
  0
LINE
  5
132
100
AcDbEntity
  8
1
370
     9
  6
Continuous
 62
     7
100
AcDbLine
 10
198.410092
 20
146.760199
 30
0.0
 11
195.980802
 21
144.33091
 31
0.0
  0
LINE
  5
133
100
AcDbEntity
  8
1
370
     9
  6
Continuous
 62
     7
100
AcDbLine
 10
196.051513
 20
144.260199
 30
0.0
 11
198.480802
 21
146.689488
 31
0.0
  0
LINE
  5
134
100
AcDbEntity
  8
1
370
     9
  6
Continuous
 62
     7
100
AcDbLine
 10
195.980802
 20
146.260199
 30
0.0
 11
197.344406
 21
146.260199
 31
0.0
  0
LINE
  5
135
100
AcDbEntity
  8
1
370
     9
  6
Continuous
 62
     7
100
AcDbLine
 10
197.344406
 20
146.260199
 30
0.0
 11
198.410092
 21
146.760199
 31
0.0
  0
LINE
  5
136
100
AcDbEntity
  8
1
370
     9
  6
Continuous
 62
     7
100
AcDbLine
 10
197.344406
 20
146.2602
 30
0.0
 11
195.980802
 21
144.896595
 31
0.0
  0
LINE
  5
137
100
AcDbEntity
  8
1
370
     9
  6
Continuous
 62
     7
100
AcDbLine
 10
197.117199
 20
144.760199
 30
0.0
 11
196.051513
 21
144.260199
 31
0.0
  0
LINE
  5
138
100
AcDbEntity
  8
1
370
     9
  6
Continuous
 62
     7
100
AcDbLine
 10
197.117199
 20
144.760199
 30
0.0
 11
198.480802
 21
146.123802
 31
0.0
  0
LINE
  5
139
100
AcDbEntity
  8
1
370
     9
  6
Continuous
 62
     7
100
AcDbLine
 10
197.117199
 20
144.760199
 30
0.0
 11
198.480802
 21
144.760199
 31
0.0
  0
ELLIPSE
  5
13A
100
AcDbEntity
  8
1
370
     9
  6
Continuous
 62
     7
100
AcDbEllipse
 10
197.730802
 20
140.460199
 30
0.0
 11
1.4325591934990314
 21
0.0
 31
0.0
210
0.0
220
0.0
230
1.0
 40
0.820871
 41
2.8659245593296023
 42
0.2756680942606942
  0
ELLIPSE
  5
13B
100
AcDbEntity
  8
1
370
     9
  6
Continuous
 62
     7
100
AcDbEllipse
 10
197.730101
 20
141.299273
 30
0.0
 11
1.423582467809041
 21
-0.0097461054135124
 31
0.0
210
0.0
220
0.0
230
1.0
 40
0.87095
 41
-2.7474777550974694
 42
-0.3787206361744824
  0
LINE
  5
13C
100
AcDbEntity
  8
1
370
     9
  6
Continuous
 62
     7
100
AcDbLine
 10
195.980802
 20
147.760199
 30
0.0
 11
199.480802
 21
147.760199
 31
0.0
  0
LINE
  5
13D
100
AcDbEntity
  8
1
370
     9
  6
Continuous
 62
     7
100
AcDbLine
 10
199.480802
 20
147.260199
 30
0.0
 11
195.980802
 21
147.260199
 31
0.0
  0
LINE
  5
13E
100
AcDbEntity
  8
1
370
     9
  6
Continuous
 62
     7
100
AcDbLine
 10
192.480802
 20
148.760199
 30
0.0
 11
192.480802
 21
136.760199
 31
0.0
  0
LINE
  5
13F
100
AcDbEntity
  8
1
370
     9
  6
Continuous
 62
     7
100
AcDbLine
 10
192.480802
 20
146.760199
 30
0.0
 11
194.980802
 21
146.760199
 31
0.0
  0
LINE
  5
140
100
AcDbEntity
  8
1
370
     9
  6
Continuous
 62
     7
100
AcDbLine
 10
194.980802
 20
146.760199
 30
0.0
 11
194.980802
 21
144.260199
 31
0.0
  0
LINE
  5
141
100
AcDbEntity
  8
1
370
     9
  6
Continuous
 62
     7
100
AcDbLine
 10
194.980802
 20
144.260199
 30
0.0
 11
192.480802
 21
144.260199
 31
0.0
  0
LINE
  5
142
100
AcDbEntity
  8
1
370
     9
  6
Continuous
 62
     7
100
AcDbLine
 10
193.480802
 20
142.260199
 30
0.0
 11
193.480802
 21
141.139584
 31
0.0
  0
ARC
  5
143
100
AcDbEntity
  8
1
370
     9
  6
Continuous
 62
     7
100
AcDbCircle
 10
194.180802
 20
142.260199
 30
0.0
 40
0.7
100
AcDbArc
 50
90.0
 51
180.0
  0
LINE
  5
144
100
AcDbEntity
  8
1
370
     9
  6
Continuous
 62
     7
100
AcDbLine
 10
194.180802
 20
142.960199
 30
0.0
 11
194.280802
 21
142.960199
 31
0.0
  0
LINE
  5
145
100
AcDbEntity
  8
1
370
     9
  6
Continuous
 62
     7
100
AcDbLine
 10
194.980802
 20
142.260199
 30
0.0
 11
194.980802
 21
141.139584
 31
0.0
  0
ARC
  5
146
100
AcDbEntity
  8
1
370
     9
  6
Continuous
 62
     7
100
AcDbCircle
 10
194.280802
 20
142.260199
 30
0.0
 40
0.7
100
AcDbArc
 50
0.0
 51
90.0
  0
LINE
  5
147
100
AcDbEntity
  8
1
370
     9
  6
Continuous
 62
     7
100
AcDbLine
 10
192.480802
 20
142.060199
 30
0.0
 11
193.100259
 21
142.060199
 31
0.0
  0
LINE
  5
148
100
AcDbEntity
  8
1
370
     9
  6
Continuous
 62
     7
100
AcDbLine
 10
192.480802
 20
141.760199
 30
0.0
 11
193.091461
 21
141.760199
 31
0.0
  0
LINE
  5
149
100
AcDbEntity
  8
1
370
     9
  6
Continuous
 62
     7
100
AcDbLine
 10
195.361345
 20
142.060199
 30
0.0
 11
195.980802
 21
142.060199
 31
0.0
  0
LINE
  5
14A
100
AcDbEntity
  8
1
370
     9
  6
Continuous
 62
     7
100
AcDbLine
 10
195.980802
 20
141.760199
 30
0.0
 11
195.370143
 21
141.760199
 31
0.0
  0
ELLIPSE
  5
14B
100
AcDbEntity
  8
1
370
     9
  6
Continuous
 62
     7
100
AcDbEllipse
 10
194.230802
 20
140.010199
 30
0.0
 11
1.75
 21
0.0000000000000568
 31
0.0
210
0.0
220
0.0
230
1.0
 40
0.714286
 41
2.0137073708685156
 42
1.1278852827212327
  0
ELLIPSE
  5
14C
100
AcDbEntity
  8
1
370
     9
  6
Continuous
 62
     7
100
AcDbEllipse
 10
194.230802
 20
141.860199
 30
0.0
 11
0.0000000000003887
 21
1.3999999999996788
 31
0.0
210
0.0
220
0.0
230
1.0
 40
0.815899
 41
-2.1752114950182886
 42
2.1752129921753127
  0
LINE
  5
14D
100
AcDbEntity
  8
1
370
     9
  6
Continuous
 62
     7
100
AcDbLine
 10
193.115076
 20
142.160199
 30
0.0
 11
193.480802
 21
142.160199
 31
0.0
  0
LINE
  5
14E
100
AcDbEntity
  8
1
370
     9
  6
Continuous
 62
     7
100
AcDbLine
 10
193.136158
 20
142.260199
 30
0.0
 11
193.480802
 21
142.260199
 31
0.0
  0
LINE
  5
14F
100
AcDbEntity
  8
1
370
     9
  6
Continuous
 62
     7
100
AcDbLine
 10
194.980802
 20
142.260199
 30
0.0
 11
195.325446
 21
142.260199
 31
0.0
  0
LINE
  5
150
100
AcDbEntity
  8
1
370
     9
  6
Continuous
 62
     7
100
AcDbLine
 10
194.980802
 20
142.160199
 30
0.0
 11
195.346527
 21
142.160199
 31
0.0
  0
LINE
  5
151
100
AcDbEntity
  8
1
370
     9
  6
Continuous
 62
     7
100
AcDbLine
 10
194.910092
 20
146.760199
 30
0.0
 11
192.480802
 21
144.33091
 31
0.0
  0
LINE
  5
152
100
AcDbEntity
  8
1
370
     9
  6
Continuous
 62
     7
100
AcDbLine
 10
192.551513
 20
144.260199
 30
0.0
 11
194.980802
 21
146.689488
 31
0.0
  0
LINE
  5
153
100
AcDbEntity
  8
1
370
     9
  6
Continuous
 62
     7
100
AcDbLine
 10
192.480802
 20
146.260199
 30
0.0
 11
193.844406
 21
146.260199
 31
0.0
  0
LINE
  5
154
100
AcDbEntity
  8
1
370
     9
  6
Continuous
 62
     7
100
AcDbLine
 10
193.844406
 20
146.260199
 30
0.0
 11
194.910092
 21
146.760199
 31
0.0
  0
LINE
  5
155
100
AcDbEntity
  8
1
370
     9
  6
Continuous
 62
     7
100
AcDbLine
 10
193.844406
 20
146.2602
 30
0.0
 11
192.480802
 21
144.896595
 31
0.0
  0
LINE
  5
156
100
AcDbEntity
  8
1
370
     9
  6
Continuous
 62
     7
100
AcDbLine
 10
193.617199
 20
144.760199
 30
0.0
 11
192.551513
 21
144.260199
 31
0.0
  0
LINE
  5
157
100
AcDbEntity
  8
1
370
     9
  6
Continuous
 62
     7
100
AcDbLine
 10
193.617199
 20
144.760199
 30
0.0
 11
194.980802
 21
146.123802
 31
0.0
  0
LINE
  5
158
100
AcDbEntity
  8
1
370
     9
  6
Continuous
 62
     7
100
AcDbLine
 10
193.617199
 20
144.760199
 30
0.0
 11
194.980802
 21
144.760199
 31
0.0
  0
ELLIPSE
  5
159
100
AcDbEntity
  8
1
370
     9
  6
Continuous
 62
     7
100
AcDbEllipse
 10
194.230802
 20
140.460199
 30
0.0
 11
1.4325591934990314
 21
0.0
 31
0.0
210
0.0
220
0.0
230
1.0
 40
0.820871
 41
2.8659245593296023
 42
0.2756680942606942
  0
ELLIPSE
  5
15A
100
AcDbEntity
  8
1
370
     9
  6
Continuous
 62
     7
100
AcDbEllipse
 10
194.230101
 20
141.299273
 30
0.0
 11
1.423582467809041
 21
-0.0097461054135124
 31
0.0
210
0.0
220
0.0
230
1.0
 40
0.87095
 41
-2.7474777550974694
 42
-0.3787206361744824
  0
LINE
  5
15B
100
AcDbEntity
  8
1
370
     9
  6
Continuous
 62
     7
100
AcDbLine
 10
192.480802
 20
147.760199
 30
0.0
 11
195.980802
 21
147.760199
 31
0.0
  0
LINE
  5
15C
100
AcDbEntity
  8
1
370
     9
  6
Continuous
 62
     7
100
AcDbLine
 10
195.980802
 20
147.260199
 30
0.0
 11
192.480802
 21
147.260199
 31
0.0
  0
LINE
  5
15D
100
AcDbEntity
  8
1
370
     9
  6
Continuous
 62
     7
100
AcDbLine
 10
188.980802
 20
148.760199
 30
0.0
 11
188.980802
 21
136.760199
 31
0.0
  0
LINE
  5
15E
100
AcDbEntity
  8
1
370
     9
  6
Continuous
 62
     7
100
AcDbLine
 10
188.980802
 20
146.760199
 30
0.0
 11
191.480802
 21
146.760199
 31
0.0
  0
LINE
  5
15F
100
AcDbEntity
  8
1
370
     9
  6
Continuous
 62
     7
100
AcDbLine
 10
191.480802
 20
146.760199
 30
0.0
 11
191.480802
 21
144.260199
 31
0.0
  0
LINE
  5
160
100
AcDbEntity
  8
1
370
     9
  6
Continuous
 62
     7
100
AcDbLine
 10
191.480802
 20
144.260199
 30
0.0
 11
188.980802
 21
144.260199
 31
0.0
  0
LINE
  5
161
100
AcDbEntity
  8
1
370
     9
  6
Continuous
 62
     7
100
AcDbLine
 10
189.980802
 20
142.260199
 30
0.0
 11
189.980802
 21
141.139584
 31
0.0
  0
ARC
  5
162
100
AcDbEntity
  8
1
370
     9
  6
Continuous
 62
     7
100
AcDbCircle
 10
190.680802
 20
142.260199
 30
0.0
 40
0.7
100
AcDbArc
 50
90.0
 51
180.0
  0
LINE
  5
163
100
AcDbEntity
  8
1
370
     9
  6
Continuous
 62
     7
100
AcDbLine
 10
190.680802
 20
142.960199
 30
0.0
 11
190.780802
 21
142.960199
 31
0.0
  0
LINE
  5
164
100
AcDbEntity
  8
1
370
     9
  6
Continuous
 62
     7
100
AcDbLine
 10
191.480802
 20
142.260199
 30
0.0
 11
191.480802
 21
141.139584
 31
0.0
  0
ARC
  5
165
100
AcDbEntity
  8
1
370
     9
  6
Continuous
 62
     7
100
AcDbCircle
 10
190.780802
 20
142.260199
 30
0.0
 40
0.7
100
AcDbArc
 50
0.0
 51
90.0
  0
LINE
  5
166
100
AcDbEntity
  8
1
370
     9
  6
Continuous
 62
     7
100
AcDbLine
 10
188.980802
 20
142.060199
 30
0.0
 11
189.600259
 21
142.060199
 31
0.0
  0
LINE
  5
167
100
AcDbEntity
  8
1
370
     9
  6
Continuous
 62
     7
100
AcDbLine
 10
188.980802
 20
141.760199
 30
0.0
 11
189.591461
 21
141.760199
 31
0.0
  0
LINE
  5
168
100
AcDbEntity
  8
1
370
     9
  6
Continuous
 62
     7
100
AcDbLine
 10
191.861345
 20
142.060199
 30
0.0
 11
192.480802
 21
142.060199
 31
0.0
  0
LINE
  5
169
100
AcDbEntity
  8
1
370
     9
  6
Continuous
 62
     7
100
AcDbLine
 10
192.480802
 20
141.760199
 30
0.0
 11
191.870143
 21
141.760199
 31
0.0
  0
ELLIPSE
  5
16A
100
AcDbEntity
  8
1
370
     9
  6
Continuous
 62
     7
100
AcDbEllipse
 10
190.730802
 20
140.010199
 30
0.0
 11
1.75
 21
0.0000000000000568
 31
0.0
210
0.0
220
0.0
230
1.0
 40
0.714286
 41
2.0137073708685156
 42
1.1278852827212327
  0
ELLIPSE
  5
16B
100
AcDbEntity
  8
1
370
     9
  6
Continuous
 62
     7
100
AcDbEllipse
 10
190.730802
 20
141.860199
 30
0.0
 11
0.0000000000003887
 21
1.3999999999996788
 31
0.0
210
0.0
220
0.0
230
1.0
 40
0.815899
 41
-2.1752114950182886
 42
2.1752129921753127
  0
LINE
  5
16C
100
AcDbEntity
  8
1
370
     9
  6
Continuous
 62
     7
100
AcDbLine
 10
189.615076
 20
142.160199
 30
0.0
 11
189.980802
 21
142.160199
 31
0.0
  0
LINE
  5
16D
100
AcDbEntity
  8
1
370
     9
  6
Continuous
 62
     7
100
AcDbLine
 10
189.636158
 20
142.260199
 30
0.0
 11
189.980802
 21
142.260199
 31
0.0
  0
LINE
  5
16E
100
AcDbEntity
  8
1
370
     9
  6
Continuous
 62
     7
100
AcDbLine
 10
191.480802
 20
142.260199
 30
0.0
 11
191.825446
 21
142.260199
 31
0.0
  0
LINE
  5
16F
100
AcDbEntity
  8
1
370
     9
  6
Continuous
 62
     7
100
AcDbLine
 10
191.480802
 20
142.160199
 30
0.0
 11
191.846527
 21
142.160199
 31
0.0
  0
LINE
  5
170
100
AcDbEntity
  8
1
370
     9
  6
Continuous
 62
     7
100
AcDbLine
 10
191.410092
 20
146.760199
 30
0.0
 11
188.980802
 21
144.33091
 31
0.0
  0
LINE
  5
171
100
AcDbEntity
  8
1
370
     9
  6
Continuous
 62
     7
100
AcDbLine
 10
189.051513
 20
144.260199
 30
0.0
 11
191.480802
 21
146.689488
 31
0.0
  0
LINE
  5
172
100
AcDbEntity
  8
1
370
     9
  6
Continuous
 62
     7
100
AcDbLine
 10
188.980802
 20
146.260199
 30
0.0
 11
190.344406
 21
146.260199
 31
0.0
  0
LINE
  5
173
100
AcDbEntity
  8
1
370
     9
  6
Continuous
 62
     7
100
AcDbLine
 10
190.344406
 20
146.260199
 30
0.0
 11
191.410092
 21
146.760199
 31
0.0
  0
LINE
  5
174
100
AcDbEntity
  8
1
370
     9
  6
Continuous
 62
     7
100
AcDbLine
 10
190.344406
 20
146.2602
 30
0.0
 11
188.980802
 21
144.896595
 31
0.0
  0
LINE
  5
175
100
AcDbEntity
  8
1
370
     9
  6
Continuous
 62
     7
100
AcDbLine
 10
190.117199
 20
144.760199
 30
0.0
 11
189.051513
 21
144.260199
 31
0.0
  0
LINE
  5
176
100
AcDbEntity
  8
1
370
     9
  6
Continuous
 62
     7
100
AcDbLine
 10
190.117199
 20
144.760199
 30
0.0
 11
191.480802
 21
146.123802
 31
0.0
  0
LINE
  5
177
100
AcDbEntity
  8
1
370
     9
  6
Continuous
 62
     7
100
AcDbLine
 10
190.117199
 20
144.760199
 30
0.0
 11
191.480802
 21
144.760199
 31
0.0
  0
ELLIPSE
  5
178
100
AcDbEntity
  8
1
370
     9
  6
Continuous
 62
     7
100
AcDbEllipse
 10
190.730802
 20
140.460199
 30
0.0
 11
1.4325591934990314
 21
0.0
 31
0.0
210
0.0
220
0.0
230
1.0
 40
0.820871
 41
2.8659245593296023
 42
0.2756680942606942
  0
ELLIPSE
  5
179
100
AcDbEntity
  8
1
370
     9
  6
Continuous
 62
     7
100
AcDbEllipse
 10
190.730101
 20
141.299273
 30
0.0
 11
1.423582467809041
 21
-0.0097461054135124
 31
0.0
210
0.0
220
0.0
230
1.0
 40
0.87095
 41
-2.7474777550974694
 42
-0.3787206361744824
  0
LINE
  5
17A
100
AcDbEntity
  8
1
370
     9
  6
Continuous
 62
     7
100
AcDbLine
 10
188.980802
 20
147.760199
 30
0.0
 11
192.480802
 21
147.760199
 31
0.0
  0
LINE
  5
17B
100
AcDbEntity
  8
1
370
     9
  6
Continuous
 62
     7
100
AcDbLine
 10
192.480802
 20
147.260199
 30
0.0
 11
188.980802
 21
147.260199
 31
0.0
  0
LINE
  5
17C
100
AcDbEntity
  8
1
370
     9
  6
Continuous
 62
     7
100
AcDbLine
 10
185.480802
 20
148.760199
 30
0.0
 11
185.480802
 21
136.760199
 31
0.0
  0
LINE
  5
17D
100
AcDbEntity
  8
1
370
     9
  6
Continuous
 62
     7
100
AcDbLine
 10
185.480802
 20
146.760199
 30
0.0
 11
187.980802
 21
146.760199
 31
0.0
  0
LINE
  5
17E
100
AcDbEntity
  8
1
370
     9
  6
Continuous
 62
     7
100
AcDbLine
 10
187.980802
 20
146.760199
 30
0.0
 11
187.980802
 21
144.260199
 31
0.0
  0
LINE
  5
17F
100
AcDbEntity
  8
1
370
     9
  6
Continuous
 62
     7
100
AcDbLine
 10
187.980802
 20
144.260199
 30
0.0
 11
185.480802
 21
144.260199
 31
0.0
  0
LINE
  5
180
100
AcDbEntity
  8
1
370
     9
  6
Continuous
 62
     7
100
AcDbLine
 10
186.480802
 20
142.260199
 30
0.0
 11
186.480802
 21
141.139584
 31
0.0
  0
ARC
  5
181
100
AcDbEntity
  8
1
370
     9
  6
Continuous
 62
     7
100
AcDbCircle
 10
187.180802
 20
142.260199
 30
0.0
 40
0.7
100
AcDbArc
 50
90.0
 51
180.0
  0
LINE
  5
182
100
AcDbEntity
  8
1
370
     9
  6
Continuous
 62
     7
100
AcDbLine
 10
187.180802
 20
142.960199
 30
0.0
 11
187.280802
 21
142.960199
 31
0.0
  0
LINE
  5
183
100
AcDbEntity
  8
1
370
     9
  6
Continuous
 62
     7
100
AcDbLine
 10
187.980802
 20
142.260199
 30
0.0
 11
187.980802
 21
141.139584
 31
0.0
  0
ARC
  5
184
100
AcDbEntity
  8
1
370
     9
  6
Continuous
 62
     7
100
AcDbCircle
 10
187.280802
 20
142.260199
 30
0.0
 40
0.7
100
AcDbArc
 50
0.0
 51
90.0
  0
LINE
  5
185
100
AcDbEntity
  8
1
370
     9
  6
Continuous
 62
     7
100
AcDbLine
 10
185.480802
 20
142.060199
 30
0.0
 11
186.100259
 21
142.060199
 31
0.0
  0
LINE
  5
186
100
AcDbEntity
  8
1
370
     9
  6
Continuous
 62
     7
100
AcDbLine
 10
185.480802
 20
141.760199
 30
0.0
 11
186.091461
 21
141.760199
 31
0.0
  0
LINE
  5
187
100
AcDbEntity
  8
1
370
     9
  6
Continuous
 62
     7
100
AcDbLine
 10
188.361345
 20
142.060199
 30
0.0
 11
188.980802
 21
142.060199
 31
0.0
  0
LINE
  5
188
100
AcDbEntity
  8
1
370
     9
  6
Continuous
 62
     7
100
AcDbLine
 10
188.980802
 20
141.760199
 30
0.0
 11
188.370143
 21
141.760199
 31
0.0
  0
ELLIPSE
  5
189
100
AcDbEntity
  8
1
370
     9
  6
Continuous
 62
     7
100
AcDbEllipse
 10
187.230802
 20
140.010199
 30
0.0
 11
1.75
 21
0.0000000000000568
 31
0.0
210
0.0
220
0.0
230
1.0
 40
0.714286
 41
2.0137073708685156
 42
1.1278852827212327
  0
ELLIPSE
  5
18A
100
AcDbEntity
  8
1
370
     9
  6
Continuous
 62
     7
100
AcDbEllipse
 10
187.230802
 20
141.860199
 30
0.0
 11
0.0000000000003887
 21
1.3999999999996788
 31
0.0
210
0.0
220
0.0
230
1.0
 40
0.815899
 41
-2.1752114950182886
 42
2.1752129921753127
  0
LINE
  5
18B
100
AcDbEntity
  8
1
370
     9
  6
Continuous
 62
     7
100
AcDbLine
 10
186.115076
 20
142.160199
 30
0.0
 11
186.480802
 21
142.160199
 31
0.0
  0
LINE
  5
18C
100
AcDbEntity
  8
1
370
     9
  6
Continuous
 62
     7
100
AcDbLine
 10
186.136158
 20
142.260199
 30
0.0
 11
186.480802
 21
142.260199
 31
0.0
  0
LINE
  5
18D
100
AcDbEntity
  8
1
370
     9
  6
Continuous
 62
     7
100
AcDbLine
 10
187.980802
 20
142.260199
 30
0.0
 11
188.325446
 21
142.260199
 31
0.0
  0
LINE
  5
18E
100
AcDbEntity
  8
1
370
     9
  6
Continuous
 62
     7
100
AcDbLine
 10
187.980802
 20
142.160199
 30
0.0
 11
188.346527
 21
142.160199
 31
0.0
  0
LINE
  5
18F
100
AcDbEntity
  8
1
370
     9
  6
Continuous
 62
     7
100
AcDbLine
 10
187.910092
 20
146.760199
 30
0.0
 11
185.480802
 21
144.33091
 31
0.0
  0
LINE
  5
190
100
AcDbEntity
  8
1
370
     9
  6
Continuous
 62
     7
100
AcDbLine
 10
185.551513
 20
144.260199
 30
0.0
 11
187.980802
 21
146.689488
 31
0.0
  0
LINE
  5
191
100
AcDbEntity
  8
1
370
     9
  6
Continuous
 62
     7
100
AcDbLine
 10
185.480802
 20
146.260199
 30
0.0
 11
186.844406
 21
146.260199
 31
0.0
  0
LINE
  5
192
100
AcDbEntity
  8
1
370
     9
  6
Continuous
 62
     7
100
AcDbLine
 10
186.844406
 20
146.260199
 30
0.0
 11
187.910092
 21
146.760199
 31
0.0
  0
LINE
  5
193
100
AcDbEntity
  8
1
370
     9
  6
Continuous
 62
     7
100
AcDbLine
 10
186.844406
 20
146.2602
 30
0.0
 11
185.480802
 21
144.896595
 31
0.0
  0
LINE
  5
194
100
AcDbEntity
  8
1
370
     9
  6
Continuous
 62
     7
100
AcDbLine
 10
186.617199
 20
144.760199
 30
0.0
 11
185.551513
 21
144.260199
 31
0.0
  0
LINE
  5
195
100
AcDbEntity
  8
1
370
     9
  6
Continuous
 62
     7
100
AcDbLine
 10
186.617199
 20
144.760199
 30
0.0
 11
187.980802
 21
146.123802
 31
0.0
  0
LINE
  5
196
100
AcDbEntity
  8
1
370
     9
  6
Continuous
 62
     7
100
AcDbLine
 10
186.617199
 20
144.760199
 30
0.0
 11
187.980802
 21
144.760199
 31
0.0
  0
ELLIPSE
  5
197
100
AcDbEntity
  8
1
370
     9
  6
Continuous
 62
     7
100
AcDbEllipse
 10
187.230802
 20
140.460199
 30
0.0
 11
1.4325591934990314
 21
0.0
 31
0.0
210
0.0
220
0.0
230
1.0
 40
0.820871
 41
2.8659245593296023
 42
0.2756680942606942
  0
ELLIPSE
  5
198
100
AcDbEntity
  8
1
370
     9
  6
Continuous
 62
     7
100
AcDbEllipse
 10
187.230101
 20
141.299273
 30
0.0
 11
1.423582467809041
 21
-0.0097461054135124
 31
0.0
210
0.0
220
0.0
230
1.0
 40
0.87095
 41
-2.7474777550974694
 42
-0.3787206361744824
  0
LINE
  5
199
100
AcDbEntity
  8
1
370
     9
  6
Continuous
 62
     7
100
AcDbLine
 10
185.480802
 20
147.760199
 30
0.0
 11
188.980802
 21
147.760199
 31
0.0
  0
LINE
  5
19A
100
AcDbEntity
  8
1
370
     9
  6
Continuous
 62
     7
100
AcDbLine
 10
188.980802
 20
147.260199
 30
0.0
 11
185.480802
 21
147.260199
 31
0.0
  0
LINE
  5
19B
100
AcDbEntity
  8
1
370
     9
  6
Continuous
 62
     7
100
AcDbLine
 10
181.980802
 20
148.760199
 30
0.0
 11
181.980802
 21
136.760199
 31
0.0
  0
LINE
  5
19C
100
AcDbEntity
  8
1
370
     9
  6
Continuous
 62
     7
100
AcDbLine
 10
181.980802
 20
146.760199
 30
0.0
 11
184.480802
 21
146.760199
 31
0.0
  0
LINE
  5
19D
100
AcDbEntity
  8
1
370
     9
  6
Continuous
 62
     7
100
AcDbLine
 10
184.480802
 20
146.760199
 30
0.0
 11
184.480802
 21
144.260199
 31
0.0
  0
LINE
  5
19E
100
AcDbEntity
  8
1
370
     9
  6
Continuous
 62
     7
100
AcDbLine
 10
184.480802
 20
144.260199
 30
0.0
 11
181.980802
 21
144.260199
 31
0.0
  0
LINE
  5
19F
100
AcDbEntity
  8
1
370
     9
  6
Continuous
 62
     7
100
AcDbLine
 10
182.980802
 20
142.260199
 30
0.0
 11
182.980802
 21
141.139584
 31
0.0
  0
ARC
  5
1A0
100
AcDbEntity
  8
1
370
     9
  6
Continuous
 62
     7
100
AcDbCircle
 10
183.680802
 20
142.260199
 30
0.0
 40
0.7
100
AcDbArc
 50
90.0
 51
180.0
  0
LINE
  5
1A1
100
AcDbEntity
  8
1
370
     9
  6
Continuous
 62
     7
100
AcDbLine
 10
183.680802
 20
142.960199
 30
0.0
 11
183.780802
 21
142.960199
 31
0.0
  0
LINE
  5
1A2
100
AcDbEntity
  8
1
370
     9
  6
Continuous
 62
     7
100
AcDbLine
 10
184.480802
 20
142.260199
 30
0.0
 11
184.480802
 21
141.139584
 31
0.0
  0
ARC
  5
1A3
100
AcDbEntity
  8
1
370
     9
  6
Continuous
 62
     7
100
AcDbCircle
 10
183.780802
 20
142.260199
 30
0.0
 40
0.7
100
AcDbArc
 50
0.0
 51
90.0
  0
LINE
  5
1A4
100
AcDbEntity
  8
1
370
     9
  6
Continuous
 62
     7
100
AcDbLine
 10
181.980802
 20
142.060199
 30
0.0
 11
182.600259
 21
142.060199
 31
0.0
  0
LINE
  5
1A5
100
AcDbEntity
  8
1
370
     9
  6
Continuous
 62
     7
100
AcDbLine
 10
181.980802
 20
141.760199
 30
0.0
 11
182.591461
 21
141.760199
 31
0.0
  0
LINE
  5
1A6
100
AcDbEntity
  8
1
370
     9
  6
Continuous
 62
     7
100
AcDbLine
 10
184.861345
 20
142.060199
 30
0.0
 11
185.480802
 21
142.060199
 31
0.0
  0
LINE
  5
1A7
100
AcDbEntity
  8
1
370
     9
  6
Continuous
 62
     7
100
AcDbLine
 10
185.480802
 20
141.760199
 30
0.0
 11
184.870143
 21
141.760199
 31
0.0
  0
ELLIPSE
  5
1A8
100
AcDbEntity
  8
1
370
     9
  6
Continuous
 62
     7
100
AcDbEllipse
 10
183.730802
 20
140.010199
 30
0.0
 11
1.75
 21
0.0000000000000568
 31
0.0
210
0.0
220
0.0
230
1.0
 40
0.714286
 41
2.0137073708685156
 42
1.1278852827212327
  0
ELLIPSE
  5
1A9
100
AcDbEntity
  8
1
370
     9
  6
Continuous
 62
     7
100
AcDbEllipse
 10
183.730802
 20
141.860199
 30
0.0
 11
0.0000000000003887
 21
1.3999999999996788
 31
0.0
210
0.0
220
0.0
230
1.0
 40
0.815899
 41
-2.1752114950182886
 42
2.1752129921753127
  0
LINE
  5
1AA
100
AcDbEntity
  8
1
370
     9
  6
Continuous
 62
     7
100
AcDbLine
 10
182.615076
 20
142.160199
 30
0.0
 11
182.980802
 21
142.160199
 31
0.0
  0
LINE
  5
1AB
100
AcDbEntity
  8
1
370
     9
  6
Continuous
 62
     7
100
AcDbLine
 10
182.636158
 20
142.260199
 30
0.0
 11
182.980802
 21
142.260199
 31
0.0
  0
LINE
  5
1AC
100
AcDbEntity
  8
1
370
     9
  6
Continuous
 62
     7
100
AcDbLine
 10
184.480802
 20
142.260199
 30
0.0
 11
184.825446
 21
142.260199
 31
0.0
  0
LINE
  5
1AD
100
AcDbEntity
  8
1
370
     9
  6
Continuous
 62
     7
100
AcDbLine
 10
184.480802
 20
142.160199
 30
0.0
 11
184.846527
 21
142.160199
 31
0.0
  0
LINE
  5
1AE
100
AcDbEntity
  8
1
370
     9
  6
Continuous
 62
     7
100
AcDbLine
 10
184.410092
 20
146.760199
 30
0.0
 11
181.980802
 21
144.33091
 31
0.0
  0
LINE
  5
1AF
100
AcDbEntity
  8
1
370
     9
  6
Continuous
 62
     7
100
AcDbLine
 10
182.051513
 20
144.260199
 30
0.0
 11
184.480802
 21
146.689488
 31
0.0
  0
LINE
  5
1B0
100
AcDbEntity
  8
1
370
     9
  6
Continuous
 62
     7
100
AcDbLine
 10
181.980802
 20
146.260199
 30
0.0
 11
183.344406
 21
146.260199
 31
0.0
  0
LINE
  5
1B1
100
AcDbEntity
  8
1
370
     9
  6
Continuous
 62
     7
100
AcDbLine
 10
183.344406
 20
146.260199
 30
0.0
 11
184.410092
 21
146.760199
 31
0.0
  0
LINE
  5
1B2
100
AcDbEntity
  8
1
370
     9
  6
Continuous
 62
     7
100
AcDbLine
 10
183.344406
 20
146.2602
 30
0.0
 11
181.980802
 21
144.896595
 31
0.0
  0
LINE
  5
1B3
100
AcDbEntity
  8
1
370
     9
  6
Continuous
 62
     7
100
AcDbLine
 10
183.117199
 20
144.760199
 30
0.0
 11
182.051513
 21
144.260199
 31
0.0
  0
LINE
  5
1B4
100
AcDbEntity
  8
1
370
     9
  6
Continuous
 62
     7
100
AcDbLine
 10
183.117199
 20
144.760199
 30
0.0
 11
184.480802
 21
146.123802
 31
0.0
  0
LINE
  5
1B5
100
AcDbEntity
  8
1
370
     9
  6
Continuous
 62
     7
100
AcDbLine
 10
183.117199
 20
144.760199
 30
0.0
 11
184.480802
 21
144.760199
 31
0.0
  0
ELLIPSE
  5
1B6
100
AcDbEntity
  8
1
370
     9
  6
Continuous
 62
     7
100
AcDbEllipse
 10
183.730802
 20
140.460199
 30
0.0
 11
1.4325591934990314
 21
0.0
 31
0.0
210
0.0
220
0.0
230
1.0
 40
0.820871
 41
2.8659245593296023
 42
0.2756680942606942
  0
ELLIPSE
  5
1B7
100
AcDbEntity
  8
1
370
     9
  6
Continuous
 62
     7
100
AcDbEllipse
 10
183.730101
 20
141.299273
 30
0.0
 11
1.423582467809041
 21
-0.0097461054135124
 31
0.0
210
0.0
220
0.0
230
1.0
 40
0.87095
 41
-2.7474777550974694
 42
-0.3787206361744824
  0
LINE
  5
1B8
100
AcDbEntity
  8
1
370
     9
  6
Continuous
 62
     7
100
AcDbLine
 10
181.980802
 20
147.760199
 30
0.0
 11
185.480802
 21
147.760199
 31
0.0
  0
LINE
  5
1B9
100
AcDbEntity
  8
1
370
     9
  6
Continuous
 62
     7
100
AcDbLine
 10
185.480802
 20
147.260199
 30
0.0
 11
181.980802
 21
147.260199
 31
0.0
  0
LINE
  5
1BA
100
AcDbEntity
  8
1
370
     9
  6
Continuous
 62
     7
100
AcDbLine
 10
175.980802
 20
148.760199
 30
0.0
 11
175.980802
 21
136.760199
 31
0.0
  0
LINE
  5
1BB
100
AcDbEntity
  8
1
370
     9
  6
Continuous
 62
     7
100
AcDbLine
 10
175.980802
 20
146.760199
 30
0.0
 11
178.480802
 21
146.760199
 31
0.0
  0
LINE
  5
1BC
100
AcDbEntity
  8
1
370
     9
  6
Continuous
 62
     7
100
AcDbLine
 10
178.480802
 20
146.760199
 30
0.0
 11
178.480802
 21
144.260199
 31
0.0
  0
LINE
  5
1BD
100
AcDbEntity
  8
1
370
     9
  6
Continuous
 62
     7
100
AcDbLine
 10
178.480802
 20
144.260199
 30
0.0
 11
175.980802
 21
144.260199
 31
0.0
  0
LINE
  5
1BE
100
AcDbEntity
  8
1
370
     9
  6
Continuous
 62
     7
100
AcDbLine
 10
176.980802
 20
142.260199
 30
0.0
 11
176.980802
 21
141.139584
 31
0.0
  0
ARC
  5
1BF
100
AcDbEntity
  8
1
370
     9
  6
Continuous
 62
     7
100
AcDbCircle
 10
177.680802
 20
142.260199
 30
0.0
 40
0.7
100
AcDbArc
 50
90.0
 51
180.0
  0
LINE
  5
1C0
100
AcDbEntity
  8
1
370
     9
  6
Continuous
 62
     7
100
AcDbLine
 10
177.680802
 20
142.960199
 30
0.0
 11
177.780802
 21
142.960199
 31
0.0
  0
LINE
  5
1C1
100
AcDbEntity
  8
1
370
     9
  6
Continuous
 62
     7
100
AcDbLine
 10
178.480802
 20
142.260199
 30
0.0
 11
178.480802
 21
141.139584
 31
0.0
  0
ARC
  5
1C2
100
AcDbEntity
  8
1
370
     9
  6
Continuous
 62
     7
100
AcDbCircle
 10
177.780802
 20
142.260199
 30
0.0
 40
0.7
100
AcDbArc
 50
0.0
 51
90.0
  0
LINE
  5
1C3
100
AcDbEntity
  8
1
370
     9
  6
Continuous
 62
     7
100
AcDbLine
 10
175.980802
 20
142.060199
 30
0.0
 11
176.600259
 21
142.060199
 31
0.0
  0
LINE
  5
1C4
100
AcDbEntity
  8
1
370
     9
  6
Continuous
 62
     7
100
AcDbLine
 10
175.980802
 20
141.760199
 30
0.0
 11
176.591461
 21
141.760199
 31
0.0
  0
LINE
  5
1C5
100
AcDbEntity
  8
1
370
     9
  6
Continuous
 62
     7
100
AcDbLine
 10
178.861345
 20
142.060199
 30
0.0
 11
179.480802
 21
142.060199
 31
0.0
  0
LINE
  5
1C6
100
AcDbEntity
  8
1
370
     9
  6
Continuous
 62
     7
100
AcDbLine
 10
179.480802
 20
141.760199
 30
0.0
 11
178.870143
 21
141.760199
 31
0.0
  0
ELLIPSE
  5
1C7
100
AcDbEntity
  8
1
370
     9
  6
Continuous
 62
     7
100
AcDbEllipse
 10
177.730802
 20
140.010199
 30
0.0
 11
1.75
 21
0.0000000000000568
 31
0.0
210
0.0
220
0.0
230
1.0
 40
0.714286
 41
2.0137073708685156
 42
1.1278852827212327
  0
ELLIPSE
  5
1C8
100
AcDbEntity
  8
1
370
     9
  6
Continuous
 62
     7
100
AcDbEllipse
 10
177.730802
 20
141.860199
 30
0.0
 11
0.0000000000003887
 21
1.3999999999996788
 31
0.0
210
0.0
220
0.0
230
1.0
 40
0.815899
 41
-2.1752114950182886
 42
2.1752129921753127
  0
LINE
  5
1C9
100
AcDbEntity
  8
1
370
     9
  6
Continuous
 62
     7
100
AcDbLine
 10
176.615076
 20
142.160199
 30
0.0
 11
176.980802
 21
142.160199
 31
0.0
  0
LINE
  5
1CA
100
AcDbEntity
  8
1
370
     9
  6
Continuous
 62
     7
100
AcDbLine
 10
176.636158
 20
142.260199
 30
0.0
 11
176.980802
 21
142.260199
 31
0.0
  0
LINE
  5
1CB
100
AcDbEntity
  8
1
370
     9
  6
Continuous
 62
     7
100
AcDbLine
 10
178.480802
 20
142.260199
 30
0.0
 11
178.825446
 21
142.260199
 31
0.0
  0
LINE
  5
1CC
100
AcDbEntity
  8
1
370
     9
  6
Continuous
 62
     7
100
AcDbLine
 10
178.480802
 20
142.160199
 30
0.0
 11
178.846527
 21
142.160199
 31
0.0
  0
LINE
  5
1CD
100
AcDbEntity
  8
1
370
     9
  6
Continuous
 62
     7
100
AcDbLine
 10
178.410092
 20
146.760199
 30
0.0
 11
175.980802
 21
144.33091
 31
0.0
  0
LINE
  5
1CE
100
AcDbEntity
  8
1
370
     9
  6
Continuous
 62
     7
100
AcDbLine
 10
176.051513
 20
144.260199
 30
0.0
 11
178.480802
 21
146.689488
 31
0.0
  0
LINE
  5
1CF
100
AcDbEntity
  8
1
370
     9
  6
Continuous
 62
     7
100
AcDbLine
 10
175.980802
 20
146.260199
 30
0.0
 11
177.344406
 21
146.260199
 31
0.0
  0
LINE
  5
1D0
100
AcDbEntity
  8
1
370
     9
  6
Continuous
 62
     7
100
AcDbLine
 10
177.344406
 20
146.260199
 30
0.0
 11
178.410092
 21
146.760199
 31
0.0
  0
LINE
  5
1D1
100
AcDbEntity
  8
1
370
     9
  6
Continuous
 62
     7
100
AcDbLine
 10
177.344406
 20
146.2602
 30
0.0
 11
175.980802
 21
144.896595
 31
0.0
  0
LINE
  5
1D2
100
AcDbEntity
  8
1
370
     9
  6
Continuous
 62
     7
100
AcDbLine
 10
177.117199
 20
144.760199
 30
0.0
 11
176.051513
 21
144.260199
 31
0.0
  0
LINE
  5
1D3
100
AcDbEntity
  8
1
370
     9
  6
Continuous
 62
     7
100
AcDbLine
 10
177.117199
 20
144.760199
 30
0.0
 11
178.480802
 21
146.123802
 31
0.0
  0
LINE
  5
1D4
100
AcDbEntity
  8
1
370
     9
  6
Continuous
 62
     7
100
AcDbLine
 10
177.117199
 20
144.760199
 30
0.0
 11
178.480802
 21
144.760199
 31
0.0
  0
ELLIPSE
  5
1D5
100
AcDbEntity
  8
1
370
     9
  6
Continuous
 62
     7
100
AcDbEllipse
 10
177.730802
 20
140.460199
 30
0.0
 11
1.4325591934990314
 21
0.0
 31
0.0
210
0.0
220
0.0
230
1.0
 40
0.820871
 41
2.8659245593296023
 42
0.2756680942606942
  0
ELLIPSE
  5
1D6
100
AcDbEntity
  8
1
370
     9
  6
Continuous
 62
     7
100
AcDbEllipse
 10
177.730101
 20
141.299273
 30
0.0
 11
1.423582467809041
 21
-0.0097461054135124
 31
0.0
210
0.0
220
0.0
230
1.0
 40
0.87095
 41
-2.7474777550974694
 42
-0.3787206361744824
  0
LINE
  5
1D7
100
AcDbEntity
  8
1
370
     9
  6
Continuous
 62
     7
100
AcDbLine
 10
175.980802
 20
147.760199
 30
0.0
 11
179.480802
 21
147.760199
 31
0.0
  0
LINE
  5
1D8
100
AcDbEntity
  8
1
370
     9
  6
Continuous
 62
     7
100
AcDbLine
 10
179.480802
 20
147.260199
 30
0.0
 11
175.980802
 21
147.260199
 31
0.0
  0
LINE
  5
1D9
100
AcDbEntity
  8
1
370
     9
  6
Continuous
 62
     7
100
AcDbLine
 10
172.480802
 20
148.760199
 30
0.0
 11
172.480802
 21
136.760199
 31
0.0
  0
LINE
  5
1DA
100
AcDbEntity
  8
1
370
     9
  6
Continuous
 62
     7
100
AcDbLine
 10
172.480802
 20
146.760199
 30
0.0
 11
174.980802
 21
146.760199
 31
0.0
  0
LINE
  5
1DB
100
AcDbEntity
  8
1
370
     9
  6
Continuous
 62
     7
100
AcDbLine
 10
174.980802
 20
146.760199
 30
0.0
 11
174.980802
 21
144.260199
 31
0.0
  0
LINE
  5
1DC
100
AcDbEntity
  8
1
370
     9
  6
Continuous
 62
     7
100
AcDbLine
 10
174.980802
 20
144.260199
 30
0.0
 11
172.480802
 21
144.260199
 31
0.0
  0
LINE
  5
1DD
100
AcDbEntity
  8
1
370
     9
  6
Continuous
 62
     7
100
AcDbLine
 10
173.480802
 20
142.260199
 30
0.0
 11
173.480802
 21
141.139584
 31
0.0
  0
ARC
  5
1DE
100
AcDbEntity
  8
1
370
     9
  6
Continuous
 62
     7
100
AcDbCircle
 10
174.180802
 20
142.260199
 30
0.0
 40
0.7
100
AcDbArc
 50
90.0
 51
180.0
  0
LINE
  5
1DF
100
AcDbEntity
  8
1
370
     9
  6
Continuous
 62
     7
100
AcDbLine
 10
174.180802
 20
142.960199
 30
0.0
 11
174.280802
 21
142.960199
 31
0.0
  0
LINE
  5
1E0
100
AcDbEntity
  8
1
370
     9
  6
Continuous
 62
     7
100
AcDbLine
 10
174.980802
 20
142.260199
 30
0.0
 11
174.980802
 21
141.139584
 31
0.0
  0
ARC
  5
1E1
100
AcDbEntity
  8
1
370
     9
  6
Continuous
 62
     7
100
AcDbCircle
 10
174.280802
 20
142.260199
 30
0.0
 40
0.7
100
AcDbArc
 50
0.0
 51
90.0
  0
LINE
  5
1E2
100
AcDbEntity
  8
1
370
     9
  6
Continuous
 62
     7
100
AcDbLine
 10
172.480802
 20
142.060199
 30
0.0
 11
173.100259
 21
142.060199
 31
0.0
  0
LINE
  5
1E3
100
AcDbEntity
  8
1
370
     9
  6
Continuous
 62
     7
100
AcDbLine
 10
172.480802
 20
141.760199
 30
0.0
 11
173.091461
 21
141.760199
 31
0.0
  0
LINE
  5
1E4
100
AcDbEntity
  8
1
370
     9
  6
Continuous
 62
     7
100
AcDbLine
 10
175.361345
 20
142.060199
 30
0.0
 11
175.980802
 21
142.060199
 31
0.0
  0
LINE
  5
1E5
100
AcDbEntity
  8
1
370
     9
  6
Continuous
 62
     7
100
AcDbLine
 10
175.980802
 20
141.760199
 30
0.0
 11
175.370143
 21
141.760199
 31
0.0
  0
ELLIPSE
  5
1E6
100
AcDbEntity
  8
1
370
     9
  6
Continuous
 62
     7
100
AcDbEllipse
 10
174.230802
 20
140.010199
 30
0.0
 11
1.75
 21
0.0000000000000568
 31
0.0
210
0.0
220
0.0
230
1.0
 40
0.714286
 41
2.0137073708685156
 42
1.1278852827212327
  0
ELLIPSE
  5
1E7
100
AcDbEntity
  8
1
370
     9
  6
Continuous
 62
     7
100
AcDbEllipse
 10
174.230802
 20
141.860199
 30
0.0
 11
0.0000000000003887
 21
1.3999999999996788
 31
0.0
210
0.0
220
0.0
230
1.0
 40
0.815899
 41
-2.1752114950182886
 42
2.1752129921753127
  0
LINE
  5
1E8
100
AcDbEntity
  8
1
370
     9
  6
Continuous
 62
     7
100
AcDbLine
 10
173.115076
 20
142.160199
 30
0.0
 11
173.480802
 21
142.160199
 31
0.0
  0
LINE
  5
1E9
100
AcDbEntity
  8
1
370
     9
  6
Continuous
 62
     7
100
AcDbLine
 10
173.136158
 20
142.260199
 30
0.0
 11
173.480802
 21
142.260199
 31
0.0
  0
LINE
  5
1EA
100
AcDbEntity
  8
1
370
     9
  6
Continuous
 62
     7
100
AcDbLine
 10
174.980802
 20
142.260199
 30
0.0
 11
175.325446
 21
142.260199
 31
0.0
  0
LINE
  5
1EB
100
AcDbEntity
  8
1
370
     9
  6
Continuous
 62
     7
100
AcDbLine
 10
174.980802
 20
142.160199
 30
0.0
 11
175.346527
 21
142.160199
 31
0.0
  0
LINE
  5
1EC
100
AcDbEntity
  8
1
370
     9
  6
Continuous
 62
     7
100
AcDbLine
 10
174.910092
 20
146.760199
 30
0.0
 11
172.480802
 21
144.33091
 31
0.0
  0
LINE
  5
1ED
100
AcDbEntity
  8
1
370
     9
  6
Continuous
 62
     7
100
AcDbLine
 10
172.551513
 20
144.260199
 30
0.0
 11
174.980802
 21
146.689488
 31
0.0
  0
LINE
  5
1EE
100
AcDbEntity
  8
1
370
     9
  6
Continuous
 62
     7
100
AcDbLine
 10
172.480802
 20
146.260199
 30
0.0
 11
173.844406
 21
146.260199
 31
0.0
  0
LINE
  5
1EF
100
AcDbEntity
  8
1
370
     9
  6
Continuous
 62
     7
100
AcDbLine
 10
173.844406
 20
146.260199
 30
0.0
 11
174.910092
 21
146.760199
 31
0.0
  0
LINE
  5
1F0
100
AcDbEntity
  8
1
370
     9
  6
Continuous
 62
     7
100
AcDbLine
 10
173.844406
 20
146.2602
 30
0.0
 11
172.480802
 21
144.896595
 31
0.0
  0
LINE
  5
1F1
100
AcDbEntity
  8
1
370
     9
  6
Continuous
 62
     7
100
AcDbLine
 10
173.617199
 20
144.760199
 30
0.0
 11
172.551513
 21
144.260199
 31
0.0
  0
LINE
  5
1F2
100
AcDbEntity
  8
1
370
     9
  6
Continuous
 62
     7
100
AcDbLine
 10
173.617199
 20
144.760199
 30
0.0
 11
174.980802
 21
146.123802
 31
0.0
  0
LINE
  5
1F3
100
AcDbEntity
  8
1
370
     9
  6
Continuous
 62
     7
100
AcDbLine
 10
173.617199
 20
144.760199
 30
0.0
 11
174.980802
 21
144.760199
 31
0.0
  0
ELLIPSE
  5
1F4
100
AcDbEntity
  8
1
370
     9
  6
Continuous
 62
     7
100
AcDbEllipse
 10
174.230802
 20
140.460199
 30
0.0
 11
1.4325591934990314
 21
0.0
 31
0.0
210
0.0
220
0.0
230
1.0
 40
0.820871
 41
2.8659245593296023
 42
0.2756680942606942
  0
ELLIPSE
  5
1F5
100
AcDbEntity
  8
1
370
     9
  6
Continuous
 62
     7
100
AcDbEllipse
 10
174.230101
 20
141.299273
 30
0.0
 11
1.423582467809041
 21
-0.0097461054135124
 31
0.0
210
0.0
220
0.0
230
1.0
 40
0.87095
 41
-2.7474777550974694
 42
-0.3787206361744824
  0
LINE
  5
1F6
100
AcDbEntity
  8
1
370
     9
  6
Continuous
 62
     7
100
AcDbLine
 10
172.480802
 20
147.760199
 30
0.0
 11
175.980802
 21
147.760199
 31
0.0
  0
LINE
  5
1F7
100
AcDbEntity
  8
1
370
     9
  6
Continuous
 62
     7
100
AcDbLine
 10
175.980802
 20
147.260199
 30
0.0
 11
172.480802
 21
147.260199
 31
0.0
  0
LINE
  5
1F8
100
AcDbEntity
  8
1
370
     9
  6
Continuous
 62
     7
100
AcDbLine
 10
168.980802
 20
148.760199
 30
0.0
 11
168.980802
 21
136.760199
 31
0.0
  0
LINE
  5
1F9
100
AcDbEntity
  8
1
370
     9
  6
Continuous
 62
     7
100
AcDbLine
 10
168.980802
 20
146.760199
 30
0.0
 11
171.480802
 21
146.760199
 31
0.0
  0
LINE
  5
1FA
100
AcDbEntity
  8
1
370
     9
  6
Continuous
 62
     7
100
AcDbLine
 10
171.480802
 20
146.760199
 30
0.0
 11
171.480802
 21
144.260199
 31
0.0
  0
LINE
  5
1FB
100
AcDbEntity
  8
1
370
     9
  6
Continuous
 62
     7
100
AcDbLine
 10
171.480802
 20
144.260199
 30
0.0
 11
168.980802
 21
144.260199
 31
0.0
  0
LINE
  5
1FC
100
AcDbEntity
  8
1
370
     9
  6
Continuous
 62
     7
100
AcDbLine
 10
169.980802
 20
142.260199
 30
0.0
 11
169.980802
 21
141.139584
 31
0.0
  0
ARC
  5
1FD
100
AcDbEntity
  8
1
370
     9
  6
Continuous
 62
     7
100
AcDbCircle
 10
170.680802
 20
142.260199
 30
0.0
 40
0.7
100
AcDbArc
 50
90.0
 51
180.0
  0
LINE
  5
1FE
100
AcDbEntity
  8
1
370
     9
  6
Continuous
 62
     7
100
AcDbLine
 10
170.680802
 20
142.960199
 30
0.0
 11
170.780802
 21
142.960199
 31
0.0
  0
LINE
  5
1FF
100
AcDbEntity
  8
1
370
     9
  6
Continuous
 62
     7
100
AcDbLine
 10
171.480802
 20
142.260199
 30
0.0
 11
171.480802
 21
141.139584
 31
0.0
  0
ARC
  5
200
100
AcDbEntity
  8
1
370
     9
  6
Continuous
 62
     7
100
AcDbCircle
 10
170.780802
 20
142.260199
 30
0.0
 40
0.7
100
AcDbArc
 50
0.0
 51
90.0
  0
LINE
  5
201
100
AcDbEntity
  8
1
370
     9
  6
Continuous
 62
     7
100
AcDbLine
 10
168.980802
 20
142.060199
 30
0.0
 11
169.600259
 21
142.060199
 31
0.0
  0
LINE
  5
202
100
AcDbEntity
  8
1
370
     9
  6
Continuous
 62
     7
100
AcDbLine
 10
168.980802
 20
141.760199
 30
0.0
 11
169.591461
 21
141.760199
 31
0.0
  0
LINE
  5
203
100
AcDbEntity
  8
1
370
     9
  6
Continuous
 62
     7
100
AcDbLine
 10
171.861345
 20
142.060199
 30
0.0
 11
172.480802
 21
142.060199
 31
0.0
  0
LINE
  5
204
100
AcDbEntity
  8
1
370
     9
  6
Continuous
 62
     7
100
AcDbLine
 10
172.480802
 20
141.760199
 30
0.0
 11
171.870143
 21
141.760199
 31
0.0
  0
ELLIPSE
  5
205
100
AcDbEntity
  8
1
370
     9
  6
Continuous
 62
     7
100
AcDbEllipse
 10
170.730802
 20
140.010199
 30
0.0
 11
1.75
 21
0.0000000000000568
 31
0.0
210
0.0
220
0.0
230
1.0
 40
0.714286
 41
2.0137073708685156
 42
1.1278852827212327
  0
ELLIPSE
  5
206
100
AcDbEntity
  8
1
370
     9
  6
Continuous
 62
     7
100
AcDbEllipse
 10
170.730802
 20
141.860199
 30
0.0
 11
0.0000000000003887
 21
1.3999999999996788
 31
0.0
210
0.0
220
0.0
230
1.0
 40
0.815899
 41
-2.1752114950182886
 42
2.1752129921753127
  0
LINE
  5
207
100
AcDbEntity
  8
1
370
     9
  6
Continuous
 62
     7
100
AcDbLine
 10
169.615076
 20
142.160199
 30
0.0
 11
169.980802
 21
142.160199
 31
0.0
  0
LINE
  5
208
100
AcDbEntity
  8
1
370
     9
  6
Continuous
 62
     7
100
AcDbLine
 10
169.636158
 20
142.260199
 30
0.0
 11
169.980802
 21
142.260199
 31
0.0
  0
LINE
  5
209
100
AcDbEntity
  8
1
370
     9
  6
Continuous
 62
     7
100
AcDbLine
 10
171.480802
 20
142.260199
 30
0.0
 11
171.825446
 21
142.260199
 31
0.0
  0
LINE
  5
20A
100
AcDbEntity
  8
1
370
     9
  6
Continuous
 62
     7
100
AcDbLine
 10
171.480802
 20
142.160199
 30
0.0
 11
171.846527
 21
142.160199
 31
0.0
  0
LINE
  5
20B
100
AcDbEntity
  8
1
370
     9
  6
Continuous
 62
     7
100
AcDbLine
 10
171.410092
 20
146.760199
 30
0.0
 11
168.980802
 21
144.33091
 31
0.0
  0
LINE
  5
20C
100
AcDbEntity
  8
1
370
     9
  6
Continuous
 62
     7
100
AcDbLine
 10
169.051513
 20
144.260199
 30
0.0
 11
171.480802
 21
146.689488
 31
0.0
  0
LINE
  5
20D
100
AcDbEntity
  8
1
370
     9
  6
Continuous
 62
     7
100
AcDbLine
 10
168.980802
 20
146.260199
 30
0.0
 11
170.344406
 21
146.260199
 31
0.0
  0
LINE
  5
20E
100
AcDbEntity
  8
1
370
     9
  6
Continuous
 62
     7
100
AcDbLine
 10
170.344406
 20
146.260199
 30
0.0
 11
171.410092
 21
146.760199
 31
0.0
  0
LINE
  5
20F
100
AcDbEntity
  8
1
370
     9
  6
Continuous
 62
     7
100
AcDbLine
 10
170.344406
 20
146.2602
 30
0.0
 11
168.980802
 21
144.896595
 31
0.0
  0
LINE
  5
210
100
AcDbEntity
  8
1
370
     9
  6
Continuous
 62
     7
100
AcDbLine
 10
170.117199
 20
144.760199
 30
0.0
 11
169.051513
 21
144.260199
 31
0.0
  0
LINE
  5
211
100
AcDbEntity
  8
1
370
     9
  6
Continuous
 62
     7
100
AcDbLine
 10
170.117199
 20
144.760199
 30
0.0
 11
171.480802
 21
146.123802
 31
0.0
  0
LINE
  5
212
100
AcDbEntity
  8
1
370
     9
  6
Continuous
 62
     7
100
AcDbLine
 10
170.117199
 20
144.760199
 30
0.0
 11
171.480802
 21
144.760199
 31
0.0
  0
ELLIPSE
  5
213
100
AcDbEntity
  8
1
370
     9
  6
Continuous
 62
     7
100
AcDbEllipse
 10
170.730802
 20
140.460199
 30
0.0
 11
1.4325591934990314
 21
0.0
 31
0.0
210
0.0
220
0.0
230
1.0
 40
0.820871
 41
2.8659245593296023
 42
0.2756680942606942
  0
ELLIPSE
  5
214
100
AcDbEntity
  8
1
370
     9
  6
Continuous
 62
     7
100
AcDbEllipse
 10
170.730101
 20
141.299273
 30
0.0
 11
1.423582467809041
 21
-0.0097461054135124
 31
0.0
210
0.0
220
0.0
230
1.0
 40
0.87095
 41
-2.7474777550974694
 42
-0.3787206361744824
  0
LINE
  5
215
100
AcDbEntity
  8
1
370
     9
  6
Continuous
 62
     7
100
AcDbLine
 10
168.980802
 20
147.760199
 30
0.0
 11
172.480802
 21
147.760199
 31
0.0
  0
LINE
  5
216
100
AcDbEntity
  8
1
370
     9
  6
Continuous
 62
     7
100
AcDbLine
 10
172.480802
 20
147.260199
 30
0.0
 11
168.980802
 21
147.260199
 31
0.0
  0
LINE
  5
217
100
AcDbEntity
  8
1
370
     9
  6
Continuous
 62
     7
100
AcDbLine
 10
165.480802
 20
148.760199
 30
0.0
 11
165.480802
 21
136.760199
 31
0.0
  0
LINE
  5
218
100
AcDbEntity
  8
1
370
     9
  6
Continuous
 62
     7
100
AcDbLine
 10
165.480802
 20
146.760199
 30
0.0
 11
167.980802
 21
146.760199
 31
0.0
  0
LINE
  5
219
100
AcDbEntity
  8
1
370
     9
  6
Continuous
 62
     7
100
AcDbLine
 10
167.980802
 20
146.760199
 30
0.0
 11
167.980802
 21
144.260199
 31
0.0
  0
LINE
  5
21A
100
AcDbEntity
  8
1
370
     9
  6
Continuous
 62
     7
100
AcDbLine
 10
167.980802
 20
144.260199
 30
0.0
 11
165.480802
 21
144.260199
 31
0.0
  0
LINE
  5
21B
100
AcDbEntity
  8
1
370
     9
  6
Continuous
 62
     7
100
AcDbLine
 10
166.480802
 20
142.260199
 30
0.0
 11
166.480802
 21
141.139584
 31
0.0
  0
ARC
  5
21C
100
AcDbEntity
  8
1
370
     9
  6
Continuous
 62
     7
100
AcDbCircle
 10
167.180802
 20
142.260199
 30
0.0
 40
0.7
100
AcDbArc
 50
90.0
 51
180.0
  0
LINE
  5
21D
100
AcDbEntity
  8
1
370
     9
  6
Continuous
 62
     7
100
AcDbLine
 10
167.180802
 20
142.960199
 30
0.0
 11
167.280802
 21
142.960199
 31
0.0
  0
LINE
  5
21E
100
AcDbEntity
  8
1
370
     9
  6
Continuous
 62
     7
100
AcDbLine
 10
167.980802
 20
142.260199
 30
0.0
 11
167.980802
 21
141.139584
 31
0.0
  0
ARC
  5
21F
100
AcDbEntity
  8
1
370
     9
  6
Continuous
 62
     7
100
AcDbCircle
 10
167.280802
 20
142.260199
 30
0.0
 40
0.7
100
AcDbArc
 50
0.0
 51
90.0
  0
LINE
  5
220
100
AcDbEntity
  8
1
370
     9
  6
Continuous
 62
     7
100
AcDbLine
 10
165.480802
 20
142.060199
 30
0.0
 11
166.100259
 21
142.060199
 31
0.0
  0
LINE
  5
221
100
AcDbEntity
  8
1
370
     9
  6
Continuous
 62
     7
100
AcDbLine
 10
165.480802
 20
141.760199
 30
0.0
 11
166.091461
 21
141.760199
 31
0.0
  0
LINE
  5
222
100
AcDbEntity
  8
1
370
     9
  6
Continuous
 62
     7
100
AcDbLine
 10
168.361345
 20
142.060199
 30
0.0
 11
168.980802
 21
142.060199
 31
0.0
  0
LINE
  5
223
100
AcDbEntity
  8
1
370
     9
  6
Continuous
 62
     7
100
AcDbLine
 10
168.980802
 20
141.760199
 30
0.0
 11
168.370143
 21
141.760199
 31
0.0
  0
ELLIPSE
  5
224
100
AcDbEntity
  8
1
370
     9
  6
Continuous
 62
     7
100
AcDbEllipse
 10
167.230802
 20
140.010199
 30
0.0
 11
1.75
 21
0.0000000000000568
 31
0.0
210
0.0
220
0.0
230
1.0
 40
0.714286
 41
2.0137073708685156
 42
1.1278852827212327
  0
ELLIPSE
  5
225
100
AcDbEntity
  8
1
370
     9
  6
Continuous
 62
     7
100
AcDbEllipse
 10
167.230802
 20
141.860199
 30
0.0
 11
0.0000000000003887
 21
1.3999999999996788
 31
0.0
210
0.0
220
0.0
230
1.0
 40
0.815899
 41
-2.1752114950182886
 42
2.1752129921753127
  0
LINE
  5
226
100
AcDbEntity
  8
1
370
     9
  6
Continuous
 62
     7
100
AcDbLine
 10
166.115076
 20
142.160199
 30
0.0
 11
166.480802
 21
142.160199
 31
0.0
  0
LINE
  5
227
100
AcDbEntity
  8
1
370
     9
  6
Continuous
 62
     7
100
AcDbLine
 10
166.136158
 20
142.260199
 30
0.0
 11
166.480802
 21
142.260199
 31
0.0
  0
LINE
  5
228
100
AcDbEntity
  8
1
370
     9
  6
Continuous
 62
     7
100
AcDbLine
 10
167.980802
 20
142.260199
 30
0.0
 11
168.325446
 21
142.260199
 31
0.0
  0
LINE
  5
229
100
AcDbEntity
  8
1
370
     9
  6
Continuous
 62
     7
100
AcDbLine
 10
167.980802
 20
142.160199
 30
0.0
 11
168.346527
 21
142.160199
 31
0.0
  0
LINE
  5
22A
100
AcDbEntity
  8
1
370
     9
  6
Continuous
 62
     7
100
AcDbLine
 10
167.910092
 20
146.760199
 30
0.0
 11
165.480802
 21
144.33091
 31
0.0
  0
LINE
  5
22B
100
AcDbEntity
  8
1
370
     9
  6
Continuous
 62
     7
100
AcDbLine
 10
165.551513
 20
144.260199
 30
0.0
 11
167.980802
 21
146.689488
 31
0.0
  0
LINE
  5
22C
100
AcDbEntity
  8
1
370
     9
  6
Continuous
 62
     7
100
AcDbLine
 10
165.480802
 20
146.260199
 30
0.0
 11
166.844406
 21
146.260199
 31
0.0
  0
LINE
  5
22D
100
AcDbEntity
  8
1
370
     9
  6
Continuous
 62
     7
100
AcDbLine
 10
166.844406
 20
146.260199
 30
0.0
 11
167.910092
 21
146.760199
 31
0.0
  0
LINE
  5
22E
100
AcDbEntity
  8
1
370
     9
  6
Continuous
 62
     7
100
AcDbLine
 10
166.844406
 20
146.2602
 30
0.0
 11
165.480802
 21
144.896595
 31
0.0
  0
LINE
  5
22F
100
AcDbEntity
  8
1
370
     9
  6
Continuous
 62
     7
100
AcDbLine
 10
166.617199
 20
144.760199
 30
0.0
 11
165.551513
 21
144.260199
 31
0.0
  0
LINE
  5
230
100
AcDbEntity
  8
1
370
     9
  6
Continuous
 62
     7
100
AcDbLine
 10
166.617199
 20
144.760199
 30
0.0
 11
167.980802
 21
146.123802
 31
0.0
  0
LINE
  5
231
100
AcDbEntity
  8
1
370
     9
  6
Continuous
 62
     7
100
AcDbLine
 10
166.617199
 20
144.760199
 30
0.0
 11
167.980802
 21
144.760199
 31
0.0
  0
ELLIPSE
  5
232
100
AcDbEntity
  8
1
370
     9
  6
Continuous
 62
     7
100
AcDbEllipse
 10
167.230802
 20
140.460199
 30
0.0
 11
1.4325591934990314
 21
0.0
 31
0.0
210
0.0
220
0.0
230
1.0
 40
0.820871
 41
2.8659245593296023
 42
0.2756680942606942
  0
ELLIPSE
  5
233
100
AcDbEntity
  8
1
370
     9
  6
Continuous
 62
     7
100
AcDbEllipse
 10
167.230101
 20
141.299273
 30
0.0
 11
1.423582467809041
 21
-0.0097461054135124
 31
0.0
210
0.0
220
0.0
230
1.0
 40
0.87095
 41
-2.7474777550974694
 42
-0.3787206361744824
  0
LINE
  5
234
100
AcDbEntity
  8
1
370
     9
  6
Continuous
 62
     7
100
AcDbLine
 10
165.480802
 20
147.760199
 30
0.0
 11
168.980802
 21
147.760199
 31
0.0
  0
LINE
  5
235
100
AcDbEntity
  8
1
370
     9
  6
Continuous
 62
     7
100
AcDbLine
 10
168.980802
 20
147.260199
 30
0.0
 11
165.480802
 21
147.260199
 31
0.0
  0
LINE
  5
236
100
AcDbEntity
  8
1
370
     9
  6
Continuous
 62
     7
100
AcDbLine
 10
161.980802
 20
148.760199
 30
0.0
 11
161.980802
 21
136.760199
 31
0.0
  0
LINE
  5
237
100
AcDbEntity
  8
1
370
     9
  6
Continuous
 62
     7
100
AcDbLine
 10
161.980802
 20
146.760199
 30
0.0
 11
164.480802
 21
146.760199
 31
0.0
  0
LINE
  5
238
100
AcDbEntity
  8
1
370
     9
  6
Continuous
 62
     7
100
AcDbLine
 10
164.480802
 20
146.760199
 30
0.0
 11
164.480802
 21
144.260199
 31
0.0
  0
LINE
  5
239
100
AcDbEntity
  8
1
370
     9
  6
Continuous
 62
     7
100
AcDbLine
 10
164.480802
 20
144.260199
 30
0.0
 11
161.980802
 21
144.260199
 31
0.0
  0
LINE
  5
23A
100
AcDbEntity
  8
1
370
     9
  6
Continuous
 62
     7
100
AcDbLine
 10
162.980802
 20
142.260199
 30
0.0
 11
162.980802
 21
141.139584
 31
0.0
  0
ARC
  5
23B
100
AcDbEntity
  8
1
370
     9
  6
Continuous
 62
     7
100
AcDbCircle
 10
163.680802
 20
142.260199
 30
0.0
 40
0.7
100
AcDbArc
 50
90.0
 51
180.0
  0
LINE
  5
23C
100
AcDbEntity
  8
1
370
     9
  6
Continuous
 62
     7
100
AcDbLine
 10
163.680802
 20
142.960199
 30
0.0
 11
163.780802
 21
142.960199
 31
0.0
  0
LINE
  5
23D
100
AcDbEntity
  8
1
370
     9
  6
Continuous
 62
     7
100
AcDbLine
 10
164.480802
 20
142.260199
 30
0.0
 11
164.480802
 21
141.139584
 31
0.0
  0
ARC
  5
23E
100
AcDbEntity
  8
1
370
     9
  6
Continuous
 62
     7
100
AcDbCircle
 10
163.780802
 20
142.260199
 30
0.0
 40
0.7
100
AcDbArc
 50
0.0
 51
90.0
  0
LINE
  5
23F
100
AcDbEntity
  8
1
370
     9
  6
Continuous
 62
     7
100
AcDbLine
 10
161.980802
 20
142.060199
 30
0.0
 11
162.600259
 21
142.060199
 31
0.0
  0
LINE
  5
240
100
AcDbEntity
  8
1
370
     9
  6
Continuous
 62
     7
100
AcDbLine
 10
161.980802
 20
141.760199
 30
0.0
 11
162.591461
 21
141.760199
 31
0.0
  0
LINE
  5
241
100
AcDbEntity
  8
1
370
     9
  6
Continuous
 62
     7
100
AcDbLine
 10
164.861345
 20
142.060199
 30
0.0
 11
165.480802
 21
142.060199
 31
0.0
  0
LINE
  5
242
100
AcDbEntity
  8
1
370
     9
  6
Continuous
 62
     7
100
AcDbLine
 10
165.480802
 20
141.760199
 30
0.0
 11
164.870143
 21
141.760199
 31
0.0
  0
ELLIPSE
  5
243
100
AcDbEntity
  8
1
370
     9
  6
Continuous
 62
     7
100
AcDbEllipse
 10
163.730802
 20
140.010199
 30
0.0
 11
1.75
 21
0.0000000000000568
 31
0.0
210
0.0
220
0.0
230
1.0
 40
0.714286
 41
2.0137073708685156
 42
1.1278852827212327
  0
ELLIPSE
  5
244
100
AcDbEntity
  8
1
370
     9
  6
Continuous
 62
     7
100
AcDbEllipse
 10
163.730802
 20
141.860199
 30
0.0
 11
0.0000000000003887
 21
1.3999999999996788
 31
0.0
210
0.0
220
0.0
230
1.0
 40
0.815899
 41
-2.1752114950182886
 42
2.1752129921753127
  0
LINE
  5
245
100
AcDbEntity
  8
1
370
     9
  6
Continuous
 62
     7
100
AcDbLine
 10
162.615076
 20
142.160199
 30
0.0
 11
162.980802
 21
142.160199
 31
0.0
  0
LINE
  5
246
100
AcDbEntity
  8
1
370
     9
  6
Continuous
 62
     7
100
AcDbLine
 10
162.636158
 20
142.260199
 30
0.0
 11
162.980802
 21
142.260199
 31
0.0
  0
LINE
  5
247
100
AcDbEntity
  8
1
370
     9
  6
Continuous
 62
     7
100
AcDbLine
 10
164.480802
 20
142.260199
 30
0.0
 11
164.825446
 21
142.260199
 31
0.0
  0
LINE
  5
248
100
AcDbEntity
  8
1
370
     9
  6
Continuous
 62
     7
100
AcDbLine
 10
164.480802
 20
142.160199
 30
0.0
 11
164.846527
 21
142.160199
 31
0.0
  0
LINE
  5
249
100
AcDbEntity
  8
1
370
     9
  6
Continuous
 62
     7
100
AcDbLine
 10
164.410092
 20
146.760199
 30
0.0
 11
161.980802
 21
144.33091
 31
0.0
  0
LINE
  5
24A
100
AcDbEntity
  8
1
370
     9
  6
Continuous
 62
     7
100
AcDbLine
 10
162.051513
 20
144.260199
 30
0.0
 11
164.480802
 21
146.689488
 31
0.0
  0
LINE
  5
24B
100
AcDbEntity
  8
1
370
     9
  6
Continuous
 62
     7
100
AcDbLine
 10
161.980802
 20
146.260199
 30
0.0
 11
163.344406
 21
146.260199
 31
0.0
  0
LINE
  5
24C
100
AcDbEntity
  8
1
370
     9
  6
Continuous
 62
     7
100
AcDbLine
 10
163.344406
 20
146.260199
 30
0.0
 11
164.410092
 21
146.760199
 31
0.0
  0
LINE
  5
24D
100
AcDbEntity
  8
1
370
     9
  6
Continuous
 62
     7
100
AcDbLine
 10
163.344406
 20
146.2602
 30
0.0
 11
161.980802
 21
144.896595
 31
0.0
  0
LINE
  5
24E
100
AcDbEntity
  8
1
370
     9
  6
Continuous
 62
     7
100
AcDbLine
 10
163.117199
 20
144.760199
 30
0.0
 11
162.051513
 21
144.260199
 31
0.0
  0
LINE
  5
24F
100
AcDbEntity
  8
1
370
     9
  6
Continuous
 62
     7
100
AcDbLine
 10
163.117199
 20
144.760199
 30
0.0
 11
164.480802
 21
146.123802
 31
0.0
  0
LINE
  5
250
100
AcDbEntity
  8
1
370
     9
  6
Continuous
 62
     7
100
AcDbLine
 10
163.117199
 20
144.760199
 30
0.0
 11
164.480802
 21
144.760199
 31
0.0
  0
ELLIPSE
  5
251
100
AcDbEntity
  8
1
370
     9
  6
Continuous
 62
     7
100
AcDbEllipse
 10
163.730802
 20
140.460199
 30
0.0
 11
1.4325591934990314
 21
0.0
 31
0.0
210
0.0
220
0.0
230
1.0
 40
0.820871
 41
2.8659245593296023
 42
0.2756680942606942
  0
ELLIPSE
  5
252
100
AcDbEntity
  8
1
370
     9
  6
Continuous
 62
     7
100
AcDbEllipse
 10
163.730101
 20
141.299273
 30
0.0
 11
1.423582467809041
 21
-0.0097461054135124
 31
0.0
210
0.0
220
0.0
230
1.0
 40
0.87095
 41
-2.7474777550974694
 42
-0.3787206361744824
  0
LINE
  5
253
100
AcDbEntity
  8
1
370
     9
  6
Continuous
 62
     7
100
AcDbLine
 10
161.980802
 20
147.760199
 30
0.0
 11
165.480802
 21
147.760199
 31
0.0
  0
LINE
  5
254
100
AcDbEntity
  8
1
370
     9
  6
Continuous
 62
     7
100
AcDbLine
 10
165.480802
 20
147.260199
 30
0.0
 11
161.980802
 21
147.260199
 31
0.0
  0
LINE
  5
255
100
AcDbEntity
  8
1
370
     9
  6
Continuous
 62
     7
100
AcDbLine
 10
158.480802
 20
148.760199
 30
0.0
 11
158.480802
 21
136.760199
 31
0.0
  0
LINE
  5
256
100
AcDbEntity
  8
1
370
     9
  6
Continuous
 62
     7
100
AcDbLine
 10
158.480802
 20
146.760199
 30
0.0
 11
160.980802
 21
146.760199
 31
0.0
  0
LINE
  5
257
100
AcDbEntity
  8
1
370
     9
  6
Continuous
 62
     7
100
AcDbLine
 10
160.980802
 20
146.760199
 30
0.0
 11
160.980802
 21
144.260199
 31
0.0
  0
LINE
  5
258
100
AcDbEntity
  8
1
370
     9
  6
Continuous
 62
     7
100
AcDbLine
 10
160.980802
 20
144.260199
 30
0.0
 11
158.480802
 21
144.260199
 31
0.0
  0
LINE
  5
259
100
AcDbEntity
  8
1
370
     9
  6
Continuous
 62
     7
100
AcDbLine
 10
159.480802
 20
142.260199
 30
0.0
 11
159.480802
 21
141.139584
 31
0.0
  0
ARC
  5
25A
100
AcDbEntity
  8
1
370
     9
  6
Continuous
 62
     7
100
AcDbCircle
 10
160.180802
 20
142.260199
 30
0.0
 40
0.7
100
AcDbArc
 50
90.0
 51
180.0
  0
LINE
  5
25B
100
AcDbEntity
  8
1
370
     9
  6
Continuous
 62
     7
100
AcDbLine
 10
160.180802
 20
142.960199
 30
0.0
 11
160.280802
 21
142.960199
 31
0.0
  0
LINE
  5
25C
100
AcDbEntity
  8
1
370
     9
  6
Continuous
 62
     7
100
AcDbLine
 10
160.980802
 20
142.260199
 30
0.0
 11
160.980802
 21
141.139584
 31
0.0
  0
ARC
  5
25D
100
AcDbEntity
  8
1
370
     9
  6
Continuous
 62
     7
100
AcDbCircle
 10
160.280802
 20
142.260199
 30
0.0
 40
0.7
100
AcDbArc
 50
0.0
 51
90.0
  0
LINE
  5
25E
100
AcDbEntity
  8
1
370
     9
  6
Continuous
 62
     7
100
AcDbLine
 10
158.480802
 20
142.060199
 30
0.0
 11
159.100259
 21
142.060199
 31
0.0
  0
LINE
  5
25F
100
AcDbEntity
  8
1
370
     9
  6
Continuous
 62
     7
100
AcDbLine
 10
158.480802
 20
141.760199
 30
0.0
 11
159.091461
 21
141.760199
 31
0.0
  0
LINE
  5
260
100
AcDbEntity
  8
1
370
     9
  6
Continuous
 62
     7
100
AcDbLine
 10
161.361345
 20
142.060199
 30
0.0
 11
161.980802
 21
142.060199
 31
0.0
  0
LINE
  5
261
100
AcDbEntity
  8
1
370
     9
  6
Continuous
 62
     7
100
AcDbLine
 10
161.980802
 20
141.760199
 30
0.0
 11
161.370143
 21
141.760199
 31
0.0
  0
ELLIPSE
  5
262
100
AcDbEntity
  8
1
370
     9
  6
Continuous
 62
     7
100
AcDbEllipse
 10
160.230802
 20
140.010199
 30
0.0
 11
1.75
 21
0.0000000000000568
 31
0.0
210
0.0
220
0.0
230
1.0
 40
0.714286
 41
2.0137073708685156
 42
1.1278852827212327
  0
ELLIPSE
  5
263
100
AcDbEntity
  8
1
370
     9
  6
Continuous
 62
     7
100
AcDbEllipse
 10
160.230802
 20
141.860199
 30
0.0
 11
0.0000000000003887
 21
1.3999999999996788
 31
0.0
210
0.0
220
0.0
230
1.0
 40
0.815899
 41
-2.1752114950182886
 42
2.1752129921753127
  0
LINE
  5
264
100
AcDbEntity
  8
1
370
     9
  6
Continuous
 62
     7
100
AcDbLine
 10
159.115076
 20
142.160199
 30
0.0
 11
159.480802
 21
142.160199
 31
0.0
  0
LINE
  5
265
100
AcDbEntity
  8
1
370
     9
  6
Continuous
 62
     7
100
AcDbLine
 10
159.136158
 20
142.260199
 30
0.0
 11
159.480802
 21
142.260199
 31
0.0
  0
LINE
  5
266
100
AcDbEntity
  8
1
370
     9
  6
Continuous
 62
     7
100
AcDbLine
 10
160.980802
 20
142.260199
 30
0.0
 11
161.325446
 21
142.260199
 31
0.0
  0
LINE
  5
267
100
AcDbEntity
  8
1
370
     9
  6
Continuous
 62
     7
100
AcDbLine
 10
160.980802
 20
142.160199
 30
0.0
 11
161.346527
 21
142.160199
 31
0.0
  0
LINE
  5
268
100
AcDbEntity
  8
1
370
     9
  6
Continuous
 62
     7
100
AcDbLine
 10
160.910092
 20
146.760199
 30
0.0
 11
158.480802
 21
144.33091
 31
0.0
  0
LINE
  5
269
100
AcDbEntity
  8
1
370
     9
  6
Continuous
 62
     7
100
AcDbLine
 10
158.551513
 20
144.260199
 30
0.0
 11
160.980802
 21
146.689488
 31
0.0
  0
LINE
  5
26A
100
AcDbEntity
  8
1
370
     9
  6
Continuous
 62
     7
100
AcDbLine
 10
158.480802
 20
146.260199
 30
0.0
 11
159.844406
 21
146.260199
 31
0.0
  0
LINE
  5
26B
100
AcDbEntity
  8
1
370
     9
  6
Continuous
 62
     7
100
AcDbLine
 10
159.844406
 20
146.260199
 30
0.0
 11
160.910092
 21
146.760199
 31
0.0
  0
LINE
  5
26C
100
AcDbEntity
  8
1
370
     9
  6
Continuous
 62
     7
100
AcDbLine
 10
159.844406
 20
146.2602
 30
0.0
 11
158.480802
 21
144.896595
 31
0.0
  0
LINE
  5
26D
100
AcDbEntity
  8
1
370
     9
  6
Continuous
 62
     7
100
AcDbLine
 10
159.617199
 20
144.760199
 30
0.0
 11
158.551513
 21
144.260199
 31
0.0
  0
LINE
  5
26E
100
AcDbEntity
  8
1
370
     9
  6
Continuous
 62
     7
100
AcDbLine
 10
159.617199
 20
144.760199
 30
0.0
 11
160.980802
 21
146.123802
 31
0.0
  0
LINE
  5
26F
100
AcDbEntity
  8
1
370
     9
  6
Continuous
 62
     7
100
AcDbLine
 10
159.617199
 20
144.760199
 30
0.0
 11
160.980802
 21
144.760199
 31
0.0
  0
ELLIPSE
  5
270
100
AcDbEntity
  8
1
370
     9
  6
Continuous
 62
     7
100
AcDbEllipse
 10
160.230802
 20
140.460199
 30
0.0
 11
1.4325591934990314
 21
0.0
 31
0.0
210
0.0
220
0.0
230
1.0
 40
0.820871
 41
2.8659245593296023
 42
0.2756680942606942
  0
ELLIPSE
  5
271
100
AcDbEntity
  8
1
370
     9
  6
Continuous
 62
     7
100
AcDbEllipse
 10
160.230101
 20
141.299273
 30
0.0
 11
1.423582467809041
 21
-0.0097461054135124
 31
0.0
210
0.0
220
0.0
230
1.0
 40
0.87095
 41
-2.7474777550974694
 42
-0.3787206361744824
  0
LINE
  5
272
100
AcDbEntity
  8
1
370
     9
  6
Continuous
 62
     7
100
AcDbLine
 10
158.480802
 20
147.760199
 30
0.0
 11
161.980802
 21
147.760199
 31
0.0
  0
LINE
  5
273
100
AcDbEntity
  8
1
370
     9
  6
Continuous
 62
     7
100
AcDbLine
 10
161.980802
 20
147.260199
 30
0.0
 11
158.480802
 21
147.260199
 31
0.0
  0
LINE
  5
274
100
AcDbEntity
  8
1
370
     9
  6
Continuous
 62
     7
100
AcDbLine
 10
154.980802
 20
148.760199
 30
0.0
 11
154.980802
 21
136.760199
 31
0.0
  0
LINE
  5
275
100
AcDbEntity
  8
1
370
     9
  6
Continuous
 62
     7
100
AcDbLine
 10
154.980802
 20
146.760199
 30
0.0
 11
157.480802
 21
146.760199
 31
0.0
  0
LINE
  5
276
100
AcDbEntity
  8
1
370
     9
  6
Continuous
 62
     7
100
AcDbLine
 10
157.480802
 20
146.760199
 30
0.0
 11
157.480802
 21
144.260199
 31
0.0
  0
LINE
  5
277
100
AcDbEntity
  8
1
370
     9
  6
Continuous
 62
     7
100
AcDbLine
 10
157.480802
 20
144.260199
 30
0.0
 11
154.980802
 21
144.260199
 31
0.0
  0
LINE
  5
278
100
AcDbEntity
  8
1
370
     9
  6
Continuous
 62
     7
100
AcDbLine
 10
155.980802
 20
142.260199
 30
0.0
 11
155.980802
 21
141.139584
 31
0.0
  0
ARC
  5
279
100
AcDbEntity
  8
1
370
     9
  6
Continuous
 62
     7
100
AcDbCircle
 10
156.680802
 20
142.260199
 30
0.0
 40
0.7
100
AcDbArc
 50
90.0
 51
180.0
  0
LINE
  5
27A
100
AcDbEntity
  8
1
370
     9
  6
Continuous
 62
     7
100
AcDbLine
 10
156.680802
 20
142.960199
 30
0.0
 11
156.780802
 21
142.960199
 31
0.0
  0
LINE
  5
27B
100
AcDbEntity
  8
1
370
     9
  6
Continuous
 62
     7
100
AcDbLine
 10
157.480802
 20
142.260199
 30
0.0
 11
157.480802
 21
141.139584
 31
0.0
  0
ARC
  5
27C
100
AcDbEntity
  8
1
370
     9
  6
Continuous
 62
     7
100
AcDbCircle
 10
156.780802
 20
142.260199
 30
0.0
 40
0.7
100
AcDbArc
 50
0.0
 51
90.0
  0
LINE
  5
27D
100
AcDbEntity
  8
1
370
     9
  6
Continuous
 62
     7
100
AcDbLine
 10
154.980802
 20
142.060199
 30
0.0
 11
155.600259
 21
142.060199
 31
0.0
  0
LINE
  5
27E
100
AcDbEntity
  8
1
370
     9
  6
Continuous
 62
     7
100
AcDbLine
 10
154.980802
 20
141.760199
 30
0.0
 11
155.591461
 21
141.760199
 31
0.0
  0
LINE
  5
27F
100
AcDbEntity
  8
1
370
     9
  6
Continuous
 62
     7
100
AcDbLine
 10
157.861345
 20
142.060199
 30
0.0
 11
158.480802
 21
142.060199
 31
0.0
  0
LINE
  5
280
100
AcDbEntity
  8
1
370
     9
  6
Continuous
 62
     7
100
AcDbLine
 10
158.480802
 20
141.760199
 30
0.0
 11
157.870143
 21
141.760199
 31
0.0
  0
ELLIPSE
  5
281
100
AcDbEntity
  8
1
370
     9
  6
Continuous
 62
     7
100
AcDbEllipse
 10
156.730802
 20
140.010199
 30
0.0
 11
1.75
 21
0.0000000000000568
 31
0.0
210
0.0
220
0.0
230
1.0
 40
0.714286
 41
2.0137073708685156
 42
1.1278852827212327
  0
ELLIPSE
  5
282
100
AcDbEntity
  8
1
370
     9
  6
Continuous
 62
     7
100
AcDbEllipse
 10
156.730802
 20
141.860199
 30
0.0
 11
0.0000000000003887
 21
1.3999999999996788
 31
0.0
210
0.0
220
0.0
230
1.0
 40
0.815899
 41
-2.1752114950182886
 42
2.1752129921753127
  0
LINE
  5
283
100
AcDbEntity
  8
1
370
     9
  6
Continuous
 62
     7
100
AcDbLine
 10
155.615076
 20
142.160199
 30
0.0
 11
155.980802
 21
142.160199
 31
0.0
  0
LINE
  5
284
100
AcDbEntity
  8
1
370
     9
  6
Continuous
 62
     7
100
AcDbLine
 10
155.636158
 20
142.260199
 30
0.0
 11
155.980802
 21
142.260199
 31
0.0
  0
LINE
  5
285
100
AcDbEntity
  8
1
370
     9
  6
Continuous
 62
     7
100
AcDbLine
 10
157.480802
 20
142.260199
 30
0.0
 11
157.825446
 21
142.260199
 31
0.0
  0
LINE
  5
286
100
AcDbEntity
  8
1
370
     9
  6
Continuous
 62
     7
100
AcDbLine
 10
157.480802
 20
142.160199
 30
0.0
 11
157.846527
 21
142.160199
 31
0.0
  0
LINE
  5
287
100
AcDbEntity
  8
1
370
     9
  6
Continuous
 62
     7
100
AcDbLine
 10
157.410092
 20
146.760199
 30
0.0
 11
154.980802
 21
144.33091
 31
0.0
  0
LINE
  5
288
100
AcDbEntity
  8
1
370
     9
  6
Continuous
 62
     7
100
AcDbLine
 10
155.051513
 20
144.260199
 30
0.0
 11
157.480802
 21
146.689488
 31
0.0
  0
LINE
  5
289
100
AcDbEntity
  8
1
370
     9
  6
Continuous
 62
     7
100
AcDbLine
 10
154.980802
 20
146.260199
 30
0.0
 11
156.344406
 21
146.260199
 31
0.0
  0
LINE
  5
28A
100
AcDbEntity
  8
1
370
     9
  6
Continuous
 62
     7
100
AcDbLine
 10
156.344406
 20
146.260199
 30
0.0
 11
157.410092
 21
146.760199
 31
0.0
  0
LINE
  5
28B
100
AcDbEntity
  8
1
370
     9
  6
Continuous
 62
     7
100
AcDbLine
 10
156.344406
 20
146.2602
 30
0.0
 11
154.980802
 21
144.896595
 31
0.0
  0
LINE
  5
28C
100
AcDbEntity
  8
1
370
     9
  6
Continuous
 62
     7
100
AcDbLine
 10
156.117199
 20
144.760199
 30
0.0
 11
155.051513
 21
144.260199
 31
0.0
  0
LINE
  5
28D
100
AcDbEntity
  8
1
370
     9
  6
Continuous
 62
     7
100
AcDbLine
 10
156.117199
 20
144.760199
 30
0.0
 11
157.480802
 21
146.123802
 31
0.0
  0
LINE
  5
28E
100
AcDbEntity
  8
1
370
     9
  6
Continuous
 62
     7
100
AcDbLine
 10
156.117199
 20
144.760199
 30
0.0
 11
157.480802
 21
144.760199
 31
0.0
  0
ELLIPSE
  5
28F
100
AcDbEntity
  8
1
370
     9
  6
Continuous
 62
     7
100
AcDbEllipse
 10
156.730802
 20
140.460199
 30
0.0
 11
1.4325591934990314
 21
0.0
 31
0.0
210
0.0
220
0.0
230
1.0
 40
0.820871
 41
2.8659245593296023
 42
0.2756680942606942
  0
ELLIPSE
  5
290
100
AcDbEntity
  8
1
370
     9
  6
Continuous
 62
     7
100
AcDbEllipse
 10
156.730101
 20
141.299273
 30
0.0
 11
1.423582467809041
 21
-0.0097461054135124
 31
0.0
210
0.0
220
0.0
230
1.0
 40
0.87095
 41
-2.7474777550974694
 42
-0.3787206361744824
  0
LINE
  5
291
100
AcDbEntity
  8
1
370
     9
  6
Continuous
 62
     7
100
AcDbLine
 10
154.980802
 20
147.760199
 30
0.0
 11
158.480802
 21
147.760199
 31
0.0
  0
LINE
  5
292
100
AcDbEntity
  8
1
370
     9
  6
Continuous
 62
     7
100
AcDbLine
 10
158.480802
 20
147.260199
 30
0.0
 11
154.980802
 21
147.260199
 31
0.0
  0
LINE
  5
293
100
AcDbEntity
  8
1
370
     9
  6
Continuous
 62
     7
100
AcDbLine
 10
151.480802
 20
148.760199
 30
0.0
 11
151.480802
 21
136.760199
 31
0.0
  0
LINE
  5
294
100
AcDbEntity
  8
1
370
     9
  6
Continuous
 62
     7
100
AcDbLine
 10
151.480802
 20
146.760199
 30
0.0
 11
153.980802
 21
146.760199
 31
0.0
  0
LINE
  5
295
100
AcDbEntity
  8
1
370
     9
  6
Continuous
 62
     7
100
AcDbLine
 10
153.980802
 20
146.760199
 30
0.0
 11
153.980802
 21
144.260199
 31
0.0
  0
LINE
  5
296
100
AcDbEntity
  8
1
370
     9
  6
Continuous
 62
     7
100
AcDbLine
 10
153.980802
 20
144.260199
 30
0.0
 11
151.480802
 21
144.260199
 31
0.0
  0
LINE
  5
297
100
AcDbEntity
  8
1
370
     9
  6
Continuous
 62
     7
100
AcDbLine
 10
152.480802
 20
142.260199
 30
0.0
 11
152.480802
 21
141.139584
 31
0.0
  0
ARC
  5
298
100
AcDbEntity
  8
1
370
     9
  6
Continuous
 62
     7
100
AcDbCircle
 10
153.180802
 20
142.260199
 30
0.0
 40
0.7
100
AcDbArc
 50
90.0
 51
180.0
  0
LINE
  5
299
100
AcDbEntity
  8
1
370
     9
  6
Continuous
 62
     7
100
AcDbLine
 10
153.180802
 20
142.960199
 30
0.0
 11
153.280802
 21
142.960199
 31
0.0
  0
LINE
  5
29A
100
AcDbEntity
  8
1
370
     9
  6
Continuous
 62
     7
100
AcDbLine
 10
153.980802
 20
142.260199
 30
0.0
 11
153.980802
 21
141.139584
 31
0.0
  0
ARC
  5
29B
100
AcDbEntity
  8
1
370
     9
  6
Continuous
 62
     7
100
AcDbCircle
 10
153.280802
 20
142.260199
 30
0.0
 40
0.7
100
AcDbArc
 50
0.0
 51
90.0
  0
LINE
  5
29C
100
AcDbEntity
  8
1
370
     9
  6
Continuous
 62
     7
100
AcDbLine
 10
151.480802
 20
142.060199
 30
0.0
 11
152.100259
 21
142.060199
 31
0.0
  0
LINE
  5
29D
100
AcDbEntity
  8
1
370
     9
  6
Continuous
 62
     7
100
AcDbLine
 10
151.480802
 20
141.760199
 30
0.0
 11
152.091461
 21
141.760199
 31
0.0
  0
LINE
  5
29E
100
AcDbEntity
  8
1
370
     9
  6
Continuous
 62
     7
100
AcDbLine
 10
154.361345
 20
142.060199
 30
0.0
 11
154.980802
 21
142.060199
 31
0.0
  0
LINE
  5
29F
100
AcDbEntity
  8
1
370
     9
  6
Continuous
 62
     7
100
AcDbLine
 10
154.980802
 20
141.760199
 30
0.0
 11
154.370143
 21
141.760199
 31
0.0
  0
ELLIPSE
  5
2A0
100
AcDbEntity
  8
1
370
     9
  6
Continuous
 62
     7
100
AcDbEllipse
 10
153.230802
 20
140.010199
 30
0.0
 11
1.75
 21
0.0000000000000568
 31
0.0
210
0.0
220
0.0
230
1.0
 40
0.714286
 41
2.0137073708685156
 42
1.1278852827212327
  0
ELLIPSE
  5
2A1
100
AcDbEntity
  8
1
370
     9
  6
Continuous
 62
     7
100
AcDbEllipse
 10
153.230802
 20
141.860199
 30
0.0
 11
0.0000000000003887
 21
1.3999999999996788
 31
0.0
210
0.0
220
0.0
230
1.0
 40
0.815899
 41
-2.1752114950182886
 42
2.1752129921753127
  0
LINE
  5
2A2
100
AcDbEntity
  8
1
370
     9
  6
Continuous
 62
     7
100
AcDbLine
 10
152.115076
 20
142.160199
 30
0.0
 11
152.480802
 21
142.160199
 31
0.0
  0
LINE
  5
2A3
100
AcDbEntity
  8
1
370
     9
  6
Continuous
 62
     7
100
AcDbLine
 10
152.136158
 20
142.260199
 30
0.0
 11
152.480802
 21
142.260199
 31
0.0
  0
LINE
  5
2A4
100
AcDbEntity
  8
1
370
     9
  6
Continuous
 62
     7
100
AcDbLine
 10
153.980802
 20
142.260199
 30
0.0
 11
154.325446
 21
142.260199
 31
0.0
  0
LINE
  5
2A5
100
AcDbEntity
  8
1
370
     9
  6
Continuous
 62
     7
100
AcDbLine
 10
153.980802
 20
142.160199
 30
0.0
 11
154.346527
 21
142.160199
 31
0.0
  0
LINE
  5
2A6
100
AcDbEntity
  8
1
370
     9
  6
Continuous
 62
     7
100
AcDbLine
 10
153.910092
 20
146.760199
 30
0.0
 11
151.480802
 21
144.33091
 31
0.0
  0
LINE
  5
2A7
100
AcDbEntity
  8
1
370
     9
  6
Continuous
 62
     7
100
AcDbLine
 10
151.551513
 20
144.260199
 30
0.0
 11
153.980802
 21
146.689488
 31
0.0
  0
LINE
  5
2A8
100
AcDbEntity
  8
1
370
     9
  6
Continuous
 62
     7
100
AcDbLine
 10
151.480802
 20
146.260199
 30
0.0
 11
152.844406
 21
146.260199
 31
0.0
  0
LINE
  5
2A9
100
AcDbEntity
  8
1
370
     9
  6
Continuous
 62
     7
100
AcDbLine
 10
152.844406
 20
146.260199
 30
0.0
 11
153.910092
 21
146.760199
 31
0.0
  0
LINE
  5
2AA
100
AcDbEntity
  8
1
370
     9
  6
Continuous
 62
     7
100
AcDbLine
 10
152.844406
 20
146.2602
 30
0.0
 11
151.480802
 21
144.896595
 31
0.0
  0
LINE
  5
2AB
100
AcDbEntity
  8
1
370
     9
  6
Continuous
 62
     7
100
AcDbLine
 10
152.617199
 20
144.760199
 30
0.0
 11
151.551513
 21
144.260199
 31
0.0
  0
LINE
  5
2AC
100
AcDbEntity
  8
1
370
     9
  6
Continuous
 62
     7
100
AcDbLine
 10
152.617199
 20
144.760199
 30
0.0
 11
153.980802
 21
146.123802
 31
0.0
  0
LINE
  5
2AD
100
AcDbEntity
  8
1
370
     9
  6
Continuous
 62
     7
100
AcDbLine
 10
152.617199
 20
144.760199
 30
0.0
 11
153.980802
 21
144.760199
 31
0.0
  0
ELLIPSE
  5
2AE
100
AcDbEntity
  8
1
370
     9
  6
Continuous
 62
     7
100
AcDbEllipse
 10
153.230802
 20
140.460199
 30
0.0
 11
1.4325591934990314
 21
0.0
 31
0.0
210
0.0
220
0.0
230
1.0
 40
0.820871
 41
2.8659245593296023
 42
0.2756680942606942
  0
ELLIPSE
  5
2AF
100
AcDbEntity
  8
1
370
     9
  6
Continuous
 62
     7
100
AcDbEllipse
 10
153.230101
 20
141.299273
 30
0.0
 11
1.423582467809041
 21
-0.0097461054135124
 31
0.0
210
0.0
220
0.0
230
1.0
 40
0.87095
 41
-2.7474777550974694
 42
-0.3787206361744824
  0
LINE
  5
2B0
100
AcDbEntity
  8
1
370
     9
  6
Continuous
 62
     7
100
AcDbLine
 10
151.480802
 20
147.760199
 30
0.0
 11
154.980802
 21
147.760199
 31
0.0
  0
LINE
  5
2B1
100
AcDbEntity
  8
1
370
     9
  6
Continuous
 62
     7
100
AcDbLine
 10
154.980802
 20
147.260199
 30
0.0
 11
151.480802
 21
147.260199
 31
0.0
  0
LINE
  5
2B2
100
AcDbEntity
  8
1
370
     9
  6
Continuous
 62
     7
100
AcDbLine
 10
147.980802
 20
148.760199
 30
0.0
 11
147.980802
 21
136.760199
 31
0.0
  0
LINE
  5
2B3
100
AcDbEntity
  8
1
370
     9
  6
Continuous
 62
     7
100
AcDbLine
 10
147.980802
 20
146.760199
 30
0.0
 11
150.480802
 21
146.760199
 31
0.0
  0
LINE
  5
2B4
100
AcDbEntity
  8
1
370
     9
  6
Continuous
 62
     7
100
AcDbLine
 10
150.480802
 20
146.760199
 30
0.0
 11
150.480802
 21
144.260199
 31
0.0
  0
LINE
  5
2B5
100
AcDbEntity
  8
1
370
     9
  6
Continuous
 62
     7
100
AcDbLine
 10
150.480802
 20
144.260199
 30
0.0
 11
147.980802
 21
144.260199
 31
0.0
  0
LINE
  5
2B6
100
AcDbEntity
  8
1
370
     9
  6
Continuous
 62
     7
100
AcDbLine
 10
148.980802
 20
142.260199
 30
0.0
 11
148.980802
 21
141.139584
 31
0.0
  0
ARC
  5
2B7
100
AcDbEntity
  8
1
370
     9
  6
Continuous
 62
     7
100
AcDbCircle
 10
149.680802
 20
142.260199
 30
0.0
 40
0.7
100
AcDbArc
 50
90.0
 51
180.0
  0
LINE
  5
2B8
100
AcDbEntity
  8
1
370
     9
  6
Continuous
 62
     7
100
AcDbLine
 10
149.680802
 20
142.960199
 30
0.0
 11
149.780802
 21
142.960199
 31
0.0
  0
LINE
  5
2B9
100
AcDbEntity
  8
1
370
     9
  6
Continuous
 62
     7
100
AcDbLine
 10
150.480802
 20
142.260199
 30
0.0
 11
150.480802
 21
141.139584
 31
0.0
  0
ARC
  5
2BA
100
AcDbEntity
  8
1
370
     9
  6
Continuous
 62
     7
100
AcDbCircle
 10
149.780802
 20
142.260199
 30
0.0
 40
0.7
100
AcDbArc
 50
0.0
 51
90.0
  0
LINE
  5
2BB
100
AcDbEntity
  8
1
370
     9
  6
Continuous
 62
     7
100
AcDbLine
 10
147.980802
 20
142.060199
 30
0.0
 11
148.600259
 21
142.060199
 31
0.0
  0
LINE
  5
2BC
100
AcDbEntity
  8
1
370
     9
  6
Continuous
 62
     7
100
AcDbLine
 10
147.980802
 20
141.760199
 30
0.0
 11
148.591461
 21
141.760199
 31
0.0
  0
LINE
  5
2BD
100
AcDbEntity
  8
1
370
     9
  6
Continuous
 62
     7
100
AcDbLine
 10
150.861345
 20
142.060199
 30
0.0
 11
151.480802
 21
142.060199
 31
0.0
  0
LINE
  5
2BE
100
AcDbEntity
  8
1
370
     9
  6
Continuous
 62
     7
100
AcDbLine
 10
151.480802
 20
141.760199
 30
0.0
 11
150.870143
 21
141.760199
 31
0.0
  0
ELLIPSE
  5
2BF
100
AcDbEntity
  8
1
370
     9
  6
Continuous
 62
     7
100
AcDbEllipse
 10
149.730802
 20
140.010199
 30
0.0
 11
1.75
 21
0.0000000000000568
 31
0.0
210
0.0
220
0.0
230
1.0
 40
0.714286
 41
2.0137073708685156
 42
1.1278852827212327
  0
ELLIPSE
  5
2C0
100
AcDbEntity
  8
1
370
     9
  6
Continuous
 62
     7
100
AcDbEllipse
 10
149.730802
 20
141.860199
 30
0.0
 11
0.0000000000003887
 21
1.3999999999996788
 31
0.0
210
0.0
220
0.0
230
1.0
 40
0.815899
 41
-2.1752114950182886
 42
2.1752129921753127
  0
LINE
  5
2C1
100
AcDbEntity
  8
1
370
     9
  6
Continuous
 62
     7
100
AcDbLine
 10
148.615076
 20
142.160199
 30
0.0
 11
148.980802
 21
142.160199
 31
0.0
  0
LINE
  5
2C2
100
AcDbEntity
  8
1
370
     9
  6
Continuous
 62
     7
100
AcDbLine
 10
148.636158
 20
142.260199
 30
0.0
 11
148.980802
 21
142.260199
 31
0.0
  0
LINE
  5
2C3
100
AcDbEntity
  8
1
370
     9
  6
Continuous
 62
     7
100
AcDbLine
 10
150.480802
 20
142.260199
 30
0.0
 11
150.825446
 21
142.260199
 31
0.0
  0
LINE
  5
2C4
100
AcDbEntity
  8
1
370
     9
  6
Continuous
 62
     7
100
AcDbLine
 10
150.480802
 20
142.160199
 30
0.0
 11
150.846527
 21
142.160199
 31
0.0
  0
LINE
  5
2C5
100
AcDbEntity
  8
1
370
     9
  6
Continuous
 62
     7
100
AcDbLine
 10
150.410092
 20
146.760199
 30
0.0
 11
147.980802
 21
144.33091
 31
0.0
  0
LINE
  5
2C6
100
AcDbEntity
  8
1
370
     9
  6
Continuous
 62
     7
100
AcDbLine
 10
148.051513
 20
144.260199
 30
0.0
 11
150.480802
 21
146.689488
 31
0.0
  0
LINE
  5
2C7
100
AcDbEntity
  8
1
370
     9
  6
Continuous
 62
     7
100
AcDbLine
 10
147.980802
 20
146.260199
 30
0.0
 11
149.344406
 21
146.260199
 31
0.0
  0
LINE
  5
2C8
100
AcDbEntity
  8
1
370
     9
  6
Continuous
 62
     7
100
AcDbLine
 10
149.344406
 20
146.260199
 30
0.0
 11
150.410092
 21
146.760199
 31
0.0
  0
LINE
  5
2C9
100
AcDbEntity
  8
1
370
     9
  6
Continuous
 62
     7
100
AcDbLine
 10
149.344406
 20
146.2602
 30
0.0
 11
147.980802
 21
144.896595
 31
0.0
  0
LINE
  5
2CA
100
AcDbEntity
  8
1
370
     9
  6
Continuous
 62
     7
100
AcDbLine
 10
149.117199
 20
144.760199
 30
0.0
 11
148.051513
 21
144.260199
 31
0.0
  0
LINE
  5
2CB
100
AcDbEntity
  8
1
370
     9
  6
Continuous
 62
     7
100
AcDbLine
 10
149.117199
 20
144.760199
 30
0.0
 11
150.480802
 21
146.123802
 31
0.0
  0
LINE
  5
2CC
100
AcDbEntity
  8
1
370
     9
  6
Continuous
 62
     7
100
AcDbLine
 10
149.117199
 20
144.760199
 30
0.0
 11
150.480802
 21
144.760199
 31
0.0
  0
ELLIPSE
  5
2CD
100
AcDbEntity
  8
1
370
     9
  6
Continuous
 62
     7
100
AcDbEllipse
 10
149.730802
 20
140.460199
 30
0.0
 11
1.4325591934990314
 21
0.0
 31
0.0
210
0.0
220
0.0
230
1.0
 40
0.820871
 41
2.8659245593296023
 42
0.2756680942606942
  0
ELLIPSE
  5
2CE
100
AcDbEntity
  8
1
370
     9
  6
Continuous
 62
     7
100
AcDbEllipse
 10
149.730101
 20
141.299273
 30
0.0
 11
1.423582467809041
 21
-0.0097461054135124
 31
0.0
210
0.0
220
0.0
230
1.0
 40
0.87095
 41
-2.7474777550974694
 42
-0.3787206361744824
  0
LINE
  5
2CF
100
AcDbEntity
  8
1
370
     9
  6
Continuous
 62
     7
100
AcDbLine
 10
147.980802
 20
147.760199
 30
0.0
 11
151.480802
 21
147.760199
 31
0.0
  0
LINE
  5
2D0
100
AcDbEntity
  8
1
370
     9
  6
Continuous
 62
     7
100
AcDbLine
 10
151.480802
 20
147.260199
 30
0.0
 11
147.980802
 21
147.260199
 31
0.0
  0
LINE
  5
2D1
100
AcDbEntity
  8
1
370
     9
  6
Continuous
 62
     7
100
AcDbLine
 10
189.480802
 20
164.060199
 30
0.0
 11
186.980802
 21
161.560199
 31
0.0
  0
LINE
  5
2D2
100
AcDbEntity
  8
1
370
     9
  6
Continuous
 62
     7
100
AcDbLine
 10
186.980802
 20
161.560199
 30
0.0
 11
186.980802
 21
153.260199
 31
0.0
  0
LINE
  5
2D3
100
AcDbEntity
  8
1
370
     9
  6
Continuous
 62
     7
100
AcDbLine
 10
186.980802
 20
153.260199
 30
0.0
 11
197.780802
 21
153.260199
 31
0.0
  0
LINE
  5
2D4
100
AcDbEntity
  8
1
370
     9
  6
Continuous
 62
     7
100
AcDbLine
 10
197.780802
 20
153.260199
 30
0.0
 11
197.780802
 21
161.560199
 31
0.0
  0
LINE
  5
2D5
100
AcDbEntity
  8
1
370
     9
  6
Continuous
 62
     7
100
AcDbLine
 10
197.780802
 20
161.560199
 30
0.0
 11
195.280802
 21
164.060199
 31
0.0
  0
LINE
  5
2D6
100
AcDbEntity
  8
1
370
     9
  6
Continuous
 62
     7
100
AcDbLine
 10
195.280802
 20
164.060199
 30
0.0
 11
189.480802
 21
164.060199
 31
0.0
  0
LINE
  5
2D7
100
AcDbEntity
  8
1
370
     9
  6
CENTER
 62
     7
100
AcDbLine
 10
142.480802
 20
169.779869
 30
0.0
 11
142.480802
 21
163.74053
 31
0.0
  0
LINE
  5
2D8
100
AcDbEntity
  8
1
370
     9
  6
CENTER
 62
     7
100
AcDbLine
 10
139.461133
 20
166.760199
 30
0.0
 11
145.500471
 21
166.760199
 31
0.0
  0
LINE
  5
2D9
100
AcDbEntity
  8
1
370
     9
  6
CENTER
 62
     7
100
AcDbLine
 10
142.480802
 20
138.779869
 30
0.0
 11
142.480802
 21
132.74053
 31
0.0
  0
LINE
  5
2DA
100
AcDbEntity
  8
1
370
     9
  6
CENTER
 62
     7
100
AcDbLine
 10
139.461133
 20
135.760199
 30
0.0
 11
145.500471
 21
135.760199
 31
0.0
  0
LINE
  5
2DB
100
AcDbEntity
  8
1
370
     9
  6
CENTER
 62
     7
100
AcDbLine
 10
210.480802
 20
138.779869
 30
0.0
 11
210.480802
 21
132.74053
 31
0.0
  0
LINE
  5
2DC
100
AcDbEntity
  8
1
370
     9
  6
CENTER
 62
     7
100
AcDbLine
 10
207.461133
 20
135.760199
 30
0.0
 11
213.500471
 21
135.760199
 31
0.0
  0
LINE
  5
2DD
100
AcDbEntity
  8
1
370
     9
  6
CENTER
 62
     7
100
AcDbLine
 10
153.844526
 20
136.760199
 30
0.0
 11
152.31013
 21
134.914765
 31
0.0
  0
LINE
  5
2DE
100
AcDbEntity
  8
1
370
     9
  6
CENTER
 62
     7
100
AcDbLine
 10
153.844526
 20
136.760199
 30
0.0
 11
151.592983
 21
135.929205
 31
0.0
  0
POLYLINE
  5
2DF
100
AcDbEntity
  8
1
370
     9
  6
CENTER
 62
     7
100
AcDb2dPolyline
 66
     1
 10
0.0
 20
0.0
 30
0.0
  0
VERTEX
  5
2E0
100
AcDbEntity
  8
1
370
     9
  6
CENTER
 62
     7
100
AcDbVertex
100
AcDb2dVertex
 10
153.844526
 20
136.760199
 30
0.0
  0
VERTEX
  5
2E1
100
AcDbEntity
  8
1
370
     9
  6
CENTER
 62
     7
100
AcDbVertex
100
AcDb2dVertex
 10
118.480802
 20
111.760199
 30
0.0
  0
VERTEX
  5
2E2
100
AcDbEntity
  8
1
370
     9
  6
CENTER
 62
     7
100
AcDbVertex
100
AcDb2dVertex
 10
84.780802
 20
111.760199
 30
0.0
  0
SEQEND
  5
2E3
100
AcDbEntity
  8
1
370
     9
  6
CENTER
 62
     7
  0
TEXT
  5
2E4
100
AcDbEntity
  8
1
370
     9
  6
CENTER
 62
     7
100
AcDbText
 10
84.780802
 20
112.260199
 30
0.0
 40
3.0
  1
外部入出力端子（TB1）
 41
0.81401
 11
84.780802
 21
112.260199
 31
0.0
100
AcDbText
 73
     1
  0
LINE
  5
2E5
100
AcDbEntity
  8
1
370
     9
  6
CENTER
 62
     7
100
AcDbLine
 10
200.440936
 20
136.760199
 30
0.0
 11
202.677074
 21
135.8886
 31
0.0
  0
LINE
  5
2E6
100
AcDbEntity
  8
1
370
     9
  6
CENTER
 62
     7
100
AcDbLine
 10
200.440936
 20
136.760199
 30
0.0
 11
201.941689
 21
134.887303
 31
0.0
  0
POLYLINE
  5
2E7
100
AcDbEntity
  8
1
370
     9
  6
CENTER
 62
     7
100
AcDb2dPolyline
 66
     1
 10
0.0
 20
0.0
 30
0.0
  0
VERTEX
  5
2E8
100
AcDbEntity
  8
1
370
     9
  6
CENTER
 62
     7
100
AcDbVertex
100
AcDb2dVertex
 10
200.440936
 20
136.760199
 30
0.0
  0
VERTEX
  5
2E9
100
AcDbEntity
  8
1
370
     9
  6
CENTER
 62
     7
100
AcDbVertex
100
AcDb2dVertex
 10
234.480802
 20
111.760199
 30
0.0
  0
VERTEX
  5
2EA
100
AcDbEntity
  8
1
370
     9
  6
CENTER
 62
     7
100
AcDbVertex
100
AcDb2dVertex
 10
295.480802
 20
111.760199
 30
0.0
  0
SEQEND
  5
2EB
100
AcDbEntity
  8
1
370
     9
  6
CENTER
 62
     7
  0
TEXT
  5
2EC
100
AcDbEntity
  8
1
370
     9
  6
CENTER
 62
     7
100
AcDbText
 10
234.480802
 20
112.260199
 30
0.0
 40
3.0
  1
カードリーダー＆テンキー接続端子（TB2)
 41
0.833333
 11
234.480802
 21
112.260199
 31
0.0
100
AcDbText
 73
     1
  0
LINE
  5
2ED
100
AcDbEntity
  8
15
370
    30
  6
Continuous
 62
    96
100
AcDbLine
 10
310.09048
 20
222.561194
 30
0.0
 11
400.1138
 21
222.561194
 31
0.0
  0
TEXT
  5
2EE
100
AcDbEntity
  8
15
370
     9
  6
Continuous
 62
    96
100
AcDbText
 10
317.741238
 20
223.809392
 30
0.0
 40
3.0
  1
重　量
 41
0.87037
 11
317.741238
 21
223.809392
 31
0.0
100
AcDbText
 73
     1
  0
TEXT
  5
2EF
100
AcDbEntity
  8
15
370
     9
  6
Continuous
 62
    96
100
AcDbText
 10
358.911261
 20
223.812005
 30
0.0
 40
3.0
  1
約40ｇ
 41
0.727273
 11
358.911261
 21
223.812005
 31
0.0
100
AcDbText
 73
     1
  0
LINE
  5
2F0
100
AcDbEntity
  8
15
370
     9
  6
Continuous
 62
    96
100
AcDbLine
 10
310.086999
 20
255.570926
 30
0.0
 11
400.1138
 21
255.570926
 31
0.0
  0
TEXT
  5
2F1
100
AcDbEntity
  8
15
370
     9
  6
Continuous
 62
    96
100
AcDbText
 10
323.878926
 20
256.815709
 30
0.0
 40
3.0
  1
外部出力　：接点容量　DC24Ｖ　0.3Ａ以下
 41
0.812661
 11
323.878926
 21
256.815709
 31
0.0
100
AcDbText
 73
     1
  0
LINE
  5
2F2
100
AcDbEntity
  8
15
370
     9
  6
Continuous
 62
    96
100
AcDbLine
 10
310.086999
 20
250.069304
 30
0.0
 11
400.1138
 21
250.069304
 31
0.0
  0
LINE
  5
2F3
100
AcDbEntity
  8
15
370
     9
  6
Continuous
 62
    96
100
AcDbLine
 10
310.083517
 20
244.567682
 30
0.0
 11
400.106837
 21
244.567682
 31
0.0
  0
TEXT
  5
2F4
100
AcDbEntity
  8
15
370
     9
  6
Continuous
 62
    96
100
AcDbText
 10
316.148971
 20
240.316871
 30
0.0
 40
3.0
  1
警報出力
 41
0.875
 11
316.148971
 21
240.316871
 31
0.0
100
AcDbText
 73
     1
  0
TEXT
  5
2F5
100
AcDbEntity
  8
15
370
     9
  6
Continuous
 62
    96
100
AcDbText
 10
316.148971
 20
251.320115
 30
0.0
 40
3.0
  1
解錠出力
 41
0.875
 11
316.148971
 21
251.320115
 31
0.0
100
AcDbText
 73
     1
  0
TEXT
  5
2F6
100
AcDbEntity
  8
15
370
     9
  6
Continuous
 62
    96
100
AcDbText
 10
316.142008
 20
245.818493
 30
0.0
 40
3.0
  1
開扉出力
 41
0.875
 11
316.142008
 21
245.818493
 31
0.0
100
AcDbText
 73
     1
  0
TEXT
  5
2F7
100
AcDbEntity
  8
15
370
     9
  6
Continuous
 62
    96
100
AcDbText
 10
392.887085
 20
240.333742
 30
0.0
 40
3.0
  1
１点
 41
0.861111
 11
392.887085
 21
240.333742
 31
0.0
100
AcDbText
 73
     1
  0
TEXT
  5
2F8
100
AcDbEntity
  8
15
370
     9
  6
Continuous
 62
    96
100
AcDbText
 10
392.856635
 20
245.813042
 30
0.0
 40
3.0
  1
１点
 41
0.861111
 11
392.856635
 21
245.813042
 31
0.0
100
AcDbText
 73
     1
  0
TEXT
  5
2F9
100
AcDbEntity
  8
15
370
     9
  6
Continuous
 62
    96
100
AcDbText
 10
392.938885
 20
251.292392
 30
0.0
 40
3.0
  1
１点
 41
0.861111
 11
392.938885
 21
251.292392
 31
0.0
100
AcDbText
 73
     1
  0
LINE
  5
2FA
100
AcDbEntity
  8
15
370
     9
  6
Continuous
 62
    96
100
AcDbLine
 10
391.969467
 20
255.570926
 30
0.0
 11
391.969467
 21
239.06606
 31
0.0
  0
LINE
  5
2FB
100
AcDbEntity
  8
15
370
     9
  6
Continuous
 62
    96
100
AcDbLine
 10
334.952657
 20
255.570926
 30
0.0
 11
334.952657
 21
239.06606
 31
0.0
  0
LINE
  5
2FC
100
AcDbEntity
  8
15
370
    30
  6
Continuous
 62
    96
100
AcDbLine
 10
310.080036
 20
239.06606
 30
0.0
 11
400.103356
 21
239.06606
 31
0.0
  0
LINE
  5
2FD
100
AcDbEntity
  8
15
370
     9
  6
Continuous
 62
    96
100
AcDbLine
 10
310.086999
 20
233.564438
 30
0.0
 11
400.1138
 21
233.564438
 31
0.0
  0
TEXT
  5
2FE
100
AcDbEntity
  8
15
370
     9
  6
Continuous
 62
    96
100
AcDbText
 10
392.883604
 20
229.330498
 30
0.0
 40
3.0
  1
１点
 41
0.861111
 11
392.883604
 21
229.330498
 31
0.0
100
AcDbText
 73
     1
  0
LINE
  5
2FF
100
AcDbEntity
  8
15
370
     9
  6
Continuous
 62
    96
100
AcDbLine
 10
391.969467
 20
233.564438
 30
0.0
 11
391.965986
 21
228.062816
 31
0.0
  0
TEXT
  5
300
100
AcDbEntity
  8
15
370
     9
  6
Continuous
 62
    96
100
AcDbText
 10
314.545489
 20
229.313627
 30
0.0
 40
3.0
  1
パルス入力
 41
0.877778
 11
314.545489
 21
229.313627
 31
0.0
100
AcDbText
 73
     1
  0
TEXT
  5
301
100
AcDbEntity
  8
15
370
     9
  6
Continuous
 62
    96
100
AcDbText
 10
351.011261
 20
229.313627
 30
0.0
 40
3.0
  1
スリーキー接続用
 41
0.881944
 11
351.011261
 21
229.313627
 31
0.0
100
AcDbText
 73
     1
  0
TEXT
  5
302
100
AcDbEntity
  8
15
370
     9
  6
Continuous
 62
    96
100
AcDbText
 10
348.91696
 20
234.809221
 30
0.0
 40
3.0
  1
外部入力
 41
0.875
 11
348.91696
 21
234.809221
 31
0.0
100
AcDbText
 73
     1
  0
LINE
  5
303
100
AcDbEntity
  8
15
370
    30
  6
Continuous
 62
    96
100
AcDbLine
 10
310.086999
 20
228.062816
 30
0.0
 11
400.110319
 21
228.062816
 31
0.0
  0
LINE
  5
304
100
AcDbEntity
  8
15
370
     9
  6
Continuous
 62
    96
100
AcDbLine
 10
334.952657
 20
233.564438
 30
0.0
 11
334.952657
 21
222.561194
 31
0.0
  0
DIMENSION
  5
310
100
AcDbEntity
  8
1
370
     9
  6
Continuous
 62
     7
100
AcDbDimension
  2
*D8
 10
138.480802
 20
116.760199
 30
0.0
 11
140.480802
 21
117.260199
 31
0.0
 71
     5
 72
     1
 41
1.0
 42
0.0
  1
4
100
AcDbAlignedDimension
 13
138.480802
 23
129.760199
 33
0.0
 14
142.480802
 24
130.74053
 34
0.0
100
AcDbRotatedDimension
  0
DIMENSION
  5
31C
100
AcDbEntity
  8
1
370
     9
  6
Continuous
 62
     7
100
AcDbDimension
  2
*D9
 10
142.480802
 20
116.760199
 30
0.0
 11
176.480802
 21
117.260199
 31
0.0
 71
     5
 72
     1
 41
1.0
 42
0.0
  1
68
100
AcDbAlignedDimension
 13
142.480802
 23
131.324176
 33
0.0
 14
210.480802
 24
130.74053
 34
0.0
100
AcDbRotatedDimension
  0
DIMENSION
  5
328
100
AcDbEntity
  8
1
370
     9
  6
Continuous
 62
     7
100
AcDbDimension
  2
*D10
 10
210.480802
 20
116.760199
 30
0.0
 11
212.480802
 21
117.260199
 31
0.0
 71
     5
 72
     1
 41
1.0
 42
0.0
  1
(4)
100
AcDbAlignedDimension
 13
210.480802
 23
130.74053
 33
0.0
 14
214.480802
 24
129.760199
 34
0.0
100
AcDbRotatedDimension
  0
DIMENSION
  5
334
100
AcDbEntity
  8
1
370
     9
  6
Continuous
 62
     7
100
AcDbDimension
  2
*D11
 10
138.480802
 20
101.760199
 30
0.0
 11
176.480802
 21
102.260199
 31
0.0
 71
     5
 72
     1
 41
1.0
 42
0.0
  1
76
100
AcDbAlignedDimension
 13
138.480802
 23
129.760199
 33
0.0
 14
214.480802
 24
129.760199
 34
0.0
100
AcDbRotatedDimension
  0
DIMENSION
  5
340
100
AcDbEntity
  8
1
370
     9
  6
Continuous
 62
     7
100
AcDbDimension
  2
*D12
 10
123.480802
 20
135.760199
 30
0.0
 11
122.980802
 21
151.260199
 31
0.0
 71
     5
 72
     1
 41
1.0
 42
0.0
  1
31
100
AcDbAlignedDimension
 13
137.461133
 23
135.760199
 33
0.0
 14
137.461133
 24
166.760199
 34
0.0
 50
90.0
100
AcDbRotatedDimension
  0
DIMENSION
  5
34C
100
AcDbEntity
  8
1
370
     9
  6
Continuous
 62
     7
100
AcDbDimension
  2
*D13
 10
123.480802
 20
131.760199
 30
0.0
 11
122.980802
 21
133.760199
 31
0.0
 71
     5
 72
     1
 41
1.0
 42
0.0
  1
4
100
AcDbAlignedDimension
 13
136.480802
 23
131.760199
 33
0.0
 14
137.461133
 24
135.760199
 34
0.0
 50
90.0
100
AcDbRotatedDimension
  0
DIMENSION
  5
358
100
AcDbEntity
  8
1
370
     9
  6
Continuous
 62
     7
100
AcDbDimension
  2
*D14
 10
108.480802
 20
131.760199
 30
0.0
 11
107.980802
 21
151.260199
 31
0.0
 71
     5
 72
     1
 41
1.0
 42
0.0
  1
39
100
AcDbAlignedDimension
 13
136.480802
 23
131.760199
 33
0.0
 14
136.480802
 24
170.760199
 34
0.0
 50
90.0
100
AcDbRotatedDimension
  0
DIMENSION
  5
364
100
AcDbEntity
  8
1
370
     9
  6
Continuous
 62
     7
100
AcDbDimension
  2
*D15
 10
123.480802
 20
166.760199
 30
0.0
 11
122.980802
 21
168.760199
 31
0.0
 71
     5
 72
     1
 41
1.0
 42
0.0
  1
(4)
100
AcDbAlignedDimension
 13
137.461133
 23
166.760199
 33
0.0
 14
136.480802
 24
170.760199
 34
0.0
 50
90.0
100
AcDbRotatedDimension
  0
LINE
  5
365
100
AcDbEntity
  8
1
370
     9
  6
CENTER
 62
     7
100
AcDbLine
 10
141.426818
 20
168.157202
 30
0.0
 11
139.339379
 21
169.341516
 31
0.0
  0
LINE
  5
366
100
AcDbEntity
  8
1
370
     9
  6
CENTER
 62
     7
100
AcDbLine
 10
141.426818
 20
168.157202
 30
0.0
 11
140.2112
 21
170.226568
 31
0.0
  0
POLYLINE
  5
367
100
AcDbEntity
  8
1
370
     9
  6
CENTER
 62
     7
100
AcDb2dPolyline
 66
     1
 10
0.0
 20
0.0
 30
0.0
  0
VERTEX
  5
368
100
AcDbEntity
  8
1
370
     9
  6
CENTER
 62
     7
100
AcDbVertex
100
AcDb2dVertex
 10
141.426818
 20
168.157202
 30
0.0
  0
VERTEX
  5
369
100
AcDbEntity
  8
1
370
     9
  6
CENTER
 62
     7
100
AcDbVertex
100
AcDb2dVertex
 10
118.480802
 20
190.760199
 30
0.0
  0
VERTEX
  5
36A
100
AcDbEntity
  8
1
370
     9
  6
CENTER
 62
     7
100
AcDbVertex
100
AcDb2dVertex
 10
90.980802
 20
190.760199
 30
0.0
  0
SEQEND
  5
36B
100
AcDbEntity
  8
1
370
     9
  6
CENTER
 62
     7
  0
TEXT
  5
36C
100
AcDbEntity
  8
1
370
     9
  6
CENTER
 62
     7
100
AcDbText
 10
90.980802
 20
191.260199
 30
0.0
 40
3.0
  1
3-%%c3.5（取付穴）
 41
0.79023
 11
90.980802
 21
191.260199
 31
0.0
100
AcDbText
 73
     1
  0
TEXT
  5
36D
100
AcDbEntity
  8
15
370
     9
  6
Continuous
 62
    96
100
AcDbText
 10
349.414742
 20
251.320115
 30
0.0
 40
3.0
  1
無電圧ｃ接点　連続
 41
0.882716
 11
349.414742
 21
251.320115
 31
0.0
100
AcDbText
 73
     1
  0
TEXT
  5
36E
100
AcDbEntity
  8
15
370
     9
  6
Continuous
 62
    96
100
AcDbText
 10
349.414742
 20
245.818493
 30
0.0
 40
3.0
  1
無電圧ｃ接点　連続
 41
0.882716
 11
349.414742
 21
245.818493
 31
0.0
100
AcDbText
 73
     1
  0
TEXT
  5
36F
100
AcDbEntity
  8
15
370
     9
  6
Continuous
 62
    96
100
AcDbText
 10
349.414742
 20
240.316871
 30
0.0
 40
3.0
  1
無電圧ｃ接点　連続
 41
0.882716
 11
349.414742
 21
240.316871
 31
0.0
100
AcDbText
 73
     1
  0
LINE
  5
370
100
AcDbEntity
  8
1
370
     9
  6
Continuous
 62
     7
100
AcDbLine
 10
208.855802
 20
160.035199
 30
0.0
 11
208.980802
 21
160.160199
 31
0.0
  0
LINE
  5
371
100
AcDbEntity
  8
1
370
     9
  6
Continuous
 62
     7
100
AcDbLine
 10
208.855802
 20
159.785199
 30
0.0
 11
208.980802
 21
159.660199
 31
0.0
  0
LINE
  5
372
100
AcDbEntity
  8
1
370
     9
  6
Continuous
 62
     7
100
AcDbLine
 10
208.605802
 20
159.785199
 30
0.0
 11
208.480802
 21
159.660199
 31
0.0
  0
LINE
  5
373
100
AcDbEntity
  8
1
370
     9
  6
Continuous
 62
     7
100
AcDbLine
 10
208.480802
 20
160.160199
 30
0.0
 11
208.605802
 21
160.035199
 31
0.0
  0
LINE
  5
374
100
AcDbEntity
  8
1
370
     9
  6
Continuous
 62
     7
100
AcDbLine
 10
208.855802
 20
162.035199
 30
0.0
 11
208.980802
 21
162.160199
 31
0.0
  0
LINE
  5
375
100
AcDbEntity
  8
1
370
     9
  6
Continuous
 62
     7
100
AcDbLine
 10
208.855802
 20
161.785199
 30
0.0
 11
208.980802
 21
161.660199
 31
0.0
  0
LINE
  5
376
100
AcDbEntity
  8
1
370
     9
  6
Continuous
 62
     7
100
AcDbLine
 10
208.605802
 20
161.785199
 30
0.0
 11
208.480802
 21
161.660199
 31
0.0
  0
LINE
  5
377
100
AcDbEntity
  8
1
370
     9
  6
Continuous
 62
     7
100
AcDbLine
 10
208.605802
 20
162.035199
 30
0.0
 11
208.480802
 21
162.160199
 31
0.0
  0
LINE
  5
378
100
AcDbEntity
  8
1
370
     9
  6
Continuous
 62
     7
100
AcDbLine
 10
208.605802
 20
157.785199
 30
0.0
 11
208.480802
 21
157.660199
 31
0.0
  0
LINE
  5
379
100
AcDbEntity
  8
1
370
     9
  6
Continuous
 62
     7
100
AcDbLine
 10
208.855802
 20
157.785199
 30
0.0
 11
208.980802
 21
157.660199
 31
0.0
  0
LINE
  5
37A
100
AcDbEntity
  8
1
370
     9
  6
Continuous
 62
     7
100
AcDbLine
 10
208.855802
 20
158.035199
 30
0.0
 11
208.980802
 21
158.160199
 31
0.0
  0
LINE
  5
37B
100
AcDbEntity
  8
1
370
     9
  6
Continuous
 62
     7
100
AcDbLine
 10
208.480802
 20
158.160199
 30
0.0
 11
208.605802
 21
158.035199
 31
0.0
  0
INSERT
  5
383
100
AcDbEntity
  8
0
370
     9
  6
Continuous
 62
     5
100
AcDbBlockReference
  2
*G16
 10
0.0
 20
0.0
 30
0.0
  0
INSERT
  5
38B
100
AcDbEntity
  8
0
370
     9
  6
Continuous
 62
     5
100
AcDbBlockReference
  2
*G17
 10
0.0
 20
0.0
 30
0.0
  0
INSERT
  5
393
100
AcDbEntity
  8
0
370
     9
  6
Continuous
 62
     5
100
AcDbBlockReference
  2
*G18
 10
0.0
 20
0.0
 30
0.0
  0
LINE
  5
394
100
AcDbEntity
  8
1
370
     9
  6
Continuous
 62
     7
100
AcDbLine
 10
209.305802
 20
160.510199
 30
0.0
 11
209.380802
 21
160.510199
 31
0.0
  0
LINE
  5
395
100
AcDbEntity
  8
1
370
     9
  6
Continuous
 62
     7
100
AcDbLine
 10
209.305802
 20
161.310199
 30
0.0
 11
209.380802
 21
161.310199
 31
0.0
  0
LINE
  5
396
100
AcDbEntity
  8
1
370
     9
  6
Continuous
 62
     7
100
AcDbLine
 10
208.980802
 20
160.160199
 30
0.0
 11
209.230802
 21
160.410199
 31
0.0
  0
LINE
  5
397
100
AcDbEntity
  8
1
370
     9
  6
Continuous
 62
     7
100
AcDbLine
 10
208.980802
 20
159.660199
 30
0.0
 11
209.230802
 21
159.410199
 31
0.0
  0
LINE
  5
398
100
AcDbEntity
  8
1
370
     9
  6
Continuous
 62
     7
100
AcDbLine
 10
208.480802
 20
159.660199
 30
0.0
 11
208.230802
 21
159.410199
 31
0.0
  0
LINE
  5
399
100
AcDbEntity
  8
1
370
     9
  6
Continuous
 62
     7
100
AcDbLine
 10
208.230802
 20
160.410199
 30
0.0
 11
208.480802
 21
160.160199
 31
0.0
  0
LINE
  5
39A
100
AcDbEntity
  8
1
370
     9
  6
Continuous
 62
     7
100
AcDbLine
 10
208.980802
 20
162.160199
 30
0.0
 11
209.230802
 21
162.410199
 31
0.0
  0
LINE
  5
39B
100
AcDbEntity
  8
1
370
     9
  6
Continuous
 62
     7
100
AcDbLine
 10
208.980802
 20
161.660199
 30
0.0
 11
209.230802
 21
161.410199
 31
0.0
  0
LINE
  5
39C
100
AcDbEntity
  8
1
370
     9
  6
Continuous
 62
     7
100
AcDbLine
 10
208.230802
 20
161.410199
 30
0.0
 11
208.480802
 21
161.660199
 31
0.0
  0
LINE
  5
39D
100
AcDbEntity
  8
1
370
     9
  6
Continuous
 62
     7
100
AcDbLine
 10
208.230802
 20
162.410199
 30
0.0
 11
208.480802
 21
162.160199
 31
0.0
  0
LINE
  5
39E
100
AcDbEntity
  8
1
370
     9
  6
Continuous
 62
     7
100
AcDbLine
 10
209.230802
 20
160.410199
 30
0.0
 11
209.305802
 21
160.410199
 31
0.0
  0
LINE
  5
39F
100
AcDbEntity
  8
1
370
     9
  6
Continuous
 62
     7
100
AcDbLine
 10
209.305802
 20
161.410199
 30
0.0
 11
209.230802
 21
161.410199
 31
0.0
  0
LINE
  5
3A0
100
AcDbEntity
  8
1
370
     9
  6
Continuous
 62
     7
100
AcDbLine
 10
209.305802
 20
160.160199
 30
0.0
 11
209.380802
 21
160.160199
 31
0.0
  0
LINE
  5
3A1
100
AcDbEntity
  8
1
370
     9
  6
Continuous
 62
     7
100
AcDbLine
 10
209.305802
 20
161.760199
 30
0.0
 11
209.305802
 21
160.160199
 31
0.0
  0
LINE
  5
3A2
100
AcDbEntity
  8
1
370
     9
  6
Continuous
 62
     7
100
AcDbLine
 10
209.380802
 20
161.760199
 30
0.0
 11
209.305802
 21
161.760199
 31
0.0
  0
LINE
  5
3A3
100
AcDbEntity
  8
1
370
     9
  6
Continuous
 62
     7
100
AcDbLine
 10
207.730802
 20
161.410199
 30
0.0
 11
208.230802
 21
161.410199
 31
0.0
  0
LINE
  5
3A4
100
AcDbEntity
  8
1
370
     9
  6
Continuous
 62
     7
100
AcDbLine
 10
207.730802
 20
160.410199
 30
0.0
 11
208.230802
 21
160.410199
 31
0.0
  0
LINE
  5
3A5
100
AcDbEntity
  8
1
370
     9
  6
Continuous
 62
     7
100
AcDbLine
 10
209.380802
 20
159.260199
 30
0.0
 11
207.730802
 21
159.260199
 31
0.0
  0
LINE
  5
3A6
100
AcDbEntity
  8
1
370
     9
  6
Continuous
 62
     7
100
AcDbLine
 10
209.380802
 20
162.560199
 30
0.0
 11
209.380802
 21
159.260199
 31
0.0
  0
LINE
  5
3A7
100
AcDbEntity
  8
1
370
     9
  6
Continuous
 62
     7
100
AcDbLine
 10
207.730802
 20
162.560199
 30
0.0
 11
209.380802
 21
162.560199
 31
0.0
  0
INSERT
  5
3AF
100
AcDbEntity
  8
0
370
     9
  6
Continuous
 62
     5
100
AcDbBlockReference
  2
*G19
 10
0.0
 20
0.0
 30
0.0
  0
INSERT
  5
3B7
100
AcDbEntity
  8
0
370
     9
  6
Continuous
 62
     5
100
AcDbBlockReference
  2
*G20
 10
0.0
 20
0.0
 30
0.0
  0
INSERT
  5
3BF
100
AcDbEntity
  8
0
370
     9
  6
Continuous
 62
     5
100
AcDbBlockReference
  2
*G21
 10
0.0
 20
0.0
 30
0.0
  0
INSERT
  5
3C7
100
AcDbEntity
  8
0
370
     9
  6
Continuous
 62
     5
100
AcDbBlockReference
  2
*G22
 10
0.0
 20
0.0
 30
0.0
  0
INSERT
  5
3CF
100
AcDbEntity
  8
0
370
     9
  6
Continuous
 62
     5
100
AcDbBlockReference
  2
*G23
 10
0.0
 20
0.0
 30
0.0
  0
LINE
  5
3D0
100
AcDbEntity
  8
1
370
     9
  6
Continuous
 62
     7
100
AcDbLine
 10
209.730802
 20
156.910199
 30
0.0
 11
209.730802
 21
158.910199
 31
0.0
  0
LINE
  5
3D1
100
AcDbEntity
  8
1
370
     9
  6
Continuous
 62
     7
100
AcDbLine
 10
207.730802
 20
156.910199
 30
0.0
 11
209.730802
 21
156.910199
 31
0.0
  0
LINE
  5
3D2
100
AcDbEntity
  8
1
370
     9
  6
Continuous
 62
     7
100
AcDbLine
 10
207.730802
 20
158.910199
 30
0.0
 11
207.730802
 21
156.910199
 31
0.0
  0
INSERT
  5
3DA
100
AcDbEntity
  8
0
370
     9
  6
Continuous
 62
     5
100
AcDbBlockReference
  2
*G24
 10
0.0
 20
0.0
 30
0.0
  0
TEXT
  5
3DB
100
AcDbEntity
  8
15
370
     9
  6
Continuous
 62
    96
100
AcDbText
 10
327.092291
 20
28.26333
 30
0.0
 40
3.5
  1
G10126-01-19930
 41
0.5
 11
327.092291
 21
28.26333
 31
0.0
100
AcDbText
 73
     1
  0
TEXT
  5
3DC
100
AcDbEntity
  8
15
370
     9
  6
Continuous
 62
    96
100
AcDbText
 10
364.277472
 20
28.507157
 30
0.0
 40
3.0
  1
2019年09月30日
 41
0.66092
 11
364.277472
 21
28.507157
 31
0.0
100
AcDbText
 73
     1
  0
ENDSEC
  0
SECTION
  2
OBJECTS
  0
DICTIONARY
  5
19
100
AcDbDictionary
280
     0
281
     1
  3
ACAD_GROUP
350
1A
  3
ACAD_MLINESTYLE
350
1B
  3
ACAD_LAYOUT
350
1E
  3
ACAD_PLOTSETTINGS
350
22
  3
ACAD_PLOTSTYLENAME
350
1F
  3
ACAD_WIPEOUT_VARS
350
23
  0
DICTIONARY
  5
1A
102
{ACAD_REACTORS
330
19
102
}
100
AcDbDictionary
280
     0
281
     1
  0
DICTIONARY
  5
1B
102
{ACAD_REACTORS
330
19
102
}
100
AcDbDictionary
280
     0
281
     1
  3
Standard
350
1C
  0
MLINESTYLE
  5
1C
102
{ACAD_REACTORS
330
1B
102
}
100
AcDbMlineStyle
  2
Standard
 70
     0
  3

 62
     0
 51
90.0
 52
90.0
 71
     2
 49
0.5
 62
   256
  6
ByLayer
 49
-0.5
 62
   256
  6
ByLayer
  0
ACDBDICTIONARYWDFLT
  5
1F
102
{ACAD_REACTORS
330
19
102
}
100
AcDbDictionary
281
     1
  3
Normal
350
1D
100
AcDbDictionaryWithDefault
340
1D
  0
ACDBPLACEHOLDER
  5
1D
102
{ACAD_REACTORS
330
1F
102
}
  0
LAYOUT
  5
20
102
{ACAD_REACTORS
330
1E
102
}
100
AcDbPlotSettings
  1

  2

  4

  6

 40
0.0
 41
0.0
 42
0.0
 43
0.0
 44
0.0
 45
0.0
 46
0.0
 47
0.0
 48
0.0
 49
0.0
140
0.0
141
0.0
142
1.0
143
1.0
 70
  1024
 72
     0
 73
     0
 74
     0
  7

 75
     0
147
1.0
148
0.0
149
0.0
100
AcDbLayout
  1
Model
 70
     0
 71
     0
 10
0.0
 20
0.0
 11
0.0
 21
0.0
 12
0.0
 22
0.0
 32
0.0
 14
0.0
 24
0.0
 34
0.0
 15
0.0
 25
0.0
 35
0.0
146
0.0
 13
0.0
 23
0.0
 33
0.0
 16
0.0
 26
0.0
 36
0.0
 17
0.0
 27
0.0
 37
0.0
 76
     0
330
A
331
0
345
0
346
0
  0
LAYOUT
  5
21
102
{ACAD_REACTORS
330
1E
102
}
100
AcDbPlotSettings
  1

  2

  4

  6

 40
0.0
 41
0.0
 42
0.0
 43
0.0
 44
0.0
 45
0.0
 46
0.0
 47
0.0
 48
0.0
 49
0.0
140
0.0
141
0.0
142
1.0
143
1.0
 70
     0
 72
     0
 73
     0
 74
     0
  7

 75
     0
147
1.0
148
0.0
149
0.0
100
AcDbLayout
  1
Layout1
 70
     0
 71
     0
 10
0.0
 20
0.0
 11
0.0
 21
0.0
 12
0.0
 22
0.0
 32
0.0
 14
0.0
 24
0.0
 34
0.0
 15
0.0
 25
0.0
 35
0.0
146
0.0
 13
0.0
 23
0.0
 33
0.0
 16
0.0
 26
0.0
 36
0.0
 17
0.0
 27
0.0
 37
0.0
 76
     0
330
B
331
0
345
0
346
0
  0
DICTIONARY
  5
1E
102
{ACAD_REACTORS
330
19
102
}
100
AcDbDictionary
280
     0
281
     1
  3
Layout1
350
21
  3
Model
350
20
  0
DICTIONARY
  5
22
102
{ACAD_REACTORS
330
19
102
}
100
AcDbDictionary
280
     0
281
     1
  0
WIPEOUTVARIABLES
  5
23
100
AcDbWipeoutVariables
 70
     1
  0
ENDSEC
  0
EOF
