  0
SECTION
  2
HEADER
  9
$ACADVER
  1
AC1032
  9
$ACADMAINTVER
 90
        4
  9
$DWGCODEPAGE
  3
ANSI_932
  9
$REQUIREDVERSIONS
160
                 0
  9
$INSBASE
 10
0.0
 20
0.0
 30
0.0
  9
$EXTMIN
 10
0.0
 20
0.0
 30
0.0
  9
$EXTMAX
 10
800.4347024654567
 20
544.1515841371479
 30
0.0
  9
$LIMMIN
 10
0.0
 20
0.0
  9
$LIMMAX
 10
420.0
 20
297.0
  9
$ORTHOMODE
 70
     0
  9
$REGENMODE
 70
     1
  9
$FILLMODE
 70
     1
  9
$QTEXTMODE
 70
     0
  9
$MIRRTEXT
 70
     1
  9
$LTSCALE
 40
0.5
  9
$ATTMODE
 70
     1
  9
$TEXTSIZE
 40
6.0
  9
$TRACEWID
 40
0.05
  9
$TEXTSTYLE
  7
Standard
  9
$CLAYER
  8
0
  9
$CELTYPE
  6
ByLayer
  9
$CECOLOR
 62
   256
  9
$CELTSCALE
 40
1.0
  9
$DISPSILH
 70
     0
  9
$DIMSCALE
 40
1.0
  9
$DIMASZ
 40
2.4
  9
$DIMEXO
 40
2.0
  9
$DIMDLI
 40
10.0
  9
$DIMRND
 40
0.0
  9
$DIMDLE
 40
0.0
  9
$DIMEXE
 40
2.0
  9
$DIMTP
 40
0.0
  9
$DIMTM
 40
0.0
  9
$DIMTXT
 40
3.0
  9
$DIMCEN
 40
0.09
  9
$DIMTSZ
 40
0.0
  9
$DIMTOL
 70
     0
  9
$DIMLIM
 70
     0
  9
$DIMTIH
 70
     0
  9
$DIMTOH
 70
     0
  9
$DIMSE1
 70
     0
  9
$DIMSE2
 70
     0
  9
$DIMTAD
 70
     3
  9
$DIMZIN
 70
     8
  9
$DIMBLK
  1

  9
$DIMASO
 70
     1
  9
$DIMSHO
 70
     1
  9
$DIMPOST
  1

  9
$DIMAPOST
  1

  9
$DIMALT
 70
     0
  9
$DIMALTD
 70
     2
  9
$DIMALTF
 40
25.4
  9
$DIMLFAC
 40
1.0
  9
$DIMTOFL
 70
     1
  9
$DIMTVP
 40
0.7
  9
$DIMTIX
 70
     0
  9
$DIMSOXD
 70
     0
  9
$DIMSAH
 70
     0
  9
$DIMBLK1
  1

  9
$DIMBLK2
  1

  9
$DIMSTYLE
  2
Standard
  9
$DIMCLRD
 70
     0
  9
$DIMCLRE
 70
     0
  9
$DIMCLRT
 70
     0
  9
$DIMTFAC
 40
0.5
  9
$DIMGAP
 40
0.09
  9
$DIMJUST
 70
     0
  9
$DIMSD1
 70
     0
  9
$DIMSD2
 70
     0
  9
$DIMTOLJ
 70
     1
  9
$DIMTZIN
 70
     8
  9
$DIMALTZ
 70
     0
  9
$DIMALTTZ
 70
     0
  9
$DIMUPT
 70
     1
  9
$DIMDEC
 70
     2
  9
$DIMTDEC
 70
     4
  9
$DIMALTU
 70
     2
  9
$DIMALTTD
 70
     2
  9
$DIMTXSTY
  7
Standard
  9
$DIMAUNIT
 70
     0
  9
$DIMADEC
 70
     0
  9
$DIMALTRND
 40
0.0
  9
$DIMAZIN
 70
     0
  9
$DIMDSEP
 70
    46
  9
$DIMATFIT
 70
     2
  9
$DIMFRAC
 70
     0
  9
$DIMLDRBLK
  1

  9
$DIMLUNIT
 70
     2
  9
$DIMLWD
 70
    -2
  9
$DIMLWE
 70
    -2
  9
$DIMTMOVE
 70
     2
  9
$DIMFXL
 40
1.0
  9
$DIMFXLON
 70
     0
  9
$DIMJOGANG
 40
0.7853981633974483
  9
$DIMTFILL
 70
     0
  9
$DIMTFILLCLR
 70
     0
  9
$DIMARCSYM
 70
     0
  9
$DIMLTYPE
  6

  9
$DIMLTEX1
  6

  9
$DIMLTEX2
  6

  9
$DIMTXTDIRECTION
 70
     0
  9
$LUNITS
 70
     2
  9
$LUPREC
 70
     4
  9
$SKETCHINC
 40
0.1
  9
$FILLETRAD
 40
0.5
  9
$AUNITS
 70
     0
  9
$AUPREC
 70
     0
  9
$MENU
  1
.
  9
$ELEVATION
 40
0.0
  9
$PELEVATION
 40
0.0
  9
$THICKNESS
 40
0.0
  9
$LIMCHECK
 70
     0
  9
$CHAMFERA
 40
0.0
  9
$CHAMFERB
 40
0.0
  9
$CHAMFERC
 40
0.0
  9
$CHAMFERD
 40
0.0
  9
$SKPOLY
 70
     0
  9
$TDCREATE
 40
2460038.939780093
  9
$TDUCREATE
 40
2460038.564780093
  9
$TDUPDATE
 40
2460038.56478353
  9
$TDUUPDATE
 40
2460038.18978353
  9
$TDINDWG
 40
0.0000000116
  9
$TDUSRTIMER
 40
0.0000000116
  9
$USRTIMER
 70
     1
  9
$ANGBASE
 50
0.0
  9
$ANGDIR
 70
     0
  9
$PDMODE
 70
     0
  9
$PDSIZE
 40
0.0
  9
$PLINEWID
 40
0.0
  9
$SPLFRAME
 70
     0
  9
$SPLINETYPE
 70
     6
  9
$SPLINESEGS
 70
     8
  9
$HANDSEED
  5
508
  9
$SURFTAB1
 70
     6
  9
$SURFTAB2
 70
     6
  9
$SURFTYPE
 70
     6
  9
$SURFU
 70
     6
  9
$SURFV
 70
     6
  9
$UCSBASE
  2

  9
$UCSNAME
  2

  9
$UCSORG
 10
0.0
 20
0.0
 30
0.0
  9
$UCSXDIR
 10
1.0
 20
0.0
 30
0.0
  9
$UCSYDIR
 10
0.0
 20
1.0
 30
0.0
  9
$UCSORTHOREF
  2

  9
$UCSORTHOVIEW
 70
     0
  9
$UCSORGTOP
 10
0.0
 20
0.0
 30
0.0
  9
$UCSORGBOTTOM
 10
0.0
 20
0.0
 30
0.0
  9
$UCSORGLEFT
 10
0.0
 20
0.0
 30
0.0
  9
$UCSORGRIGHT
 10
0.0
 20
0.0
 30
0.0
  9
$UCSORGFRONT
 10
0.0
 20
0.0
 30
0.0
  9
$UCSORGBACK
 10
0.0
 20
0.0
 30
0.0
  9
$PUCSBASE
  2

  9
$PUCSNAME
  2

  9
$PUCSORG
 10
0.0
 20
0.0
 30
0.0
  9
$PUCSXDIR
 10
1.0
 20
0.0
 30
0.0
  9
$PUCSYDIR
 10
0.0
 20
1.0
 30
0.0
  9
$PUCSORTHOREF
  2

  9
$PUCSORTHOVIEW
 70
     0
  9
$PUCSORGTOP
 10
0.0
 20
0.0
 30
0.0
  9
$PUCSORGBOTTOM
 10
0.0
 20
0.0
 30
0.0
  9
$PUCSORGLEFT
 10
0.0
 20
0.0
 30
0.0
  9
$PUCSORGRIGHT
 10
0.0
 20
0.0
 30
0.0
  9
$PUCSORGFRONT
 10
0.0
 20
0.0
 30
0.0
  9
$PUCSORGBACK
 10
0.0
 20
0.0
 30
0.0
  9
$USERI1
 70
     0
  9
$USERI2
 70
     0
  9
$USERI3
 70
     0
  9
$USERI4
 70
     0
  9
$USERI5
 70
     0
  9
$USERR1
 40
0.0
  9
$USERR2
 40
0.0
  9
$USERR3
 40
0.0
  9
$USERR4
 40
0.0
  9
$USERR5
 40
0.0
  9
$WORLDVIEW
 70
     1
  9
$SHADEDGE
 70
     3
  9
$SHADEDIF
 70
    70
  9
$TILEMODE
 70
     1
  9
$MAXACTVP
 70
    64
  9
$PINSBASE
 10
0.0
 20
0.0
 30
0.0
  9
$PLIMCHECK
 70
     0
  9
$PEXTMIN
 10
0.0
 20
0.0
 30
0.0
  9
$PEXTMAX
 10
420.0
 20
297.0
 30
0.0
  9
$PLIMMIN
 10
0.0
 20
0.0
  9
$PLIMMAX
 10
420.0
 20
297.0
  9
$UNITMODE
 70
     0
  9
$VISRETAIN
 70
     1
  9
$PLINEGEN
 70
     0
  9
$PSLTSCALE
 70
     1
  9
$TREEDEPTH
 70
  3020
  9
$CMLSTYLE
  2
Standard
  9
$CMLJUST
 70
     0
  9
$CMLSCALE
 40
1.0
  9
$PROXYGRAPHICS
 70
     1
  9
$MEASUREMENT
 70
     1
  9
$CELWEIGHT
370
    -1
  9
$ENDCAPS
280
     0
  9
$JOINSTYLE
280
     0
  9
$LWDISPLAY
290
     0
  9
$INSUNITS
 70
     4
  9
$HYPERLINKBASE
  1

  9
$STYLESHEET
  1

  9
$XEDIT
290
     1
  9
$CEPSNTYPE
380
     0
  9
$PSTYLEMODE
290
     1
  9
$FINGERPRINTGUID
  2
{737baff1-b702-445b-9a2c-216fe545bdf7}
  9
$VERSIONGUID
  2
{FAEB1C32-E019-11D5-929B-00C0DF256EC4}
  9
$EXTNAMES
290
     1
  9
$PSVPSCALE
 40
0.0
  9
$OLESTARTUP
290
     0
  9
$SORTENTS
280
   127
  9
$INDEXCTL
280
     0
  9
$HIDETEXT
280
     1
  9
$XCLIPFRAME
280
     2
  9
$HALOGAP
280
     0
  9
$OBSCOLOR
 70
   257
  9
$OBSLTYPE
280
     0
  9
$INTERSECTIONDISPLAY
280
     0
  9
$INTERSECTIONCOLOR
 70
   257
  9
$DIMASSOC
280
     1
  9
$PROJECTNAME
  1

  9
$CAMERADISPLAY
290
     0
  9
$LENSLENGTH
 40
50.0
  9
$CAMERAHEIGHT
 40
0.0
  9
$STEPSPERSEC
 40
2.0
  9
$STEPSIZE
 40
6.0
  9
$3DDWFPREC
 40
2.0
  9
$PSOLWIDTH
 40
0.25
  9
$PSOLHEIGHT
 40
4.0
  9
$LOFTANG1
 40
1.570796326794897
  9
$LOFTANG2
 40
1.570796326794897
  9
$LOFTMAG1
 40
0.0
  9
$LOFTMAG2
 40
0.0
  9
$LOFTPARAM
 70
     7
  9
$LOFTNORMALS
280
     1
  9
$LATITUDE
 40
37.795
  9
$LONGITUDE
 40
-122.394
  9
$NORTHDIRECTION
 40
0.0
  9
$TIMEZONE
 70
 -8000
  9
$LIGHTGLYPHDISPLAY
280
     1
  9
$TILEMODELIGHTSYNCH
280
     1
  9
$CMATERIAL
347
44
  9
$SOLIDHIST
280
     0
  9
$SHOWHIST
280
     1
  9
$DWFFRAME
280
     2
  9
$DGNFRAME
280
     2
  9
$REALWORLDSCALE
290
     1
  9
$INTERFERECOLOR
 62
   256
  9
$CSHADOW
280
     0
  9
$SHADOWPLANELOCATION
 40
0.0
  0
ENDSEC
  0
SECTION
  2
CLASSES
  0
CLASS
  1
ACDBDICTIONARYWDFLT
  2
AcDbDictionaryWithDefault
  3
ObjectDBX Classes
 90
        0
 91
        3
280
     0
281
     0
  0
CLASS
  1
VISUALSTYLE
  2
AcDbVisualStyle
  3
ObjectDBX Classes
 90
     4095
 91
        3
280
     0
281
     0
  0
CLASS
  1
MATERIAL
  2
AcDbMaterial
  3
ObjectDBX Classes
 90
     1153
 91
        3
280
     0
281
     0
  0
CLASS
  1
SCALE
  2
AcDbScale
  3
ObjectDBX Classes
 90
     1153
 91
        3
280
     0
281
     0
  0
CLASS
  1
TABLESTYLE
  2
AcDbTableStyle
  3
ObjectDBX Classes
 90
     4095
 91
        3
280
     0
281
     0
  0
CLASS
  1
MLEADERSTYLE
  2
AcDbMLeaderStyle
  3
ACDB_MLEADERSTYLE_CLASS
 90
     4095
 91
        3
280
     0
281
     0
  0
CLASS
  1
SUN
  2
AcDbSun
  3
SCENEOE
 90
     1153
 91
        3
280
     0
281
     0
  0
CLASS
  1
DICTIONARYVAR
  2
AcDbDictionaryVar
  3
ObjectDBX Classes
 90
        0
 91
        3
280
     0
281
     0
  0
CLASS
  1
CELLSTYLEMAP
  2
AcDbCellStyleMap
  3
ObjectDBX Classes
 90
     1152
 91
        3
280
     0
281
     0
  0
ENDSEC
  0
SECTION
  2
TABLES
  0
TABLE
  2
VPORT
  5
8
330
0
100
AcDbSymbolTable
 70
     1
  0
VPORT
  5
29
330
8
100
AcDbSymbolTableRecord
100
AcDbViewportTableRecord
  2
*Active
 70
     0
 10
0.0
 20
0.0
 11
1.0
 21
1.0
 12
10.42990654205607
 22
4.5
 13
0.0
 23
0.0
 14
0.5
 24
0.5
 15
0.5
 25
0.5
 16
0.0
 26
0.0
 36
1.0
 17
0.0
 27
0.0
 37
0.0
 40
9.0
 41
1.972972972850329
 42
50.0
 43
0.0
 44
0.0
 50
0.0
 51
0.0
 71
     0
 72
   100
 73
     1
 74
     3
 75
     0
 76
     0
 77
     0
 78
     0
281
     0
 65
     1
110
0.0
120
0.0
130
0.0
111
1.0
121
0.0
131
0.0
112
0.0
122
1.0
132
0.0
 79
     0
146
0.0
348
2F
 60
     3
 61
     5
292
     1
282
     1
141
0.0
142
0.0
 63
   250
361
6D
  0
ENDTAB
  0
TABLE
  2
LTYPE
  5
5
330
0
100
AcDbSymbolTable
 70
     9
  0
LTYPE
  5
14
330
5
100
AcDbSymbolTableRecord
100
AcDbLinetypeTableRecord
  2
ByBlock
 70
     0
  3

 72
    65
 73
     0
 40
0.0
  0
LTYPE
  5
15
330
5
100
AcDbSymbolTableRecord
100
AcDbLinetypeTableRecord
  2
ByLayer
 70
     0
  3

 72
    65
 73
     0
 40
0.0
  0
LTYPE
  5
16
330
5
100
AcDbSymbolTableRecord
100
AcDbLinetypeTableRecord
  2
Continuous
 70
     0
  3
Solid line
 72
    65
 73
     0
 40
0.0
  0
LTYPE
  5
BC
330
5
100
AcDbSymbolTableRecord
100
AcDbLinetypeTableRecord
  2
DOT
 70
     0
  3
DOT
 72
    65
 73
     2
 40
4.0
 49
6.0
 74
     0
 49
-2.0
 74
     0
  0
LTYPE
  5
BD
330
5
100
AcDbSymbolTableRecord
100
AcDbLinetypeTableRecord
  2
HIDDEN
 70
     0
  3
HIDDEN
 72
    65
 73
     2
 40
4.2
 49
8.4
 74
     0
 49
-4.2
 74
     0
  0
LTYPE
  5
BE
330
5
100
AcDbSymbolTableRecord
100
AcDbLinetypeTableRecord
  2
DASHDOT
 70
     0
  3
DASHDOT
 72
    65
 73
     4
 40
14.5
 49
30.0
 74
     0
 49
-9.0
 74
     0
 49
2.5
 74
     0
 49
-9.0
 74
     0
  0
LTYPE
  5
BF
330
5
100
AcDbSymbolTableRecord
100
AcDbLinetypeTableRecord
  2
PHANTOM
 70
     0
  3
PHANTOM
 72
    65
 73
     6
 40
12.0
 49
30.0
 74
     0
 49
-9.0
 74
     0
 49
2.5
 74
     0
 49
-5.0
 74
     0
 49
2.5
 74
     0
 49
-9.0
 74
     0
  0
LTYPE
  5
C0
330
5
100
AcDbSymbolTableRecord
100
AcDbLinetypeTableRecord
  2
ACAD_ISO14W100
 70
     0
  3
ACAD_ISO14W100
 72
    65
 73
     8
 40
1.5
 49
12.0
 74
     0
 49
-3.0
 74
     0
 49
0.5
 74
     0
 49
-3.0
 74
     0
 49
0.5
 74
     0
 49
-3.0
 74
     0
 49
0.5
 74
     0
 49
-3.0
 74
     0
  0
LTYPE
  5
C1
330
5
100
AcDbSymbolTableRecord
100
AcDbLinetypeTableRecord
  2
ACAD_ISO06W100
 70
     0
  3
ACAD_ISO06W100
 72
    65
 73
     8
 40
13.5
 49
24.0
 74
     0
 49
-3.0
 74
     0
 49
0.5
 74
     0
 49
-3.0
 74
     0
 49
0.5
 74
     0
 49
-3.0
 74
     0
 49
0.5
 74
     0
 49
-3.0
 74
     0
  0
LTYPE
  5
C2
330
5
100
AcDbSymbolTableRecord
100
AcDbLinetypeTableRecord
  2
ACAD_ISO11W100
 70
     0
  3
ACAD_ISO11W100
 72
    65
 73
     6
 40
15.5
 49
12.0
 74
     0
 49
-3.0
 74
     0
 49
12.0
 74
     0
 49
-3.0
 74
     0
 49
0.5
 74
     0
 49
-3.0
 74
     0
  0
LTYPE
  5
C3
330
5
100
AcDbSymbolTableRecord
100
AcDbLinetypeTableRecord
  2
ACAD_ISO13W100
 70
     0
  3
ACAD_ISO13W100
 72
    65
 73
     8
 40
13.0
 49
12.0
 74
     0
 49
-3.0
 74
     0
 49
12.0
 74
     0
 49
-3.0
 74
     0
 49
0.5
 74
     0
 49
-3.0
 74
     0
 49
0.5
 74
     0
 49
-3.0
 74
     0
  0
ENDTAB
  0
TABLE
  2
LAYER
  5
2
330
0
100
AcDbSymbolTable
 70
    31
  0
LAYER
  5
10
330
2
100
AcDbSymbolTableRecord
100
AcDbLayerTableRecord
  2
0
 70
     0
 62
     7
  6
Continuous
370
    -3
390
F
347
46
348
0
  0
LAYER
  5
C4
330
2
100
AcDbSymbolTableRecord
100
AcDbLayerTableRecord
  2
1
 70
     0
 62
     7
  6
Continuous
370
    30
390
F
347
46
348
0
  0
LAYER
  5
C5
330
2
100
AcDbSymbolTableRecord
100
AcDbLayerTableRecord
  2
2
 70
     0
 62
   134
  6
Continuous
370
     9
390
F
347
46
348
0
  0
LAYER
  5
C6
330
2
100
AcDbSymbolTableRecord
100
AcDbLayerTableRecord
  2
3
 70
     0
 62
   216
  6
Continuous
370
     9
390
F
347
46
348
0
  0
LAYER
  5
C7
330
2
100
AcDbSymbolTableRecord
100
AcDbLayerTableRecord
  2
4
 70
     0
 62
    54
  6
Continuous
370
     9
390
F
347
46
348
0
  0
LAYER
  5
C8
330
2
100
AcDbSymbolTableRecord
100
AcDbLayerTableRecord
  2
5
 70
     0
 62
    94
  6
Continuous
370
     9
390
F
347
46
348
0
  0
LAYER
  5
C9
330
2
100
AcDbSymbolTableRecord
100
AcDbLayerTableRecord
  2
6
 70
     0
 62
    14
  6
Continuous
370
     9
390
F
347
46
348
0
  0
LAYER
  5
CA
330
2
100
AcDbSymbolTableRecord
100
AcDbLayerTableRecord
  2
7
 70
     0
 62
     4
  6
Continuous
370
     9
390
F
347
46
348
0
  0
LAYER
  5
CB
330
2
100
AcDbSymbolTableRecord
100
AcDbLayerTableRecord
  2
8
 70
     0
 62
     6
  6
Continuous
370
     9
390
F
347
46
348
0
  0
LAYER
  5
CC
330
2
100
AcDbSymbolTableRecord
100
AcDbLayerTableRecord
  2
9
 70
     0
 62
     2
  6
Continuous
370
     9
390
F
347
46
348
0
  0
LAYER
  5
CD
330
2
100
AcDbSymbolTableRecord
100
AcDbLayerTableRecord
  2
10
 70
     0
 62
     3
  6
Continuous
370
     9
390
F
347
46
348
0
  0
LAYER
  5
CE
330
2
100
AcDbSymbolTableRecord
100
AcDbLayerTableRecord
  2
11
 70
     0
 62
   251
  6
Continuous
370
     9
390
F
347
46
348
0
  0
LAYER
  5
CF
330
2
100
AcDbSymbolTableRecord
100
AcDbLayerTableRecord
  2
12
 70
     0
 62
   136
  6
Continuous
370
     9
390
F
347
46
348
0
  0
LAYER
  5
D0
330
2
100
AcDbSymbolTableRecord
100
AcDbLayerTableRecord
  2
13
 70
     0
 62
     7
  6
Continuous
370
     9
390
F
347
46
348
0
  0
LAYER
  5
D1
330
2
100
AcDbSymbolTableRecord
100
AcDbLayerTableRecord
  2
14
 70
     0
 62
    56
  6
Continuous
370
     9
390
F
347
46
348
0
  0
LAYER
  5
D2
330
2
100
AcDbSymbolTableRecord
100
AcDbLayerTableRecord
  2
15
 70
     0
 62
    96
  6
Continuous
370
     9
390
F
347
46
348
0
  0
LAYER
  5
D3
330
2
100
AcDbSymbolTableRecord
100
AcDbLayerTableRecord
  2
16
 70
     0
 62
    16
  6
Continuous
370
     9
390
F
347
46
348
0
  0
LAYER
  5
D4
330
2
100
AcDbSymbolTableRecord
100
AcDbLayerTableRecord
  2
17
 70
     0
 62
   132
  6
Continuous
370
     9
390
F
347
46
348
0
  0
LAYER
  5
D5
330
2
100
AcDbSymbolTableRecord
100
AcDbLayerTableRecord
  2
18
 70
     0
 62
   212
  6
Continuous
370
     9
390
F
347
46
348
0
  0
LAYER
  5
D6
330
2
100
AcDbSymbolTableRecord
100
AcDbLayerTableRecord
  2
19
 70
     0
 62
    52
  6
Continuous
370
     9
390
F
347
46
348
0
  0
LAYER
  5
D7
330
2
100
AcDbSymbolTableRecord
100
AcDbLayerTableRecord
  2
20
 70
     0
 62
   250
  6
Continuous
370
     9
390
F
347
46
348
0
  0
LAYER
  5
D8
330
2
100
AcDbSymbolTableRecord
100
AcDbLayerTableRecord
  2
22
 70
     0
 62
     7
  6
Continuous
370
     9
390
F
347
46
348
0
  0
LAYER
  5
D9
330
2
100
AcDbSymbolTableRecord
100
AcDbLayerTableRecord
  2
24
 70
     0
 62
     7
  6
Continuous
370
     9
390
F
347
46
348
0
  0
LAYER
  5
DA
330
2
100
AcDbSymbolTableRecord
100
AcDbLayerTableRecord
  2
25
 70
     0
 62
     7
  6
Continuous
370
     9
390
F
347
46
348
0
  0
LAYER
  5
DB
330
2
100
AcDbSymbolTableRecord
100
AcDbLayerTableRecord
  2
128
 70
     0
 62
     7
  6
Continuous
370
     9
390
F
347
46
348
0
  0
LAYER
  5
DC
330
2
100
AcDbSymbolTableRecord
100
AcDbLayerTableRecord
  2
129
 70
     0
 62
     7
  6
Continuous
370
     9
390
F
347
46
348
0
  0
LAYER
  5
DD
330
2
100
AcDbSymbolTableRecord
100
AcDbLayerTableRecord
  2
130
 70
     0
 62
     7
  6
Continuous
370
     9
390
F
347
46
348
0
  0
LAYER
  5
DE
330
2
100
AcDbSymbolTableRecord
100
AcDbLayerTableRecord
  2
131
 70
     0
 62
     7
  6
Continuous
370
     9
390
F
347
46
348
0
  0
LAYER
  5
DF
330
2
100
AcDbSymbolTableRecord
100
AcDbLayerTableRecord
  2
258
 70
     0
 62
     7
  6
Continuous
370
     9
390
F
347
46
348
0
  0
LAYER
  5
E0
330
2
100
AcDbSymbolTableRecord
100
AcDbLayerTableRecord
  2
260
 70
     0
 62
     7
  6
Continuous
370
     9
390
F
347
46
348
0
  0
LAYER
  5
E1
330
2
100
AcDbSymbolTableRecord
100
AcDbLayerTableRecord
  2
261
 70
     0
 62
     5
  6
Continuous
370
     9
390
F
347
46
348
0
  0
ENDTAB
  0
TABLE
  2
STYLE
  5
3
330
0
100
AcDbSymbolTable
 70
     3
  0
STYLE
  5
11
330
3
100
AcDbSymbolTableRecord
100
AcDbTextStyleTableRecord
  2
Standard
 70
     0
 40
0.0
 41
1.0
 50
0.0
 71
     0
 42
6.0
  3
txt
  4
bigfont
  0
STYLE
  5
6F
330
3
100
AcDbSymbolTableRecord
100
AcDbTextStyleTableRecord
  2
T_STANDARD
 70
     4
 40
10.0
 41
1.0
 50
0.0
 71
     0
 42
6.0
  3
txt
  4
bigfont
1001
ACAD
1000

1071
      256
  0
STYLE
  5
114
330
3
100
AcDbSymbolTableRecord
100
AcDbTextStyleTableRecord
  2
ＭＳ ゴシック
 70
     0
 40
0.0
 41
1.0
 50
0.0
 71
     0
 42
6.0
  3

  4

1001
ACAD
1000
ＭＳ ゴシック
1071
      256
  0
ENDTAB
  0
TABLE
  2
VIEW
  5
6
330
0
100
AcDbSymbolTable
 70
     0
  0
ENDTAB
  0
TABLE
  2
UCS
  5
7
330
0
100
AcDbSymbolTable
 70
     0
  0
ENDTAB
  0
TABLE
  2
APPID
  5
9
330
0
100
AcDbSymbolTable
 70
     2
  0
APPID
  5
12
330
9
100
AcDbSymbolTableRecord
100
AcDbRegAppTableRecord
  2
ACAD
 70
     0
  0
APPID
  5
6E
330
9
100
AcDbSymbolTableRecord
100
AcDbRegAppTableRecord
  2
ODA
 70
     0
  0
ENDTAB
  0
TABLE
  2
DIMSTYLE
  5
A
330
0
100
AcDbSymbolTable
 70
     1
100
AcDbDimStyleTable
  0
DIMSTYLE
105
27
102
{ACAD_REACTORS
330
11E
330
128
330
134
330
13E
330
148
330
152
330
15C
102
}
330
A
100
AcDbSymbolTableRecord
100
AcDbDimStyleTableRecord
  2
Standard
 70
     0
178
     0
340
11
  0
ENDTAB
  0
TABLE
  2
BLOCK_RECORD
  5
1
330
0
100
AcDbSymbolTable
 70
    24
  0
BLOCK_RECORD
  5
1F
330
1
100
AcDbSymbolTableRecord
100
AcDbBlockTableRecord
  2
*Model_Space
340
22
 70
     0
280
     1
281
     0
  0
BLOCK_RECORD
  5
1B
330
1
100
AcDbSymbolTableRecord
100
AcDbBlockTableRecord
  2
*Paper_Space
340
1E
 70
     0
280
     1
281
     0
  0
BLOCK_RECORD
  5
23
330
1
100
AcDbSymbolTableRecord
100
AcDbBlockTableRecord
  2
*Paper_Space0
340
26
 70
     0
280
     1
281
     0
  0
BLOCK_RECORD
  5
70
330
1
100
AcDbSymbolTableRecord
100
AcDbBlockTableRecord
  2
_ORIGIN
340
0
 70
     0
280
     1
281
     0
  0
BLOCK_RECORD
  5
75
330
1
100
AcDbSymbolTableRecord
100
AcDbBlockTableRecord
  2
_DOTBLANK
340
0
 70
     0
280
     1
281
     0
  0
BLOCK_RECORD
  5
7A
330
1
100
AcDbSymbolTableRecord
100
AcDbBlockTableRecord
  2
_DOT
340
0
 70
     0
280
     1
281
     0
  0
BLOCK_RECORD
  5
7F
330
1
100
AcDbSymbolTableRecord
100
AcDbBlockTableRecord
  2
_OPEN
340
0
102
{BLKREFS
331
11C
331
11D
331
126
331
127
331
132
331
133
331
13C
331
13D
331
146
331
147
331
150
331
151
331
15A
331
15B
102
}
 70
     0
280
     1
281
     0
  0
BLOCK_RECORD
  5
85
330
1
100
AcDbSymbolTableRecord
100
AcDbBlockTableRecord
  2
_CLOSED
340
0
 70
     0
280
     1
281
     0
  0
BLOCK_RECORD
  5
8C
330
1
100
AcDbSymbolTableRecord
100
AcDbBlockTableRecord
  2
_CLOSEDBLANK
340
0
 70
     0
280
     1
281
     0
  0
BLOCK_RECORD
  5
92
330
1
100
AcDbSymbolTableRecord
100
AcDbBlockTableRecord
  2
_ARROWFILLED
340
0
 70
     0
280
     1
281
     0
  0
BLOCK_RECORD
  5
96
330
1
100
AcDbSymbolTableRecord
100
AcDbBlockTableRecord
  2
_BOXBLANK
340
0
 70
     0
280
     1
281
     0
  0
BLOCK_RECORD
  5
9E
330
1
100
AcDbSymbolTableRecord
100
AcDbBlockTableRecord
  2
_BOXFILLED
340
0
 70
     0
280
     1
281
     0
  0
BLOCK_RECORD
  5
A3
330
1
100
AcDbSymbolTableRecord
100
AcDbBlockTableRecord
  2
_INTEGRAL
340
0
 70
     0
280
     1
281
     0
  0
BLOCK_RECORD
  5
A8
330
1
100
AcDbSymbolTableRecord
100
AcDbBlockTableRecord
  2
_OBLIQUE
340
0
 70
     0
280
     1
281
     0
  0
BLOCK_RECORD
  5
AC
330
1
100
AcDbSymbolTableRecord
100
AcDbBlockTableRecord
  2
_NONE
340
0
 70
     0
280
     1
281
     0
  0
BLOCK_RECORD
  5
AF
330
1
100
AcDbSymbolTableRecord
100
AcDbBlockTableRecord
  2
MARK_OPEN
340
0
 70
     0
280
     1
281
     0
  0
BLOCK_RECORD
  5
B4
330
1
100
AcDbSymbolTableRecord
100
AcDbBlockTableRecord
  2
MARK_ORIGIN
340
0
 70
     0
280
     1
281
     0
  0
BLOCK_RECORD
  5
B8
330
1
100
AcDbSymbolTableRecord
100
AcDbBlockTableRecord
  2
MARK_DOT
340
0
102
{BLKREFS
331
15D
331
15E
331
15F
331
160
331
161
331
162
331
163
102
}
 70
     0
280
     1
281
     0
  0
BLOCK_RECORD
  5
115
330
1
100
AcDbSymbolTableRecord
100
AcDbBlockTableRecord
  2
Dim1
340
0
 70
     0
280
     1
281
     0
  0
BLOCK_RECORD
  5
11F
330
1
100
AcDbSymbolTableRecord
100
AcDbBlockTableRecord
  2
Dim2
340
0
 70
     0
280
     1
281
     0
  0
BLOCK_RECORD
  5
12B
330
1
100
AcDbSymbolTableRecord
100
AcDbBlockTableRecord
  2
Dim3
340
0
 70
     0
280
     1
281
     0
  0
BLOCK_RECORD
  5
135
330
1
100
AcDbSymbolTableRecord
100
AcDbBlockTableRecord
  2
Dim4
340
0
 70
     0
280
     1
281
     0
  0
BLOCK_RECORD
  5
13F
330
1
100
AcDbSymbolTableRecord
100
AcDbBlockTableRecord
  2
Dim5
340
0
 70
     0
280
     1
281
     0
  0
BLOCK_RECORD
  5
149
330
1
100
AcDbSymbolTableRecord
100
AcDbBlockTableRecord
  2
Dim6
340
0
 70
     0
280
     1
281
     0
  0
BLOCK_RECORD
  5
153
330
1
100
AcDbSymbolTableRecord
100
AcDbBlockTableRecord
  2
Dim7
340
0
 70
     0
280
     1
281
     0
  0
BLOCK_RECORD
  5
4D2
330
1
100
AcDbSymbolTableRecord
100
AcDbBlockTableRecord
  2
*G23
340
0
102
{BLKREFS
331
4D6
102
}
 70
     0
280
     1
281
     0
  0
ENDTAB
  0
ENDSEC
  0
SECTION
  2
BLOCKS
  0
BLOCK
  5
20
330
1F
100
AcDbEntity
  8
0
100
AcDbBlockBegin
  2
*Model_Space
 70
     0
 10
0.0
 20
0.0
 30
0.0
  3
*Model_Space
  1

  0
ENDBLK
  5
21
330
1F
100
AcDbEntity
  8
0
100
AcDbBlockEnd
  0
BLOCK
  5
1C
330
1B
100
AcDbEntity
 67
     1
  8
0
100
AcDbBlockBegin
  2
*Paper_Space
 70
     0
 10
0.0
 20
0.0
 30
0.0
  3
*Paper_Space
  1

  0
ENDBLK
  5
1D
330
1B
100
AcDbEntity
 67
     1
  8
0
100
AcDbBlockEnd
  0
BLOCK
  5
24
330
23
100
AcDbEntity
  8
0
100
AcDbBlockBegin
  2
*Paper_Space0
 70
     0
 10
0.0
 20
0.0
 30
0.0
  3
*Paper_Space0
  1

  0
ENDBLK
  5
25
330
23
100
AcDbEntity
  8
0
100
AcDbBlockEnd
  0
BLOCK
  5
73
330
70
100
AcDbEntity
  8
0
100
AcDbBlockBegin
  2
_ORIGIN
 70
     0
 10
0.0
 20
0.0
 30
0.0
  3
_ORIGIN
  1

  0
CIRCLE
  5
71
330
70
100
AcDbEntity
  8
0
 62
     0
100
AcDbCircle
 10
0.0
 20
0.0
 30
0.0
 40
0.5
  0
LINE
  5
72
330
70
100
AcDbEntity
  8
0
 62
     0
100
AcDbLine
 10
0.0
 20
0.0
 30
0.0
 11
-1.0
 21
0.0
 31
0.0
  0
ENDBLK
  5
74
330
70
100
AcDbEntity
  8
0
100
AcDbBlockEnd
  0
BLOCK
  5
78
330
75
100
AcDbEntity
  8
0
100
AcDbBlockBegin
  2
_DOTBLANK
 70
     0
 10
0.0
 20
0.0
 30
0.0
  3
_DOTBLANK
  1

  0
CIRCLE
  5
76
330
75
100
AcDbEntity
  8
0
 62
     0
100
AcDbCircle
 10
0.0
 20
0.0
 30
0.0
 40
0.5
  0
LINE
  5
77
330
75
100
AcDbEntity
  8
0
 62
     0
100
AcDbLine
 10
-0.5
 20
0.0
 30
0.0
 11
-1.0
 21
0.0
 31
0.0
  0
ENDBLK
  5
79
330
75
100
AcDbEntity
  8
0
100
AcDbBlockEnd
  0
BLOCK
  5
7D
330
7A
100
AcDbEntity
  8
0
100
AcDbBlockBegin
  2
_DOT
 70
     0
 10
0.0
 20
0.0
 30
0.0
  3
_DOT
  1

  0
LWPOLYLINE
  5
7B
330
7A
100
AcDbEntity
  8
0
 62
     0
100
AcDbPolyline
 90
        2
 70
     1
 43
0.5
 10
-0.25
 20
0.0
 42
1.0
 10
0.25
 20
0.0
 42
1.0
  0
LINE
  5
7C
330
7A
100
AcDbEntity
  8
0
 62
     0
100
AcDbLine
 10
-0.5
 20
0.0
 30
0.0
 11
-1.0
 21
0.0
 31
0.0
  0
ENDBLK
  5
7E
330
7A
100
AcDbEntity
  8
0
100
AcDbBlockEnd
  0
BLOCK
  5
83
330
7F
100
AcDbEntity
  8
0
100
AcDbBlockBegin
  2
_OPEN
 70
     0
 10
0.0
 20
0.0
 30
0.0
  3
_OPEN
  1

  0
LINE
  5
80
330
7F
100
AcDbEntity
  8
0
 62
     0
100
AcDbLine
 10
0.0
 20
0.0
 30
0.0
 11
-1.0
 21
0.1666666666666667
 31
0.0
  0
LINE
  5
81
330
7F
100
AcDbEntity
  8
0
 62
     0
100
AcDbLine
 10
0.0
 20
0.0
 30
0.0
 11
-1.0
 21
-0.1666666666666667
 31
0.0
  0
LINE
  5
82
330
7F
100
AcDbEntity
  8
0
 62
     0
100
AcDbLine
 10
0.0
 20
0.0
 30
0.0
 11
-1.0
 21
0.0
 31
0.0
  0
ENDBLK
  5
84
330
7F
100
AcDbEntity
  8
0
100
AcDbBlockEnd
  0
BLOCK
  5
8A
330
85
100
AcDbEntity
  8
0
100
AcDbBlockBegin
  2
_CLOSED
 70
     0
 10
0.0
 20
0.0
 30
0.0
  3
_CLOSED
  1

  0
LINE
  5
86
330
85
100
AcDbEntity
  8
0
 62
     0
100
AcDbLine
 10
0.0
 20
0.0
 30
0.0
 11
-1.0
 21
0.1666666666666667
 31
0.0
  0
LINE
  5
87
330
85
100
AcDbEntity
  8
0
 62
     0
100
AcDbLine
 10
0.0
 20
0.0
 30
0.0
 11
-1.0
 21
-0.1666666666666667
 31
0.0
  0
LINE
  5
88
330
85
100
AcDbEntity
  8
0
 62
     0
100
AcDbLine
 10
-1.0
 20
0.1666666666666667
 30
0.0
 11
-1.0
 21
-0.1666666666666667
 31
0.0
  0
LINE
  5
89
330
85
100
AcDbEntity
  8
0
 62
     0
100
AcDbLine
 10
0.0
 20
0.0
 30
0.0
 11
-1.0
 21
0.0
 31
0.0
  0
ENDBLK
  5
8B
330
85
100
AcDbEntity
  8
0
100
AcDbBlockEnd
  0
BLOCK
  5
90
330
8C
100
AcDbEntity
  8
0
100
AcDbBlockBegin
  2
_CLOSEDBLANK
 70
     0
 10
0.0
 20
0.0
 30
0.0
  3
_CLOSEDBLANK
  1

  0
LINE
  5
8D
330
8C
100
AcDbEntity
  8
0
 62
     0
100
AcDbLine
 10
0.0
 20
0.0
 30
0.0
 11
-1.0
 21
0.1666666666666667
 31
0.0
  0
LINE
  5
8E
330
8C
100
AcDbEntity
  8
0
 62
     0
100
AcDbLine
 10
0.0
 20
0.0
 30
0.0
 11
-1.0
 21
-0.1666666666666667
 31
0.0
  0
LINE
  5
8F
330
8C
100
AcDbEntity
  8
0
 62
     0
100
AcDbLine
 10
-1.0
 20
0.1666666666666667
 30
0.0
 11
-1.0
 21
-0.1666666666666667
 31
0.0
  0
ENDBLK
  5
91
330
8C
100
AcDbEntity
  8
0
100
AcDbBlockEnd
  0
BLOCK
  5
94
330
92
100
AcDbEntity
  8
0
100
AcDbBlockBegin
  2
_ARROWFILLED
 70
     0
 10
0.0
 20
0.0
 30
0.0
  3
_ARROWFILLED
  1

  0
SOLID
  5
93
330
92
100
AcDbEntity
  8
0
 62
     0
100
AcDbTrace
 10
0.0
 20
0.0
 30
0.0
 11
-1.0
 21
-0.1666666666666667
 31
0.0
 12
-1.0
 22
0.1666666666666667
 32
0.0
 13
0.0
 23
0.0
 33
0.0
  0
ENDBLK
  5
95
330
92
100
AcDbEntity
  8
0
100
AcDbBlockEnd
  0
BLOCK
  5
9C
330
96
100
AcDbEntity
  8
0
100
AcDbBlockBegin
  2
_BOXBLANK
 70
     0
 10
0.0
 20
0.0
 30
0.0
  3
_BOXBLANK
  1

  0
LINE
  5
97
330
96
100
AcDbEntity
  8
0
 62
     0
100
AcDbLine
 10
-0.5
 20
-0.5
 30
0.0
 11
0.5
 21
-0.5
 31
0.0
  0
LINE
  5
98
330
96
100
AcDbEntity
  8
0
 62
     0
100
AcDbLine
 10
0.5
 20
-0.5
 30
0.0
 11
0.5
 21
0.5
 31
0.0
  0
LINE
  5
99
330
96
100
AcDbEntity
  8
0
 62
     0
100
AcDbLine
 10
0.5
 20
0.5
 30
0.0
 11
-0.5
 21
0.5
 31
0.0
  0
LINE
  5
9A
330
96
100
AcDbEntity
  8
0
 62
     0
100
AcDbLine
 10
-0.5
 20
0.5
 30
0.0
 11
-0.5
 21
-0.5
 31
0.0
  0
LINE
  5
9B
330
96
100
AcDbEntity
  8
0
 62
     0
100
AcDbLine
 10
-0.5
 20
0.0
 30
0.0
 11
-1.0
 21
0.0
 31
0.0
  0
ENDBLK
  5
9D
330
96
100
AcDbEntity
  8
0
100
AcDbBlockEnd
  0
BLOCK
  5
A1
330
9E
100
AcDbEntity
  8
0
100
AcDbBlockBegin
  2
_BOXFILLED
 70
     0
 10
0.0
 20
0.0
 30
0.0
  3
_BOXFILLED
  1

  0
SOLID
  5
9F
330
9E
100
AcDbEntity
  8
0
 62
     0
100
AcDbTrace
 10
-0.5
 20
0.5
 30
0.0
 11
0.5
 21
0.5
 31
0.0
 12
-0.5
 22
-0.5
 32
0.0
 13
0.5
 23
-0.5
 33
0.0
  0
LINE
  5
A0
330
9E
100
AcDbEntity
  8
0
 62
     0
100
AcDbLine
 10
-0.5
 20
0.0
 30
0.0
 11
-1.0
 21
0.0
 31
0.0
  0
ENDBLK
  5
A2
330
9E
100
AcDbEntity
  8
0
100
AcDbBlockEnd
  0
BLOCK
  5
A6
330
A3
100
AcDbEntity
  8
0
100
AcDbBlockBegin
  2
_INTEGRAL
 70
     0
 10
0.0
 20
0.0
 30
0.0
  3
_INTEGRAL
  1

  0
ARC
  5
A4
330
A3
100
AcDbEntity
  8
0
 62
     0
100
AcDbCircle
 10
0.444888
 20
-0.0913346
 30
0.0
 40
0.4541666
100
AcDbArc
 50
101.9999999999999
 51
167.9999999999998
  0
ARC
  5
A5
330
A3
100
AcDbEntity
  8
0
 62
     0
100
AcDbCircle
 10
-0.444888
 20
0.0913346
 30
0.0
 40
0.4541666
100
AcDbArc
 50
281.9999999999997
 51
347.9999999999997
  0
ENDBLK
  5
A7
330
A3
100
AcDbEntity
  8
0
100
AcDbBlockEnd
  0
BLOCK
  5
AA
330
A8
100
AcDbEntity
  8
0
100
AcDbBlockBegin
  2
_OBLIQUE
 70
     0
 10
0.0
 20
0.0
 30
0.0
  3
_OBLIQUE
  1

  0
LINE
  5
A9
330
A8
100
AcDbEntity
  8
0
 62
     0
100
AcDbLine
 10
-0.5
 20
-0.5
 30
0.0
 11
0.5
 21
0.5
 31
0.0
  0
ENDBLK
  5
AB
330
A8
100
AcDbEntity
  8
0
100
AcDbBlockEnd
  0
BLOCK
  5
AD
330
AC
100
AcDbEntity
  8
0
100
AcDbBlockBegin
  2
_NONE
 70
     0
 10
0.0
 20
0.0
 30
0.0
  3
_NONE
  1

  0
ENDBLK
  5
AE
330
AC
100
AcDbEntity
  8
0
100
AcDbBlockEnd
  0
BLOCK
  5
B2
330
AF
100
AcDbEntity
  8
0
100
AcDbBlockBegin
  2
MARK_OPEN
 70
     0
 10
0.0
 20
0.0
 30
0.0
  3
MARK_OPEN
  1

  0
LINE
  5
B0
330
AF
100
AcDbEntity
  8
0
 62
     0
100
AcDbLine
 10
0.0
 20
0.0
 30
0.0
 11
-1.0
 21
0.1666666666666667
 31
0.0
  0
LINE
  5
B1
330
AF
100
AcDbEntity
  8
0
 62
     0
100
AcDbLine
 10
0.0
 20
0.0
 30
0.0
 11
-1.0
 21
-0.1666666666666667
 31
0.0
  0
ENDBLK
  5
B3
330
AF
100
AcDbEntity
  8
0
100
AcDbBlockEnd
  0
BLOCK
  5
B6
330
B4
100
AcDbEntity
  8
0
100
AcDbBlockBegin
  2
MARK_ORIGIN
 70
     0
 10
0.0
 20
0.0
 30
0.0
  3
MARK_ORIGIN
  1

  0
CIRCLE
  5
B5
330
B4
100
AcDbEntity
  8
0
 62
     0
100
AcDbCircle
 10
0.0
 20
0.0
 30
0.0
 40
0.5
  0
ENDBLK
  5
B7
330
B4
100
AcDbEntity
  8
0
100
AcDbBlockEnd
  0
BLOCK
  5
BA
330
B8
100
AcDbEntity
  8
0
100
AcDbBlockBegin
  2
MARK_DOT
 70
     0
 10
0.0
 20
0.0
 30
0.0
  3
MARK_DOT
  1

  0
LWPOLYLINE
  5
B9
330
B8
100
AcDbEntity
  8
0
 62
     0
100
AcDbPolyline
 90
        2
 70
     1
 43
0.5
 10
-0.25
 20
0.0
 42
1.0
 10
0.25
 20
0.0
 42
1.0
  0
ENDBLK
  5
BB
330
B8
100
AcDbEntity
  8
0
100
AcDbBlockEnd
  0
BLOCK
  5
116
330
115
100
AcDbEntity
  8
0
100
AcDbBlockBegin
  2
Dim1
 70
     0
 10
0.0
 20
0.0
 30
0.0
  3
Dim1
  1

  0
LINE
  5
118
330
115
100
AcDbEntity
  8
1
  6
Continuous
 62
     7
370
     9
100
AcDbLine
 10
510.5948588664333
 20
328.803121367253
 30
0.0
 11
565.586618310547
 21
328.8031213672525
 31
0.0
  0
LINE
  5
119
330
115
100
AcDbEntity
  8
1
  6
Continuous
 62
     7
370
     9
100
AcDbLine
 10
510.5866106563233
 20
245.3191605767888
 30
0.0
 11
565.5866183105472
 21
245.3191605767882
 31
0.0
  0
LINE
  5
11A
330
115
100
AcDbEntity
  8
1
  6
Continuous
 62
     7
370
     9
100
AcDbLine
 10
561.586618310547
 20
328.8031213672526
 30
0.0
 11
561.5866183105472
 21
245.3191605767883
 31
0.0
  0
MTEXT
  5
11B
330
115
100
AcDbEntity
  8
1
  6
Continuous
 62
     7
370
     9
100
AcDbMText
 10
560.5866183105472
 20
287.0611409720204
 30
0.0
 40
6.0
 41
91.42857142857142
 46
6.0
 71
     8
 72
     1
  1
83.5
  7
ＭＳ ゴシック
 11
5.053215498074303E-16
 21
1.0
 31
0.0
 73
     1
 44
1.0
  0
INSERT
  5
11C
330
115
100
AcDbEntity
  8
1
  6
Continuous
 62
     7
370
     9
100
AcDbBlockReference
  2
_OPEN
 10
561.586618310547
 20
328.8031213672526
 30
0.0
 41
4.8
 42
4.8
 43
4.8
 50
89.99999999999997
  0
INSERT
  5
11D
330
115
100
AcDbEntity
  8
1
  6
Continuous
 62
     7
370
     9
100
AcDbBlockReference
  2
_OPEN
 10
561.5866183105472
 20
245.3191605767883
 30
0.0
 41
4.8
 42
4.8
 43
4.8
 50
270.0
  0
ENDBLK
  5
117
330
115
100
AcDbEntity
  8
0
100
AcDbBlockEnd
  0
BLOCK
  5
120
330
11F
100
AcDbEntity
  8
0
100
AcDbBlockBegin
  2
Dim2
 70
     0
 10
0.0
 20
0.0
 30
0.0
  3
Dim2
  1

  0
LINE
  5
122
330
11F
100
AcDbEntity
  8
1
  6
Continuous
 62
     7
370
     9
100
AcDbLine
 10
460.5944726096752
 20
332.8008022578804
 30
0.0
 11
460.5944726096753
 21
371.2778746371478
 31
0.0
  0
LINE
  5
123
330
11F
100
AcDbEntity
  8
1
  6
Continuous
 62
     7
370
     9
100
AcDbLine
 10
506.5948588664333
 20
332.8031213672531
 30
0.0
 11
506.5948588664333
 21
371.2778746371478
 31
0.0
  0
LINE
  5
124
330
11F
100
AcDbEntity
  8
1
  6
Continuous
 62
     7
370
     9
100
AcDbLine
 10
460.5944726096753
 20
367.2778746371478
 30
0.0
 11
506.5948588664333
 21
367.2778746371478
 31
0.0
  0
MTEXT
  5
125
330
11F
100
AcDbEntity
  8
1
  6
Continuous
 62
     7
370
     9
100
AcDbMText
 10
483.5946657380543
 20
368.2778746371478
 30
0.0
 40
6.0
 41
48.57142857142856
 46
6.0
 71
     8
 72
     1
  1
46
  7
ＭＳ ゴシック
 73
     1
 44
1.0
  0
INSERT
  5
126
330
11F
100
AcDbEntity
  8
1
  6
Continuous
 62
     7
370
     9
100
AcDbBlockReference
  2
_OPEN
 10
460.5944726096753
 20
367.2778746371478
 30
0.0
 41
4.8
 42
4.8
 43
4.8
 50
179.9999999999998
  0
INSERT
  5
127
330
11F
100
AcDbEntity
  8
1
  6
Continuous
 62
     7
370
     9
100
AcDbBlockReference
  2
_OPEN
 10
506.5948588664333
 20
367.2778746371478
 30
0.0
 41
4.8
 42
4.8
 43
4.8
 50
359.9999999999997
  0
ENDBLK
  5
121
330
11F
100
AcDbEntity
  8
0
100
AcDbBlockEnd
  0
BLOCK
  5
12C
330
12B
100
AcDbEntity
  8
0
100
AcDbBlockBegin
  2
Dim3
 70
     0
 10
0.0
 20
0.0
 30
0.0
  3
Dim3
  1

  0
LINE
  5
12E
330
12B
100
AcDbEntity
  8
1
  6
Continuous
 62
     7
370
     9
100
AcDbLine
 10
314.1270000000001
 20
351.0755841371479
 30
0.0
 11
314.1270000000001
 21
371.2468841371478
 31
0.0
  0
LINE
  5
12F
330
12B
100
AcDbEntity
  8
1
  6
Continuous
 62
     7
370
     9
100
AcDbLine
 10
344.127
 20
323.1086397119907
 30
0.0
 11
344.1270000000001
 21
371.2468841371478
 31
0.0
  0
LINE
  5
130
330
12B
100
AcDbEntity
  8
1
  6
Continuous
 62
     7
370
     9
100
AcDbLine
 10
314.1270000000001
 20
367.2468841371478
 30
0.0
 11
344.1270000000001
 21
367.2468841371478
 31
0.0
  0
MTEXT
  5
131
330
12B
100
AcDbEntity
  8
1
  6
Continuous
 62
     7
370
     9
100
AcDbMText
 10
329.1270000000002
 20
368.2468841371478
 30
0.0
 40
6.0
 41
48.57142857142856
 46
6.0
 71
     8
 72
     1
  1
30
  7
ＭＳ ゴシック
 73
     1
 44
1.0
  0
INSERT
  5
132
330
12B
100
AcDbEntity
  8
1
  6
Continuous
 62
     7
370
     9
100
AcDbBlockReference
  2
_OPEN
 10
314.1270000000001
 20
367.2468841371478
 30
0.0
 41
4.8
 42
4.8
 43
4.8
 50
179.9999999999998
  0
INSERT
  5
133
330
12B
100
AcDbEntity
  8
1
  6
Continuous
 62
     7
370
     9
100
AcDbBlockReference
  2
_OPEN
 10
344.1270000000001
 20
367.2468841371478
 30
0.0
 41
4.8
 42
4.8
 43
4.8
 50
359.9999999999997
  0
ENDBLK
  5
12D
330
12B
100
AcDbEntity
  8
0
100
AcDbBlockEnd
  0
BLOCK
  5
136
330
135
100
AcDbEntity
  8
0
100
AcDbBlockBegin
  2
Dim4
 70
     0
 10
0.0
 20
0.0
 30
0.0
  3
Dim4
  1

  0
LINE
  5
138
330
135
100
AcDbEntity
  8
1
  6
Continuous
 62
     7
370
     9
100
AcDbLine
 10
348.1270000000001
 20
321.5755841371479
 30
0.0
 11
380.1181646805038
 21
321.5755841371479
 31
0.0
  0
LINE
  5
139
330
135
100
AcDbEntity
  8
1
  6
Continuous
 62
     7
370
     9
100
AcDbLine
 10
334.1270000000001
 20
252.5755841371479
 30
0.0
 11
380.1181646805038
 21
252.5755841371479
 31
0.0
  0
LINE
  5
13A
330
135
100
AcDbEntity
  8
1
  6
Continuous
 62
     7
370
     9
100
AcDbLine
 10
376.1181646805038
 20
321.5755841371479
 30
0.0
 11
376.1181646805038
 21
252.5755841371479
 31
0.0
  0
MTEXT
  5
13B
330
135
100
AcDbEntity
  8
1
  6
Continuous
 62
     7
370
     9
100
AcDbMText
 10
375.1181646805038
 20
287.0755841371479
 30
0.0
 40
6.0
 41
45.71428571428571
 46
6.0
 71
     8
 72
     1
  1
69
  7
ＭＳ ゴシック
 11
1.837589179357618E-15
 21
1.0
 31
0.0
 73
     1
 44
1.0
  0
INSERT
  5
13C
330
135
100
AcDbEntity
  8
1
  6
Continuous
 62
     7
370
     9
100
AcDbBlockReference
  2
_OPEN
 10
376.1181646805038
 20
321.5755841371479
 30
0.0
 41
4.8
 42
4.8
 43
4.8
 50
89.99999999999991
  0
INSERT
  5
13D
330
135
100
AcDbEntity
  8
1
  6
Continuous
 62
     7
370
     9
100
AcDbBlockReference
  2
_OPEN
 10
376.1181646805038
 20
252.5755841371479
 30
0.0
 41
4.8
 42
4.8
 43
4.8
 50
269.9999999999998
  0
ENDBLK
  5
137
330
135
100
AcDbEntity
  8
0
100
AcDbBlockEnd
  0
BLOCK
  5
140
330
13F
100
AcDbEntity
  8
0
100
AcDbBlockBegin
  2
Dim5
 70
     0
 10
0.0
 20
0.0
 30
0.0
  3
Dim5
  1

  0
LINE
  5
142
330
13F
100
AcDbEntity
  8
1
  6
Continuous
 62
     7
370
     9
100
AcDbLine
 10
305.427
 20
351.0755841371479
 30
0.0
 11
305.427
 21
371.2468841371478
 31
0.0
  0
LINE
  5
143
330
13F
100
AcDbEntity
  8
1
  6
Continuous
 62
     7
370
     9
100
AcDbLine
 10
314.1270000000001
 20
351.0755936371479
 30
0.0
 11
314.1270000000001
 21
371.2468841371478
 31
0.0
  0
LINE
  5
144
330
13F
100
AcDbEntity
  8
1
  6
Continuous
 62
     7
370
     9
100
AcDbLine
 10
283.9711018234887
 20
367.2468841371478
 30
0.0
 11
318.9270000000001
 21
367.2468841371478
 31
0.0
  0
MTEXT
  5
145
330
13F
100
AcDbEntity
  8
1
  6
Continuous
 62
     7
370
     9
100
AcDbMText
 10
298.9044351568219
 20
368.2468841371478
 30
0.0
 40
6.0
 41
62.85714285714285
 46
6.0
 71
     9
 72
     1
  1
8.8
  7
ＭＳ ゴシック
 73
     1
 44
1.0
  0
INSERT
  5
146
330
13F
100
AcDbEntity
  8
1
  6
Continuous
 62
     7
370
     9
100
AcDbBlockReference
  2
_OPEN
 10
305.427
 20
367.2468841371478
 30
0.0
 41
4.8
 42
4.8
 43
4.8
 50
359.9999999999997
  0
INSERT
  5
147
330
13F
100
AcDbEntity
  8
1
  6
Continuous
 62
     7
370
     9
100
AcDbBlockReference
  2
_OPEN
 10
314.1270000000001
 20
367.2468841371478
 30
0.0
 41
4.8
 42
4.8
 43
4.8
 50
179.9999999999998
  0
ENDBLK
  5
141
330
13F
100
AcDbEntity
  8
0
100
AcDbBlockEnd
  0
BLOCK
  5
14A
330
149
100
AcDbEntity
  8
0
100
AcDbBlockBegin
  2
Dim6
 70
     0
 10
0.0
 20
0.0
 30
0.0
  3
Dim6
  1

  0
LINE
  5
14C
330
149
100
AcDbEntity
  8
1
  6
Continuous
 62
     7
370
     9
100
AcDbLine
 10
222.1270000000001
 20
347.0755841371478
 30
0.0
 11
248.705821828301
 21
347.0755841371475
 31
0.0
  0
LINE
  5
14D
330
149
100
AcDbEntity
  8
1
  6
Continuous
 62
     7
370
     9
100
AcDbLine
 10
222.1270000000001
 20
227.0755841371478
 30
0.0
 11
248.7058218283012
 21
227.0755841371475
 31
0.0
  0
LINE
  5
14E
330
149
100
AcDbEntity
  8
1
  6
Continuous
 62
     7
370
     9
100
AcDbLine
 10
244.705821828301
 20
347.0755841371476
 30
0.0
 11
244.7058218283012
 21
227.0755841371476
 31
0.0
  0
MTEXT
  5
14F
330
149
100
AcDbEntity
  8
1
  6
Continuous
 62
     7
370
     9
100
AcDbMText
 10
243.7058218283011
 20
287.0755841371476
 30
0.0
 40
6.0
 41
72.85714285714286
 46
6.0
 71
     8
 72
     1
  1
120
  7
ＭＳ ゴシック
 11
1.837589179357618E-15
 21
1.0
 31
0.0
 73
     1
 44
1.0
  0
INSERT
  5
150
330
149
100
AcDbEntity
  8
1
  6
Continuous
 62
     7
370
     9
100
AcDbBlockReference
  2
_OPEN
 10
244.705821828301
 20
347.0755841371476
 30
0.0
 41
4.8
 42
4.8
 43
4.8
 50
89.9999999999999
  0
INSERT
  5
151
330
149
100
AcDbEntity
  8
1
  6
Continuous
 62
     7
370
     9
100
AcDbBlockReference
  2
_OPEN
 10
244.7058218283012
 20
227.0755841371476
 30
0.0
 41
4.8
 42
4.8
 43
4.8
 50
269.9999999999999
  0
ENDBLK
  5
14B
330
149
100
AcDbEntity
  8
0
100
AcDbBlockEnd
  0
BLOCK
  5
154
330
153
100
AcDbEntity
  8
0
100
AcDbBlockBegin
  2
Dim7
 70
     0
 10
0.0
 20
0.0
 30
0.0
  3
Dim7
  1

  0
LINE
  5
156
330
153
100
AcDbEntity
  8
1
  6
Continuous
 62
     7
370
     9
100
AcDbLine
 10
109.1270000000001
 20
344.0755841371479
 30
0.0
 11
109.1270000000001
 21
371.2468841371478
 31
0.0
  0
LINE
  5
157
330
153
100
AcDbEntity
  8
1
  6
Continuous
 62
     7
370
     9
100
AcDbLine
 10
225.1270000000001
 20
344.0755841371479
 30
0.0
 11
225.1270000000002
 21
371.2468841371478
 31
0.0
  0
LINE
  5
158
330
153
100
AcDbEntity
  8
1
  6
Continuous
 62
     7
370
     9
100
AcDbLine
 10
109.1270000000001
 20
367.2468841371478
 30
0.0
 11
225.1270000000002
 21
367.2468841371478
 31
0.0
  0
MTEXT
  5
159
330
153
100
AcDbEntity
  8
1
  6
Continuous
 62
     7
370
     9
100
AcDbMText
 10
167.1270000000002
 20
368.2468841371478
 30
0.0
 40
6.0
 41
72.85714285714286
 46
6.0
 71
     8
 72
     1
  1
116
  7
ＭＳ ゴシック
 73
     1
 44
1.0
  0
INSERT
  5
15A
330
153
100
AcDbEntity
  8
1
  6
Continuous
 62
     7
370
     9
100
AcDbBlockReference
  2
_OPEN
 10
109.1270000000001
 20
367.2468841371478
 30
0.0
 41
4.8
 42
4.8
 43
4.8
 50
179.9999999999998
  0
INSERT
  5
15B
330
153
100
AcDbEntity
  8
1
  6
Continuous
 62
     7
370
     9
100
AcDbBlockReference
  2
_OPEN
 10
225.1270000000002
 20
367.2468841371478
 30
0.0
 41
4.8
 42
4.8
 43
4.8
 50
359.9999999999997
  0
ENDBLK
  5
155
330
153
100
AcDbEntity
  8
0
100
AcDbBlockEnd
  0
BLOCK
  5
4D3
330
4D2
100
AcDbEntity
  8
0
100
AcDbBlockBegin
  2
*G23
 70
     1
 10
0.0
 20
0.0
 30
0.0
  3
*G23
  1

  0
LINE
  5
4D5
330
4D2
100
AcDbEntity
  8
1
  6
Continuous
 62
     7
370
     9
100
AcDbLine
 10
648.6878321100971
 20
51.49133257895033
 30
0.0
 11
649.2211428147534
 21
51.49133257895033
 31
0.0
  0
ENDBLK
  5
4D4
330
4D2
100
AcDbEntity
  8
0
100
AcDbBlockEnd
  0
ENDSEC
  0
SECTION
  2
ENTITIES
  0
MTEXT
  5
E2
330
1F
100
AcDbEntity
  8
1
  6
Continuous
 62
     7
370
     9
100
AcDbMText
 10
422.7596064814815
 20
37.78240740740748
 30
0.0
 40
6.0
 41
243.6322551421251
 46
6.0
 71
     7
 72
     1
  1
{\fＭＳ ゴシック;\W0.714286;\T1.133333;*　記載されている会社名、製品名は、登録商標または商標です。}
 73
     1
 44
1.0
  0
CIRCLE
  5
E3
330
1F
100
AcDbEntity
  8
1
  6
Continuous
 62
     7
370
    30
100
AcDbCircle
 10
454.0109000000001
 20
265.0177746371479
 30
0.0
 40
1.200000047683716
  0
CIRCLE
  5
E4
330
1F
100
AcDbEntity
  8
1
  6
Continuous
 62
     7
370
    30
100
AcDbCircle
 10
454.0109000000001
 20
265.0177746371479
 30
0.0
 40
2.0
  0
CIRCLE
  5
E5
330
1F
100
AcDbEntity
  8
1
  6
Continuous
 62
     7
370
    30
100
AcDbCircle
 10
464.0003000000001
 20
265.0177746371479
 30
0.0
 40
1.200000047683716
  0
CIRCLE
  5
E6
330
1F
100
AcDbEntity
  8
1
  6
Continuous
 62
     7
370
    30
100
AcDbCircle
 10
464.0003000000001
 20
265.0177746371479
 30
0.0
 40
2.0
  0
LINE
  5
E7
330
1F
100
AcDbEntity
  8
1
  6
Continuous
 62
     7
370
    30
100
AcDbLine
 10
464.2766000000001
 20
261.2047746371478
 30
0.0
 11
464.2798000000001
 21
259.8007746371478
 31
0.0
  0
LINE
  5
E8
330
1F
100
AcDbEntity
  8
1
  6
Continuous
 62
     7
370
    30
100
AcDbLine
 10
465.1702056831157
 20
261.2002523024036
 30
0.0
 11
464.2766000000001
 21
261.2047746371478
 31
0.0
  0
LINE
  5
E9
330
1F
100
AcDbEntity
  8
1
  6
Continuous
 62
     7
370
    30
100
AcDbLine
 10
465.1813000000001
 20
259.8002507765246
 30
0.0
 11
464.2798000000001
 21
259.8007746371478
 31
0.0
  0
ARC
  5
EA
330
1F
100
AcDbEntity
  8
1
  6
Continuous
 62
     7
370
    30
100
AcDbCircle
 10
455.996115598882
 20
257.9990792246693
 30
0.0
 40
0.7
100
AcDbArc
 50
180.5978782351038
 51
270.1408144231345
  0
LINE
  5
EB
330
1F
100
AcDbEntity
  8
1
  6
Continuous
 62
     7
370
    30
100
AcDbLine
 10
455.9978359698727
 20
257.2990813387271
 30
0.0
 11
456.4736658870527
 21
257.3002507765246
 31
0.0
  0
LINE
  5
EC
330
1F
100
AcDbEntity
  8
1
  6
Continuous
 62
     7
370
    30
100
AcDbLine
 10
455.2668810561971
 20
260.7969256889515
 30
0.0
 11
455.2961537093539
 21
257.99177489662
 31
0.0
  0
ARC
  5
ED
330
1F
100
AcDbEntity
  8
1
  6
Continuous
 62
     7
370
    30
100
AcDbCircle
 10
454.566919166669
 20
260.7896213609022
 30
0.0
 40
0.7
100
AcDbArc
 50
0.5978782351041799
 51
89.6227178585781
  0
LINE
  5
EE
330
1F
100
AcDbEntity
  8
1
  6
Continuous
 62
     7
370
    30
100
AcDbLine
 10
452.9543206883258
 20
261.5002553541614
 30
0.0
 11
454.5715285042626
 21
261.4896061850283
 31
0.0
  0
LINE
  5
EF
330
1F
100
AcDbEntity
  8
1
  6
DASHDOT
 62
     7
370
     9
100
AcDbLine
 10
458.0513972614289
 20
240.7289567773772
 30
0.0
 11
463.2299105499268
 21
250.1356678789091
 31
0.0
  0
ARC
  5
F0
330
1F
100
AcDbEntity
  8
1
  6
DASHDOT
 62
     7
370
     9
100
AcDbCircle
 10
483.5866106811524
 20
287.1133847660158
 30
0.0
 40
47.67546883241866
100
AcDbArc
 50
230.645512641813
 51
251.3900025405751
  0
ARC
  5
F1
330
1F
100
AcDbEntity
  8
1
  6
Continuous
 62
     7
370
    30
100
AcDbCircle
 10
483.5913943115235
 20
287.0997197706653
 30
0.0
 40
45.39999389648438
100
AcDbArc
 50
237.8058455548046
 51
244.4529315172249
  0
ARC
  5
F2
330
1F
100
AcDbEntity
  8
1
  6
Continuous
 62
     7
370
    30
100
AcDbCircle
 10
458.2175387207032
 20
246.7675435621692
 30
0.0
 40
2.25
100
AcDbArc
 50
57.43649822417452
 51
237.8251092387418
  0
ARC
  5
F3
330
1F
100
AcDbEntity
  8
1
  6
Continuous
 62
     7
370
    30
100
AcDbCircle
 10
483.5913943115235
 20
287.0997197706653
 30
0.0
 40
49.89999389648438
100
AcDbArc
 50
237.8251013767079
 51
244.4710981564809
  0
CIRCLE
  5
F4
330
1F
100
AcDbEntity
  8
1
  6
Continuous
 62
     7
370
    30
100
AcDbCircle
 10
460.586618310547
 20
236.6002538282825
 30
0.0
 40
1.75
  0
ARC
  5
F5
330
1F
100
AcDbEntity
  8
1
  6
Continuous
 62
     7
370
    30
100
AcDbCircle
 10
463.042199975586
 20
244.1083562452746
 30
0.0
 40
2.25
100
AcDbArc
 50
244.0498900333502
 51
64.4528598204136
  0
CIRCLE
  5
F6
330
1F
100
AcDbEntity
  8
1
  6
Continuous
 62
     7
370
    30
100
AcDbCircle
 10
460.586618310547
 20
236.6002538282825
 30
0.0
 40
1.5
  0
LINE
  5
F7
330
1F
100
AcDbEntity
  8
1
  6
Continuous
 62
     7
370
     9
100
AcDbLine
 10
460.5866106811526
 20
239.0312609902452
 30
0.0
 11
460.5866106811524
 21
234.2698609902451
 31
0.0
  0
LINE
  5
F8
330
1F
100
AcDbEntity
  8
1
  6
Continuous
 62
     7
370
     9
100
AcDbLine
 10
462.9712086186001
 20
236.6003489023187
 30
0.0
 11
458.0475082859585
 21
236.6003596351347
 31
0.0
  0
LINE
  5
F9
330
1F
100
AcDbEntity
  8
1
  6
Continuous
 62
     7
370
    30
100
AcDbLine
 10
455.7679000000001
 20
227.1002576429797
 30
0.0
 11
462.4566000000001
 21
227.1002576429797
 31
0.0
  0
LINE
  5
FA
330
1F
100
AcDbEntity
  8
1
  6
Continuous
 62
     7
370
    30
100
AcDbLine
 10
456.0296000000001
 20
230.230258711095
 30
0.0
 11
462.4857000000001
 21
230.230258711095
 31
0.0
  0
LINE
  5
FB
330
1F
100
AcDbEntity
  8
1
  6
Continuous
 62
     7
370
    30
100
AcDbLine
 10
456.0296000000001
 20
231.230258711095
 30
0.0
 11
462.3694000000001
 21
231.230258711095
 31
0.0
  0
LINE
  5
FC
330
1F
100
AcDbEntity
  8
1
  6
Continuous
 62
     7
370
    30
100
AcDbLine
 10
456.3751560068827
 20
232.0002515394641
 30
0.0
 11
462.3112000000001
 21
232.0002515394641
 31
0.0
  0
LINE
  5
FD
330
1F
100
AcDbEntity
  8
1
  6
Continuous
 62
     7
370
    30
100
AcDbLine
 10
456.3751560068827
 20
233.0002515394641
 30
0.0
 11
462.3112000000001
 21
233.0002515394641
 31
0.0
  0
LINE
  5
FE
330
1F
100
AcDbEntity
  8
1
  6
Continuous
 62
     7
370
    30
100
AcDbLine
 10
455.9715000000001
 20
233.5002515394641
 30
0.0
 11
462.1076000000001
 21
233.5002515394641
 31
0.0
  0
LINE
  5
FF
330
1F
100
AcDbEntity
  8
1
  6
Continuous
 62
     7
370
    30
100
AcDbLine
 10
454.2048000000001
 20
252.6002538282825
 30
0.0
 11
464.5868000000001
 21
252.6002538282825
 31
0.0
  0
LINE
  5
100
330
1F
100
AcDbEntity
  8
1
  6
Continuous
 62
     7
370
    30
100
AcDbLine
 10
461.4214000000001
 20
257.3002507765246
 30
0.0
 11
464.6592000000001
 21
257.3002507765246
 31
0.0
  0
LINE
  5
101
330
1F
100
AcDbEntity
  8
1
  6
Continuous
 62
     7
370
    30
100
AcDbLine
 10
461.5325600824983
 20
256.2502553541614
 30
0.0
 11
464.4653000000001
 21
256.2502553541614
 31
0.0
  0
LINE
  5
102
330
1F
100
AcDbEntity
  8
1
  6
Continuous
 62
     7
370
    30
100
AcDbLine
 10
461.4877294606912
 20
256.0002553541614
 30
0.0
 11
464.5622000000001
 21
256.0002553541614
 31
0.0
  0
LINE
  5
103
330
1F
100
AcDbEntity
  8
1
  6
Continuous
 62
     7
370
    30
100
AcDbLine
 10
461.1694000000001
 20
255.5002553541614
 30
0.0
 11
464.4265000000001
 21
255.5002553541614
 31
0.0
  0
LINE
  5
104
330
1F
100
AcDbEntity
  8
1
  6
Continuous
 62
     7
370
    30
100
AcDbLine
 10
453.9160013434767
 20
256.2502553541614
 30
0.0
 11
456.6660011795639
 21
256.2502553541614
 31
0.0
  0
LINE
  5
105
330
1F
100
AcDbEntity
  8
1
  6
Continuous
 62
     7
370
    30
100
AcDbLine
 10
453.9617956603886
 20
256.0002553541614
 30
0.0
 11
456.9041000000001
 21
256.0002553541614
 31
0.0
  0
LINE
  5
106
330
1F
100
AcDbEntity
  8
1
  6
Continuous
 62
     7
370
    30
100
AcDbLine
 10
453.8991000000001
 20
255.5002553541614
 30
0.0
 11
456.9817000000001
 21
255.5002553541614
 31
0.0
  0
LINE
  5
107
330
1F
100
AcDbEntity
  8
1
  6
Continuous
 62
     7
370
    30
100
AcDbLine
 10
461.6874000000001
 20
259.5002553541614
 30
0.0
 11
465.3371000000001
 21
259.5002553541614
 31
0.0
  0
LINE
  5
108
330
1F
100
AcDbEntity
  8
1
  6
Continuous
 62
     7
370
    30
100
AcDbLine
 10
461.3384000000001
 20
259.3002507765246
 30
0.0
 11
465.4825000000001
 21
259.3002507765246
 31
0.0
  0
LINE
  5
109
330
1F
100
AcDbEntity
  8
1
  6
Continuous
 62
     7
370
    30
100
AcDbLine
 10
462.1236000000001
 20
261.5002553541614
 30
0.0
 11
465.6328000000001
 21
261.5002553541614
 31
0.0
  0
LINE
  5
10A
330
1F
100
AcDbEntity
  8
1
  6
Continuous
 62
     7
370
    30
100
AcDbLine
 10
462.2012000000001
 20
261.7002523024036
 30
0.0
 11
465.5165000000001
 21
261.7002523024036
 31
0.0
  0
LINE
  5
10B
330
1F
100
AcDbEntity
  8
1
  6
Continuous
 62
     7
370
     9
100
AcDbLine
 10
462.5098670906424
 20
261.7002523024036
 30
0.0
 11
465.2866030994416
 21
261.7002523024036
 31
0.0
  0
CIRCLE
  5
10C
330
1F
100
AcDbEntity
  8
1
  6
Continuous
 62
     7
370
    30
100
AcDbCircle
 10
474.0866030517579
 20
265.0002553541614
 30
0.0
 40
1.200000047683716
  0
LINE
  5
10D
330
1F
100
AcDbEntity
  8
1
  6
DASHDOT
 62
     7
370
     9
100
AcDbLine
 10
509.1218241008759
 20
240.7289567773772
 30
0.0
 11
503.943310812378
 21
250.1356678789091
 31
0.0
  0
ARC
  5
10E
330
1F
100
AcDbEntity
  8
1
  6
DASHDOT
 62
     7
370
     9
100
AcDbCircle
 10
483.5866106811524
 20
287.1133847660158
 30
0.0
 40
47.67546883241866
100
AcDbArc
 50
288.6099974594242
 51
309.3544873581862
  0
LINE
  5
10F
330
1F
100
AcDbEntity
  8
1
  6
DASHDOT
 62
     7
370
     9
100
AcDbLine
 10
458.0616691736383
 20
333.3901063215137
 30
0.0
 11
463.2521466968741
 21
323.9899916037234
 31
0.0
  0
ARC
  5
110
330
1F
100
AcDbEntity
  8
1
  6
DASHDOT
 62
     7
370
     9
100
AcDbCircle
 10
483.6558781528781
 20
287.0382050557508
 30
0.0
 40
47.67546883241866
100
AcDbArc
 50
108.6828965301875
 51
129.4273864289494
  0
LINE
  5
111
330
1F
100
AcDbEntity
  8
1
  6
DASHDOT
 62
     7
370
     9
100
AcDbLine
 10
509.1218241008759
 20
333.4225889788837
 30
0.0
 11
503.943310812378
 21
324.0158778773517
 31
0.0
  0
ARC
  5
112
330
1F
100
AcDbEntity
  8
1
  6
DASHDOT
 62
     7
370
     9
100
AcDbCircle
 10
483.5866106811524
 20
287.038160990245
 30
0.0
 40
47.67546883241866
100
AcDbArc
 50
50.64551264181347
 51
71.39000254057542
  0
LINE
  5
113
330
1F
100
AcDbEntity
  8
1
  6
DASHDOT
 62
     7
370
     9
100
AcDbLine
 10
416.655491293195
 20
287.038160990245
 30
0.0
 11
549.7843628548167
 21
287.038160990245
 31
0.0
  0
DIMENSION
  5
11E
330
1F
100
AcDbEntity
  8
1
  6
Continuous
 62
     7
370
     9
100
AcDbDimension
280
     0
  2
Dim1
 10
561.5866183105472
 20
245.3191605767883
 30
0.0
 11
557.5866183105472
 21
287.0611409720204
 31
0.0
 70
   160
  1
<>
 71
     5
 42
-1.0
 73
     0
 74
     0
 75
     0
 53
89.99999999999997
  3
Standard
100
AcDbAlignedDimension
 13
506.5948588664333
 23
328.8031213672531
 33
0.0
 14
506.5866106563233
 24
245.3191605767888
 34
0.0
 50
-89.99999999999984
100
AcDbRotatedDimension
1001
ACAD
1000
DSTYLE
1002
{
1070
   279
1070
     2
1070
   340
1005
114
1070
   140
1040
6.0
1070
    40
1040
1.0
1070
   147
1040
0.0
1070
    76
1070
     0
1070
    75
1070
     0
1070
   344
1005
7F
1070
   343
1005
7F
1070
   173
1070
     1
1070
   289
1070
     2
1070
   288
1070
     1
1070
    77
1070
     1
1070
   172
1070
     1
1070
   174
1070
     0
1070
    74
1070
     0
1070
    73
1070
     0
1070
   284
1070
     8
1070
    78
1070
     8
1070
    42
1040
4.0
1070
    44
1040
4.0
1070
    43
1040
10.0
1070
   271
1070
     2
1070
    41
1040
4.8
1002
}
  0
DIMENSION
  5
128
330
1F
100
AcDbEntity
  8
1
  6
Continuous
 62
     7
370
     9
100
AcDbDimension
280
     0
  2
Dim2
 10
506.5948588664333
 20
367.2778746371478
 30
0.0
 11
483.5946657380543
 21
371.2778746371478
 31
0.0
 70
   160
  1
<>
 71
     5
 42
-1.0
 73
     0
 74
     0
 75
     0
  3
Standard
100
AcDbAlignedDimension
 13
460.5944726096752
 23
328.8008022578804
 33
0.0
 14
506.5948588664333
 24
328.8031213672531
 34
0.0
100
AcDbRotatedDimension
1001
ACAD
1000
DSTYLE
1002
{
1070
   279
1070
     2
1070
   340
1005
114
1070
   140
1040
6.0
1070
    40
1040
1.0
1070
   147
1040
0.0
1070
    76
1070
     0
1070
    75
1070
     0
1070
   344
1005
7F
1070
   343
1005
7F
1070
   173
1070
     1
1070
   289
1070
     2
1070
   288
1070
     1
1070
    77
1070
     1
1070
   172
1070
     1
1070
   174
1070
     0
1070
    74
1070
     0
1070
    73
1070
     0
1070
   284
1070
     8
1070
    78
1070
     8
1070
    42
1040
4.0
1070
    44
1040
4.0
1070
    43
1040
10.0
1070
   271
1070
     2
1070
    41
1040
4.8
1002
}
  0
LINE
  5
129
330
1F
100
AcDbEntity
  8
1
  6
DASHDOT
 62
     7
370
     9
100
AcDbLine
 10
483.5866106811524
 20
353.7468609902451
 30
0.0
 11
483.5866106811524
 21
317.5720746371478
 31
0.0
  0
LINE
  5
12A
330
1F
100
AcDbEntity
  8
1
  6
DASHDOT
 62
     7
370
     9
100
AcDbLine
 10
483.5866106811524
 20
317.5290746371478
 30
0.0
 11
483.5866106811524
 21
212.2278609902451
 31
0.0
  0
DIMENSION
  5
134
330
1F
100
AcDbEntity
  8
1
  6
Continuous
 62
     7
370
     9
100
AcDbDimension
280
     0
  2
Dim3
 10
344.1270000000001
 20
367.2468841371478
 30
0.0
 11
329.1270000000002
 21
371.2468841371478
 31
0.0
 70
   160
  1
<>
 71
     5
 42
-1.0
 73
     0
 74
     0
 75
     0
  3
Standard
100
AcDbAlignedDimension
 13
314.1270000000001
 23
347.0755841371479
 33
0.0
 14
344.127
 24
319.1086397119907
 34
0.0
100
AcDbRotatedDimension
1001
ACAD
1000
DSTYLE
1002
{
1070
   279
1070
     2
1070
   340
1005
114
1070
   140
1040
6.0
1070
    40
1040
1.0
1070
   147
1040
0.0
1070
    76
1070
     0
1070
    75
1070
     0
1070
   344
1005
7F
1070
   343
1005
7F
1070
   173
1070
     1
1070
   289
1070
     2
1070
   288
1070
     1
1070
    77
1070
     1
1070
   172
1070
     1
1070
   174
1070
     0
1070
    74
1070
     0
1070
    73
1070
     0
1070
   284
1070
     8
1070
    78
1070
     8
1070
    42
1040
4.0
1070
    44
1040
4.0
1070
    43
1040
10.0
1070
   271
1070
     2
1070
    41
1040
4.8
1002
}
  0
DIMENSION
  5
13E
330
1F
100
AcDbEntity
  8
1
  6
Continuous
 62
     7
370
     9
100
AcDbDimension
280
     0
  2
Dim4
 10
376.1181646805038
 20
252.5755841371479
 30
0.0
 11
372.1181646805038
 21
287.0755841371479
 31
0.0
 70
   160
  1
<>
 71
     5
 42
-1.0
 73
     0
 74
     0
 75
     0
 53
89.9999999999999
  3
Standard
100
AcDbAlignedDimension
 13
344.1270000000001
 23
321.5755841371479
 33
0.0
 14
330.1270000000001
 24
252.5755841371479
 34
0.0
 50
-89.99999999999991
100
AcDbRotatedDimension
1001
ACAD
1000
DSTYLE
1002
{
1070
   279
1070
     2
1070
   340
1005
114
1070
   140
1040
6.0
1070
    40
1040
1.0
1070
   147
1040
0.0
1070
    76
1070
     0
1070
    75
1070
     0
1070
   344
1005
7F
1070
   343
1005
7F
1070
   173
1070
     1
1070
   289
1070
     2
1070
   288
1070
     1
1070
    77
1070
     1
1070
   172
1070
     1
1070
   174
1070
     0
1070
    74
1070
     0
1070
    73
1070
     0
1070
   284
1070
     8
1070
    78
1070
     8
1070
    42
1040
4.0
1070
    44
1040
4.0
1070
    43
1040
10.0
1070
   271
1070
     2
1070
    41
1040
4.8
1002
}
  0
DIMENSION
  5
148
330
1F
100
AcDbEntity
  8
1
  6
Continuous
 62
     7
370
     9
100
AcDbDimension
280
     0
  2
Dim5
 10
314.1270000000001
 20
367.2468841371478
 30
0.0
 11
294.004435156822
 21
371.2468841371478
 31
0.0
 70
   160
  1
<>
 71
     5
 42
-1.0
 73
     0
 74
     0
 75
     0
  3
Standard
100
AcDbAlignedDimension
 13
305.427
 23
347.0755841371479
 33
0.0
 14
314.1270000000001
 24
347.0755936371479
 34
0.0
100
AcDbRotatedDimension
1001
ACAD
1000
DSTYLE
1002
{
1070
   279
1070
     2
1070
   340
1005
114
1070
   140
1040
6.0
1070
    40
1040
1.0
1070
   147
1040
0.0
1070
    76
1070
     0
1070
    75
1070
     0
1070
   344
1005
7F
1070
   343
1005
7F
1070
   173
1070
     1
1070
   289
1070
     2
1070
   288
1070
     1
1070
    77
1070
     1
1070
   172
1070
     1
1070
   174
1070
     0
1070
    74
1070
     0
1070
    73
1070
     0
1070
   284
1070
     8
1070
    78
1070
     8
1070
    42
1040
4.0
1070
    44
1040
4.0
1070
    43
1040
10.0
1070
   271
1070
     2
1070
    41
1040
4.8
1002
}
  0
DIMENSION
  5
152
330
1F
100
AcDbEntity
  8
1
  6
Continuous
 62
     7
370
     9
100
AcDbDimension
280
     0
  2
Dim6
 10
244.7058218283012
 20
227.0755841371476
 30
0.0
 11
240.7058218283011
 21
287.0755841371476
 31
0.0
 70
   160
  1
<>
 71
     5
 42
-1.0
 73
     0
 74
     0
 75
     0
 53
89.9999999999999
  3
Standard
100
AcDbAlignedDimension
 13
218.1270000000001
 23
347.0755841371479
 33
0.0
 14
218.1270000000001
 24
227.0755841371479
 34
0.0
 50
-89.99999999999991
100
AcDbRotatedDimension
1001
ACAD
1000
DSTYLE
1002
{
1070
   279
1070
     2
1070
   340
1005
114
1070
   140
1040
6.0
1070
    40
1040
1.0
1070
   147
1040
0.0
1070
    76
1070
     0
1070
    75
1070
     0
1070
   344
1005
7F
1070
   343
1005
7F
1070
   173
1070
     1
1070
   289
1070
     2
1070
   288
1070
     1
1070
    77
1070
     1
1070
   172
1070
     1
1070
   174
1070
     0
1070
    74
1070
     0
1070
    73
1070
     0
1070
   284
1070
     8
1070
    78
1070
     8
1070
    42
1040
4.0
1070
    44
1040
4.0
1070
    43
1040
10.0
1070
   271
1070
     2
1070
    41
1040
4.8
1002
}
  0
DIMENSION
  5
15C
330
1F
100
AcDbEntity
  8
1
  6
Continuous
 62
     7
370
     9
100
AcDbDimension
280
     0
  2
Dim7
 10
225.1270000000002
 20
367.2468841371478
 30
0.0
 11
167.1270000000002
 21
371.2468841371478
 31
0.0
 70
   160
  1
<>
 71
     5
 42
-1.0
 73
     0
 74
     0
 75
     0
  3
Standard
100
AcDbAlignedDimension
 13
109.1270000000001
 23
340.0755841371479
 33
0.0
 14
225.1270000000001
 24
340.0755841371479
 34
0.0
100
AcDbRotatedDimension
1001
ACAD
1000
DSTYLE
1002
{
1070
   279
1070
     2
1070
   340
1005
114
1070
   140
1040
6.0
1070
    40
1040
1.0
1070
   147
1040
0.0
1070
    76
1070
     0
1070
    75
1070
     0
1070
   344
1005
7F
1070
   343
1005
7F
1070
   173
1070
     1
1070
   289
1070
     2
1070
   288
1070
     1
1070
    77
1070
     1
1070
   172
1070
     1
1070
   174
1070
     0
1070
    74
1070
     0
1070
    73
1070
     0
1070
   284
1070
     8
1070
    78
1070
     8
1070
    42
1040
4.0
1070
    44
1040
4.0
1070
    43
1040
10.0
1070
   271
1070
     2
1070
    41
1040
4.8
1002
}
  0
INSERT
  5
15D
330
1F
100
AcDbEntity
  8
1
  6
Continuous
 62
     7
370
    30
100
AcDbBlockReference
  2
MARK_DOT
 10
502.9672340019533
 20
332.017795014806
 30
0.0
 41
0.0384615384615385
 42
0.0384615384615385
 43
0.0384615384615385
 50
179.9999999999998
  0
INSERT
  5
15E
330
1F
100
AcDbEntity
  8
1
  6
Continuous
 62
     7
370
    30
100
AcDbBlockReference
  2
MARK_DOT
 10
509.9419040019533
 20
325.4106180148059
 30
0.0
 41
0.0384615384615385
 42
0.0384615384615385
 43
0.0384615384615385
 50
179.9999999999998
  0
INSERT
  5
15F
330
1F
100
AcDbEntity
  8
1
  6
Continuous
 62
     7
370
    30
100
AcDbBlockReference
  2
MARK_DOT
 10
505.1155950019533
 20
332.1152990148058
 30
0.0
 41
0.0384615384615385
 42
0.0384615384615385
 43
0.0384615384615385
 50
179.9999999999998
  0
INSERT
  5
160
330
1F
100
AcDbEntity
  8
1
  6
Continuous
 62
     7
370
    30
100
AcDbBlockReference
  2
MARK_DOT
 10
503.1607000019532
 20
328.0621220148058
 30
0.0
 41
0.0384615384615385
 42
0.0384615384615385
 43
0.0384615384615385
 50
179.9999999999998
  0
INSERT
  5
161
330
1F
100
AcDbEntity
  8
1
  6
Continuous
 62
     7
370
    30
100
AcDbBlockReference
  2
MARK_DOT
 10
510.9261870019531
 20
326.3468820148058
 30
0.0
 41
0.0384615384615385
 42
0.0384615384615385
 43
0.0384615384615385
 50
179.9999999999998
  0
INSERT
  5
162
330
1F
100
AcDbEntity
  8
1
  6
Continuous
 62
     7
370
    30
100
AcDbBlockReference
  2
MARK_DOT
 10
502.1605010019532
 20
331.1782260148058
 30
0.0
 41
0.0384615384615385
 42
0.0384615384615385
 43
0.0384615384615385
 50
179.9999999999998
  0
INSERT
  5
163
330
1F
100
AcDbEntity
  8
1
  6
Continuous
 62
     7
370
    30
100
AcDbBlockReference
  2
MARK_DOT
 10
519.792469520592
 20
344.9663121319933
 30
0.0
 41
0.0384615384615385
 42
0.0384615384615385
 43
0.0384615384615385
 50
179.9999999999998
  0
LINE
  5
164
330
1F
100
AcDbEntity
  8
1
  6
Continuous
 62
     7
370
    30
100
AcDbLine
 10
438.7866076293947
 20
340.7002599317981
 30
0.0
 11
435.7866076293947
 21
337.7002599317981
 31
0.0
  0
LINE
  5
165
330
1F
100
AcDbEntity
  8
1
  6
Continuous
 62
     7
370
    30
100
AcDbLine
 10
528.3866061035158
 20
340.7002599317981
 30
0.0
 11
491.5866030517579
 21
340.7002599317981
 31
0.0
  0
LINE
  5
166
330
1F
100
AcDbEntity
  8
1
  6
Continuous
 62
     7
370
    30
100
AcDbLine
 10
491.5866030517579
 20
337.7002599317981
 30
0.0
 11
475.5866030517579
 21
337.7002599317981
 31
0.0
  0
LINE
  5
167
330
1F
100
AcDbEntity
  8
1
  6
Continuous
 62
     7
370
    30
100
AcDbLine
 10
491.5866030517579
 20
236.5002515394641
 30
0.0
 11
475.5866030517579
 21
236.5002515394641
 31
0.0
  0
LINE
  5
168
330
1F
100
AcDbEntity
  8
1
  6
Continuous
 62
     7
370
    30
100
AcDbLine
 10
491.5866030517579
 20
233.5002515394641
 30
0.0
 11
491.5866030517579
 21
236.5002515394641
 31
0.0
  0
LINE
  5
169
330
1F
100
AcDbEntity
  8
1
  6
Continuous
 62
     7
370
    30
100
AcDbLine
 10
475.5866030517579
 20
233.5002515394641
 30
0.0
 11
475.5866030517579
 21
236.5002515394641
 31
0.0
  0
LINE
  5
16A
330
1F
100
AcDbEntity
  8
1
  6
Continuous
 62
     7
370
    30
100
AcDbLine
 10
528.3866061035158
 20
233.5002515394641
 30
0.0
 11
491.5866030517579
 21
233.5002515394641
 31
0.0
  0
LINE
  5
16B
330
1F
100
AcDbEntity
  8
1
  6
Continuous
 62
     7
370
    30
100
AcDbLine
 10
475.5866030517579
 20
340.7002599317981
 30
0.0
 11
438.7866076293947
 21
340.7002599317981
 31
0.0
  0
LINE
  5
16C
330
1F
100
AcDbEntity
  8
1
  6
Continuous
 62
     7
370
    30
100
AcDbLine
 10
435.7866076293947
 20
337.7002599317981
 30
0.0
 11
435.7866076293947
 21
236.5002515394641
 31
0.0
  0
LINE
  5
16D
330
1F
100
AcDbEntity
  8
1
  6
Continuous
 62
     7
370
    30
100
AcDbLine
 10
475.5866030517579
 20
340.7002599317981
 30
0.0
 11
475.5866030517579
 21
337.7002599317981
 31
0.0
  0
LINE
  5
16E
330
1F
100
AcDbEntity
  8
1
  6
Continuous
 62
     7
370
    30
100
AcDbLine
 10
491.5866030517579
 20
340.7002599317981
 30
0.0
 11
491.5866030517579
 21
337.7002599317981
 31
0.0
  0
LINE
  5
16F
330
1F
100
AcDbEntity
  8
1
  6
Continuous
 62
     7
370
    30
100
AcDbLine
 10
531.3866061035158
 20
337.7002599317981
 30
0.0
 11
531.3866061035158
 21
236.5002515394641
 31
0.0
  0
LINE
  5
170
330
1F
100
AcDbEntity
  8
1
  6
Continuous
 62
     7
370
    30
100
AcDbLine
 10
528.3866061035158
 20
340.7002599317981
 30
0.0
 11
531.3866061035158
 21
337.7002599317981
 31
0.0
  0
LINE
  5
171
330
1F
100
AcDbEntity
  8
1
  6
Continuous
 62
     7
370
    30
100
AcDbLine
 10
531.3866061035158
 20
236.5002515394641
 30
0.0
 11
528.3866061035158
 21
233.5002515394641
 31
0.0
  0
LINE
  5
172
330
1F
100
AcDbEntity
  8
1
  6
Continuous
 62
     7
370
    30
100
AcDbLine
 10
438.7866076293947
 20
233.5002515394641
 30
0.0
 11
435.7866076293947
 21
236.5002515394641
 31
0.0
  0
LINE
  5
173
330
1F
100
AcDbEntity
  8
1
  6
Continuous
 62
     7
370
    30
100
AcDbLine
 10
522.586603051758
 20
246.2002523024036
 30
0.0
 11
522.586603051758
 21
242.2002523024036
 31
0.0
  0
LINE
  5
174
330
1F
100
AcDbEntity
  8
1
  6
Continuous
 62
     7
370
    30
100
AcDbLine
 10
486.5956972900391
 20
332.0002477247668
 30
0.0
 11
480.5956972900391
 21
332.0002477247668
 31
0.0
  0
LINE
  5
175
330
1F
100
AcDbEntity
  8
1
  6
Continuous
 62
     7
370
    30
100
AcDbLine
 10
486.5956972900391
 20
329.5002477247668
 30
0.0
 11
480.5956972900391
 21
329.5002477247668
 31
0.0
  0
LINE
  5
176
330
1F
100
AcDbEntity
  8
1
  6
Continuous
 62
     7
370
    30
100
AcDbLine
 10
450.5866106811524
 20
244.7002523024036
 30
0.0
 11
444.5866106811524
 21
244.7002523024036
 31
0.0
  0
LINE
  5
177
330
1F
100
AcDbEntity
  8
1
  6
Continuous
 62
     7
370
    30
100
AcDbLine
 10
516.586603051758
 20
246.2002523024036
 30
0.0
 11
516.586603051758
 21
242.2002523024036
 31
0.0
  0
LINE
  5
178
330
1F
100
AcDbEntity
  8
1
  6
Continuous
 62
     7
370
    30
100
AcDbLine
 10
486.5866030517579
 20
242.2002523024036
 30
0.0
 11
480.5866030517579
 21
242.2002523024036
 31
0.0
  0
LINE
  5
179
330
1F
100
AcDbEntity
  8
1
  6
Continuous
 62
     7
370
    30
100
AcDbLine
 10
522.586603051758
 20
244.7002523024036
 30
0.0
 11
516.586603051758
 21
244.7002523024036
 31
0.0
  0
LINE
  5
17A
330
1F
100
AcDbEntity
  8
1
  6
Continuous
 62
     7
370
    30
100
AcDbLine
 10
444.5866106811524
 20
246.2002523024036
 30
0.0
 11
444.5866106811524
 21
242.2002523024036
 31
0.0
  0
LINE
  5
17B
330
1F
100
AcDbEntity
  8
1
  6
Continuous
 62
     7
370
    30
100
AcDbLine
 10
480.5866030517579
 20
246.2002523024036
 30
0.0
 11
486.5866030517579
 21
246.2002523024036
 31
0.0
  0
LINE
  5
17C
330
1F
100
AcDbEntity
  8
1
  6
Continuous
 62
     7
370
    30
100
AcDbLine
 10
450.5866106811524
 20
246.2002523024036
 30
0.0
 11
450.5866106811524
 21
242.2002523024036
 31
0.0
  0
LINE
  5
17D
330
1F
100
AcDbEntity
  8
1
  6
Continuous
 62
     7
370
    30
100
AcDbLine
 10
450.5866106811524
 20
242.2002523024036
 30
0.0
 11
444.5866106811524
 21
242.2002523024036
 31
0.0
  0
LINE
  5
17E
330
1F
100
AcDbEntity
  8
1
  6
Continuous
 62
     7
370
    30
100
AcDbLine
 10
444.5866106811524
 20
246.2002523024036
 30
0.0
 11
450.5866106811524
 21
246.2002523024036
 31
0.0
  0
LINE
  5
17F
330
1F
100
AcDbEntity
  8
1
  6
Continuous
 62
     7
370
    30
100
AcDbLine
 10
522.586603051758
 20
329.5002477247668
 30
0.0
 11
516.586603051758
 21
329.5002477247668
 31
0.0
  0
LINE
  5
180
330
1F
100
AcDbEntity
  8
1
  6
Continuous
 62
     7
370
    30
100
AcDbLine
 10
486.5866030517579
 20
246.2002523024036
 30
0.0
 11
486.5866030517579
 21
242.2002523024036
 31
0.0
  0
LINE
  5
181
330
1F
100
AcDbEntity
  8
1
  6
Continuous
 62
     7
370
    30
100
AcDbLine
 10
486.5866030517579
 20
244.7002523024036
 30
0.0
 11
480.5866030517579
 21
244.7002523024036
 31
0.0
  0
LINE
  5
182
330
1F
100
AcDbEntity
  8
1
  6
Continuous
 62
     7
370
    30
100
AcDbLine
 10
480.5866030517579
 20
246.2002523024036
 30
0.0
 11
480.5866030517579
 21
242.2002523024036
 31
0.0
  0
LINE
  5
183
330
1F
100
AcDbEntity
  8
1
  6
Continuous
 62
     7
370
    30
100
AcDbLine
 10
450.5866106811524
 20
329.5002477247668
 30
0.0
 11
444.5866106811524
 21
329.5002477247668
 31
0.0
  0
LINE
  5
184
330
1F
100
AcDbEntity
  8
1
  6
Continuous
 62
     7
370
    30
100
AcDbLine
 10
522.586603051758
 20
328.0002477247668
 30
0.0
 11
522.586603051758
 21
332.0002477247668
 31
0.0
  0
LINE
  5
185
330
1F
100
AcDbEntity
  8
1
  6
Continuous
 62
     7
370
    30
100
AcDbLine
 10
516.586603051758
 20
328.0002477247668
 30
0.0
 11
516.586603051758
 21
332.0002477247668
 31
0.0
  0
LINE
  5
186
330
1F
100
AcDbEntity
  8
1
  6
Continuous
 62
     7
370
    30
100
AcDbLine
 10
516.586603051758
 20
246.2002523024036
 30
0.0
 11
522.586603051758
 21
246.2002523024036
 31
0.0
  0
LINE
  5
187
330
1F
100
AcDbEntity
  8
1
  6
Continuous
 62
     7
370
    30
100
AcDbLine
 10
444.5866106811524
 20
328.0002477247668
 30
0.0
 11
444.5866106811524
 21
332.0002477247668
 31
0.0
  0
LINE
  5
188
330
1F
100
AcDbEntity
  8
1
  6
Continuous
 62
     7
370
    30
100
AcDbLine
 10
522.586603051758
 20
242.2002523024036
 30
0.0
 11
516.586603051758
 21
242.2002523024036
 31
0.0
  0
LINE
  5
189
330
1F
100
AcDbEntity
  8
1
  6
Continuous
 62
     7
370
    30
100
AcDbLine
 10
450.5866106811524
 20
328.0002477247668
 30
0.0
 11
450.5866106811524
 21
332.0002477247668
 31
0.0
  0
LINE
  5
18A
330
1F
100
AcDbEntity
  8
1
  6
Continuous
 62
     7
370
    30
100
AcDbLine
 10
450.5866106811524
 20
332.0002477247668
 30
0.0
 11
444.5866106811524
 21
332.0002477247668
 31
0.0
  0
LINE
  5
18B
330
1F
100
AcDbEntity
  8
1
  6
Continuous
 62
     7
370
    30
100
AcDbLine
 10
522.586603051758
 20
332.0002477247668
 30
0.0
 11
516.586603051758
 21
332.0002477247668
 31
0.0
  0
LINE
  5
18C
330
1F
100
AcDbEntity
  8
1
  6
Continuous
 62
     7
370
    30
100
AcDbLine
 10
516.586603051758
 20
328.0002477247668
 30
0.0
 11
522.586603051758
 21
328.0002477247668
 31
0.0
  0
LINE
  5
18D
330
1F
100
AcDbEntity
  8
1
  6
Continuous
 62
     7
370
    30
100
AcDbLine
 10
444.5866106811524
 20
328.0002477247668
 30
0.0
 11
450.5866106811524
 21
328.0002477247668
 31
0.0
  0
LINE
  5
18E
330
1F
100
AcDbEntity
  8
1
  6
Continuous
 62
     7
370
    30
100
AcDbLine
 10
480.5956972900391
 20
328.0002477247668
 30
0.0
 11
486.5956972900391
 21
328.0002477247668
 31
0.0
  0
LINE
  5
18F
330
1F
100
AcDbEntity
  8
1
  6
Continuous
 62
     7
370
    30
100
AcDbLine
 10
480.5956972900391
 20
332.0002477247668
 30
0.0
 11
480.5956972900391
 21
328.0002477247668
 31
0.0
  0
LINE
  5
190
330
1F
100
AcDbEntity
  8
1
  6
Continuous
 62
     7
370
    30
100
AcDbLine
 10
486.5956972900391
 20
332.0002477247668
 30
0.0
 11
486.5956972900391
 21
328.0002477247668
 31
0.0
  0
LINE
  5
191
330
1F
100
AcDbEntity
  8
1
  6
Continuous
 62
     7
370
    30
100
AcDbLine
 10
477.1866091552735
 20
269.5002553541614
 30
0.0
 11
449.5866106811524
 21
269.5002553541614
 31
0.0
  0
LINE
  5
192
330
1F
100
AcDbEntity
  8
1
  6
Continuous
 62
     7
370
    30
100
AcDbLine
 10
483.1766146484376
 20
269.5002553541614
 30
0.0
 11
483.1766146484376
 21
270.5002553541614
 31
0.0
  0
LINE
  5
193
330
1F
100
AcDbEntity
  8
1
  6
Continuous
 62
     7
370
    30
100
AcDbLine
 10
526.086603051758
 20
256.1002538282825
 30
0.0
 11
526.086603051758
 21
318.1002538282825
 31
0.0
  0
LINE
  5
194
330
1F
100
AcDbEntity
  8
1
  6
Continuous
 62
     7
370
    30
100
AcDbLine
 10
444.5866106811524
 20
321.6002538282825
 30
0.0
 11
522.586603051758
 21
321.6002538282825
 31
0.0
  0
LINE
  5
195
330
1F
100
AcDbEntity
  8
1
  6
Continuous
 62
     7
370
    30
100
AcDbLine
 10
441.0866106811524
 20
318.1002538282825
 30
0.0
 11
441.0866106811524
 21
256.1002538282825
 31
0.0
  0
LINE
  5
196
330
1F
100
AcDbEntity
  8
1
  6
Continuous
 62
     7
370
    30
100
AcDbLine
 10
449.5866106811524
 20
255.5002553541614
 30
0.0
 11
449.5866106811524
 21
269.5002553541614
 31
0.0
  0
LINE
  5
197
330
1F
100
AcDbEntity
  8
1
  6
Continuous
 62
     7
370
    30
100
AcDbLine
 10
490.9266146484376
 20
254.5002553541614
 30
0.0
 11
517.586603051758
 21
254.5002553541614
 31
0.0
  0
LINE
  5
198
330
1F
100
AcDbEntity
  8
1
  6
Continuous
 62
     7
370
    30
100
AcDbLine
 10
483.1766146484376
 20
269.5002553541614
 30
0.0
 11
449.5866106811524
 21
269.5002553541614
 31
0.0
  0
LINE
  5
199
330
1F
100
AcDbEntity
  8
1
  6
Continuous
 62
     7
370
    30
100
AcDbLine
 10
524.086603051758
 20
271.0002553541614
 30
0.0
 11
443.0866106811524
 21
271.0002553541614
 31
0.0
  0
LINE
  5
19A
330
1F
100
AcDbEntity
  8
1
  6
Continuous
 62
     7
370
    30
100
AcDbLine
 10
449.5866106811524
 20
255.5002553541614
 30
0.0
 11
449.5866106811524
 21
269.5002553541614
 31
0.0
  0
LINE
  5
19B
330
1F
100
AcDbEntity
  8
1
  6
Continuous
 62
     7
370
    30
100
AcDbLine
 10
517.586603051758
 20
254.5002553541614
 30
0.0
 11
517.586603051758
 21
270.5002553541614
 31
0.0
  0
LINE
  5
19C
330
1F
100
AcDbEntity
  8
1
  6
Continuous
 62
     7
370
    30
100
AcDbLine
 10
483.1766146484376
 20
270.5002553541614
 30
0.0
 11
517.586603051758
 21
270.5002553541614
 31
0.0
  0
LINE
  5
19D
330
1F
100
AcDbEntity
  8
1
  6
Continuous
 62
     7
370
    30
100
AcDbLine
 10
490.9266146484376
 20
254.5002553541614
 30
0.0
 11
490.9266146484376
 21
256.4872701246692
 31
0.0
  0
LINE
  5
19E
330
1F
100
AcDbEntity
  8
1
  6
Continuous
 62
     7
370
    30
100
AcDbLine
 10
483.1766146484376
 20
256.4872701246692
 30
0.0
 11
490.9266146484376
 21
256.4872701246692
 31
0.0
  0
LINE
  5
19F
330
1F
100
AcDbEntity
  8
1
  6
Continuous
 62
     7
370
    30
100
AcDbLine
 10
500.0416048828126
 20
260.7474629957629
 30
0.0
 11
500.0416048828126
 21
263.1002538282825
 31
0.0
  0
LINE
  5
1A0
330
1F
100
AcDbEntity
  8
1
  6
Continuous
 62
     7
370
    30
100
AcDbLine
 10
501.2466067138673
 20
254.5002553541614
 30
0.0
 11
498.0366000000001
 21
254.5002553541614
 31
0.0
  0
LINE
  5
1A1
330
1F
100
AcDbEntity
  8
1
  6
Continuous
 62
     7
370
    30
100
AcDbLine
 10
501.2466067138673
 20
264.0002553541614
 30
0.0
 11
498.0366000000001
 21
264.0002553541614
 31
0.0
  0
LINE
  5
1A2
330
1F
100
AcDbEntity
  8
1
  6
Continuous
 62
     7
370
    30
100
AcDbLine
 10
483.1766146484376
 20
255.5002553541614
 30
0.0
 11
483.1766146484376
 21
256.4872701246692
 31
0.0
  0
LINE
  5
1A3
330
1F
100
AcDbEntity
  8
1
  6
Continuous
 62
     7
370
    30
100
AcDbLine
 10
490.1266115966798
 20
256.9872701246692
 30
0.0
 11
490.1266115966798
 21
270.0002553541614
 31
0.0
  0
LINE
  5
1A4
330
1F
100
AcDbEntity
  8
1
  6
Continuous
 62
     7
370
    30
100
AcDbLine
 10
484.3766115966798
 20
256.9872701246692
 30
0.0
 11
491.1266115966798
 21
256.9872701246692
 31
0.0
  0
LINE
  5
1A5
330
1F
100
AcDbEntity
  8
1
  6
Continuous
 62
     7
370
    30
100
AcDbLine
 10
484.3766115966798
 20
256.9872701246692
 30
0.0
 11
484.3766115966798
 21
270.0002553541614
 31
0.0
  0
LINE
  5
1A6
330
1F
100
AcDbEntity
  8
1
  6
Continuous
 62
     7
370
    30
100
AcDbLine
 10
487.5263613525391
 20
264.5135152418567
 30
0.0
 11
488.0268496337891
 21
264.5135152418567
 31
0.0
  0
LINE
  5
1A7
330
1F
100
AcDbEntity
  8
1
  6
Continuous
 62
     7
370
    30
100
AcDbLine
 10
505.056604272461
 20
264.0002553541614
 30
0.0
 11
501.8466128173829
 21
264.0002553541614
 31
0.0
  0
LINE
  5
1A8
330
1F
100
AcDbEntity
  8
1
  6
Continuous
 62
     7
370
    30
100
AcDbLine
 10
487.5263613525391
 20
259.433513410802
 30
0.0
 11
488.0268496337891
 21
259.433513410802
 31
0.0
  0
LINE
  5
1A9
330
1F
100
AcDbEntity
  8
1
  6
Continuous
 62
     7
370
    30
100
AcDbLine
 10
503.8516024414063
 20
263.1002538282825
 30
0.0
 11
503.0516146484376
 21
263.1002538282825
 31
0.0
  0
LINE
  5
1AA
330
1F
100
AcDbEntity
  8
1
  6
Continuous
 62
     7
370
    30
100
AcDbLine
 10
489.0266054931641
 20
257.7882726271106
 30
0.0
 11
489.0266054931641
 21
256.9872701246692
 31
0.0
  0
LINE
  5
1AB
330
1F
100
AcDbEntity
  8
1
  6
Continuous
 62
     7
370
    30
100
AcDbLine
 10
485.1766146484376
 20
257.7882726271106
 30
0.0
 11
485.1766146484376
 21
269.1992604811145
 31
0.0
  0
LINE
  5
1AC
330
1F
100
AcDbEntity
  8
1
  6
Continuous
 62
     7
370
    30
100
AcDbLine
 10
499.2416018310548
 20
257.5002553541614
 30
0.0
 11
499.2416018310548
 21
259.8530385572864
 31
0.0
  0
LINE
  5
1AD
330
1F
100
AcDbEntity
  8
1
  6
Continuous
 62
     7
370
    30
100
AcDbLine
 10
497.4366091552735
 20
254.5002553541614
 30
0.0
 11
497.4366091552735
 21
264.0002553541614
 31
0.0
  0
LINE
  5
1AE
330
1F
100
AcDbEntity
  8
1
  6
Continuous
 62
     7
370
    30
100
AcDbLine
 10
487.5263613525391
 20
267.5540196974231
 30
0.0
 11
487.5263613525391
 21
267.053516157384
 31
0.0
  0
LINE
  5
1AF
330
1F
100
AcDbEntity
  8
1
  6
Continuous
 62
     7
370
    30
100
AcDbLine
 10
489.3256167236329
 20
267.9982717115832
 30
0.0
 11
490.1266115966798
 21
267.9982717115832
 31
0.0
  0
LINE
  5
1B0
330
1F
100
AcDbEntity
  8
1
  6
Continuous
 62
     7
370
    30
100
AcDbLine
 10
488.0268496337891
 20
265.0140187818957
 30
0.0
 11
488.0268496337891
 21
264.5135152418567
 31
0.0
  0
LINE
  5
1B1
330
1F
100
AcDbEntity
  8
1
  6
Continuous
 62
     7
370
    30
100
AcDbLine
 10
484.3766115966798
 20
270.0002553541614
 30
0.0
 11
491.1266115966798
 21
270.0002553541614
 31
0.0
  0
LINE
  5
1B2
330
1F
100
AcDbEntity
  8
1
  6
Continuous
 62
     7
370
    30
100
AcDbLine
 10
487.826608544922
 20
270.0002553541614
 30
0.0
 11
487.826608544922
 21
269.1992604811145
 31
0.0
  0
LINE
  5
1B3
330
1F
100
AcDbEntity
  8
1
  6
Continuous
 62
     7
370
    30
100
AcDbLine
 10
487.5263613525391
 20
267.053516157384
 30
0.0
 11
488.0268496337891
 21
267.053516157384
 31
0.0
  0
LINE
  5
1B4
330
1F
100
AcDbEntity
  8
1
  6
Continuous
 62
     7
370
    30
100
AcDbLine
 10
487.5263613525391
 20
267.5540196974231
 30
0.0
 11
488.0268496337891
 21
267.5540196974231
 31
0.0
  0
LINE
  5
1B5
330
1F
100
AcDbEntity
  8
1
  6
Continuous
 62
     7
370
    30
100
AcDbLine
 10
499.2416018310548
 20
260.7474629957629
 30
0.0
 11
499.2416018310548
 21
263.1002538282825
 31
0.0
  0
LINE
  5
1B6
330
1F
100
AcDbEntity
  8
1
  6
Continuous
 62
     7
370
    30
100
AcDbLine
 10
508.8666018310548
 20
264.0002553541614
 30
0.0
 11
505.6566103759766
 21
264.0002553541614
 31
0.0
  0
LINE
  5
1B7
330
1F
100
AcDbEntity
  8
1
  6
Continuous
 62
     7
370
    30
100
AcDbLine
 10
500.0416048828126
 20
257.5002553541614
 30
0.0
 11
499.2416018310548
 21
257.5002553541614
 31
0.0
  0
LINE
  5
1B8
330
1F
100
AcDbEntity
  8
1
  6
Continuous
 62
     7
370
    30
100
AcDbLine
 10
500.0416048828126
 20
257.5002553541614
 30
0.0
 11
500.0416048828126
 21
259.8530385572864
 31
0.0
  0
LINE
  5
1B9
330
1F
100
AcDbEntity
  8
1
  6
Continuous
 62
     7
370
    30
100
AcDbLine
 10
500.0416048828126
 20
263.1002538282825
 30
0.0
 11
499.2416018310548
 21
263.1002538282825
 31
0.0
  0
LINE
  5
1BA
330
1F
100
AcDbEntity
  8
1
  6
Continuous
 62
     7
370
    30
100
AcDbLine
 10
487.5263613525391
 20
265.0140187818957
 30
0.0
 11
488.0268496337891
 21
265.0140187818957
 31
0.0
  0
LINE
  5
1BB
330
1F
100
AcDbEntity
  8
1
  6
Continuous
 62
     7
370
    30
100
AcDbLine
 10
489.0266054931641
 20
270.0002553541614
 30
0.0
 11
489.0266054931641
 21
269.1992604811145
 31
0.0
  0
LINE
  5
1BC
330
1F
100
AcDbEntity
  8
1
  6
Continuous
 62
     7
370
    30
100
AcDbLine
 10
487.5263613525391
 20
259.9340169508411
 30
0.0
 11
488.0268496337891
 21
259.9340169508411
 31
0.0
  0
LINE
  5
1BD
330
1F
100
AcDbEntity
  8
1
  6
Continuous
 62
     7
370
    30
100
AcDbLine
 10
485.1766146484376
 20
257.7882726271106
 30
0.0
 11
489.3256167236329
 21
257.7882726271106
 31
0.0
  0
LINE
  5
1BE
330
1F
100
AcDbEntity
  8
1
  6
Continuous
 62
     7
370
    30
100
AcDbLine
 10
497.4366091552735
 20
264.0002553541614
 30
0.0
 11
494.2266024414063
 21
264.0002553541614
 31
0.0
  0
LINE
  5
1BF
330
1F
100
AcDbEntity
  8
1
  6
Continuous
 62
     7
370
    30
100
AcDbLine
 10
505.056604272461
 20
254.5002553541614
 30
0.0
 11
505.056604272461
 21
264.0002553541614
 31
0.0
  0
LINE
  5
1C0
330
1F
100
AcDbEntity
  8
1
  6
Continuous
 62
     7
370
    30
100
AcDbLine
 10
489.3256167236329
 20
266.7970693190051
 30
0.0
 11
490.1266115966798
 21
266.7970693190051
 31
0.0
  0
LINE
  5
1C1
330
1F
100
AcDbEntity
  8
1
  6
Continuous
 62
     7
370
    30
100
AcDbLine
 10
487.5263613525391
 20
259.9340169508411
 30
0.0
 11
487.5263613525391
 21
259.433513410802
 31
0.0
  0
LINE
  5
1C2
330
1F
100
AcDbEntity
  8
1
  6
Continuous
 62
     7
370
    30
100
AcDbLine
 10
487.5263613525391
 20
265.0140187818957
 30
0.0
 11
487.5263613525391
 21
264.5135152418567
 31
0.0
  0
LINE
  5
1C3
330
1F
100
AcDbEntity
  8
1
  6
Continuous
 62
     7
370
    30
100
AcDbLine
 10
501.2466067138673
 20
254.5002553541614
 30
0.0
 11
501.2466067138673
 21
264.0002553541614
 31
0.0
  0
LINE
  5
1C4
330
1F
100
AcDbEntity
  8
1
  6
Continuous
 62
     7
370
    30
100
AcDbLine
 10
497.4366091552735
 20
254.5002553541614
 30
0.0
 11
494.2266024414063
 21
254.5002553541614
 31
0.0
  0
LINE
  5
1C5
330
1F
100
AcDbEntity
  8
1
  6
Continuous
 62
     7
370
    30
100
AcDbLine
 10
487.5263613525391
 20
262.4740178663684
 30
0.0
 11
487.5263613525391
 21
261.9735143263293
 31
0.0
  0
LINE
  5
1C6
330
1F
100
AcDbEntity
  8
1
  6
Continuous
 62
     7
370
    30
100
AcDbLine
 10
488.0268496337891
 20
267.5540196974231
 30
0.0
 11
488.0268496337891
 21
267.053516157384
 31
0.0
  0
LINE
  5
1C7
330
1F
100
AcDbEntity
  8
1
  6
Continuous
 62
     7
370
    30
100
AcDbLine
 10
487.5263613525391
 20
262.4740178663684
 30
0.0
 11
488.0268496337891
 21
262.4740178663684
 31
0.0
  0
LINE
  5
1C8
330
1F
100
AcDbEntity
  8
1
  6
Continuous
 62
     7
370
    30
100
AcDbLine
 10
490.1266115966798
 20
256.9872701246692
 30
0.0
 11
490.1266115966798
 21
270.0002553541614
 31
0.0
  0
LINE
  5
1C9
330
1F
100
AcDbEntity
  8
1
  6
Continuous
 62
     7
370
    30
100
AcDbLine
 10
495.431604272461
 20
260.7474629957629
 30
0.0
 11
495.431604272461
 21
263.1002538282825
 31
0.0
  0
LINE
  5
1CA
330
1F
100
AcDbEntity
  8
1
  6
Continuous
 62
     7
370
    30
100
AcDbLine
 10
489.3256167236329
 20
260.1904561598254
 30
0.0
 11
490.1266115966798
 21
260.1904561598254
 31
0.0
  0
LINE
  5
1CB
330
1F
100
AcDbEntity
  8
1
  6
Continuous
 62
     7
370
    30
100
AcDbLine
 10
485.1766146484376
 20
269.1992604811145
 30
0.0
 11
489.3256167236329
 21
269.1992604811145
 31
0.0
  0
LINE
  5
1CC
330
1F
100
AcDbEntity
  8
1
  6
Continuous
 62
     7
370
    30
100
AcDbLine
 10
489.3256167236329
 20
257.7882726271106
 30
0.0
 11
489.3256167236329
 21
269.1992604811145
 31
0.0
  0
LINE
  5
1CD
330
1F
100
AcDbEntity
  8
1
  6
Continuous
 62
     7
370
    30
100
AcDbLine
 10
488.0268496337891
 20
262.4740178663684
 30
0.0
 11
488.0268496337891
 21
261.9735143263293
 31
0.0
  0
LINE
  5
1CE
330
1F
100
AcDbEntity
  8
1
  6
Continuous
 62
     7
370
    30
100
AcDbLine
 10
505.056604272461
 20
254.5002553541614
 30
0.0
 11
501.8466128173829
 21
254.5002553541614
 31
0.0
  0
LINE
  5
1CF
330
1F
100
AcDbEntity
  8
1
  6
Continuous
 62
     7
370
    30
100
AcDbLine
 10
496.2316073242188
 20
260.7474629957629
 30
0.0
 11
496.2316073242188
 21
263.1002538282825
 31
0.0
  0
LINE
  5
1D0
330
1F
100
AcDbEntity
  8
1
  6
Continuous
 62
     7
370
    30
100
AcDbLine
 10
487.826608544922
 20
257.7882726271106
 30
0.0
 11
487.826608544922
 21
256.9872701246692
 31
0.0
  0
LINE
  5
1D1
330
1F
100
AcDbEntity
  8
1
  6
Continuous
 62
     7
370
    30
100
AcDbLine
 10
488.0268496337891
 20
259.9340169508411
 30
0.0
 11
488.0268496337891
 21
259.433513410802
 31
0.0
  0
LINE
  5
1D2
330
1F
100
AcDbEntity
  8
1
  6
Continuous
 62
     7
370
    30
100
AcDbLine
 10
487.5263613525391
 20
261.9735143263293
 30
0.0
 11
488.0268496337891
 21
261.9735143263293
 31
0.0
  0
LINE
  5
1D3
330
1F
100
AcDbEntity
  8
1
  6
Continuous
 62
     7
370
    30
100
AcDbLine
 10
489.3256167236329
 20
258.9892690260364
 30
0.0
 11
490.1266115966798
 21
258.9892690260364
 31
0.0
  0
LINE
  5
1D4
330
1F
100
AcDbEntity
  8
1
  6
Continuous
 62
     7
370
    30
100
AcDbLine
 10
494.2266024414063
 20
256.0002553541614
 30
0.0
 11
492.4266146484376
 21
256.0002553541614
 31
0.0
  0
LINE
  5
1D5
330
1F
100
AcDbEntity
  8
1
  6
Continuous
 62
     7
370
    30
100
AcDbLine
 10
496.2316073242188
 20
257.5002553541614
 30
0.0
 11
495.431604272461
 21
257.5002553541614
 31
0.0
  0
LINE
  5
1D6
330
1F
100
AcDbEntity
  8
1
  6
Continuous
 62
     7
370
    30
100
AcDbLine
 10
496.2316073242188
 20
257.5002553541614
 30
0.0
 11
496.2316073242188
 21
259.8530385572864
 31
0.0
  0
LINE
  5
1D7
330
1F
100
AcDbEntity
  8
1
  6
Continuous
 62
     7
370
    30
100
AcDbLine
 10
495.431604272461
 20
257.5002553541614
 30
0.0
 11
495.431604272461
 21
259.8530385572864
 31
0.0
  0
LINE
  5
1D8
330
1F
100
AcDbEntity
  8
1
  6
Continuous
 62
     7
370
    30
100
AcDbLine
 10
509.4666079345704
 20
256.0002553541614
 30
0.0
 11
508.8666018310548
 21
256.0002553541614
 31
0.0
  0
LINE
  5
1D9
330
1F
100
AcDbEntity
  8
1
  6
Continuous
 62
     7
370
    30
100
AcDbLine
 10
509.4666079345704
 20
254.5002553541614
 30
0.0
 11
509.4666079345704
 21
270.0002553541614
 31
0.0
  0
LINE
  5
1DA
330
1F
100
AcDbEntity
  8
1
  6
Continuous
 62
     7
370
    30
100
AcDbLine
 10
513.2766054931642
 20
256.0002553541614
 30
0.0
 11
512.6766146484376
 21
256.0002553541614
 31
0.0
  0
LINE
  5
1DB
330
1F
100
AcDbEntity
  8
1
  6
Continuous
 62
     7
370
    30
100
AcDbLine
 10
506.8616122070313
 20
260.7474629957629
 30
0.0
 11
506.8616122070313
 21
263.1002538282825
 31
0.0
  0
LINE
  5
1DC
330
1F
100
AcDbEntity
  8
1
  6
Continuous
 62
     7
370
    30
100
AcDbLine
 10
516.4866122070314
 20
254.5002553541614
 30
0.0
 11
513.2766054931642
 21
254.5002553541614
 31
0.0
  0
LINE
  5
1DD
330
1F
100
AcDbEntity
  8
1
  6
Continuous
 62
     7
370
    30
100
AcDbLine
 10
513.2766054931642
 20
254.5002553541614
 30
0.0
 11
513.2766054931642
 21
270.0002553541614
 31
0.0
  0
LINE
  5
1DE
330
1F
100
AcDbEntity
  8
1
  6
Continuous
 62
     7
370
    30
100
AcDbLine
 10
505.6566103759766
 20
254.5002553541614
 30
0.0
 11
505.6566103759766
 21
270.0002553541614
 31
0.0
  0
LINE
  5
1DF
330
1F
100
AcDbEntity
  8
1
  6
Continuous
 62
     7
370
    30
100
AcDbLine
 10
467.5866030517579
 20
267.0002553541614
 30
0.0
 11
467.5866030517579
 21
264.6002538282825
 31
0.0
  0
LINE
  5
1E0
330
1F
100
AcDbEntity
  8
1
  6
Continuous
 62
     7
370
    30
100
AcDbLine
 10
458.1866091552735
 20
264.0002553541614
 30
0.0
 11
459.9866122070313
 21
264.0002553541614
 31
0.0
  0
LINE
  5
1E1
330
1F
100
AcDbEntity
  8
1
  6
Continuous
 62
     7
370
    30
100
AcDbLine
 10
477.5866030517579
 20
267.0002553541614
 30
0.0
 11
477.5866030517579
 21
264.6002538282825
 31
0.0
  0
LINE
  5
1E2
330
1F
100
AcDbEntity
  8
1
  6
Continuous
 62
     7
370
    30
100
AcDbLine
 10
472.0866030517579
 20
268.5002553541614
 30
0.0
 11
476.0866030517579
 21
268.5002553541614
 31
0.0
  0
LINE
  5
1E3
330
1F
100
AcDbEntity
  8
1
  6
Continuous
 62
     7
370
    30
100
AcDbLine
 10
470.5866030517579
 20
267.0002553541614
 30
0.0
 11
470.5866030517579
 21
264.6002538282825
 31
0.0
  0
LINE
  5
1E4
330
1F
100
AcDbEntity
  8
1
  6
Continuous
 62
     7
370
    30
100
AcDbLine
 10
462.0866030517579
 20
268.5002553541614
 30
0.0
 11
466.0866030517579
 21
268.5002553541614
 31
0.0
  0
LINE
  5
1E5
330
1F
100
AcDbEntity
  8
1
  6
Continuous
 62
     7
370
    30
100
AcDbLine
 10
498.0366000000001
 20
256.0002553541614
 30
0.0
 11
497.4366091552735
 21
256.0002553541614
 31
0.0
  0
LINE
  5
1E6
330
1F
100
AcDbEntity
  8
1
  6
Continuous
 62
     7
370
    30
100
AcDbLine
 10
505.6566103759766
 20
256.0002553541614
 30
0.0
 11
505.056604272461
 21
256.0002553541614
 31
0.0
  0
LINE
  5
1E7
330
1F
100
AcDbEntity
  8
1
  6
Continuous
 62
     7
370
    30
100
AcDbLine
 10
501.8466128173829
 20
256.0002553541614
 30
0.0
 11
501.2466067138673
 21
256.0002553541614
 31
0.0
  0
LINE
  5
1E8
330
1F
100
AcDbEntity
  8
1
  6
Continuous
 62
     7
370
    30
100
AcDbLine
 10
492.4266146484376
 20
270.0002553541614
 30
0.0
 11
517.086603051758
 21
270.0002553541614
 31
0.0
  0
LINE
  5
1E9
330
1F
100
AcDbEntity
  8
1
  6
Continuous
 62
     7
370
    30
100
AcDbLine
 10
503.8516024414063
 20
257.5002553541614
 30
0.0
 11
503.8516024414063
 21
259.8530385572864
 31
0.0
  0
LINE
  5
1EA
330
1F
100
AcDbEntity
  8
1
  6
Continuous
 62
     7
370
    30
100
AcDbLine
 10
492.4266146484376
 20
268.5002553541614
 30
0.0
 11
517.086603051758
 21
268.5002553541614
 31
0.0
  0
LINE
  5
1EB
330
1F
100
AcDbEntity
  8
1
  6
Continuous
 62
     7
370
    30
100
AcDbLine
 10
507.6616000000001
 20
260.7474629957629
 30
0.0
 11
507.6616000000001
 21
263.1002538282825
 31
0.0
  0
LINE
  5
1EC
330
1F
100
AcDbEntity
  8
1
  6
Continuous
 62
     7
370
    30
100
AcDbLine
 10
503.8516024414063
 20
257.5002553541614
 30
0.0
 11
503.0516146484376
 21
257.5002553541614
 31
0.0
  0
LINE
  5
1ED
330
1F
100
AcDbEntity
  8
1
  6
Continuous
 62
     7
370
    30
100
AcDbLine
 10
510.6716097656251
 20
260.7474629957629
 30
0.0
 11
510.6716097656251
 21
263.1002538282825
 31
0.0
  0
LINE
  5
1EE
330
1F
100
AcDbEntity
  8
1
  6
Continuous
 62
     7
370
    30
100
AcDbLine
 10
511.4716128173829
 20
257.5002553541614
 30
0.0
 11
510.6716097656251
 21
257.5002553541614
 31
0.0
  0
LINE
  5
1EF
330
1F
100
AcDbEntity
  8
1
  6
Continuous
 62
     7
370
    30
100
AcDbLine
 10
511.4716128173829
 20
263.1002538282825
 30
0.0
 11
510.6716097656251
 21
263.1002538282825
 31
0.0
  0
LINE
  5
1F0
330
1F
100
AcDbEntity
  8
1
  6
Continuous
 62
     7
370
    30
100
AcDbLine
 10
511.4716128173829
 20
260.7474629957629
 30
0.0
 11
511.4716128173829
 21
263.1002538282825
 31
0.0
  0
LINE
  5
1F1
330
1F
100
AcDbEntity
  8
1
  6
Continuous
 62
     7
370
    30
100
AcDbLine
 10
457.5866030517579
 20
261.5002553541614
 30
0.0
 11
457.5866030517579
 21
259.5002553541614
 31
0.0
  0
LINE
  5
1F2
330
1F
100
AcDbEntity
  8
1
  6
Continuous
 62
     7
370
    30
100
AcDbLine
 10
479.1866091552735
 20
261.5002553541614
 30
0.0
 11
479.1866091552735
 21
259.5002553541614
 31
0.0
  0
LINE
  5
1F3
330
1F
100
AcDbEntity
  8
1
  6
Continuous
 62
     7
370
    30
100
AcDbLine
 10
456.5866030517579
 20
269.5002553541614
 30
0.0
 11
456.5866030517579
 21
269.0002553541614
 31
0.0
  0
LINE
  5
1F4
330
1F
100
AcDbEntity
  8
1
  6
Continuous
 62
     7
370
    30
100
AcDbLine
 10
507.6616000000001
 20
257.5002553541614
 30
0.0
 11
506.8616122070313
 21
257.5002553541614
 31
0.0
  0
LINE
  5
1F5
330
1F
100
AcDbEntity
  8
1
  6
Continuous
 62
     7
370
    30
100
AcDbLine
 10
503.8516024414063
 20
260.7474629957629
 30
0.0
 11
503.8516024414063
 21
263.1002538282825
 31
0.0
  0
LINE
  5
1F6
330
1F
100
AcDbEntity
  8
1
  6
Continuous
 62
     7
370
    30
100
AcDbLine
 10
496.2316073242188
 20
263.1002538282825
 30
0.0
 11
495.431604272461
 21
263.1002538282825
 31
0.0
  0
LINE
  5
1F7
330
1F
100
AcDbEntity
  8
1
  6
Continuous
 62
     7
370
    30
100
AcDbLine
 10
503.0516146484376
 20
260.7474629957629
 30
0.0
 11
503.0516146484376
 21
263.1002538282825
 31
0.0
  0
LINE
  5
1F8
330
1F
100
AcDbEntity
  8
1
  6
Continuous
 62
     7
370
    30
100
AcDbLine
 10
507.6616000000001
 20
257.5002553541614
 30
0.0
 11
507.6616000000001
 21
259.8530385572864
 31
0.0
  0
LINE
  5
1F9
330
1F
100
AcDbEntity
  8
1
  6
Continuous
 62
     7
370
    30
100
AcDbLine
 10
507.6616000000001
 20
263.1002538282825
 30
0.0
 11
506.8616122070313
 21
263.1002538282825
 31
0.0
  0
LINE
  5
1FA
330
1F
100
AcDbEntity
  8
1
  6
Continuous
 62
     7
370
    30
100
AcDbLine
 10
450.0866106811524
 20
269.0002553541614
 30
0.0
 11
450.0866106811524
 21
256.0002553541614
 31
0.0
  0
LINE
  5
1FB
330
1F
100
AcDbEntity
  8
1
  6
Continuous
 62
     7
370
    30
100
AcDbLine
 10
478.5866030517579
 20
255.5002553541614
 30
0.0
 11
478.5866030517579
 21
256.0002553541614
 31
0.0
  0
LINE
  5
1FC
330
1F
100
AcDbEntity
  8
1
  6
Continuous
 62
     7
370
    30
100
AcDbLine
 10
480.0866030517579
 20
255.5002553541614
 30
0.0
 11
480.0866030517579
 21
256.0002553541614
 31
0.0
  0
LINE
  5
1FD
330
1F
100
AcDbEntity
  8
1
  6
Continuous
 62
     7
370
    30
100
AcDbLine
 10
482.0866030517579
 20
269.0002553541614
 30
0.0
 11
482.0866030517579
 21
256.0002553541614
 31
0.0
  0
LINE
  5
1FE
330
1F
100
AcDbEntity
  8
1
  6
Continuous
 62
     7
370
    30
100
AcDbLine
 10
450.0866106811524
 20
269.0002553541614
 30
0.0
 11
482.0866030517579
 21
269.0002553541614
 31
0.0
  0
LINE
  5
1FF
330
1F
100
AcDbEntity
  8
1
  6
Continuous
 62
     7
370
    30
100
AcDbLine
 10
510.6716097656251
 20
257.5002553541614
 30
0.0
 11
510.6716097656251
 21
259.8530385572864
 31
0.0
  0
LINE
  5
200
330
1F
100
AcDbEntity
  8
1
  6
Continuous
 62
     7
370
    30
100
AcDbLine
 10
503.0516146484376
 20
257.5002553541614
 30
0.0
 11
503.0516146484376
 21
259.8530385572864
 31
0.0
  0
LINE
  5
201
330
1F
100
AcDbEntity
  8
1
  6
Continuous
 62
     7
370
    30
100
AcDbLine
 10
506.8616122070313
 20
257.5002553541614
 30
0.0
 11
506.8616122070313
 21
259.8530385572864
 31
0.0
  0
LINE
  5
202
330
1F
100
AcDbEntity
  8
1
  6
Continuous
 62
     7
370
    30
100
AcDbLine
 10
508.8666018310548
 20
254.5002553541614
 30
0.0
 11
505.6566103759766
 21
254.5002553541614
 31
0.0
  0
LINE
  5
203
330
1F
100
AcDbEntity
  8
1
  6
Continuous
 62
     7
370
    30
100
AcDbLine
 10
508.8666018310548
 20
254.5002553541614
 30
0.0
 11
508.8666018310548
 21
264.0002553541614
 31
0.0
  0
LINE
  5
204
330
1F
100
AcDbEntity
  8
1
  6
Continuous
 62
     7
370
    30
100
AcDbLine
 10
511.4716128173829
 20
257.5002553541614
 30
0.0
 11
511.4716128173829
 21
259.8530385572864
 31
0.0
  0
LINE
  5
205
330
1F
100
AcDbEntity
  8
1
  6
Continuous
 62
     7
370
    30
100
AcDbLine
 10
517.086603051758
 20
256.0002553541614
 30
0.0
 11
517.086603051758
 21
270.0002553541614
 31
0.0
  0
LINE
  5
206
330
1F
100
AcDbEntity
  8
1
  6
Continuous
 62
     7
370
    30
100
AcDbLine
 10
501.8466128173829
 20
254.5002553541614
 30
0.0
 11
501.8466128173829
 21
270.0002553541614
 31
0.0
  0
LINE
  5
207
330
1F
100
AcDbEntity
  8
1
  6
Continuous
 62
     7
370
    30
100
AcDbLine
 10
498.0366000000001
 20
254.5002553541614
 30
0.0
 11
498.0366000000001
 21
270.0002553541614
 31
0.0
  0
LINE
  5
208
330
1F
100
AcDbEntity
  8
1
  6
Continuous
 62
     7
370
    30
100
AcDbLine
 10
494.2266024414063
 20
254.5002553541614
 30
0.0
 11
494.2266024414063
 21
270.0002553541614
 31
0.0
  0
LINE
  5
209
330
1F
100
AcDbEntity
  8
1
  6
Continuous
 62
     7
370
    30
100
AcDbLine
 10
516.4866122070314
 20
254.5002553541614
 30
0.0
 11
516.4866122070314
 21
264.0002553541614
 31
0.0
  0
LINE
  5
20A
330
1F
100
AcDbEntity
  8
1
  6
Continuous
 62
     7
370
    30
100
AcDbLine
 10
492.4266146484376
 20
256.0002553541614
 30
0.0
 11
492.4266146484376
 21
270.0002553541614
 31
0.0
  0
LINE
  5
20B
330
1F
100
AcDbEntity
  8
1
  6
Continuous
 62
     7
370
    30
100
AcDbLine
 10
517.086603051758
 20
256.0002553541614
 30
0.0
 11
516.4866122070314
 21
256.0002553541614
 31
0.0
  0
LINE
  5
20C
330
1F
100
AcDbEntity
  8
1
  6
Continuous
 62
     7
370
    30
100
AcDbLine
 10
475.5866030517579
 20
269.5002553541614
 30
0.0
 11
475.5866030517579
 21
269.0002553541614
 31
0.0
  0
LINE
  5
20D
330
1F
100
AcDbEntity
  8
1
  6
Continuous
 62
     7
370
    30
100
AcDbLine
 10
479.3866061035157
 20
261.7002523024036
 30
0.0
 11
479.3866061035157
 21
259.3002507765246
 31
0.0
  0
LINE
  5
20E
330
1F
100
AcDbEntity
  8
1
  6
Continuous
 62
     7
370
    30
100
AcDbLine
 10
468.1866091552735
 20
264.0002553541614
 30
0.0
 11
469.9866122070313
 21
264.0002553541614
 31
0.0
  0
LINE
  5
20F
330
1F
100
AcDbEntity
  8
1
  6
Continuous
 62
     7
370
    30
100
AcDbLine
 10
478.1866091552735
 20
264.0002553541614
 30
0.0
 11
480.7866000000001
 21
264.0002553541614
 31
0.0
  0
LINE
  5
210
330
1F
100
AcDbEntity
  8
1
  6
Continuous
 62
     7
370
    30
100
AcDbLine
 10
477.0866030517579
 20
269.5002553541614
 30
0.0
 11
477.0866030517579
 21
269.0002553541614
 31
0.0
  0
LINE
  5
211
330
1F
100
AcDbEntity
  8
1
  6
Continuous
 62
     7
370
    30
100
AcDbLine
 10
460.5866030517579
 20
267.0002553541614
 30
0.0
 11
460.5866030517579
 21
264.6002538282825
 31
0.0
  0
LINE
  5
212
330
1F
100
AcDbEntity
  8
1
  6
Continuous
 62
     7
370
    30
100
AcDbLine
 10
452.0866106811524
 20
268.5002553541614
 30
0.0
 11
456.0866106811524
 21
268.5002553541614
 31
0.0
  0
LINE
  5
213
330
1F
100
AcDbEntity
  8
1
  6
Continuous
 62
     7
370
    30
100
AcDbLine
 10
450.5866106811524
 20
267.0002553541614
 30
0.0
 11
450.5866106811524
 21
263.0002553541614
 31
0.0
  0
LINE
  5
214
330
1F
100
AcDbEntity
  8
1
  6
Continuous
 62
     7
370
    30
100
AcDbLine
 10
457.5866030517579
 20
267.0002553541614
 30
0.0
 11
457.5866030517579
 21
264.6002538282825
 31
0.0
  0
LINE
  5
215
330
1F
100
AcDbEntity
  8
1
  6
Continuous
 62
     7
370
    30
100
AcDbLine
 10
481.8366030517579
 20
268.4002492506457
 30
0.0
 11
481.8366030517579
 21
256.6002538282825
 31
0.0
  0
LINE
  5
216
330
1F
100
AcDbEntity
  8
1
  6
Continuous
 62
     7
370
    30
100
AcDbLine
 10
465.3366030517579
 20
255.5002553541614
 30
0.0
 11
465.3366030517579
 21
256.0002553541614
 31
0.0
  0
LINE
  5
217
330
1F
100
AcDbEntity
  8
1
  6
Continuous
 62
     7
370
    30
100
AcDbLine
 10
457.3866061035157
 20
261.7002523024036
 30
0.0
 11
457.3866061035157
 21
259.3002507765246
 31
0.0
  0
LINE
  5
218
330
1F
100
AcDbEntity
  8
1
  6
Continuous
 62
     7
370
    30
100
AcDbLine
 10
466.8366030517579
 20
255.5002553541614
 30
0.0
 11
466.8366030517579
 21
256.0002553541614
 31
0.0
  0
LINE
  5
219
330
1F
100
AcDbEntity
  8
1
  6
Continuous
 62
     7
370
    30
100
AcDbLine
 10
515.2816103759767
 20
260.7474629957629
 30
0.0
 11
515.2816103759767
 21
263.1002538282825
 31
0.0
  0
LINE
  5
21A
330
1F
100
AcDbEntity
  8
1
  6
Continuous
 62
     7
370
    30
100
AcDbLine
 10
512.6766146484376
 20
264.0002553541614
 30
0.0
 11
509.4666079345704
 21
264.0002553541614
 31
0.0
  0
LINE
  5
21B
330
1F
100
AcDbEntity
  8
1
  6
Continuous
 62
     7
370
    30
100
AcDbLine
 10
512.6766146484376
 20
254.5002553541614
 30
0.0
 11
512.6766146484376
 21
264.0002553541614
 31
0.0
  0
LINE
  5
21C
330
1F
100
AcDbEntity
  8
1
  6
Continuous
 62
     7
370
    30
100
AcDbLine
 10
515.2816103759767
 20
263.1002538282825
 30
0.0
 11
514.4816073242189
 21
263.1002538282825
 31
0.0
  0
LINE
  5
21D
330
1F
100
AcDbEntity
  8
1
  6
Continuous
 62
     7
370
    30
100
AcDbLine
 10
514.4816073242189
 20
260.7474629957629
 30
0.0
 11
514.4816073242189
 21
263.1002538282825
 31
0.0
  0
LINE
  5
21E
330
1F
100
AcDbEntity
  8
1
  6
Continuous
 62
     7
370
    30
100
AcDbLine
 10
516.4866122070314
 20
264.0002553541614
 30
0.0
 11
513.2766054931642
 21
264.0002553541614
 31
0.0
  0
LINE
  5
21F
330
1F
100
AcDbEntity
  8
1
  6
Continuous
 62
     7
370
    30
100
AcDbLine
 10
450.3366106811524
 20
268.4002492506457
 30
0.0
 11
450.3366106811524
 21
258.4444158155871
 31
0.0
  0
LINE
  5
220
330
1F
100
AcDbEntity
  8
1
  6
Continuous
 62
     7
370
    30
100
AcDbLine
 10
450.6866091552735
 20
268.7502553541614
 30
0.0
 11
481.4866122070313
 21
268.7502553541614
 31
0.0
  0
LINE
  5
221
330
1F
100
AcDbEntity
  8
1
  6
Continuous
 62
     7
370
    30
100
AcDbLine
 10
472.3866061035157
 20
261.2002523024036
 30
0.0
 11
472.3866061035157
 21
259.8002507765246
 31
0.0
  0
LINE
  5
222
330
1F
100
AcDbEntity
  8
1
  6
Continuous
 62
     7
370
    30
100
AcDbLine
 10
515.2816103759767
 20
257.5002553541614
 30
0.0
 11
515.2816103759767
 21
259.8530385572864
 31
0.0
  0
LINE
  5
223
330
1F
100
AcDbEntity
  8
1
  6
Continuous
 62
     7
370
    30
100
AcDbLine
 10
512.6766146484376
 20
254.5002553541614
 30
0.0
 11
509.4666079345704
 21
254.5002553541614
 31
0.0
  0
LINE
  5
224
330
1F
100
AcDbEntity
  8
1
  6
Continuous
 62
     7
370
    30
100
AcDbLine
 10
514.4816073242189
 20
257.5002553541614
 30
0.0
 11
514.4816073242189
 21
259.8530385572864
 31
0.0
  0
LINE
  5
225
330
1F
100
AcDbEntity
  8
1
  6
Continuous
 62
     7
370
    30
100
AcDbLine
 10
515.2816103759767
 20
257.5002553541614
 30
0.0
 11
514.4816073242189
 21
257.5002553541614
 31
0.0
  0
LINE
  5
226
330
1F
100
AcDbEntity
  8
1
  6
Continuous
 62
     7
370
    30
100
AcDbLine
 10
455.0866106811524
 20
269.5002553541614
 30
0.0
 11
455.0866106811524
 21
269.0002553541614
 31
0.0
  0
LINE
  5
227
330
1F
100
AcDbEntity
  8
1
  6
Continuous
 62
     7
370
    30
100
AcDbLine
 10
481.3866061035157
 20
263.4002492506457
 30
0.0
 11
481.3866061035157
 21
257.9002492506457
 31
0.0
  0
LINE
  5
228
330
1F
100
AcDbEntity
  8
1
  6
Continuous
 62
     7
370
    30
100
AcDbLine
 10
467.7866000000001
 20
261.2002523024036
 30
0.0
 11
467.7866000000001
 21
259.8002507765246
 31
0.0
  0
LINE
  5
229
330
1F
100
AcDbEntity
  8
1
  6
Continuous
 62
     7
370
    30
100
AcDbLine
 10
468.9866122070313
 20
261.2002523024036
 30
0.0
 11
468.9866122070313
 21
259.8002507765246
 31
0.0
  0
LINE
  5
22A
330
1F
100
AcDbEntity
  8
1
  6
Continuous
 62
     7
370
    30
100
AcDbLine
 10
453.5866106811524
 20
255.5002553541614
 30
0.0
 11
453.5866106811524
 21
256.0002553541614
 31
0.0
  0
LINE
  5
22B
330
1F
100
AcDbEntity
  8
1
  6
Continuous
 62
     7
370
    30
100
AcDbLine
 10
452.0866106811524
 20
255.5002553541614
 30
0.0
 11
452.0866106811524
 21
256.0002553541614
 31
0.0
  0
LINE
  5
22C
330
1F
100
AcDbEntity
  8
1
  6
Continuous
 62
     7
370
    30
100
AcDbLine
 10
470.2440279785157
 20
257.3002507765246
 30
0.0
 11
480.7866000000001
 21
257.3002507765246
 31
0.0
  0
LINE
  5
22D
330
1F
100
AcDbEntity
  8
1
  6
Continuous
 62
     7
370
    30
100
AcDbLine
 10
491.1266115966798
 20
256.9872701246692
 30
0.0
 11
491.1266115966798
 21
270.0002553541614
 31
0.0
  0
LINE
  5
22E
330
1F
100
AcDbEntity
  8
1
  6
Continuous
 62
     7
370
    30
100
AcDbLine
 10
536.6384218994142
 20
248.0002553541614
 30
0.0
 11
536.6384218994142
 21
284.6002538282825
 31
0.0
  0
LINE
  5
22F
330
1F
100
AcDbEntity
  8
1
  6
Continuous
 62
     7
370
    30
100
AcDbLine
 10
533.4866122070314
 20
247.8002507765246
 30
0.0
 11
533.4866122070314
 21
230.7601316053821
 31
0.0
  0
LINE
  5
230
330
1F
100
AcDbEntity
  8
1
  6
Continuous
 62
     7
370
    30
100
AcDbLine
 10
538.4566134277345
 20
249.0002553541614
 30
0.0
 11
532.4866122070314
 21
249.0002553541614
 31
0.0
  0
LINE
  5
231
330
1F
100
AcDbEntity
  8
1
  6
Continuous
 62
     7
370
    30
100
AcDbLine
 10
538.4566134277345
 20
248.0002553541614
 30
0.0
 11
533.6866091552736
 21
248.0002553541614
 31
0.0
  0
LINE
  5
232
330
1F
100
AcDbEntity
  8
1
  6
Continuous
 62
     7
370
    30
100
AcDbLine
 10
535.0566195312501
 20
246.0002553541614
 30
0.0
 11
533.4866122070314
 21
246.0002553541614
 31
0.0
  0
LINE
  5
233
330
1F
100
AcDbEntity
  8
1
  6
Continuous
 62
     7
370
    30
100
AcDbLine
 10
536.6384218994142
 20
289.6002538282825
 30
0.0
 11
536.6384218994142
 21
325.2002599317981
 31
0.0
  0
LINE
  5
234
330
1F
100
AcDbEntity
  8
1
  6
PHANTOM
 62
     7
370
    30
100
AcDbLine
 10
470.1047915283204
 20
340.7002599317981
 30
0.0
 11
470.1047915283204
 21
341.2002599317981
 31
0.0
  0
LINE
  5
235
330
1F
100
AcDbEntity
  8
1
  6
Continuous
 62
     7
370
    30
100
AcDbLine
 10
489.6047915283204
 20
341.2002599317981
 30
0.0
 11
489.6047915283204
 21
342.97024894547
 31
0.0
  0
LINE
  5
236
330
1F
100
AcDbEntity
  8
1
  6
Continuous
 62
     7
370
    30
100
AcDbLine
 10
524.5684145751954
 20
341.7002599317981
 30
0.0
 11
524.5684145751954
 21
342.97024894547
 31
0.0
  0
LINE
  5
237
330
1F
100
AcDbEntity
  8
1
  6
PHANTOM
 62
     7
370
    30
100
AcDbLine
 10
494.0684145751954
 20
340.7002599317981
 30
0.0
 11
494.0684145751954
 21
341.2002599317981
 31
0.0
  0
LINE
  5
238
330
1F
100
AcDbEntity
  8
1
  6
PHANTOM
 62
     7
370
    30
100
AcDbLine
 10
469.1047915283204
 20
340.7002599317981
 30
0.0
 11
469.1047915283204
 21
341.2002599317981
 31
0.0
  0
LINE
  5
239
330
1F
100
AcDbEntity
  8
1
  6
PHANTOM
 62
     7
370
    30
100
AcDbLine
 10
447.1047991577149
 20
340.7002599317981
 30
0.0
 11
447.1047991577149
 21
341.2002599317981
 31
0.0
  0
LINE
  5
23A
330
1F
100
AcDbEntity
  8
1
  6
PHANTOM
 62
     7
370
    30
100
AcDbLine
 10
451.1047991577149
 20
340.7002599317981
 30
0.0
 11
451.1047991577149
 21
341.2002599317981
 31
0.0
  0
LINE
  5
23B
330
1F
100
AcDbEntity
  8
1
  6
PHANTOM
 62
     7
370
    30
100
AcDbLine
 10
448.1047991577149
 20
340.7002599317981
 30
0.0
 11
448.1047991577149
 21
341.2002599317981
 31
0.0
  0
LINE
  5
23C
330
1F
100
AcDbEntity
  8
1
  6
PHANTOM
 62
     7
370
    30
100
AcDbLine
 10
455.1047991577149
 20
340.7002599317981
 30
0.0
 11
455.1047991577149
 21
341.2002599317981
 31
0.0
  0
LINE
  5
23D
330
1F
100
AcDbEntity
  8
1
  6
PHANTOM
 62
     7
370
    30
100
AcDbLine
 10
444.1047991577149
 20
233.5002515394641
 30
0.0
 11
444.1047991577149
 21
233.0002515394641
 31
0.0
  0
LINE
  5
23E
330
1F
100
AcDbEntity
  8
1
  6
PHANTOM
 62
     7
370
    30
100
AcDbLine
 10
452.1047991577149
 20
233.5002515394641
 30
0.0
 11
452.1047991577149
 21
233.0002515394641
 31
0.0
  0
LINE
  5
23F
330
1F
100
AcDbEntity
  8
1
  6
Continuous
 62
     7
370
    30
100
AcDbLine
 10
478.5684145751954
 20
232.5002515394641
 30
0.0
 11
478.5684145751954
 21
231.230258711095
 31
0.0
  0
LINE
  5
240
330
1F
100
AcDbEntity
  8
1
  6
PHANTOM
 62
     7
370
    30
100
AcDbLine
 10
455.1047991577149
 20
233.5002515394641
 30
0.0
 11
455.1047991577149
 21
233.0002515394641
 31
0.0
  0
LINE
  5
241
330
1F
100
AcDbEntity
  8
1
  6
PHANTOM
 62
     7
370
    30
100
AcDbLine
 10
448.1047991577149
 20
233.5002515394641
 30
0.0
 11
448.1047991577149
 21
233.0002515394641
 31
0.0
  0
LINE
  5
242
330
1F
100
AcDbEntity
  8
1
  6
Continuous
 62
     7
370
    30
100
AcDbLine
 10
486.0866030517579
 20
338.7702519972278
 30
0.0
 11
481.0866030517579
 21
338.7702519972278
 31
0.0
  0
LINE
  5
243
330
1F
100
AcDbEntity
  8
1
  6
Continuous
 62
     7
370
    30
100
AcDbLine
 10
433.6866015258791
 20
247.8002507765246
 30
0.0
 11
433.6866015258791
 21
230.7601316053821
 31
0.0
  0
LINE
  5
244
330
1F
100
AcDbEntity
  8
1
  6
PHANTOM
 62
     7
370
    30
100
AcDbLine
 10
451.1047991577149
 20
233.5002515394641
 30
0.0
 11
451.1047991577149
 21
233.0002515394641
 31
0.0
  0
LINE
  5
245
330
1F
100
AcDbEntity
  8
1
  6
Continuous
 62
     7
370
    30
100
AcDbLine
 10
430.5166033569338
 20
331.2002599317981
 30
0.0
 11
430.5166033569338
 21
340.1002538282825
 31
0.0
  0
LINE
  5
246
330
1F
100
AcDbEntity
  8
1
  6
Continuous
 62
     7
370
    30
100
AcDbLine
 10
430.5166033569338
 20
234.1002576429797
 30
0.0
 11
430.5166033569338
 21
243.0002515394641
 31
0.0
  0
LINE
  5
247
330
1F
100
AcDbEntity
  8
1
  6
Continuous
 62
     7
370
    30
100
AcDbLine
 10
432.586603051758
 20
342.1702458937121
 30
0.0
 11
433.6866015258791
 21
342.1702458937121
 31
0.0
  0
LINE
  5
248
330
1F
100
AcDbEntity
  8
1
  6
Continuous
 62
     7
370
    30
100
AcDbLine
 10
428.716600305176
 20
234.1002576429797
 30
0.0
 11
428.716600305176
 21
340.1002538282825
 31
0.0
  0
LINE
  5
249
330
1F
100
AcDbEntity
  8
1
  6
Continuous
 62
     7
370
    30
100
AcDbLine
 10
534.586618310547
 20
343.97024894547
 30
0.0
 11
432.586603051758
 21
343.97024894547
 31
0.0
  0
LINE
  5
24A
330
1F
100
AcDbEntity
  8
1
  6
Continuous
 62
     7
370
    30
100
AcDbLine
 10
481.0866030517579
 20
235.4302594740344
 30
0.0
 11
481.0866030517579
 21
230.230258711095
 31
0.0
  0
LINE
  5
24B
330
1F
100
AcDbEntity
  8
1
  6
PHANTOM
 62
     7
370
    30
100
AcDbLine
 10
501.0684145751954
 20
340.7002599317981
 30
0.0
 11
501.0684145751954
 21
341.2002599317981
 31
0.0
  0
LINE
  5
24C
330
1F
100
AcDbEntity
  8
1
  6
Continuous
 62
     7
370
    30
100
AcDbLine
 10
486.0684145751954
 20
342.97024894547
 30
0.0
 11
531.9684237304689
 21
342.97024894547
 31
0.0
  0
LINE
  5
24D
330
1F
100
AcDbEntity
  8
1
  6
Continuous
 62
     7
370
    30
100
AcDbLine
 10
531.9866122070314
 20
248.5002553541614
 30
0.0
 11
531.9866122070314
 21
230.8308560926868
 31
0.0
  0
LINE
  5
24E
330
1F
100
AcDbEntity
  8
1
  6
Continuous
 62
     7
370
    30
100
AcDbLine
 10
428.716600305176
 20
249.0002553541614
 30
0.0
 11
434.6866015258791
 21
249.0002553541614
 31
0.0
  0
LINE
  5
24F
330
1F
100
AcDbEntity
  8
1
  6
Continuous
 62
     7
370
    30
100
AcDbLine
 10
534.5684298339845
 20
342.1702458937121
 30
0.0
 11
533.4684237304689
 21
342.1702458937121
 31
0.0
  0
LINE
  5
250
330
1F
100
AcDbEntity
  8
1
  6
PHANTOM
 62
     7
370
    30
100
AcDbLine
 10
519.0684145751954
 20
340.7002599317981
 30
0.0
 11
519.0684145751954
 21
341.2002599317981
 31
0.0
  0
LINE
  5
251
330
1F
100
AcDbEntity
  8
1
  6
Continuous
 62
     7
370
    30
100
AcDbLine
 10
538.4566134277345
 20
234.1002576429797
 30
0.0
 11
538.4566134277345
 21
340.1002538282825
 31
0.0
  0
LINE
  5
252
330
1F
100
AcDbEntity
  8
1
  6
Continuous
 62
     7
370
    30
100
AcDbLine
 10
541.586618310547
 20
234.1002576429797
 30
0.0
 11
541.586618310547
 21
340.1002538282825
 31
0.0
  0
LINE
  5
253
330
1F
100
AcDbEntity
  8
1
  6
Continuous
 62
     7
370
    30
100
AcDbLine
 10
425.586603051758
 20
234.1002576429797
 30
0.0
 11
425.586603051758
 21
340.1002538282825
 31
0.0
  0
LINE
  5
254
330
1F
100
AcDbEntity
  8
1
  6
Continuous
 62
     7
370
    30
100
AcDbLine
 10
534.586618310547
 20
347.1002538282825
 30
0.0
 11
432.586603051758
 21
347.1002538282825
 31
0.0
  0
LINE
  5
255
330
1F
100
AcDbEntity
  8
1
  6
Continuous
 62
     7
370
    30
100
AcDbLine
 10
535.0566195312501
 20
245.0002553541614
 30
0.0
 11
533.4866122070314
 21
245.0002553541614
 31
0.0
  0
LINE
  5
256
330
1F
100
AcDbEntity
  8
1
  6
Continuous
 62
     7
370
    30
100
AcDbLine
 10
477.5684145751954
 20
233.0002515394641
 30
0.0
 11
477.5684145751954
 21
231.230258711095
 31
0.0
  0
LINE
  5
257
330
1F
100
AcDbEntity
  8
1
  6
Continuous
 62
     7
370
    30
100
AcDbLine
 10
536.6384218994142
 20
331.2002599317981
 30
0.0
 11
536.6384218994142
 21
340.1002538282825
 31
0.0
  0
LINE
  5
258
330
1F
100
AcDbEntity
  8
1
  6
Continuous
 62
     7
370
    30
100
AcDbLine
 10
486.0866030517579
 20
235.4302594740344
 30
0.0
 11
486.0866030517579
 21
230.230258711095
 31
0.0
  0
LINE
  5
259
330
1F
100
AcDbEntity
  8
1
  6
Continuous
 62
     7
370
    30
100
AcDbLine
 10
535.0384310546876
 20
329.2002599317981
 30
0.0
 11
533.4684237304689
 21
329.2002599317981
 31
0.0
  0
LINE
  5
25A
330
1F
100
AcDbEntity
  8
1
  6
Continuous
 62
     7
370
    30
100
AcDbLine
 10
428.716600305176
 20
248.0002553541614
 30
0.0
 11
433.4866045776369
 21
248.0002553541614
 31
0.0
  0
LINE
  5
25B
330
1F
100
AcDbEntity
  8
1
  6
Continuous
 62
     7
370
    30
100
AcDbLine
 10
478.5684145751954
 20
341.7002599317981
 30
0.0
 11
478.5684145751954
 21
342.97024894547
 31
0.0
  0
LINE
  5
25C
330
1F
100
AcDbEntity
  8
1
  6
Continuous
 62
     7
370
    30
100
AcDbLine
 10
432.1166018310549
 20
246.0002553541614
 30
0.0
 11
433.6866015258791
 21
246.0002553541614
 31
0.0
  0
LINE
  5
25D
330
1F
100
AcDbEntity
  8
1
  6
PHANTOM
 62
     7
370
    30
100
AcDbLine
 10
490.0684145751954
 20
337.7002599317981
 30
0.0
 11
490.0684145751954
 21
341.2002599317981
 31
0.0
  0
LINE
  5
25E
330
1F
100
AcDbEntity
  8
1
  6
PHANTOM
 62
     7
370
    30
100
AcDbLine
 10
447.1047991577149
 20
233.5002515394641
 30
0.0
 11
447.1047991577149
 21
233.0002515394641
 31
0.0
  0
LINE
  5
25F
330
1F
100
AcDbEntity
  8
1
  6
PHANTOM
 62
     7
370
    30
100
AcDbLine
 10
469.1047915283204
 20
233.5002515394641
 30
0.0
 11
469.1047915283204
 21
233.0002515394641
 31
0.0
  0
LINE
  5
260
330
1F
100
AcDbEntity
  8
1
  6
PHANTOM
 62
     7
370
    30
100
AcDbLine
 10
470.1047915283204
 20
233.5002515394641
 30
0.0
 11
470.1047915283204
 21
233.0002515394641
 31
0.0
  0
LINE
  5
261
330
1F
100
AcDbEntity
  8
1
  6
Continuous
 62
     7
370
    30
100
AcDbLine
 10
442.6047991577149
 20
232.5002515394641
 30
0.0
 11
442.6047991577149
 21
231.230258711095
 31
0.0
  0
LINE
  5
262
330
1F
100
AcDbEntity
  8
1
  6
PHANTOM
 62
     7
370
    30
100
AcDbLine
 10
516.0684145751954
 20
233.5002515394641
 30
0.0
 11
516.0684145751954
 21
233.0002515394641
 31
0.0
  0
LINE
  5
263
330
1F
100
AcDbEntity
  8
1
  6
PHANTOM
 62
     7
370
    30
100
AcDbLine
 10
512.0684145751954
 20
233.5002515394641
 30
0.0
 11
512.0684145751954
 21
233.0002515394641
 31
0.0
  0
LINE
  5
264
330
1F
100
AcDbEntity
  8
1
  6
PHANTOM
 62
     7
370
    30
100
AcDbLine
 10
473.1047915283204
 20
233.5002515394641
 30
0.0
 11
473.1047915283204
 21
233.0002515394641
 31
0.0
  0
LINE
  5
265
330
1F
100
AcDbEntity
  8
1
  6
Continuous
 62
     7
370
    30
100
AcDbLine
 10
486.0866030517579
 20
235.4302594740344
 30
0.0
 11
481.0866030517579
 21
235.4302594740344
 31
0.0
  0
LINE
  5
266
330
1F
100
AcDbEntity
  8
1
  6
PHANTOM
 62
     7
370
    30
100
AcDbLine
 10
466.1047915283204
 20
233.5002515394641
 30
0.0
 11
466.1047915283204
 21
233.0002515394641
 31
0.0
  0
LINE
  5
267
330
1F
100
AcDbEntity
  8
1
  6
Continuous
 62
     7
370
    30
100
AcDbLine
 10
486.0866030517579
 20
233.4302594740344
 30
0.0
 11
481.0866030517579
 21
233.4302594740344
 31
0.0
  0
LINE
  5
268
330
1F
100
AcDbEntity
  8
1
  6
PHANTOM
 62
     7
370
    30
100
AcDbLine
 10
477.1047915283204
 20
236.5002515394641
 30
0.0
 11
477.1047915283204
 21
233.0002515394641
 31
0.0
  0
LINE
  5
269
330
1F
100
AcDbEntity
  8
1
  6
PHANTOM
 62
     7
370
    30
100
AcDbLine
 10
498.0684145751954
 20
233.5002515394641
 30
0.0
 11
498.0684145751954
 21
233.0002515394641
 31
0.0
  0
LINE
  5
26A
330
1F
100
AcDbEntity
  8
1
  6
Continuous
 62
     7
370
    30
100
AcDbLine
 10
443.6047991577149
 20
233.0002515394641
 30
0.0
 11
443.6047991577149
 21
231.230258711095
 31
0.0
  0
LINE
  5
26B
330
1F
100
AcDbEntity
  8
1
  6
PHANTOM
 62
     7
370
    30
100
AcDbLine
 10
520.0684145751954
 20
233.5002515394641
 30
0.0
 11
520.0684145751954
 21
233.0002515394641
 31
0.0
  0
LINE
  5
26C
330
1F
100
AcDbEntity
  8
1
  6
Continuous
 62
     7
370
    30
100
AcDbLine
 10
538.4566134277345
 20
331.2002599317981
 30
0.0
 11
536.4566134277345
 21
331.2002599317981
 31
0.0
  0
LINE
  5
26D
330
1F
100
AcDbEntity
  8
1
  6
Continuous
 62
     7
370
    30
100
AcDbLine
 10
430.5166033569338
 20
289.6002538282825
 30
0.0
 11
430.5166033569338
 21
325.2002599317981
 31
0.0
  0
LINE
  5
26E
330
1F
100
AcDbEntity
  8
1
  6
Continuous
 62
     7
370
    30
100
AcDbLine
 10
430.5166033569338
 20
249.0002553541614
 30
0.0
 11
430.5166033569338
 21
284.6002538282825
 31
0.0
  0
LINE
  5
26F
330
1F
100
AcDbEntity
  8
1
  6
Continuous
 62
     7
370
    30
100
AcDbLine
 10
536.6384218994142
 20
233.8264539320422
 30
0.0
 11
536.6384218994142
 21
243.0002515394641
 31
0.0
  0
LINE
  5
270
330
1F
100
AcDbEntity
  8
1
  6
Continuous
 62
     7
370
    30
100
AcDbLine
 10
536.4566134277345
 20
326.2002599317981
 30
0.0
 11
536.4566134277345
 21
331.2002599317981
 31
0.0
  0
LINE
  5
271
330
1F
100
AcDbEntity
  8
1
  6
Continuous
 62
     7
370
    30
100
AcDbLine
 10
536.4566134277345
 20
248.0002553541614
 30
0.0
 11
536.4566134277345
 21
243.0002515394641
 31
0.0
  0
LINE
  5
272
330
1F
100
AcDbEntity
  8
1
  6
Continuous
 62
     7
370
    30
100
AcDbLine
 10
538.4566134277345
 20
243.0002515394641
 30
0.0
 11
535.2566164794923
 21
243.0002515394641
 31
0.0
  0
LINE
  5
273
330
1F
100
AcDbEntity
  8
1
  6
Continuous
 62
     7
370
    30
100
AcDbLine
 10
538.4566134277345
 20
326.2002599317981
 30
0.0
 11
535.2566164794923
 21
326.2002599317981
 31
0.0
  0
LINE
  5
274
330
1F
100
AcDbEntity
  8
1
  6
PHANTOM
 62
     7
370
    30
100
AcDbLine
 10
452.1047991577149
 20
340.7002599317981
 30
0.0
 11
452.1047991577149
 21
341.2002599317981
 31
0.0
  0
LINE
  5
275
330
1F
100
AcDbEntity
  8
1
  6
PHANTOM
 62
     7
370
    30
100
AcDbLine
 10
474.1047915283204
 20
233.5002515394641
 30
0.0
 11
474.1047915283204
 21
233.0002515394641
 31
0.0
  0
LINE
  5
276
330
1F
100
AcDbEntity
  8
1
  6
Continuous
 62
     7
370
    30
100
AcDbLine
 10
538.4566134277345
 20
248.0002553541614
 30
0.0
 11
535.2566164794923
 21
248.0002553541614
 31
0.0
  0
LINE
  5
277
330
1F
100
AcDbEntity
  8
1
  6
PHANTOM
 62
     7
370
    30
100
AcDbLine
 10
444.1047991577149
 20
340.7002599317981
 30
0.0
 11
444.1047991577149
 21
341.2002599317981
 31
0.0
  0
LINE
  5
278
330
1F
100
AcDbEntity
  8
1
  6
Continuous
 62
     7
370
    30
100
AcDbLine
 10
428.716600305176
 20
326.2002599317981
 30
0.0
 11
433.4866045776369
 21
326.2002599317981
 31
0.0
  0
LINE
  5
279
330
1F
100
AcDbEntity
  8
1
  6
Continuous
 62
     7
370
    30
100
AcDbLine
 10
428.716600305176
 20
248.0002553541614
 30
0.0
 11
431.9166048828127
 21
248.0002553541614
 31
0.0
  0
LINE
  5
27A
330
1F
100
AcDbEntity
  8
1
  6
Continuous
 62
     7
370
    30
100
AcDbLine
 10
523.5684145751954
 20
341.2002599317981
 30
0.0
 11
523.5684145751954
 21
342.97024894547
 31
0.0
  0
LINE
  5
27B
330
1F
100
AcDbEntity
  8
1
  6
Continuous
 62
     7
370
    30
100
AcDbLine
 10
428.716600305176
 20
243.0002515394641
 30
0.0
 11
430.716600305176
 21
243.0002515394641
 31
0.0
  0
LINE
  5
27C
330
1F
100
AcDbEntity
  8
1
  6
Continuous
 62
     7
370
    30
100
AcDbLine
 10
538.4566134277345
 20
289.6002538282825
 30
0.0
 11
535.2566164794923
 21
289.6002538282825
 31
0.0
  0
LINE
  5
27D
330
1F
100
AcDbEntity
  8
1
  6
Continuous
 62
     7
370
    30
100
AcDbLine
 10
535.0384310546876
 20
328.2002599317981
 30
0.0
 11
533.4684237304689
 21
328.2002599317981
 31
0.0
  0
LINE
  5
27E
330
1F
100
AcDbEntity
  8
1
  6
Continuous
 62
     7
370
    30
100
AcDbLine
 10
536.4566134277345
 20
284.6002538282825
 30
0.0
 11
536.4566134277345
 21
289.6002538282825
 31
0.0
  0
LINE
  5
27F
330
1F
100
AcDbEntity
  8
1
  6
Continuous
 62
     7
370
    30
100
AcDbLine
 10
481.0866030517579
 20
342.97024894547
 30
0.0
 11
435.1866015258791
 21
342.97024894547
 31
0.0
  0
LINE
  5
280
330
1F
100
AcDbEntity
  8
1
  6
Continuous
 62
     7
370
    30
100
AcDbLine
 10
538.4566134277345
 20
284.6002538282825
 30
0.0
 11
535.2566164794923
 21
284.6002538282825
 31
0.0
  0
LINE
  5
281
330
1F
100
AcDbEntity
  8
1
  6
Continuous
 62
     7
370
    30
100
AcDbLine
 10
523.5684145751954
 20
341.2002599317981
 30
0.0
 11
489.6047915283204
 21
341.2002599317981
 31
0.0
  0
LINE
  5
282
330
1F
100
AcDbEntity
  8
1
  6
Continuous
 62
     7
370
    30
100
AcDbLine
 10
430.716600305176
 20
326.2002599317981
 30
0.0
 11
430.716600305176
 21
331.2002599317981
 31
0.0
  0
LINE
  5
283
330
1F
100
AcDbEntity
  8
1
  6
Continuous
 62
     7
370
    30
100
AcDbLine
 10
430.716600305176
 20
248.0002553541614
 30
0.0
 11
430.716600305176
 21
243.0002515394641
 31
0.0
  0
LINE
  5
284
330
1F
100
AcDbEntity
  8
1
  6
Continuous
 62
     7
370
    30
100
AcDbLine
 10
428.716600305176
 20
331.2002599317981
 30
0.0
 11
430.716600305176
 21
331.2002599317981
 31
0.0
  0
LINE
  5
285
330
1F
100
AcDbEntity
  8
1
  6
Continuous
 62
     7
370
    30
100
AcDbLine
 10
443.6047991577149
 20
342.2002599317981
 30
0.0
 11
477.5684145751954
 21
342.2002599317981
 31
0.0
  0
LINE
  5
286
330
1F
100
AcDbEntity
  8
1
  6
PHANTOM
 62
     7
370
    30
100
AcDbLine
 10
474.1047915283204
 20
340.7002599317981
 30
0.0
 11
474.1047915283204
 21
341.2002599317981
 31
0.0
  0
LINE
  5
287
330
1F
100
AcDbEntity
  8
1
  6
Continuous
 62
     7
370
    30
100
AcDbLine
 10
443.6047991577149
 20
341.2002599317981
 30
0.0
 11
477.5684145751954
 21
341.2002599317981
 31
0.0
  0
LINE
  5
288
330
1F
100
AcDbEntity
  8
1
  6
Continuous
 62
     7
370
    30
100
AcDbLine
 10
443.6047991577149
 20
341.2002599317981
 30
0.0
 11
443.6047991577149
 21
342.97024894547
 31
0.0
  0
LINE
  5
289
330
1F
100
AcDbEntity
  8
1
  6
Continuous
 62
     7
370
    30
100
AcDbLine
 10
488.6047915283204
 20
232.5002515394641
 30
0.0
 11
488.6047915283204
 21
231.230258711095
 31
0.0
  0
LINE
  5
28A
330
1F
100
AcDbEntity
  8
1
  6
PHANTOM
 62
     7
370
    30
100
AcDbLine
 10
477.1047915283204
 20
337.7002599317981
 30
0.0
 11
477.1047915283204
 21
341.2002599317981
 31
0.0
  0
LINE
  5
28B
330
1F
100
AcDbEntity
  8
1
  6
PHANTOM
 62
     7
370
    30
100
AcDbLine
 10
493.0684145751954
 20
340.7002599317981
 30
0.0
 11
493.0684145751954
 21
341.2002599317981
 31
0.0
  0
LINE
  5
28C
330
1F
100
AcDbEntity
  8
1
  6
Continuous
 62
     7
370
    30
100
AcDbLine
 10
523.5684145751954
 20
342.2002599317981
 30
0.0
 11
489.6047915283204
 21
342.2002599317981
 31
0.0
  0
LINE
  5
28D
330
1F
100
AcDbEntity
  8
1
  6
Continuous
 62
     7
370
    30
100
AcDbLine
 10
486.0866030517579
 20
340.7702519972278
 30
0.0
 11
481.0866030517579
 21
340.7702519972278
 31
0.0
  0
LINE
  5
28E
330
1F
100
AcDbEntity
  8
1
  6
PHANTOM
 62
     7
370
    30
100
AcDbLine
 10
523.0684145751954
 20
340.7002599317981
 30
0.0
 11
523.0684145751954
 21
341.2002599317981
 31
0.0
  0
LINE
  5
28F
330
1F
100
AcDbEntity
  8
1
  6
PHANTOM
 62
     7
370
    30
100
AcDbLine
 10
466.1047915283204
 20
340.7002599317981
 30
0.0
 11
466.1047915283204
 21
341.2002599317981
 31
0.0
  0
LINE
  5
290
330
1F
100
AcDbEntity
  8
1
  6
PHANTOM
 62
     7
370
    30
100
AcDbLine
 10
515.0684145751954
 20
340.7002599317981
 30
0.0
 11
515.0684145751954
 21
341.2002599317981
 31
0.0
  0
LINE
  5
291
330
1F
100
AcDbEntity
  8
1
  6
PHANTOM
 62
     7
370
    30
100
AcDbLine
 10
473.1047915283204
 20
340.7002599317981
 30
0.0
 11
473.1047915283204
 21
341.2002599317981
 31
0.0
  0
LINE
  5
292
330
1F
100
AcDbEntity
  8
1
  6
Continuous
 62
     7
370
    30
100
AcDbLine
 10
481.0866030517579
 20
343.97024894547
 30
0.0
 11
481.0866030517579
 21
338.7702519972278
 31
0.0
  0
LINE
  5
293
330
1F
100
AcDbEntity
  8
1
  6
Continuous
 62
     7
370
    30
100
AcDbLine
 10
486.0866030517579
 20
343.97024894547
 30
0.0
 11
486.0866030517579
 21
338.7702519972278
 31
0.0
  0
LINE
  5
294
330
1F
100
AcDbEntity
  8
1
  6
Continuous
 62
     7
370
    30
100
AcDbLine
 10
488.6047915283204
 20
341.7002599317981
 30
0.0
 11
488.6047915283204
 21
342.97024894547
 31
0.0
  0
LINE
  5
295
330
1F
100
AcDbEntity
  8
1
  6
Continuous
 62
     7
370
    30
100
AcDbLine
 10
442.6047991577149
 20
341.7002599317981
 30
0.0
 11
442.6047991577149
 21
342.97024894547
 31
0.0
  0
LINE
  5
296
330
1F
100
AcDbEntity
  8
1
  6
PHANTOM
 62
     7
370
    30
100
AcDbLine
 10
515.0684145751954
 20
233.5002515394641
 30
0.0
 11
515.0684145751954
 21
233.0002515394641
 31
0.0
  0
LINE
  5
297
330
1F
100
AcDbEntity
  8
1
  6
Continuous
 62
     7
370
    30
100
AcDbLine
 10
430.716600305176
 20
284.6002538282825
 30
0.0
 11
430.716600305176
 21
289.6002538282825
 31
0.0
  0
LINE
  5
298
330
1F
100
AcDbEntity
  8
1
  6
Continuous
 62
     7
370
    30
100
AcDbLine
 10
432.1166018310549
 20
329.2002599317981
 30
0.0
 11
433.6866015258791
 21
329.2002599317981
 31
0.0
  0
LINE
  5
299
330
1F
100
AcDbEntity
  8
1
  6
Continuous
 62
     7
370
    30
100
AcDbLine
 10
535.2566164794923
 20
284.6002538282825
 30
0.0
 11
535.2566164794923
 21
289.6002538282825
 31
0.0
  0
LINE
  5
29A
330
1F
100
AcDbEntity
  8
1
  6
Continuous
 62
     7
370
    30
100
AcDbLine
 10
535.2566164794923
 20
248.0002553541614
 30
0.0
 11
535.2566164794923
 21
243.0002515394641
 31
0.0
  0
LINE
  5
29B
330
1F
100
AcDbEntity
  8
1
  6
Continuous
 62
     7
370
    30
100
AcDbLine
 10
428.716600305176
 20
289.6002538282825
 30
0.0
 11
431.9166048828127
 21
289.6002538282825
 31
0.0
  0
LINE
  5
29C
330
1F
100
AcDbEntity
  8
1
  6
Continuous
 62
     7
370
    30
100
AcDbLine
 10
428.716600305176
 20
284.6002538282825
 30
0.0
 11
431.9166048828127
 21
284.6002538282825
 31
0.0
  0
LINE
  5
29D
330
1F
100
AcDbEntity
  8
1
  6
Continuous
 62
     7
370
    30
100
AcDbLine
 10
538.438424951172
 20
326.2002599317981
 30
0.0
 11
533.6684206787111
 21
326.2002599317981
 31
0.0
  0
LINE
  5
29E
330
1F
100
AcDbEntity
  8
1
  6
Continuous
 62
     7
370
    30
100
AcDbLine
 10
433.6866015258791
 20
326.4002568800403
 30
0.0
 11
433.6866015258791
 21
343.4403722364856
 31
0.0
  0
LINE
  5
29F
330
1F
100
AcDbEntity
  8
1
  6
Continuous
 62
     7
370
    30
100
AcDbLine
 10
428.716600305176
 20
325.2002599317981
 30
0.0
 11
434.6866015258791
 21
325.2002599317981
 31
0.0
  0
LINE
  5
2A0
330
1F
100
AcDbEntity
  8
1
  6
Continuous
 62
     7
370
    30
100
AcDbLine
 10
435.1866015258791
 20
325.7002599317981
 30
0.0
 11
435.1866015258791
 21
343.3696477491809
 31
0.0
  0
LINE
  5
2A1
330
1F
100
AcDbEntity
  8
1
  6
Continuous
 62
     7
370
    30
100
AcDbLine
 10
431.9166048828127
 20
284.6002538282825
 30
0.0
 11
431.9166048828127
 21
289.6002538282825
 31
0.0
  0
LINE
  5
2A2
330
1F
100
AcDbEntity
  8
1
  6
PHANTOM
 62
     7
370
    30
100
AcDbLine
 10
497.0684145751954
 20
340.7002599317981
 30
0.0
 11
497.0684145751954
 21
341.2002599317981
 31
0.0
  0
LINE
  5
2A3
330
1F
100
AcDbEntity
  8
1
  6
Continuous
 62
     7
370
    30
100
AcDbLine
 10
489.6047915283204
 20
233.0002515394641
 30
0.0
 11
489.6047915283204
 21
231.230258711095
 31
0.0
  0
LINE
  5
2A4
330
1F
100
AcDbEntity
  8
1
  6
PHANTOM
 62
     7
370
    30
100
AcDbLine
 10
520.0684145751954
 20
340.7002599317981
 30
0.0
 11
520.0684145751954
 21
341.2002599317981
 31
0.0
  0
LINE
  5
2A5
330
1F
100
AcDbEntity
  8
1
  6
Continuous
 62
     7
370
    30
100
AcDbLine
 10
477.5684145751954
 20
341.2002599317981
 30
0.0
 11
477.5684145751954
 21
342.97024894547
 31
0.0
  0
LINE
  5
2A6
330
1F
100
AcDbEntity
  8
1
  6
PHANTOM
 62
     7
370
    30
100
AcDbLine
 10
494.0684145751954
 20
233.5002515394641
 30
0.0
 11
494.0684145751954
 21
233.0002515394641
 31
0.0
  0
LINE
  5
2A7
330
1F
100
AcDbEntity
  8
1
  6
PHANTOM
 62
     7
370
    30
100
AcDbLine
 10
498.0684145751954
 20
340.7002599317981
 30
0.0
 11
498.0684145751954
 21
341.2002599317981
 31
0.0
  0
LINE
  5
2A8
330
1F
100
AcDbEntity
  8
1
  6
Continuous
 62
     7
370
    30
100
AcDbLine
 10
432.1166018310549
 20
245.0002553541614
 30
0.0
 11
433.6866015258791
 21
245.0002553541614
 31
0.0
  0
LINE
  5
2A9
330
1F
100
AcDbEntity
  8
1
  6
PHANTOM
 62
     7
370
    30
100
AcDbLine
 10
512.0684145751954
 20
340.7002599317981
 30
0.0
 11
512.0684145751954
 21
341.2002599317981
 31
0.0
  0
LINE
  5
2AA
330
1F
100
AcDbEntity
  8
1
  6
PHANTOM
 62
     7
370
    30
100
AcDbLine
 10
516.0684145751954
 20
340.7002599317981
 30
0.0
 11
516.0684145751954
 21
341.2002599317981
 31
0.0
  0
LINE
  5
2AB
330
1F
100
AcDbEntity
  8
1
  6
PHANTOM
 62
     7
370
    30
100
AcDbLine
 10
493.0684145751954
 20
233.5002515394641
 30
0.0
 11
493.0684145751954
 21
233.0002515394641
 31
0.0
  0
LINE
  5
2AC
330
1F
100
AcDbEntity
  8
1
  6
PHANTOM
 62
     7
370
    30
100
AcDbLine
 10
490.0684145751954
 20
236.5002515394641
 30
0.0
 11
490.0684145751954
 21
233.0002515394641
 31
0.0
  0
LINE
  5
2AD
330
1F
100
AcDbEntity
  8
1
  6
PHANTOM
 62
     7
370
    30
100
AcDbLine
 10
523.0684145751954
 20
233.5002515394641
 30
0.0
 11
523.0684145751954
 21
233.0002515394641
 31
0.0
  0
LINE
  5
2AE
330
1F
100
AcDbEntity
  8
1
  6
PHANTOM
 62
     7
370
    30
100
AcDbLine
 10
519.0684145751954
 20
233.5002515394641
 30
0.0
 11
519.0684145751954
 21
233.0002515394641
 31
0.0
  0
LINE
  5
2AF
330
1F
100
AcDbEntity
  8
1
  6
Continuous
 62
     7
370
    30
100
AcDbLine
 10
523.5684145751954
 20
233.0002515394641
 30
0.0
 11
489.6047915283204
 21
233.0002515394641
 31
0.0
  0
LINE
  5
2B0
330
1F
100
AcDbEntity
  8
1
  6
Continuous
 62
     7
370
    30
100
AcDbLine
 10
524.5684145751954
 20
232.5002515394641
 30
0.0
 11
524.5684145751954
 21
231.230258711095
 31
0.0
  0
LINE
  5
2B1
330
1F
100
AcDbEntity
  8
1
  6
Continuous
 62
     7
370
    30
100
AcDbLine
 10
432.586603051758
 20
232.0302579481555
 30
0.0
 11
433.6866015258791
 21
232.0302579481555
 31
0.0
  0
LINE
  5
2B2
330
1F
100
AcDbEntity
  8
1
  6
PHANTOM
 62
     7
370
    30
100
AcDbLine
 10
501.0684145751954
 20
233.5002515394641
 30
0.0
 11
501.0684145751954
 21
233.0002515394641
 31
0.0
  0
LINE
  5
2B3
330
1F
100
AcDbEntity
  8
1
  6
Continuous
 62
     7
370
    30
100
AcDbLine
 10
523.5684145751954
 20
233.0002515394641
 30
0.0
 11
523.5684145751954
 21
231.230258711095
 31
0.0
  0
LINE
  5
2B4
330
1F
100
AcDbEntity
  8
1
  6
Continuous
 62
     7
370
    30
100
AcDbLine
 10
523.5684145751954
 20
232.0002515394641
 30
0.0
 11
489.6047915283204
 21
232.0002515394641
 31
0.0
  0
LINE
  5
2B5
330
1F
100
AcDbEntity
  8
1
  6
Continuous
 62
     7
370
    30
100
AcDbLine
 10
534.586618310547
 20
232.0302579481555
 30
0.0
 11
533.4866122070314
 21
232.0302579481555
 31
0.0
  0
LINE
  5
2B6
330
1F
100
AcDbEntity
  8
1
  6
Continuous
 62
     7
370
    30
100
AcDbLine
 10
432.1166018310549
 20
328.2002599317981
 30
0.0
 11
433.6866015258791
 21
328.2002599317981
 31
0.0
  0
LINE
  5
2B7
330
1F
100
AcDbEntity
  8
1
  6
PHANTOM
 62
     7
370
    30
100
AcDbLine
 10
497.0684145751954
 20
233.5002515394641
 30
0.0
 11
497.0684145751954
 21
233.0002515394641
 31
0.0
  0
LINE
  5
2B8
330
1F
100
AcDbEntity
  8
1
  6
Continuous
 62
     7
370
    30
100
AcDbLine
 10
538.4566134277345
 20
248.0002553541614
 30
0.0
 11
535.2566164794923
 21
248.0002553541614
 31
0.0
  0
LINE
  5
2B9
330
1F
100
AcDbEntity
  8
1
  6
Continuous
 62
     7
370
    30
100
AcDbLine
 10
435.1866015258791
 20
248.5002553541614
 30
0.0
 11
435.1866015258791
 21
230.8308560926868
 31
0.0
  0
LINE
  5
2BA
330
1F
100
AcDbEntity
  8
1
  6
Continuous
 62
     7
370
    30
100
AcDbLine
 10
531.9684237304689
 20
325.7002599317981
 30
0.0
 11
531.9684237304689
 21
343.3696477491809
 31
0.0
  0
LINE
  5
2BB
330
1F
100
AcDbEntity
  8
1
  6
Continuous
 62
     7
370
    30
100
AcDbLine
 10
533.4684237304689
 20
326.4002568800403
 30
0.0
 11
533.4684237304689
 21
343.4403722364856
 31
0.0
  0
LINE
  5
2BC
330
1F
100
AcDbEntity
  8
1
  6
Continuous
 62
     7
370
    30
100
AcDbLine
 10
538.438424951172
 20
325.2002599317981
 30
0.0
 11
532.4684237304689
 21
325.2002599317981
 31
0.0
  0
LINE
  5
2BD
330
1F
100
AcDbEntity
  8
1
  6
Continuous
 62
     7
370
    30
100
AcDbLine
 10
486.0866030517579
 20
231.230258711095
 30
0.0
 11
531.9866122070314
 21
231.230258711095
 31
0.0
  0
LINE
  5
2BE
330
1F
100
AcDbEntity
  8
1
  6
Continuous
 62
     7
370
    30
100
AcDbLine
 10
450.3366106811524
 20
257.1790959913684
 30
0.0
 11
450.3366106811524
 21
256.6002538282825
 31
0.0
  0
ARC
  5
2BF
330
1F
100
AcDbEntity
  8
1
  6
Continuous
 62
     7
370
    30
100
AcDbCircle
 10
483.5818270507813
 20
287.1007878858996
 30
0.0
 40
49.89999389648438
100
AcDbArc
 50
57.8251013767086
 51
64.47109438114585
  0
ARC
  5
2C0
330
1F
100
AcDbEntity
  8
1
  6
Continuous
 62
     7
370
    30
100
AcDbCircle
 10
483.5818270507813
 20
287.0997197706653
 30
0.0
 40
45.39999389648438
100
AcDbArc
 50
295.5470684827744
 51
302.1941544451947
  0
ARC
  5
2C1
330
1F
100
AcDbEntity
  8
1
  6
Continuous
 62
     7
370
    30
100
AcDbCircle
 10
483.5818270507813
 20
287.1007878858996
 30
0.0
 40
45.39999389648438
100
AcDbArc
 50
57.80584555480559
 51
64.45292736492756
  0
ARC
  5
2C2
330
1F
100
AcDbEntity
  8
1
  6
Continuous
 62
     7
370
    30
100
AcDbCircle
 10
504.1310213867188
 20
330.0921514112903
 30
0.0
 40
2.25
100
AcDbArc
 50
64.0499325408427
 51
244.4529436044014
  0
ARC
  5
2C3
330
1F
100
AcDbEntity
  8
1
  6
Continuous
 62
     7
370
    30
100
AcDbCircle
 10
508.9556826416016
 20
246.7675435621692
 30
0.0
 40
2.25
100
AcDbArc
 50
302.1748907612575
 51
122.5635017758255
  0
ARC
  5
2C4
330
1F
100
AcDbEntity
  8
1
  6
Continuous
 62
     7
370
    30
100
AcDbCircle
 10
483.5818270507813
 20
287.0997197706653
 30
0.0
 40
49.89999389648438
100
AcDbArc
 50
295.5289018435184
 51
302.1748986232914
  0
CIRCLE
  5
2C5
330
1F
100
AcDbEntity
  8
1
  6
Continuous
 62
     7
370
    30
100
AcDbCircle
 10
506.5866030517579
 20
236.6002538282825
 30
0.0
 40
1.75
  0
ARC
  5
2C6
330
1F
100
AcDbEntity
  8
1
  6
Continuous
 62
     7
370
    30
100
AcDbCircle
 10
504.1310213867188
 20
244.1083562452746
 30
0.0
 40
2.25
100
AcDbArc
 50
115.5471401795864
 51
295.9501099666491
  0
CIRCLE
  5
2C7
330
1F
100
AcDbEntity
  8
1
  6
Continuous
 62
     7
370
    30
100
AcDbCircle
 10
506.5866030517579
 20
337.6002538282825
 30
0.0
 40
1.75
  0
CIRCLE
  5
2C8
330
1F
100
AcDbEntity
  8
1
  6
Continuous
 62
     7
370
    30
100
AcDbCircle
 10
460.5866030517579
 20
337.6002538282825
 30
0.0
 40
1.75
  0
ARC
  5
2C9
330
1F
100
AcDbEntity
  8
1
  6
Continuous
 62
     7
370
    30
100
AcDbCircle
 10
508.9556826416016
 20
327.4329564650012
 30
0.0
 40
2.25
100
AcDbArc
 50
237.4363936554857
 51
57.82521269424488
  0
ARC
  5
2CA
330
1F
100
AcDbEntity
  8
1
  6
Continuous
 62
     7
370
    30
100
AcDbCircle
 10
483.5913943115235
 20
287.1007878858996
 30
0.0
 40
45.39999389648438
100
AcDbArc
 50
115.5470726350722
 51
122.1941707413157
  0
ARC
  5
2CB
330
1F
100
AcDbEntity
  8
1
  6
Continuous
 62
     7
370
    30
100
AcDbCircle
 10
483.5913943115235
 20
287.1007878858996
 30
0.0
 40
49.89999389648438
100
AcDbArc
 50
115.5289056188541
 51
122.174898623291
  0
ARC
  5
2CC
330
1F
100
AcDbEntity
  8
1
  6
Continuous
 62
     7
370
    30
100
AcDbCircle
 10
458.2175387207032
 20
327.4329564650012
 30
0.0
 40
2.25
100
AcDbArc
 50
122.1747873057551
 51
302.5636063445136
  0
ARC
  5
2CD
330
1F
100
AcDbEntity
  8
1
  6
Continuous
 62
     7
370
    30
100
AcDbCircle
 10
463.042184716797
 20
330.0921514112903
 30
0.0
 40
2.25
100
AcDbArc
 50
295.547056395598
 51
115.9497180730831
  0
ARC
  5
2CE
330
1F
100
AcDbEntity
  8
1
  6
Continuous
 62
     7
370
    30
100
AcDbCircle
 10
444.5866106811524
 20
256.1002538282825
 30
0.0
 40
3.5
100
AcDbArc
 50
179.9999999999998
 51
269.9999999999998
  0
ARC
  5
2CF
330
1F
100
AcDbEntity
  8
1
  6
Continuous
 62
     7
370
    30
100
AcDbCircle
 10
522.586603051758
 20
318.1002538282825
 30
0.0
 40
3.5
100
AcDbArc
 50
0.0
 51
89.99999999999991
  0
ARC
  5
2D0
330
1F
100
AcDbEntity
  8
1
  6
Continuous
 62
     7
370
    30
100
AcDbCircle
 10
522.586603051758
 20
256.1002538282825
 30
0.0
 40
3.5
100
AcDbArc
 50
269.9999999999998
 51
0.0
  0
ARC
  5
2D1
330
1F
100
AcDbEntity
  8
1
  6
Continuous
 62
     7
370
    30
100
AcDbCircle
 10
444.5866106811524
 20
318.1002538282825
 30
0.0
 40
3.5
100
AcDbArc
 50
89.99999999999991
 51
179.9999999999998
  0
ARC
  5
2D2
330
1F
100
AcDbEntity
  8
1
  6
Continuous
 62
     7
370
    30
100
AcDbCircle
 10
443.0866106811524
 20
273.0002553541614
 30
0.0
 40
2.0
100
AcDbArc
 50
179.9999999999998
 51
269.9999999999998
  0
ARC
  5
2D3
330
1F
100
AcDbEntity
  8
1
  6
Continuous
 62
     7
370
    30
100
AcDbCircle
 10
524.086603051758
 20
273.0002553541614
 30
0.0
 40
2.0
100
AcDbArc
 50
269.9999999999998
 51
0.0
  0
ARC
  5
2D4
330
1F
100
AcDbEntity
  8
1
  6
Continuous
 62
     7
370
    30
100
AcDbCircle
 10
503.451608544922
 20
260.3002507765246
 30
0.0
 40
0.6000000238418579
100
AcDbArc
 50
179.9999999999998
 51
228.190031917023
  0
ARC
  5
2D5
330
1F
100
AcDbEntity
  8
1
  6
Continuous
 62
     7
370
    30
100
AcDbCircle
 10
495.8316134277345
 20
260.3002507765246
 30
0.0
 40
0.800000011920929
100
AcDbArc
 50
179.9999999999998
 51
239.9993377902568
  0
ARC
  5
2D6
330
1F
100
AcDbEntity
  8
1
  6
Continuous
 62
     7
370
    30
100
AcDbCircle
 10
495.8316134277345
 20
260.3002507765246
 30
0.0
 40
0.6000000238418579
100
AcDbArc
 50
131.8110541431199
 51
179.9999999999998
  0
ARC
  5
2D7
330
1F
100
AcDbEntity
  8
1
  6
Continuous
 62
     7
370
    30
100
AcDbCircle
 10
495.8316134277345
 20
260.3002507765246
 30
0.0
 40
0.6000000238418579
100
AcDbArc
 50
179.9999999999998
 51
228.1889458568797
  0
ARC
  5
2D8
330
1F
100
AcDbEntity
  8
1
  6
Continuous
 62
     7
370
    30
100
AcDbCircle
 10
499.6416109863282
 20
260.3002507765246
 30
0.0
 40
0.800000011920929
100
AcDbArc
 50
299.9997157909814
 51
60.00055741380111
  0
CIRCLE
  5
2D9
330
1F
100
AcDbEntity
  8
1
  6
Continuous
 62
     7
370
    30
100
AcDbCircle
 10
496.1316012207032
 20
266.3002507765246
 30
0.0
 40
0.800000011920929
  0
ARC
  5
2DA
330
1F
100
AcDbEntity
  8
1
  6
Continuous
 62
     7
370
    30
100
AcDbCircle
 10
499.6416109863282
 20
260.3002507765246
 30
0.0
 40
0.6000000238418579
100
AcDbArc
 50
311.8099680829924
 51
48.19003191700723
  0
ARC
  5
2DB
330
1F
100
AcDbEntity
  8
1
  6
Continuous
 62
     7
370
    30
100
AcDbCircle
 10
499.6416109863282
 20
260.3002507765246
 30
0.0
 40
0.800000011920929
100
AcDbArc
 50
120.0003889997568
 51
179.9999999999998
  0
CIRCLE
  5
2DC
330
1F
100
AcDbEntity
  8
1
  6
Continuous
 62
     7
370
    30
100
AcDbCircle
 10
496.1316012207032
 20
266.3002507765246
 30
0.0
 40
1.5
  0
CIRCLE
  5
2DD
330
1F
100
AcDbEntity
  8
1
  6
Continuous
 62
     7
370
    30
100
AcDbCircle
 10
503.7516115966798
 20
266.3002507765246
 30
0.0
 40
1.5
  0
ARC
  5
2DE
330
1F
100
AcDbEntity
  8
1
  6
Continuous
 62
     7
370
    30
100
AcDbCircle
 10
499.6416109863282
 20
260.3002507765246
 30
0.0
 40
0.6000000238418579
100
AcDbArc
 50
131.8110541431199
 51
179.9999999999998
  0
ARC
  5
2DF
330
1F
100
AcDbEntity
  8
1
  6
Continuous
 62
     7
370
    30
100
AcDbCircle
 10
499.6416109863282
 20
260.3002507765246
 30
0.0
 40
0.6000000238418579
100
AcDbArc
 50
179.9999999999998
 51
228.1889458568797
  0
ARC
  5
2E0
330
1F
100
AcDbEntity
  8
1
  6
Continuous
 62
     7
370
    30
100
AcDbCircle
 10
499.6416109863282
 20
260.3002507765246
 30
0.0
 40
0.800000011920929
100
AcDbArc
 50
179.9999999999998
 51
239.9993377902428
  0
CIRCLE
  5
2E1
330
1F
100
AcDbEntity
  8
1
  6
Continuous
 62
     7
370
    30
100
AcDbCircle
 10
499.941614038086
 20
266.3002507765246
 30
0.0
 40
1.5
  0
CIRCLE
  5
2E2
330
1F
100
AcDbEntity
  8
1
  6
Continuous
 62
     7
370
    30
100
AcDbCircle
 10
499.941614038086
 20
266.3002507765246
 30
0.0
 40
0.800000011920929
  0
CIRCLE
  5
2E3
330
1F
100
AcDbEntity
  8
1
  6
HIDDEN
 62
     7
370
    30
100
AcDbCircle
 10
487.7766054931641
 20
267.3037679274036
 30
0.0
 40
0.5
  0
CIRCLE
  5
2E4
330
1F
100
AcDbEntity
  8
1
  6
HIDDEN
 62
     7
370
    30
100
AcDbCircle
 10
487.7766054931641
 20
264.7637670118762
 30
0.0
 40
0.5
  0
CIRCLE
  5
2E5
330
1F
100
AcDbEntity
  8
1
  6
HIDDEN
 62
     7
370
    30
100
AcDbCircle
 10
487.7766054931641
 20
262.2237660963489
 30
0.0
 40
0.5
  0
ARC
  5
2E6
330
1F
100
AcDbEntity
  8
1
  6
Continuous
 62
     7
370
    30
100
AcDbCircle
 10
507.2616061035157
 20
260.3002507765246
 30
0.0
 40
0.6000000238418579
100
AcDbArc
 50
131.8099680829928
 51
179.9999999999998
  0
CIRCLE
  5
2E7
330
1F
100
AcDbEntity
  8
1
  6
Continuous
 62
     7
370
    30
100
AcDbCircle
 10
515.1816042724611
 20
266.3002507765246
 30
0.0
 40
1.5
  0
CIRCLE
  5
2E8
330
1F
100
AcDbEntity
  8
1
  6
Continuous
 62
     7
370
    30
100
AcDbCircle
 10
515.1816042724611
 20
266.3002507765246
 30
0.0
 40
0.800000011920929
  0
ARC
  5
2E9
330
1F
100
AcDbEntity
  8
1
  6
Continuous
 62
     7
370
    30
100
AcDbCircle
 10
514.8816012207033
 20
260.3002507765246
 30
0.0
 40
0.800000011920929
100
AcDbArc
 50
179.9999999999998
 51
240.0002842090179
  0
ARC
  5
2EA
330
1F
100
AcDbEntity
  8
1
  6
Continuous
 62
     7
370
    30
100
AcDbCircle
 10
514.8816012207033
 20
260.3002507765246
 30
0.0
 40
0.6000000238418579
100
AcDbArc
 50
179.9999999999998
 51
228.1900319170069
  0
ARC
  5
2EB
330
1F
100
AcDbEntity
  8
1
  6
Continuous
 62
     7
370
    30
100
AcDbCircle
 10
514.8816012207033
 20
260.3002507765246
 30
0.0
 40
0.6000000238418579
100
AcDbArc
 50
131.8099680829928
 51
179.9999999999998
  0
ARC
  5
2EC
330
1F
100
AcDbEntity
  8
1
  6
Continuous
 62
     7
370
    30
100
AcDbCircle
 10
514.8816012207033
 20
260.3002507765246
 30
0.0
 40
0.800000011920929
100
AcDbArc
 50
119.9994425861989
 51
179.9999999999998
  0
CIRCLE
  5
2ED
330
1F
100
AcDbEntity
  8
1
  6
Continuous
 62
     7
370
    30
100
AcDbCircle
 10
511.3716067138673
 20
266.3002507765246
 30
0.0
 40
1.5
  0
ARC
  5
2EE
330
1F
100
AcDbEntity
  8
1
  6
Continuous
 62
     7
370
    30
100
AcDbCircle
 10
514.8816012207033
 20
260.3002507765246
 30
0.0
 40
0.6000000238418579
100
AcDbArc
 50
311.8110541431196
 51
48.18894585688007
  0
ARC
  5
2EF
330
1F
100
AcDbEntity
  8
1
  6
Continuous
 62
     7
370
    30
100
AcDbCircle
 10
514.8816012207033
 20
260.3002507765246
 30
0.0
 40
0.800000011920929
100
AcDbArc
 50
300.0006622097565
 51
59.99961100024322
  0
CIRCLE
  5
2F0
330
1F
100
AcDbEntity
  8
1
  6
Continuous
 62
     7
370
    30
100
AcDbCircle
 10
511.3716067138673
 20
266.3002507765246
 30
0.0
 40
0.800000011920929
  0
ARC
  5
2F1
330
1F
100
AcDbEntity
  8
1
  6
Continuous
 62
     7
370
    30
100
AcDbCircle
 10
511.0716036621095
 20
260.3002507765246
 30
0.0
 40
0.800000011920929
100
AcDbArc
 50
179.9999999999998
 51
240.0002842090179
  0
ARC
  5
2F2
330
1F
100
AcDbEntity
  8
1
  6
Continuous
 62
     7
370
    30
100
AcDbCircle
 10
511.0716036621095
 20
260.3002507765246
 30
0.0
 40
0.6000000238418579
100
AcDbArc
 50
179.9999999999998
 51
228.190031917023
  0
ARC
  5
2F3
330
1F
100
AcDbEntity
  8
1
  6
Continuous
 62
     7
370
    30
100
AcDbCircle
 10
511.0716036621095
 20
260.3002507765246
 30
0.0
 40
0.6000000238418579
100
AcDbArc
 50
131.8099680829766
 51
179.9999999999998
  0
ARC
  5
2F4
330
1F
100
AcDbEntity
  8
1
  6
Continuous
 62
     7
370
    30
100
AcDbCircle
 10
511.0716036621095
 20
260.3002507765246
 30
0.0
 40
0.800000011920929
100
AcDbArc
 50
119.9994425861989
 51
179.9999999999998
  0
ARC
  5
2F5
330
1F
100
AcDbEntity
  8
1
  6
Continuous
 62
     7
370
    30
100
AcDbCircle
 10
511.0716036621095
 20
260.3002507765246
 30
0.0
 40
0.6000000238418579
100
AcDbArc
 50
311.8110541431357
 51
48.1889458568639
  0
ARC
  5
2F6
330
1F
100
AcDbEntity
  8
1
  6
Continuous
 62
     7
370
    30
100
AcDbCircle
 10
511.0716036621095
 20
260.3002507765246
 30
0.0
 40
0.800000011920929
100
AcDbArc
 50
300.0006622097565
 51
59.99961100022911
  0
CIRCLE
  5
2F7
330
1F
100
AcDbEntity
  8
1
  6
Continuous
 62
     7
370
    30
100
AcDbCircle
 10
507.5616091552735
 20
266.3002507765246
 30
0.0
 40
0.800000011920929
  0
ARC
  5
2F8
330
1F
100
AcDbEntity
  8
1
  6
Continuous
 62
     7
370
    30
100
AcDbCircle
 10
503.451608544922
 20
260.3002507765246
 30
0.0
 40
0.800000011920929
100
AcDbArc
 50
119.9994425861989
 51
179.9999999999998
  0
ARC
  5
2F9
330
1F
100
AcDbEntity
  8
1
  6
Continuous
 62
     7
370
    30
100
AcDbCircle
 10
503.451608544922
 20
260.3002507765246
 30
0.0
 40
0.6000000238418579
100
AcDbArc
 50
311.8099680829924
 51
48.19003191700723
  0
CIRCLE
  5
2FA
330
1F
100
AcDbEntity
  8
1
  6
Continuous
 62
     7
370
    30
100
AcDbCircle
 10
503.7516115966798
 20
266.3002507765246
 30
0.0
 40
0.800000011920929
  0
ARC
  5
2FB
330
1F
100
AcDbEntity
  8
1
  6
Continuous
 62
     7
370
    30
100
AcDbCircle
 10
495.8316134277345
 20
260.3002507765246
 30
0.0
 40
0.800000011920929
100
AcDbArc
 50
299.9997157909814
 51
60.00055741378701
  0
ARC
  5
2FC
330
1F
100
AcDbEntity
  8
1
  6
Continuous
 62
     7
370
    30
100
AcDbCircle
 10
495.8316134277345
 20
260.3002507765246
 30
0.0
 40
0.6000000238418579
100
AcDbArc
 50
311.8099680829924
 51
48.19003191700723
  0
CIRCLE
  5
2FD
330
1F
100
AcDbEntity
  8
1
  6
HIDDEN
 62
     7
370
    30
100
AcDbCircle
 10
487.7766054931641
 20
259.6837651808215
 30
0.0
 40
0.5
  0
ARC
  5
2FE
330
1F
100
AcDbEntity
  8
1
  6
Continuous
 62
     7
370
    30
100
AcDbCircle
 10
507.2616061035157
 20
260.3002507765246
 30
0.0
 40
0.800000011920929
100
AcDbArc
 50
179.9999999999998
 51
240.0002842090179
  0
ARC
  5
2FF
330
1F
100
AcDbEntity
  8
1
  6
Continuous
 62
     7
370
    30
100
AcDbCircle
 10
507.2616061035157
 20
260.3002507765246
 30
0.0
 40
0.6000000238418579
100
AcDbArc
 50
179.9999999999998
 51
228.1900319170069
  0
ARC
  5
300
330
1F
100
AcDbEntity
  8
1
  6
Continuous
 62
     7
370
    30
100
AcDbCircle
 10
507.2616061035157
 20
260.3002507765246
 30
0.0
 40
0.800000011920929
100
AcDbArc
 50
119.9994425861989
 51
179.9999999999998
  0
ARC
  5
301
330
1F
100
AcDbEntity
  8
1
  6
Continuous
 62
     7
370
    30
100
AcDbCircle
 10
507.2616061035157
 20
260.3002507765246
 30
0.0
 40
0.6000000238418579
100
AcDbArc
 50
311.8099680829924
 51
48.19003191700723
  0
CIRCLE
  5
302
330
1F
100
AcDbEntity
  8
1
  6
Continuous
 62
     7
370
    30
100
AcDbCircle
 10
507.5616091552735
 20
266.3002507765246
 30
0.0
 40
1.5
  0
ARC
  5
303
330
1F
100
AcDbEntity
  8
1
  6
Continuous
 62
     7
370
    30
100
AcDbCircle
 10
503.451608544922
 20
260.3002507765246
 30
0.0
 40
0.800000011920929
100
AcDbArc
 50
299.9997157909814
 51
60.00055741378701
  0
ARC
  5
304
330
1F
100
AcDbEntity
  8
1
  6
Continuous
 62
     7
370
    30
100
AcDbCircle
 10
503.451608544922
 20
260.3002507765246
 30
0.0
 40
0.800000011920929
100
AcDbArc
 50
179.9999999999998
 51
240.0002842090179
  0
ARC
  5
305
330
1F
100
AcDbEntity
  8
1
  6
Continuous
 62
     7
370
    30
100
AcDbCircle
 10
495.8316134277345
 20
260.3002507765246
 30
0.0
 40
0.800000011920929
100
AcDbArc
 50
120.0003889997568
 51
179.9999999999998
  0
ARC
  5
306
330
1F
100
AcDbEntity
  8
1
  6
Continuous
 62
     7
370
    30
100
AcDbCircle
 10
507.2616061035157
 20
260.3002507765246
 30
0.0
 40
0.800000011920929
100
AcDbArc
 50
299.9997157909814
 51
60.00055741380111
  0
ARC
  5
307
330
1F
100
AcDbEntity
  8
1
  6
Continuous
 62
     7
370
    30
100
AcDbCircle
 10
503.451608544922
 20
260.3002507765246
 30
0.0
 40
0.6000000238418579
100
AcDbArc
 50
131.8099680829766
 51
179.9999999999998
  0
CIRCLE
  5
308
330
1F
100
AcDbEntity
  8
1
  6
Continuous
 62
     7
370
    30
100
AcDbCircle
 10
474.0866030517579
 20
265.0002553541614
 30
0.0
 40
2.0
  0
ARC
  5
309
330
1F
100
AcDbEntity
  8
1
  6
Continuous
 62
     7
370
    30
100
AcDbCircle
 10
450.6866091552735
 20
256.6002538282825
 30
0.0
 40
0.6000000238418579
100
AcDbArc
 50
179.9999999999998
 51
269.9999999999998
  0
ARC
  5
30A
330
1F
100
AcDbEntity
  8
1
  6
Continuous
 62
     7
370
    30
100
AcDbCircle
 10
481.4866122070313
 20
256.6002538282825
 30
0.0
 40
0.6000000238418579
100
AcDbArc
 50
269.9999999999998
 51
0.0
  0
ARC
  5
30B
330
1F
100
AcDbEntity
  8
1
  6
Continuous
 62
     7
370
    30
100
AcDbCircle
 10
450.6866091552735
 20
268.4002492506457
 30
0.0
 40
0.6000000238418579
100
AcDbArc
 50
89.99999999999991
 51
179.9999999999998
  0
ARC
  5
30C
330
1F
100
AcDbEntity
  8
1
  6
Continuous
 62
     7
370
    30
100
AcDbCircle
 10
481.4866122070313
 20
268.4002492506457
 30
0.0
 40
0.6000000238418579
100
AcDbArc
 50
0.0
 51
89.99999999999991
  0
ARC
  5
30D
330
1F
100
AcDbEntity
  8
1
  6
Continuous
 62
     7
370
    30
100
AcDbCircle
 10
450.6866091552735
 20
268.4002492506457
 30
0.0
 40
0.3499999940395355
100
AcDbArc
 50
89.99999999999991
 51
179.9999999999998
  0
ARC
  5
30E
330
1F
100
AcDbEntity
  8
1
  6
Continuous
 62
     7
370
    30
100
AcDbCircle
 10
481.4866122070313
 20
268.4002492506457
 30
0.0
 40
0.3499999940395355
100
AcDbArc
 50
0.0
 51
89.99999999999991
  0
ARC
  5
30F
330
1F
100
AcDbEntity
  8
1
  6
Continuous
 62
     7
370
    30
100
AcDbCircle
 10
481.4866122070313
 20
256.6002538282825
 30
0.0
 40
0.3499999940395355
100
AcDbArc
 50
269.9999999999998
 51
0.0
  0
ARC
  5
310
330
1F
100
AcDbEntity
  8
1
  6
Continuous
 62
     7
370
    30
100
AcDbCircle
 10
450.6866091552735
 20
256.6002538282825
 30
0.0
 40
0.3499999940395355
100
AcDbArc
 50
179.9999999999998
 51
269.9999999999998
  0
ARC
  5
311
330
1F
100
AcDbEntity
  8
1
  6
Continuous
 62
     7
370
    30
100
AcDbCircle
 10
458.1866091552735
 20
264.6002538282825
 30
0.0
 40
0.6000000238418579
100
AcDbArc
 50
179.9999999999998
 51
269.9999999999998
  0
ARC
  5
312
330
1F
100
AcDbEntity
  8
1
  6
Continuous
 62
     7
370
    30
100
AcDbCircle
 10
452.0866106811524
 20
267.0002553541614
 30
0.0
 40
1.5
100
AcDbArc
 50
89.99999999999991
 51
179.9999999999998
  0
ARC
  5
313
330
1F
100
AcDbEntity
  8
1
  6
Continuous
 62
     7
370
    30
100
AcDbCircle
 10
456.0866106811524
 20
267.0002553541614
 30
0.0
 40
1.5
100
AcDbArc
 50
0.0
 51
89.99999999999991
  0
ARC
  5
314
330
1F
100
AcDbEntity
  8
1
  6
Continuous
 62
     7
370
    30
100
AcDbCircle
 10
452.0866106811524
 20
263.0002553541614
 30
0.0
 40
1.5
100
AcDbArc
 50
179.9999999999998
 51
269.9999999999998
  0
ARC
  5
315
330
1F
100
AcDbEntity
  8
1
  6
Continuous
 62
     7
370
    30
100
AcDbCircle
 10
462.0866030517579
 20
267.0002553541614
 30
0.0
 40
1.5
100
AcDbArc
 50
89.99999999999991
 51
179.9999999999998
  0
ARC
  5
316
330
1F
100
AcDbEntity
  8
1
  6
Continuous
 62
     7
370
    30
100
AcDbCircle
 10
466.0866030517579
 20
267.0002553541614
 30
0.0
 40
1.5
100
AcDbArc
 50
0.0
 51
89.99999999999991
  0
ARC
  5
317
330
1F
100
AcDbEntity
  8
1
  6
Continuous
 62
     7
370
    30
100
AcDbCircle
 10
472.0866030517579
 20
267.0002553541614
 30
0.0
 40
1.5
100
AcDbArc
 50
89.99999999999991
 51
179.9999999999998
  0
ARC
  5
318
330
1F
100
AcDbEntity
  8
1
  6
Continuous
 62
     7
370
    30
100
AcDbCircle
 10
476.0866030517579
 20
267.0002553541614
 30
0.0
 40
1.5
100
AcDbArc
 50
0.0
 51
89.99999999999991
  0
ARC
  5
319
330
1F
100
AcDbEntity
  8
1
  6
Continuous
 62
     7
370
    30
100
AcDbCircle
 10
480.7866000000001
 20
257.9002492506457
 30
0.0
 40
0.6000000238418579
100
AcDbArc
 50
269.9999999999998
 51
0.0
  0
ARC
  5
31A
330
1F
100
AcDbEntity
  8
1
  6
Continuous
 62
     7
370
    30
100
AcDbCircle
 10
480.7866000000001
 20
263.4002492506457
 30
0.0
 40
0.6000000238418579
100
AcDbArc
 50
0.0
 51
89.99999999999991
  0
ARC
  5
31B
330
1F
100
AcDbEntity
  8
1
  6
Continuous
 62
     7
370
    30
100
AcDbCircle
 10
459.9866122070313
 20
264.6002538282825
 30
0.0
 40
0.6000000238418579
100
AcDbArc
 50
269.9999999999998
 51
0.0
  0
ARC
  5
31C
330
1F
100
AcDbEntity
  8
1
  6
Continuous
 62
     7
370
    30
100
AcDbCircle
 10
468.3866061035157
 20
260.5002553541614
 30
0.0
 40
1.700000047683716
100
AcDbArc
 50
44.90072460377144
 51
135.0992753962286
  0
ARC
  5
31D
330
1F
100
AcDbEntity
  8
1
  6
Continuous
 62
     7
370
    30
100
AcDbCircle
 10
468.1866091552735
 20
264.6002538282825
 30
0.0
 40
0.6000000238418579
100
AcDbArc
 50
179.9999999999998
 51
269.9999999999998
  0
ARC
  5
31E
330
1F
100
AcDbEntity
  8
1
  6
Continuous
 62
     7
370
    30
100
AcDbCircle
 10
469.9866122070313
 20
264.6002538282825
 30
0.0
 40
0.6000000238418579
100
AcDbArc
 50
269.9999999999998
 51
0.0
  0
ARC
  5
31F
330
1F
100
AcDbEntity
  8
1
  6
Continuous
 62
     7
370
    30
100
AcDbCircle
 10
478.1866091552735
 20
264.6002538282825
 30
0.0
 40
0.6000000238418579
100
AcDbArc
 50
179.9999999999998
 51
269.9999999999998
  0
ARC
  5
320
330
1F
100
AcDbEntity
  8
1
  6
Continuous
 62
     7
370
    30
100
AcDbCircle
 10
468.3866061035157
 20
260.5002553541614
 30
0.0
 40
1.700000047683716
100
AcDbArc
 50
224.9009067409496
 51
315.0990932590551
  0
ARC
  5
321
330
1F
100
AcDbEntity
  8
1
  6
Continuous
 62
     7
370
    30
100
AcDbCircle
 10
468.3866061035157
 20
260.5002553541614
 30
0.0
 40
3.700000047683716
100
AcDbArc
 50
239.8672559927764
 51
300.1327440072228
  0
ARC
  5
322
330
1F
100
AcDbEntity
  8
1
  6
Continuous
 62
     7
370
    30
100
AcDbCircle
 10
532.4866122070314
 20
248.5002553541614
 30
0.0
 40
0.5
100
AcDbArc
 50
89.99999999999991
 51
179.9999999999998
  0
ARC
  5
323
330
1F
100
AcDbEntity
  8
1
  6
Continuous
 62
     7
370
    30
100
AcDbCircle
 10
534.586618310547
 20
234.1002576429797
 30
0.0
 40
2.069999933242798
100
AcDbArc
 50
269.9999999999998
 51
0.0
  0
ARC
  5
324
330
1F
100
AcDbEntity
  8
1
  6
Continuous
 62
     7
370
    30
100
AcDbCircle
 10
533.6866091552736
 20
247.8002507765246
 30
0.0
 40
0.2000000029802322
100
AcDbArc
 50
89.99999999999991
 51
179.9999999999998
  0
CIRCLE
  5
325
330
1F
100
AcDbEntity
  8
1
  6
Continuous
 62
     7
370
    30
100
AcDbCircle
 10
506.5866030517579
 20
337.6002538282825
 30
0.0
 40
1.5
  0
ARC
  5
326
330
1F
100
AcDbEntity
  8
1
  6
Continuous
 62
     7
370
    30
100
AcDbCircle
 10
524.0684145751954
 20
341.7002599317981
 30
0.0
 40
0.5
100
AcDbArc
 50
179.9999999999998
 51
0.0
  0
ARC
  5
327
330
1F
100
AcDbEntity
  8
1
  6
Continuous
 62
     7
370
    30
100
AcDbCircle
 10
478.0684145751954
 20
232.5002515394641
 30
0.0
 40
0.5
100
AcDbArc
 50
0.0
 51
179.9999999999998
  0
ARC
  5
328
330
1F
100
AcDbEntity
  8
1
  6
Continuous
 62
     7
370
    30
100
AcDbCircle
 10
434.6866015258791
 20
248.5002553541614
 30
0.0
 40
0.5
100
AcDbArc
 50
0.0
 51
89.99999999999991
  0
ARC
  5
329
330
1F
100
AcDbEntity
  8
1
  6
Continuous
 62
     7
370
    30
100
AcDbCircle
 10
443.1047991577149
 20
232.5002515394641
 30
0.0
 40
0.5
100
AcDbArc
 50
0.0
 51
179.9999999999998
  0
ARC
  5
32A
330
1F
100
AcDbEntity
  8
1
  6
Continuous
 62
     7
370
    30
100
AcDbCircle
 10
478.0684145751954
 20
341.7002599317981
 30
0.0
 40
0.5
100
AcDbArc
 50
179.9999999999998
 51
0.0
  0
ARC
  5
32B
330
1F
100
AcDbEntity
  8
1
  6
Continuous
 62
     7
370
    30
100
AcDbCircle
 10
534.586618310547
 20
234.1002576429797
 30
0.0
 40
3.869999885559082
100
AcDbArc
 50
270.000000000003
 51
0.0000564770887551
  0
ARC
  5
32C
330
1F
100
AcDbEntity
  8
1
  6
Continuous
 62
     7
370
    30
100
AcDbCircle
 10
432.586603051758
 20
340.1002538282825
 30
0.0
 40
3.869999885559082
100
AcDbArc
 50
89.99999999999991
 51
179.9999999999998
  0
ARC
  5
32D
330
1F
100
AcDbEntity
  8
1
  6
Continuous
 62
     7
370
    30
100
AcDbCircle
 10
534.586618310547
 20
340.1002538282825
 30
0.0
 40
3.869999885559082
100
AcDbArc
 50
0.0
 51
89.99999999999991
  0
ARC
  5
32E
330
1F
100
AcDbEntity
  8
1
  6
Continuous
 62
     7
370
    30
100
AcDbCircle
 10
432.586603051758
 20
234.1002576429797
 30
0.0
 40
3.869999885559082
100
AcDbArc
 50
179.9999999999998
 51
269.9999999999998
  0
ARC
  5
32F
330
1F
100
AcDbEntity
  8
1
  6
Continuous
 62
     7
370
    30
100
AcDbCircle
 10
535.0566195312501
 20
245.5002553541614
 30
0.0
 40
0.5
100
AcDbArc
 50
269.9999999999998
 51
89.99999999999991
  0
ARC
  5
330
330
1F
100
AcDbEntity
  8
1
  6
Continuous
 62
     7
370
    30
100
AcDbCircle
 10
533.6684206787111
 20
326.4002568800403
 30
0.0
 40
0.2000000029802322
100
AcDbArc
 50
179.9999999999998
 51
269.9999999999998
  0
ARC
  5
331
330
1F
100
AcDbEntity
  8
1
  6
Continuous
 62
     7
370
    30
100
AcDbCircle
 10
433.4866045776369
 20
326.4002568800403
 30
0.0
 40
0.2000000029802322
100
AcDbArc
 50
269.9999999999998
 51
0.0
  0
ARC
  5
332
330
1F
100
AcDbEntity
  8
1
  6
Continuous
 62
     7
370
    30
100
AcDbCircle
 10
432.586603051758
 20
340.1002538282825
 30
0.0
 40
7.0
100
AcDbArc
 50
89.99999999999991
 51
179.9999999999998
  0
ARC
  5
333
330
1F
100
AcDbEntity
  8
1
  6
Continuous
 62
     7
370
    30
100
AcDbCircle
 10
432.586603051758
 20
234.1002576429797
 30
0.0
 40
7.0
100
AcDbArc
 50
179.9999999999998
 51
269.9999999999998
  0
ARC
  5
334
330
1F
100
AcDbEntity
  8
1
  6
Continuous
 62
     7
370
    30
100
AcDbCircle
 10
534.586618310547
 20
234.1002576429797
 30
0.0
 40
7.0
100
AcDbArc
 50
270.0000000000015
 51
0.0000312237219201
  0
ARC
  5
335
330
1F
100
AcDbEntity
  8
1
  6
Continuous
 62
     7
370
    30
100
AcDbCircle
 10
534.586618310547
 20
340.1002538282825
 30
0.0
 40
7.0
100
AcDbArc
 50
0.0
 51
89.99999999999991
  0
ARC
  5
336
330
1F
100
AcDbEntity
  8
1
  6
Continuous
 62
     7
370
    30
100
AcDbCircle
 10
432.586603051758
 20
340.1002538282825
 30
0.0
 40
2.069999933242798
100
AcDbArc
 50
90.26798203575801
 51
179.9999999999998
  0
ARC
  5
337
330
1F
100
AcDbEntity
  8
1
  6
Continuous
 62
     7
370
    30
100
AcDbCircle
 10
489.1047915283204
 20
232.5002515394641
 30
0.0
 40
0.5
100
AcDbArc
 50
0.0
 51
179.9999999999998
  0
ARC
  5
338
330
1F
100
AcDbEntity
  8
1
  6
Continuous
 62
     7
370
    30
100
AcDbCircle
 10
489.1047915283204
 20
341.7002599317981
 30
0.0
 40
0.5
100
AcDbArc
 50
179.9999999999998
 51
0.0
  0
ARC
  5
339
330
1F
100
AcDbEntity
  8
1
  6
Continuous
 62
     7
370
    30
100
AcDbCircle
 10
535.0384310546876
 20
328.7002599317981
 30
0.0
 40
0.5
100
AcDbArc
 50
269.9999999999998
 51
89.99999999999991
  0
ARC
  5
33A
330
1F
100
AcDbEntity
  8
1
  6
Continuous
 62
     7
370
    30
100
AcDbCircle
 10
432.1166018310549
 20
328.7002599317981
 30
0.0
 40
0.5
100
AcDbArc
 50
89.99999999999991
 51
269.9999999999998
  0
ARC
  5
33B
330
1F
100
AcDbEntity
  8
1
  6
Continuous
 62
     7
370
    30
100
AcDbCircle
 10
434.6866015258791
 20
325.7002599317981
 30
0.0
 40
0.5
100
AcDbArc
 50
269.9999999999998
 51
0.0
  0
ARC
  5
33C
330
1F
100
AcDbEntity
  8
1
  6
Continuous
 62
     7
370
    30
100
AcDbCircle
 10
524.0684145751954
 20
232.5002515394641
 30
0.0
 40
0.5
100
AcDbArc
 50
0.0
 51
179.9999999999998
  0
ARC
  5
33D
330
1F
100
AcDbEntity
  8
1
  6
Continuous
 62
     7
370
    30
100
AcDbCircle
 10
433.4866045776369
 20
247.8002507765246
 30
0.0
 40
0.2000000029802322
100
AcDbArc
 50
0.0
 51
89.99999999999991
  0
ARC
  5
33E
330
1F
100
AcDbEntity
  8
1
  6
Continuous
 62
     7
370
    30
100
AcDbCircle
 10
432.586603051758
 20
234.1002576429797
 30
0.0
 40
2.069999933242798
100
AcDbArc
 50
179.9999999999998
 51
269.9999999999998
  0
ARC
  5
33F
330
1F
100
AcDbEntity
  8
1
  6
Continuous
 62
     7
370
    30
100
AcDbCircle
 10
534.5684298339845
 20
340.1002538282825
 30
0.0
 40
2.069999933242798
100
AcDbArc
 50
0.0
 51
89.73222913691858
  0
ARC
  5
340
330
1F
100
AcDbEntity
  8
1
  6
Continuous
 62
     7
370
    30
100
AcDbCircle
 10
443.1047991577149
 20
341.7002599317981
 30
0.0
 40
0.5
100
AcDbArc
 50
179.9999999999998
 51
0.0
  0
CIRCLE
  5
341
330
1F
100
AcDbEntity
  8
1
  6
Continuous
 62
     7
370
    30
100
AcDbCircle
 10
460.5866030517579
 20
337.6002538282825
 30
0.0
 40
1.5
  0
ARC
  5
342
330
1F
100
AcDbEntity
  8
1
  6
Continuous
 62
     7
370
    30
100
AcDbCircle
 10
432.1166018310549
 20
245.5002553541614
 30
0.0
 40
0.5
100
AcDbArc
 50
89.99999999999991
 51
269.9999999999998
  0
CIRCLE
  5
343
330
1F
100
AcDbEntity
  8
1
  6
Continuous
 62
     7
370
    30
100
AcDbCircle
 10
506.5866030517579
 20
236.6002538282825
 30
0.0
 40
1.5
  0
ARC
  5
344
330
1F
100
AcDbEntity
  8
1
  6
Continuous
 62
     7
370
    30
100
AcDbCircle
 10
532.4684237304689
 20
325.7002599317981
 30
0.0
 40
0.5
100
AcDbArc
 50
179.9999999999998
 51
269.9999999999998
  0
ARC
  5
345
330
1F
100
AcDbEntity
  8
1
  6
Continuous
 62
     7
370
    30
100
AcDbCircle
 10
450.0370425048829
 20
257.8117559034778
 30
0.0
 40
0.699999988079071
100
AcDbArc
 50
274.0606122752744
 51
85.9393877247253
  0
LINE
  5
346
330
1F
100
AcDbEntity
  8
1
  6
Continuous
 62
     7
370
     9
100
AcDbLine
 10
457.9949128505163
 20
337.6002538282825
 30
0.0
 11
463.1350128505163
 21
337.6002538282825
 31
0.0
  0
LINE
  5
347
330
1F
100
AcDbEntity
  8
1
  6
Continuous
 62
     7
370
     9
100
AcDbLine
 10
460.5866106811524
 20
340.1025609902451
 30
0.0
 11
460.5866106811524
 21
335.1788609902452
 31
0.0
  0
LINE
  5
348
330
1F
100
AcDbEntity
  8
1
  6
Continuous
 62
     7
370
     9
100
AcDbLine
 10
504.2020128505163
 20
337.6002538282825
 30
0.0
 11
508.9093128505163
 21
337.6002538282825
 31
0.0
  0
LINE
  5
349
330
1F
100
AcDbEntity
  8
1
  6
Continuous
 62
     7
370
     9
100
AcDbLine
 10
506.5866106811524
 20
339.8320609902452
 30
0.0
 11
506.5866106811524
 21
335.3952609902451
 31
0.0
  0
LINE
  5
34A
330
1F
100
AcDbEntity
  8
1
  6
Continuous
 62
     7
370
     9
100
AcDbLine
 10
506.5866106811522
 20
239.0312609902452
 30
0.0
 11
506.5866106811524
 21
234.2698609902451
 31
0.0
  0
LINE
  5
34B
330
1F
100
AcDbEntity
  8
1
  6
Continuous
 62
     7
370
     9
100
AcDbLine
 10
504.2020127437048
 20
236.6003489023187
 30
0.0
 11
509.1257130763464
 21
236.6003596351347
 31
0.0
  0
LINE
  5
34C
330
1F
100
AcDbEntity
  8
1
  6
Continuous
 62
     7
370
    30
100
AcDbLine
 10
457.5866030517579
 20
261.5002553541614
 30
0.0
 11
462.4740031404456
 21
261.5002553541614
 31
0.0
  0
LINE
  5
34D
330
1F
100
AcDbEntity
  8
1
  6
Continuous
 62
     7
370
    30
100
AcDbLine
 10
465.224002976533
 20
261.5002553541614
 30
0.0
 11
479.1866091552735
 21
261.5002553541614
 31
0.0
  0
LINE
  5
34E
330
1F
100
AcDbEntity
  8
1
  6
Continuous
 62
     7
370
    30
100
AcDbLine
 10
457.3866061035157
 20
261.7002523024036
 30
0.0
 11
462.5098670906424
 21
261.7002523024036
 31
0.0
  0
LINE
  5
34F
330
1F
100
AcDbEntity
  8
1
  6
Continuous
 62
     7
370
    30
100
AcDbLine
 10
465.2866030994416
 20
261.7002523024036
 30
0.0
 11
479.3866061035157
 21
261.7002523024036
 31
0.0
  0
LINE
  5
350
330
1F
100
AcDbEntity
  8
1
  6
Continuous
 62
     7
370
    30
100
AcDbLine
 10
457.5866030517579
 20
259.5002553541614
 30
0.0
 11
462.1153581659894
 21
259.5002553541614
 31
0.0
  0
LINE
  5
351
330
1F
100
AcDbEntity
  8
1
  6
Continuous
 62
     7
370
    30
100
AcDbLine
 10
464.8653580020768
 20
259.5002553541614
 30
0.0
 11
479.1866091552735
 21
259.5002553541614
 31
0.0
  0
LINE
  5
352
330
1F
100
AcDbEntity
  8
1
  6
Continuous
 62
     7
370
    30
100
AcDbLine
 10
457.3866061035157
 20
259.3002507765246
 30
0.0
 11
462.0794928476707
 21
259.3002507765246
 31
0.0
  0
LINE
  5
353
330
1F
100
AcDbEntity
  8
1
  6
Continuous
 62
     7
370
    30
100
AcDbLine
 10
464.8294926837579
 20
259.3002507765246
 30
0.0
 11
479.3866061035157
 21
259.3002507765246
 31
0.0
  0
LINE
  5
354
330
1F
100
AcDbEntity
  8
1
  6
Continuous
 62
     7
370
    30
100
AcDbLine
 10
464.4708477093017
 20
257.3002507765246
 30
0.0
 11
466.5291842285157
 21
257.3002507765246
 31
0.0
  0
LINE
  5
355
330
1F
100
AcDbEntity
  8
1
  6
Continuous
 62
     7
370
    30
100
AcDbLine
 10
464.2825599185855
 20
256.2502553541614
 30
0.0
 11
481.4866122070313
 21
256.2502553541614
 31
0.0
  0
LINE
  5
356
330
1F
100
AcDbEntity
  8
1
  6
Continuous
 62
     7
370
    30
100
AcDbLine
 10
464.2377292967785
 20
256.0002553541614
 30
0.0
 11
482.0866030517579
 21
256.0002553541614
 31
0.0
  0
LINE
  5
357
330
1F
100
AcDbEntity
  8
1
  6
Continuous
 62
     7
370
    30
100
AcDbLine
 10
483.1766146484376
 20
255.5002553541614
 30
0.0
 11
464.1480680531644
 21
255.5002553541614
 31
0.0
  0
LINE
  5
358
330
1F
100
AcDbEntity
  8
1
  6
Continuous
 62
     7
370
    30
100
AcDbLine
 10
463.6280325665785
 20
252.6002538282825
 30
0.0
 11
522.586603051758
 21
252.6002538282825
 31
0.0
  0
LINE
  5
359
330
1F
100
AcDbEntity
  8
1
  6
Continuous
 62
     7
370
    30
100
AcDbLine
 10
452.0866106811524
 20
261.5002553541614
 30
0.0
 11
452.9543206883258
 21
261.5002553541614
 31
0.0
  0
LINE
  5
35A
330
1F
100
AcDbEntity
  8
1
  6
Continuous
 62
     7
370
    30
100
AcDbLine
 10
456.4736658870527
 20
257.3002507765246
 30
0.0
 11
461.7208478732145
 21
257.3002507765246
 31
0.0
  0
LINE
  5
35B
330
1F
100
AcDbEntity
  8
1
  6
Continuous
 62
     7
370
    30
100
AcDbLine
 10
450.6866091552735
 20
256.2502553541614
 30
0.0
 11
453.9160013434767
 21
256.2502553541614
 31
0.0
  0
LINE
  5
35C
330
1F
100
AcDbEntity
  8
1
  6
Continuous
 62
     7
370
    30
100
AcDbLine
 10
456.6660011795639
 20
256.2502553541614
 30
0.0
 11
461.5325600824983
 21
256.2502553541614
 31
0.0
  0
LINE
  5
35D
330
1F
100
AcDbEntity
  8
1
  6
Continuous
 62
     7
370
    30
100
AcDbLine
 10
456.7117954964759
 20
256.0002553541614
 30
0.0
 11
461.4877294606912
 21
256.0002553541614
 31
0.0
  0
LINE
  5
35E
330
1F
100
AcDbEntity
  8
1
  6
Continuous
 62
     7
370
    30
100
AcDbLine
 10
450.0866106811524
 20
256.0002553541614
 30
0.0
 11
453.9617956603886
 21
256.0002553541614
 31
0.0
  0
LINE
  5
35F
330
1F
100
AcDbEntity
  8
1
  6
Continuous
 62
     7
370
    30
100
AcDbLine
 10
461.3980682170772
 20
255.5002553541614
 30
0.0
 11
456.8033841302998
 21
255.5002553541614
 31
0.0
  0
LINE
  5
360
330
1F
100
AcDbEntity
  8
1
  6
Continuous
 62
     7
370
    30
100
AcDbLine
 10
454.0533842942125
 20
255.5002553541614
 30
0.0
 11
449.5866106811524
 21
255.5002553541614
 31
0.0
  0
LINE
  5
361
330
1F
100
AcDbEntity
  8
1
  6
Continuous
 62
     7
370
    30
100
AcDbLine
 10
444.5866106811524
 20
252.6002538282825
 30
0.0
 11
454.5845986498976
 21
252.6002538282825
 31
0.0
  0
LINE
  5
362
330
1F
100
AcDbEntity
  8
1
  6
Continuous
 62
     7
370
    30
100
AcDbLine
 10
457.3345984859847
 20
252.6002538282825
 30
0.0
 11
460.8780327304913
 21
252.6002538282825
 31
0.0
  0
LINE
  5
363
330
1F
100
AcDbEntity
  8
1
  6
Continuous
 62
     7
370
    30
100
AcDbLine
 10
454.0866106811524
 20
255.5002553541614
 30
0.0
 11
449.5866106811524
 21
255.5002553541614
 31
0.0
  0
LINE
  5
364
330
1F
100
AcDbEntity
  8
1
  6
Continuous
 62
     7
370
    30
100
AcDbLine
 10
477.1866091552735
 20
255.5002553541614
 30
0.0
 11
464.1480680531644
 21
255.5002553541614
 31
0.0
  0
LINE
  5
365
330
1F
100
AcDbEntity
  8
1
  6
Continuous
 62
     7
370
    30
100
AcDbLine
 10
461.3980682170772
 20
255.5002553541614
 30
0.0
 11
456.8033841302998
 21
255.5002553541614
 31
0.0
  0
LINE
  5
366
330
1F
100
AcDbEntity
  8
1
  6
Continuous
 62
     7
370
    30
100
AcDbLine
 10
475.5866030517579
 20
233.5002515394641
 30
0.0
 11
461.8751556790572
 21
233.5002515394641
 31
0.0
  0
LINE
  5
367
330
1F
100
AcDbEntity
  8
1
  6
Continuous
 62
     7
370
    30
100
AcDbLine
 10
456.3751560068827
 20
233.5002515394641
 30
0.0
 11
438.7866076293947
 21
233.5002515394641
 31
0.0
  0
LINE
  5
368
330
1F
100
AcDbEntity
  8
1
  6
Continuous
 62
     7
370
    30
100
AcDbLine
 10
443.6047991577149
 20
233.0002515394641
 30
0.0
 11
456.3751560068827
 21
233.0002515394641
 31
0.0
  0
LINE
  5
369
330
1F
100
AcDbEntity
  8
1
  6
Continuous
 62
     7
370
    30
100
AcDbLine
 10
461.8751556790572
 20
233.0002515394641
 30
0.0
 11
477.5684145751954
 21
233.0002515394641
 31
0.0
  0
LINE
  5
36A
330
1F
100
AcDbEntity
  8
1
  6
Continuous
 62
     7
370
    30
100
AcDbLine
 10
443.6047991577149
 20
232.0002515394641
 30
0.0
 11
456.3751560068827
 21
232.0002515394641
 31
0.0
  0
LINE
  5
36B
330
1F
100
AcDbEntity
  8
1
  6
Continuous
 62
     7
370
    30
100
AcDbLine
 10
461.8751556790572
 20
232.0002515394641
 30
0.0
 11
477.5684145751954
 21
232.0002515394641
 31
0.0
  0
LINE
  5
36C
330
1F
100
AcDbEntity
  8
1
  6
Continuous
 62
     7
370
    30
100
AcDbLine
 10
481.0866030517579
 20
231.230258711095
 30
0.0
 11
461.8751556790572
 21
231.230258711095
 31
0.0
  0
LINE
  5
36D
330
1F
100
AcDbEntity
  8
1
  6
Continuous
 62
     7
370
    30
100
AcDbLine
 10
456.3751560068827
 20
231.230258711095
 30
0.0
 11
435.1866015258791
 21
231.230258711095
 31
0.0
  0
LINE
  5
36E
330
1F
100
AcDbEntity
  8
1
  6
Continuous
 62
     7
370
    30
100
AcDbLine
 10
534.586618310547
 20
230.230258711095
 30
0.0
 11
461.8751556790572
 21
230.230258711095
 31
0.0
  0
LINE
  5
36F
330
1F
100
AcDbEntity
  8
1
  6
Continuous
 62
     7
370
    30
100
AcDbLine
 10
456.3751560068827
 20
230.230258711095
 30
0.0
 11
432.586603051758
 21
230.230258711095
 31
0.0
  0
LINE
  5
370
330
1F
100
AcDbEntity
  8
1
  6
Continuous
 62
     7
370
    30
100
AcDbLine
 10
534.586618310547
 20
227.1002576429797
 30
0.0
 11
461.8751556790572
 21
227.1002576429797
 31
0.0
  0
LINE
  5
371
330
1F
100
AcDbEntity
  8
1
  6
Continuous
 62
     7
370
    30
100
AcDbLine
 10
456.3751560068827
 20
227.1002576429797
 30
0.0
 11
432.586603051758
 21
227.1002576429797
 31
0.0
  0
LINE
  5
372
330
1F
100
AcDbEntity
  8
1
  6
Continuous
 62
     7
370
    30
100
AcDbLine
 10
465.1702056831157
 20
261.2002523024036
 30
0.0
 11
472.3866061035157
 21
261.2002523024036
 31
0.0
  0
LINE
  5
373
330
1F
100
AcDbEntity
  8
1
  6
Continuous
 62
     7
370
    30
100
AcDbLine
 10
464.919153927372
 20
259.8002507765246
 30
0.0
 11
472.3866061035157
 21
259.8002507765246
 31
0.0
  0
ARC
  5
374
330
1F
100
AcDbEntity
  8
1
  6
Continuous
 62
     7
370
    30
100
AcDbCircle
 10
210.6270000000001
 20
331.5755841371479
 30
0.0
 40
1.5
100
AcDbArc
 50
0.0
 51
89.99999999999991
  0
LINE
  5
375
330
1F
100
AcDbEntity
  8
1
  6
Continuous
 62
     7
370
    30
100
AcDbLine
 10
210.6270000000001
 20
333.0755841371479
 30
0.0
 11
123.6269999999998
 21
333.0755841371479
 31
0.0
  0
ARC
  5
376
330
1F
100
AcDbEntity
  8
1
  6
Continuous
 62
     7
370
    30
100
AcDbCircle
 10
123.6269999999998
 20
331.5755841371479
 30
0.0
 40
1.5
100
AcDbArc
 50
89.99999999999991
 51
179.9999999999998
  0
LINE
  5
377
330
1F
100
AcDbEntity
  8
1
  6
Continuous
 62
     7
370
    30
100
AcDbLine
 10
122.1269999999998
 20
331.5755841371479
 30
0.0
 11
122.1269999999998
 21
242.5755841371479
 31
0.0
  0
ARC
  5
378
330
1F
100
AcDbEntity
  8
1
  6
Continuous
 62
     7
370
    30
100
AcDbCircle
 10
123.6269999999998
 20
242.5755841371479
 30
0.0
 40
1.5
100
AcDbArc
 50
179.9999999999998
 51
269.9999999999998
  0
LINE
  5
379
330
1F
100
AcDbEntity
  8
1
  6
Continuous
 62
     7
370
    30
100
AcDbLine
 10
123.6269999999998
 20
241.0755841371479
 30
0.0
 11
210.6270000000001
 21
241.0755841371479
 31
0.0
  0
LINE
  5
37A
330
1F
100
AcDbEntity
  8
1
  6
Continuous
 62
     7
370
    30
100
AcDbLine
 10
212.1270000000001
 20
242.5755841371479
 30
0.0
 11
212.1270000000001
 21
331.5755841371479
 31
0.0
  0
ARC
  5
37B
330
1F
100
AcDbEntity
  8
1
  6
Continuous
 62
     7
370
    30
100
AcDbCircle
 10
210.6270000000001
 20
242.5755841371479
 30
0.0
 40
1.5
100
AcDbArc
 50
269.9999999999998
 51
0.0
  0
ARC
  5
37C
330
1F
100
AcDbEntity
  8
1
  6
Continuous
 62
     7
370
    30
100
AcDbCircle
 10
123.6269999999998
 20
331.5755841371479
 30
0.0
 40
1.0
100
AcDbArc
 50
89.99999999999991
 51
179.9999999999998
  0
LINE
  5
37D
330
1F
100
AcDbEntity
  8
1
  6
Continuous
 62
     7
370
    30
100
AcDbLine
 10
122.6269999999998
 20
331.5755841371479
 30
0.0
 11
122.6269999999998
 21
242.5755841371479
 31
0.0
  0
ARC
  5
37E
330
1F
100
AcDbEntity
  8
1
  6
Continuous
 62
     7
370
    30
100
AcDbCircle
 10
123.6269999999998
 20
242.5755841371479
 30
0.0
 40
1.0
100
AcDbArc
 50
179.9999999999998
 51
269.9999999999998
  0
LINE
  5
37F
330
1F
100
AcDbEntity
  8
1
  6
Continuous
 62
     7
370
    30
100
AcDbLine
 10
123.6269999999998
 20
241.5755841371479
 30
0.0
 11
210.6270000000001
 21
241.5755841371479
 31
0.0
  0
ARC
  5
380
330
1F
100
AcDbEntity
  8
1
  6
Continuous
 62
     7
370
    30
100
AcDbCircle
 10
210.6270000000001
 20
242.5755841371479
 30
0.0
 40
1.0
100
AcDbArc
 50
269.9999999999998
 51
0.0
  0
LINE
  5
381
330
1F
100
AcDbEntity
  8
1
  6
Continuous
 62
     7
370
    30
100
AcDbLine
 10
210.6270000000001
 20
332.5755841371479
 30
0.0
 11
123.6269999999998
 21
332.5755841371479
 31
0.0
  0
LINE
  5
382
330
1F
100
AcDbEntity
  8
1
  6
Continuous
 62
     7
370
    30
100
AcDbLine
 10
211.6270000000001
 20
242.5755841371479
 30
0.0
 11
211.6270000000001
 21
331.5755841371479
 31
0.0
  0
ARC
  5
383
330
1F
100
AcDbEntity
  8
1
  6
Continuous
 62
     7
370
    30
100
AcDbCircle
 10
210.6270000000001
 20
331.5755841371479
 30
0.0
 40
1.0
100
AcDbArc
 50
0.0
 51
89.99999999999991
  0
LINE
  5
384
330
1F
100
AcDbEntity
  8
1
  6
Continuous
 62
     7
370
    30
100
AcDbLine
 10
123.6269999999998
 20
331.5755841371479
 30
0.0
 11
123.6269999999998
 21
242.5755841371479
 31
0.0
  0
LINE
  5
385
330
1F
100
AcDbEntity
  8
1
  6
Continuous
 62
     7
370
    30
100
AcDbLine
 10
123.6269999999998
 20
242.5755841371479
 30
0.0
 11
210.6270000000001
 21
242.5755841371479
 31
0.0
  0
LINE
  5
386
330
1F
100
AcDbEntity
  8
1
  6
Continuous
 62
     7
370
    30
100
AcDbLine
 10
210.6270000000001
 20
242.5755841371479
 30
0.0
 11
210.6270000000001
 21
331.5755841371479
 31
0.0
  0
LINE
  5
387
330
1F
100
AcDbEntity
  8
1
  6
Continuous
 62
     7
370
    30
100
AcDbLine
 10
210.6270000000001
 20
331.5755841371479
 30
0.0
 11
123.6269999999998
 21
331.5755841371479
 31
0.0
  0
MTEXT
  5
388
330
1F
100
AcDbEntity
  8
1
  6
Continuous
 62
     7
370
     9
100
AcDbMText
 10
143.2870562659958
 20
320.0834828263392
 30
0.0
 40
3.0
 41
41.5247912335898
 46
3.0
 71
     7
 72
     1
  1
{\fＭＳ ゴシック|b1;\W0.714286;\T1.266667;LOCK CONTROL UNIT}
 73
     1
 44
1.0
  0
MTEXT
  5
389
330
1F
100
AcDbEntity
  8
1
  6
Continuous
 62
     7
370
     9
100
AcDbMText
 10
143.2350562659957
 20
316.9298468041775
 30
0.0
 40
3.0
 41
14.17704190554025
 46
3.0
 71
     7
 72
     1
  1
{\fＭＳ ゴシック|b1;\W0.714286;\T1.266667;C-3830}
 73
     1
 44
1.0
  0
ARC
  5
38A
330
1F
100
AcDbEntity
  8
1
  6
Continuous
 62
     7
370
    30
100
AcDbCircle
 10
343.1270000000001
 20
272.5755841371479
 30
0.0
 40
1.0
100
AcDbArc
 50
269.9999999999998
 51
0.0
  0
LINE
  5
38B
330
1F
100
AcDbEntity
  8
1
  6
Continuous
 62
     7
370
    30
100
AcDbLine
 10
344.1270000000001
 20
319.1086397119909
 30
0.0
 11
344.1270000000001
 21
272.5755841371479
 31
0.0
  0
ARC
  5
38C
330
1F
100
AcDbEntity
  8
1
  6
Continuous
 62
     7
370
    30
100
AcDbCircle
 10
342.1270000000001
 20
319.1086397119907
 30
0.0
 40
2.0
100
AcDbArc
 50
0.0000000000065138
 51
89.04515874612564
  0
LINE
  5
38D
330
1F
100
AcDbEntity
  8
1
  6
Continuous
 62
     7
370
    30
100
AcDbLine
 10
343.1270000000001
 20
271.5755841371479
 30
0.0
 11
330.6270000000001
 21
271.5755841371479
 31
0.0
  0
ARC
  5
38E
330
1F
100
AcDbEntity
  8
1
  6
Continuous
 62
     7
370
    30
100
AcDbCircle
 10
330.6270000000001
 20
271.0755841371479
 30
0.0
 40
0.5
100
AcDbArc
 50
89.99999999999991
 51
179.9999999999998
  0
ARC
  5
38F
330
1F
100
AcDbEntity
  8
1
  6
Continuous
 62
     7
370
    30
100
AcDbCircle
 10
116.1270000000001
 20
340.0755841371479
 30
0.0
 40
7.0
100
AcDbArc
 50
89.99999999999991
 51
179.9999999999998
  0
LINE
  5
390
330
1F
100
AcDbEntity
  8
1
  6
Continuous
 62
     7
370
    30
100
AcDbLine
 10
109.1270000000001
 20
340.0755841371479
 30
0.0
 11
109.1269999999998
 21
234.0755841371479
 31
0.0
  0
ARC
  5
391
330
1F
100
AcDbEntity
  8
1
  6
Continuous
 62
     7
370
    30
100
AcDbCircle
 10
116.1269999999998
 20
234.0755841371479
 30
0.0
 40
7.0
100
AcDbArc
 50
179.9999999999998
 51
269.9999999999998
  0
LINE
  5
392
330
1F
100
AcDbEntity
  8
1
  6
Continuous
 62
     7
370
    30
100
AcDbLine
 10
116.1269999999998
 20
227.0755841371479
 30
0.0
 11
218.1270000000001
 21
227.0755841371479
 31
0.0
  0
ARC
  5
393
330
1F
100
AcDbEntity
  8
1
  6
Continuous
 62
     7
370
    30
100
AcDbCircle
 10
218.1270000000001
 20
234.0755841371479
 30
0.0
 40
7.0
100
AcDbArc
 50
269.9999999999998
 51
0.0
  0
LINE
  5
394
330
1F
100
AcDbEntity
  8
1
  6
Continuous
 62
     7
370
    30
100
AcDbLine
 10
116.1270000000001
 20
347.0755841371479
 30
0.0
 11
218.1270000000001
 21
347.0755841371479
 31
0.0
  0
LINE
  5
395
330
1F
100
AcDbEntity
  8
1
  6
Continuous
 62
     7
370
    30
100
AcDbLine
 10
225.1270000000001
 20
234.0755841371479
 30
0.0
 11
225.1270000000001
 21
340.0755841371479
 31
0.0
  0
ARC
  5
396
330
1F
100
AcDbEntity
  8
1
  6
Continuous
 62
     7
370
    30
100
AcDbCircle
 10
218.1270000000001
 20
340.0755841371479
 30
0.0
 40
7.0
100
AcDbArc
 50
0.0
 51
89.99999999999991
  0
LINE
  5
397
330
1F
100
AcDbEntity
  8
1
  6
Continuous
 62
     7
370
    30
100
AcDbLine
 10
314.1270000000001
 20
321.5755841371479
 30
0.0
 11
342.1603287046681
 21
321.1083619920701
 31
0.0
  0
LINE
  5
398
330
1F
100
AcDbEntity
  8
1
  6
Continuous
 62
     7
370
    30
100
AcDbLine
 10
328.1603287046681
 20
252.8094729488923
 30
0.0
 11
314.1270000000001
 21
252.5755841371479
 31
0.0
  0
MTEXT
  5
399
330
1F
100
AcDbEntity
  8
1
  6
DASHDOT
 62
     7
370
     9
100
AcDbMText
 10
182.2310862295598
 20
259.8500631844163
 30
0.0
 40
3.6
 41
20.18337266471331
 46
3.6
 71
     7
 72
     1
  1
{\fＭＳ ゴシック;\W0.714286;\T1.222222;連続解錠}
 73
     1
 44
1.0
  0
MTEXT
  5
39A
330
1F
100
AcDbEntity
  8
1
  6
DASHDOT
 62
     7
370
     9
100
AcDbMText
 10
146.955
 20
259.7075841371477
 30
0.0
 40
3.6
 41
20.01831177230766
 46
3.6
 71
     7
 72
     1
  1
{\fＭＳ ゴシック;\W0.714286;\T1.222222;一回解錠}
 73
     1
 44
1.0
  0
CIRCLE
  5
39B
330
1F
100
AcDbEntity
  8
1
  6
Continuous
 62
     7
370
    30
100
AcDbCircle
 10
141.7430000000001
 20
261.5385841371478
 30
0.0
 40
1.35
  0
LINE
  5
39C
330
1F
100
AcDbEntity
  8
1
  6
Continuous
 62
     7
370
    30
100
AcDbLine
 10
330.1270000000001
 20
271.0755841371479
 30
0.0
 11
330.1270000000001
 21
254.8091952289715
 31
0.0
  0
ARC
  5
39D
330
1F
100
AcDbEntity
  8
1
  6
Continuous
 62
     7
370
    30
100
AcDbCircle
 10
328.1270000000001
 20
254.8091952289715
 30
0.0
 40
2.0
100
AcDbArc
 50
270.9548412538741
 51
0.0
  0
LINE
  5
39E
330
1F
100
AcDbEntity
  8
1
  6
Continuous
 62
     7
370
    30
100
AcDbLine
 10
330.1758928571429
 20
269.8714856630268
 30
0.0
 11
336.6758928571429
 21
269.8714856630268
 31
0.0
  0
LINE
  5
39F
330
1F
100
AcDbEntity
  8
1
  6
Continuous
 62
     7
370
    30
100
AcDbLine
 10
340.6758928571429
 20
254.3714856630268
 30
0.0
 11
339.6758928571429
 21
254.3714856630268
 31
0.0
  0
LINE
  5
3A0
330
1F
100
AcDbEntity
  8
1
  6
Continuous
 62
     7
370
    30
100
AcDbLine
 10
340.6758928571429
 20
254.3714856630268
 30
0.0
 11
340.6758928571429
 21
256.8714856630268
 31
0.0
  0
LINE
  5
3A1
330
1F
100
AcDbEntity
  8
1
  6
Continuous
 62
     7
370
    30
100
AcDbLine
 10
339.1758928571429
 20
255.8714856630268
 30
0.0
 11
330.1758928571429
 21
255.8714856630268
 31
0.0
  0
LINE
  5
3A2
330
1F
100
AcDbEntity
  8
1
  6
Continuous
 62
     7
370
    30
100
AcDbLine
 10
338.6758928571429
 20
255.8714856630268
 30
0.0
 11
339.6758928571429
 21
254.3714856630268
 31
0.0
  0
LINE
  5
3A3
330
1F
100
AcDbEntity
  8
1
  6
Continuous
 62
     7
370
    30
100
AcDbLine
 10
330.1758928571429
 20
255.8714856630268
 30
0.0
 11
335.8258924756732
 21
255.8714856630268
 31
0.0
  0
LINE
  5
3A4
330
1F
100
AcDbEntity
  8
1
  6
Continuous
 62
     7
370
    30
100
AcDbLine
 10
330.1758928571429
 20
269.8714856630268
 30
0.0
 11
330.1758928571429
 21
270.1003827577533
 31
0.0
  0
LINE
  5
3A5
330
1F
100
AcDbEntity
  8
1
  6
Continuous
 62
     7
370
    30
100
AcDbLine
 10
341.1758928571429
 20
256.8714856630268
 30
0.0
 11
330.1758928571429
 21
256.8714856630268
 31
0.0
  0
LINE
  5
3A6
330
1F
100
AcDbEntity
  8
1
  6
Continuous
 62
     7
370
    30
100
AcDbLine
 10
343.6758928571429
 20
269.8714856630268
 30
0.0
 11
330.1758928571429
 21
269.8714856630268
 31
0.0
  0
LINE
  5
3A7
330
1F
100
AcDbEntity
  8
1
  6
Continuous
 62
     7
370
    30
100
AcDbLine
 10
343.6758928571429
 20
264.8714856630268
 30
0.0
 11
341.1758928571429
 21
264.8714856630268
 31
0.0
  0
LINE
  5
3A8
330
1F
100
AcDbEntity
  8
1
  6
Continuous
 62
     7
370
    30
100
AcDbLine
 10
344.1758928571429
 20
269.3714856630268
 30
0.0
 11
344.1758928571429
 21
257.4714841371479
 31
0.0
  0
LINE
  5
3A9
330
1F
100
AcDbEntity
  8
1
  6
Continuous
 62
     7
370
    30
100
AcDbLine
 10
341.1758928571429
 20
257.67148108539
 30
0.0
 11
330.1758928571429
 21
257.67148108539
 31
0.0
  0
LINE
  5
3AA
330
1F
100
AcDbEntity
  8
1
  6
Continuous
 62
     7
370
    30
100
AcDbLine
 10
341.1758928571429
 20
269.8714856630268
 30
0.0
 11
341.1758928571429
 21
256.8714856630268
 31
0.0
  0
LINE
  5
3AB
330
1F
100
AcDbEntity
  8
1
  6
Continuous
 62
     7
370
    30
100
AcDbLine
 10
341.1758928571429
 20
258.9714841371479
 30
0.0
 11
330.1758928571429
 21
258.9714841371479
 31
0.0
  0
LINE
  5
3AC
330
1F
100
AcDbEntity
  8
1
  6
Continuous
 62
     7
370
    30
100
AcDbLine
 10
344.1758928571429
 20
257.4714841371479
 30
0.0
 11
341.1758928571429
 21
257.4714841371479
 31
0.0
  0
ARC
  5
3AD
330
1F
100
AcDbEntity
  8
1
  6
Continuous
 62
     7
370
    30
100
AcDbCircle
 10
339.1758928571429
 20
257.3714856630268
 30
0.0
 40
1.5
100
AcDbArc
 50
269.9999999999998
 51
340.5287987889839
  0
ARC
  5
3AE
330
1F
100
AcDbEntity
  8
1
  6
Continuous
 62
     7
370
    30
100
AcDbCircle
 10
343.6758928571429
 20
269.3714856630268
 30
0.0
 40
0.5
100
AcDbArc
 50
0.0
 51
89.99999999999991
  0
ARC
  5
3AF
330
1F
100
AcDbEntity
  8
1
  6
Continuous
 62
     7
370
    30
100
AcDbCircle
 10
343.6758928571429
 20
265.3714856630268
 30
0.0
 40
0.5
100
AcDbArc
 50
269.9999999999998
 51
0.0
  0
LINE
  5
3B0
330
1F
100
AcDbEntity
  8
1
  6
Continuous
 62
     7
370
    30
100
AcDbLine
 10
173.6549999999999
 20
262.9285841371477
 30
0.0
 11
179.955
 21
262.9285841371477
 31
0.0
  0
LINE
  5
3B1
330
1F
100
AcDbEntity
  8
1
  6
Continuous
 62
     7
370
    30
100
AcDbLine
 10
179.955
 20
260.2285841371479
 30
0.0
 11
173.6549999999999
 21
260.2285841371479
 31
0.0
  0
ARC
  5
3B2
330
1F
100
AcDbEntity
  8
1
  6
Continuous
 62
     7
370
    30
100
AcDbCircle
 10
173.6549999999999
 20
261.5785841371478
 30
0.0
 40
1.35
100
AcDbArc
 50
89.99999999999991
 51
269.9999999999998
  0
ARC
  5
3B3
330
1F
100
AcDbEntity
  8
1
  6
Continuous
 62
     7
370
    30
100
AcDbCircle
 10
179.955
 20
261.5785841371478
 30
0.0
 40
1.35
100
AcDbArc
 50
269.9999999999998
 51
89.99999999999991
  0
ARC
  5
3B4
330
1F
100
AcDbEntity
  8
1
  6
Continuous
 62
     7
370
    30
100
AcDbCircle
 10
190.6270069999999
 20
288.075583137148
 30
0.0
 40
1.0
100
AcDbArc
 50
269.9999999999998
 51
0.0
  0
LINE
  5
3B5
330
1F
100
AcDbEntity
  8
1
  6
Continuous
 62
     7
370
    30
100
AcDbLine
 10
143.6270039999998
 20
287.075583137148
 30
0.0
 11
190.6270069999999
 21
287.075583137148
 31
0.0
  0
LINE
  5
3B6
330
1F
100
AcDbEntity
  8
1
  6
Continuous
 62
     7
370
    30
100
AcDbLine
 10
191.6270069999999
 20
288.075583137148
 30
0.0
 11
191.6270069999999
 21
310.075583137148
 31
0.0
  0
ARC
  5
3B7
330
1F
100
AcDbEntity
  8
1
  6
Continuous
 62
     7
370
    30
100
AcDbCircle
 10
190.6270069999999
 20
310.075583137148
 30
0.0
 40
1.0
100
AcDbArc
 50
0.0
 51
89.99999999999991
  0
LINE
  5
3B8
330
1F
100
AcDbEntity
  8
1
  6
Continuous
 62
     7
370
    30
100
AcDbLine
 10
143.6270039999998
 20
311.075583137148
 30
0.0
 11
190.6270069999999
 21
311.075583137148
 31
0.0
  0
ARC
  5
3B9
330
1F
100
AcDbEntity
  8
1
  6
Continuous
 62
     7
370
    30
100
AcDbCircle
 10
143.6270039999998
 20
288.075583137148
 30
0.0
 40
1.0
100
AcDbArc
 50
179.9999999999998
 51
269.9999999999998
  0
LINE
  5
3BA
330
1F
100
AcDbEntity
  8
1
  6
Continuous
 62
     7
370
    30
100
AcDbLine
 10
142.6270039999998
 20
310.075583137148
 30
0.0
 11
142.6270039999998
 21
288.075583137148
 31
0.0
  0
ARC
  5
3BB
330
1F
100
AcDbEntity
  8
1
  6
Continuous
 62
     7
370
    30
100
AcDbCircle
 10
143.6270039999998
 20
310.075583137148
 30
0.0
 40
1.0
100
AcDbArc
 50
89.99999999999991
 51
179.9999999999998
  0
LINE
  5
3BC
330
1F
100
AcDbEntity
  8
1
  6
Continuous
 62
     7
370
    30
100
AcDbLine
 10
192.1431269999999
 20
271.9755831371479
 30
0.0
 11
193.0721669999999
 21
273.1755831371479
 31
0.0
  0
LINE
  5
3BD
330
1F
100
AcDbEntity
  8
1
  6
Continuous
 62
     7
370
    30
100
AcDbLine
 10
193.6578769999998
 20
275.0755731371478
 30
0.0
 11
192.1431369999999
 21
277.0321231371479
 31
0.0
  0
LINE
  5
3BE
330
1F
100
AcDbEntity
  8
1
  6
Continuous
 62
     7
370
    30
100
AcDbLine
 10
190.4398969999999
 20
275.9755831371479
 30
0.0
 11
189.7431269999998
 21
275.0755731371478
 31
0.0
  0
LINE
  5
3BF
330
1F
100
AcDbEntity
  8
1
  6
Continuous
 62
     7
370
    30
100
AcDbLine
 10
190.6283970000001
 20
275.075593137148
 30
0.0
 11
192.1431369999999
 21
273.1190531371481
 31
0.0
  0
LINE
  5
3C0
330
1F
100
AcDbEntity
  8
1
  6
Continuous
 62
     7
370
    30
100
AcDbLine
 10
191.2141069999999
 20
273.1755831371479
 30
0.0
 11
192.1431369999999
 21
271.9755831371479
 31
0.0
  0
LINE
  5
3C1
330
1F
100
AcDbEntity
  8
1
  6
Continuous
 62
     7
370
    30
100
AcDbLine
 10
189.743137
 20
275.075593137148
 30
0.0
 11
190.4399169999998
 21
274.1755831371479
 31
0.0
  0
LINE
  5
3C2
330
1F
100
AcDbEntity
  8
1
  6
Continuous
 62
     7
370
    30
100
AcDbLine
 10
193.0721769999999
 20
276.9755831371479
 30
0.0
 11
192.1431369999999
 21
278.1755831371479
 31
0.0
  0
LINE
  5
3C3
330
1F
100
AcDbEntity
  8
1
  6
Continuous
 62
     7
370
    30
100
AcDbLine
 10
192.1431369999999
 20
273.1190531371481
 30
0.0
 11
193.657867
 21
275.0755731371478
 31
0.0
  0
LINE
  5
3C4
330
1F
100
AcDbEntity
  8
1
  6
Continuous
 62
     7
370
    30
100
AcDbLine
 10
193.846357
 20
274.1755831371479
 30
0.0
 11
194.543127
 21
275.075593137148
 31
0.0
  0
LINE
  5
3C5
330
1F
100
AcDbEntity
  8
1
  6
Continuous
 62
     7
370
    30
100
AcDbLine
 10
194.5431369999998
 20
275.075593137148
 30
0.0
 11
193.8463669999998
 21
275.9755831371479
 31
0.0
  0
LINE
  5
3C6
330
1F
100
AcDbEntity
  8
1
  6
Continuous
 62
     7
370
    30
100
AcDbLine
 10
192.1431369999999
 20
278.1755831371479
 30
0.0
 11
191.2140969999999
 21
276.9755831371479
 31
0.0
  0
LINE
  5
3C7
330
1F
100
AcDbEntity
  8
1
  6
Continuous
 62
     7
370
    30
100
AcDbLine
 10
192.1431269999999
 20
277.0321231371479
 30
0.0
 11
190.6283970000001
 21
275.075593137148
 31
0.0
  0
LINE
  5
3C8
330
1F
100
AcDbEntity
  8
1
  6
Continuous
 62
     7
370
    30
100
AcDbLine
 10
183.1431269999999
 20
277.0321231371479
 30
0.0
 11
181.6283970000001
 21
275.075593137148
 31
0.0
  0
LINE
  5
3C9
330
1F
100
AcDbEntity
  8
1
  6
Continuous
 62
     7
370
    30
100
AcDbLine
 10
183.1431369999999
 20
278.1755831371479
 30
0.0
 11
182.2140969999999
 21
276.9755831371479
 31
0.0
  0
LINE
  5
3CA
330
1F
100
AcDbEntity
  8
1
  6
Continuous
 62
     7
370
    30
100
AcDbLine
 10
185.5431369999998
 20
275.075593137148
 30
0.0
 11
184.846357
 21
275.975603137148
 31
0.0
  0
LINE
  5
3CB
330
1F
100
AcDbEntity
  8
1
  6
Continuous
 62
     7
370
    30
100
AcDbLine
 10
184.8463469999998
 20
274.1755831371479
 30
0.0
 11
185.543127
 21
275.075593137148
 31
0.0
  0
LINE
  5
3CC
330
1F
100
AcDbEntity
  8
1
  6
Continuous
 62
     7
370
    30
100
AcDbLine
 10
183.1431369999999
 20
273.1190531371481
 30
0.0
 11
184.657867
 21
275.075593137148
 31
0.0
  0
LINE
  5
3CD
330
1F
100
AcDbEntity
  8
1
  6
Continuous
 62
     7
370
    30
100
AcDbLine
 10
184.0721669999999
 20
276.9755831371479
 30
0.0
 11
183.1431369999999
 21
278.1755831371479
 31
0.0
  0
LINE
  5
3CE
330
1F
100
AcDbEntity
  8
1
  6
Continuous
 62
     7
370
    30
100
AcDbLine
 10
180.7431269999998
 20
275.075593137148
 30
0.0
 11
181.4399070000001
 21
274.1755931371479
 31
0.0
  0
LINE
  5
3CF
330
1F
100
AcDbEntity
  8
1
  6
Continuous
 62
     7
370
    30
100
AcDbLine
 10
182.2140969999999
 20
273.1755931371479
 30
0.0
 11
183.1431369999999
 21
271.9755831371479
 31
0.0
  0
LINE
  5
3D0
330
1F
100
AcDbEntity
  8
1
  6
Continuous
 62
     7
370
    30
100
AcDbLine
 10
181.6283970000001
 20
275.0755731371478
 30
0.0
 11
183.1431369999999
 21
273.1190631371478
 31
0.0
  0
LINE
  5
3D1
330
1F
100
AcDbEntity
  8
1
  6
Continuous
 62
     7
370
    30
100
AcDbLine
 10
181.4398969999999
 20
275.9755831371479
 30
0.0
 11
180.7431269999998
 21
275.075593137148
 31
0.0
  0
LINE
  5
3D2
330
1F
100
AcDbEntity
  8
1
  6
Continuous
 62
     7
370
    30
100
AcDbLine
 10
184.6578769999998
 20
275.075593137148
 30
0.0
 11
183.1431369999999
 21
277.0321231371479
 31
0.0
  0
LINE
  5
3D3
330
1F
100
AcDbEntity
  8
1
  6
Continuous
 62
     7
370
    30
100
AcDbLine
 10
183.1431269999999
 20
271.9755831371479
 30
0.0
 11
184.0721569999999
 21
273.1755831371479
 31
0.0
  0
LINE
  5
3D4
330
1F
100
AcDbEntity
  8
1
  6
Continuous
 62
     7
370
    30
100
AcDbLine
 10
174.1431269999999
 20
271.9755831371479
 30
0.0
 11
175.0721569999999
 21
273.1755831371479
 31
0.0
  0
LINE
  5
3D5
330
1F
100
AcDbEntity
  8
1
  6
Continuous
 62
     7
370
    30
100
AcDbLine
 10
175.6578769999998
 20
275.0755731371478
 30
0.0
 11
174.1431369999999
 21
277.0321231371479
 31
0.0
  0
LINE
  5
3D6
330
1F
100
AcDbEntity
  8
1
  6
Continuous
 62
     7
370
    30
100
AcDbLine
 10
172.4398969999999
 20
275.9755831371479
 30
0.0
 11
171.7431269999998
 21
275.075593137148
 31
0.0
  0
LINE
  5
3D7
330
1F
100
AcDbEntity
  8
1
  6
Continuous
 62
     7
370
    30
100
AcDbLine
 10
172.6283970000001
 20
275.075593137148
 30
0.0
 11
174.1431369999999
 21
273.1190531371481
 31
0.0
  0
LINE
  5
3D8
330
1F
100
AcDbEntity
  8
1
  6
Continuous
 62
     7
370
    30
100
AcDbLine
 10
173.2140969999999
 20
273.1755831371479
 30
0.0
 11
174.1431369999999
 21
271.9755831371479
 31
0.0
  0
LINE
  5
3D9
330
1F
100
AcDbEntity
  8
1
  6
Continuous
 62
     7
370
    30
100
AcDbLine
 10
171.743137
 20
275.075593137148
 30
0.0
 11
172.4399070000001
 21
274.1755831371479
 31
0.0
  0
LINE
  5
3DA
330
1F
100
AcDbEntity
  8
1
  6
Continuous
 62
     7
370
    30
100
AcDbLine
 10
175.0721769999999
 20
276.9755831371479
 30
0.0
 11
174.1431369999999
 21
278.1755831371479
 31
0.0
  0
LINE
  5
3DB
330
1F
100
AcDbEntity
  8
1
  6
Continuous
 62
     7
370
    30
100
AcDbLine
 10
174.1431269999999
 20
273.1190531371481
 30
0.0
 11
175.657867
 21
275.075593137148
 31
0.0
  0
LINE
  5
3DC
330
1F
100
AcDbEntity
  8
1
  6
Continuous
 62
     7
370
    30
100
AcDbLine
 10
175.8463469999998
 20
274.1755831371479
 30
0.0
 11
176.543127
 21
275.075593137148
 31
0.0
  0
LINE
  5
3DD
330
1F
100
AcDbEntity
  8
1
  6
Continuous
 62
     7
370
    30
100
AcDbLine
 10
194.6270069999999
 20
257.075593137148
 30
0.0
 11
174.6270069999999
 21
257.075593137148
 31
0.0
  0
LINE
  5
3DE
330
1F
100
AcDbEntity
  8
1
  6
Continuous
 62
     7
370
    30
100
AcDbLine
 10
174.6270069999999
 20
266.075593137148
 30
0.0
 11
194.6270069999999
 21
266.075593137148
 31
0.0
  0
LINE
  5
3DF
330
1F
100
AcDbEntity
  8
1
  6
Continuous
 62
     7
370
    30
100
AcDbLine
 10
159.6270040000001
 20
257.075593137148
 30
0.0
 11
139.6270039999998
 21
257.075593137148
 31
0.0
  0
LINE
  5
3E0
330
1F
100
AcDbEntity
  8
1
  6
Continuous
 62
     7
370
    30
100
AcDbLine
 10
139.6270039999998
 20
266.075593137148
 30
0.0
 11
159.6270040000001
 21
266.075593137148
 31
0.0
  0
LINE
  5
3E1
330
1F
100
AcDbEntity
  8
1
  6
Continuous
 62
     7
370
    30
100
AcDbLine
 10
194.6270069999999
 20
256.575593137148
 30
0.0
 11
174.6270069999999
 21
256.575593137148
 31
0.0
  0
LINE
  5
3E2
330
1F
100
AcDbEntity
  8
1
  6
Continuous
 62
     7
370
    30
100
AcDbLine
 10
174.6270069999999
 20
266.575593137148
 30
0.0
 11
194.6270069999999
 21
266.575593137148
 31
0.0
  0
LINE
  5
3E3
330
1F
100
AcDbEntity
  8
1
  6
Continuous
 62
     7
370
    30
100
AcDbLine
 10
176.5431369999998
 20
275.075593137148
 30
0.0
 11
175.8463669999998
 21
275.9755831371479
 31
0.0
  0
LINE
  5
3E4
330
1F
100
AcDbEntity
  8
1
  6
Continuous
 62
     7
370
    30
100
AcDbLine
 10
174.1431269999999
 20
278.1755831371479
 30
0.0
 11
173.2140969999999
 21
276.9755831371479
 31
0.0
  0
LINE
  5
3E5
330
1F
100
AcDbEntity
  8
1
  6
Continuous
 62
     7
370
    30
100
AcDbLine
 10
174.1431369999999
 20
277.0321031371479
 30
0.0
 11
172.6283970000001
 21
275.0755731371478
 31
0.0
  0
LINE
  5
3E6
330
1F
100
AcDbEntity
  8
1
  6
Continuous
 62
     7
370
    30
100
AcDbLine
 10
139.6270039999998
 20
266.575593137148
 30
0.0
 11
159.6270040000001
 21
266.575593137148
 31
0.0
  0
LINE
  5
3E7
330
1F
100
AcDbEntity
  8
1
  6
Continuous
 62
     7
370
    30
100
AcDbLine
 10
159.6270040000001
 20
256.575593137148
 30
0.0
 11
139.6270039999998
 21
256.575593137148
 31
0.0
  0
LINE
  5
3E8
330
1F
100
AcDbEntity
  8
1
  6
Continuous
 62
     7
370
    30
100
AcDbLine
 10
165.1431329999999
 20
277.0321231371479
 30
0.0
 11
163.6284010000001
 21
275.0755731371478
 31
0.0
  0
LINE
  5
3E9
330
1F
100
AcDbEntity
  8
1
  6
Continuous
 62
     7
370
    30
100
AcDbLine
 10
165.1431249999999
 20
278.1755831371479
 30
0.0
 11
164.214094
 21
276.9755831371479
 31
0.0
  0
LINE
  5
3EA
330
1F
100
AcDbEntity
  8
1
  6
Continuous
 62
     7
370
    30
100
AcDbLine
 10
167.5431419999999
 20
275.0755731371478
 30
0.0
 11
166.846365
 21
275.9755831371479
 31
0.0
  0
LINE
  5
3EB
330
1F
100
AcDbEntity
  8
1
  6
Continuous
 62
     7
370
    30
100
AcDbLine
 10
166.846357
 20
274.1755831371479
 30
0.0
 11
167.543135
 21
275.0755731371478
 31
0.0
  0
LINE
  5
3EC
330
1F
100
AcDbEntity
  8
1
  6
Continuous
 62
     7
370
    30
100
AcDbLine
 10
165.1431249999999
 20
273.1190531371481
 30
0.0
 11
166.6578579999999
 21
275.075593137148
 31
0.0
  0
LINE
  5
3ED
330
1F
100
AcDbEntity
  8
1
  6
Continuous
 62
     7
370
    30
100
AcDbLine
 10
166.0721719999998
 20
276.9755831371479
 30
0.0
 11
165.1431329999999
 21
278.1755931371479
 31
0.0
  0
LINE
  5
3EE
330
1F
100
AcDbEntity
  8
1
  6
Continuous
 62
     7
370
    30
100
AcDbLine
 10
162.7431309999998
 20
275.075593137148
 30
0.0
 11
163.4399089999998
 21
274.1755931371479
 31
0.0
  0
LINE
  5
3EF
330
1F
100
AcDbEntity
  8
1
  6
Continuous
 62
     7
370
    30
100
AcDbLine
 10
164.214102
 20
273.1755931371479
 30
0.0
 11
165.1431409999999
 21
271.9755831371479
 31
0.0
  0
LINE
  5
3F0
330
1F
100
AcDbEntity
  8
1
  6
Continuous
 62
     7
370
    30
100
AcDbLine
 10
163.6284010000001
 20
275.075593137148
 30
0.0
 11
165.1431329999999
 21
273.1190631371478
 31
0.0
  0
LINE
  5
3F1
330
1F
100
AcDbEntity
  8
1
  6
Continuous
 62
     7
370
    30
100
AcDbLine
 10
163.4399009999998
 20
275.9755831371479
 30
0.0
 11
162.743124
 21
275.075593137148
 31
0.0
  0
LINE
  5
3F2
330
1F
100
AcDbEntity
  8
1
  6
Continuous
 62
     7
370
    30
100
AcDbLine
 10
166.6578649999998
 20
275.075593137148
 30
0.0
 11
165.1431409999999
 21
277.0321231371479
 31
0.0
  0
LINE
  5
3F3
330
1F
100
AcDbEntity
  8
1
  6
Continuous
 62
     7
370
    30
100
AcDbLine
 10
165.1431329999999
 20
271.9755831371479
 30
0.0
 11
166.0721639999998
 21
273.1755831371479
 31
0.0
  0
ARC
  5
3F4
330
1F
100
AcDbEntity
  8
1
  6
Continuous
 62
     7
370
    30
100
AcDbCircle
 10
194.6270069999999
 20
261.575593137148
 30
0.0
 40
4.5
100
AcDbArc
 50
269.9999999999998
 51
89.99999999999991
  0
ARC
  5
3F5
330
1F
100
AcDbEntity
  8
1
  6
Continuous
 62
     7
370
    30
100
AcDbCircle
 10
174.6270069999999
 20
261.575593137148
 30
0.0
 40
4.5
100
AcDbArc
 50
89.99999999999991
 51
269.9999999999998
  0
ARC
  5
3F6
330
1F
100
AcDbEntity
  8
1
  6
Continuous
 62
     7
370
    30
100
AcDbCircle
 10
159.6270040000001
 20
261.575593137148
 30
0.0
 40
4.5
100
AcDbArc
 50
269.9999999999998
 51
89.99999999999991
  0
ARC
  5
3F7
330
1F
100
AcDbEntity
  8
1
  6
Continuous
 62
     7
370
    30
100
AcDbCircle
 10
194.6270069999999
 20
261.575593137148
 30
0.0
 40
5.0
100
AcDbArc
 50
269.9999999999998
 51
89.99999999999991
  0
ARC
  5
3F8
330
1F
100
AcDbEntity
  8
1
  6
Continuous
 62
     7
370
    30
100
AcDbCircle
 10
174.6270069999999
 20
261.575593137148
 30
0.0
 40
5.0
100
AcDbArc
 50
89.99999999999991
 51
269.9999999999998
  0
ARC
  5
3F9
330
1F
100
AcDbEntity
  8
1
  6
Continuous
 62
     7
370
    30
100
AcDbCircle
 10
139.6270039999998
 20
261.575593137148
 30
0.0
 40
5.0
100
AcDbArc
 50
89.99999999999739
 51
269.9999999999998
  0
ARC
  5
3FA
330
1F
100
AcDbEntity
  8
1
  6
Continuous
 62
     7
370
    30
100
AcDbCircle
 10
159.6270040000001
 20
261.575593137148
 30
0.0
 40
5.0
100
AcDbArc
 50
269.9999999999998
 51
89.99999999999991
  0
ARC
  5
3FB
330
1F
100
AcDbEntity
  8
1
  6
Continuous
 62
     7
370
    30
100
AcDbCircle
 10
139.6270039999998
 20
261.575593137148
 30
0.0
 40
4.5
100
AcDbArc
 50
89.99999999999712
 51
269.9999999999998
  0
LINE
  5
3FC
330
1F
100
AcDbEntity
  8
1
  6
Continuous
 62
     7
370
    30
100
AcDbLine
 10
190.6283970000001
 20
275.075593137148
 30
0.0
 11
192.1431369999999
 21
273.1190531371481
 31
0.0
  0
LINE
  5
3FD
330
1F
100
AcDbEntity
  8
1
  6
Continuous
 62
     7
370
    30
100
AcDbLine
 10
192.1431369999999
 20
273.1190531371481
 30
0.0
 11
193.657867
 21
275.075593137148
 31
0.0
  0
LINE
  5
3FE
330
1F
100
AcDbEntity
  8
1
  6
Continuous
 62
     7
370
    30
100
AcDbLine
 10
193.657867
 20
275.075593137148
 30
0.0
 11
192.1431369999999
 21
277.0321231371479
 31
0.0
  0
LINE
  5
3FF
330
1F
100
AcDbEntity
  8
1
  6
Continuous
 62
     7
370
    30
100
AcDbLine
 10
192.1431369999999
 20
277.0321231371479
 30
0.0
 11
190.6283970000001
 21
275.075593137148
 31
0.0
  0
LINE
  5
400
330
1F
100
AcDbEntity
  8
1
  6
Continuous
 62
     7
370
    30
100
AcDbLine
 10
181.6283970000001
 20
275.075593137148
 30
0.0
 11
183.1431369999999
 21
273.1190531371481
 31
0.0
  0
LINE
  5
401
330
1F
100
AcDbEntity
  8
1
  6
Continuous
 62
     7
370
    30
100
AcDbLine
 10
183.1431369999999
 20
273.1190531371481
 30
0.0
 11
184.657867
 21
275.075593137148
 31
0.0
  0
LINE
  5
402
330
1F
100
AcDbEntity
  8
1
  6
Continuous
 62
     7
370
    30
100
AcDbLine
 10
184.657867
 20
275.075593137148
 30
0.0
 11
183.1431369999999
 21
277.0321231371479
 31
0.0
  0
LINE
  5
403
330
1F
100
AcDbEntity
  8
1
  6
Continuous
 62
     7
370
    30
100
AcDbLine
 10
183.1431369999999
 20
277.0321231371479
 30
0.0
 11
181.6283970000001
 21
275.075593137148
 31
0.0
  0
LINE
  5
404
330
1F
100
AcDbEntity
  8
1
  6
Continuous
 62
     7
370
    30
100
AcDbLine
 10
172.6283970000001
 20
275.075593137148
 30
0.0
 11
174.1431369999999
 21
273.1190531371481
 31
0.0
  0
LINE
  5
405
330
1F
100
AcDbEntity
  8
1
  6
Continuous
 62
     7
370
    30
100
AcDbLine
 10
174.1431369999999
 20
273.1190531371481
 30
0.0
 11
175.657867
 21
275.075593137148
 31
0.0
  0
LINE
  5
406
330
1F
100
AcDbEntity
  8
1
  6
Continuous
 62
     7
370
    30
100
AcDbLine
 10
175.657867
 20
275.075593137148
 30
0.0
 11
174.1431369999999
 21
277.0321231371479
 31
0.0
  0
LINE
  5
407
330
1F
100
AcDbEntity
  8
1
  6
Continuous
 62
     7
370
    30
100
AcDbLine
 10
174.1431369999999
 20
277.0321231371479
 30
0.0
 11
172.6283970000001
 21
275.075593137148
 31
0.0
  0
LINE
  5
408
330
1F
100
AcDbEntity
  8
1
  6
Continuous
 62
     7
370
    30
100
AcDbLine
 10
163.6284010000001
 20
275.075593137148
 30
0.0
 11
165.1431329999999
 21
273.1190531371481
 31
0.0
  0
LINE
  5
409
330
1F
100
AcDbEntity
  8
1
  6
Continuous
 62
     7
370
    30
100
AcDbLine
 10
165.1431329999999
 20
273.1190531371481
 30
0.0
 11
166.6578649999998
 21
275.075593137148
 31
0.0
  0
LINE
  5
40A
330
1F
100
AcDbEntity
  8
1
  6
Continuous
 62
     7
370
    30
100
AcDbLine
 10
166.6578649999998
 20
275.075593137148
 30
0.0
 11
165.1431329999999
 21
277.0321231371479
 31
0.0
  0
LINE
  5
40B
330
1F
100
AcDbEntity
  8
1
  6
Continuous
 62
     7
370
    30
100
AcDbLine
 10
165.1431329999999
 20
277.0321231371479
 30
0.0
 11
163.6284010000001
 21
275.075593137148
 31
0.0
  0
LINE
  5
40C
330
1F
100
AcDbEntity
  8
1
  6
Continuous
 62
     7
370
    30
100
AcDbLine
 10
312.1270000000001
 20
347.0755936371479
 30
0.0
 11
314.1270000000001
 21
347.0755936371479
 31
0.0
  0
LINE
  5
40D
330
1F
100
AcDbEntity
  8
1
  6
Continuous
 62
     7
370
    30
100
AcDbLine
 10
314.1270000000001
 20
347.0755936371479
 30
0.0
 11
314.1270000000001
 21
227.0755746371478
 31
0.0
  0
LINE
  5
40E
330
1F
100
AcDbEntity
  8
1
  6
Continuous
 62
     7
370
    30
100
AcDbLine
 10
312.1270000000001
 20
227.0755746371478
 30
0.0
 11
312.1270000000001
 21
347.0755936371479
 31
0.0
  0
LINE
  5
40F
330
1F
100
AcDbEntity
  8
1
  6
Continuous
 62
     7
370
    30
100
AcDbLine
 10
312.1270000000001
 20
227.0755746371478
 30
0.0
 11
314.1270000000001
 21
227.0755746371478
 31
0.0
  0
LINE
  5
410
330
1F
100
AcDbEntity
  8
1
  6
Continuous
 62
     7
370
    30
100
AcDbLine
 10
314.1270000000001
 20
321.5755856371479
 30
0.0
 11
314.1270000000001
 21
252.575594637148
 31
0.0
  0
LINE
  5
411
330
1F
100
AcDbEntity
  8
1
  6
Continuous
 62
     7
370
    30
100
AcDbLine
 10
311.6270000000001
 20
227.075684637148
 30
0.0
 11
311.6270000000001
 21
347.0754866371481
 31
0.0
  0
LINE
  5
412
330
1F
100
AcDbEntity
  8
1
  6
Continuous
 62
     7
370
    30
100
AcDbLine
 10
309.4271200000002
 20
227.075684637148
 30
0.0
 11
311.6270000000001
 21
227.075684637148
 31
0.0
  0
LINE
  5
413
330
1F
100
AcDbEntity
  8
1
  6
Continuous
 62
     7
370
    30
100
AcDbLine
 10
309.3939500000002
 20
347.0754866371481
 30
0.0
 11
311.6270000000001
 21
347.0754866371481
 31
0.0
  0
LINE
  5
414
330
1F
100
AcDbEntity
  8
1
  6
Continuous
 62
     7
370
    30
100
AcDbLine
 10
305.4270000000002
 20
241.0027046371479
 30
0.0
 11
305.4270000000002
 21
333.148667637148
 31
0.0
  0
LINE
  5
415
330
1F
100
AcDbEntity
  8
1
  6
Continuous
 62
     7
370
    30
100
AcDbLine
 10
306.4598500000001
 20
229.6322946371479
 30
0.0
 11
306.0859500000003
 21
232.134124637148
 31
0.0
  0
LINE
  5
416
330
1F
100
AcDbEntity
  8
1
  6
Continuous
 62
     7
370
    30
100
AcDbLine
 10
306.0859700000002
 20
342.017121637148
 30
0.0
 11
306.45988
 21
344.5189826371479
 31
0.0
  0
ARC
  5
417
330
1F
100
AcDbEntity
  8
1
  6
Continuous
 62
     7
370
    30
100
AcDbCircle
 10
309.4271100000002
 20
344.0756696371479
 30
0.0
 40
3.0
100
AcDbArc
 50
89.99999999999991
 51
171.4999900000006
  0
ARC
  5
418
330
1F
100
AcDbEntity
  8
1
  6
Continuous
 62
     7
370
    30
100
AcDbCircle
 10
309.4271200000002
 20
230.075704637148
 30
0.0
 40
3.0
100
AcDbArc
 50
188.4998699999998
 51
269.9999999999998
  0
ARC
  5
419
330
1F
100
AcDbEntity
  8
1
  6
Continuous
 62
     7
370
    30
100
AcDbCircle
 10
365.4271200000002
 20
241.0027046371479
 30
0.0
 40
60.0
100
AcDbArc
 50
179.9999699999998
 51
188.4999499999995
  0
ARC
  5
41A
330
1F
100
AcDbEntity
  8
1
  6
Continuous
 62
     7
370
    30
100
AcDbCircle
 10
365.4271100000002
 20
333.148667637148
 30
0.0
 40
60.0
100
AcDbArc
 50
171.4999399999998
 51
179.9999799999999
  0
CIRCLE
  5
41B
330
1F
100
AcDbEntity
  8
1
  6
Continuous
 62
     7
370
    30
100
AcDbCircle
 10
201.6270069999999
 20
289.575583137148
 30
0.0
 40
1.5
  0
LINE
  5
41C
330
1F
100
AcDbEntity
  8
1
  6
Continuous
 62
     7
370
    30
100
AcDbLine
 10
147.6502708217434
 20
275.9540841371479
 30
0.0
 11
147.6502708217434
 21
273.9540841371479
 31
0.0
  0
LINE
  5
41D
330
1F
100
AcDbEntity
  8
1
  6
Continuous
 62
     7
370
    30
100
AcDbLine
 10
147.6502708217434
 20
273.9540841371479
 30
0.0
 11
151.6502708217434
 21
273.9540841371479
 31
0.0
  0
LINE
  5
41E
330
1F
100
AcDbEntity
  8
1
  6
Continuous
 62
     7
370
    30
100
AcDbLine
 10
151.6502708217434
 20
273.9540841371479
 30
0.0
 11
151.6502708217434
 21
275.9540841371479
 31
0.0
  0
LINE
  5
41F
330
1F
100
AcDbEntity
  8
1
  6
Continuous
 62
     7
370
    30
100
AcDbLine
 10
151.6502708217434
 20
275.9540841371479
 30
0.0
 11
147.6502708217434
 21
275.9540841371479
 31
0.0
  0
HATCH
  5
420
330
1F
100
AcDbEntity
  8
1
  6
Continuous
 62
     7
370
    30
100
AcDbHatch
 10
0.0
 20
0.0
 30
0.0
210
0.0
220
0.0
230
1.0
  2
SOLID
 70
     1
 71
     0
 91
        1
 92
        0
 93
        8
 72
     1
 10
138.2336016659607
 20
320.2476241371478
 11
138.2336016659607
 21
320.7820321371478
 72
     1
 10
138.2336016659607
 20
320.7820321371478
 11
140.4072664264341
 21
320.7820321371478
 72
     1
 10
140.4072664264341
 20
320.7820321371478
 11
140.4072664264341
 21
320.2476241371478
 72
     1
 10
140.4072664264341
 20
320.2476241371478
 11
139.6195479999998
 21
320.2476241371478
 72
     1
 10
139.6195479999998
 20
320.2476241371478
 11
139.6195479999998
 21
317.5755841371479
 72
     1
 10
139.6195479999998
 20
317.5755841371479
 11
139.0851399999998
 21
317.5755841371479
 72
     1
 10
139.0851399999998
 20
317.5755841371479
 11
139.0851399999998
 21
320.2476241371478
 72
     1
 10
139.0851399999998
 20
320.2476241371478
 11
138.2336016659607
 21
320.2476241371478
 97
        0
 75
     0
 76
     1
 98
        0
  0
HATCH
  5
421
330
1F
100
AcDbEntity
  8
1
  6
Continuous
 62
     7
370
    30
100
AcDbHatch
 10
0.0
 20
0.0
 30
0.0
210
0.0
220
0.0
230
1.0
  2
SOLID
 70
     1
 71
     0
 91
        1
 92
        0
 93
       11
 72
     1
 10
136.9454824162177
 20
320.2476241371478
 11
135.8786919999999
 21
320.2476241371478
 72
     1
 10
135.8786919999999
 20
320.2476241371478
 11
135.8786919999999
 21
320.7820321371478
 72
     1
 10
135.8786919999999
 20
320.7820321371478
 11
136.9468960693683
 21
320.7820321371478
 72
     2
 10
136.9468960693683
 20
319.7132321371478
 40
1.0688
 50
270.0000000000001
 51
360.0008577212481
 73
     0
 72
     2
 10
136.9468960693683
 20
319.7132001371479
 40
1.0688
 50
359.9991422787519
 51
444.2182017111181
 73
     0
 72
     1
 10
137.0545672363795
 20
318.6498373769409
 11
138.3133546465
 21
317.5755841371479
 72
     1
 10
138.3133546465
 20
317.5755841371479
 11
137.4798824162177
 21
317.5755841371479
 72
     1
 10
137.4798824162177
 20
317.5755841371479
 11
135.6114879999999
 21
319.1788081371478
 72
     1
 10
135.6114879999999
 20
319.1788081371478
 11
136.9454824162177
 21
319.1788081371478
 72
     2
 10
136.9454824162177
 20
319.7132081371478
 40
0.5344000000000001
 50
270.0000000000001
 51
360.0008577212481
 73
     1
 72
     2
 10
136.9454824162177
 20
319.7132241371478
 40
0.5344000000000001
 50
359.9991422787519
 51
449.9999999999999
 73
     1
 97
        0
 75
     0
 76
     1
 98
        0
  0
ARC
  5
422
330
1F
100
AcDbEntity
  8
1
  6
Continuous
 62
     7
370
    30
100
AcDbCircle
 10
136.9468960693683
 20
319.7132001371479
 30
0.0
 40
1.0688
100
AcDbArc
 50
276.09049340575
 51
0.0
  0
HATCH
  5
423
330
1F
100
AcDbEntity
  8
1
  6
Continuous
 62
     7
370
    30
100
AcDbHatch
 10
0.0
 20
0.0
 30
0.0
210
0.0
220
0.0
230
1.0
  2
SOLID
 70
     1
 71
     0
 91
        1
 92
        0
 93
        8
 72
     1
 10
135.6114879999999
 20
317.5755841371479
 11
135.6114879999999
 21
323.4540721371477
 72
     1
 10
135.6114879999999
 20
323.4540721371477
 11
129.7329999999998
 21
317.5755841371479
 72
     1
 10
129.7329999999998
 20
317.5755841371479
 11
131.2445340162159
 21
317.5755841371479
 72
     1
 10
131.2445340162159
 20
317.5755841371479
 11
134.5426719999999
 21
320.7820321371478
 72
     1
 10
134.5426719999999
 20
320.7820321371478
 11
134.5426719999999
 21
318.6444001371478
 72
     1
 10
134.5426719999999
 20
318.6444001371478
 11
132.939448
 21
318.6444001371478
 72
     1
 10
132.939448
 20
318.6444001371478
 11
132.939448
 21
317.5755841371479
 72
     1
 10
132.939448
 20
317.5755841371479
 11
135.6114879999999
 21
317.5755841371479
 97
        0
 75
     0
 76
     1
 98
        0
  0
LINE
  5
424
330
1F
100
AcDbEntity
  8
1
  6
Continuous
 62
     7
370
    30
100
AcDbLine
 10
129.7329999999998
 20
317.5755841371479
 30
0.0
 11
135.6114879999999
 21
323.4540721371477
 31
0.0
  0
LINE
  5
425
330
1F
100
AcDbEntity
  8
1
  6
Continuous
 62
     7
370
    30
100
AcDbLine
 10
129.7329999999998
 20
317.5755841371479
 30
0.0
 11
135.6114879999999
 21
323.4540721371477
 31
0.0
  0
LINE
  5
426
330
1F
100
AcDbEntity
  8
1
  6
Continuous
 62
     7
370
    30
100
AcDbLine
 10
135.6114879999999
 20
323.4540721371477
 30
0.0
 11
135.6114879999999
 21
317.5755841371479
 31
0.0
  0
LINE
  5
427
330
1F
100
AcDbEntity
  8
1
  6
Continuous
 62
     7
370
    30
100
AcDbLine
 10
135.6114879999999
 20
317.5755841371479
 30
0.0
 11
132.939448
 21
317.5755841371479
 31
0.0
  0
LINE
  5
428
330
1F
100
AcDbEntity
  8
1
  6
Continuous
 62
     7
370
    30
100
AcDbLine
 10
132.939448
 20
317.5755841371479
 30
0.0
 11
132.939448
 21
318.6444001371478
 31
0.0
  0
LINE
  5
429
330
1F
100
AcDbEntity
  8
1
  6
Continuous
 62
     7
370
    30
100
AcDbLine
 10
132.939448
 20
318.6444001371478
 30
0.0
 11
134.5426719999999
 21
318.6444001371478
 31
0.0
  0
LINE
  5
42A
330
1F
100
AcDbEntity
  8
1
  6
Continuous
 62
     7
370
    30
100
AcDbLine
 10
132.939448
 20
318.6444001371478
 30
0.0
 11
134.5426719999999
 21
318.6444001371478
 31
0.0
  0
LINE
  5
42B
330
1F
100
AcDbEntity
  8
1
  6
Continuous
 62
     7
370
    30
100
AcDbLine
 10
134.5426719999999
 20
318.6444001371478
 30
0.0
 11
134.5426719999999
 21
320.7820321371478
 31
0.0
  0
LINE
  5
42C
330
1F
100
AcDbEntity
  8
1
  6
Continuous
 62
     7
370
    30
100
AcDbLine
 10
134.5426719999999
 20
320.7820321371478
 30
0.0
 11
131.2445340162159
 21
317.5755841371479
 31
0.0
  0
LINE
  5
42D
330
1F
100
AcDbEntity
  8
1
  6
Continuous
 62
     7
370
    30
100
AcDbLine
 10
131.2445340162159
 20
317.5755841371479
 30
0.0
 11
129.7329999999998
 21
317.5755841371479
 31
0.0
  0
LINE
  5
42E
330
1F
100
AcDbEntity
  8
1
  6
Continuous
 62
     7
370
    30
100
AcDbLine
 10
135.8786919999999
 20
320.7820321371478
 30
0.0
 11
135.8786919999999
 21
320.2476241371478
 31
0.0
  0
LINE
  5
42F
330
1F
100
AcDbEntity
  8
1
  6
Continuous
 62
     7
370
    30
100
AcDbLine
 10
135.6114879999999
 20
319.1788081371478
 30
0.0
 11
137.4798824162177
 21
317.5755841371479
 31
0.0
  0
LINE
  5
430
330
1F
100
AcDbEntity
  8
1
  6
Continuous
 62
     7
370
    30
100
AcDbLine
 10
137.4798824162177
 20
317.5755841371479
 30
0.0
 11
138.3133546465
 21
317.5755841371479
 31
0.0
  0
LINE
  5
431
330
1F
100
AcDbEntity
  8
1
  6
Continuous
 62
     7
370
    30
100
AcDbLine
 10
138.3133546465
 20
317.5755841371479
 30
0.0
 11
137.0609384799039
 21
318.6444001371478
 31
0.0
  0
LINE
  5
432
330
1F
100
AcDbEntity
  8
1
  6
Continuous
 62
     7
370
    30
100
AcDbLine
 10
138.2336016659607
 20
320.2476241371478
 30
0.0
 11
139.0851399999998
 21
320.2476241371478
 31
0.0
  0
LINE
  5
433
330
1F
100
AcDbEntity
  8
1
  6
Continuous
 62
     7
370
    30
100
AcDbLine
 10
139.0851399999998
 20
320.2476241371478
 30
0.0
 11
139.0851399999998
 21
317.5755841371479
 31
0.0
  0
LINE
  5
434
330
1F
100
AcDbEntity
  8
1
  6
Continuous
 62
     7
370
    30
100
AcDbLine
 10
139.0851399999998
 20
317.5755841371479
 30
0.0
 11
139.6195479999998
 21
317.5755841371479
 31
0.0
  0
LINE
  5
435
330
1F
100
AcDbEntity
  8
1
  6
Continuous
 62
     7
370
    30
100
AcDbLine
 10
139.6195479999998
 20
317.5755841371479
 30
0.0
 11
139.6195479999998
 21
320.2476241371478
 31
0.0
  0
LINE
  5
436
330
1F
100
AcDbEntity
  8
1
  6
Continuous
 62
     7
370
    30
100
AcDbLine
 10
139.6195479999998
 20
320.2476241371478
 30
0.0
 11
140.4211599999998
 21
320.2476241371478
 31
0.0
  0
LINE
  5
437
330
1F
100
AcDbEntity
  8
1
  6
Continuous
 62
     7
370
    30
100
AcDbLine
 10
140.4211599999998
 20
320.7820321371478
 30
0.0
 11
138.2336016659607
 21
320.7820321371478
 31
0.0
  0
LINE
  5
438
330
1F
100
AcDbEntity
  8
1
  6
Continuous
 62
     7
370
    30
100
AcDbLine
 10
138.2336016659607
 20
320.7820321371478
 30
0.0
 11
138.2336016659607
 21
320.2476241371478
 31
0.0
  0
LINE
  5
439
330
1F
100
AcDbEntity
  8
1
  6
Continuous
 62
     7
370
    30
100
AcDbLine
 10
135.8786919999999
 20
320.2476241371478
 30
0.0
 11
136.9454824162177
 21
320.2476241371478
 31
0.0
  0
ARC
  5
43A
330
1F
100
AcDbEntity
  8
1
  6
Continuous
 62
     7
370
    30
100
AcDbCircle
 10
136.9454824162177
 20
319.7132241371478
 30
0.0
 40
0.5344000000000001
100
AcDbArc
 50
0.0
 51
89.99999999999991
  0
LINE
  5
43B
330
1F
100
AcDbEntity
  8
1
  6
Continuous
 62
     7
370
    30
100
AcDbLine
 10
137.4798824162177
 20
319.7132241371478
 30
0.0
 11
137.4798824162177
 21
319.7132081371478
 31
0.0
  0
LINE
  5
43C
330
1F
100
AcDbEntity
  8
1
  6
Continuous
 62
     7
370
    30
100
AcDbLine
 10
136.9454824162177
 20
319.1788081371478
 30
0.0
 11
135.6114879999999
 21
319.1788081371478
 31
0.0
  0
ARC
  5
43D
330
1F
100
AcDbEntity
  8
1
  6
Continuous
 62
     7
370
    30
100
AcDbCircle
 10
136.9454824162177
 20
319.7132081371478
 30
0.0
 40
0.5344000000000001
100
AcDbArc
 50
269.9999999999998
 51
0.0
  0
LINE
  5
43E
330
1F
100
AcDbEntity
  8
1
  6
Continuous
 62
     7
370
    30
100
AcDbLine
 10
136.9468960693683
 20
320.7820321371478
 30
0.0
 11
135.8786919999999
 21
320.7820321371478
 31
0.0
  0
ARC
  5
43F
330
1F
100
AcDbEntity
  8
1
  6
Continuous
 62
     7
370
    30
100
AcDbCircle
 10
136.9468960693683
 20
319.7132321371478
 30
0.0
 40
1.0688
100
AcDbArc
 50
0.0
 51
89.99999999999991
  0
LINE
  5
440
330
1F
100
AcDbEntity
  8
1
  6
Continuous
 62
     7
370
    30
100
AcDbLine
 10
138.0156960693683
 20
319.7132001371479
 30
0.0
 11
138.0156960693683
 21
319.7132321371478
 31
0.0
  0
LINE
  5
441
330
1F
100
AcDbEntity
  8
1
  6
Continuous
 62
     7
370
    30
100
AcDbLine
 10
137.0609384799039
 20
318.6444001371478
 30
0.0
 11
136.9468960693683
 21
318.6444001371478
 31
0.0
  0
LINE
  5
442
330
1F
100
AcDbEntity
  8
1
  6
DASHDOT
 62
     7
370
     9
100
AcDbLine
 10
293.724
 20
287.0755841371479
 30
0.0
 11
352.8110000000003
 21
287.0755841371479
 31
0.0
  0
MTEXT
  5
443
330
1F
100
AcDbEntity
  8
1
  6
Continuous
 62
     7
370
     9
100
AcDbMText
 10
728.8110448695505
 20
56.8879146515723
 30
0.0
 40
6.001769464635968
 41
53.52539797567224
 46
6.001769464635968
 71
     7
 72
     1
  1
{\fＭＳ ゴシック;\W0.714286;2022年07月14日}
 73
     1
 44
1.0
  0
MTEXT
  5
444
330
1F
100
AcDbEntity
  8
1
  6
Continuous
 62
     7
370
     9
100
AcDbMText
 10
680.8186811147451
 20
60.02666010873803
 30
0.0
 40
7.0
 41
68.56081740805989
 46
7.0
 71
     5
 72
     1
  1
{\fＭＳ ゴシック;\W0.714286;G19027-01-22714}
 73
     1
 44
1.0
  0
MTEXT
  5
445
330
1F
100
AcDbEntity
  8
1
  6
HIDDEN
 62
     7
370
     9
100
AcDbMText
 10
735.2340418802025
 20
450.6450961001494
 30
0.0
 40
6.0
 41
34.10861932237187
 46
6.0
 71
     5
 72
     1
  1
{\fＭＳ ゴシック;\W0.714286;\T1.133333;30Ｗ max}
 73
     1
 44
1.0
  0
MTEXT
  5
446
330
1F
100
AcDbEntity
  8
1
  6
Continuous
 62
     7
370
     9
100
AcDbMText
 10
664.9741613713502
 20
69.14122045844312
 30
0.0
 40
10.00294910772661
 41
26.90844384201829
 46
10.00294910772661
 71
     7
 72
     1
  1
{\fHG正楷書体-PRO;\W0.714286;\T1.080000;太田}
 73
     1
 44
1.0
  0
MTEXT
  5
447
330
1F
100
AcDbEntity
  8
1
  6
Continuous
 62
     7
370
     9
100
AcDbMText
 10
725.8365814638468
 20
74.14269501230642
 30
0.0
 40
10.00294910772661
 41
28.04204978234128
 46
10.00294910772661
 71
     5
 72
     1
  1
{\fHG正楷書体-PRO;\W0.714286;\T1.080000;齊藤}
 73
     1
 44
1.0
  0
MTEXT
  5
448
330
1F
100
AcDbEntity
  8
1
  6
PHANTOM
 62
     7
370
     9
100
AcDbMText
 10
735.2079120947271
 20
538.6499621278983
 30
0.0
 40
6.001769464635968
 41
51.76468595680384
 46
6.001769464635968
 71
     5
 72
     1
  1
{\fＭＳ ゴシック;\W0.714286;０３０３１０９}
 73
     1
 44
1.0
  0
MTEXT
  5
449
330
1F
100
AcDbEntity
  8
1
  6
PHANTOM
 62
     7
370
     9
100
AcDbMText
 10
735.2410024654566
 20
428.6450961001494
 30
0.0
 40
6.0
 41
104.2752592023609
 46
6.0
 71
     5
 72
     1
  1
{\fＭＳ ゴシック;\W0.714286;－10℃～50℃（結露なきこと）}
 73
     1
 44
1.0
  0
MTEXT
  5
44A
330
1F
100
AcDbEntity
  8
1
  6
Continuous
 62
     7
370
     9
100
AcDbMText
 10
777.8741136338917
 20
74.14269501230643
 30
0.0
 40
10.00294910772661
 41
27.13516503008288
 46
10.00294910772661
 71
     5
 72
     1
  1
{\fHG正楷書体-PRO;\W0.714286;\T1.080000;宮村}
 73
     1
 44
1.0
  0
MTEXT
  5
44B
330
1F
100
AcDbEntity
  8
1
  6
Continuous
 62
     7
370
     9
100
AcDbMText
 10
710.1403678417478
 20
92.88869507921736
 30
0.0
 40
10.00294910772661
 41
92.58274947533137
 46
10.00294910772661
 71
     5
 72
     1
  1
{\fＭＳ ゴシック;\W0.714286;\T1.080000;コントローラー}
 73
     1
 44
1.0
  0
MTEXT
  5
44C
330
1F
100
AcDbEntity
  8
1
  6
Continuous
 62
     7
370
     9
100
AcDbMText
 10
710.1994972064603
 20
110.023592861813
 30
0.0
 40
10.00294910772661
 41
104.5491081092307
 46
10.00294910772661
 71
     5
 72
     1
  1
{\fＭＳ ゴシック;\W0.714286;\T1.080000;Ｃ－３８３０ＳＡ}
 73
     1
 44
1.0
  0
MTEXT
  5
44D
330
1F
100
AcDbEntity
  8
1
  6
Continuous
 62
     7
370
     9
100
AcDbMText
 10
735.0870578810495
 20
124.5416830120191
 30
0.0
 40
6.0
 41
23.70667090927097
 46
6.0
 71
     5
 72
     1
  1
{\fＭＳ ゴシック;\W0.714286;―――}
 73
     1
 44
1.0
  0
MTEXT
  5
44E
330
1F
100
AcDbEntity
  8
1
  6
Continuous
 62
     7
370
     9
100
AcDbMText
 10
710.2340418802028
 20
406.6450961001494
 30
0.0
 40
6.0
 41
153.2412311994673
 46
6.0
 71
     5
 72
     1
  1
{\fＭＳ ゴシック;\W0.714286;外部入力　：接点容量　DC24Ｖ　0.1Ａ以上}
 73
     1
 44
1.0
  0
MTEXT
  5
44F
330
1F
100
AcDbEntity
  8
1
  6
Continuous
 62
     7
370
     9
100
AcDbMText
 10
710.2410024654566
 20
351.6450961001494
 30
0.0
 40
6.0
 41
153.2435141993622
 46
6.0
 71
     5
 72
     1
  1
{\fＭＳ ゴシック;\W0.714286;外部出力　：接点容量　DC24Ｖ　0.3Ａ以下}
 73
     1
 44
1.0
  0
MTEXT
  5
450
330
1F
100
AcDbEntity
  8
1
  6
Continuous
 62
     7
370
     9
100
AcDbMText
 10
735.2410024654566
 20
461.6450961001494
 30
0.0
 40
6.0
 41
90.33193246888457
 46
6.0
 71
     5
 72
     1
  1
{\fＭＳ ゴシック;\W0.714286;AC100Ｖ±10％　50／60Hz}
 73
     1
 44
1.0
  0
MTEXT
  5
451
330
1F
100
AcDbEntity
  8
1
  6
PHANTOM
 62
     7
370
     9
100
AcDbMText
 10
735.2410024654566
 20
483.6450961001494
 30
0.0
 40
6.0
 41
22.68674070619732
 46
6.0
 71
     5
 72
     1
  1
{\fＭＳ ゴシック;\W0.714286;黒　色}
 73
     1
 44
1.0
  0
MTEXT
  5
452
330
1F
100
AcDbEntity
  8
1
  6
PHANTOM
 62
     7
370
     9
100
AcDbMText
 10
735.2410024654566
 20
505.6450961001494
 30
0.0
 40
6.0
 41
21.97625211388645
 46
6.0
 71
     5
 72
     1
  1
{\fＭＳ ゴシック;\W0.714286;白　色}
 73
     1
 44
1.0
  0
MTEXT
  5
453
330
1F
100
AcDbEntity
  8
1
  6
PHANTOM
 62
     7
370
     9
100
AcDbMText
 10
658.2205024654568
 20
483.2576961001494
 30
0.0
 40
6.0
 41
22.59418408545579
 46
6.0
 71
     5
 72
     1
  1
{\fＭＳ ゴシック;\W0.714286;文　字}
 73
     1
 44
1.0
  0
MTEXT
  5
454
330
1F
100
AcDbEntity
  8
1
  6
PHANTOM
 62
     7
370
     9
100
AcDbMText
 10
658.1560024654566
 20
494.2575961001494
 30
0.0
 40
6.0
 41
22.99570669198199
 46
6.0
 71
     5
 72
     1
  1
{\fＭＳ ゴシック;\W0.714286;パネル}
 73
     1
 44
1.0
  0
MTEXT
  5
455
330
1F
100
AcDbEntity
  8
1
  6
PHANTOM
 62
     7
370
     9
100
AcDbMText
 10
632.3905024654566
 20
494.6026961001494
 30
0.0
 40
6.0
 41
22.71765632977491
 46
6.0
 71
     5
 72
     1
  1
{\fＭＳ ゴシック;\W0.714286;彩　色}
 73
     1
 44
1.0
  0
MTEXT
  5
456
330
1F
100
AcDbEntity
  8
1
  6
PHANTOM
 62
     7
370
     9
100
AcDbMText
 10
657.6394024654567
 20
505.2575961001494
 30
0.0
 40
6.0
 41
22.99504081701263
 46
6.0
 71
     5
 72
     1
  1
{\fＭＳ ゴシック;\W0.714286;本　体}
 73
     1
 44
1.0
  0
LINE
  5
457
330
1F
100
AcDbEntity
  8
1
  6
Continuous
 62
     7
370
     9
100
AcDbLine
 10
645.173997355871
 20
489.1450961001494
 30
0.0
 11
800.2410024654566
 21
489.1450961001494
 31
0.0
  0
LINE
  5
458
330
1F
100
AcDbEntity
  8
1
  6
Continuous
 62
     7
370
     9
100
AcDbLine
 10
645.173997355871
 20
500.1450961001494
 30
0.0
 11
800.4347024654567
 21
500.1450961001494
 31
0.0
  0
LINE
  5
459
330
1F
100
AcDbEntity
  8
1
  6
Continuous
 62
     7
370
     9
100
AcDbLine
 10
645.173997355871
 20
511.1450961001494
 30
0.0
 11
645.173997355871
 21
478.1450961001494
 31
0.0
  0
MTEXT
  5
45A
330
1F
100
AcDbEntity
  8
1
  6
Continuous
 62
     7
370
     9
100
AcDbMText
 10
645.2270812949487
 20
362.5120961001495
 30
0.0
 40
6.0
 41
54.43708612038389
 46
6.0
 71
     5
 72
     1
  1
{\fＭＳ ゴシック;\W0.714286;ﾃﾝｷｰ停止入力※}
 73
     1
 44
1.0
  0
MTEXT
  5
45B
330
1F
100
AcDbEntity
  8
1
  6
PHANTOM
 62
     7
370
     9
100
AcDbMText
 10
645.4123024654564
 20
298.8089901704972
 30
0.0
 40
6.0
 41
58.48693768405275
 46
6.0
 71
     5
 72
     1
  1
{\fＭＳ ゴシック;\W0.714286;ﾎｰﾙﾄﾞｱｯﾌﾟ出力※}
 73
     1
 44
1.0
  0
MTEXT
  5
45C
330
1F
100
AcDbEntity
  8
1
  6
Continuous
 62
     7
370
     9
100
AcDbMText
 10
722.2270812949489
 20
384.6450961001494
 30
0.0
 40
6.0
 41
129.6857139082418
 46
6.0
 71
     5
 72
     1
  1
{\fＭＳ ゴシック;\W0.714286;瞬時（0.2秒以上）メイク時連続解錠}
 73
     1
 44
1.0
  0
MTEXT
  5
45D
330
1F
100
AcDbEntity
  8
1
  6
Continuous
 62
     7
370
     9
100
AcDbMText
 10
722.2270812949487
 20
395.6450961001494
 30
0.0
 40
6.0
 41
129.6857139082418
 46
6.0
 71
     5
 72
     1
  1
{\fＭＳ ゴシック;\W0.714286;瞬時（0.2秒以上）メイク時一回解錠}
 73
     1
 44
1.0
  0
MTEXT
  5
45E
330
1F
100
AcDbEntity
  8
1
  6
Continuous
 62
     7
370
     9
100
AcDbMText
 10
710.2410024654566
 20
254.6450961001494
 30
0.0
 40
6.0
 41
167.1560524662671
 46
6.0
 71
     5
 72
     1
  1
{\fＭＳ ゴシック;\W0.714286;\T1.133333;※設定にてメイク／ブレイクの切り換え可能}
 73
     1
 44
1.0
  0
MTEXT
  5
45F
330
1F
100
AcDbEntity
  8
1
  6
Continuous
 62
     7
370
     9
100
AcDbMText
 10
727.2410024654569
 20
268.1450961001494
 30
0.0
 40
6.0
 41
123.2235310778347
 46
6.0
 71
     5
 72
     1
  1
{\fＭＳ ゴシック;\W0.714286;\T1.133333;ＪＥＭ－Ａ標準コネクタにて出力}
 73
     1
 44
1.0
  0
MTEXT
  5
460
330
1F
100
AcDbEntity
  8
1
  6
PHANTOM
 62
     7
370
     9
100
AcDbMText
 10
735.2410024654566
 20
472.6450961001494
 30
0.0
 40
6.0
 41
25.37744633239965
 46
6.0
 71
     5
 72
     1
  1
{\fＭＳ ゴシック;\W0.714286;約200ｇ}
 73
     1
 44
1.0
  0
MTEXT
  5
461
330
1F
100
AcDbEntity
  8
1
  6
Continuous
 62
     7
370
     9
100
AcDbMText
 10
792.2340418802028
 20
271.6450961001494
 30
0.0
 40
6.0
 41
13.16857037607035
 46
6.0
 71
     5
 72
     1
  1
{\fＭＳ ゴシック;\W0.714286;\T1.133333;１点}
 73
     1
 44
1.0
  0
MTEXT
  5
462
330
1F
100
AcDbEntity
  8
1
  6
Continuous
 62
     7
370
     9
100
AcDbMText
 10
645.2410024654571
 20
270.6450961001494
 30
0.0
 40
6.0
 41
38.5883624023657
 46
6.0
 71
     5
 72
     1
  1
{\fＭＳ ゴシック;\W0.714286;\T1.133333;ＪＥＭ－Ａ}
 73
     1
 44
1.0
  0
LINE
  5
463
330
1F
100
AcDbEntity
  8
1
  6
Continuous
 62
     7
370
    30
100
AcDbLine
 10
620.234041880203
 20
249.1450961001494
 30
0.0
 11
800.2340418802028
 21
249.1450961001494
 31
0.0
  0
MTEXT
  5
464
330
1F
100
AcDbEntity
  8
1
  6
Continuous
 62
     7
370
     9
100
AcDbMText
 10
786.5520418802025
 20
314.59
 30
0.0
 40
6.0
 41
12.64135091837939
 46
6.0
 71
     5
 72
     1
  1
{\fＭＳ ゴシック;\W0.714286;１点}
 73
     1
 44
1.0
  0
MTEXT
  5
465
330
1F
100
AcDbEntity
  8
1
  6
Continuous
 62
     7
370
     9
100
AcDbMText
 10
786.6629601244409
 20
322.4366502341276
 30
0.0
 40
6.0
 41
22.96479106840439
 46
6.0
 71
     5
 72
     1
  1
{\fＭＳ ゴシック;\W0.714286;何れか}
 73
     1
 44
1.0
  0
MTEXT
  5
466
330
1F
100
AcDbEntity
  8
1
  6
Continuous
 62
     7
370
     9
100
AcDbMText
 10
786.5520418802025
 20
374.7015961001494
 30
0.0
 40
6.0
 41
12.64135091837939
 46
6.0
 71
     5
 72
     1
  1
{\fＭＳ ゴシック;\W0.714286;１点}
 73
     1
 44
1.0
  0
MTEXT
  5
467
330
1F
100
AcDbEntity
  8
1
  6
Continuous
 62
     7
370
     9
100
AcDbMText
 10
786.6629601244409
 20
382.548246334277
 30
0.0
 40
6.0
 41
22.96479106840439
 46
6.0
 71
     5
 72
     1
  1
{\fＭＳ ゴシック;\W0.714286;何れか}
 73
     1
 44
1.0
  0
LINE
  5
468
330
1F
100
AcDbEntity
  8
1
  6
Continuous
 62
     7
370
     9
100
AcDbLine
 10
620.2410024654569
 20
456.1440961001495
 30
0.0
 11
800.2410024654566
 21
456.1440961001495
 31
0.0
  0
LINE
  5
469
330
1F
100
AcDbEntity
  8
1
  6
Continuous
 62
     7
370
     9
100
AcDbLine
 10
620.2410024654569
 20
456.1440961001495
 30
0.0
 11
800.2410024654566
 21
456.1440961001495
 31
0.0
  0
MTEXT
  5
46A
330
1F
100
AcDbEntity
  8
1
  6
PHANTOM
 62
     7
370
     9
100
AcDbMText
 10
645.2410024654566
 20
516.6450961001494
 30
0.0
 40
6.0
 41
22.93387544482681
 46
6.0
 71
     5
 72
     1
  1
{\fＭＳ ゴシック;\W0.714286;材　質}
 73
     1
 44
1.0
  0
LINE
  5
46B
330
1F
100
AcDbEntity
  8
1
  6
Continuous
 62
     7
370
     9
100
AcDbLine
 10
800.2410024654566
 20
511.1450961001494
 30
0.0
 11
620.2410024654569
 21
511.1450961001494
 31
0.0
  0
LINE
  5
46C
330
1F
100
AcDbEntity
  8
1
  6
Continuous
 62
     7
370
     9
100
AcDbLine
 10
620.2410024654569
 20
467.1450961001494
 30
0.0
 11
800.2410024654566
 21
467.1450961001494
 31
0.0
  0
LINE
  5
46D
330
1F
100
AcDbEntity
  8
1
  6
Continuous
 62
     7
370
     9
100
AcDbLine
 10
620.2410024654569
 20
478.1450961001494
 30
0.0
 11
800.2410024654566
 21
478.1450961001494
 31
0.0
  0
MTEXT
  5
46E
330
1F
100
AcDbEntity
  8
1
  6
PHANTOM
 62
     7
370
     9
100
AcDbMText
 10
645.2410024654566
 20
472.6450961001494
 30
0.0
 40
6.0
 41
22.7485719533525
 46
6.0
 71
     5
 72
     1
  1
{\fＭＳ ゴシック;\W0.714286;重　量}
 73
     1
 44
1.0
  0
MTEXT
  5
46F
330
1F
100
AcDbEntity
  8
1
  6
Continuous
 62
     7
370
     9
100
AcDbMText
 10
645.2410024654569
 20
461.6450961001493
 30
0.0
 40
6.0
 41
30.75676483490058
 46
6.0
 71
     5
 72
     1
  1
{\fＭＳ ゴシック;\W0.714286;入力電源}
 73
     1
 44
1.0
  0
MTEXT
  5
470
330
1F
100
AcDbEntity
  8
1
  6
Continuous
 62
     7
370
     9
100
AcDbMText
 10
645.2410024654569
 20
450.6450961001494
 30
0.0
 40
6.0
 41
30.14054511325246
 46
6.0
 71
     5
 72
     1
  1
{\fＭＳ ゴシック;\W0.714286;消費電力}
 73
     1
 44
1.0
  0
MTEXT
  5
471
330
1F
100
AcDbEntity
  8
1
  6
PHANTOM
 62
     7
370
     9
100
AcDbMText
 10
735.2410024654566
 20
516.6450961001494
 30
0.0
 40
6.0
 41
23.05744281414155
 46
6.0
 71
     5
 72
     1
  1
{\fＭＳ ゴシック;\W0.714286;樹　脂}
 73
     1
 44
1.0
  0
LINE
  5
472
330
1F
100
AcDbEntity
  8
1
  6
Continuous
 62
     7
370
     9
100
AcDbLine
 10
620.2410024654569
 20
401.1450961001494
 30
0.0
 11
800.2410024654566
 21
401.1450961001494
 31
0.0
  0
LINE
  5
473
330
1F
100
AcDbEntity
  8
1
  6
Continuous
 62
     7
370
     9
100
AcDbLine
 10
620.2410024654569
 20
445.1450961001494
 30
0.0
 11
800.2410024654566
 21
445.1450961001494
 31
0.0
  0
LINE
  5
474
330
1F
100
AcDbEntity
  8
1
  6
Continuous
 62
     7
370
     9
100
AcDbLine
 10
620.2410024654569
 20
445.1450961001494
 30
0.0
 11
800.2410024654566
 21
445.1450961001494
 31
0.0
  0
LINE
  5
475
330
1F
100
AcDbEntity
  8
1
  6
Continuous
 62
     7
370
     9
100
AcDbLine
 10
620.2410024654569
 20
412.1450961001494
 30
0.0
 11
800.2410024654566
 21
412.1450961001494
 31
0.0
  0
LINE
  5
476
330
1F
100
AcDbEntity
  8
1
  6
Continuous
 62
     7
370
     9
100
AcDbLine
 10
620.2410024654569
 20
434.1450961001494
 30
0.0
 11
800.2410024654566
 21
434.1450961001494
 31
0.0
  0
LINE
  5
477
330
1F
100
AcDbEntity
  8
1
  6
Continuous
 62
     7
370
     9
100
AcDbLine
 10
620.2410024654569
 20
423.1450961001494
 30
0.0
 11
800.2410024654566
 21
423.1450961001494
 31
0.0
  0
LINE
  5
478
330
1F
100
AcDbEntity
  8
1
  6
Continuous
 62
     7
370
     9
100
AcDbLine
 10
670.2410024654569
 20
522.1450961001493
 30
0.0
 11
670.2410024654569
 21
412.1450586249925
 31
0.0
  0
MTEXT
  5
479
330
1F
100
AcDbEntity
  8
1
  6
PHANTOM
 62
     7
370
     9
100
AcDbMText
 10
645.2410024654566
 20
439.6450961001494
 30
0.0
 40
6.0
 41
30.69388721279354
 46
6.0
 71
     5
 72
     1
  1
{\fＭＳ ゴシック;\W0.714286;通信方式}
 73
     1
 44
1.0
  0
MTEXT
  5
47A
330
1F
100
AcDbEntity
  8
1
  6
PHANTOM
 62
     7
370
     9
100
AcDbMText
 10
645.2410024654566
 20
428.6450961001494
 30
0.0
 40
6.0
 41
46.67707435241715
 46
6.0
 71
     5
 72
     1
  1
{\fＭＳ ゴシック;\W0.714286;使用環境温度}
 73
     1
 44
1.0
  0
MTEXT
  5
47B
330
1F
100
AcDbEntity
  8
1
  6
PHANTOM
 62
     7
370
     9
100
AcDbMText
 10
645.2410024654566
 20
417.6450961001494
 30
0.0
 40
6.0
 41
30.75571845994873
 46
6.0
 71
     5
 72
     1
  1
{\fＭＳ ゴシック;\W0.714286;設置場所}
 73
     1
 44
1.0
  0
MTEXT
  5
47C
330
1F
100
AcDbEntity
  8
1
  6
PHANTOM
 62
     7
370
     9
100
AcDbMText
 10
735.2410024654566
 20
439.6450961001494
 30
0.0
 40
6.0
 41
70.04966627705889
 46
6.0
 71
     5
 72
     1
  1
{\fＭＳ ゴシック;\W0.714286;電源搬送波重畳方式}
 73
     1
 44
1.0
  0
MTEXT
  5
47D
330
1F
100
AcDbEntity
  8
1
  6
PHANTOM
 62
     7
370
     9
100
AcDbMText
 10
735.2410024654566
 20
417.6450961001494
 30
0.0
 40
6.0
 41
22.53282846327873
 46
6.0
 71
     5
 72
     1
  1
{\fＭＳ ゴシック;\W0.714286;屋　内}
 73
     1
 44
1.0
  0
MTEXT
  5
47E
330
1F
100
AcDbEntity
  8
1
  6
Continuous
 62
     7
370
     9
100
AcDbMText
 10
645.2270812949484
 20
395.5120961001494
 30
0.0
 40
6.0
 41
54.03841726372639
 46
6.0
 71
     5
 72
     1
  1
{\fＭＳ ゴシック;\W0.714286;一回解錠入力※}
 73
     1
 44
1.0
  0
LINE
  5
47F
330
1F
100
AcDbEntity
  8
1
  6
Continuous
 62
     7
370
     9
100
AcDbLine
 10
620.2410024654573
 20
390.1450961001494
 30
0.0
 11
774.2410024654569
 21
390.1450961001494
 31
0.0
  0
MTEXT
  5
480
330
1F
100
AcDbEntity
  8
1
  6
Continuous
 62
     7
370
     9
100
AcDbMText
 10
645.2270812949487
 20
384.5120961001494
 30
0.0
 40
6.0
 41
54.31351875106914
 46
6.0
 71
     5
 72
     1
  1
{\fＭＳ ゴシック;\W0.714286;連続解錠入力※}
 73
     1
 44
1.0
  0
LINE
  5
481
330
1F
100
AcDbEntity
  8
1
  6
Continuous
 62
     7
370
     9
100
AcDbLine
 10
620.2270812949491
 20
379.1450961001494
 30
0.0
 11
774.2410024654567
 21
379.1450961001494
 31
0.0
  0
MTEXT
  5
482
330
1F
100
AcDbEntity
  8
1
  6
Continuous
 62
     7
370
     9
100
AcDbMText
 10
645.2270812949487
 20
373.2490961001494
 30
0.0
 40
6.0
 41
53.69748927941227
 46
6.0
 71
     5
 72
     1
  1
{\fＭＳ ゴシック;\W0.714286;タイマー入力※}
 73
     1
 44
1.0
  0
LINE
  5
483
330
1F
100
AcDbEntity
  8
1
  6
Continuous
 62
     7
370
     9
100
AcDbLine
 10
620.2410024654569
 20
368.1450961001494
 30
0.0
 11
774.2410024654566
 21
368.1450961001494
 31
0.0
  0
LINE
  5
484
330
1F
100
AcDbEntity
  8
1
  6
Continuous
 62
     7
370
     9
100
AcDbLine
 10
670.2410024654566
 20
401.1503609186583
 30
0.0
 11
670.2410024654566
 21
357.1450961001494
 31
0.0
  0
LINE
  5
485
330
1F
100
AcDbEntity
  8
1
  6
Continuous
 62
     7
370
     9
100
AcDbLine
 10
774.2410024654566
 20
401.1450961001494
 30
0.0
 11
774.2410024654566
 21
357.1450961001494
 31
0.0
  0
LINE
  5
486
330
1F
100
AcDbEntity
  8
1
  6
Continuous
 62
     7
370
     9
100
AcDbLine
 10
620.2410024654569
 20
357.1450961001494
 30
0.0
 11
800.2270812949487
 21
357.1450961001494
 31
0.0
  0
LINE
  5
487
330
1F
100
AcDbEntity
  8
1
  6
Continuous
 62
     7
370
    30
100
AcDbLine
 10
620.2410024654569
 20
357.1450961001494
 30
0.0
 11
800.2270812949487
 21
357.1450961001494
 31
0.0
  0
LINE
  5
488
330
1F
100
AcDbEntity
  8
1
  6
Continuous
 62
     7
370
     9
100
AcDbLine
 10
620.2410024654569
 20
346.1450961001494
 30
0.0
 11
800.2270812949487
 21
346.1450961001494
 31
0.0
  0
LINE
  5
489
330
1F
100
AcDbEntity
  8
1
  6
Continuous
 62
     7
370
     9
100
AcDbLine
 10
670.2410024654566
 20
346.1450961001494
 30
0.0
 11
670.2410024654566
 21
304.1376901704972
 31
0.0
  0
LINE
  5
48A
330
1F
100
AcDbEntity
  8
1
  6
Continuous
 62
     7
370
     9
100
AcDbLine
 10
620.2410024654569
 20
293.1450961001494
 30
0.0
 11
800.2270812949487
 21
293.1450961001494
 31
0.0
  0
LINE
  5
48B
330
1F
100
AcDbEntity
  8
1
  6
Continuous
 62
     7
370
     9
100
AcDbLine
 10
620.2410024654569
 20
293.1450961001494
 30
0.0
 11
800.2270812949487
 21
293.1450961001494
 31
0.0
  0
LINE
  5
48C
330
1F
100
AcDbEntity
  8
1
  6
Continuous
 62
     7
370
     9
100
AcDbLine
 10
620.2479630507107
 20
282.1450961001494
 30
0.0
 11
800.2340418802028
 21
282.1450961001494
 31
0.0
  0
MTEXT
  5
48D
330
1F
100
AcDbEntity
  8
1
  6
Continuous
 62
     7
370
     9
100
AcDbMText
 10
710.2479630507105
 20
287.6450961001494
 30
0.0
 40
6.0
 41
38.5883624023657
 46
6.0
 71
     5
 72
     1
  1
{\fＭＳ ゴシック;\W0.714286;\T1.133333;ＪＥＭ－Ａ}
 73
     1
 44
1.0
  0
MTEXT
  5
48E
330
1F
100
AcDbEntity
  8
1
  6
Continuous
 62
     7
370
     9
100
AcDbMText
 10
727.2410024654569
 20
276.1450961001494
 30
0.0
 40
6.0
 41
99.99494332572347
 46
6.0
 71
     5
 72
     1
  1
{\fＭＳ ゴシック;\W0.714286;\T1.133333;入出力はＪＥＭ－Ａに準拠}
 73
     1
 44
1.0
  0
LINE
  5
48F
330
1F
100
AcDbEntity
  8
1
  6
Continuous
 62
     7
370
    30
100
AcDbLine
 10
620.2410024654569
 20
293.1450961001494
 30
0.0
 11
800.2340418802028
 21
293.1450961001494
 31
0.0
  0
LINE
  5
490
330
1F
100
AcDbEntity
  8
1
  6
Continuous
 62
     7
370
    30
100
AcDbLine
 10
620.234041880203
 20
260.1450961001494
 30
0.0
 11
800.2340418802028
 21
260.1450961001494
 31
0.0
  0
LINE
  5
491
330
1F
100
AcDbEntity
  8
1
  6
Continuous
 62
     7
370
     9
100
AcDbLine
 10
670.2340418802028
 20
282.1450961001494
 30
0.0
 11
670.2340418802028
 21
260.1450961001495
 31
0.0
  0
LINE
  5
492
330
1F
100
AcDbEntity
  8
1
  6
Continuous
 62
     7
370
     9
100
AcDbLine
 10
620.2410024654566
 20
293.1450961001495
 30
0.0
 11
800.2410024654564
 21
293.1450961001495
 31
0.0
  0
LINE
  5
493
330
1F
100
AcDbEntity
  8
1
  6
Continuous
 62
     7
370
     9
100
AcDbLine
 10
670.2410024654566
 20
335.1376901704972
 30
0.0
 11
670.2410024654566
 21
293.1302842408448
 31
0.0
  0
LINE
  5
494
330
1F
100
AcDbEntity
  8
1
  6
Continuous
 62
     7
370
     9
100
AcDbLine
 10
774.2410024654566
 20
346.1450961001494
 30
0.0
 11
774.2410024654566
 21
304.1388422269885
 31
0.0
  0
LINE
  5
495
330
1F
100
AcDbEntity
  8
1
  6
Continuous
 62
     7
370
     9
100
AcDbLine
 10
774.2410024654566
 20
335.1376901704972
 30
0.0
 11
774.2410024654566
 21
293.1314362973361
 31
0.0
  0
LINE
  5
496
330
1F
100
AcDbEntity
  8
1
  6
Continuous
 62
     7
370
     9
100
AcDbLine
 10
620.2410024654569
 20
336.1450961001494
 30
0.0
 11
774.2410024654566
 21
336.1450961001494
 31
0.0
  0
LINE
  5
497
330
1F
100
AcDbEntity
  8
1
  6
Continuous
 62
     7
370
     9
100
AcDbLine
 10
620.2410024654566
 20
326.1450961001495
 30
0.0
 11
774.2410024654566
 21
326.1450961001495
 31
0.0
  0
LINE
  5
498
330
1F
100
AcDbEntity
  8
1
  6
Continuous
 62
     7
370
     9
100
AcDbLine
 10
620.2410024654566
 20
315.1450961001495
 30
0.0
 11
774.2410024654566
 21
315.1450961001495
 31
0.0
  0
LINE
  5
499
330
1F
100
AcDbEntity
  8
1
  6
Continuous
 62
     7
370
     9
100
AcDbLine
 10
620.2410024654566
 20
304.1376901704972
 30
0.0
 11
774.2410024654566
 21
304.1376901704972
 31
0.0
  0
MTEXT
  5
49A
330
1F
100
AcDbEntity
  8
1
  6
Continuous
 62
     7
370
     9
100
AcDbMText
 10
645.2410024654569
 20
340.6450961001494
 30
0.0
 40
6.0
 41
38.51553997792421
 46
6.0
 71
     5
 72
     1
  1
{\fＭＳ ゴシック;\W0.714286;解錠出力※}
 73
     1
 44
1.0
  0
MTEXT
  5
49B
330
1F
100
AcDbEntity
  8
1
  6
Continuous
 62
     7
370
     9
100
AcDbMText
 10
645.2410024654566
 20
331.6450961001495
 30
0.0
 40
6.0
 41
38.08310174782043
 46
6.0
 71
     5
 72
     1
  1
{\fＭＳ ゴシック;\W0.714286;開扉出力※}
 73
     1
 44
1.0
  0
MTEXT
  5
49C
330
1F
100
AcDbEntity
  8
1
  6
PHANTOM
 62
     7
370
     9
100
AcDbMText
 10
645.2410024654564
 20
320.6450961001495
 30
0.0
 40
6.0
 41
38.33023648644991
 46
6.0
 71
     5
 72
     1
  1
{\fＭＳ ゴシック;\W0.714286;警報出力※}
 73
     1
 44
1.0
  0
MTEXT
  5
49D
330
1F
100
AcDbEntity
  8
1
  6
PHANTOM
 62
     7
370
     9
100
AcDbMText
 10
645.2410024654564
 20
309.6450961001495
 30
0.0
 40
6.0
 41
45.28701279137302
 46
6.0
 71
     5
 72
     1
  1
{\fＭＳ ゴシック;\W0.714286;自動扉出力※}
 73
     1
 44
1.0
  0
LINE
  5
49E
330
1F
100
AcDbEntity
  8
1
  6
Continuous
 62
     7
370
     9
100
AcDbLine
 10
784.2340418802028
 20
282.1450961001493
 30
0.0
 11
784.2340418802028
 21
260.1450961001493
 31
0.0
  0
LINE
  5
49F
330
1F
100
AcDbEntity
  8
1
  6
Continuous
 62
     7
370
     9
100
AcDbLine
 10
670.2410024654566
 20
357.1450961001494
 30
0.0
 11
670.2410024654566
 21
357.1409830986365
 31
0.0
  0
LINE
  5
4A0
330
1F
100
AcDbEntity
  8
1
  6
Continuous
 62
     7
370
     9
100
AcDbLine
 10
774.2410024654566
 20
357.1450961001494
 30
0.0
 11
774.2410024654566
 21
357.1450816580201
 31
0.0
  0
MTEXT
  5
4A1
330
1F
100
AcDbEntity
  8
1
  6
Continuous
 62
     7
370
     9
100
AcDbMText
 10
722.2270812949488
 20
373.6450961001494
 30
0.0
 40
6.0
 41
94.31805028548577
 46
6.0
 71
     5
 72
     1
  1
{\fＭＳ ゴシック;\W0.714286;連続入力メイク時連続解錠}
 73
     1
 44
1.0
  0
MTEXT
  5
4A2
330
1F
100
AcDbEntity
  8
1
  6
Continuous
 62
     7
370
     9
100
AcDbMText
 10
722.2270812949487
 20
362.6376901704972
 30
0.0
 40
6.0
 41
125.6975984667325
 46
6.0
 71
     5
 72
     1
  1
{\fＭＳ ゴシック;\W0.714286;連続入力メイク時テンキー操作不可}
 73
     1
 44
1.0
  0
MTEXT
  5
4A3
330
1F
100
AcDbEntity
  8
1
  6
Continuous
 62
     7
370
     9
100
AcDbMText
 10
722.7010024654567
 20
340.6450961001494
 30
0.0
 40
6.0
 41
69.21760794034137
 46
6.0
 71
     5
 72
     1
  1
{\fＭＳ ゴシック;\W0.714286;電気的解錠時メイク}
 73
     1
 44
1.0
  0
MTEXT
  5
4A4
330
1F
100
AcDbEntity
  8
1
  6
Continuous
 62
     7
370
     9
100
AcDbMText
 10
722.2270812949487
 20
330.6450961001494
 30
0.0
 40
6.0
 41
45.35084166343628
 46
6.0
 71
     5
 72
     1
  1
{\fＭＳ ゴシック;\W0.714286;開扉時メイク}
 73
     1
 44
1.0
  0
MTEXT
  5
4A5
330
1F
100
AcDbEntity
  8
1
  6
PHANTOM
 62
     7
370
     9
100
AcDbMText
 10
722.3730024654565
 20
320.3170961001495
 30
0.0
 40
6.0
 41
45.59797640206577
 46
6.0
 71
     5
 72
     1
  1
{\fＭＳ ゴシック;\W0.714286;警報時メイク}
 73
     1
 44
1.0
  0
MTEXT
  5
4A6
330
1F
100
AcDbEntity
  8
1
  6
PHANTOM
 62
     7
370
     9
100
AcDbMText
 10
723.3560024654563
 20
309.6440961001495
 30
0.0
 40
6.0
 41
68.38355197871576
 46
6.0
 71
     5
 72
     1
  1
{\fＭＳ ゴシック;\W0.714286;自動扉出力時メイク}
 73
     1
 44
1.0
  0
MTEXT
  5
4A7
330
1F
100
AcDbEntity
  8
1
  6
PHANTOM
 62
     7
370
     9
100
AcDbMText
 10
722.3730024654564
 20
298.3096901704972
 30
0.0
 40
6.0
 41
92.80632385503937
 46
6.0
 71
     5
 72
     1
  1
{\fＭＳ ゴシック;\W0.714286;テンキー特殊操作時メイク}
 73
     1
 44
1.0
  0
MTEXT
  5
4A8
330
1F
100
AcDbEntity
  8
1
  6
PHANTOM
 62
     7
370
     9
100
AcDbMText
 10
735.2410024654566
 20
494.6450961001494
 30
0.0
 40
6.0
 41
45.84463551571714
 46
6.0
 71
     5
 72
     1
  1
{\fＭＳ ゴシック;\W0.714286;ライトグレー}
 73
     1
 44
1.0
  0
MTEXT
  5
4A9
330
1F
100
AcDbEntity
  8
1
  6
Continuous
 62
     7
370
     9
100
AcDbMText
 10
625.843728739258
 20
69.03041637095424
 30
0.0
 40
6.001769464635968
 41
19.38990771492267
 46
6.001769464635968
 71
     7
 72
     1
  1
{\fＭＳ ゴシック;\W0.714286;１：２}
 73
     1
 44
1.0
  0
MTEXT
  5
4AA
330
1F
100
AcDbEntity
  8
1
  6
Continuous
 62
     7
370
     9
100
AcDbMText
 10
386.1401297140023
 20
29.86905720108402
 30
0.0
 40
8.0
 41
0.0
 46
8.0
 71
     7
 72
     1
  1
{\fＭＳ 明朝;\W0.714286;　}
 73
     1
 44
1.0
  0
LINE
  5
4AB
330
1F
100
AcDbEntity
  8
1
  6
Continuous
 62
     7
370
     9
100
AcDbLine
 10
620.1739973558706
 20
84.01592518172367
 30
0.0
 11
800.2276
 21
84.01592518172367
 31
0.0
  0
LINE
  5
4AC
330
1F
100
AcDbEntity
  8
1
  6
Continuous
 62
     7
370
     9
100
AcDbLine
 10
800.2276
 20
66.01063047111603
 30
0.0
 11
620.1739973558706
 21
66.01061678781582
 31
0.0
  0
MTEXT
  5
4AD
330
1F
100
AcDbEntity
  8
1
  6
Continuous
 62
     7
370
     9
100
AcDbMText
 10
701.619908993935
 20
78.36593713974185
 30
0.0
 40
5.001474255752193
 41
12.5004487811355
 46
5.001474255752193
 71
     7
 72
     1
  1
{\fＭＳ ゴシック;\W0.714286;\T1.080000;検図}
 73
     1
 44
1.0
  0
MTEXT
  5
4AE
330
1F
100
AcDbEntity
  8
1
  6
Continuous
 62
     7
370
     9
100
AcDbMText
 10
651.6051634553019
 20
78.36593713974185
 30
0.0
 40
5.001474255752193
 41
12.91182710516572
 46
5.001474255752193
 71
     7
 72
     1
  1
{\fＭＳ ゴシック;\W0.714286;\T1.080000;承認}
 73
     1
 44
1.0
  0
LINE
  5
4AF
330
1F
100
AcDbEntity
  8
1
  6
Continuous
 62
     7
370
     9
100
AcDbLine
 10
777.8484599495464
 20
60.00708971840034
 30
0.0
 11
798.9390024654563
 21
60.00708971840034
 31
0.0
  0
LINE
  5
4B0
330
1F
100
AcDbEntity
  8
1
  6
Continuous
 62
     7
370
     9
100
AcDbLine
 10
787.6070024654559
 20
58.08708971840035
 30
0.0
 11
797.8470024654562
 21
56.80708971840032
 31
0.0
  0
LINE
  5
4B1
330
1F
100
AcDbEntity
  8
1
  6
Continuous
 62
     7
370
     9
100
AcDbLine
 10
787.6070024654559
 20
61.92708971840032
 30
0.0
 11
797.8470024654562
 21
63.20708971840034
 31
0.0
  0
LINE
  5
4B2
330
1F
100
AcDbEntity
  8
1
  6
Continuous
 62
     7
370
     9
100
AcDbLine
 10
797.8470024654562
 20
63.20708971840034
 30
0.0
 11
797.8470024654562
 21
56.80708971840032
 31
0.0
  0
LINE
  5
4B3
330
1F
100
AcDbEntity
  8
1
  6
Continuous
 62
     7
370
     9
100
AcDbLine
 10
787.6070024654559
 20
61.92708971840032
 30
0.0
 11
787.6070024654559
 21
58.08708971840035
 31
0.0
  0
CIRCLE
  5
4B4
330
1F
100
AcDbEntity
  8
1
  6
Continuous
 62
     7
370
     9
100
AcDbCircle
 10
782.3284599495464
 20
60.00708971840034
 30
0.0
 40
3.200000000000045
  0
CIRCLE
  5
4B5
330
1F
100
AcDbEntity
  8
1
  6
Continuous
 62
     7
370
     9
100
AcDbCircle
 10
782.3284599495464
 20
60.00708971840034
 30
0.0
 40
1.919999999999959
  0
LINE
  5
4B6
330
1F
100
AcDbEntity
  8
1
  6
Continuous
 62
     7
370
     9
100
AcDbLine
 10
782.3284599495464
 20
64.48708971840033
 30
0.0
 11
782.3284599495464
 21
55.52708971840035
 31
0.0
  0
LINE
  5
4B7
330
1F
100
AcDbEntity
  8
1
  6
Continuous
 62
     7
370
     9
100
AcDbLine
 10
776.2270812949487
 20
66.00708971885878
 30
0.0
 11
776.2270812949487
 21
54.00708971794189
 31
0.0
  0
MTEXT
  5
4B8
330
1F
100
AcDbEntity
  8
1
  6
Continuous
 62
     7
370
     9
100
AcDbMText
 10
712.2643349687983
 20
57.24295918608742
 30
0.0
 40
4.999999701976776
 41
11.77587446880253
 46
4.999999701976776
 71
     7
 72
     1
  1
{\fＭＳ ゴシック;\W0.714286;\T1.080000;日付}
 73
     1
 44
1.0
  0
LINE
  5
4B9
330
1F
100
AcDbEntity
  8
1
  6
Continuous
 62
     7
370
     9
100
AcDbLine
 10
724.2410024654564
 20
66.00709457639337
 30
0.0
 11
724.2410024654564
 21
54.00709453057648
 31
0.0
  0
LINE
  5
4BA
330
1F
100
AcDbEntity
  8
1
  6
Continuous
 62
     7
370
     9
100
AcDbLine
 10
710.2410024654564
 20
66.00708470379799
 30
0.0
 11
710.2410024654564
 21
54.00708470379797
 31
0.0
  0
LINE
  5
4BB
330
1F
100
AcDbEntity
  8
1
  6
Continuous
 62
     7
370
    30
100
AcDbLine
 10
620.1729552369205
 20
119.0262470587667
 30
0.0
 11
800.2260391759982
 21
119.0262470587667
 31
0.0
  0
LINE
  5
4BC
330
1F
100
AcDbEntity
  8
1
  6
Continuous
 62
     7
370
     9
100
AcDbLine
 10
670.1877007755528
 20
130.029491077266
 30
0.0
 11
670.1877007755528
 21
119.0262470587667
 31
0.0
  0
LINE
  5
4BD
330
1F
100
AcDbEntity
  8
1
  6
Continuous
 62
     7
370
    30
100
AcDbLine
 10
620.1729552369205
 20
119.0262470587668
 30
0.0
 11
800.2260391759982
 21
119.0262470587667
 31
0.0
  0
MTEXT
  5
4BE
330
1F
100
AcDbEntity
  8
1
  6
Continuous
 62
     7
370
     9
100
AcDbMText
 10
645.1803280062367
 20
124.5278690680165
 30
0.0
 40
6.001769464635968
 41
32.03776121757802
 46
6.001769464635968
 71
     5
 72
     1
  1
{\fＭＳ ゴシック;\W0.714286;\T1.133333;図面履歴}
 73
     1
 44
1.0
  0
LINE
  5
4BF
330
1F
100
AcDbEntity
  8
1
  6
Continuous
 62
     7
370
    30
100
AcDbLine
 10
620.1729552369205
 20
130.0294910772661
 30
0.0
 11
800.2260391759982
 21
130.029491077266
 31
0.0
  0
LINE
  5
4C0
330
1F
100
AcDbEntity
  8
1
  6
Continuous
 62
     7
370
     9
100
AcDbLine
 10
669.9053138361578
 20
544.1515841371479
 30
0.0
 11
669.9053138361578
 21
533.148340118649
 31
0.0
  0
LINE
  5
4C1
330
1F
100
AcDbEntity
  8
1
  6
Continuous
 62
     7
370
     9
100
AcDbLine
 10
620.1729552369205
 20
119.0262470587668
 30
0.0
 11
800.2260391759986
 21
119.0262470587668
 31
0.0
  0
MTEXT
  5
4C2
330
1F
100
AcDbEntity
  8
1
  6
Continuous
 62
     7
370
     9
100
AcDbMText
 10
621.0352626479404
 20
113.2556965905993
 30
0.0
 40
5.001474255752193
 41
19.41287650385584
 46
5.001474255752193
 71
     7
 72
     1
  1
{\fＭＳ ゴシック;\W0.714286;\T1.080000;型　式}
 73
     1
 44
1.0
  0
LINE
  5
4C3
330
1F
100
AcDbEntity
  8
1
  6
Continuous
 62
     7
370
    50
100
AcDbLine
 10
800.2276
 20
29.99935428169488
 30
0.0
 11
800.2276
 21
544.1509384659868
 31
0.0
  0
LINE
  5
4C4
330
1F
100
AcDbEntity
  8
1
  6
Continuous
 62
     7
370
    50
100
AcDbLine
 10
30.0
 20
544.1515841371479
 30
0.0
 11
800.2276000002706
 21
544.1515841371479
 31
0.0
  0
LINE
  5
4C5
330
1F
100
AcDbEntity
  8
1
  6
Continuous
 62
     7
370
    30
100
AcDbLine
 10
800.2201186569439
 20
290.8695929455635
 30
0.0
 11
800.2201186569439
 21
295.1337222712964
 31
0.0
  0
MTEXT
  5
4C6
330
1F
100
AcDbEntity
  8
1
  6
PHANTOM
 62
     7
370
     9
100
AcDbMText
 10
710.2005393254103
 20
527.646718109399
 30
0.0
 40
6.001769464635968
 41
54.51489453232013
 46
6.001769464635968
 71
     5
 72
     1
  1
{\fＭＳ ゴシック;\W0.714286;定　　　　　格}
 73
     1
 44
1.0
  0
MTEXT
  5
4C7
330
1F
100
AcDbEntity
  8
1
  6
PHANTOM
 62
     7
370
     9
100
AcDbMText
 10
645.1813701251867
 20
538.6499621278983
 30
0.0
 40
6.001769464635968
 41
38.61967284836267
 46
6.001769464635968
 71
     5
 72
     1
  1
{\fＭＳ ゴシック;\W0.714286;商品コード}
 73
     1
 44
1.0
  0
LINE
  5
4C8
330
1F
100
AcDbEntity
  8
1
  6
Continuous
 62
     7
370
    30
100
AcDbLine
 10
620.173997355871
 20
120.0265556528396
 30
0.0
 11
620.173997355871
 21
145.0339284221564
 31
0.0
  0
LINE
  5
4C9
330
1F
100
AcDbEntity
  8
1
  6
Continuous
 62
     7
370
    30
100
AcDbLine
 10
620.173997355871
 20
544.1515841371479
 30
0.0
 11
620.173997355871
 21
145.0339284221564
 31
0.0
  0
LINE
  5
4CA
330
1F
100
AcDbEntity
  8
1
  6
Continuous
 62
     7
370
    30
100
AcDbLine
 10
620.173997355871
 20
522.1450961001494
 30
0.0
 11
800.2270812949487
 21
522.1450961001494
 31
0.0
  0
LINE
  5
4CB
330
1F
100
AcDbEntity
  8
1
  6
Continuous
 62
     7
370
    30
100
AcDbLine
 10
620.173997355871
 20
533.1483401186488
 30
0.0
 11
800.2270812949487
 21
533.1483401186488
 31
0.0
  0
LINE
  5
4CC
330
1F
100
AcDbEntity
  8
1
  6
Continuous
 62
     7
370
     9
100
AcDbLine
 10
750.2123357563164
 20
84.01592518172367
 30
0.0
 11
750.2123357563164
 21
66.01062671602966
 31
0.0
  0
LINE
  5
4CD
330
1F
100
AcDbEntity
  8
1
  6
Continuous
 62
     7
370
     9
100
AcDbLine
 10
700.1975902176832
 20
84.01592518172367
 30
0.0
 11
700.1975902176832
 21
66.01062291511295
 31
0.0
  0
LINE
  5
4CE
330
1F
100
AcDbEntity
  8
1
  6
Continuous
 62
     7
370
     9
100
AcDbLine
 10
650.18284467905
 20
84.01592518172367
 30
0.0
 11
650.18284467905
 21
66.01061911419623
 31
0.0
  0
MTEXT
  5
4CF
330
1F
100
AcDbEntity
  8
1
  6
Continuous
 62
     7
370
     9
100
AcDbMText
 10
752.3202406398691
 20
77.71173931205237
 30
0.0
 40
5.001474255752193
 41
12.44890754932755
 46
5.001474255752193
 71
     7
 72
     1
  1
{\fＭＳ ゴシック;\W0.714286;\T1.080000;作図}
 73
     1
 44
1.0
  0
MTEXT
  5
4D0
330
1F
100
AcDbEntity
  8
1
  6
Continuous
 62
     7
370
     9
100
AcDbMText
 10
624.4504703794573
 20
57.02676648317282
 30
0.0
 40
5.001474255752193
 41
26.14506850365393
 46
5.001474255752193
 71
     7
 72
     1
  1
{\fＭＳ ゴシック;\W0.714286;\T1.080000;図面番号}
 73
     1
 44
1.0
  0
MTEXT
  5
4D1
330
1F
100
AcDbEntity
  8
1
  6
Continuous
 62
     7
370
     9
100
AcDbMText
 10
733.2249660973202
 20
30.77398454764409
 30
0.0
 40
20.00589821545323
 41
72.43645106336889
 46
20.00589821545323
 71
     7
 72
     1
  1
{\fＭＳ ゴシック|b1;\W0.714286;アート}
 73
     1
 44
1.0
  0
INSERT
  5
4D6
330
1F
100
AcDbEntity
  8
0
100
AcDbBlockReference
  2
*G23
 10
0.0
 20
0.0
 30
0.0
  0
HATCH
  5
4D7
330
1F
100
AcDbEntity
  8
1
  6
Continuous
 62
     7
370
     9
100
AcDbHatch
 10
0.0
 20
0.0
 30
0.0
210
0.0
220
0.0
230
1.0
  2
SOLID
 70
     1
 71
     0
 91
        1
 92
        0
 93
        8
 72
     1
 10
628.7567970696527
 20
31.75764003917044
 11
635.0923691565831
 21
31.75764003917044
 72
     1
 10
635.0923691565831
 20
31.75764003917044
 11
644.9661870231766
 21
41.53369603861245
 72
     1
 10
644.9661870231766
 20
41.53369603861245
 11
644.9661870231766
 21
36.01260033818744
 72
     1
 10
644.9661870231766
 20
36.01260033818744
 11
640.5086082792236
 21
36.01260033818744
 72
     1
 10
640.5086082792236
 20
36.01260033818744
 11
640.5086082792236
 21
31.75764003917044
 72
     1
 10
640.5086082792236
 20
31.75764003917044
 11
649.2211428147534
 21
31.75764003917044
 72
     1
 10
649.2211428147534
 20
31.75764003917044
 11
649.2211428147534
 21
52.01936283189514
 72
     1
 10
649.2211428147534
 20
52.01936283189514
 11
628.7567970696527
 21
31.75764003917044
 97
        0
 75
     0
 76
     1
 98
        0
  0
LINE
  5
4D8
330
1F
100
AcDbEntity
  8
1
  6
Continuous
 62
     7
370
     9
100
AcDbLine
 10
649.2211428147534
 20
52.01936283189514
 30
0.0
 11
628.7567970696527
 21
31.75764003917044
 31
0.0
  0
LINE
  5
4D9
330
1F
100
AcDbEntity
  8
1
  6
Continuous
 62
     7
370
     9
100
AcDbLine
 10
649.2211428147534
 20
31.75764003917044
 30
0.0
 11
649.2211428147534
 21
52.01936283189514
 31
0.0
  0
LINE
  5
4DA
330
1F
100
AcDbEntity
  8
1
  6
Continuous
 62
     7
370
     9
100
AcDbLine
 10
650.18284467905
 20
66.01061911419623
 30
0.0
 11
650.18284467905
 21
54.00708013909389
 31
0.0
  0
MTEXT
  5
4DB
330
1F
100
AcDbEntity
  8
1
  6
Continuous
 62
     7
370
     9
100
AcDbMText
 10
621.6659807516739
 20
78.17705092701885
 30
0.0
 40
5.001474255752193
 41
36.15880668080923
 46
5.001474255752193
 71
     7
 72
     1
  1
{\fＭＳ ゴシック;\W0.714286;\T1.080000;縮尺（Ａ３）}
 73
     1
 44
1.0
  0
LINE
  5
4DC
330
1F
100
AcDbEntity
  8
1
  6
Continuous
 62
     7
370
     9
100
AcDbLine
 10
800.2270812949487
 20
54.00709154184403
 30
0.0
 11
620.1739973558706
 21
54.00707785854382
 31
0.0
  0
LINE
  5
4DD
330
1F
100
AcDbEntity
  8
1
  6
Continuous
 62
     7
370
     9
100
AcDbLine
 10
620.1739973558706
 20
102.0212335756316
 30
0.0
 11
800.2270812949487
 21
102.0212472589318
 31
0.0
  0
LINE
  5
4DE
330
1F
100
AcDbEntity
  8
1
  6
Continuous
 62
     7
370
     9
100
AcDbLine
 10
620.173997355871
 20
102.0212472589318
 30
0.0
 11
800.2270812949487
 21
102.0212472589318
 31
0.0
  0
LINE
  5
4DF
330
1F
100
AcDbEntity
  8
1
  6
Continuous
 62
     7
370
    30
100
AcDbLine
 10
620.1739973558706
 20
30.0
 30
0.0
 11
620.1739973558706
 21
120.0265556528396
 31
0.0
  0
MTEXT
  5
4E0
330
1F
100
AcDbEntity
  8
1
  6
Continuous
 62
     7
370
     9
100
AcDbMText
 10
621.0363047668905
 20
95.928687852689
 30
0.0
 40
5.001474255752193
 41
18.82062810328111
 46
5.001474255752193
 71
     7
 72
     1
  1
{\fＭＳ ゴシック;\W0.714286;\T1.080000;製品名}
 73
     1
 44
1.0
  0
LINE
  5
4E1
330
1F
100
AcDbEntity
  8
1
  6
Continuous
 62
     7
370
    30
100
AcDbLine
 10
660.5677171344526
 20
39.45709587234023
 30
0.0
 11
660.5677171344526
 21
31.75764003917044
 31
0.0
  0
LINE
  5
4E2
330
1F
100
AcDbEntity
  8
1
  6
Continuous
 62
     7
370
    30
100
AcDbLine
 10
657.9336863651638
 20
39.45709587234023
 30
0.0
 11
660.5677171344526
 21
39.45709587234023
 31
0.0
  0
LINE
  5
4E3
330
1F
100
AcDbEntity
  8
1
  6
Continuous
 62
     7
370
    30
100
AcDbLine
 10
657.9336863651638
 20
41.88849918181285
 30
0.0
 11
657.9336863651638
 21
39.45709587234023
 31
0.0
  0
LINE
  5
4E4
330
1F
100
AcDbEntity
  8
1
  6
Continuous
 62
     7
370
    30
100
AcDbLine
 10
666.0383745807655
 20
41.88849918181285
 30
0.0
 11
657.9336863651638
 21
41.88849918181285
 31
0.0
  0
LINE
  5
4E5
330
1F
100
AcDbEntity
  8
1
  6
Continuous
 62
     7
370
    30
100
AcDbLine
 10
655.2996691181952
 20
35.08352679595964
 30
0.0
 11
658.8631159951551
 21
31.75764003917044
 31
0.0
  0
ARC
  5
4E6
330
1F
100
AcDbEntity
  8
1
  6
Continuous
 62
     7
370
    30
100
AcDbCircle
 10
654.4678661321545
 20
38.44400815509994
 30
0.0
 40
3.465820233009226
100
AcDbArc
 50
283.9448466306301
 51
83.64029606427442
  0
LINE
  5
4E7
330
1F
100
AcDbEntity
  8
1
  6
Continuous
 62
     7
370
    30
100
AcDbLine
 10
650.0316165944982
 20
41.88849918181285
 30
0.0
 11
654.8517783231707
 21
41.88849918181285
 31
0.0
  0
LINE
  5
4E8
330
1F
100
AcDbEntity
  8
1
  6
Continuous
 62
     7
370
    30
100
AcDbLine
 10
650.0316165944982
 20
41.88849918181285
 30
0.0
 11
650.0316165944982
 21
39.45709587234023
 31
0.0
  0
LINE
  5
4E9
330
1F
100
AcDbEntity
  8
1
  6
Continuous
 62
     7
370
    30
100
AcDbLine
 10
650.0316165944982
 20
39.45709587234023
 30
0.0
 11
654.0839629560187
 21
39.45709587234023
 31
0.0
  0
LINE
  5
4EA
330
1F
100
AcDbEntity
  8
1
  6
Continuous
 62
     7
370
    30
100
AcDbLine
 10
649.2211428147534
 20
37.43092043785975
 30
0.0
 11
654.0839629560187
 21
37.43092043785975
 31
0.0
  0
ARC
  5
4EB
330
1F
100
AcDbEntity
  8
1
  6
Continuous
 62
     7
370
    30
100
AcDbCircle
 10
654.0839629560187
 20
38.44400815509994
 30
0.0
 40
1.013087717240253
100
AcDbArc
 50
270.0000000949009
 51
89.99999990509872
  0
LINE
  5
4EC
330
1F
100
AcDbEntity
  8
1
  6
Continuous
 62
     7
370
    30
100
AcDbLine
 10
649.2211428147534
 20
37.43092043785975
 30
0.0
 11
655.2996691181952
 21
31.75764003917044
 31
0.0
  0
LINE
  5
4ED
330
1F
100
AcDbEntity
  8
1
  6
Continuous
 62
     7
370
    30
100
AcDbLine
 10
644.9661870231766
 20
36.01260033818744
 30
0.0
 11
640.5086082792236
 21
36.01260033818744
 31
0.0
  0
LINE
  5
4EE
330
1F
100
AcDbEntity
  8
1
  6
Continuous
 62
     7
370
    30
100
AcDbLine
 10
644.9661870231766
 20
41.53369603861245
 30
0.0
 11
644.9661870231766
 21
36.01260033818744
 31
0.0
  0
LINE
  5
4EF
330
1F
100
AcDbEntity
  8
1
  6
Continuous
 62
     7
370
    30
100
AcDbLine
 10
635.0923691565831
 20
31.75764003917044
 30
0.0
 11
644.9661870231766
 21
41.53369603861245
 31
0.0
  0
HATCH
  5
4F0
330
1F
100
AcDbEntity
  8
1
  6
Continuous
 62
     7
370
     9
100
AcDbHatch
 10
0.0
 20
0.0
 30
0.0
210
0.0
220
0.0
230
1.0
  2
SOLID
 70
     1
 71
     0
 91
        1
 92
        0
 93
        8
 72
     1
 10
657.9336863651638
 20
41.88849918181285
 11
666.0383745807655
 21
41.88849918181285
 72
     1
 10
666.0383745807655
 20
41.88849918181285
 11
666.0383745807655
 21
39.45709587234023
 72
     1
 10
666.0383745807655
 20
39.45709587234023
 11
663.404361841237
 21
39.45709587234023
 72
     1
 10
663.404361841237
 20
39.45709587234023
 11
663.404361841237
 21
31.75764003917044
 72
     1
 10
663.404361841237
 20
31.75764003917044
 11
660.5677171344526
 21
31.75764003917044
 72
     1
 10
660.5677171344526
 20
31.75764003917044
 11
660.5677171344526
 21
39.45709587234023
 72
     1
 10
660.5677171344526
 20
39.45709587234023
 11
657.9336863651638
 21
39.45709587234023
 72
     1
 10
657.9336863651638
 20
39.45709587234023
 11
657.9336863651638
 21
41.88849918181285
 97
        0
 75
     0
 76
     1
 98
        0
  0
HATCH
  5
4F1
330
1F
100
AcDbEntity
  8
1
  6
Continuous
 62
     7
370
     9
100
AcDbHatch
 10
0.0
 20
0.0
 30
0.0
210
0.0
220
0.0
230
1.0
  2
SOLID
 70
     1
 71
     0
 91
        1
 92
        0
 93
        9
 72
     1
 10
655.3030908749179
 20
35.08033315346677
 11
658.8631159951551
 21
31.75764003917044
 72
     1
 10
658.8631159951551
 20
31.75764003917044
 11
655.2996691181952
 21
31.75764003917044
 72
     1
 10
655.2996691181952
 20
31.75764003917044
 11
649.2211428147534
 21
37.43092043785975
 72
     1
 10
649.2211428147534
 20
37.43092043785975
 11
654.0839629560187
 21
37.43092043785975
 72
     2
 10
654.0839629560187
 20
38.44400815509994
 40
1.013087717240253
 50
270.0000000000001
 51
449.9999999999999
 73
     1
 72
     1
 10
654.0839629560187
 20
39.45709587234023
 11
650.0316165944982
 21
39.45709587234023
 72
     1
 10
650.0316165944982
 20
39.45709587234023
 11
650.0316165944982
 21
41.88849918181285
 72
     1
 10
650.0316165944982
 20
41.88849918181285
 11
654.0839501850635
 21
41.88849918181285
 72
     2
 10
654.4678661321545
 20
38.44400815509994
 40
3.465820233009226
 50
263.6401783120936
 51
436.0550774693177
 73
     0
 97
        0
 75
     0
 76
     1
 98
        0
  0
LINE
  5
4F2
330
1F
100
AcDbEntity
  8
1
  6
Continuous
 62
     7
370
    30
100
AcDbLine
 10
640.5086082792236
 20
36.01260033818744
 30
0.0
 11
640.5086082792236
 21
31.75764003917044
 31
0.0
  0
LINE
  5
4F3
330
1F
100
AcDbEntity
  8
1
  6
Continuous
 62
     7
370
    30
100
AcDbLine
 10
640.5086082792236
 20
31.75764003917044
 30
0.0
 11
649.2211428147534
 21
31.75764003917044
 31
0.0
  0
LINE
  5
4F4
330
1F
100
AcDbEntity
  8
1
  6
Continuous
 62
     7
370
    30
100
AcDbLine
 10
658.8631159951551
 20
31.75764003917044
 30
0.0
 11
655.2996691181952
 21
31.75764003917044
 31
0.0
  0
LINE
  5
4F5
330
1F
100
AcDbEntity
  8
1
  6
Continuous
 62
     7
370
    30
100
AcDbLine
 10
660.5677171344526
 20
31.75764003917044
 30
0.0
 11
663.404361841237
 21
31.75764003917044
 31
0.0
  0
LINE
  5
4F6
330
1F
100
AcDbEntity
  8
1
  6
Continuous
 62
     7
370
    30
100
AcDbLine
 10
663.404361841237
 20
31.75764003917044
 30
0.0
 11
663.404361841237
 21
39.45709587234023
 31
0.0
  0
LINE
  5
4F7
330
1F
100
AcDbEntity
  8
1
  6
Continuous
 62
     7
370
    30
100
AcDbLine
 10
663.404361841237
 20
39.45709587234023
 30
0.0
 11
666.0383745807655
 21
39.45709587234023
 31
0.0
  0
LINE
  5
4F8
330
1F
100
AcDbEntity
  8
1
  6
Continuous
 62
     7
370
    30
100
AcDbLine
 10
666.0383745807655
 20
39.45709587234023
 30
0.0
 11
666.0383745807655
 21
41.88849918181285
 31
0.0
  0
LINE
  5
4F9
330
1F
100
AcDbEntity
  8
1
  6
Continuous
 62
     7
370
    30
100
AcDbLine
 10
628.7567970696527
 20
31.75764003917044
 30
0.0
 11
635.0923691565831
 21
31.75764003917044
 31
0.0
  0
MTEXT
  5
4FA
330
1F
100
AcDbEntity
  8
1
  6
Continuous
 62
     7
370
     9
100
AcDbMText
 10
668.5505267764197
 20
31.618634421877
 30
0.0
 40
7.202123357563162
 41
78.16639748364327
 46
7.202123357563162
 71
     7
 72
     1
  1
{\fＭＳ ゴシック;\W1.488095;\T1.026667;株式会社}
 73
     1
 44
1.0
  0
MTEXT
  5
4FB
330
1F
100
AcDbEntity
  8
1
  6
Continuous
 62
     7
370
     9
100
AcDbMText
 10
668.4093695477598
 20
39.38228199816984
 30
0.0
 40
3.601061678781581
 41
45.4668049028037
 46
3.601061678781581
 71
     7
 72
     1
  1
{\fＭＳ ゴシック;\W0.873016;出入管理システム}
 73
     1
 44
1.0
  0
LINE
  5
4FC
330
1F
100
AcDbEntity
  8
1
  6
Continuous
 62
     7
370
     9
100
AcDbLine
 10
728.8790083865483
 20
41.40355367808888
 30
0.0
 11
703.9463322757124
 21
41.40355367808888
 31
0.0
  0
LINE
  5
4FD
330
1F
100
AcDbEntity
  8
1
  6
Continuous
 62
     7
370
    50
100
AcDbLine
 10
30.0
 20
30.0
 30
0.0
 11
800.2270812949487
 21
30.0
 31
0.0
  0
LINE
  5
4FE
330
1F
100
AcDbEntity
  8
1
  6
Continuous
 62
     7
370
    50
100
AcDbLine
 10
30.0
 20
544.1515841371479
 30
0.0
 11
30.0
 21
30.0
 31
0.0
  0
ENDSEC
  0
SECTION
  2
OBJECTS
  0
DICTIONARY
  5
C
330
0
100
AcDbDictionary
281
     1
  3
ACAD_DETAILVIEWSTYLE
350
506
  3
ACAD_GROUP
350
D
  3
ACAD_LAYOUT
350
1A
  3
ACAD_MATERIAL
350
43
  3
ACAD_MLEADERSTYLE
350
6B
  3
ACAD_MLINESTYLE
350
17
  3
ACAD_PLOTSETTINGS
350
19
  3
ACAD_PLOTSTYLENAME
350
E
  3
ACAD_SCALELIST
350
47
  3
ACAD_SECTIONVIEWSTYLE
350
507
  3
ACAD_TABLESTYLE
350
69
  3
ACAD_VISUALSTYLE
350
2A
  3
ACDB_RECOMPOSE_DATA
350
503
  3
AcDbVariableDictionary
350
4FF
  0
SUN
  5
6D
330
29
100
AcDbSun
 90
        1
290
     0
 63
     7
421
 16777215
 40
1.0
291
     1
 91
  2455826
 92
 54000000
292
     0
 70
     2
 71
   256
280
     1
  0
DICTIONARY
  5
506
102
{ACAD_REACTORS
330
C
102
}
330
C
100
AcDbDictionary
281
     1
  0
DICTIONARY
  5
D
102
{ACAD_REACTORS
330
C
102
}
330
C
100
AcDbDictionary
281
     1
  0
DICTIONARY
  5
1A
102
{ACAD_REACTORS
330
C
102
}
330
C
100
AcDbDictionary
281
     1
  3
Layout1
350
1E
  3
Layout2
350
26
  3
Model
350
22
  0
DICTIONARY
  5
43
102
{ACAD_REACTORS
330
C
102
}
330
C
100
AcDbDictionary
281
     1
  3
ByBlock
350
45
  3
ByLayer
350
44
  3
Global
350
46
  0
DICTIONARY
  5
6B
102
{ACAD_REACTORS
330
C
102
}
330
C
100
AcDbDictionary
281
     1
  3
Standard
350
6C
  0
DICTIONARY
  5
17
102
{ACAD_REACTORS
330
C
102
}
330
C
100
AcDbDictionary
281
     1
  3
Standard
350
18
  0
DICTIONARY
  5
19
102
{ACAD_REACTORS
330
C
102
}
330
C
100
AcDbDictionary
281
     1
  0
ACDBDICTIONARYWDFLT
  5
E
102
{ACAD_REACTORS
330
C
102
}
330
C
100
AcDbDictionary
281
     1
  3
Normal
350
F
100
AcDbDictionaryWithDefault
340
F
  0
DICTIONARY
  5
47
102
{ACAD_REACTORS
330
C
102
}
330
C
100
AcDbDictionary
281
     1
  3
A0
350
48
  3
A1
350
49
  3
A2
350
4A
  3
A3
350
4B
  3
A4
350
4C
  3
A5
350
4D
  3
A6
350
4E
  3
A7
350
4F
  3
A8
350
50
  3
A9
350
51
  3
B0
350
52
  3
B1
350
53
  3
B2
350
54
  3
B3
350
55
  3
B4
350
56
  3
B5
350
57
  3
B6
350
58
  3
B7
350
59
  3
B8
350
5A
  3
B9
350
5B
  3
C0
350
5C
  3
C1
350
5D
  3
C2
350
5E
  3
C3
350
5F
  3
C4
350
60
  3
C5
350
61
  3
C6
350
62
  3
C7
350
63
  3
C8
350
64
  3
C9
350
65
  3
D0
350
66
  3
D1
350
67
  3
D2
350
68
  0
DICTIONARY
  5
507
102
{ACAD_REACTORS
330
C
102
}
330
C
100
AcDbDictionary
281
     1
  0
DICTIONARY
  5
69
102
{ACAD_REACTORS
330
C
102
}
330
C
100
AcDbDictionary
281
     1
  3
Standard
350
6A
  0
DICTIONARY
  5
2A
102
{ACAD_REACTORS
330
C
102
}
330
C
100
AcDbDictionary
281
     1
  3
2dWireframe
350
2F
  3
Basic
350
32
  3
Brighten
350
36
  3
ColorChange
350
3A
  3
Conceptual
350
34
  3
Dim
350
35
  3
EdgeColorOff
350
3D
  3
Facepattern
350
39
  3
Flat
350
2B
  3
FlatWithEdges
350
2C
  3
Gouraud
350
2D
  3
GouraudWithEdges
350
2E
  3
Hidden
350
31
  3
JitterOff
350
3B
  3
Linepattern
350
38
  3
OverhangOff
350
3C
  3
Realistic
350
33
  3
Shaded
350
42
  3
Shaded with edges
350
41
  3
Shades of Gray
350
3E
  3
Sketchy
350
3F
  3
Thicken
350
37
  3
Wireframe
350
30
  3
X-Ray
350
40
  0
XRECORD
  5
503
102
{ACAD_REACTORS
330
C
102
}
330
C
100
AcDbXrecord
280
     1
 90
        1
330
6A
  0
DICTIONARY
  5
4FF
102
{ACAD_REACTORS
330
C
102
}
330
C
100
AcDbDictionary
281
     1
  3
CANNOSCALE
350
500
  3
CMLEADERSTYLE
350
505
  3
CTABLESTYLE
350
504
  0
LAYOUT
  5
1E
102
{ACAD_REACTORS
330
1A
102
}
330
1A
100
AcDbPlotSettings
  1

  2
none_device
  4

  6

 40
0.0
 41
0.0
 42
0.0
 43
0.0
 44
0.0
 45
0.0
 46
0.0
 47
0.0
 48
0.0
 49
0.0
140
0.0
141
0.0
142
1.0
143
1.0
 70
   688
 72
     0
 73
     0
 74
     5
  7

 75
    16
 76
     0
 77
     2
 78
   300
147
1.0
148
0.0
149
0.0
100
AcDbLayout
  1
Layout1
 70
     1
 71
     1
 10
0.0
 20
0.0
 11
420.0
 21
297.0
 12
0.0
 22
0.0
 32
0.0
 14
0.0
 24
0.0
 34
0.0
 15
420.0
 25
297.0
 35
0.0
146
0.0
 13
0.0
 23
0.0
 33
0.0
 16
1.0
 26
0.0
 36
0.0
 17
0.0
 27
1.0
 37
0.0
 76
     0
330
1B
  0
LAYOUT
  5
26
102
{ACAD_REACTORS
330
1A
102
}
330
1A
100
AcDbPlotSettings
  1

  2
none_device
  4

  6

 40
0.0
 41
0.0
 42
0.0
 43
0.0
 44
0.0
 45
0.0
 46
0.0
 47
0.0
 48
0.0
 49
0.0
140
0.0
141
0.0
142
1.0
143
1.0
 70
   688
 72
     0
 73
     0
 74
     5
  7

 75
    16
 76
     0
 77
     2
 78
   300
147
1.0
148
0.0
149
0.0
100
AcDbLayout
  1
Layout2
 70
     1
 71
     2
 10
0.0
 20
0.0
 11
0.0
 21
0.0
 12
0.0
 22
0.0
 32
0.0
 14
0.0
 24
0.0
 34
0.0
 15
0.0
 25
0.0
 35
0.0
146
0.0
 13
0.0
 23
0.0
 33
0.0
 16
1.0
 26
0.0
 36
0.0
 17
0.0
 27
1.0
 37
0.0
 76
     0
330
23
  0
LAYOUT
  5
22
102
{ACAD_REACTORS
330
1A
102
}
330
1A
100
AcDbPlotSettings
  1

  2
none_device
  4
Letter_(8.50_x_11.00_Inches)
  6

 40
6.35
 41
6.35
 42
6.35000508
 43
6.35000508
 44
215.9
 45
279.4
 46
0.0
 47
0.0
 48
0.0
 49
0.0
140
0.0
141
0.0
142
1.0
143
1.0
 70
  1712
 72
     0
 73
     0
 74
     0
  7

 75
     0
 76
     0
 77
     2
 78
   300
147
1.0
148
0.0
149
0.0
100
AcDbLayout
  1
Model
 70
     1
 71
     0
 10
0.0
 20
0.0
 11
420.0
 21
297.0
 12
0.0
 22
0.0
 32
0.0
 14
0.0
 24
0.0
 34
0.0
 15
800.4347024654567
 25
544.1515841371479
 35
0.0
146
0.0
 13
0.0
 23
0.0
 33
0.0
 16
1.0
 26
0.0
 36
0.0
 17
0.0
 27
1.0
 37
0.0
 76
     0
330
1F
331
29
  0
MATERIAL
  5
45
102
{ACAD_REACTORS
330
43
102
}
330
43
100
AcDbMaterial
  1
ByBlock
 72
     1
 94
      127
  0
MATERIAL
  5
44
102
{ACAD_REACTORS
330
43
102
}
330
43
100
AcDbMaterial
  1
ByLayer
 72
     1
 94
      127
  0
MATERIAL
  5
46
102
{ACAD_REACTORS
330
43
102
}
330
43
100
AcDbMaterial
  1
Global
 72
     1
 94
      127
  0
MLEADERSTYLE
  5
6C
102
{ACAD_REACTORS
330
6B
102
}
330
6B
100
AcDbMLeaderStyle
179
     2
170
     2
171
     1
172
     0
 90
        2
 40
0.0
 41
0.0
173
     1
 91
-1056964608
340
14
 92
       -2
290
     1
 42
0.09
291
     1
 43
0.36
  3
Standard
341
0
 44
0.18
300

342
11
174
     1
178
     6
175
     1
176
     0
 93
-1056964608
 45
0.18
292
     0
297
     0
 46
0.18
343
0
 94
-1056964608
 47
1.0
 49
1.0
140
1.0
293
     1
141
0.0
294
     1
177
     0
142
1.0
295
     0
296
     0
143
0.125
271
     0
272
     9
273
     9
298
     0
  0
MLINESTYLE
  5
18
102
{ACAD_REACTORS
330
17
102
}
330
17
100
AcDbMlineStyle
  2
Standard
 70
     0
  3

 62
   256
 51
90.0
 52
90.0
 71
     2
 49
0.5
 62
   256
  6
BYLAYER
 49
-0.5
 62
   256
  6
BYLAYER
  0
ACDBPLACEHOLDER
  5
F
102
{ACAD_REACTORS
330
E
102
}
330
E
  0
SCALE
  5
48
102
{ACAD_REACTORS
330
47
102
}
330
47
100
AcDbScale
 70
     0
300
1:1
140
1.0
141
1.0
290
     1
  0
SCALE
  5
49
102
{ACAD_REACTORS
330
47
102
}
330
47
100
AcDbScale
 70
     0
300
1:2
140
1.0
141
2.0
290
     0
  0
SCALE
  5
4A
102
{ACAD_REACTORS
330
47
102
}
330
47
100
AcDbScale
 70
     0
300
1:4
140
1.0
141
4.0
290
     0
  0
SCALE
  5
4B
102
{ACAD_REACTORS
330
47
102
}
330
47
100
AcDbScale
 70
     0
300
1:5
140
1.0
141
5.0
290
     0
  0
SCALE
  5
4C
102
{ACAD_REACTORS
330
47
102
}
330
47
100
AcDbScale
 70
     0
300
1:8
140
1.0
141
8.0
290
     0
  0
SCALE
  5
4D
102
{ACAD_REACTORS
330
47
102
}
330
47
100
AcDbScale
 70
     0
300
1:10
140
1.0
141
10.0
290
     0
  0
SCALE
  5
4E
102
{ACAD_REACTORS
330
47
102
}
330
47
100
AcDbScale
 70
     0
300
1:16
140
1.0
141
16.0
290
     0
  0
SCALE
  5
4F
102
{ACAD_REACTORS
330
47
102
}
330
47
100
AcDbScale
 70
     0
300
1:20
140
1.0
141
20.0
290
     0
  0
SCALE
  5
50
102
{ACAD_REACTORS
330
47
102
}
330
47
100
AcDbScale
 70
     0
300
1:30
140
1.0
141
30.0
290
     0
  0
SCALE
  5
51
102
{ACAD_REACTORS
330
47
102
}
330
47
100
AcDbScale
 70
     0
300
1:40
140
1.0
141
40.0
290
     0
  0
SCALE
  5
52
102
{ACAD_REACTORS
330
47
102
}
330
47
100
AcDbScale
 70
     0
300
1:50
140
1.0
141
50.0
290
     0
  0
SCALE
  5
53
102
{ACAD_REACTORS
330
47
102
}
330
47
100
AcDbScale
 70
     0
300
1:100
140
1.0
141
100.0
290
     0
  0
SCALE
  5
54
102
{ACAD_REACTORS
330
47
102
}
330
47
100
AcDbScale
 70
     0
300
2:1
140
2.0
141
1.0
290
     0
  0
SCALE
  5
55
102
{ACAD_REACTORS
330
47
102
}
330
47
100
AcDbScale
 70
     0
300
4:1
140
4.0
141
1.0
290
     0
  0
SCALE
  5
56
102
{ACAD_REACTORS
330
47
102
}
330
47
100
AcDbScale
 70
     0
300
8:1
140
8.0
141
1.0
290
     0
  0
SCALE
  5
57
102
{ACAD_REACTORS
330
47
102
}
330
47
100
AcDbScale
 70
     0
300
10:1
140
10.0
141
1.0
290
     0
  0
SCALE
  5
58
102
{ACAD_REACTORS
330
47
102
}
330
47
100
AcDbScale
 70
     0
300
100:1
140
100.0
141
1.0
290
     0
  0
SCALE
  5
59
102
{ACAD_REACTORS
330
47
102
}
330
47
100
AcDbScale
 70
     0
300
1/128" = 1'-0"
140
0.0078125
141
12.0
290
     0
  0
SCALE
  5
5A
102
{ACAD_REACTORS
330
47
102
}
330
47
100
AcDbScale
 70
     0
300
1/64" = 1'-0"
140
0.015625
141
12.0
290
     0
  0
SCALE
  5
5B
102
{ACAD_REACTORS
330
47
102
}
330
47
100
AcDbScale
 70
     0
300
1/32" = 1'-0"
140
0.03125
141
12.0
290
     0
  0
SCALE
  5
5C
102
{ACAD_REACTORS
330
47
102
}
330
47
100
AcDbScale
 70
     0
300
1/16" = 1'-0"
140
0.0625
141
12.0
290
     0
  0
SCALE
  5
5D
102
{ACAD_REACTORS
330
47
102
}
330
47
100
AcDbScale
 70
     0
300
3/32" = 1'-0"
140
0.09375
141
12.0
290
     0
  0
SCALE
  5
5E
102
{ACAD_REACTORS
330
47
102
}
330
47
100
AcDbScale
 70
     0
300
1/8" = 1'-0"
140
0.125
141
12.0
290
     0
  0
SCALE
  5
5F
102
{ACAD_REACTORS
330
47
102
}
330
47
100
AcDbScale
 70
     0
300
3/16" = 1'-0"
140
0.1875
141
12.0
290
     0
  0
SCALE
  5
60
102
{ACAD_REACTORS
330
47
102
}
330
47
100
AcDbScale
 70
     0
300
1/4" = 1'-0"
140
0.25
141
12.0
290
     0
  0
SCALE
  5
61
102
{ACAD_REACTORS
330
47
102
}
330
47
100
AcDbScale
 70
     0
300
3/8" = 1'-0"
140
0.375
141
12.0
290
     0
  0
SCALE
  5
62
102
{ACAD_REACTORS
330
47
102
}
330
47
100
AcDbScale
 70
     0
300
1/2" = 1'-0"
140
0.5
141
12.0
290
     0
  0
SCALE
  5
63
102
{ACAD_REACTORS
330
47
102
}
330
47
100
AcDbScale
 70
     0
300
3/4" = 1'-0"
140
0.75
141
12.0
290
     0
  0
SCALE
  5
64
102
{ACAD_REACTORS
330
47
102
}
330
47
100
AcDbScale
 70
     0
300
1" = 1'-0"
140
1.0
141
12.0
290
     0
  0
SCALE
  5
65
102
{ACAD_REACTORS
330
47
102
}
330
47
100
AcDbScale
 70
     0
300
1-1/2" = 1'-0"
140
1.5
141
12.0
290
     0
  0
SCALE
  5
66
102
{ACAD_REACTORS
330
47
102
}
330
47
100
AcDbScale
 70
     0
300
3" = 1'-0"
140
3.0
141
12.0
290
     0
  0
SCALE
  5
67
102
{ACAD_REACTORS
330
47
102
}
330
47
100
AcDbScale
 70
     0
300
6" = 1'-0"
140
6.0
141
12.0
290
     0
  0
SCALE
  5
68
102
{ACAD_REACTORS
330
47
102
}
330
47
100
AcDbScale
 70
     0
300
1'-0" = 1'-0"
140
12.0
141
12.0
290
     0
  0
TABLESTYLE
  5
6A
102
{ACAD_REACTORS
330
69
102
}
102
{ACAD_XDICTIONARY
360
501
102
}
330
69
100
AcDbTableStyle
  3
Standard
 70
     0
 71
     0
 40
0.06
 41
0.06
280
     0
281
     0
  7
Standard
140
0.18
170
     2
 62
     0
 63
   257
283
     0
 90
        4
 91
        0
  1

274
    -2
284
     1
 64
     0
275
    -2
285
     1
 65
     0
276
    -2
286
     1
 66
     0
277
    -2
287
     1
 67
     0
278
    -2
288
     1
 68
     0
279
    -2
289
     1
 69
     0
  7
Standard
140
0.25
170
     5
 62
     0
 63
   257
283
     0
 90
        4
 91
        0
  1

274
    -2
284
     1
 64
     0
275
    -2
285
     1
 65
     0
276
    -2
286
     1
 66
     0
277
    -2
287
     1
 67
     0
278
    -2
288
     1
 68
     0
279
    -2
289
     1
 69
     0
  7
Standard
140
0.18
170
     5
 62
     0
 63
   257
283
     0
 90
        4
 91
        0
  1

274
    -2
284
     1
 64
     0
275
    -2
285
     1
 65
     0
276
    -2
286
     1
 66
     0
277
    -2
287
     1
 67
     0
278
    -2
288
     1
 68
     0
279
    -2
289
     1
 69
     0
  0
VISUALSTYLE
  5
2F
102
{ACAD_REACTORS
330
2A
102
}
330
2A
100
AcDbVisualStyle
  2
2dWireframe
 70
     4
177
     3
291
     0
 70
    58
 90
        0
176
     1
 90
        2
176
     1
 90
        0
176
     1
 90
        0
176
     1
 40
0.6
176
     1
 40
30.0
176
     1
 62
     7
420
 16777215
176
     1
 90
        1
176
     1
 90
        4
176
     1
 62
     7
176
     1
 62
   257
176
     1
 90
        1
176
     1
 90
        1
176
     1
 40
1.0
176
     1
 90
        0
176
     1
 62
   257
176
     1
 40
1.0
176
     1
 90
        1
176
     1
 90
        6
176
     1
 90
        2
176
     1
 62
     7
176
     1
 90
        5
176
     1
 90
        0
176
     1
 90
        0
176
     1
290
     0
176
     1
 90
        1
176
     1
 40
0.0
176
     1
 90
        0
176
     1
290
     1
176
     1
290
     1
176
     1
290
     0
176
     1
290
     0
176
     1
290
     0
176
     1
290
     0
176
     1
290
     0
176
     1
290
     0
176
     1
290
     0
176
     1
 90
       50
176
     1
 40
0.0
176
     1
 40
1.0
176
     1
 90
        0
176
     1
 62
    18
420
        0
176
     1
 90
       50
176
     1
 90
        3
176
     1
 62
     5
420
      255
176
     1
290
     0
176
     1
 90
       50
176
     1
 90
       50
176
     1
 90
       50
176
     1
290
     0
176
     1
 90
       50
176
     1
 62
   256
176
     0
 40
1.0
176
     0
 90
        2
176
     1
  1
strokes_ogs.tif
176
     1
290
     0
176
     1
 40
1.0
176
     1
 40
1.0
176
     1
  0
VISUALSTYLE
  5
32
102
{ACAD_REACTORS
330
2A
102
}
330
2A
100
AcDbVisualStyle
  2
Basic
 70
     7
177
     3
291
     1
 70
    58
 90
        1
176
     1
 90
        0
176
     1
 90
        1
176
     1
 90
        0
176
     1
 40
0.6
176
     1
 40
30.0
176
     1
 62
     7
420
 16777215
176
     1
 90
        0
176
     1
 90
        4
176
     1
 62
     7
176
     1
 62
   257
176
     1
 90
        1
176
     1
 90
        1
176
     1
 40
1.0
176
     1
 90
        8
176
     1
 62
     7
176
     1
 40
1.0
176
     1
 90
        1
176
     1
 90
        6
176
     1
 90
        2
176
     1
 62
     7
176
     1
 90
        5
176
     1
 90
        0
176
     1
 90
        0
176
     1
290
     0
176
     1
 90
        1
176
     1
 40
0.0
176
     1
 90
        0
176
     1
290
     0
176
     1
290
     1
176
     1
290
     1
176
     1
290
     0
176
     1
290
     0
176
     1
290
     0
176
     1
290
     0
176
     1
290
     0
176
     1
290
     0
176
     1
 90
       50
176
     1
 40
0.0
176
     1
 40
1.0
176
     1
 90
        0
176
     1
 62
    18
420
        0
176
     1
 90
       50
176
     1
 90
        3
176
     1
 62
     5
420
      255
176
     1
290
     0
176
     1
 90
       50
176
     1
 90
       50
176
     1
 90
       50
176
     1
290
     0
176
     1
 90
       50
176
     1
 62
   256
176
     0
 40
1.0
176
     0
 90
        2
176
     1
  1
strokes_ogs.tif
176
     1
290
     0
176
     1
 40
1.0
176
     1
 40
1.0
176
     1
  0
VISUALSTYLE
  5
36
102
{ACAD_REACTORS
330
2A
102
}
330
2A
100
AcDbVisualStyle
  2
Brighten
 70
    12
177
     3
291
     1
 70
    58
 90
        2
176
     1
 90
        2
176
     1
 90
        0
176
     1
 90
        0
176
     1
 40
0.6
176
     1
 40
30.0
176
     1
 62
     7
420
 16777215
176
     1
 90
        1
176
     1
 90
        4
176
     1
 62
     7
176
     1
 62
   257
176
     1
 90
        1
176
     1
 90
        1
176
     1
 40
1.0
176
     1
 90
        8
176
     1
 62
     7
176
     1
 40
1.0
176
     1
 90
        1
176
     1
 90
        6
176
     1
 90
        2
176
     1
 62
     7
176
     1
 90
        5
176
     1
 90
        0
176
     1
 90
        0
176
     1
290
     0
176
     1
 90
        1
176
     1
 40
50.0
176
     1
 90
        0
176
     1
290
     0
176
     1
290
     1
176
     1
290
     1
176
     1
290
     0
176
     1
290
     0
176
     1
290
     0
176
     1
290
     0
176
     1
290
     0
176
     1
290
     0
176
     1
 90
       50
176
     1
 40
0.0
176
     1
 40
1.0
176
     1
 90
        0
176
     1
 62
    18
420
        0
176
     1
 90
       50
176
     1
 90
        3
176
     1
 62
     5
420
      255
176
     1
290
     0
176
     1
 90
       50
176
     1
 90
       50
176
     1
 90
       50
176
     1
290
     0
176
     1
 90
       50
176
     1
 62
   256
176
     0
 40
1.0
176
     0
 90
        2
176
     1
  1
strokes_ogs.tif
176
     1
290
     0
176
     1
 40
1.0
176
     1
 40
1.0
176
     1
  0
VISUALSTYLE
  5
3A
102
{ACAD_REACTORS
330
2A
102
}
330
2A
100
AcDbVisualStyle
  2
ColorChange
 70
    16
177
     3
291
     1
 70
    58
 90
        2
176
     1
 90
        2
176
     1
 90
        3
176
     1
 90
        0
176
     1
 40
0.6
176
     1
 40
30.0
176
     1
 62
     8
420
  8421504
176
     1
 90
        1
176
     1
 90
        4
176
     1
 62
     7
176
     1
 62
   257
176
     1
 90
        1
176
     1
 90
        1
176
     1
 40
1.0
176
     1
 90
        8
176
     1
 62
     8
420
  8421504
176
     1
 40
1.0
176
     1
 90
        1
176
     1
 90
        6
176
     1
 90
        2
176
     1
 62
     7
176
     1
 90
        5
176
     1
 90
        0
176
     1
 90
        0
176
     1
290
     0
176
     1
 90
        1
176
     1
 40
0.0
176
     1
 90
        0
176
     1
290
     0
176
     1
290
     1
176
     1
290
     1
176
     1
290
     0
176
     1
290
     0
176
     1
290
     0
176
     1
290
     0
176
     1
290
     0
176
     1
290
     0
176
     1
 90
       50
176
     1
 40
0.0
176
     1
 40
1.0
176
     1
 90
        0
176
     1
 62
    18
420
        0
176
     1
 90
       50
176
     1
 90
        3
176
     1
 62
     5
420
      255
176
     1
290
     0
176
     1
 90
       50
176
     1
 90
       50
176
     1
 90
       50
176
     1
290
     0
176
     1
 90
       50
176
     1
 62
   256
176
     0
 40
1.0
176
     0
 90
        2
176
     1
  1
strokes_ogs.tif
176
     1
290
     0
176
     1
 40
1.0
176
     1
 40
1.0
176
     1
  0
VISUALSTYLE
  5
34
102
{ACAD_REACTORS
330
2A
102
}
330
2A
100
AcDbVisualStyle
  2
Conceptual
 70
     9
177
     3
291
     0
 70
    58
 90
        3
176
     1
 90
        2
176
     1
 90
        0
176
     1
 90
        0
176
     1
 40
0.6
176
     1
 40
30.0
176
     1
 62
     7
420
 16777215
176
     1
 90
        2
176
     1
 90
        2
176
     1
 62
     7
176
     1
 62
   257
176
     1
 90
        1
176
     1
 90
        1
176
     1
 40
179.0
176
     1
 90
        8
176
     1
 62
     7
176
     1
 40
1.0
176
     1
 90
        1
176
     1
 90
        6
176
     1
 90
        2
176
     1
 62
     7
176
     1
 90
        3
176
     1
 90
        0
176
     1
 90
        0
176
     1
290
     0
176
     1
 90
        1
176
     1
 40
0.0
176
     1
 90
        0
176
     1
290
     0
176
     1
290
     1
176
     1
290
     1
176
     1
290
     0
176
     1
290
     0
176
     1
290
     0
176
     1
290
     0
176
     1
290
     0
176
     1
290
     0
176
     1
 90
       50
176
     1
 40
0.0
176
     1
 40
1.0
176
     1
 90
        0
176
     1
 62
    18
420
        0
176
     1
 90
       50
176
     1
 90
        3
176
     1
 62
     5
420
      255
176
     1
290
     0
176
     1
 90
       50
176
     1
 90
       50
176
     1
 90
       50
176
     1
290
     0
176
     1
 90
       50
176
     1
 62
   256
176
     0
 40
1.0
176
     0
 90
        2
176
     1
  1
strokes_ogs.tif
176
     1
290
     0
176
     1
 40
1.0
176
     1
 40
1.0
176
     1
  0
VISUALSTYLE
  5
35
102
{ACAD_REACTORS
330
2A
102
}
330
2A
100
AcDbVisualStyle
  2
Dim
 70
    11
177
     3
291
     1
 70
    58
 90
        2
176
     1
 90
        2
176
     1
 90
        0
176
     1
 90
        0
176
     1
 40
0.6
176
     1
 40
30.0
176
     1
 62
     7
420
 16777215
176
     1
 90
        1
176
     1
 90
        4
176
     1
 62
     7
176
     1
 62
   257
176
     1
 90
        1
176
     1
 90
        1
176
     1
 40
1.0
176
     1
 90
        8
176
     1
 62
     7
176
     1
 40
1.0
176
     1
 90
        1
176
     1
 90
        6
176
     1
 90
        2
176
     1
 62
     7
176
     1
 90
        5
176
     1
 90
        0
176
     1
 90
        0
176
     1
290
     0
176
     1
 90
        1
176
     1
 40
-50.0
176
     1
 90
        0
176
     1
290
     0
176
     1
290
     1
176
     1
290
     1
176
     1
290
     0
176
     1
290
     0
176
     1
290
     0
176
     1
290
     0
176
     1
290
     0
176
     1
290
     0
176
     1
 90
       50
176
     1
 40
0.0
176
     1
 40
1.0
176
     1
 90
        0
176
     1
 62
    18
420
        0
176
     1
 90
       50
176
     1
 90
        3
176
     1
 62
     5
420
      255
176
     1
290
     0
176
     1
 90
       50
176
     1
 90
       50
176
     1
 90
       50
176
     1
290
     0
176
     1
 90
       50
176
     1
 62
   256
176
     0
 40
1.0
176
     0
 90
        2
176
     1
  1
strokes_ogs.tif
176
     1
290
     0
176
     1
 40
1.0
176
     1
 40
1.0
176
     1
  0
VISUALSTYLE
  5
3D
102
{ACAD_REACTORS
330
2A
102
}
330
2A
100
AcDbVisualStyle
  2
EdgeColorOff
 70
    22
177
     3
291
     1
 70
    58
 90
        2
176
     0
 90
        2
176
     0
 90
        0
176
     0
 90
        0
176
     0
 40
0.6
176
     0
 40
30.0
176
     0
 62
     7
420
 16777215
176
     0
 90
        1
176
     0
 90
        4
176
     0
 62
     7
176
     0
 62
   257
176
     0
 90
        1
176
     0
 90
        1
176
     0
 40
1.0
176
     0
 90
        8
176
     2
 62
     7
176
     0
 40
1.0
176
     0
 90
        1
176
     0
 90
        6
176
     0
 90
        2
176
     0
 62
     7
176
     0
 90
        5
176
     0
 90
        0
176
     0
 90
        0
176
     0
290
     0
176
     0
 90
        1
176
     0
 40
0.0
176
     0
 90
        0
176
     0
290
     0
176
     0
290
     1
176
     0
290
     1
176
     0
290
     0
176
     0
290
     0
176
     0
290
     0
176
     0
290
     0
176
     0
290
     0
176
     0
290
     0
176
     0
 90
       50
176
     0
 40
0.0
176
     0
 40
1.0
176
     0
 90
        0
176
     0
 62
    18
420
        0
176
     0
 90
       50
176
     0
 90
        3
176
     0
 62
     5
420
      255
176
     0
290
     0
176
     0
 90
       50
176
     0
 90
       50
176
     0
 90
       50
176
     0
290
     0
176
     0
 90
       50
176
     0
 62
   256
176
     0
 40
1.0
176
     0
 90
        2
176
     0
  1
strokes_ogs.tif
176
     0
290
     0
176
     0
 40
1.0
176
     0
 40
1.0
176
     0
  0
VISUALSTYLE
  5
39
102
{ACAD_REACTORS
330
2A
102
}
330
2A
100
AcDbVisualStyle
  2
Facepattern
 70
    15
177
     3
291
     1
 70
    58
 90
        2
176
     1
 90
        2
176
     1
 90
        0
176
     1
 90
        0
176
     1
 40
0.6
176
     1
 40
30.0
176
     1
 62
     7
420
 16777215
176
     1
 90
        1
176
     1
 90
        4
176
     1
 62
     7
176
     1
 62
   257
176
     1
 90
        1
176
     1
 90
        1
176
     1
 40
1.0
176
     1
 90
        8
176
     1
 62
     7
176
     1
 40
1.0
176
     1
 90
        1
176
     1
 90
        6
176
     1
 90
        2
176
     1
 62
     7
176
     1
 90
        5
176
     1
 90
        0
176
     1
 90
        0
176
     1
290
     0
176
     1
 90
        1
176
     1
 40
0.0
176
     1
 90
        0
176
     1
290
     0
176
     1
290
     1
176
     1
290
     1
176
     1
290
     0
176
     1
290
     0
176
     1
290
     0
176
     1
290
     0
176
     1
290
     0
176
     1
290
     0
176
     1
 90
       50
176
     1
 40
0.0
176
     1
 40
1.0
176
     1
 90
        0
176
     1
 62
    18
420
        0
176
     1
 90
       50
176
     1
 90
        3
176
     1
 62
     5
420
      255
176
     1
290
     0
176
     1
 90
       50
176
     1
 90
       50
176
     1
 90
       50
176
     1
290
     0
176
     1
 90
       50
176
     1
 62
   256
176
     0
 40
1.0
176
     0
 90
        2
176
     1
  1
strokes_ogs.tif
176
     1
290
     0
176
     1
 40
1.0
176
     1
 40
1.0
176
     1
  0
VISUALSTYLE
  5
2B
102
{ACAD_REACTORS
330
2A
102
}
330
2A
100
AcDbVisualStyle
  2
Flat
 70
     0
177
     3
291
     1
 70
    58
 90
        2
176
     1
 90
        1
176
     1
 90
        1
176
     1
 90
        2
176
     1
 40
0.6
176
     1
 40
30.0
176
     1
 62
     7
420
 16777215
176
     1
 90
        0
176
     1
 90
        0
176
     1
 62
     7
176
     1
 62
   257
176
     1
 90
        1
176
     1
 90
        1
176
     1
 40
1.0
176
     1
 90
        8
176
     1
 62
     7
176
     1
 40
1.0
176
     1
 90
        1
176
     1
 90
        6
176
     1
 90
        2
176
     1
 62
     7
176
     1
 90
        5
176
     1
 90
        0
176
     1
 90
        0
176
     1
290
     0
176
     1
 90
       13
176
     1
 40
0.0
176
     1
 90
        0
176
     1
290
     0
176
     1
290
     1
176
     1
290
     1
176
     1
290
     0
176
     1
290
     0
176
     1
290
     0
176
     1
290
     0
176
     1
290
     0
176
     1
290
     0
176
     1
 90
       50
176
     1
 40
0.0
176
     1
 40
1.0
176
     1
 90
        0
176
     1
 62
    18
420
        0
176
     1
 90
       50
176
     1
 90
        3
176
     1
 62
     5
420
      255
176
     1
290
     0
176
     1
 90
       50
176
     1
 90
       50
176
     1
 90
       50
176
     1
290
     0
176
     1
 90
       50
176
     1
 62
   256
176
     0
 40
1.0
176
     0
 90
        2
176
     1
  1
strokes_ogs.tif
176
     1
290
     0
176
     1
 40
1.0
176
     1
 40
1.0
176
     1
  0
VISUALSTYLE
  5
2C
102
{ACAD_REACTORS
330
2A
102
}
330
2A
100
AcDbVisualStyle
  2
FlatWithEdges
 70
     1
177
     3
291
     1
 70
    58
 90
        2
176
     1
 90
        1
176
     1
 90
        1
176
     1
 90
        2
176
     1
 40
0.6
176
     1
 40
30.0
176
     1
 62
     7
420
 16777215
176
     1
 90
        1
176
     1
 90
        0
176
     1
 62
     7
176
     1
 62
   257
176
     1
 90
        1
176
     1
 90
        1
176
     1
 40
1.0
176
     1
 90
        0
176
     1
 62
   257
176
     1
 40
1.0
176
     1
 90
        1
176
     1
 90
        6
176
     1
 90
        2
176
     1
 62
     7
176
     1
 90
        5
176
     1
 90
        0
176
     1
 90
        0
176
     1
290
     0
176
     1
 90
       13
176
     1
 40
0.0
176
     1
 90
        0
176
     1
290
     0
176
     1
290
     1
176
     1
290
     1
176
     1
290
     0
176
     1
290
     0
176
     1
290
     0
176
     1
290
     0
176
     1
290
     0
176
     1
290
     0
176
     1
 90
       50
176
     1
 40
0.0
176
     1
 40
1.0
176
     1
 90
        0
176
     1
 62
    18
420
        0
176
     1
 90
       50
176
     1
 90
        3
176
     1
 62
     5
420
      255
176
     1
290
     0
176
     1
 90
       50
176
     1
 90
       50
176
     1
 90
       50
176
     1
290
     0
176
     1
 90
       50
176
     1
 62
   256
176
     0
 40
1.0
176
     0
 90
        2
176
     1
  1
strokes_ogs.tif
176
     1
290
     0
176
     1
 40
1.0
176
     1
 40
1.0
176
     1
  0
VISUALSTYLE
  5
2D
102
{ACAD_REACTORS
330
2A
102
}
330
2A
100
AcDbVisualStyle
  2
Gouraud
 70
     2
177
     3
291
     1
 70
    58
 90
        2
176
     1
 90
        2
176
     1
 90
        1
176
     1
 90
        2
176
     1
 40
0.6
176
     1
 40
30.0
176
     1
 62
     7
420
 16777215
176
     1
 90
        0
176
     1
 90
        0
176
     1
 62
     7
176
     1
 62
   257
176
     1
 90
        1
176
     1
 90
        1
176
     1
 40
1.0
176
     1
 90
        0
176
     1
 62
     7
176
     1
 40
1.0
176
     1
 90
        1
176
     1
 90
        6
176
     1
 90
        2
176
     1
 62
     7
176
     1
 90
        5
176
     1
 90
        0
176
     1
 90
        0
176
     1
290
     0
176
     1
 90
       13
176
     1
 40
0.0
176
     1
 90
        0
176
     1
290
     0
176
     1
290
     1
176
     1
290
     1
176
     1
290
     0
176
     1
290
     0
176
     1
290
     0
176
     1
290
     0
176
     1
290
     0
176
     1
290
     0
176
     1
 90
       50
176
     1
 40
0.0
176
     1
 40
1.0
176
     1
 90
        0
176
     1
 62
    18
420
        0
176
     1
 90
       50
176
     1
 90
        3
176
     1
 62
     5
420
      255
176
     1
290
     0
176
     1
 90
       50
176
     1
 90
       50
176
     1
 90
       50
176
     1
290
     0
176
     1
 90
       50
176
     1
 62
   256
176
     0
 40
1.0
176
     0
 90
        2
176
     1
  1
strokes_ogs.tif
176
     1
290
     0
176
     1
 40
1.0
176
     1
 40
1.0
176
     1
  0
VISUALSTYLE
  5
2E
102
{ACAD_REACTORS
330
2A
102
}
330
2A
100
AcDbVisualStyle
  2
GouraudWithEdges
 70
     3
177
     3
291
     1
 70
    58
 90
        2
176
     1
 90
        2
176
     1
 90
        1
176
     1
 90
        2
176
     1
 40
0.6
176
     1
 40
30.0
176
     1
 62
     7
420
 16777215
176
     1
 90
        1
176
     1
 90
        0
176
     1
 62
     7
176
     1
 62
   257
176
     1
 90
        1
176
     1
 90
        1
176
     1
 40
1.0
176
     1
 90
        0
176
     1
 62
   257
176
     1
 40
1.0
176
     1
 90
        1
176
     1
 90
        6
176
     1
 90
        2
176
     1
 62
     7
176
     1
 90
        5
176
     1
 90
        0
176
     1
 90
        0
176
     1
290
     0
176
     1
 90
       13
176
     1
 40
0.0
176
     1
 90
        0
176
     1
290
     0
176
     1
290
     1
176
     1
290
     1
176
     1
290
     0
176
     1
290
     0
176
     1
290
     0
176
     1
290
     0
176
     1
290
     0
176
     1
290
     0
176
     1
 90
       50
176
     1
 40
0.0
176
     1
 40
1.0
176
     1
 90
        0
176
     1
 62
    18
420
        0
176
     1
 90
       50
176
     1
 90
        3
176
     1
 62
     5
420
      255
176
     1
290
     0
176
     1
 90
       50
176
     1
 90
       50
176
     1
 90
       50
176
     1
290
     0
176
     1
 90
       50
176
     1
 62
   256
176
     0
 40
1.0
176
     0
 90
        2
176
     1
  1
strokes_ogs.tif
176
     1
290
     0
176
     1
 40
1.0
176
     1
 40
1.0
176
     1
  0
VISUALSTYLE
  5
31
102
{ACAD_REACTORS
330
2A
102
}
330
2A
100
AcDbVisualStyle
  2
Hidden
 70
     6
177
     3
291
     0
 70
    58
 90
        1
176
     1
 90
        2
176
     1
 90
        2
176
     1
 90
        0
176
     1
 40
0.6
176
     1
 40
30.0
176
     1
 62
     7
420
 16777215
176
     1
 90
        2
176
     1
 90
        2
176
     1
 62
     7
176
     1
 62
   257
176
     1
 90
        2
176
     1
 90
        1
176
     1
 40
40.0
176
     1
 90
        0
176
     1
 62
   257
176
     1
 40
1.0
176
     1
 90
        1
176
     1
 90
        6
176
     1
 90
        2
176
     1
 62
     7
176
     1
 90
        3
176
     1
 90
        0
176
     1
 90
        0
176
     1
290
     0
176
     1
 90
        1
176
     1
 40
0.0
176
     1
 90
        0
176
     1
290
     0
176
     1
290
     1
176
     1
290
     1
176
     1
290
     0
176
     1
290
     0
176
     1
290
     0
176
     1
290
     0
176
     1
290
     0
176
     1
290
     0
176
     1
 90
       50
176
     1
 40
0.0
176
     1
 40
1.0
176
     1
 90
        0
176
     1
 62
    18
420
        0
176
     1
 90
       50
176
     1
 90
        3
176
     1
 62
     5
420
      255
176
     1
290
     0
176
     1
 90
       50
176
     1
 90
       50
176
     1
 90
       50
176
     1
290
     0
176
     1
 90
       50
176
     1
 62
   256
176
     0
 40
1.0
176
     0
 90
        2
176
     1
  1
strokes_ogs.tif
176
     1
290
     0
176
     1
 40
1.0
176
     1
 40
1.0
176
     1
  0
VISUALSTYLE
  5
3B
102
{ACAD_REACTORS
330
2A
102
}
330
2A
100
AcDbVisualStyle
  2
JitterOff
 70
    20
177
     3
291
     1
 70
    58
 90
        2
176
     0
 90
        2
176
     0
 90
        0
176
     0
 90
        0
176
     0
 40
0.6
176
     0
 40
30.0
176
     0
 62
     7
420
 16777215
176
     0
 90
        1
176
     0
 90
        4
176
     0
 62
     7
176
     0
 62
   257
176
     0
 90
        1
176
     0
 90
        1
176
     0
 40
1.0
176
     0
 90
       10
176
     2
 62
     7
176
     0
 40
1.0
176
     0
 90
        1
176
     0
 90
        6
176
     0
 90
        2
176
     0
 62
     7
176
     0
 90
        5
176
     0
 90
        0
176
     0
 90
        0
176
     0
290
     0
176
     0
 90
        1
176
     0
 40
0.0
176
     0
 90
        0
176
     0
290
     0
176
     0
290
     1
176
     0
290
     1
176
     0
290
     0
176
     0
290
     0
176
     0
290
     0
176
     0
290
     0
176
     0
290
     0
176
     0
290
     0
176
     0
 90
       50
176
     0
 40
0.0
176
     0
 40
1.0
176
     0
 90
        0
176
     0
 62
    18
420
        0
176
     0
 90
       50
176
     0
 90
        3
176
     0
 62
     5
420
      255
176
     0
290
     0
176
     0
 90
       50
176
     0
 90
       50
176
     0
 90
       50
176
     0
290
     0
176
     0
 90
       50
176
     0
 62
   256
176
     0
 40
1.0
176
     0
 90
        2
176
     0
  1
strokes_ogs.tif
176
     0
290
     0
176
     0
 40
1.0
176
     0
 40
1.0
176
     0
  0
VISUALSTYLE
  5
38
102
{ACAD_REACTORS
330
2A
102
}
330
2A
100
AcDbVisualStyle
  2
Linepattern
 70
    14
177
     3
291
     1
 70
    58
 90
        2
176
     1
 90
        2
176
     1
 90
        0
176
     1
 90
        0
176
     1
 40
0.6
176
     1
 40
30.0
176
     1
 62
     7
420
 16777215
176
     1
 90
        1
176
     1
 90
        4
176
     1
 62
     7
176
     1
 62
   257
176
     1
 90
        7
176
     1
 90
        7
176
     1
 40
1.0
176
     1
 90
        8
176
     1
 62
     7
176
     1
 40
1.0
176
     1
 90
        1
176
     1
 90
        6
176
     1
 90
        2
176
     1
 62
     7
176
     1
 90
        5
176
     1
 90
        0
176
     1
 90
        0
176
     1
290
     0
176
     1
 90
        1
176
     1
 40
0.0
176
     1
 90
        0
176
     1
290
     0
176
     1
290
     1
176
     1
290
     1
176
     1
290
     0
176
     1
290
     0
176
     1
290
     0
176
     1
290
     0
176
     1
290
     0
176
     1
290
     0
176
     1
 90
       50
176
     1
 40
0.0
176
     1
 40
1.0
176
     1
 90
        0
176
     1
 62
    18
420
        0
176
     1
 90
       50
176
     1
 90
        3
176
     1
 62
     5
420
      255
176
     1
290
     0
176
     1
 90
       50
176
     1
 90
       50
176
     1
 90
       50
176
     1
290
     0
176
     1
 90
       50
176
     1
 62
   256
176
     0
 40
1.0
176
     0
 90
        2
176
     1
  1
strokes_ogs.tif
176
     1
290
     0
176
     1
 40
1.0
176
     1
 40
1.0
176
     1
  0
VISUALSTYLE
  5
3C
102
{ACAD_REACTORS
330
2A
102
}
330
2A
100
AcDbVisualStyle
  2
OverhangOff
 70
    21
177
     3
291
     1
 70
    58
 90
        2
176
     0
 90
        2
176
     0
 90
        0
176
     0
 90
        0
176
     0
 40
0.6
176
     0
 40
30.0
176
     0
 62
     7
420
 16777215
176
     0
 90
        1
176
     0
 90
        4
176
     0
 62
     7
176
     0
 62
   257
176
     0
 90
        1
176
     0
 90
        1
176
     0
 40
1.0
176
     0
 90
        9
176
     2
 62
     7
176
     0
 40
1.0
176
     0
 90
        1
176
     0
 90
        6
176
     0
 90
        2
176
     0
 62
     7
176
     0
 90
        5
176
     0
 90
        0
176
     0
 90
        0
176
     0
290
     0
176
     0
 90
        1
176
     0
 40
0.0
176
     0
 90
        0
176
     0
290
     0
176
     0
290
     1
176
     0
290
     1
176
     0
290
     0
176
     0
290
     0
176
     0
290
     0
176
     0
290
     0
176
     0
290
     0
176
     0
290
     0
176
     0
 90
       50
176
     0
 40
0.0
176
     0
 40
1.0
176
     0
 90
        0
176
     0
 62
    18
420
        0
176
     0
 90
       50
176
     0
 90
        3
176
     0
 62
     5
420
      255
176
     0
290
     0
176
     0
 90
       50
176
     0
 90
       50
176
     0
 90
       50
176
     0
290
     0
176
     0
 90
       50
176
     0
 62
   256
176
     0
 40
1.0
176
     0
 90
        2
176
     0
  1
strokes_ogs.tif
176
     0
290
     0
176
     0
 40
1.0
176
     0
 40
1.0
176
     0
  0
VISUALSTYLE
  5
33
102
{ACAD_REACTORS
330
2A
102
}
330
2A
100
AcDbVisualStyle
  2
Realistic
 70
     8
177
     3
291
     0
 70
    58
 90
        2
176
     1
 90
        3
176
     1
 90
        0
176
     1
 90
        2
176
     1
 40
0.6
176
     1
 40
30.0
176
     1
 62
     7
420
 16777215
176
     1
 90
        0
176
     1
 90
        0
176
     1
 62
     7
176
     1
 62
   257
176
     1
 90
        1
176
     1
 90
        1
176
     1
 40
1.0
176
     1
 90
        8
176
     1
 62
   257
176
     1
 40
1.0
176
     1
 90
        1
176
     1
 90
        6
176
     1
 90
        2
176
     1
 62
     7
176
     1
 90
        3
176
     1
 90
        0
176
     1
 90
        0
176
     1
290
     0
176
     1
 90
       13
176
     1
 40
0.0
176
     1
 90
        0
176
     1
290
     0
176
     1
290
     1
176
     1
290
     1
176
     1
290
     0
176
     1
290
     0
176
     1
290
     0
176
     1
290
     0
176
     1
290
     0
176
     1
290
     0
176
     1
 90
       50
176
     1
 40
0.0
176
     1
 40
1.0
176
     1
 90
        0
176
     1
 62
    18
420
        0
176
     1
 90
       50
176
     1
 90
        3
176
     1
 62
     5
420
      255
176
     1
290
     0
176
     1
 90
       50
176
     1
 90
       50
176
     1
 90
       50
176
     1
290
     0
176
     1
 90
       50
176
     1
 62
   256
176
     0
 40
1.0
176
     0
 90
        2
176
     1
  1
strokes_ogs.tif
176
     1
290
     0
176
     1
 40
1.0
176
     1
 40
1.0
176
     1
  0
VISUALSTYLE
  5
42
102
{ACAD_REACTORS
330
2A
102
}
330
2A
100
AcDbVisualStyle
  2
Shaded
 70
    27
177
     3
291
     0
 70
    58
 90
        2
176
     1
 90
        2
176
     1
 90
        1
176
     1
 90
        2
176
     1
 40
0.6
176
     1
 40
30.0
176
     1
 62
     7
420
 16777215
176
     1
 90
        0
176
     1
 90
        4
176
     1
 62
     7
176
     1
 62
   257
176
     1
 90
        1
176
     1
 90
        1
176
     1
 40
1.0
176
     1
 90
        8
176
     1
 62
   257
176
     1
 40
1.0
176
     1
 90
        1
176
     1
 90
        6
176
     1
 90
        2
176
     1
 62
     8
420
  7895160
176
     1
 90
        3
176
     1
 90
        0
176
     1
 90
        0
176
     1
290
     0
176
     1
 90
        5
176
     1
 40
0.0
176
     1
 90
        0
176
     1
290
     0
176
     1
290
     1
176
     1
290
     1
176
     1
290
     0
176
     1
290
     0
176
     1
290
     0
176
     1
290
     0
176
     1
290
     0
176
     1
290
     0
176
     1
 90
       50
176
     1
 40
0.0
176
     1
 40
1.0
176
     1
 90
        0
176
     1
 62
    18
420
        0
176
     1
 90
       50
176
     1
 90
        3
176
     1
 62
     5
420
      255
176
     1
290
     0
176
     1
 90
       50
176
     1
 90
       50
176
     1
 90
       50
176
     1
290
     0
176
     1
 90
       50
176
     1
 62
   256
176
     0
 40
1.0
176
     0
 90
        2
176
     1
  1
strokes_ogs.tif
176
     1
290
     0
176
     1
 40
1.0
176
     1
 40
1.0
176
     1
  0
VISUALSTYLE
  5
41
102
{ACAD_REACTORS
330
2A
102
}
330
2A
100
AcDbVisualStyle
  2
Shaded with edges
 70
    26
177
     3
291
     0
 70
    58
 90
        2
176
     1
 90
        2
176
     1
 90
        1
176
     1
 90
        2
176
     1
 40
0.6
176
     1
 40
30.0
176
     1
 62
     7
420
 16777215
176
     1
 90
        1
176
     1
 90
       10
176
     1
 62
     7
176
     1
 62
   257
176
     1
 90
        2
176
     1
 90
        1
176
     1
 40
1.0
176
     1
 90
        8
176
     1
 62
   257
176
     1
 40
1.0
176
     1
 90
        1
176
     1
 90
        6
176
     1
 90
        2
176
     1
 62
     7
176
     1
 90
        3
176
     1
 90
        0
176
     1
 90
        0
176
     1
290
     0
176
     1
 90
        5
176
     1
 40
0.0
176
     1
 90
        0
176
     1
290
     0
176
     1
290
     1
176
     1
290
     1
176
     1
290
     0
176
     1
290
     0
176
     1
290
     0
176
     1
290
     0
176
     1
290
     0
176
     1
290
     0
176
     1
 90
       50
176
     1
 40
0.0
176
     1
 40
1.0
176
     1
 90
        0
176
     1
 62
    18
420
        0
176
     1
 90
       50
176
     1
 90
        3
176
     1
 62
     5
420
      255
176
     1
290
     0
176
     1
 90
       50
176
     1
 90
       50
176
     1
 90
       50
176
     1
290
     0
176
     1
 90
       50
176
     1
 62
   256
176
     0
 40
1.0
176
     0
 90
        2
176
     1
  1
strokes_ogs.tif
176
     1
290
     0
176
     1
 40
1.0
176
     1
 40
1.0
176
     1
  0
VISUALSTYLE
  5
3E
102
{ACAD_REACTORS
330
2A
102
}
330
2A
100
AcDbVisualStyle
  2
Shades of Gray
 70
    23
177
     3
291
     0
 70
    58
 90
        2
176
     1
 90
        2
176
     1
 90
        3
176
     1
 90
        0
176
     1
 40
0.6
176
     1
 40
30.0
176
     1
 62
     7
420
 16777215
176
     1
 90
        2
176
     1
 90
        2
176
     1
 62
     7
176
     1
 62
     7
176
     1
 90
        1
176
     1
 90
        1
176
     1
 40
40.0
176
     1
 90
        8
176
     1
 62
     7
176
     1
 40
1.0
176
     1
 90
        1
176
     1
 90
        6
176
     1
 90
        2
176
     1
 62
     7
176
     1
 90
        3
176
     1
 90
        0
176
     1
 90
        0
176
     1
290
     0
176
     1
 90
        1
176
     1
 40
0.0
176
     1
 90
        0
176
     1
290
     0
176
     1
290
     1
176
     1
290
     1
176
     1
290
     0
176
     1
290
     0
176
     1
290
     0
176
     1
290
     0
176
     1
290
     0
176
     1
290
     0
176
     1
 90
       50
176
     1
 40
0.0
176
     1
 40
1.0
176
     1
 90
        0
176
     1
 62
    18
420
        0
176
     1
 90
       50
176
     1
 90
        3
176
     1
 62
     5
420
      255
176
     1
290
     0
176
     1
 90
       50
176
     1
 90
       50
176
     1
 90
       50
176
     1
290
     0
176
     1
 90
       50
176
     1
 62
   256
176
     0
 40
1.0
176
     0
 90
        2
176
     1
  1
strokes_ogs.tif
176
     1
290
     0
176
     1
 40
1.0
176
     1
 40
1.0
176
     1
  0
VISUALSTYLE
  5
3F
102
{ACAD_REACTORS
330
2A
102
}
330
2A
100
AcDbVisualStyle
  2
Sketchy
 70
    24
177
     3
291
     0
 70
    58
 90
        1
176
     1
 90
        2
176
     1
 90
        2
176
     1
 90
        0
176
     1
 40
0.6
176
     1
 40
30.0
176
     1
 62
     7
420
 16777215
176
     1
 90
        2
176
     1
 90
        2
176
     1
 62
     7
176
     1
 62
     7
176
     1
 90
        1
176
     1
 90
        1
176
     1
 40
40.0
176
     1
 90
       11
176
     1
 62
     7
176
     1
 40
1.0
176
     1
 90
        1
176
     1
 90
        6
176
     1
 90
        2
176
     1
 62
     7
176
     1
 90
        6
176
     1
 90
        0
176
     1
 90
        0
176
     1
290
     0
176
     1
 90
        1
176
     1
 40
0.0
176
     1
 90
        0
176
     1
290
     0
176
     1
290
     1
176
     1
290
     1
176
     1
290
     0
176
     1
290
     0
176
     1
290
     0
176
     1
290
     0
176
     1
290
     0
176
     1
290
     0
176
     1
 90
       50
176
     1
 40
0.0
176
     1
 40
1.0
176
     1
 90
        0
176
     1
 62
    18
420
        0
176
     1
 90
       50
176
     1
 90
        3
176
     1
 62
     5
420
      255
176
     1
290
     0
176
     1
 90
       50
176
     1
 90
       50
176
     1
 90
       50
176
     1
290
     0
176
     1
 90
       50
176
     1
 62
   256
176
     0
 40
1.0
176
     0
 90
        2
176
     1
  1
strokes_ogs.tif
176
     1
290
     0
176
     1
 40
1.0
176
     1
 40
1.0
176
     1
  0
VISUALSTYLE
  5
37
102
{ACAD_REACTORS
330
2A
102
}
330
2A
100
AcDbVisualStyle
  2
Thicken
 70
    13
177
     3
291
     1
 70
    58
 90
        2
176
     1
 90
        2
176
     1
 90
        0
176
     1
 90
        0
176
     1
 40
0.6
176
     1
 40
30.0
176
     1
 62
     7
420
 16777215
176
     1
 90
        1
176
     1
 90
        4
176
     1
 62
     7
176
     1
 62
   257
176
     1
 90
        1
176
     1
 90
        1
176
     1
 40
1.0
176
     1
 90
       12
176
     1
 62
     7
176
     1
 40
1.0
176
     1
 90
        1
176
     1
 90
        6
176
     1
 90
        2
176
     1
 62
     7
176
     1
 90
        5
176
     1
 90
        0
176
     1
 90
        0
176
     1
290
     0
176
     1
 90
        1
176
     1
 40
0.0
176
     1
 90
        0
176
     1
290
     0
176
     1
290
     1
176
     1
290
     1
176
     1
290
     0
176
     1
290
     0
176
     1
290
     0
176
     1
290
     0
176
     1
290
     0
176
     1
290
     0
176
     1
 90
       50
176
     1
 40
0.0
176
     1
 40
1.0
176
     1
 90
        0
176
     1
 62
    18
420
        0
176
     1
 90
       50
176
     1
 90
        3
176
     1
 62
     5
420
      255
176
     1
290
     0
176
     1
 90
       50
176
     1
 90
       50
176
     1
 90
       50
176
     1
290
     0
176
     1
 90
       50
176
     1
 62
   256
176
     0
 40
1.0
176
     0
 90
        2
176
     1
  1
strokes_ogs.tif
176
     1
290
     0
176
     1
 40
1.0
176
     1
 40
1.0
176
     1
  0
VISUALSTYLE
  5
30
102
{ACAD_REACTORS
330
2A
102
}
330
2A
100
AcDbVisualStyle
  2
Wireframe
 70
     5
177
     3
291
     0
 70
    58
 90
        0
176
     1
 90
        2
176
     1
 90
        0
176
     1
 90
        0
176
     1
 40
0.6
176
     1
 40
30.0
176
     1
 62
     7
420
 16777215
176
     1
 90
        1
176
     1
 90
        4
176
     1
 62
     7
176
     1
 62
   257
176
     1
 90
        1
176
     1
 90
        1
176
     1
 40
1.0
176
     1
 90
        0
176
     1
 62
   257
176
     1
 40
1.0
176
     1
 90
        1
176
     1
 90
        6
176
     1
 90
        2
176
     1
 62
     7
176
     1
 90
        3
176
     1
 90
        0
176
     1
 90
        0
176
     1
290
     0
176
     1
 90
        1
176
     1
 40
0.0
176
     1
 90
        0
176
     1
290
     0
176
     1
290
     1
176
     1
290
     1
176
     1
290
     0
176
     1
290
     0
176
     1
290
     0
176
     1
290
     0
176
     1
290
     0
176
     1
290
     0
176
     1
 90
       50
176
     1
 40
0.0
176
     1
 40
1.0
176
     1
 90
        0
176
     1
 62
    18
420
        0
176
     1
 90
       50
176
     1
 90
        3
176
     1
 62
     5
420
      255
176
     1
290
     0
176
     1
 90
       50
176
     1
 90
       50
176
     1
 90
       50
176
     1
290
     0
176
     1
 90
       50
176
     1
 62
   256
176
     0
 40
1.0
176
     0
 90
        2
176
     1
  1
strokes_ogs.tif
176
     1
290
     0
176
     1
 40
1.0
176
     1
 40
1.0
176
     1
  0
VISUALSTYLE
  5
40
102
{ACAD_REACTORS
330
2A
102
}
330
2A
100
AcDbVisualStyle
  2
X-Ray
 70
    25
177
     3
291
     0
 70
    58
 90
        2
176
     1
 90
        2
176
     1
 90
        1
176
     1
 90
        1
176
     1
 40
0.5
176
     1
 40
30.0
176
     1
 62
     7
420
 16777215
176
     1
 90
        1
176
     1
 90
        0
176
     1
 62
     7
176
     1
 62
   257
176
     1
 90
        1
176
     1
 90
        1
176
     1
 40
1.0
176
     1
 90
        8
176
     1
 62
     7
176
     1
 40
1.0
176
     1
 90
        1
176
     1
 90
        6
176
     1
 90
        2
176
     1
 62
     7
176
     1
 90
        3
176
     1
 90
        0
176
     1
 90
        0
176
     1
290
     0
176
     1
 90
       13
176
     1
 40
0.0
176
     1
 90
        0
176
     1
290
     0
176
     1
290
     1
176
     1
290
     1
176
     1
290
     0
176
     1
290
     0
176
     1
290
     0
176
     1
290
     0
176
     1
290
     0
176
     1
290
     0
176
     1
 90
       50
176
     1
 40
0.0
176
     1
 40
1.0
176
     1
 90
        0
176
     1
 62
    18
420
        0
176
     1
 90
       50
176
     1
 90
        3
176
     1
 62
     5
420
      255
176
     1
290
     0
176
     1
 90
       50
176
     1
 90
       50
176
     1
 90
       50
176
     1
290
     0
176
     1
 90
       50
176
     1
 62
   256
176
     0
 40
1.0
176
     0
 90
        2
176
     1
  1
strokes_ogs.tif
176
     1
290
     0
176
     1
 40
1.0
176
     1
 40
1.0
176
     1
  0
DICTIONARYVAR
  5
500
102
{ACAD_REACTORS
330
4FF
102
}
330
4FF
100
DictionaryVariables
280
     0
  1
1:1
  0
DICTIONARYVAR
  5
505
102
{ACAD_REACTORS
330
4FF
102
}
330
4FF
100
DictionaryVariables
280
     0
  1
Standard
  0
DICTIONARYVAR
  5
504
102
{ACAD_REACTORS
330
4FF
102
}
330
4FF
100
DictionaryVariables
280
     0
  1
Standard
  0
DICTIONARY
  5
501
330
6A
100
AcDbDictionary
280
     1
281
     1
  3
ACAD_ROUNDTRIP_2008_TABLESTYLE_CELLSTYLEMAP
360
502
  0
CELLSTYLEMAP
  5
502
102
{ACAD_REACTORS
330
501
102
}
330
501
100
AcDbCellStyleMap
 90
        3
300
CELLSTYLE
  1
TABLEFORMAT_BEGIN
 90
        5
170
     1
 91
        0
 92
    32768
 62
   257
 93
        1
300
CONTENTFORMAT
  1
CONTENTFORMAT_BEGIN
 90
        0
 91
        0
 92
        4
 93
        0
300

 40
0.0
140
1.0
 94
        5
 62
     0
340
11
144
0.25
309
CONTENTFORMAT_END
171
     1
301
MARGIN
  1
CELLMARGIN_BEGIN
 40
0.06
 40
0.06
 40
0.06
 40
0.06
 40
0.06
 40
0.06
309
CELLMARGIN_END
 94
        6
 95
        1
302
GRIDFORMAT
  1
GRIDFORMAT_BEGIN
 90
        0
 91
        1
 62
     0
 92
       -2
340
14
 93
        0
 40
0.045
309
GRIDFORMAT_END
 95
        2
302
GRIDFORMAT
  1
GRIDFORMAT_BEGIN
 90
        0
 91
        1
 62
     0
 92
       -2
340
14
 93
        0
 40
0.045
309
GRIDFORMAT_END
 95
        4
302
GRIDFORMAT
  1
GRIDFORMAT_BEGIN
 90
        0
 91
        1
 62
     0
 92
       -2
340
14
 93
        0
 40
0.045
309
GRIDFORMAT_END
 95
        8
302
GRIDFORMAT
  1
GRIDFORMAT_BEGIN
 90
        0
 91
        1
 62
     0
 92
       -2
340
14
 93
        0
 40
0.045
309
GRIDFORMAT_END
 95
       16
302
GRIDFORMAT
  1
GRIDFORMAT_BEGIN
 90
        0
 91
        1
 62
     0
 92
       -2
340
14
 93
        0
 40
0.045
309
GRIDFORMAT_END
 95
       32
302
GRIDFORMAT
  1
GRIDFORMAT_BEGIN
 90
        0
 91
        1
 62
     0
 92
       -2
340
14
 93
        0
 40
0.045
309
GRIDFORMAT_END
309
TABLEFORMAT_END
  1
CELLSTYLE_BEGIN
 90
        1
 91
        1
300
_TITLE
309
CELLSTYLE_END
300
CELLSTYLE
  1
TABLEFORMAT_BEGIN
 90
        5
170
     1
 91
        0
 92
        0
 62
   257
 93
        1
300
CONTENTFORMAT
  1
CONTENTFORMAT_BEGIN
 90
        0
 91
        0
 92
        4
 93
        0
300

 40
0.0
140
1.0
 94
        5
 62
     0
340
11
144
0.18
309
CONTENTFORMAT_END
171
     1
301
MARGIN
  1
CELLMARGIN_BEGIN
 40
0.06
 40
0.06
 40
0.06
 40
0.06
 40
0.06
 40
0.06
309
CELLMARGIN_END
 94
        6
 95
        1
302
GRIDFORMAT
  1
GRIDFORMAT_BEGIN
 90
        0
 91
        1
 62
     0
 92
       -2
340
14
 93
        0
 40
0.045
309
GRIDFORMAT_END
 95
        2
302
GRIDFORMAT
  1
GRIDFORMAT_BEGIN
 90
        0
 91
        1
 62
     0
 92
       -2
340
14
 93
        0
 40
0.045
309
GRIDFORMAT_END
 95
        4
302
GRIDFORMAT
  1
GRIDFORMAT_BEGIN
 90
        0
 91
        1
 62
     0
 92
       -2
340
14
 93
        0
 40
0.045
309
GRIDFORMAT_END
 95
        8
302
GRIDFORMAT
  1
GRIDFORMAT_BEGIN
 90
        0
 91
        1
 62
     0
 92
       -2
340
14
 93
        0
 40
0.045
309
GRIDFORMAT_END
 95
       16
302
GRIDFORMAT
  1
GRIDFORMAT_BEGIN
 90
        0
 91
        1
 62
     0
 92
       -2
340
14
 93
        0
 40
0.045
309
GRIDFORMAT_END
 95
       32
302
GRIDFORMAT
  1
GRIDFORMAT_BEGIN
 90
        0
 91
        1
 62
     0
 92
       -2
340
14
 93
        0
 40
0.045
309
GRIDFORMAT_END
309
TABLEFORMAT_END
  1
CELLSTYLE_BEGIN
 90
        2
 91
        1
300
_HEADER
309
CELLSTYLE_END
300
CELLSTYLE
  1
TABLEFORMAT_BEGIN
 90
        5
170
     1
 91
        0
 92
        0
 62
   257
 93
        1
300
CONTENTFORMAT
  1
CONTENTFORMAT_BEGIN
 90
        0
 91
        0
 92
        4
 93
        0
300

 40
0.0
140
1.0
 94
        2
 62
     0
340
11
144
0.18
309
CONTENTFORMAT_END
171
     1
301
MARGIN
  1
CELLMARGIN_BEGIN
 40
0.06
 40
0.06
 40
0.06
 40
0.06
 40
0.06
 40
0.06
309
CELLMARGIN_END
 94
        6
 95
        1
302
GRIDFORMAT
  1
GRIDFORMAT_BEGIN
 90
        0
 91
        1
 62
     0
 92
       -2
340
14
 93
        0
 40
0.045
309
GRIDFORMAT_END
 95
        2
302
GRIDFORMAT
  1
GRIDFORMAT_BEGIN
 90
        0
 91
        1
 62
     0
 92
       -2
340
14
 93
        0
 40
0.045
309
GRIDFORMAT_END
 95
        4
302
GRIDFORMAT
  1
GRIDFORMAT_BEGIN
 90
        0
 91
        1
 62
     0
 92
       -2
340
14
 93
        0
 40
0.045
309
GRIDFORMAT_END
 95
        8
302
GRIDFORMAT
  1
GRIDFORMAT_BEGIN
 90
        0
 91
        1
 62
     0
 92
       -2
340
14
 93
        0
 40
0.045
309
GRIDFORMAT_END
 95
       16
302
GRIDFORMAT
  1
GRIDFORMAT_BEGIN
 90
        0
 91
        1
 62
     0
 92
       -2
340
14
 93
        0
 40
0.045
309
GRIDFORMAT_END
 95
       32
302
GRIDFORMAT
  1
GRIDFORMAT_BEGIN
 90
        0
 91
        1
 62
     0
 92
       -2
340
14
 93
        0
 40
0.045
309
GRIDFORMAT_END
309
TABLEFORMAT_END
  1
CELLSTYLE_BEGIN
 90
        3
 91
        2
300
_DATA
309
CELLSTYLE_END
  0
ENDSEC
  0
EOF
