  0
SECTION
  2
HEADER
  9
$ACADVER
  1
AC1015
  9
$ACADMAINTVER
 70
    13
  9
$DWGCODEPAGE
  3
ANSI_932
  9
$INSBASE
 10
0.0
 20
0.0
 30
0.0
  9
$EXTMIN
 10
29.9670430062888
 20
29.98278950385611
 30
-0.0015258207003583
  9
$EXTMAX
 10
800.4840106988371
 20
544.1676648992202
 30
0.0000000349246037
  9
$LIMMIN
 10
0.0
 20
0.0
  9
$LIMMAX
 10
840.0
 20
594.0
  9
$ORTHOMODE
 70
     0
  9
$REGENMODE
 70
     1
  9
$FILLMODE
 70
     1
  9
$QTEXTMODE
 70
     0
  9
$MIRRTEXT
 70
     1
  9
$LTSCALE
 40
0.5
  9
$ATTMODE
 70
     1
  9
$TEXTSIZE
 40
0.2
  9
$TRACEWID
 40
0.05
  9
$TEXTSTYLE
  7
STANDARD
  9
$CLAYER
  8
0
  9
$CELTYPE
  6
ByLayer
  9
$CECOLOR
 62
   256
  9
$CELTSCALE
 40
1.0
  9
$DISPSILH
 70
     0
  9
$DIMSCALE
 40
1.0
  9
$DIMASZ
 40
1.0
  9
$DIMEXO
 40
0.0
  9
$DIMDLI
 40
0.5
  9
$DIMRND
 40
0.0
  9
$DIMDLE
 40
0.0
  9
$DIMEXE
 40
0.0
  9
$DIMTP
 40
0.0
  9
$DIMTM
 40
0.0
  9
$DIMTXT
 40
0.18
  9
$DIMCEN
 40
0.0
  9
$DIMTSZ
 40
0.0
  9
$DIMTOL
 70
     0
  9
$DIMLIM
 70
     0
  9
$DIMTIH
 70
     1
  9
$DIMTOH
 70
     1
  9
$DIMSE1
 70
     0
  9
$DIMSE2
 70
     0
  9
$DIMTAD
 70
     0
  9
$DIMZIN
 70
     0
  9
$DIMBLK
  1

  9
$DIMASO
 70
     0
  9
$DIMSHO
 70
     0
  9
$DIMPOST
  1

  9
$DIMAPOST
  1

  9
$DIMALT
 70
     0
  9
$DIMALTD
 70
     0
  9
$DIMALTF
 40
25.4
  9
$DIMLFAC
 40
1.0
  9
$DIMTOFL
 70
     0
  9
$DIMTVP
 40
0.0
  9
$DIMTIX
 70
     0
  9
$DIMSOXD
 70
     0
  9
$DIMSAH
 70
     0
  9
$DIMBLK1
  1

  9
$DIMBLK2
  1

  9
$DIMSTYLE
  2
Standard
  9
$DIMCLRD
 70
     0
  9
$DIMCLRE
 70
     0
  9
$DIMCLRT
 70
     0
  9
$DIMTFAC
 40
1.0
  9
$DIMGAP
 40
0.09
  9
$DIMJUST
 70
     0
  9
$DIMSD1
 70
     0
  9
$DIMSD2
 70
     0
  9
$DIMTOLJ
 70
     1
  9
$DIMTZIN
 70
     0
  9
$DIMALTZ
 70
     0
  9
$DIMALTTZ
 70
     0
  9
$DIMUPT
 70
     0
  9
$DIMDEC
 70
     4
  9
$DIMTDEC
 70
     4
  9
$DIMALTU
 70
     2
  9
$DIMALTTD
 70
     2
  9
$DIMTXSTY
  7
STANDARD
  9
$DIMAUNIT
 70
     0
  9
$DIMADEC
 70
     0
  9
$DIMALTRND
 40
0.0
  9
$DIMAZIN
 70
     0
  9
$DIMDSEP
 70
    46
  9
$DIMATFIT
 70
     3
  9
$DIMFRAC
 70
     0
  9
$DIMLDRBLK
  1

  9
$DIMLUNIT
 70
     2
  9
$DIMLWD
 70
    -2
  9
$DIMLWE
 70
    -2
  9
$DIMTMOVE
 70
     0
  9
$LUNITS
 70
     2
  9
$LUPREC
 70
     2
  9
$SKETCHINC
 40
0.0
  9
$FILLETRAD
 40
0.0
  9
$AUNITS
 70
     1
  9
$AUPREC
 70
     2
  9
$MENU
  1
ACAD
  9
$ELEVATION
 40
0.0
  9
$PELEVATION
 40
0.0
  9
$THICKNESS
 40
0.0
  9
$LIMCHECK
 70
     1
  9
$CHAMFERA
 40
0.0
  9
$CHAMFERB
 40
0.0
  9
$CHAMFERC
 40
0.0
  9
$CHAMFERD
 40
0.0
  9
$SKPOLY
 70
     0
  9
$TDCREATE
 40
2311949.261400752
  9
$TDUCREATE
 40
2311948.886400752
  9
$TDUPDATE
 40
2454580.594902488
  9
$TDUUPDATE
 40
2454580.219902488
  9
$TDINDWG
 40
0.0009351736
  9
$TDUSRTIMER
 40
0.0009350000
  9
$USRTIMER
 70
     1
  9
$ANGBASE
 50
0.0
  9
$ANGDIR
 70
     0
  9
$PDMODE
 70
     0
  9
$PDSIZE
 40
0.0
  9
$PLINEWID
 40
0.0
  9
$SPLFRAME
 70
     0
  9
$SPLINETYPE
 70
     6
  9
$SPLINESEGS
 70
     8
  9
$HANDSEED
  5
459
  9
$SURFTAB1
 70
     6
  9
$SURFTAB2
 70
     6
  9
$SURFTYPE
 70
     6
  9
$SURFU
 70
     6
  9
$SURFV
 70
     6
  9
$UCSBASE
  2

  9
$UCSNAME
  2

  9
$UCSORG
 10
0.0
 20
0.0
 30
0.0
  9
$UCSXDIR
 10
1.0
 20
0.0
 30
0.0
  9
$UCSYDIR
 10
0.0
 20
1.0
 30
0.0
  9
$UCSORTHOREF
  2

  9
$UCSORTHOVIEW
 70
     0
  9
$UCSORGTOP
 10
0.0
 20
0.0
 30
0.0
  9
$UCSORGBOTTOM
 10
0.0
 20
0.0
 30
0.0
  9
$UCSORGLEFT
 10
0.0
 20
0.0
 30
0.0
  9
$UCSORGRIGHT
 10
0.0
 20
0.0
 30
0.0
  9
$UCSORGFRONT
 10
0.0
 20
0.0
 30
0.0
  9
$UCSORGBACK
 10
0.0
 20
0.0
 30
0.0
  9
$PUCSBASE
  2

  9
$PUCSNAME
  2

  9
$PUCSORG
 10
0.0
 20
0.0
 30
0.0
  9
$PUCSXDIR
 10
1.0
 20
0.0
 30
0.0
  9
$PUCSYDIR
 10
0.0
 20
1.0
 30
0.0
  9
$PUCSORTHOREF
  2

  9
$PUCSORTHOVIEW
 70
     0
  9
$PUCSORGTOP
 10
0.0
 20
0.0
 30
0.0
  9
$PUCSORGBOTTOM
 10
0.0
 20
0.0
 30
0.0
  9
$PUCSORGLEFT
 10
0.0
 20
0.0
 30
0.0
  9
$PUCSORGRIGHT
 10
0.0
 20
0.0
 30
0.0
  9
$PUCSORGFRONT
 10
0.0
 20
0.0
 30
0.0
  9
$PUCSORGBACK
 10
0.0
 20
0.0
 30
0.0
  9
$USERI1
 70
     0
  9
$USERI2
 70
     0
  9
$USERI3
 70
     0
  9
$USERI4
 70
     0
  9
$USERI5
 70
     0
  9
$USERR1
 40
0.0
  9
$USERR2
 40
0.0
  9
$USERR3
 40
0.0
  9
$USERR4
 40
0.0
  9
$USERR5
 40
0.0
  9
$WORLDVIEW
 70
     1
  9
$SHADEDGE
 70
     3
  9
$SHADEDIF
 70
    70
  9
$TILEMODE
 70
     1
  9
$MAXACTVP
 70
    64
  9
$PINSBASE
 10
0.0
 20
0.0
 30
0.0
  9
$PLIMCHECK
 70
     0
  9
$PEXTMIN
 10
0.0
 20
0.0
 30
0.0
  9
$PEXTMAX
 10
420.0
 20
297.0
 30
0.0
  9
$PLIMMIN
 10
0.0
 20
0.0
  9
$PLIMMAX
 10
12.0
 20
9.0
  9
$UNITMODE
 70
     0
  9
$VISRETAIN
 70
     1
  9
$PLINEGEN
 70
     0
  9
$PSLTSCALE
 70
     1
  9
$TREEDEPTH
 70
  3020
  9
$CMLSTYLE
  2
Standard
  9
$CMLJUST
 70
     0
  9
$CMLSCALE
 40
1.0
  9
$PROXYGRAPHICS
 70
     1
  9
$MEASUREMENT
 70
     0
  9
$CELWEIGHT
370
    -1
  9
$ENDCAPS
280
     0
  9
$JOINSTYLE
280
     0
  9
$LWDISPLAY
290
     0
  9
$INSUNITS
 70
     0
  9
$HYPERLINKBASE
  1

  9
$STYLESHEET
  1

  9
$XEDIT
290
     1
  9
$CEPSNTYPE
380
     0
  9
$PSTYLEMODE
290
     1
  9
$FINGERPRINTGUID
  2
{8DC0C9C9-9F23-4904-8448-4B9F7623F303}
  9
$VERSIONGUID
  2
{3B18A07D-5AC2-44CD-8FB0-FAB63CC69A5E}
  9
$EXTNAMES
290
     1
  9
$PSVPSCALE
 40
0.0
  9
$OLESTARTUP
290
     0
  0
ENDSEC
  0
SECTION
  2
CLASSES
  0
CLASS
  1
ACDBDICTIONARYWDFLT
  2
AcDbDictionaryWithDefault
  3
AutoCAD 2000
 90
        0
280
     0
281
     0
  0
CLASS
  1
ACDBPLACEHOLDER
  2
AcDbPlaceHolder
  3
AutoCAD 2000
 90
        0
280
     0
281
     0
  0
CLASS
  1
LAYOUT
  2
AcDbLayout
  3
AutoCAD 2000
 90
        0
280
     0
281
     0
  0
CLASS
  1
DICTIONARYVAR
  2
AcDbDictionaryVar
  3
AutoCAD 2000
 90
        0
280
     0
281
     0
  0
ENDSEC
  0
SECTION
  2
TABLES
  0
TABLE
  2
VPORT
  5
8
330
0
100
AcDbSymbolTable
 70
     3
  0
VPORT
  5
458
330
8
100
AcDbSymbolTableRecord
100
AcDbViewportTableRecord
  2
*Active
 70
     0
 10
0.0
 20
0.0
 11
1.0
 21
1.0
 12
415.225526852563
 22
287.0752272015381
 13
0.0
 23
0.0
 14
1.0
 24
1.0
 15
0.0
 25
0.0
 16
0.0
 26
0.0
 36
1.0
 17
0.0
 27
0.0
 37
0.0
 40
618.8993713673649
 41
1.252538071065989
 42
50.0
 43
0.0
 44
0.0
 50
0.0
 51
0.0
 71
     0
 72
   100
 73
     1
 74
     1
 75
     0
 76
     0
 77
     0
 78
     0
281
     0
 65
     1
110
0.0
120
0.0
130
0.0
111
1.0
121
0.0
131
0.0
112
0.0
122
1.0
132
0.0
 79
     0
146
0.0
  0
ENDTAB
  0
TABLE
  2
LTYPE
  5
5
330
0
100
AcDbSymbolTable
 70
     5
  0
LTYPE
  5
13
330
5
100
AcDbSymbolTableRecord
100
AcDbLinetypeTableRecord
  2
ByBlock
 70
     0
  3

 72
    65
 73
     0
 40
0.0
  0
LTYPE
  5
14
330
5
100
AcDbSymbolTableRecord
100
AcDbLinetypeTableRecord
  2
ByLayer
 70
     0
  3

 72
    65
 73
     0
 40
0.0
  0
LTYPE
  5
15
330
5
100
AcDbSymbolTableRecord
100
AcDbLinetypeTableRecord
  2
CONTINUOUS
 70
     0
  3
Solid line
 72
    65
 73
     0
 40
0.0
  0
LTYPE
  5
22
330
5
100
AcDbSymbolTableRecord
100
AcDbLinetypeTableRecord
  2
HIDDEN
 70
     0
  3
------------------------
 72
    65
 73
     2
 40
12.6
 49
8.4
 74
     0
 49
-4.2
 74
     0
  0
LTYPE
  5
23
330
5
100
AcDbSymbolTableRecord
100
AcDbLinetypeTableRecord
  2
DOT
 70
     0
  3
････････････････････････
 72
    65
 73
     2
 40
8.0
 49
6.0
 74
     0
 49
-2.0
 74
     0
  0
LTYPE
  5
24
330
5
100
AcDbSymbolTableRecord
100
AcDbLinetypeTableRecord
  2
DASHDOT
 70
     0
  3
--･--･--･--･--･--･--･--
 72
    65
 73
     4
 40
50.5
 49
30.0
 74
     0
 49
-9.0
 74
     0
 49
2.5
 74
     0
 49
-9.0
 74
     0
  0
LTYPE
  5
25
330
5
100
AcDbSymbolTableRecord
100
AcDbLinetypeTableRecord
  2
DIVIDE
 70
     0
  3
--･･--･･--･･--･･--･･--
 72
    65
 73
     6
 40
58.0
 49
30.0
 74
     0
 49
-9.0
 74
     0
 49
2.5
 74
     0
 49
-5.0
 74
     0
 49
2.5
 74
     0
 49
-9.0
 74
     0
  0
ENDTAB
  0
TABLE
  2
LAYER
  5
2
330
0
100
AcDbSymbolTable
 70
     3
  0
LAYER
  5
10
330
2
100
AcDbSymbolTableRecord
100
AcDbLayerTableRecord
  2
0
 70
     0
 62
     7
  6
CONTINUOUS
370
    -3
390
F
  0
LAYER
  5
26
330
2
100
AcDbSymbolTableRecord
100
AcDbLayerTableRecord
  2
1
 70
     0
 62
     7
  6
CONTINUOUS
370
    -3
390
F
  0
LAYER
  5
27
330
2
100
AcDbSymbolTableRecord
100
AcDbLayerTableRecord
  2
15
 70
     0
 62
    96
  6
CONTINUOUS
370
    -3
390
F
  0
ENDTAB
  0
TABLE
  2
STYLE
  5
3
330
0
100
AcDbSymbolTable
 70
     2
  0
STYLE
  5
11
330
3
100
AcDbSymbolTableRecord
100
AcDbTextStyleTableRecord
  2
STANDARD
 70
     0
 40
0.0
 41
1.0
 50
0.0
 71
     0
 42
0.2
  3
TXT
  4

  0
STYLE
  5
28
330
3
100
AcDbSymbolTableRecord
100
AcDbTextStyleTableRecord
  2
KANJI
 70
     0
 40
0.0
 41
1.0
 50
0.0
 71
     0
 42
0.2
  3
TXT
  4
BIGFONT
  0
ENDTAB
  0
TABLE
  2
VIEW
  5
6
330
0
100
AcDbSymbolTable
 70
     0
  0
ENDTAB
  0
TABLE
  2
UCS
  5
7
330
0
100
AcDbSymbolTable
 70
     0
  0
ENDTAB
  0
TABLE
  2
APPID
  5
9
330
0
100
AcDbSymbolTable
 70
     1
  0
APPID
  5
12
330
9
100
AcDbSymbolTableRecord
100
AcDbRegAppTableRecord
  2
ACAD
 70
     0
  0
ENDTAB
  0
TABLE
  2
DIMSTYLE
  5
A
330
0
100
AcDbSymbolTable
 70
     1
100
AcDbDimStyleTable
 71
     0
  0
DIMSTYLE
105
453
330
A
100
AcDbSymbolTableRecord
100
AcDbDimStyleTableRecord
  2
Standard
 70
     0
340
11
  0
ENDTAB
  0
TABLE
  2
BLOCK_RECORD
  5
1
330
0
100
AcDbSymbolTable
 70
     7
  0
BLOCK_RECORD
  5
1E
330
1
100
AcDbSymbolTableRecord
100
AcDbBlockTableRecord
  2
*Model_Space
340
21
  0
BLOCK_RECORD
  5
1A
330
1
100
AcDbSymbolTableRecord
100
AcDbBlockTableRecord
  2
*Paper_Space
340
1D
  0
BLOCK_RECORD
  5
2C
330
1
100
AcDbSymbolTableRecord
100
AcDbBlockTableRecord
  2
*D0
340
0
  0
BLOCK_RECORD
  5
37
330
1
100
AcDbSymbolTableRecord
100
AcDbBlockTableRecord
  2
*D1
340
0
  0
BLOCK_RECORD
  5
42
330
1
100
AcDbSymbolTableRecord
100
AcDbBlockTableRecord
  2
*D2
340
0
  0
BLOCK_RECORD
  5
4D
330
1
100
AcDbSymbolTableRecord
100
AcDbBlockTableRecord
  2
*D3
340
0
  0
BLOCK_RECORD
  5
58
330
1
100
AcDbSymbolTableRecord
100
AcDbBlockTableRecord
  2
*D4
340
0
  0
BLOCK_RECORD
  5
63
330
1
100
AcDbSymbolTableRecord
100
AcDbBlockTableRecord
  2
*D5
340
0
  0
BLOCK_RECORD
  5
6E
330
1
100
AcDbSymbolTableRecord
100
AcDbBlockTableRecord
  2
*D6
340
0
  0
ENDTAB
  0
ENDSEC
  0
SECTION
  2
BLOCKS
  0
BLOCK
  5
1F
330
1E
100
AcDbEntity
  8
0
100
AcDbBlockBegin
  2
*Model_Space
 70
     0
 10
0.0
 20
0.0
 30
0.0
  3
*Model_Space
  1

  0
ENDBLK
  5
20
330
1E
100
AcDbEntity
  8
0
100
AcDbBlockEnd
  0
BLOCK
  5
1B
330
1A
100
AcDbEntity
 67
     1
  8
0
100
AcDbBlockBegin
  2
*Paper_Space
 70
     0
 10
0.0
 20
0.0
 30
0.0
  3
*Paper_Space
  1

  0
ENDBLK
  5
1C
330
1A
100
AcDbEntity
 67
     1
  8
0
100
AcDbBlockEnd
  0
BLOCK
  5
2D
330
2C
100
AcDbEntity
  8
1
  6
Continuous
 62
     7
100
AcDbBlockBegin
  2
*D0
 70
     1
 10
0.0
 20
0.0
 30
0.0
  3
*D0
  1

  0
LINE
  5
2E
330
2C
100
AcDbEntity
  8
1
  6
Continuous
 62
     7
100
AcDbLine
 10
133.4535999999999
 20
374.06591
 30
0.0
 11
249.4536
 21
374.06591
 31
0.0
  0
LINE
  5
2F
330
2C
100
AcDbEntity
  8
1
  6
Continuous
 62
     7
100
AcDbLine
 10
133.4535999999999
 20
378.06591
 30
0.0
 11
133.4535999999999
 21
350.89461
 31
0.0
  0
LINE
  5
30
330
2C
100
AcDbEntity
  8
1
  6
Continuous
 62
     7
100
AcDbLine
 10
249.4536
 20
378.06591
 30
0.0
 11
249.4536
 21
350.89461
 31
0.0
  0
LINE
  5
31
330
2C
100
AcDbEntity
  8
1
  6
Continuous
 62
     7
100
AcDbLine
 10
133.4535999999999
 20
374.06591
 30
0.0
 11
138.090044
 21
375.308241
 31
0.0
  0
LINE
  5
32
330
2C
100
AcDbEntity
  8
1
  6
Continuous
 62
     7
100
AcDbLine
 10
133.4535999999999
 20
374.06591
 30
0.0
 11
138.090044
 21
372.8235779999999
 31
0.0
  0
LINE
  5
33
330
2C
100
AcDbEntity
  8
1
  6
Continuous
 62
     7
100
AcDbLine
 10
249.4536
 20
374.06591
 30
0.0
 11
244.817156
 21
372.8235779999999
 31
0.0
  0
LINE
  5
34
330
2C
100
AcDbEntity
  8
1
  6
Continuous
 62
     7
100
AcDbLine
 10
249.4536
 20
374.06591
 30
0.0
 11
244.817156
 21
375.308241
 31
0.0
  0
TEXT
  5
35
330
2C
100
AcDbEntity
  8
1
  6
Continuous
 62
     7
100
AcDbText
 10
186.5535999999999
 20
375.06591
 30
0.0
 40
6.0
  1
116
 41
0.566667
  7
KANJI
100
AcDbText
  0
ENDBLK
  5
36
330
2C
100
AcDbEntity
  8
0
100
AcDbBlockEnd
  0
BLOCK
  5
38
330
37
100
AcDbEntity
  8
1
  6
Continuous
 62
     7
100
AcDbBlockBegin
  2
*D1
 70
     1
 10
0.0
 20
0.0
 30
0.0
  3
*D1
  1

  0
LINE
  5
39
330
37
100
AcDbEntity
  8
1
  6
Continuous
 62
     7
100
AcDbLine
 10
269.0324219999999
 20
353.894609
 30
0.0
 11
269.0324219999999
 21
233.8946089999999
 31
0.0
  0
LINE
  5
3A
330
37
100
AcDbEntity
  8
1
  6
Continuous
 62
     7
100
AcDbLine
 10
273.0324219999999
 20
353.894609
 30
0.0
 11
246.4535999999999
 21
353.8946099999999
 31
0.0
  0
LINE
  5
3B
330
37
100
AcDbEntity
  8
1
  6
Continuous
 62
     7
100
AcDbLine
 10
273.0324219999999
 20
233.8946089999999
 30
0.0
 11
246.4535999999999
 21
233.89461
 31
0.0
  0
LINE
  5
3C
330
37
100
AcDbEntity
  8
1
  6
Continuous
 62
     7
100
AcDbLine
 10
269.0324219999999
 20
353.894609
 30
0.0
 11
270.2747529999999
 21
349.258166
 31
0.0
  0
LINE
  5
3D
330
37
100
AcDbEntity
  8
1
  6
Continuous
 62
     7
100
AcDbLine
 10
269.0324219999999
 20
353.894609
 30
0.0
 11
267.7900899999999
 21
349.258166
 31
0.0
  0
LINE
  5
3E
330
37
100
AcDbEntity
  8
1
  6
Continuous
 62
     7
100
AcDbLine
 10
269.0324219999999
 20
233.8946089999999
 30
0.0
 11
267.7900899999999
 21
238.5310529999999
 31
0.0
  0
LINE
  5
3F
330
37
100
AcDbEntity
  8
1
  6
Continuous
 62
     7
100
AcDbLine
 10
269.0324219999999
 20
233.8946089999999
 30
0.0
 11
270.2747529999999
 21
238.5310529999999
 31
0.0
  0
TEXT
  5
40
330
37
100
AcDbEntity
  8
1
  6
Continuous
 62
     7
100
AcDbText
 10
268.032422
 20
288.9946089999999
 30
0.0
 40
6.0
  1
120
 50
90.0
 41
0.566667
  7
KANJI
100
AcDbText
  0
ENDBLK
  5
41
330
37
100
AcDbEntity
  8
0
100
AcDbBlockEnd
  0
BLOCK
  5
43
330
42
100
AcDbEntity
  8
1
  6
Continuous
 62
     7
100
AcDbBlockBegin
  2
*D2
 70
     1
 10
0.0
 20
0.0
 30
0.0
  3
*D2
  1

  0
LINE
  5
44
330
42
100
AcDbEntity
  8
1
  6
Continuous
 62
     7
100
AcDbLine
 10
308.297702
 20
374.06591
 30
0.0
 11
343.2536
 21
374.06591
 31
0.0
  0
LINE
  5
45
330
42
100
AcDbEntity
  8
1
  6
Continuous
 62
     7
100
AcDbLine
 10
329.7536
 20
378.06591
 30
0.0
 11
329.7536
 21
357.89461
 31
0.0
  0
LINE
  5
46
330
42
100
AcDbEntity
  8
1
  6
Continuous
 62
     7
100
AcDbLine
 10
338.4536
 20
378.06591
 30
0.0
 11
338.4536
 21
357.8946189999999
 31
0.0
  0
LINE
  5
47
330
42
100
AcDbEntity
  8
1
  6
Continuous
 62
     7
100
AcDbLine
 10
329.7536
 20
374.06591
 30
0.0
 11
325.117156
 21
372.8235779999999
 31
0.0
  0
LINE
  5
48
330
42
100
AcDbEntity
  8
1
  6
Continuous
 62
     7
100
AcDbLine
 10
329.7536
 20
374.06591
 30
0.0
 11
325.117156
 21
375.308241
 31
0.0
  0
LINE
  5
49
330
42
100
AcDbEntity
  8
1
  6
Continuous
 62
     7
100
AcDbLine
 10
338.4536
 20
374.06591
 30
0.0
 11
343.0900439999999
 21
375.308241
 31
0.0
  0
LINE
  5
4A
330
42
100
AcDbEntity
  8
1
  6
Continuous
 62
     7
100
AcDbLine
 10
338.4536
 20
374.06591
 30
0.0
 11
343.0900439999999
 21
372.8235779999999
 31
0.0
  0
TEXT
  5
4B
330
42
100
AcDbEntity
  8
1
  6
Continuous
 62
     7
100
AcDbText
 10
313.431035
 20
375.06591
 30
0.0
 40
6.0
  1
8.8
 41
0.6538460000000001
  7
KANJI
100
AcDbText
  0
ENDBLK
  5
4C
330
42
100
AcDbEntity
  8
0
100
AcDbBlockEnd
  0
BLOCK
  5
4E
330
4D
100
AcDbEntity
  8
1
  6
Continuous
 62
     7
100
AcDbBlockBegin
  2
*D3
 70
     1
 10
0.0
 20
0.0
 30
0.0
  3
*D3
  1

  0
LINE
  5
4F
330
4D
100
AcDbEntity
  8
1
  6
Continuous
 62
     7
100
AcDbLine
 10
400.444765
 20
328.39461
 30
0.0
 11
400.444765
 21
259.39461
 31
0.0
  0
LINE
  5
50
330
4D
100
AcDbEntity
  8
1
  6
Continuous
 62
     7
100
AcDbLine
 10
404.444765
 20
328.39461
 30
0.0
 11
372.4536
 21
328.39461
 31
0.0
  0
LINE
  5
51
330
4D
100
AcDbEntity
  8
1
  6
Continuous
 62
     7
100
AcDbLine
 10
404.444765
 20
259.39461
 30
0.0
 11
358.4535999999999
 21
259.39461
 31
0.0
  0
LINE
  5
52
330
4D
100
AcDbEntity
  8
1
  6
Continuous
 62
     7
100
AcDbLine
 10
400.444765
 20
328.39461
 30
0.0
 11
401.687096
 21
323.758166
 31
0.0
  0
LINE
  5
53
330
4D
100
AcDbEntity
  8
1
  6
Continuous
 62
     7
100
AcDbLine
 10
400.444765
 20
328.39461
 30
0.0
 11
399.2024329999999
 21
323.758166
 31
0.0
  0
LINE
  5
54
330
4D
100
AcDbEntity
  8
1
  6
Continuous
 62
     7
100
AcDbLine
 10
400.444765
 20
259.39461
 30
0.0
 11
399.2024329999999
 21
264.0310529999999
 31
0.0
  0
LINE
  5
55
330
4D
100
AcDbEntity
  8
1
  6
Continuous
 62
     7
100
AcDbLine
 10
400.444765
 20
259.39461
 30
0.0
 11
401.687096
 21
264.0310529999999
 31
0.0
  0
TEXT
  5
56
330
4D
100
AcDbEntity
  8
1
  6
Continuous
 62
     7
100
AcDbText
 10
399.444765
 20
290.69461
 30
0.0
 40
6.0
  1
69
 50
90.0
 41
0.566667
  7
KANJI
100
AcDbText
  0
ENDBLK
  5
57
330
4D
100
AcDbEntity
  8
0
100
AcDbBlockEnd
  0
BLOCK
  5
59
330
58
100
AcDbEntity
  8
1
  6
Continuous
 62
     7
100
AcDbBlockBegin
  2
*D4
 70
     1
 10
0.0
 20
0.0
 30
0.0
  3
*D4
  1

  0
LINE
  5
5A
330
58
100
AcDbEntity
  8
1
  6
Continuous
 62
     7
100
AcDbLine
 10
338.4536
 20
374.06591
 30
0.0
 11
368.4536
 21
374.06591
 31
0.0
  0
LINE
  5
5B
330
58
100
AcDbEntity
  8
1
  6
Continuous
 62
     7
100
AcDbLine
 10
338.4536
 20
378.06591
 30
0.0
 11
338.4536
 21
357.89461
 31
0.0
  0
LINE
  5
5C
330
58
100
AcDbEntity
  8
1
  6
Continuous
 62
     7
100
AcDbLine
 10
368.4536
 20
378.06591
 30
0.0
 11
368.4536
 21
329.9276649999999
 31
0.0
  0
LINE
  5
5D
330
58
100
AcDbEntity
  8
1
  6
Continuous
 62
     7
100
AcDbLine
 10
338.4536
 20
374.06591
 30
0.0
 11
343.0900439999999
 21
375.308241
 31
0.0
  0
LINE
  5
5E
330
58
100
AcDbEntity
  8
1
  6
Continuous
 62
     7
100
AcDbLine
 10
338.4536
 20
374.06591
 30
0.0
 11
343.0900439999999
 21
372.8235779999999
 31
0.0
  0
LINE
  5
5F
330
58
100
AcDbEntity
  8
1
  6
Continuous
 62
     7
100
AcDbLine
 10
368.4536
 20
374.06591
 30
0.0
 11
363.8171559999999
 21
372.8235779999999
 31
0.0
  0
LINE
  5
60
330
58
100
AcDbEntity
  8
1
  6
Continuous
 62
     7
100
AcDbLine
 10
368.4536
 20
374.06591
 30
0.0
 11
363.8171559999999
 21
375.308241
 31
0.0
  0
TEXT
  5
61
330
58
100
AcDbEntity
  8
1
  6
Continuous
 62
     7
100
AcDbText
 10
350.2536
 20
375.06591
 30
0.0
 40
6.0
  1
30
 41
0.566667
  7
KANJI
100
AcDbText
  0
ENDBLK
  5
62
330
58
100
AcDbEntity
  8
0
100
AcDbBlockEnd
  0
BLOCK
  5
64
330
63
100
AcDbEntity
  8
1
  6
Continuous
 62
     7
100
AcDbBlockBegin
  2
*D5
 70
     1
 10
0.0
 20
0.0
 30
0.0
  3
*D5
  1

  0
LINE
  5
65
330
63
100
AcDbEntity
  8
1
  6
Continuous
 62
     7
100
AcDbLine
 10
484.921073
 20
374.0969
 30
0.0
 11
530.921459
 21
374.0969
 31
0.0
  0
LINE
  5
66
330
63
100
AcDbEntity
  8
1
  6
Continuous
 62
     7
100
AcDbLine
 10
484.921073
 20
378.0969
 30
0.0
 11
484.921073
 21
339.619828
 31
0.0
  0
LINE
  5
67
330
63
100
AcDbEntity
  8
1
  6
Continuous
 62
     7
100
AcDbLine
 10
530.921459
 20
378.0969
 30
0.0
 11
530.921459
 21
339.622147
 31
0.0
  0
LINE
  5
68
330
63
100
AcDbEntity
  8
1
  6
Continuous
 62
     7
100
AcDbLine
 10
484.921073
 20
374.0969
 30
0.0
 11
489.5575169999999
 21
375.3392309999999
 31
0.0
  0
LINE
  5
69
330
63
100
AcDbEntity
  8
1
  6
Continuous
 62
     7
100
AcDbLine
 10
484.921073
 20
374.0969
 30
0.0
 11
489.5575169999999
 21
372.8545689999999
 31
0.0
  0
LINE
  5
6A
330
63
100
AcDbEntity
  8
1
  6
Continuous
 62
     7
100
AcDbLine
 10
530.921459
 20
374.0969
 30
0.0
 11
526.285015
 21
372.8545689999999
 31
0.0
  0
LINE
  5
6B
330
63
100
AcDbEntity
  8
1
  6
Continuous
 62
     7
100
AcDbLine
 10
530.921459
 20
374.0969
 30
0.0
 11
526.285015
 21
375.3392309999999
 31
0.0
  0
TEXT
  5
6C
330
63
100
AcDbEntity
  8
1
  6
Continuous
 62
     7
100
AcDbText
 10
504.721266
 20
375.0968999999999
 30
0.0
 40
6.0
  1
46
 41
0.566667
  7
KANJI
100
AcDbText
  0
ENDBLK
  5
6D
330
63
100
AcDbEntity
  8
0
100
AcDbBlockEnd
  0
BLOCK
  5
6F
330
6E
100
AcDbEntity
  8
1
  6
Continuous
 62
     7
100
AcDbBlockBegin
  2
*D6
 70
     1
 10
0.0
 20
0.0
 30
0.0
  3
*D6
  1

  0
LINE
  5
70
330
6E
100
AcDbEntity
  8
1
  6
Continuous
 62
     7
100
AcDbLine
 10
585.9132179999999
 20
335.622147
 30
0.0
 11
585.9132179999999
 21
252.1381859999999
 31
0.0
  0
LINE
  5
71
330
6E
100
AcDbEntity
  8
1
  6
Continuous
 62
     7
100
AcDbLine
 10
589.9132179999999
 20
335.622147
 30
0.0
 11
534.921459
 21
335.622147
 31
0.0
  0
LINE
  5
72
330
6E
100
AcDbEntity
  8
1
  6
Continuous
 62
     7
100
AcDbLine
 10
589.9132179999999
 20
252.1381859999999
 30
0.0
 11
534.913211
 21
252.1381859999999
 31
0.0
  0
LINE
  5
73
330
6E
100
AcDbEntity
  8
1
  6
Continuous
 62
     7
100
AcDbLine
 10
585.9132179999999
 20
335.622147
 30
0.0
 11
587.1555499999999
 21
330.9857029999999
 31
0.0
  0
LINE
  5
74
330
6E
100
AcDbEntity
  8
1
  6
Continuous
 62
     7
100
AcDbLine
 10
585.9132179999999
 20
335.622147
 30
0.0
 11
584.6708869999999
 21
330.9857029999999
 31
0.0
  0
LINE
  5
75
330
6E
100
AcDbEntity
  8
1
  6
Continuous
 62
     7
100
AcDbLine
 10
585.9132179999999
 20
252.1381859999999
 30
0.0
 11
584.6708869999999
 21
256.77463
 31
0.0
  0
LINE
  5
76
330
6E
100
AcDbEntity
  8
1
  6
Continuous
 62
     7
100
AcDbLine
 10
585.9132179999999
 20
252.1381859999999
 30
0.0
 11
587.1555499999999
 21
256.77463
 31
0.0
  0
TEXT
  5
77
330
6E
100
AcDbEntity
  8
1
  6
Continuous
 62
     7
100
AcDbText
 10
584.9132179999998
 20
287.280166
 30
0.0
 40
6.0
  1
83.5
 50
90.0
 41
0.6296300000000001
  7
KANJI
100
AcDbText
  0
ENDBLK
  5
78
330
6E
100
AcDbEntity
  8
0
100
AcDbBlockEnd
  0
ENDSEC
  0
SECTION
  2
ENTITIES
  0
LINE
  5
79
330
1E
100
AcDbEntity
  8
15
  6
Continuous
 62
    96
100
AcDbLine
 10
30.0
 20
544.151584
 30
0.0
 11
30.0
 21
30.0
 31
0.0
  0
LINE
  5
7A
330
1E
100
AcDbEntity
  8
15
  6
Continuous
 62
    96
100
AcDbLine
 10
30.0
 20
30.0
 30
0.0
 11
800.227081
 21
30.0
 31
0.0
  0
LINE
  5
7B
330
1E
100
AcDbEntity
  8
15
  6
Continuous
 62
    96
100
AcDbLine
 10
728.879008
 20
41.40355399999999
 30
0.0
 11
703.946332
 21
41.40355399999999
 31
0.0
  0
TEXT
  5
7C
330
1E
100
AcDbEntity
  8
15
  6
Continuous
 62
    96
100
AcDbText
 10
668.40937
 20
39.382282
 30
0.0
 40
3.601062
  1
出入管理システム
 41
1.018518999999999
  7
KANJI
100
AcDbText
  0
TEXT
  5
7D
330
1E
100
AcDbEntity
  8
15
  6
Continuous
 62
    96
100
AcDbText
 10
668.550527
 20
31.618634
 30
0.0
 40
7.202122999999999
  1
株式会社
 41
1.782407
  7
KANJI
100
AcDbText
  0
LINE
  5
7E
330
1E
100
AcDbEntity
  8
15
  6
Continuous
 62
    96
100
AcDbLine
 10
628.756797
 20
31.75764
 30
0.0
 11
635.0923690000001
 21
31.75764
 31
0.0
  0
LINE
  5
7F
330
1E
100
AcDbEntity
  8
15
  6
Continuous
 62
    96
100
AcDbLine
 10
666.038375
 20
39.457096
 30
0.0
 11
666.038375
 21
41.888499
 31
0.0
  0
LINE
  5
80
330
1E
100
AcDbEntity
  8
15
  6
Continuous
 62
    96
100
AcDbLine
 10
663.4043619999999
 20
39.457096
 30
0.0
 11
666.038375
 21
39.457096
 31
0.0
  0
LINE
  5
81
330
1E
100
AcDbEntity
  8
15
  6
Continuous
 62
    96
100
AcDbLine
 10
663.4043619999999
 20
31.75764
 30
0.0
 11
663.4043619999999
 21
39.457096
 31
0.0
  0
LINE
  5
82
330
1E
100
AcDbEntity
  8
15
  6
Continuous
 62
    96
100
AcDbLine
 10
660.5677169999999
 20
31.75764
 30
0.0
 11
663.4043619999999
 21
31.75764
 31
0.0
  0
LINE
  5
83
330
1E
100
AcDbEntity
  8
15
  6
Continuous
 62
    96
100
AcDbLine
 10
658.863116
 20
31.75764
 30
0.0
 11
655.299669
 21
31.75764
 31
0.0
  0
LINE
  5
84
330
1E
100
AcDbEntity
  8
15
  6
Continuous
 62
    96
100
AcDbLine
 10
640.508608
 20
31.75764
 30
0.0
 11
649.221143
 21
31.75764
 31
0.0
  0
LINE
  5
85
330
1E
100
AcDbEntity
  8
15
  6
Continuous
 62
    96
100
AcDbLine
 10
640.508608
 20
36.01259999999999
 30
0.0
 11
640.508608
 21
31.75764
 31
0.0
  0
LINE
  5
86
330
1E
100
AcDbEntity
  8
15
  6
Continuous
 62
    96
100
AcDbLine
 10
635.0923690000001
 20
31.75764
 30
0.0
 11
644.9661869999999
 21
41.533696
 31
0.0
  0
LINE
  5
87
330
1E
100
AcDbEntity
  8
15
  6
Continuous
 62
    96
100
AcDbLine
 10
644.9661869999999
 20
41.533696
 30
0.0
 11
644.9661869999999
 21
36.01259999999999
 31
0.0
  0
LINE
  5
88
330
1E
100
AcDbEntity
  8
15
  6
Continuous
 62
    96
100
AcDbLine
 10
644.9661869999999
 20
36.01259999999999
 30
0.0
 11
640.508608
 21
36.01259999999999
 31
0.0
  0
LINE
  5
89
330
1E
100
AcDbEntity
  8
15
  6
Continuous
 62
    96
100
AcDbLine
 10
649.221143
 20
37.43092
 30
0.0
 11
655.299669
 21
31.75764
 31
0.0
  0
ARC
  5
8A
330
1E
100
AcDbEntity
  8
15
  6
Continuous
 62
    96
100
AcDbCircle
 10
654.083963
 20
38.444008
 30
0.0
 40
1.013087999999999
100
AcDbArc
 50
270.0
 51
90.0
  0
LINE
  5
8B
330
1E
100
AcDbEntity
  8
15
  6
Continuous
 62
    96
100
AcDbLine
 10
649.221143
 20
37.43092
 30
0.0
 11
654.083963
 21
37.43092
 31
0.0
  0
LINE
  5
8C
330
1E
100
AcDbEntity
  8
15
  6
Continuous
 62
    96
100
AcDbLine
 10
650.0316169999999
 20
39.457096
 30
0.0
 11
654.083963
 21
39.457096
 31
0.0
  0
LINE
  5
8D
330
1E
100
AcDbEntity
  8
15
  6
Continuous
 62
    96
100
AcDbLine
 10
650.0316169999999
 20
41.888499
 30
0.0
 11
650.0316169999999
 21
39.457096
 31
0.0
  0
LINE
  5
8E
330
1E
100
AcDbEntity
  8
15
  6
Continuous
 62
    96
100
AcDbLine
 10
650.0316169999999
 20
41.888499
 30
0.0
 11
654.851778
 21
41.888499
 31
0.0
  0
ARC
  5
8F
330
1E
100
AcDbEntity
  8
15
  6
Continuous
 62
    96
100
AcDbCircle
 10
654.4678659999999
 20
38.444008
 30
0.0
 40
3.465819999999999
100
AcDbArc
 50
283.9448469999999
 51
83.640296
  0
LINE
  5
90
330
1E
100
AcDbEntity
  8
15
  6
Continuous
 62
    96
100
AcDbLine
 10
655.299669
 20
35.083527
 30
0.0
 11
658.863116
 21
31.75764
 31
0.0
  0
LINE
  5
91
330
1E
100
AcDbEntity
  8
15
  6
Continuous
 62
    96
100
AcDbLine
 10
666.038375
 20
41.888499
 30
0.0
 11
657.933686
 21
41.888499
 31
0.0
  0
LINE
  5
92
330
1E
100
AcDbEntity
  8
15
  6
Continuous
 62
    96
100
AcDbLine
 10
657.933686
 20
41.888499
 30
0.0
 11
657.933686
 21
39.457096
 31
0.0
  0
LINE
  5
93
330
1E
100
AcDbEntity
  8
15
  6
Continuous
 62
    96
100
AcDbLine
 10
657.933686
 20
39.457096
 30
0.0
 11
660.5677169999999
 21
39.457096
 31
0.0
  0
LINE
  5
94
330
1E
100
AcDbEntity
  8
15
  6
Continuous
 62
    96
100
AcDbLine
 10
660.5677169999999
 20
39.457096
 30
0.0
 11
660.5677169999999
 21
31.75764
 31
0.0
  0
TEXT
  5
95
330
1E
100
AcDbEntity
  8
15
  6
Continuous
 62
    96
100
AcDbText
 10
621.0363049999999
 20
95.92868799999999
 30
0.0
 40
5.001473999999999
  1
製品名
 41
0.9
  7
KANJI
100
AcDbText
  0
LINE
  5
96
330
1E
100
AcDbEntity
  8
15
  6
Continuous
 62
    96
100
AcDbLine
 10
620.173997
 20
30.0
 30
0.0
 11
620.173997
 21
120.026556
 31
0.0
  0
LINE
  5
97
330
1E
100
AcDbEntity
  8
15
  6
Continuous
 62
    96
100
AcDbLine
 10
620.173997
 20
102.021247
 30
0.0
 11
800.227081
 21
102.021247
 31
0.0
  0
LINE
  5
98
330
1E
100
AcDbEntity
  8
15
  6
Continuous
 62
    96
100
AcDbLine
 10
620.173997
 20
102.021234
 30
0.0
 11
800.227081
 21
102.021247
 31
0.0
  0
LINE
  5
99
330
1E
100
AcDbEntity
  8
15
  6
Continuous
 62
    96
100
AcDbLine
 10
800.227081
 20
54.00709200000001
 30
0.0
 11
620.173997
 21
54.007078
 31
0.0
  0
TEXT
  5
9A
330
1E
100
AcDbEntity
  8
15
  6
Continuous
 62
    96
100
AcDbText
 10
621.665981
 20
78.17705100000001
 30
0.0
 40
5.001473999999999
  1
縮尺（Ａ３）
 41
0.9
  7
KANJI
100
AcDbText
  0
LINE
  5
9B
330
1E
100
AcDbEntity
  8
15
  6
Continuous
 62
    96
100
AcDbLine
 10
650.182845
 20
66.01061899999999
 30
0.0
 11
650.182845
 21
54.00708
 31
0.0
  0
LINE
  5
9C
330
1E
100
AcDbEntity
  8
15
  6
Continuous
 62
    96
100
AcDbLine
 10
649.221143
 20
31.75764
 30
0.0
 11
649.221143
 21
52.01936299999999
 31
0.0
  0
LINE
  5
9D
330
1E
100
AcDbEntity
  8
15
  6
Continuous
 62
    96
100
AcDbLine
 10
649.221143
 20
52.01936299999999
 30
0.0
 11
628.756797
 21
31.75764
 31
0.0
  0
LINE
  5
9E
330
1E
100
AcDbEntity
  8
15
  6
Continuous
 62
    96
100
AcDbLine
 10
648.687832
 20
51.491333
 30
0.0
 11
649.221143
 21
51.491333
 31
0.0
  0
TEXT
  5
9F
330
1E
100
AcDbEntity
  8
15
  6
Continuous
 62
    96
100
AcDbText
 10
733.224966
 20
30.77398499999999
 30
0.0
 40
20.005898
  1
アート
 41
0.833333
  7
KANJI
100
AcDbText
  0
TEXT
  5
A0
330
1E
100
AcDbEntity
  8
15
  6
Continuous
 62
    96
100
AcDbText
 10
624.45047
 20
57.026766
 30
0.0
 40
5.001473999999999
  1
図面番号
 41
0.9
  7
KANJI
100
AcDbText
  0
TEXT
  5
A1
330
1E
100
AcDbEntity
  8
15
  6
Continuous
 62
    96
100
AcDbText
 10
752.320241
 20
77.71173899999999
 30
0.0
 40
5.001473999999999
  1
作図
 41
0.9
  7
KANJI
100
AcDbText
  0
LINE
  5
A2
330
1E
100
AcDbEntity
  8
15
  6
Continuous
 62
    96
100
AcDbLine
 10
650.182845
 20
84.01592499999999
 30
0.0
 11
650.182845
 21
66.01061899999999
 31
0.0
  0
LINE
  5
A3
330
1E
100
AcDbEntity
  8
15
  6
Continuous
 62
    96
100
AcDbLine
 10
700.1975899999999
 20
84.01592499999999
 30
0.0
 11
700.1975899999999
 21
66.01062299999999
 31
0.0
  0
LINE
  5
A4
330
1E
100
AcDbEntity
  8
15
  6
Continuous
 62
    96
100
AcDbLine
 10
750.212336
 20
84.01592499999999
 30
0.0
 11
750.212336
 21
66.01062699999999
 31
0.0
  0
LINE
  5
A5
330
1E
100
AcDbEntity
  8
15
  6
Continuous
 62
    96
100
AcDbLine
 10
620.173997
 20
533.14834
 30
0.0
 11
800.227081
 21
533.14834
 31
0.0
  0
LINE
  5
A6
330
1E
100
AcDbEntity
  8
15
  6
Continuous
 62
    96
100
AcDbLine
 10
620.173997
 20
522.1450959999999
 30
0.0
 11
800.227081
 21
522.1450959999999
 31
0.0
  0
LINE
  5
A7
330
1E
100
AcDbEntity
  8
15
  6
Continuous
 62
    96
100
AcDbLine
 10
620.173997
 20
544.151584
 30
0.0
 11
620.173997
 21
145.033928
 31
0.0
  0
LINE
  5
A8
330
1E
100
AcDbEntity
  8
15
  6
Continuous
 62
    96
100
AcDbLine
 10
620.173997
 20
120.026556
 30
0.0
 11
620.173997
 21
145.033928
 31
0.0
  0
TEXT
  5
A9
330
1E
100
AcDbEntity
  8
15
  6
DIVIDE
 62
    96
100
AcDbText
 10
630.176946
 20
535.6490769999999
 30
0.0
 40
6.001769
  1
商品コード
 41
0.833333
  7
KANJI
100
AcDbText
  0
TEXT
  5
AA
330
1E
100
AcDbEntity
  8
15
  6
DIVIDE
 62
    96
100
AcDbText
 10
689.194346
 20
524.645833
 30
0.0
 40
6.001769
  1
定　　　　　格
 41
0.833333
  7
KANJI
100
AcDbText
  0
LINE
  5
AB
330
1E
100
AcDbEntity
  8
15
  6
Continuous
 62
    96
100
AcDbLine
 10
800.220119
 20
290.869593
 30
0.0
 11
800.220119
 21
295.133722
 31
0.0
  0
LINE
  5
AC
330
1E
100
AcDbEntity
  8
15
  6
Continuous
 62
    96
100
AcDbLine
 10
30.0
 20
544.151584
 30
0.0
 11
800.2276
 21
544.151584
 31
0.0
  0
LINE
  5
AD
330
1E
100
AcDbEntity
  8
15
  6
Continuous
 62
    96
100
AcDbLine
 10
800.2276
 20
29.999354
 30
0.0
 11
800.2276
 21
544.150938
 31
0.0
  0
TEXT
  5
AE
330
1E
100
AcDbEntity
  8
15
  6
Continuous
 62
    96
100
AcDbText
 10
621.035263
 20
113.2556969999999
 30
0.0
 40
5.001473999999999
  1
型　式
 41
0.9
  7
KANJI
100
AcDbText
  0
LINE
  5
AF
330
1E
100
AcDbEntity
  8
15
  6
Continuous
 62
    96
100
AcDbLine
 10
620.172955
 20
119.0262469999999
 30
0.0
 11
800.226039
 21
119.0262469999999
 31
0.0
  0
LINE
  5
B0
330
1E
100
AcDbEntity
  8
15
  6
Continuous
 62
    96
100
AcDbLine
 10
669.905314
 20
544.151584
 30
0.0
 11
669.905314
 21
533.14834
 31
0.0
  0
LINE
  5
B1
330
1E
100
AcDbEntity
  8
15
  6
Continuous
 62
    96
100
AcDbLine
 10
620.172955
 20
130.0294909999999
 30
0.0
 11
800.226039
 21
130.0294909999999
 31
0.0
  0
TEXT
  5
B2
330
1E
100
AcDbEntity
  8
15
  6
Continuous
 62
    96
100
AcDbText
 10
632.5766119999999
 20
121.526984
 30
0.0
 40
6.001769
  1
図面履歴
 41
0.944444
  7
KANJI
100
AcDbText
  0
LINE
  5
B3
330
1E
100
AcDbEntity
  8
15
  6
Continuous
 62
    96
100
AcDbLine
 10
620.172955
 20
119.0262469999999
 30
0.0
 11
800.226039
 21
119.0262469999999
 31
0.0
  0
LINE
  5
B4
330
1E
100
AcDbEntity
  8
15
  6
Continuous
 62
    96
100
AcDbLine
 10
670.1877009999999
 20
130.0294909999999
 30
0.0
 11
670.1877009999999
 21
119.0262469999999
 31
0.0
  0
LINE
  5
B5
330
1E
100
AcDbEntity
  8
15
  6
Continuous
 62
    96
100
AcDbLine
 10
620.172955
 20
119.0262469999999
 30
0.0
 11
800.226039
 21
119.0262469999999
 31
0.0
  0
LINE
  5
B6
330
1E
100
AcDbEntity
  8
15
  6
Continuous
 62
    96
100
AcDbLine
 10
710.2410019999999
 20
66.007085
 30
0.0
 11
710.2410019999999
 21
54.007085
 31
0.0
  0
LINE
  5
B7
330
1E
100
AcDbEntity
  8
15
  6
Continuous
 62
    96
100
AcDbLine
 10
724.241002
 20
66.00709499999999
 30
0.0
 11
724.241002
 21
54.00709499999999
 31
0.0
  0
TEXT
  5
B8
330
1E
100
AcDbEntity
  8
15
  6
Continuous
 62
    96
100
AcDbText
 10
712.2643349999999
 20
57.242959
 30
0.0
 40
5.0
  1
日付
 41
0.9
  7
KANJI
100
AcDbText
  0
LINE
  5
B9
330
1E
100
AcDbEntity
  8
15
  6
Continuous
 62
    96
100
AcDbLine
 10
776.227081
 20
66.00709000000001
 30
0.0
 11
776.227081
 21
54.00709
 31
0.0
  0
LINE
  5
BA
330
1E
100
AcDbEntity
  8
15
  6
Continuous
 62
    96
100
AcDbLine
 10
782.32846
 20
64.48709
 30
0.0
 11
782.32846
 21
55.52709
 31
0.0
  0
CIRCLE
  5
BB
330
1E
100
AcDbEntity
  8
15
  6
Continuous
 62
    96
100
AcDbCircle
 10
782.32846
 20
60.00709
 30
0.0
 40
1.919999999999999
  0
CIRCLE
  5
BC
330
1E
100
AcDbEntity
  8
15
  6
Continuous
 62
    96
100
AcDbCircle
 10
782.32846
 20
60.00709
 30
0.0
 40
3.2
  0
LINE
  5
BD
330
1E
100
AcDbEntity
  8
15
  6
Continuous
 62
    96
100
AcDbLine
 10
787.607002
 20
61.92709
 30
0.0
 11
787.607002
 21
58.08709
 31
0.0
  0
LINE
  5
BE
330
1E
100
AcDbEntity
  8
15
  6
Continuous
 62
    96
100
AcDbLine
 10
797.8470019999999
 20
63.20709
 30
0.0
 11
797.8470019999999
 21
56.80709
 31
0.0
  0
LINE
  5
BF
330
1E
100
AcDbEntity
  8
15
  6
Continuous
 62
    96
100
AcDbLine
 10
787.607002
 20
61.92709
 30
0.0
 11
797.8470019999999
 21
63.20709
 31
0.0
  0
LINE
  5
C0
330
1E
100
AcDbEntity
  8
15
  6
Continuous
 62
    96
100
AcDbLine
 10
787.607002
 20
58.08709
 30
0.0
 11
797.8470019999999
 21
56.80709
 31
0.0
  0
LINE
  5
C1
330
1E
100
AcDbEntity
  8
15
  6
Continuous
 62
    96
100
AcDbLine
 10
777.8484599999999
 20
60.00709
 30
0.0
 11
798.939002
 21
60.00709
 31
0.0
  0
TEXT
  5
C2
330
1E
100
AcDbEntity
  8
15
  6
Continuous
 62
    96
100
AcDbText
 10
651.6051629999999
 20
78.365937
 30
0.0
 40
5.001473999999999
  1
承認
 41
0.9
  7
KANJI
100
AcDbText
  0
TEXT
  5
C3
330
1E
100
AcDbEntity
  8
15
  6
Continuous
 62
    96
100
AcDbText
 10
701.619909
 20
78.365937
 30
0.0
 40
5.001473999999999
  1
検図
 41
0.9
  7
KANJI
100
AcDbText
  0
TEXT
  5
C4
330
1E
100
AcDbEntity
  8
15
  6
Continuous
 62
    96
100
AcDbText
 10
720.8351069999999
 20
69.14121999999998
 30
0.0
 40
10.002949
  1
辻
 41
0.9
  7
KANJI
100
AcDbText
  0
TEXT
  5
C5
330
1E
100
AcDbEntity
  8
15
  6
Continuous
 62
    96
100
AcDbText
 10
664.9741609999999
 20
69.14121999999998
 30
0.0
 40
10.002949
  1
仲代
 41
0.9
  7
KANJI
100
AcDbText
  0
LINE
  5
C6
330
1E
100
AcDbEntity
  8
15
  6
Continuous
 62
    96
100
AcDbLine
 10
800.2276
 20
66.01063
 30
0.0
 11
620.173997
 21
66.01061700000001
 31
0.0
  0
LINE
  5
C7
330
1E
100
AcDbEntity
  8
15
  6
Continuous
 62
    96
100
AcDbLine
 10
620.173997
 20
84.01592499999999
 30
0.0
 11
800.2276
 21
84.01592499999999
 31
0.0
  0
TEXT
  5
C8
330
1E
100
AcDbEntity
  8
15
  6
Continuous
 62
    96
100
AcDbText
 10
386.14013
 20
29.869057
 30
0.0
 40
8.0
  1
　
 41
0.833333
  7
KANJI
100
AcDbText
  0
TEXT
  5
C9
330
1E
100
AcDbEntity
  8
15
  6
Continuous
 62
    96
100
AcDbText
 10
767.671106
 20
69.14121999999998
 30
0.0
 40
10.002949
  1
江辺
 41
0.9
  7
KANJI
100
AcDbText
  0
TEXT
  5
CA
330
1E
100
AcDbEntity
  8
15
  6
Continuous
 62
    96
100
AcDbText
 10
679.1312259999999
 20
87.88722099999999
 30
0.0
 40
10.002949
  1
コントローラ
 41
0.9
  7
KANJI
100
AcDbText
  0
TEXT
  5
CB
330
1E
100
AcDbEntity
  8
15
  6
Continuous
 62
    96
100
AcDbText
 10
679.1903549999999
 20
105.0221179999999
 30
0.0
 40
10.002949
  1
Ｃ－３８３０
 41
0.9
  7
KANJI
100
AcDbText
  0
TEXT
  5
CC
330
1E
100
AcDbEntity
  8
15
  6
Continuous
 62
    96
100
AcDbText
 10
625.843729
 20
69.030416
 30
0.0
 40
6.001769
  1
１：２
 41
0.833333
  7
KANJI
100
AcDbText
  0
TEXT
  5
CD
330
1E
100
AcDbEntity
  8
15
  6
DIVIDE
 62
    96
100
AcDbText
 10
717.241002
 20
491.645096
 30
0.0
 40
6.0
  1
ライトグレー
 41
0.833333
  7
KANJI
100
AcDbText
  0
TEXT
  5
CE
330
1E
100
AcDbEntity
  8
15
  6
DIVIDE
 62
    96
100
AcDbText
 10
686.3730019999999
 20
295.3096899999999
 30
0.0
 40
6.0
  1
テンキー特殊操作時メイク
 41
0.833333
  7
KANJI
100
AcDbText
  0
TEXT
  5
CF
330
1E
100
AcDbEntity
  8
15
  6
DIVIDE
 62
    96
100
AcDbText
 10
696.356002
 20
306.6440959999999
 30
0.0
 40
6.0
  1
自動扉出力時メイク
 41
0.833333
  7
KANJI
100
AcDbText
  0
TEXT
  5
D0
330
1E
100
AcDbEntity
  8
15
  6
DIVIDE
 62
    96
100
AcDbText
 10
704.3730019999999
 20
317.317096
 30
0.0
 40
6.0
  1
警報時メイク
 41
0.833333
  7
KANJI
100
AcDbText
  0
TEXT
  5
D1
330
1E
100
AcDbEntity
  8
15
  6
Continuous
 62
    96
100
AcDbText
 10
704.2270809999999
 20
327.645096
 30
0.0
 40
6.0
  1
開扉時メイク
 41
0.833333
  7
KANJI
100
AcDbText
  0
TEXT
  5
D2
330
1E
100
AcDbEntity
  8
15
  6
Continuous
 62
    96
100
AcDbText
 10
695.7010019999999
 20
337.645096
 30
0.0
 40
6.0
  1
電気的解錠時メイク
 41
0.833333
  7
KANJI
100
AcDbText
  0
TEXT
  5
D3
330
1E
100
AcDbEntity
  8
15
  6
Continuous
 62
    96
100
AcDbText
 10
674.2270809999999
 20
359.6376899999999
 30
0.0
 40
6.0
  1
連続入力メイク時テンキー操作不可
 41
0.833333
  7
KANJI
100
AcDbText
  0
TEXT
  5
D4
330
1E
100
AcDbEntity
  8
15
  6
Continuous
 62
    96
100
AcDbText
 10
686.227081
 20
370.645096
 30
0.0
 40
6.0
  1
連続入力メイク時連続解錠
 41
0.833333
  7
KANJI
100
AcDbText
  0
LINE
  5
D5
330
1E
100
AcDbEntity
  8
15
  6
Continuous
 62
    96
100
AcDbLine
 10
774.241002
 20
357.145096
 30
0.0
 11
774.241002
 21
357.1450819999999
 31
0.0
  0
LINE
  5
D6
330
1E
100
AcDbEntity
  8
15
  6
Continuous
 62
    96
100
AcDbLine
 10
670.241002
 20
357.145096
 30
0.0
 11
670.241002
 21
357.140983
 31
0.0
  0
LINE
  5
D7
330
1E
100
AcDbEntity
  8
15
  6
Continuous
 62
    96
100
AcDbLine
 10
784.234042
 20
282.145096
 30
0.0
 11
784.234042
 21
260.145096
 31
0.0
  0
TEXT
  5
D8
330
1E
100
AcDbEntity
  8
15
  6
DIVIDE
 62
    96
100
AcDbText
 10
627.2410019999999
 20
306.645096
 30
0.0
 40
6.0
  1
自動扉出力※
 41
0.833333
  7
KANJI
100
AcDbText
  0
TEXT
  5
D9
330
1E
100
AcDbEntity
  8
15
  6
DIVIDE
 62
    96
100
AcDbText
 10
630.2410019999999
 20
317.645096
 30
0.0
 40
6.0
  1
警報出力※
 41
0.833333
  7
KANJI
100
AcDbText
  0
TEXT
  5
DA
330
1E
100
AcDbEntity
  8
15
  6
Continuous
 62
    96
100
AcDbText
 10
630.2410019999999
 20
328.645096
 30
0.0
 40
6.0
  1
開扉出力※
 41
0.833333
  7
KANJI
100
AcDbText
  0
TEXT
  5
DB
330
1E
100
AcDbEntity
  8
15
  6
Continuous
 62
    96
100
AcDbText
 10
630.2410019999999
 20
337.645096
 30
0.0
 40
6.0
  1
解錠出力※
 41
0.833333
  7
KANJI
100
AcDbText
  0
LINE
  5
DC
330
1E
100
AcDbEntity
  8
15
  6
Continuous
 62
    96
100
AcDbLine
 10
620.241002
 20
304.1376899999999
 30
0.0
 11
774.241002
 21
304.1376899999999
 31
0.0
  0
LINE
  5
DD
330
1E
100
AcDbEntity
  8
15
  6
Continuous
 62
    96
100
AcDbLine
 10
620.241002
 20
315.145096
 30
0.0
 11
774.241002
 21
315.145096
 31
0.0
  0
LINE
  5
DE
330
1E
100
AcDbEntity
  8
15
  6
Continuous
 62
    96
100
AcDbLine
 10
620.241002
 20
326.145096
 30
0.0
 11
774.241002
 21
326.145096
 31
0.0
  0
LINE
  5
DF
330
1E
100
AcDbEntity
  8
15
  6
Continuous
 62
    96
100
AcDbLine
 10
620.241002
 20
336.145096
 30
0.0
 11
774.241002
 21
336.145096
 31
0.0
  0
LINE
  5
E0
330
1E
100
AcDbEntity
  8
15
  6
Continuous
 62
    96
100
AcDbLine
 10
774.241002
 20
335.1376899999999
 30
0.0
 11
774.241002
 21
293.131436
 31
0.0
  0
LINE
  5
E1
330
1E
100
AcDbEntity
  8
15
  6
Continuous
 62
    96
100
AcDbLine
 10
774.241002
 20
346.145096
 30
0.0
 11
774.241002
 21
304.138842
 31
0.0
  0
LINE
  5
E2
330
1E
100
AcDbEntity
  8
15
  6
Continuous
 62
    96
100
AcDbLine
 10
670.241002
 20
335.1376899999999
 30
0.0
 11
670.241002
 21
293.1302839999999
 31
0.0
  0
LINE
  5
E3
330
1E
100
AcDbEntity
  8
15
  6
Continuous
 62
    96
100
AcDbLine
 10
620.241002
 20
293.145096
 30
0.0
 11
800.2410019999999
 21
293.145096
 31
0.0
  0
LINE
  5
E4
330
1E
100
AcDbEntity
  8
15
  6
Continuous
 62
    96
100
AcDbLine
 10
670.234042
 20
282.145096
 30
0.0
 11
670.234042
 21
260.145096
 31
0.0
  0
LINE
  5
E5
330
1E
100
AcDbEntity
  8
15
  6
Continuous
 62
    96
100
AcDbLine
 10
620.234042
 20
260.145096
 30
0.0
 11
800.2340420000001
 21
260.145096
 31
0.0
  0
LINE
  5
E6
330
1E
100
AcDbEntity
  8
15
  6
Continuous
 62
    96
100
AcDbLine
 10
620.241002
 20
293.145096
 30
0.0
 11
800.2340420000001
 21
293.145096
 31
0.0
  0
TEXT
  5
E7
330
1E
100
AcDbEntity
  8
15
  6
Continuous
 62
    96
100
AcDbText
 10
689.041008
 20
273.145096
 30
0.0
 40
6.0
  1
入出力はＪＥＭ－Ａに準拠
 41
0.944444
  7
KANJI
100
AcDbText
  0
TEXT
  5
E8
330
1E
100
AcDbEntity
  8
15
  6
Continuous
 62
    96
100
AcDbText
 10
694.447963
 20
284.645096
 30
0.0
 40
6.0
  1
ＪＥＭ－Ａ
 41
0.944444
  7
KANJI
100
AcDbText
  0
LINE
  5
E9
330
1E
100
AcDbEntity
  8
15
  6
Continuous
 62
    96
100
AcDbLine
 10
620.247963
 20
282.145096
 30
0.0
 11
800.2340420000001
 21
282.145096
 31
0.0
  0
LINE
  5
EA
330
1E
100
AcDbEntity
  8
15
  6
Continuous
 62
    96
100
AcDbLine
 10
620.241002
 20
293.145096
 30
0.0
 11
800.227081
 21
293.145096
 31
0.0
  0
LINE
  5
EB
330
1E
100
AcDbEntity
  8
15
  6
Continuous
 62
    96
100
AcDbLine
 10
620.241002
 20
293.145096
 30
0.0
 11
800.227081
 21
293.145096
 31
0.0
  0
LINE
  5
EC
330
1E
100
AcDbEntity
  8
15
  6
Continuous
 62
    96
100
AcDbLine
 10
670.241002
 20
346.145096
 30
0.0
 11
670.241002
 21
304.1376899999999
 31
0.0
  0
LINE
  5
ED
330
1E
100
AcDbEntity
  8
15
  6
Continuous
 62
    96
100
AcDbLine
 10
620.241002
 20
346.145096
 30
0.0
 11
800.227081
 21
346.145096
 31
0.0
  0
LINE
  5
EE
330
1E
100
AcDbEntity
  8
15
  6
Continuous
 62
    96
100
AcDbLine
 10
620.241002
 20
357.145096
 30
0.0
 11
800.227081
 21
357.145096
 31
0.0
  0
LINE
  5
EF
330
1E
100
AcDbEntity
  8
15
  6
Continuous
 62
    96
100
AcDbLine
 10
620.241002
 20
357.145096
 30
0.0
 11
800.227081
 21
357.145096
 31
0.0
  0
LINE
  5
F0
330
1E
100
AcDbEntity
  8
15
  6
Continuous
 62
    96
100
AcDbLine
 10
774.241002
 20
401.145096
 30
0.0
 11
774.241002
 21
357.145096
 31
0.0
  0
LINE
  5
F1
330
1E
100
AcDbEntity
  8
15
  6
Continuous
 62
    96
100
AcDbLine
 10
670.241002
 20
401.150361
 30
0.0
 11
670.241002
 21
357.145096
 31
0.0
  0
LINE
  5
F2
330
1E
100
AcDbEntity
  8
15
  6
Continuous
 62
    96
100
AcDbLine
 10
620.241002
 20
368.145096
 30
0.0
 11
774.241002
 21
368.145096
 31
0.0
  0
TEXT
  5
F3
330
1E
100
AcDbEntity
  8
15
  6
Continuous
 62
    96
100
AcDbText
 10
624.2270809999999
 20
370.2490959999999
 30
0.0
 40
6.0
  1
タイマー入力※
 41
0.833333
  7
KANJI
100
AcDbText
  0
LINE
  5
F4
330
1E
100
AcDbEntity
  8
15
  6
Continuous
 62
    96
100
AcDbLine
 10
620.2270809999999
 20
379.145096
 30
0.0
 11
774.241002
 21
379.145096
 31
0.0
  0
TEXT
  5
F5
330
1E
100
AcDbEntity
  8
15
  6
Continuous
 62
    96
100
AcDbText
 10
624.2270809999999
 20
381.5120959999999
 30
0.0
 40
6.0
  1
連続解錠入力※
 41
0.833333
  7
KANJI
100
AcDbText
  0
LINE
  5
F6
330
1E
100
AcDbEntity
  8
15
  6
Continuous
 62
    96
100
AcDbLine
 10
620.241002
 20
390.145096
 30
0.0
 11
774.241002
 21
390.145096
 31
0.0
  0
TEXT
  5
F7
330
1E
100
AcDbEntity
  8
15
  6
Continuous
 62
    96
100
AcDbText
 10
624.2270809999999
 20
392.512096
 30
0.0
 40
6.0
  1
一回解錠入力※
 41
0.833333
  7
KANJI
100
AcDbText
  0
TEXT
  5
F8
330
1E
100
AcDbEntity
  8
15
  6
DIVIDE
 62
    96
100
AcDbText
 10
726.2410019999999
 20
414.645096
 30
0.0
 40
6.0
  1
屋　内
 41
0.833333
  7
KANJI
100
AcDbText
  0
TEXT
  5
F9
330
1E
100
AcDbEntity
  8
15
  6
DIVIDE
 62
    96
100
AcDbText
 10
708.241002
 20
436.645096
 30
0.0
 40
6.0
  1
電源搬送波重畳方式
 41
0.833333
  7
KANJI
100
AcDbText
  0
TEXT
  5
FA
330
1E
100
AcDbEntity
  8
15
  6
DIVIDE
 62
    96
100
AcDbText
 10
633.241002
 20
414.645096
 30
0.0
 40
6.0
  1
設置場所
 41
0.833333
  7
KANJI
100
AcDbText
  0
TEXT
  5
FB
330
1E
100
AcDbEntity
  8
15
  6
DIVIDE
 62
    96
100
AcDbText
 10
627.2410019999999
 20
425.645096
 30
0.0
 40
6.0
  1
使用環境温度
 41
0.833333
  7
KANJI
100
AcDbText
  0
TEXT
  5
FC
330
1E
100
AcDbEntity
  8
15
  6
DIVIDE
 62
    96
100
AcDbText
 10
633.241002
 20
436.645096
 30
0.0
 40
6.0
  1
通信方式
 41
0.833333
  7
KANJI
100
AcDbText
  0
LINE
  5
FD
330
1E
100
AcDbEntity
  8
15
  6
Continuous
 62
    96
100
AcDbLine
 10
670.241002
 20
522.1450959999999
 30
0.0
 11
670.241002
 21
412.145059
 31
0.0
  0
LINE
  5
FE
330
1E
100
AcDbEntity
  8
15
  6
Continuous
 62
    96
100
AcDbLine
 10
620.241002
 20
423.145096
 30
0.0
 11
800.2410019999999
 21
423.145096
 31
0.0
  0
LINE
  5
FF
330
1E
100
AcDbEntity
  8
15
  6
Continuous
 62
    96
100
AcDbLine
 10
620.241002
 20
434.145096
 30
0.0
 11
800.2410019999999
 21
434.145096
 31
0.0
  0
LINE
  5
100
330
1E
100
AcDbEntity
  8
15
  6
Continuous
 62
    96
100
AcDbLine
 10
620.241002
 20
412.145096
 30
0.0
 11
800.2410019999999
 21
412.145096
 31
0.0
  0
LINE
  5
101
330
1E
100
AcDbEntity
  8
15
  6
Continuous
 62
    96
100
AcDbLine
 10
620.241002
 20
445.145096
 30
0.0
 11
800.2410019999999
 21
445.145096
 31
0.0
  0
LINE
  5
102
330
1E
100
AcDbEntity
  8
15
  6
Continuous
 62
    96
100
AcDbLine
 10
620.241002
 20
445.145096
 30
0.0
 11
800.2410019999999
 21
445.145096
 31
0.0
  0
LINE
  5
103
330
1E
100
AcDbEntity
  8
15
  6
Continuous
 62
    96
100
AcDbLine
 10
620.241002
 20
401.145096
 30
0.0
 11
800.2410019999999
 21
401.145096
 31
0.0
  0
TEXT
  5
104
330
1E
100
AcDbEntity
  8
15
  6
DIVIDE
 62
    96
100
AcDbText
 10
726.2410019999999
 20
513.6450959999999
 30
0.0
 40
6.0
  1
樹　脂
 41
0.833333
  7
KANJI
100
AcDbText
  0
TEXT
  5
105
330
1E
100
AcDbEntity
  8
15
  6
Continuous
 62
    96
100
AcDbText
 10
633.241002
 20
447.645096
 30
0.0
 40
6.0
  1
消費電力
 41
0.833333
  7
KANJI
100
AcDbText
  0
TEXT
  5
106
330
1E
100
AcDbEntity
  8
15
  6
Continuous
 62
    96
100
AcDbText
 10
633.241002
 20
458.645096
 30
0.0
 40
6.0
  1
入力電源
 41
0.833333
  7
KANJI
100
AcDbText
  0
TEXT
  5
107
330
1E
100
AcDbEntity
  8
15
  6
DIVIDE
 62
    96
100
AcDbText
 10
636.2410019999999
 20
469.6450959999999
 30
0.0
 40
6.0
  1
重　量
 41
0.833333
  7
KANJI
100
AcDbText
  0
LINE
  5
108
330
1E
100
AcDbEntity
  8
15
  6
Continuous
 62
    96
100
AcDbLine
 10
620.241002
 20
478.1450959999999
 30
0.0
 11
800.2410019999999
 21
478.1450959999999
 31
0.0
  0
LINE
  5
109
330
1E
100
AcDbEntity
  8
15
  6
Continuous
 62
    96
100
AcDbLine
 10
620.241002
 20
467.145096
 30
0.0
 11
800.2410019999999
 21
467.145096
 31
0.0
  0
LINE
  5
10A
330
1E
100
AcDbEntity
  8
15
  6
Continuous
 62
    96
100
AcDbLine
 10
800.2410019999999
 20
511.1450959999999
 30
0.0
 11
620.241002
 21
511.1450959999999
 31
0.0
  0
TEXT
  5
10B
330
1E
100
AcDbEntity
  8
15
  6
DIVIDE
 62
    96
100
AcDbText
 10
636.2410019999999
 20
513.6450959999999
 30
0.0
 40
6.0
  1
材　質
 41
0.833333
  7
KANJI
100
AcDbText
  0
TEXT
  5
10C
330
1E
100
AcDbEntity
  8
15
  6
DIVIDE
 62
    96
100
AcDbText
 10
714.201719
 20
535.6490769999999
 30
0.0
 40
6.001769
  1
０３０３０６８
 41
0.833333
  7
KANJI
100
AcDbText
  0
LINE
  5
10D
330
1E
100
AcDbEntity
  8
15
  6
Continuous
 62
    96
100
AcDbLine
 10
620.241002
 20
456.1440959999999
 30
0.0
 11
800.2410019999999
 21
456.1440959999999
 31
0.0
  0
LINE
  5
10E
330
1E
100
AcDbEntity
  8
15
  6
Continuous
 62
    96
100
AcDbLine
 10
620.241002
 20
456.1440959999999
 30
0.0
 11
800.2410019999999
 21
456.1440959999999
 31
0.0
  0
TEXT
  5
10F
330
1E
100
AcDbEntity
  8
15
  6
Continuous
 62
    96
100
AcDbText
 10
777.66296
 20
379.548246
 30
0.0
 40
6.0
  1
何れか
 41
0.833333
  7
KANJI
100
AcDbText
  0
TEXT
  5
110
330
1E
100
AcDbEntity
  8
15
  6
Continuous
 62
    96
100
AcDbText
 10
780.552042
 20
371.7015959999999
 30
0.0
 40
6.0
  1
１点
 41
0.833333
  7
KANJI
100
AcDbText
  0
TEXT
  5
111
330
1E
100
AcDbEntity
  8
15
  6
Continuous
 62
    96
100
AcDbText
 10
777.66296
 20
319.43665
 30
0.0
 40
6.0
  1
何れか
 41
0.833333
  7
KANJI
100
AcDbText
  0
TEXT
  5
112
330
1E
100
AcDbEntity
  8
15
  6
Continuous
 62
    96
100
AcDbText
 10
780.552042
 20
311.5899999999999
 30
0.0
 40
6.0
  1
１点
 41
0.833333
  7
KANJI
100
AcDbText
  0
LINE
  5
113
330
1E
100
AcDbEntity
  8
15
  6
Continuous
 62
    96
100
AcDbLine
 10
620.234042
 20
249.1450959999999
 30
0.0
 11
800.2340420000001
 21
249.1450959999999
 31
0.0
  0
TEXT
  5
114
330
1E
100
AcDbEntity
  8
15
  6
Continuous
 62
    96
100
AcDbText
 10
629.441004
 20
267.645096
 30
0.0
 40
6.0
  1
ＪＥＭ－Ａ
 41
0.944444
  7
KANJI
100
AcDbText
  0
TEXT
  5
115
330
1E
100
AcDbEntity
  8
15
  6
Continuous
 62
    96
100
AcDbText
 10
786.0340419999999
 20
268.645096
 30
0.0
 40
6.0
  1
１点
 41
0.944444
  7
KANJI
100
AcDbText
  0
LINE
  5
116
330
1E
100
AcDbEntity
  8
1
  6
DASHDOT
 62
     7
100
AcDbLine
 10
318.0505999999999
 20
293.8946099999999
 30
0.0
 11
377.1376
 21
293.8946099999999
 31
0.0
  0
LINE
  5
117
330
1E
100
AcDbEntity
  8
1
  6
Continuous
 62
     7
100
AcDbLine
 10
161.3875379999999
 20
325.4634259999999
 30
0.0
 11
161.273496
 21
325.4634259999999
 31
0.0
  0
LINE
  5
118
330
1E
100
AcDbEntity
  8
1
  6
Continuous
 62
     7
100
AcDbLine
 10
162.342296
 20
326.532226
 30
0.0
 11
162.342296
 21
326.5322569999999
 31
0.0
  0
ARC
  5
119
330
1E
100
AcDbEntity
  8
1
  6
Continuous
 62
     7
100
AcDbCircle
 10
161.273496
 20
326.5322569999999
 30
0.0
 40
1.068799999999999
100
AcDbArc
 50
0.0
 51
90.0
  0
LINE
  5
11A
330
1E
100
AcDbEntity
  8
1
  6
Continuous
 62
     7
100
AcDbLine
 10
161.273496
 20
327.6010569999999
 30
0.0
 11
160.205292
 21
327.6010569999999
 31
0.0
  0
ARC
  5
11B
330
1E
100
AcDbEntity
  8
1
  6
Continuous
 62
     7
100
AcDbCircle
 10
161.272082
 20
326.5322339999999
 30
0.0
 40
0.5344
100
AcDbArc
 50
270.0
 51
0.0
  0
LINE
  5
11C
330
1E
100
AcDbEntity
  8
1
  6
Continuous
 62
     7
100
AcDbLine
 10
161.272082
 20
325.9978339999999
 30
0.0
 11
159.938088
 21
325.9978339999999
 31
0.0
  0
LINE
  5
11D
330
1E
100
AcDbEntity
  8
1
  6
Continuous
 62
     7
100
AcDbLine
 10
161.806482
 20
326.532249
 30
0.0
 11
161.806482
 21
326.5322339999999
 31
0.0
  0
ARC
  5
11E
330
1E
100
AcDbEntity
  8
1
  6
Continuous
 62
     7
100
AcDbCircle
 10
161.272082
 20
326.532249
 30
0.0
 40
0.5344
100
AcDbArc
 50
0.0
 51
90.0
  0
LINE
  5
11F
330
1E
100
AcDbEntity
  8
1
  6
Continuous
 62
     7
100
AcDbLine
 10
160.205292
 20
327.066649
 30
0.0
 11
161.272082
 21
327.066649
 31
0.0
  0
LINE
  5
120
330
1E
100
AcDbEntity
  8
1
  6
Continuous
 62
     7
100
AcDbLine
 10
162.560202
 20
327.6010569999999
 30
0.0
 11
162.560202
 21
327.066649
 31
0.0
  0
LINE
  5
121
330
1E
100
AcDbEntity
  8
1
  6
Continuous
 62
     7
100
AcDbLine
 10
164.74776
 20
327.6010569999999
 30
0.0
 11
162.560202
 21
327.6010569999999
 31
0.0
  0
LINE
  5
122
330
1E
100
AcDbEntity
  8
1
  6
Continuous
 62
     7
100
AcDbLine
 10
163.946148
 20
327.066649
 30
0.0
 11
164.74776
 21
327.066649
 31
0.0
  0
LINE
  5
123
330
1E
100
AcDbEntity
  8
1
  6
Continuous
 62
     7
100
AcDbLine
 10
163.946148
 20
324.39461
 30
0.0
 11
163.946148
 21
327.066649
 31
0.0
  0
LINE
  5
124
330
1E
100
AcDbEntity
  8
1
  6
Continuous
 62
     7
100
AcDbLine
 10
163.4117399999999
 20
324.39461
 30
0.0
 11
163.946148
 21
324.39461
 31
0.0
  0
LINE
  5
125
330
1E
100
AcDbEntity
  8
1
  6
Continuous
 62
     7
100
AcDbLine
 10
163.4117399999999
 20
327.066649
 30
0.0
 11
163.4117399999999
 21
324.39461
 31
0.0
  0
LINE
  5
126
330
1E
100
AcDbEntity
  8
1
  6
Continuous
 62
     7
100
AcDbLine
 10
162.560202
 20
327.066649
 30
0.0
 11
163.4117399999999
 21
327.066649
 31
0.0
  0
LINE
  5
127
330
1E
100
AcDbEntity
  8
1
  6
Continuous
 62
     7
100
AcDbLine
 10
162.639955
 20
324.39461
 30
0.0
 11
161.3875379999999
 21
325.4634259999999
 31
0.0
  0
LINE
  5
128
330
1E
100
AcDbEntity
  8
1
  6
Continuous
 62
     7
100
AcDbLine
 10
161.806482
 20
324.39461
 30
0.0
 11
162.639955
 21
324.39461
 31
0.0
  0
LINE
  5
129
330
1E
100
AcDbEntity
  8
1
  6
Continuous
 62
     7
100
AcDbLine
 10
159.938088
 20
325.9978339999999
 30
0.0
 11
161.806482
 21
324.39461
 31
0.0
  0
LINE
  5
12A
330
1E
100
AcDbEntity
  8
1
  6
Continuous
 62
     7
100
AcDbLine
 10
160.205292
 20
327.6010569999999
 30
0.0
 11
160.205292
 21
327.066649
 31
0.0
  0
LINE
  5
12B
330
1E
100
AcDbEntity
  8
1
  6
Continuous
 62
     7
100
AcDbLine
 10
155.571134
 20
324.39461
 30
0.0
 11
154.0595999999999
 21
324.39461
 31
0.0
  0
LINE
  5
12C
330
1E
100
AcDbEntity
  8
1
  6
Continuous
 62
     7
100
AcDbLine
 10
158.869272
 20
327.6010569999999
 30
0.0
 11
155.571134
 21
324.39461
 31
0.0
  0
LINE
  5
12D
330
1E
100
AcDbEntity
  8
1
  6
Continuous
 62
     7
100
AcDbLine
 10
158.869272
 20
325.4634259999999
 30
0.0
 11
158.869272
 21
327.6010569999999
 31
0.0
  0
LINE
  5
12E
330
1E
100
AcDbEntity
  8
1
  6
Continuous
 62
     7
100
AcDbLine
 10
157.266048
 20
325.4634259999999
 30
0.0
 11
158.869272
 21
325.4634259999999
 31
0.0
  0
LINE
  5
12F
330
1E
100
AcDbEntity
  8
1
  6
Continuous
 62
     7
100
AcDbLine
 10
157.266048
 20
325.4634259999999
 30
0.0
 11
158.869272
 21
325.4634259999999
 31
0.0
  0
LINE
  5
130
330
1E
100
AcDbEntity
  8
1
  6
Continuous
 62
     7
100
AcDbLine
 10
157.266048
 20
324.39461
 30
0.0
 11
157.266048
 21
325.4634259999999
 31
0.0
  0
LINE
  5
131
330
1E
100
AcDbEntity
  8
1
  6
Continuous
 62
     7
100
AcDbLine
 10
159.938088
 20
324.39461
 30
0.0
 11
157.266048
 21
324.39461
 31
0.0
  0
LINE
  5
132
330
1E
100
AcDbEntity
  8
1
  6
Continuous
 62
     7
100
AcDbLine
 10
159.938088
 20
330.273097
 30
0.0
 11
159.938088
 21
324.39461
 31
0.0
  0
LINE
  5
133
330
1E
100
AcDbEntity
  8
1
  6
Continuous
 62
     7
100
AcDbLine
 10
154.0595999999999
 20
324.39461
 30
0.0
 11
159.938088
 21
330.273097
 31
0.0
  0
LINE
  5
134
330
1E
100
AcDbEntity
  8
1
  6
Continuous
 62
     7
100
AcDbLine
 10
154.0595999999999
 20
324.39461
 30
0.0
 11
159.938088
 21
330.273097
 31
0.0
  0
ARC
  5
135
330
1E
100
AcDbEntity
  8
1
  6
Continuous
 62
     7
100
AcDbCircle
 10
161.273496
 20
326.532226
 30
0.0
 40
1.068799999999999
100
AcDbArc
 50
276.090493
 51
0.0
  0
LINE
  5
136
330
1E
100
AcDbEntity
  8
1
  6
Continuous
 62
     7
100
AcDbLine
 10
175.9768709999999
 20
282.77311
 30
0.0
 11
171.9768709999999
 21
282.77311
 31
0.0
  0
LINE
  5
137
330
1E
100
AcDbEntity
  8
1
  6
Continuous
 62
     7
100
AcDbLine
 10
175.9768709999999
 20
280.77311
 30
0.0
 11
175.9768709999999
 21
282.77311
 31
0.0
  0
LINE
  5
138
330
1E
100
AcDbEntity
  8
1
  6
Continuous
 62
     7
100
AcDbLine
 10
171.9768709999999
 20
280.77311
 30
0.0
 11
175.9768709999999
 21
280.77311
 31
0.0
  0
LINE
  5
139
330
1E
100
AcDbEntity
  8
1
  6
Continuous
 62
     7
100
AcDbLine
 10
171.9768709999999
 20
282.77311
 30
0.0
 11
171.9768709999999
 21
280.77311
 31
0.0
  0
CIRCLE
  5
13A
330
1E
100
AcDbEntity
  8
1
  6
Continuous
 62
     7
100
AcDbCircle
 10
225.9536069999999
 20
296.3946089999999
 30
0.0
 40
1.5
  0
ARC
  5
13B
330
1E
100
AcDbEntity
  8
1
  6
Continuous
 62
     7
100
AcDbCircle
 10
389.75371
 20
339.967693
 30
0.0
 40
60.0
100
AcDbArc
 50
171.4999399999999
 51
179.9999799999999
  0
ARC
  5
13C
330
1E
100
AcDbEntity
  8
1
  6
Continuous
 62
     7
100
AcDbCircle
 10
389.75372
 20
247.8217299999999
 30
0.0
 40
60.0
100
AcDbArc
 50
179.9999699999999
 51
188.49995
  0
ARC
  5
13D
330
1E
100
AcDbEntity
  8
1
  6
Continuous
 62
     7
100
AcDbCircle
 10
333.75372
 20
236.8947299999999
 30
0.0
 40
3.0
100
AcDbArc
 50
188.4998699999999
 51
270.0
  0
ARC
  5
13E
330
1E
100
AcDbEntity
  8
1
  6
Continuous
 62
     7
100
AcDbCircle
 10
333.75371
 20
350.894695
 30
0.0
 40
3.0
100
AcDbArc
 50
90.0
 51
171.49999
  0
LINE
  5
13F
330
1E
100
AcDbEntity
  8
1
  6
Continuous
 62
     7
100
AcDbLine
 10
330.41257
 20
348.836147
 30
0.0
 11
330.7864799999999
 21
351.338008
 31
0.0
  0
LINE
  5
140
330
1E
100
AcDbEntity
  8
1
  6
Continuous
 62
     7
100
AcDbLine
 10
330.7864499999999
 20
236.45132
 30
0.0
 11
330.41255
 21
238.9531499999999
 31
0.0
  0
LINE
  5
141
330
1E
100
AcDbEntity
  8
1
  6
Continuous
 62
     7
100
AcDbLine
 10
329.7536
 20
247.8217299999999
 30
0.0
 11
329.7536
 21
339.967693
 31
0.0
  0
LINE
  5
142
330
1E
100
AcDbEntity
  8
1
  6
Continuous
 62
     7
100
AcDbLine
 10
333.72055
 20
353.894512
 30
0.0
 11
335.9535999999999
 21
353.894512
 31
0.0
  0
LINE
  5
143
330
1E
100
AcDbEntity
  8
1
  6
Continuous
 62
     7
100
AcDbLine
 10
333.75372
 20
233.8947099999999
 30
0.0
 11
335.9535999999999
 21
233.8947099999999
 31
0.0
  0
LINE
  5
144
330
1E
100
AcDbEntity
  8
1
  6
Continuous
 62
     7
100
AcDbLine
 10
335.9535999999999
 20
233.8947099999999
 30
0.0
 11
335.9535999999999
 21
353.894512
 31
0.0
  0
LINE
  5
145
330
1E
100
AcDbEntity
  8
1
  6
Continuous
 62
     7
100
AcDbLine
 10
338.4536
 20
328.394611
 30
0.0
 11
338.4536
 21
259.39462
 31
0.0
  0
LINE
  5
146
330
1E
100
AcDbEntity
  8
1
  6
Continuous
 62
     7
100
AcDbLine
 10
336.4536
 20
233.8945999999999
 30
0.0
 11
338.4536
 21
233.8945999999999
 31
0.0
  0
LINE
  5
147
330
1E
100
AcDbEntity
  8
1
  6
Continuous
 62
     7
100
AcDbLine
 10
336.4536
 20
233.8945999999999
 30
0.0
 11
336.4536
 21
353.8946189999999
 31
0.0
  0
LINE
  5
148
330
1E
100
AcDbEntity
  8
1
  6
Continuous
 62
     7
100
AcDbLine
 10
338.4536
 20
353.8946189999999
 30
0.0
 11
338.4536
 21
233.8945999999999
 31
0.0
  0
LINE
  5
149
330
1E
100
AcDbEntity
  8
1
  6
Continuous
 62
     7
100
AcDbLine
 10
336.4536
 20
353.8946189999999
 30
0.0
 11
338.4536
 21
353.8946189999999
 31
0.0
  0
LINE
  5
14A
330
1E
100
AcDbEntity
  8
1
  6
Continuous
 62
     7
100
AcDbLine
 10
189.469733
 20
283.851149
 30
0.0
 11
187.955001
 21
281.8946189999999
 31
0.0
  0
LINE
  5
14B
330
1E
100
AcDbEntity
  8
1
  6
Continuous
 62
     7
100
AcDbLine
 10
190.984465
 20
281.8946189999999
 30
0.0
 11
189.469733
 21
283.851149
 31
0.0
  0
LINE
  5
14C
330
1E
100
AcDbEntity
  8
1
  6
Continuous
 62
     7
100
AcDbLine
 10
189.469733
 20
279.938079
 30
0.0
 11
190.984465
 21
281.8946189999999
 31
0.0
  0
LINE
  5
14D
330
1E
100
AcDbEntity
  8
1
  6
Continuous
 62
     7
100
AcDbLine
 10
187.955001
 20
281.8946189999999
 30
0.0
 11
189.469733
 21
279.938079
 31
0.0
  0
LINE
  5
14E
330
1E
100
AcDbEntity
  8
1
  6
Continuous
 62
     7
100
AcDbLine
 10
198.469737
 20
283.851149
 30
0.0
 11
196.9549969999999
 21
281.8946189999999
 31
0.0
  0
LINE
  5
14F
330
1E
100
AcDbEntity
  8
1
  6
Continuous
 62
     7
100
AcDbLine
 10
199.984467
 20
281.8946189999999
 30
0.0
 11
198.469737
 21
283.851149
 31
0.0
  0
LINE
  5
150
330
1E
100
AcDbEntity
  8
1
  6
Continuous
 62
     7
100
AcDbLine
 10
198.469737
 20
279.938079
 30
0.0
 11
199.984467
 21
281.8946189999999
 31
0.0
  0
LINE
  5
151
330
1E
100
AcDbEntity
  8
1
  6
Continuous
 62
     7
100
AcDbLine
 10
196.9549969999999
 20
281.8946189999999
 30
0.0
 11
198.469737
 21
279.938079
 31
0.0
  0
LINE
  5
152
330
1E
100
AcDbEntity
  8
1
  6
Continuous
 62
     7
100
AcDbLine
 10
207.4697369999999
 20
283.851149
 30
0.0
 11
205.9549969999999
 21
281.8946189999999
 31
0.0
  0
LINE
  5
153
330
1E
100
AcDbEntity
  8
1
  6
Continuous
 62
     7
100
AcDbLine
 10
208.984467
 20
281.8946189999999
 30
0.0
 11
207.4697369999999
 21
283.851149
 31
0.0
  0
LINE
  5
154
330
1E
100
AcDbEntity
  8
1
  6
Continuous
 62
     7
100
AcDbLine
 10
207.4697369999999
 20
279.938079
 30
0.0
 11
208.984467
 21
281.8946189999999
 31
0.0
  0
LINE
  5
155
330
1E
100
AcDbEntity
  8
1
  6
Continuous
 62
     7
100
AcDbLine
 10
205.9549969999999
 20
281.8946189999999
 30
0.0
 11
207.4697369999999
 21
279.938079
 31
0.0
  0
LINE
  5
156
330
1E
100
AcDbEntity
  8
1
  6
Continuous
 62
     7
100
AcDbLine
 10
216.469737
 20
283.851149
 30
0.0
 11
214.954997
 21
281.8946189999999
 31
0.0
  0
LINE
  5
157
330
1E
100
AcDbEntity
  8
1
  6
Continuous
 62
     7
100
AcDbLine
 10
217.984467
 20
281.8946189999999
 30
0.0
 11
216.469737
 21
283.851149
 31
0.0
  0
LINE
  5
158
330
1E
100
AcDbEntity
  8
1
  6
Continuous
 62
     7
100
AcDbLine
 10
216.469737
 20
279.938079
 30
0.0
 11
217.984467
 21
281.8946189999999
 31
0.0
  0
LINE
  5
159
330
1E
100
AcDbEntity
  8
1
  6
Continuous
 62
     7
100
AcDbLine
 10
214.954997
 20
281.8946189999999
 30
0.0
 11
216.469737
 21
279.938079
 31
0.0
  0
ARC
  5
15A
330
1E
100
AcDbEntity
  8
1
  6
Continuous
 62
     7
100
AcDbCircle
 10
163.953604
 20
268.3946189999999
 30
0.0
 40
4.5
100
AcDbArc
 50
90.0
 51
270.0
  0
ARC
  5
15B
330
1E
100
AcDbEntity
  8
1
  6
Continuous
 62
     7
100
AcDbCircle
 10
183.953604
 20
268.3946189999999
 30
0.0
 40
5.0
100
AcDbArc
 50
270.0
 51
90.0
  0
ARC
  5
15C
330
1E
100
AcDbEntity
  8
1
  6
Continuous
 62
     7
100
AcDbCircle
 10
163.953604
 20
268.3946189999999
 30
0.0
 40
5.0
100
AcDbArc
 50
90.0
 51
270.0
  0
ARC
  5
15D
330
1E
100
AcDbEntity
  8
1
  6
Continuous
 62
     7
100
AcDbCircle
 10
198.9536069999999
 20
268.3946189999999
 30
0.0
 40
5.0
100
AcDbArc
 50
90.0
 51
270.0
  0
ARC
  5
15E
330
1E
100
AcDbEntity
  8
1
  6
Continuous
 62
     7
100
AcDbCircle
 10
218.9536069999999
 20
268.3946189999999
 30
0.0
 40
5.0
100
AcDbArc
 50
270.0
 51
90.0
  0
ARC
  5
15F
330
1E
100
AcDbEntity
  8
1
  6
Continuous
 62
     7
100
AcDbCircle
 10
183.953604
 20
268.3946189999999
 30
0.0
 40
4.5
100
AcDbArc
 50
270.0
 51
90.0
  0
ARC
  5
160
330
1E
100
AcDbEntity
  8
1
  6
Continuous
 62
     7
100
AcDbCircle
 10
198.9536069999999
 20
268.3946189999999
 30
0.0
 40
4.5
100
AcDbArc
 50
90.0
 51
270.0
  0
ARC
  5
161
330
1E
100
AcDbEntity
  8
1
  6
Continuous
 62
     7
100
AcDbCircle
 10
218.9536069999999
 20
268.3946189999999
 30
0.0
 40
4.5
100
AcDbArc
 50
270.0
 51
90.0
  0
LINE
  5
162
330
1E
100
AcDbEntity
  8
1
  6
Continuous
 62
     7
100
AcDbLine
 10
189.469733
 20
278.7946089999999
 30
0.0
 11
190.398764
 21
279.9946089999999
 31
0.0
  0
LINE
  5
163
330
1E
100
AcDbEntity
  8
1
  6
Continuous
 62
     7
100
AcDbLine
 10
190.984465
 20
281.8946189999999
 30
0.0
 11
189.469741
 21
283.851149
 31
0.0
  0
LINE
  5
164
330
1E
100
AcDbEntity
  8
1
  6
Continuous
 62
     7
100
AcDbLine
 10
187.766501
 20
282.7946089999999
 30
0.0
 11
187.069724
 21
281.8946189999999
 31
0.0
  0
LINE
  5
165
330
1E
100
AcDbEntity
  8
1
  6
Continuous
 62
     7
100
AcDbLine
 10
187.955001
 20
281.8946189999999
 30
0.0
 11
189.469733
 21
279.938088
 31
0.0
  0
LINE
  5
166
330
1E
100
AcDbEntity
  8
1
  6
Continuous
 62
     7
100
AcDbLine
 10
188.540702
 20
279.994619
 30
0.0
 11
189.469741
 21
278.7946089999999
 31
0.0
  0
LINE
  5
167
330
1E
100
AcDbEntity
  8
1
  6
Continuous
 62
     7
100
AcDbLine
 10
187.069731
 20
281.8946189999999
 30
0.0
 11
187.766509
 21
280.994619
 31
0.0
  0
LINE
  5
168
330
1E
100
AcDbEntity
  8
1
  6
Continuous
 62
     7
100
AcDbLine
 10
190.398772
 20
283.7946089999999
 30
0.0
 11
189.469733
 21
284.994619
 31
0.0
  0
LINE
  5
169
330
1E
100
AcDbEntity
  8
1
  6
Continuous
 62
     7
100
AcDbLine
 10
189.469725
 20
279.938079
 30
0.0
 11
190.984458
 21
281.8946189999999
 31
0.0
  0
LINE
  5
16A
330
1E
100
AcDbEntity
  8
1
  6
Continuous
 62
     7
100
AcDbLine
 10
191.172957
 20
280.994609
 30
0.0
 11
191.869735
 21
281.8945979999999
 31
0.0
  0
LINE
  5
16B
330
1E
100
AcDbEntity
  8
1
  6
Continuous
 62
     7
100
AcDbLine
 10
191.8697419999999
 20
281.8945979999999
 30
0.0
 11
191.1729649999999
 21
282.7946089999999
 31
0.0
  0
LINE
  5
16C
330
1E
100
AcDbEntity
  8
1
  6
Continuous
 62
     7
100
AcDbLine
 10
189.469725
 20
284.9946089999999
 30
0.0
 11
188.540694
 21
283.7946089999999
 31
0.0
  0
LINE
  5
16D
330
1E
100
AcDbEntity
  8
1
  6
Continuous
 62
     7
100
AcDbLine
 10
189.469733
 20
283.851149
 30
0.0
 11
187.955001
 21
281.8945979999999
 31
0.0
  0
LINE
  5
16E
330
1E
100
AcDbEntity
  8
1
  6
Continuous
 62
     7
100
AcDbLine
 10
183.953604
 20
263.3946189999999
 30
0.0
 11
163.953604
 21
263.3946189999999
 31
0.0
  0
LINE
  5
16F
330
1E
100
AcDbEntity
  8
1
  6
Continuous
 62
     7
100
AcDbLine
 10
163.953604
 20
273.3946189999999
 30
0.0
 11
183.953604
 21
273.3946189999999
 31
0.0
  0
LINE
  5
170
330
1E
100
AcDbEntity
  8
1
  6
Continuous
 62
     7
100
AcDbLine
 10
198.469737
 20
283.8511289999999
 30
0.0
 11
196.9549969999999
 21
281.8945979999999
 31
0.0
  0
LINE
  5
171
330
1E
100
AcDbEntity
  8
1
  6
Continuous
 62
     7
100
AcDbLine
 10
198.469727
 20
284.9946089999999
 30
0.0
 11
197.540697
 21
283.7946089999999
 31
0.0
  0
LINE
  5
172
330
1E
100
AcDbEntity
  8
1
  6
Continuous
 62
     7
100
AcDbLine
 10
200.869737
 20
281.8946189999999
 30
0.0
 11
200.172967
 21
282.7946089999999
 31
0.0
  0
LINE
  5
173
330
1E
100
AcDbEntity
  8
1
  6
Continuous
 62
     7
100
AcDbLine
 10
198.9536069999999
 20
273.3946189999999
 30
0.0
 11
218.9536069999999
 21
273.3946189999999
 31
0.0
  0
LINE
  5
174
330
1E
100
AcDbEntity
  8
1
  6
Continuous
 62
     7
100
AcDbLine
 10
218.9536069999999
 20
263.3946189999999
 30
0.0
 11
198.9536069999999
 21
263.3946189999999
 31
0.0
  0
LINE
  5
175
330
1E
100
AcDbEntity
  8
1
  6
Continuous
 62
     7
100
AcDbLine
 10
163.953604
 20
272.8946189999999
 30
0.0
 11
183.953604
 21
272.8946189999999
 31
0.0
  0
LINE
  5
176
330
1E
100
AcDbEntity
  8
1
  6
Continuous
 62
     7
100
AcDbLine
 10
183.953604
 20
263.8946189999999
 30
0.0
 11
163.953604
 21
263.8946189999999
 31
0.0
  0
LINE
  5
177
330
1E
100
AcDbEntity
  8
1
  6
Continuous
 62
     7
100
AcDbLine
 10
198.9536069999999
 20
272.8946189999999
 30
0.0
 11
218.9536069999999
 21
272.8946189999999
 31
0.0
  0
LINE
  5
178
330
1E
100
AcDbEntity
  8
1
  6
Continuous
 62
     7
100
AcDbLine
 10
218.9536069999999
 20
263.8946189999999
 30
0.0
 11
198.9536069999999
 21
263.8946189999999
 31
0.0
  0
LINE
  5
179
330
1E
100
AcDbEntity
  8
1
  6
Continuous
 62
     7
100
AcDbLine
 10
200.1729469999999
 20
280.994609
 30
0.0
 11
200.869727
 21
281.8946189999999
 31
0.0
  0
LINE
  5
17A
330
1E
100
AcDbEntity
  8
1
  6
Continuous
 62
     7
100
AcDbLine
 10
198.469727
 20
279.938079
 30
0.0
 11
199.984467
 21
281.8946189999999
 31
0.0
  0
LINE
  5
17B
330
1E
100
AcDbEntity
  8
1
  6
Continuous
 62
     7
100
AcDbLine
 10
199.398777
 20
283.7946089999999
 30
0.0
 11
198.469737
 21
284.9946089999999
 31
0.0
  0
LINE
  5
17C
330
1E
100
AcDbEntity
  8
1
  6
Continuous
 62
     7
100
AcDbLine
 10
196.069737
 20
281.8946189999999
 30
0.0
 11
196.766507
 21
280.994609
 31
0.0
  0
LINE
  5
17D
330
1E
100
AcDbEntity
  8
1
  6
Continuous
 62
     7
100
AcDbLine
 10
197.540697
 20
279.9946089999999
 30
0.0
 11
198.469737
 21
278.7946089999999
 31
0.0
  0
LINE
  5
17E
330
1E
100
AcDbEntity
  8
1
  6
Continuous
 62
     7
100
AcDbLine
 10
196.9549969999999
 20
281.8946189999999
 30
0.0
 11
198.469737
 21
279.938079
 31
0.0
  0
LINE
  5
17F
330
1E
100
AcDbEntity
  8
1
  6
Continuous
 62
     7
100
AcDbLine
 10
196.7664969999999
 20
282.7946089999999
 30
0.0
 11
196.069727
 21
281.8946189999999
 31
0.0
  0
LINE
  5
180
330
1E
100
AcDbEntity
  8
1
  6
Continuous
 62
     7
100
AcDbLine
 10
199.9844769999999
 20
281.8945979999999
 30
0.0
 11
198.469737
 21
283.851149
 31
0.0
  0
LINE
  5
181
330
1E
100
AcDbEntity
  8
1
  6
Continuous
 62
     7
100
AcDbLine
 10
198.469727
 20
278.7946089999999
 30
0.0
 11
199.398757
 21
279.9946089999999
 31
0.0
  0
LINE
  5
182
330
1E
100
AcDbEntity
  8
1
  6
Continuous
 62
     7
100
AcDbLine
 10
207.469727
 20
278.7946089999999
 30
0.0
 11
208.398757
 21
279.9946089999999
 31
0.0
  0
LINE
  5
183
330
1E
100
AcDbEntity
  8
1
  6
Continuous
 62
     7
100
AcDbLine
 10
208.984477
 20
281.8946189999999
 30
0.0
 11
207.4697369999999
 21
283.851149
 31
0.0
  0
LINE
  5
184
330
1E
100
AcDbEntity
  8
1
  6
Continuous
 62
     7
100
AcDbLine
 10
205.7664969999999
 20
282.7946089999999
 30
0.0
 11
205.069727
 21
281.8946189999999
 31
0.0
  0
LINE
  5
185
330
1E
100
AcDbEntity
  8
1
  6
Continuous
 62
     7
100
AcDbLine
 10
205.9549969999999
 20
281.8945979999999
 30
0.0
 11
207.4697369999999
 21
279.938088
 31
0.0
  0
LINE
  5
186
330
1E
100
AcDbEntity
  8
1
  6
Continuous
 62
     7
100
AcDbLine
 10
206.540697
 20
279.994619
 30
0.0
 11
207.4697369999999
 21
278.7946089999999
 31
0.0
  0
LINE
  5
187
330
1E
100
AcDbEntity
  8
1
  6
Continuous
 62
     7
100
AcDbLine
 10
205.069727
 20
281.8946189999999
 30
0.0
 11
205.766507
 21
280.994619
 31
0.0
  0
LINE
  5
188
330
1E
100
AcDbEntity
  8
1
  6
Continuous
 62
     7
100
AcDbLine
 10
208.3987669999999
 20
283.7946089999999
 30
0.0
 11
207.4697369999999
 21
284.9946089999999
 31
0.0
  0
LINE
  5
189
330
1E
100
AcDbEntity
  8
1
  6
Continuous
 62
     7
100
AcDbLine
 10
207.4697369999999
 20
279.938079
 30
0.0
 11
208.984467
 21
281.8946189999999
 31
0.0
  0
LINE
  5
18A
330
1E
100
AcDbEntity
  8
1
  6
Continuous
 62
     7
100
AcDbLine
 10
209.1729469999999
 20
280.994609
 30
0.0
 11
209.869727
 21
281.8946189999999
 31
0.0
  0
LINE
  5
18B
330
1E
100
AcDbEntity
  8
1
  6
Continuous
 62
     7
100
AcDbLine
 10
209.869737
 20
281.8946189999999
 30
0.0
 11
209.172957
 21
282.7946289999999
 31
0.0
  0
LINE
  5
18C
330
1E
100
AcDbEntity
  8
1
  6
Continuous
 62
     7
100
AcDbLine
 10
207.4697369999999
 20
284.9946089999999
 30
0.0
 11
206.540697
 21
283.7946089999999
 31
0.0
  0
LINE
  5
18D
330
1E
100
AcDbEntity
  8
1
  6
Continuous
 62
     7
100
AcDbLine
 10
207.469727
 20
283.851149
 30
0.0
 11
205.9549969999999
 21
281.8946189999999
 31
0.0
  0
LINE
  5
18E
330
1E
100
AcDbEntity
  8
1
  6
Continuous
 62
     7
100
AcDbLine
 10
216.469727
 20
283.851149
 30
0.0
 11
214.954997
 21
281.8946189999999
 31
0.0
  0
LINE
  5
18F
330
1E
100
AcDbEntity
  8
1
  6
Continuous
 62
     7
100
AcDbLine
 10
216.469737
 20
284.9946089999999
 30
0.0
 11
215.540697
 21
283.7946089999999
 31
0.0
  0
LINE
  5
190
330
1E
100
AcDbEntity
  8
1
  6
Continuous
 62
     7
100
AcDbLine
 10
218.869737
 20
281.8946189999999
 30
0.0
 11
218.172967
 21
282.7946089999999
 31
0.0
  0
LINE
  5
191
330
1E
100
AcDbEntity
  8
1
  6
Continuous
 62
     7
100
AcDbLine
 10
218.1729569999999
 20
280.994609
 30
0.0
 11
218.869727
 21
281.8946189999999
 31
0.0
  0
LINE
  5
192
330
1E
100
AcDbEntity
  8
1
  6
Continuous
 62
     7
100
AcDbLine
 10
216.469737
 20
279.938079
 30
0.0
 11
217.984467
 21
281.8945979999999
 31
0.0
  0
LINE
  5
193
330
1E
100
AcDbEntity
  8
1
  6
Continuous
 62
     7
100
AcDbLine
 10
217.398777
 20
283.7946089999999
 30
0.0
 11
216.469737
 21
284.9946089999999
 31
0.0
  0
LINE
  5
194
330
1E
100
AcDbEntity
  8
1
  6
Continuous
 62
     7
100
AcDbLine
 10
214.069737
 20
281.8946189999999
 30
0.0
 11
214.7665169999999
 21
280.994609
 31
0.0
  0
LINE
  5
195
330
1E
100
AcDbEntity
  8
1
  6
Continuous
 62
     7
100
AcDbLine
 10
215.5407069999999
 20
279.9946089999999
 30
0.0
 11
216.469737
 21
278.7946089999999
 31
0.0
  0
LINE
  5
196
330
1E
100
AcDbEntity
  8
1
  6
Continuous
 62
     7
100
AcDbLine
 10
214.954997
 20
281.8946189999999
 30
0.0
 11
216.469737
 21
279.938079
 31
0.0
  0
LINE
  5
197
330
1E
100
AcDbEntity
  8
1
  6
Continuous
 62
     7
100
AcDbLine
 10
214.766497
 20
282.7946089999999
 30
0.0
 11
214.0697269999999
 21
281.8945979999999
 31
0.0
  0
LINE
  5
198
330
1E
100
AcDbEntity
  8
1
  6
Continuous
 62
     7
100
AcDbLine
 10
217.9844769999999
 20
281.8945979999999
 30
0.0
 11
216.469737
 21
283.851149
 31
0.0
  0
LINE
  5
199
330
1E
100
AcDbEntity
  8
1
  6
Continuous
 62
     7
100
AcDbLine
 10
216.469727
 20
278.7946089999999
 30
0.0
 11
217.3987669999999
 21
279.9946089999999
 31
0.0
  0
ARC
  5
19A
330
1E
100
AcDbEntity
  8
1
  6
Continuous
 62
     7
100
AcDbCircle
 10
167.953604
 20
316.8946089999999
 30
0.0
 40
1.0
100
AcDbArc
 50
90.0
 51
180.0
  0
LINE
  5
19B
330
1E
100
AcDbEntity
  8
1
  6
Continuous
 62
     7
100
AcDbLine
 10
166.953604
 20
316.8946089999999
 30
0.0
 11
166.953604
 21
294.894609
 31
0.0
  0
ARC
  5
19C
330
1E
100
AcDbEntity
  8
1
  6
Continuous
 62
     7
100
AcDbCircle
 10
167.953604
 20
294.894609
 30
0.0
 40
1.0
100
AcDbArc
 50
180.0
 51
270.0
  0
LINE
  5
19D
330
1E
100
AcDbEntity
  8
1
  6
Continuous
 62
     7
100
AcDbLine
 10
167.953604
 20
317.894609
 30
0.0
 11
214.9536069999999
 21
317.894609
 31
0.0
  0
ARC
  5
19E
330
1E
100
AcDbEntity
  8
1
  6
Continuous
 62
     7
100
AcDbCircle
 10
214.9536069999999
 20
316.8946089999999
 30
0.0
 40
1.0
100
AcDbArc
 50
0.0
 51
90.0
  0
LINE
  5
19F
330
1E
100
AcDbEntity
  8
1
  6
Continuous
 62
     7
100
AcDbLine
 10
215.9536069999999
 20
294.894609
 30
0.0
 11
215.9536069999999
 21
316.8946089999999
 31
0.0
  0
LINE
  5
1A0
330
1E
100
AcDbEntity
  8
1
  6
Continuous
 62
     7
100
AcDbLine
 10
167.953604
 20
293.8946089999999
 30
0.0
 11
214.9536069999999
 21
293.8946089999999
 31
0.0
  0
ARC
  5
1A1
330
1E
100
AcDbEntity
  8
1
  6
Continuous
 62
     7
100
AcDbCircle
 10
214.9536069999999
 20
294.894609
 30
0.0
 40
1.0
100
AcDbArc
 50
270.0
 51
0.0
  0
ARC
  5
1A2
330
1E
100
AcDbEntity
  8
1
  6
Continuous
 62
     7
100
AcDbCircle
 10
204.2816
 20
268.3976089999999
 30
0.0
 40
1.35
100
AcDbArc
 50
270.0
 51
90.0
  0
ARC
  5
1A3
330
1E
100
AcDbEntity
  8
1
  6
Continuous
 62
     7
100
AcDbCircle
 10
197.9815999999999
 20
268.3976089999999
 30
0.0
 40
1.35
100
AcDbArc
 50
90.0
 51
270.0
  0
LINE
  5
1A4
330
1E
100
AcDbEntity
  8
1
  6
Continuous
 62
     7
100
AcDbLine
 10
204.2816
 20
267.04761
 30
0.0
 11
197.9815999999999
 21
267.04761
 31
0.0
  0
LINE
  5
1A5
330
1E
100
AcDbEntity
  8
1
  6
Continuous
 62
     7
100
AcDbLine
 10
197.9815999999999
 20
269.747609
 30
0.0
 11
204.2816
 21
269.747609
 31
0.0
  0
ARC
  5
1A6
330
1E
100
AcDbEntity
  8
1
  6
Continuous
 62
     7
100
AcDbCircle
 10
368.002493
 20
272.190511
 30
0.0
 40
0.5
100
AcDbArc
 50
270.0
 51
0.0
  0
ARC
  5
1A7
330
1E
100
AcDbEntity
  8
1
  6
Continuous
 62
     7
100
AcDbCircle
 10
368.002493
 20
276.190511
 30
0.0
 40
0.5
100
AcDbArc
 50
0.0
 51
90.0
  0
ARC
  5
1A8
330
1E
100
AcDbEntity
  8
1
  6
Continuous
 62
     7
100
AcDbCircle
 10
363.502493
 20
264.190511
 30
0.0
 40
1.5
100
AcDbArc
 50
270.0
 51
340.528799
  0
LINE
  5
1A9
330
1E
100
AcDbEntity
  8
1
  6
Continuous
 62
     7
100
AcDbLine
 10
368.502493
 20
264.2905099999999
 30
0.0
 11
365.502493
 21
264.2905099999999
 31
0.0
  0
LINE
  5
1AA
330
1E
100
AcDbEntity
  8
1
  6
Continuous
 62
     7
100
AcDbLine
 10
365.502493
 20
265.7905099999999
 30
0.0
 11
354.502493
 21
265.7905099999999
 31
0.0
  0
LINE
  5
1AB
330
1E
100
AcDbEntity
  8
1
  6
Continuous
 62
     7
100
AcDbLine
 10
365.502493
 20
276.690511
 30
0.0
 11
365.502493
 21
263.690511
 31
0.0
  0
LINE
  5
1AC
330
1E
100
AcDbEntity
  8
1
  6
Continuous
 62
     7
100
AcDbLine
 10
365.502493
 20
264.4905059999999
 30
0.0
 11
354.502493
 21
264.4905059999999
 31
0.0
  0
LINE
  5
1AD
330
1E
100
AcDbEntity
  8
1
  6
Continuous
 62
     7
100
AcDbLine
 10
368.502493
 20
276.190511
 30
0.0
 11
368.502493
 21
264.2905099999999
 31
0.0
  0
LINE
  5
1AE
330
1E
100
AcDbEntity
  8
1
  6
Continuous
 62
     7
100
AcDbLine
 10
368.002493
 20
271.690511
 30
0.0
 11
365.502493
 21
271.690511
 31
0.0
  0
LINE
  5
1AF
330
1E
100
AcDbEntity
  8
1
  6
Continuous
 62
     7
100
AcDbLine
 10
368.002493
 20
276.690511
 30
0.0
 11
354.502493
 21
276.690511
 31
0.0
  0
LINE
  5
1B0
330
1E
100
AcDbEntity
  8
1
  6
Continuous
 62
     7
100
AcDbLine
 10
365.502493
 20
263.690511
 30
0.0
 11
354.502493
 21
263.690511
 31
0.0
  0
LINE
  5
1B1
330
1E
100
AcDbEntity
  8
1
  6
Continuous
 62
     7
100
AcDbLine
 10
354.502493
 20
276.690511
 30
0.0
 11
354.502493
 21
276.919408
 31
0.0
  0
LINE
  5
1B2
330
1E
100
AcDbEntity
  8
1
  6
Continuous
 62
     7
100
AcDbLine
 10
354.502493
 20
262.690511
 30
0.0
 11
360.152492
 21
262.690511
 31
0.0
  0
LINE
  5
1B3
330
1E
100
AcDbEntity
  8
1
  6
Continuous
 62
     7
100
AcDbLine
 10
363.002493
 20
262.690511
 30
0.0
 11
364.002493
 21
261.190511
 31
0.0
  0
LINE
  5
1B4
330
1E
100
AcDbEntity
  8
1
  6
Continuous
 62
     7
100
AcDbLine
 10
363.502493
 20
262.690511
 30
0.0
 11
354.502493
 21
262.690511
 31
0.0
  0
LINE
  5
1B5
330
1E
100
AcDbEntity
  8
1
  6
Continuous
 62
     7
100
AcDbLine
 10
365.002493
 20
261.190511
 30
0.0
 11
365.002493
 21
263.690511
 31
0.0
  0
LINE
  5
1B6
330
1E
100
AcDbEntity
  8
1
  6
Continuous
 62
     7
100
AcDbLine
 10
365.002493
 20
261.190511
 30
0.0
 11
364.002493
 21
261.190511
 31
0.0
  0
LINE
  5
1B7
330
1E
100
AcDbEntity
  8
1
  6
Continuous
 62
     7
100
AcDbLine
 10
354.502493
 20
276.690511
 30
0.0
 11
361.002493
 21
276.690511
 31
0.0
  0
ARC
  5
1B8
330
1E
100
AcDbEntity
  8
1
  6
Continuous
 62
     7
100
AcDbCircle
 10
352.4535999999999
 20
261.628221
 30
0.0
 40
2.0
100
AcDbArc
 50
270.954841
 51
0.0
  0
LINE
  5
1B9
330
1E
100
AcDbEntity
  8
1
  6
Continuous
 62
     7
100
AcDbLine
 10
354.4535999999999
 20
277.89461
 30
0.0
 11
354.4535999999999
 21
261.628221
 31
0.0
  0
CIRCLE
  5
1BA
330
1E
100
AcDbEntity
  8
1
  6
Continuous
 62
     7
100
AcDbCircle
 10
166.0696
 20
268.35761
 30
0.0
 40
1.35
  0
TEXT
  5
1BB
330
1E
100
AcDbEntity
  8
1
  6
DASHDOT
 62
     7
100
AcDbText
 10
171.2816
 20
266.526609
 30
0.0
 40
3.6
  1
一回解錠
 41
1.018518999999999
  7
KANJI
100
AcDbText
  0
TEXT
  5
1BC
330
1E
100
AcDbEntity
  8
1
  6
DASHDOT
 62
     7
100
AcDbText
 10
206.557686
 20
266.6690889999999
 30
0.0
 40
3.6
  1
連続解錠
 41
1.018518999999999
  7
KANJI
100
AcDbText
  0
LINE
  5
1BD
330
1E
100
AcDbEntity
  8
1
  6
Continuous
 62
     7
100
AcDbLine
 10
352.486929
 20
259.6284979999999
 30
0.0
 11
338.4536
 21
259.39461
 31
0.0
  0
LINE
  5
1BE
330
1E
100
AcDbEntity
  8
1
  6
Continuous
 62
     7
100
AcDbLine
 10
338.4536
 20
328.39461
 30
0.0
 11
366.486929
 21
327.927387
 31
0.0
  0
ARC
  5
1BF
330
1E
100
AcDbEntity
  8
1
  6
Continuous
 62
     7
100
AcDbCircle
 10
242.4535999999999
 20
346.89461
 30
0.0
 40
7.0
100
AcDbArc
 50
0.0
 51
90.0
  0
LINE
  5
1C0
330
1E
100
AcDbEntity
  8
1
  6
Continuous
 62
     7
100
AcDbLine
 10
249.4536
 20
240.89461
 30
0.0
 11
249.4536
 21
346.89461
 31
0.0
  0
LINE
  5
1C1
330
1E
100
AcDbEntity
  8
1
  6
Continuous
 62
     7
100
AcDbLine
 10
140.4536
 20
353.8946099999999
 30
0.0
 11
242.4535999999999
 21
353.8946099999999
 31
0.0
  0
ARC
  5
1C2
330
1E
100
AcDbEntity
  8
1
  6
Continuous
 62
     7
100
AcDbCircle
 10
242.4535999999999
 20
240.89461
 30
0.0
 40
7.0
100
AcDbArc
 50
270.0
 51
0.0
  0
LINE
  5
1C3
330
1E
100
AcDbEntity
  8
1
  6
Continuous
 62
     7
100
AcDbLine
 10
140.4536
 20
233.89461
 30
0.0
 11
242.4535999999999
 21
233.89461
 31
0.0
  0
ARC
  5
1C4
330
1E
100
AcDbEntity
  8
1
  6
Continuous
 62
     7
100
AcDbCircle
 10
140.4536
 20
240.89461
 30
0.0
 40
7.0
100
AcDbArc
 50
180.0
 51
270.0
  0
LINE
  5
1C5
330
1E
100
AcDbEntity
  8
1
  6
Continuous
 62
     7
100
AcDbLine
 10
133.4535999999999
 20
346.89461
 30
0.0
 11
133.4535999999999
 21
240.89461
 31
0.0
  0
ARC
  5
1C6
330
1E
100
AcDbEntity
  8
1
  6
Continuous
 62
     7
100
AcDbCircle
 10
140.4536
 20
346.89461
 30
0.0
 40
7.0
100
AcDbArc
 50
90.0
 51
180.0
  0
ARC
  5
1C7
330
1E
100
AcDbEntity
  8
1
  6
Continuous
 62
     7
100
AcDbCircle
 10
354.9535999999999
 20
277.89461
 30
0.0
 40
0.5
100
AcDbArc
 50
90.0
 51
180.0
  0
LINE
  5
1C8
330
1E
100
AcDbEntity
  8
1
  6
Continuous
 62
     7
100
AcDbLine
 10
367.4535999999999
 20
278.39461
 30
0.0
 11
354.9535999999999
 21
278.39461
 31
0.0
  0
ARC
  5
1C9
330
1E
100
AcDbEntity
  8
1
  6
Continuous
 62
     7
100
AcDbCircle
 10
366.4536
 20
325.9276649999999
 30
0.0
 40
2.0
100
AcDbArc
 50
0.0
 51
89.04515899999999
  0
LINE
  5
1CA
330
1E
100
AcDbEntity
  8
1
  6
Continuous
 62
     7
100
AcDbLine
 10
368.4536
 20
325.9276649999999
 30
0.0
 11
368.4536
 21
279.3946099999999
 31
0.0
  0
ARC
  5
1CB
330
1E
100
AcDbEntity
  8
1
  6
Continuous
 62
     7
100
AcDbCircle
 10
367.4535999999999
 20
279.3946099999999
 30
0.0
 40
1.0
100
AcDbArc
 50
270.0
 51
0.0
  0
TEXT
  5
1CC
330
1E
100
AcDbEntity
  8
1
  6
Continuous
 62
     7
100
AcDbText
 10
167.5616559999999
 20
323.7488719999999
 30
0.0
 40
3.0
  1
C-3830
 41
0.6333330000000001
  7
KANJI
100
AcDbText
  0
TEXT
  5
1CD
330
1E
100
AcDbEntity
  8
1
  6
Continuous
 62
     7
100
AcDbText
 10
167.6136559999999
 20
326.902508
 30
0.0
 40
3.0
  1
LOCK CONTROL UNIT
 41
0.664609
  7
KANJI
100
AcDbText
  0
LINE
  5
1CE
330
1E
100
AcDbEntity
  8
1
  6
Continuous
 62
     7
100
AcDbLine
 10
234.9536
 20
338.39461
 30
0.0
 11
147.9535999999999
 21
338.39461
 31
0.0
  0
LINE
  5
1CF
330
1E
100
AcDbEntity
  8
1
  6
Continuous
 62
     7
100
AcDbLine
 10
234.9536
 20
249.39461
 30
0.0
 11
234.9536
 21
338.39461
 31
0.0
  0
LINE
  5
1D0
330
1E
100
AcDbEntity
  8
1
  6
Continuous
 62
     7
100
AcDbLine
 10
147.9535999999999
 20
249.39461
 30
0.0
 11
234.9536
 21
249.39461
 31
0.0
  0
LINE
  5
1D1
330
1E
100
AcDbEntity
  8
1
  6
Continuous
 62
     7
100
AcDbLine
 10
147.9535999999999
 20
338.39461
 30
0.0
 11
147.9535999999999
 21
249.39461
 31
0.0
  0
ARC
  5
1D2
330
1E
100
AcDbEntity
  8
1
  6
Continuous
 62
     7
100
AcDbCircle
 10
234.9536
 20
338.39461
 30
0.0
 40
1.0
100
AcDbArc
 50
0.0
 51
90.0
  0
LINE
  5
1D3
330
1E
100
AcDbEntity
  8
1
  6
Continuous
 62
     7
100
AcDbLine
 10
235.9535999999999
 20
249.39461
 30
0.0
 11
235.9535999999999
 21
338.39461
 31
0.0
  0
LINE
  5
1D4
330
1E
100
AcDbEntity
  8
1
  6
Continuous
 62
     7
100
AcDbLine
 10
234.9536
 20
339.3946099999999
 30
0.0
 11
147.9535999999999
 21
339.3946099999999
 31
0.0
  0
ARC
  5
1D5
330
1E
100
AcDbEntity
  8
1
  6
Continuous
 62
     7
100
AcDbCircle
 10
234.9536
 20
249.39461
 30
0.0
 40
1.0
100
AcDbArc
 50
270.0
 51
0.0
  0
LINE
  5
1D6
330
1E
100
AcDbEntity
  8
1
  6
Continuous
 62
     7
100
AcDbLine
 10
147.9535999999999
 20
248.39461
 30
0.0
 11
234.9536
 21
248.39461
 31
0.0
  0
ARC
  5
1D7
330
1E
100
AcDbEntity
  8
1
  6
Continuous
 62
     7
100
AcDbCircle
 10
147.9535999999999
 20
249.39461
 30
0.0
 40
1.0
100
AcDbArc
 50
180.0
 51
270.0
  0
LINE
  5
1D8
330
1E
100
AcDbEntity
  8
1
  6
Continuous
 62
     7
100
AcDbLine
 10
146.9535999999999
 20
338.39461
 30
0.0
 11
146.9535999999999
 21
249.39461
 31
0.0
  0
ARC
  5
1D9
330
1E
100
AcDbEntity
  8
1
  6
Continuous
 62
     7
100
AcDbCircle
 10
147.9535999999999
 20
338.39461
 30
0.0
 40
1.0
100
AcDbArc
 50
90.0
 51
180.0
  0
ARC
  5
1DA
330
1E
100
AcDbEntity
  8
1
  6
Continuous
 62
     7
100
AcDbCircle
 10
234.9536
 20
249.39461
 30
0.0
 40
1.5
100
AcDbArc
 50
270.0
 51
0.0
  0
LINE
  5
1DB
330
1E
100
AcDbEntity
  8
1
  6
Continuous
 62
     7
100
AcDbLine
 10
236.4536
 20
249.39461
 30
0.0
 11
236.4536
 21
338.39461
 31
0.0
  0
LINE
  5
1DC
330
1E
100
AcDbEntity
  8
1
  6
Continuous
 62
     7
100
AcDbLine
 10
147.9535999999999
 20
247.8946099999999
 30
0.0
 11
234.9536
 21
247.8946099999999
 31
0.0
  0
ARC
  5
1DD
330
1E
100
AcDbEntity
  8
1
  6
Continuous
 62
     7
100
AcDbCircle
 10
147.9535999999999
 20
249.39461
 30
0.0
 40
1.5
100
AcDbArc
 50
180.0
 51
270.0
  0
LINE
  5
1DE
330
1E
100
AcDbEntity
  8
1
  6
Continuous
 62
     7
100
AcDbLine
 10
146.4536
 20
338.39461
 30
0.0
 11
146.4536
 21
249.39461
 31
0.0
  0
ARC
  5
1DF
330
1E
100
AcDbEntity
  8
1
  6
Continuous
 62
     7
100
AcDbCircle
 10
147.9535999999999
 20
338.39461
 30
0.0
 40
1.5
100
AcDbArc
 50
90.0
 51
180.0
  0
LINE
  5
1E0
330
1E
100
AcDbEntity
  8
1
  6
Continuous
 62
     7
100
AcDbLine
 10
234.9536
 20
339.8946099999999
 30
0.0
 11
147.9535999999999
 21
339.8946099999999
 31
0.0
  0
ARC
  5
1E1
330
1E
100
AcDbEntity
  8
1
  6
Continuous
 62
     7
100
AcDbCircle
 10
234.9536
 20
338.39461
 30
0.0
 40
1.5
100
AcDbArc
 50
0.0
 51
90.0
  0
TEXT
  5
1E2
330
1E
100
AcDbEntity
  8
15
  6
DIVIDE
 62
    96
100
AcDbText
 10
724.741002
 20
469.6450959999999
 30
0.0
 40
6.0
  1
約200ｇ
 41
0.648148
  7
KANJI
100
AcDbText
  0
TEXT
  5
1E3
330
1E
100
AcDbEntity
  8
15
  6
HIDDEN
 62
    96
100
AcDbText
 10
721.834045
 20
447.645096
 30
0.0
 40
6.0
  1
30VA max
 41
0.596491
  7
KANJI
100
AcDbText
  0
TEXT
  5
1E4
330
1E
100
AcDbEntity
  8
15
  6
Continuous
 62
    96
100
AcDbText
 10
386.14013
 20
37.869057
 30
0.0
 40
6.0
  1
*　記載されている会社名、製品名は、登録商標または商標です。
 41
0.9338919999999999
  7
KANJI
100
AcDbText
  0
TEXT
  5
1E5
330
1E
100
AcDbEntity
  8
15
  6
DIVIDE
 62
    96
100
AcDbText
 10
717.241002
 20
425.645096
 30
0.0
 40
6.0
  1
－10℃～50℃
 41
0.681818
  7
KANJI
100
AcDbText
  0
LINE
  5
1E6
330
1E
100
AcDbEntity
  8
1
  6
Continuous
 62
     7
100
AcDbLine
 10
489.2457539999999
 20
266.6192759999999
 30
0.0
 11
496.7132059999999
 21
266.6192759999999
 31
0.0
  0
LINE
  5
1E7
330
1E
100
AcDbEntity
  8
1
  6
Continuous
 62
     7
100
AcDbLine
 10
489.4968059999999
 20
268.019278
 30
0.0
 11
496.7132059999999
 21
268.019278
 31
0.0
  0
LINE
  5
1E8
330
1E
100
AcDbEntity
  8
1
  6
Continuous
 62
     7
100
AcDbLine
 10
480.7017559999999
 20
233.919283
 30
0.0
 11
456.913203
 21
233.919283
 31
0.0
  0
LINE
  5
1E9
330
1E
100
AcDbEntity
  8
1
  6
Continuous
 62
     7
100
AcDbLine
 10
558.9132179999999
 20
233.919283
 30
0.0
 11
486.2017559999999
 21
233.919283
 31
0.0
  0
LINE
  5
1EA
330
1E
100
AcDbEntity
  8
1
  6
Continuous
 62
     7
100
AcDbLine
 10
480.7017559999999
 20
237.0492839999999
 30
0.0
 11
456.913203
 21
237.0492839999999
 31
0.0
  0
LINE
  5
1EB
330
1E
100
AcDbEntity
  8
1
  6
Continuous
 62
     7
100
AcDbLine
 10
558.9132179999999
 20
237.0492839999999
 30
0.0
 11
486.2017559999999
 21
237.0492839999999
 31
0.0
  0
LINE
  5
1EC
330
1E
100
AcDbEntity
  8
1
  6
Continuous
 62
     7
100
AcDbLine
 10
480.7017559999999
 20
238.0492839999999
 30
0.0
 11
459.513202
 21
238.0492839999999
 31
0.0
  0
LINE
  5
1ED
330
1E
100
AcDbEntity
  8
1
  6
Continuous
 62
     7
100
AcDbLine
 10
505.4132029999999
 20
238.0492839999999
 30
0.0
 11
486.2017559999999
 21
238.0492839999999
 31
0.0
  0
LINE
  5
1EE
330
1E
100
AcDbEntity
  8
1
  6
Continuous
 62
     7
100
AcDbLine
 10
486.2017559999999
 20
238.8192769999999
 30
0.0
 11
501.8950150000001
 21
238.8192769999999
 31
0.0
  0
LINE
  5
1EF
330
1E
100
AcDbEntity
  8
1
  6
Continuous
 62
     7
100
AcDbLine
 10
467.9313989999999
 20
238.8192769999999
 30
0.0
 11
480.7017559999999
 21
238.8192769999999
 31
0.0
  0
LINE
  5
1F0
330
1E
100
AcDbEntity
  8
1
  6
Continuous
 62
     7
100
AcDbLine
 10
486.2017559999999
 20
239.819277
 30
0.0
 11
501.8950150000001
 21
239.819277
 31
0.0
  0
LINE
  5
1F1
330
1E
100
AcDbEntity
  8
1
  6
Continuous
 62
     7
100
AcDbLine
 10
467.9313989999999
 20
239.819277
 30
0.0
 11
480.7017559999999
 21
239.819277
 31
0.0
  0
LINE
  5
1F2
330
1E
100
AcDbEntity
  8
1
  6
Continuous
 62
     7
100
AcDbLine
 10
480.7017559999999
 20
240.3192769999999
 30
0.0
 11
463.1132079999999
 21
240.3192769999999
 31
0.0
  0
LINE
  5
1F3
330
1E
100
AcDbEntity
  8
1
  6
Continuous
 62
     7
100
AcDbLine
 10
499.913203
 20
240.3192769999999
 30
0.0
 11
486.2017559999999
 21
240.3192769999999
 31
0.0
  0
LINE
  5
1F4
330
1E
100
AcDbEntity
  8
1
  6
Continuous
 62
     7
100
AcDbLine
 10
485.7246679999999
 20
262.3192809999999
 30
0.0
 11
481.129984
 21
262.3192809999999
 31
0.0
  0
LINE
  5
1F5
330
1E
100
AcDbEntity
  8
1
  6
Continuous
 62
     7
100
AcDbLine
 10
501.5132089999999
 20
262.3192809999999
 30
0.0
 11
488.4746679999999
 21
262.3192809999999
 31
0.0
  0
LINE
  5
1F6
330
1E
100
AcDbEntity
  8
1
  6
Continuous
 62
     7
100
AcDbLine
 10
478.413211
 20
262.3192809999999
 30
0.0
 11
473.913211
 21
262.3192809999999
 31
0.0
  0
LINE
  5
1F7
330
1E
100
AcDbEntity
  8
1
  6
Continuous
 62
     7
100
AcDbLine
 10
481.6611980000001
 20
259.419279
 30
0.0
 11
485.204633
 21
259.419279
 31
0.0
  0
LINE
  5
1F8
330
1E
100
AcDbEntity
  8
1
  6
Continuous
 62
     7
100
AcDbLine
 10
468.913211
 20
259.419279
 30
0.0
 11
478.911199
 21
259.419279
 31
0.0
  0
LINE
  5
1F9
330
1E
100
AcDbEntity
  8
1
  6
Continuous
 62
     7
100
AcDbLine
 10
478.3799839999999
 20
262.3192809999999
 30
0.0
 11
473.913211
 21
262.3192809999999
 31
0.0
  0
LINE
  5
1FA
330
1E
100
AcDbEntity
  8
1
  6
Continuous
 62
     7
100
AcDbLine
 10
485.7246679999999
 20
262.3192809999999
 30
0.0
 11
481.129984
 21
262.3192809999999
 31
0.0
  0
LINE
  5
1FB
330
1E
100
AcDbEntity
  8
1
  6
Continuous
 62
     7
100
AcDbLine
 10
474.413211
 20
262.8192809999999
 30
0.0
 11
478.2883959999999
 21
262.8192809999999
 31
0.0
  0
LINE
  5
1FC
330
1E
100
AcDbEntity
  8
1
  6
Continuous
 62
     7
100
AcDbLine
 10
481.038395
 20
262.8192809999999
 30
0.0
 11
485.814329
 21
262.8192809999999
 31
0.0
  0
LINE
  5
1FD
330
1E
100
AcDbEntity
  8
1
  6
Continuous
 62
     7
100
AcDbLine
 10
480.9926009999999
 20
263.0692809999999
 30
0.0
 11
485.8591599999999
 21
263.0692809999999
 31
0.0
  0
LINE
  5
1FE
330
1E
100
AcDbEntity
  8
1
  6
Continuous
 62
     7
100
AcDbLine
 10
475.013209
 20
263.0692809999999
 30
0.0
 11
478.242601
 21
263.0692809999999
 31
0.0
  0
LINE
  5
1FF
330
1E
100
AcDbEntity
  8
1
  6
Continuous
 62
     7
100
AcDbLine
 10
480.800266
 20
264.1192759999999
 30
0.0
 11
486.047448
 21
264.1192759999999
 31
0.0
  0
LINE
  5
200
330
1E
100
AcDbEntity
  8
1
  6
Continuous
 62
     7
100
AcDbLine
 10
476.413211
 20
268.3192809999999
 30
0.0
 11
477.280921
 21
268.3192809999999
 31
0.0
  0
LINE
  5
201
330
1E
100
AcDbEntity
  8
1
  6
Continuous
 62
     7
100
AcDbLine
 10
487.954633
 20
259.419279
 30
0.0
 11
546.913203
 21
259.419279
 31
0.0
  0
LINE
  5
202
330
1E
100
AcDbEntity
  8
1
  6
Continuous
 62
     7
100
AcDbLine
 10
507.503215
 20
262.3192809999999
 30
0.0
 11
488.4746679999999
 21
262.3192809999999
 31
0.0
  0
LINE
  5
203
330
1E
100
AcDbEntity
  8
1
  6
Continuous
 62
     7
100
AcDbLine
 10
488.5643289999999
 20
262.8192809999999
 30
0.0
 11
506.413203
 21
262.8192809999999
 31
0.0
  0
LINE
  5
204
330
1E
100
AcDbEntity
  8
1
  6
Continuous
 62
     7
100
AcDbLine
 10
488.6091599999999
 20
263.0692809999999
 30
0.0
 11
505.813212
 21
263.0692809999999
 31
0.0
  0
LINE
  5
205
330
1E
100
AcDbEntity
  8
1
  6
Continuous
 62
     7
100
AcDbLine
 10
488.797448
 20
264.1192759999999
 30
0.0
 11
490.8557839999999
 21
264.1192759999999
 31
0.0
  0
LINE
  5
206
330
1E
100
AcDbEntity
  8
1
  6
Continuous
 62
     7
100
AcDbLine
 10
489.1560929999999
 20
266.1192759999999
 30
0.0
 11
503.7132059999999
 21
266.1192759999999
 31
0.0
  0
LINE
  5
207
330
1E
100
AcDbEntity
  8
1
  6
Continuous
 62
     7
100
AcDbLine
 10
481.7132059999999
 20
266.1192759999999
 30
0.0
 11
486.4060929999999
 21
266.1192759999999
 31
0.0
  0
LINE
  5
208
330
1E
100
AcDbEntity
  8
1
  6
Continuous
 62
     7
100
AcDbLine
 10
489.1919579999999
 20
266.3192809999999
 30
0.0
 11
503.5132089999999
 21
266.3192809999999
 31
0.0
  0
LINE
  5
209
330
1E
100
AcDbEntity
  8
1
  6
Continuous
 62
     7
100
AcDbLine
 10
481.913203
 20
266.3192809999999
 30
0.0
 11
486.4419579999999
 21
266.3192809999999
 31
0.0
  0
LINE
  5
20A
330
1E
100
AcDbEntity
  8
1
  6
Continuous
 62
     7
100
AcDbLine
 10
489.613203
 20
268.5192779999999
 30
0.0
 11
503.7132059999999
 21
268.5192779999999
 31
0.0
  0
LINE
  5
20B
330
1E
100
AcDbEntity
  8
1
  6
Continuous
 62
     7
100
AcDbLine
 10
481.7132059999999
 20
268.5192779999999
 30
0.0
 11
486.836467
 21
268.5192779999999
 31
0.0
  0
LINE
  5
20C
330
1E
100
AcDbEntity
  8
1
  6
Continuous
 62
     7
100
AcDbLine
 10
489.5506029999999
 20
268.3192809999999
 30
0.0
 11
503.5132089999999
 21
268.3192809999999
 31
0.0
  0
LINE
  5
20D
330
1E
100
AcDbEntity
  8
1
  6
Continuous
 62
     7
100
AcDbLine
 10
481.913203
 20
268.3192809999999
 30
0.0
 11
486.800603
 21
268.3192809999999
 31
0.0
  0
LINE
  5
20E
330
1E
100
AcDbEntity
  8
1
  6
Continuous
 62
     7
100
AcDbLine
 10
528.5286129999999
 20
243.419374
 30
0.0
 11
533.452313
 21
243.419385
 31
0.0
  0
LINE
  5
20F
330
1E
100
AcDbEntity
  8
1
  6
Continuous
 62
     7
100
AcDbLine
 10
530.913211
 20
245.8502859999999
 30
0.0
 11
530.913211
 21
241.0888859999999
 31
0.0
  0
LINE
  5
210
330
1E
100
AcDbEntity
  8
1
  6
Continuous
 62
     7
100
AcDbLine
 10
530.913211
 20
346.6510859999999
 30
0.0
 11
530.913211
 21
342.2142859999999
 31
0.0
  0
LINE
  5
211
330
1E
100
AcDbEntity
  8
1
  6
Continuous
 62
     7
100
AcDbLine
 10
528.5286129999999
 20
344.419279
 30
0.0
 11
533.2359129999999
 21
344.419279
 31
0.0
  0
LINE
  5
212
330
1E
100
AcDbEntity
  8
1
  6
Continuous
 62
     7
100
AcDbLine
 10
484.913211
 20
346.9215859999999
 30
0.0
 11
484.913211
 21
341.997886
 31
0.0
  0
LINE
  5
213
330
1E
100
AcDbEntity
  8
1
  6
Continuous
 62
     7
100
AcDbLine
 10
482.321513
 20
344.419279
 30
0.0
 11
487.4616129999999
 21
344.419279
 31
0.0
  0
ARC
  5
214
330
1E
100
AcDbEntity
  8
1
  6
Continuous
 62
     7
100
AcDbCircle
 10
474.3636429999999
 20
264.630781
 30
0.0
 40
0.7
100
AcDbArc
 50
274.060612
 51
85.939388
  0
ARC
  5
215
330
1E
100
AcDbEntity
  8
1
  6
Continuous
 62
     7
100
AcDbCircle
 10
556.795024
 20
332.519285
 30
0.0
 40
0.5
100
AcDbArc
 50
180.0
 51
270.0
  0
CIRCLE
  5
216
330
1E
100
AcDbEntity
  8
1
  6
Continuous
 62
     7
100
AcDbCircle
 10
530.913203
 20
243.419279
 30
0.0
 40
1.5
  0
ARC
  5
217
330
1E
100
AcDbEntity
  8
1
  6
Continuous
 62
     7
100
AcDbCircle
 10
456.4432019999999
 20
252.319281
 30
0.0
 40
0.5
100
AcDbArc
 50
90.0
 51
270.0
  0
CIRCLE
  5
218
330
1E
100
AcDbEntity
  8
1
  6
Continuous
 62
     7
100
AcDbCircle
 10
484.9132029999999
 20
344.419279
 30
0.0
 40
1.5
  0
ARC
  5
219
330
1E
100
AcDbEntity
  8
1
  6
Continuous
 62
     7
100
AcDbCircle
 10
467.4313989999999
 20
348.519285
 30
0.0
 40
0.5
100
AcDbArc
 50
180.0
 51
0.0
  0
ARC
  5
21A
330
1E
100
AcDbEntity
  8
1
  6
Continuous
 62
     7
100
AcDbCircle
 10
558.89503
 20
346.919279
 30
0.0
 40
2.069999999999999
100
AcDbArc
 50
0.0
 51
89.73222900000001
  0
ARC
  5
21B
330
1E
100
AcDbEntity
  8
1
  6
Continuous
 62
     7
100
AcDbCircle
 10
456.913203
 20
240.919283
 30
0.0
 40
2.069999999999999
100
AcDbArc
 50
180.0
 51
270.0
  0
ARC
  5
21C
330
1E
100
AcDbEntity
  8
1
  6
Continuous
 62
     7
100
AcDbCircle
 10
457.8132049999999
 20
254.6192759999999
 30
0.0
 40
0.2
100
AcDbArc
 50
0.0
 51
90.0
  0
ARC
  5
21D
330
1E
100
AcDbEntity
  8
1
  6
Continuous
 62
     7
100
AcDbCircle
 10
548.395015
 20
239.319277
 30
0.0
 40
0.5
100
AcDbArc
 50
0.0
 51
180.0
  0
ARC
  5
21E
330
1E
100
AcDbEntity
  8
1
  6
Continuous
 62
     7
100
AcDbCircle
 10
459.0132019999999
 20
332.519285
 30
0.0
 40
0.5
100
AcDbArc
 50
270.0
 51
0.0
  0
ARC
  5
21F
330
1E
100
AcDbEntity
  8
1
  6
Continuous
 62
     7
100
AcDbCircle
 10
456.4432019999999
 20
335.519285
 30
0.0
 40
0.5
100
AcDbArc
 50
90.0
 51
270.0
  0
ARC
  5
220
330
1E
100
AcDbEntity
  8
1
  6
Continuous
 62
     7
100
AcDbCircle
 10
559.3650309999999
 20
335.519285
 30
0.0
 40
0.5
100
AcDbArc
 50
270.0
 51
90.0
  0
ARC
  5
221
330
1E
100
AcDbEntity
  8
1
  6
Continuous
 62
     7
100
AcDbCircle
 10
513.4313919999999
 20
348.519285
 30
0.0
 40
0.5
100
AcDbArc
 50
180.0
 51
0.0
  0
ARC
  5
222
330
1E
100
AcDbEntity
  8
1
  6
Continuous
 62
     7
100
AcDbCircle
 10
513.4313919999999
 20
239.319277
 30
0.0
 40
0.5
100
AcDbArc
 50
0.0
 51
180.0
  0
ARC
  5
223
330
1E
100
AcDbEntity
  8
1
  6
Continuous
 62
     7
100
AcDbCircle
 10
456.913203
 20
346.919279
 30
0.0
 40
2.069999999999999
100
AcDbArc
 50
90.26798199999998
 51
180.0
  0
ARC
  5
224
330
1E
100
AcDbEntity
  8
1
  6
Continuous
 62
     7
100
AcDbCircle
 10
558.9132179999999
 20
346.919279
 30
0.0
 40
7.0
100
AcDbArc
 50
0.0
 51
90.0
  0
ARC
  5
225
330
1E
100
AcDbEntity
  8
1
  6
Continuous
 62
     7
100
AcDbCircle
 10
558.9132179999999
 20
240.919283
 30
0.0
 40
7.0
100
AcDbArc
 50
270.0
 51
0.000031
  0
ARC
  5
226
330
1E
100
AcDbEntity
  8
1
  6
Continuous
 62
     7
100
AcDbCircle
 10
456.913203
 20
240.919283
 30
0.0
 40
7.0
100
AcDbArc
 50
180.0
 51
270.0
  0
ARC
  5
227
330
1E
100
AcDbEntity
  8
1
  6
Continuous
 62
     7
100
AcDbCircle
 10
456.913203
 20
346.919279
 30
0.0
 40
7.0
100
AcDbArc
 50
90.0
 51
180.0
  0
ARC
  5
228
330
1E
100
AcDbEntity
  8
1
  6
Continuous
 62
     7
100
AcDbCircle
 10
457.8132049999999
 20
333.2192819999999
 30
0.0
 40
0.2
100
AcDbArc
 50
270.0
 51
0.0
  0
ARC
  5
229
330
1E
100
AcDbEntity
  8
1
  6
Continuous
 62
     7
100
AcDbCircle
 10
557.9950209999999
 20
333.2192819999999
 30
0.0
 40
0.2
100
AcDbArc
 50
180.0
 51
270.0
  0
ARC
  5
22A
330
1E
100
AcDbEntity
  8
1
  6
Continuous
 62
     7
100
AcDbCircle
 10
559.38322
 20
252.319281
 30
0.0
 40
0.5
100
AcDbArc
 50
270.0
 51
90.0
  0
ARC
  5
22B
330
1E
100
AcDbEntity
  8
1
  6
Continuous
 62
     7
100
AcDbCircle
 10
456.913203
 20
240.919283
 30
0.0
 40
3.87
100
AcDbArc
 50
180.0
 51
270.0
  0
ARC
  5
22C
330
1E
100
AcDbEntity
  8
1
  6
Continuous
 62
     7
100
AcDbCircle
 10
558.9132179999999
 20
346.919279
 30
0.0
 40
3.87
100
AcDbArc
 50
0.0
 51
90.0
  0
ARC
  5
22D
330
1E
100
AcDbEntity
  8
1
  6
Continuous
 62
     7
100
AcDbCircle
 10
456.913203
 20
346.919279
 30
0.0
 40
3.87
100
AcDbArc
 50
90.0
 51
180.0
  0
ARC
  5
22E
330
1E
100
AcDbEntity
  8
1
  6
Continuous
 62
     7
100
AcDbCircle
 10
558.9132179999999
 20
240.919283
 30
0.0
 40
3.87
100
AcDbArc
 50
270.0
 51
0.000056
  0
ARC
  5
22F
330
1E
100
AcDbEntity
  8
1
  6
Continuous
 62
     7
100
AcDbCircle
 10
502.3950150000001
 20
348.519285
 30
0.0
 40
0.5
100
AcDbArc
 50
180.0
 51
0.0
  0
ARC
  5
230
330
1E
100
AcDbEntity
  8
1
  6
Continuous
 62
     7
100
AcDbCircle
 10
467.4313989999999
 20
239.319277
 30
0.0
 40
0.5
100
AcDbArc
 50
0.0
 51
180.0
  0
ARC
  5
231
330
1E
100
AcDbEntity
  8
1
  6
Continuous
 62
     7
100
AcDbCircle
 10
459.0132019999999
 20
255.319281
 30
0.0
 40
0.5
100
AcDbArc
 50
0.0
 51
90.0
  0
ARC
  5
232
330
1E
100
AcDbEntity
  8
1
  6
Continuous
 62
     7
100
AcDbCircle
 10
502.3950150000001
 20
239.319277
 30
0.0
 40
0.5
100
AcDbArc
 50
0.0
 51
180.0
  0
ARC
  5
233
330
1E
100
AcDbEntity
  8
1
  6
Continuous
 62
     7
100
AcDbCircle
 10
548.395015
 20
348.519285
 30
0.0
 40
0.5
100
AcDbArc
 50
180.0
 51
0.0
  0
CIRCLE
  5
234
330
1E
100
AcDbEntity
  8
1
  6
Continuous
 62
     7
100
AcDbCircle
 10
530.913203
 20
344.419279
 30
0.0
 40
1.5
  0
ARC
  5
235
330
1E
100
AcDbEntity
  8
1
  6
Continuous
 62
     7
100
AcDbCircle
 10
558.0132089999999
 20
254.6192759999999
 30
0.0
 40
0.2
100
AcDbArc
 50
90.0
 51
180.0
  0
ARC
  5
236
330
1E
100
AcDbEntity
  8
1
  6
Continuous
 62
     7
100
AcDbCircle
 10
558.9132179999999
 20
240.919283
 30
0.0
 40
2.069999999999999
100
AcDbArc
 50
270.0
 51
0.0
  0
ARC
  5
237
330
1E
100
AcDbEntity
  8
1
  6
Continuous
 62
     7
100
AcDbCircle
 10
556.813212
 20
255.319281
 30
0.0
 40
0.5
100
AcDbArc
 50
90.0
 51
180.0
  0
ARC
  5
238
330
1E
100
AcDbEntity
  8
1
  6
Continuous
 62
     7
100
AcDbCircle
 10
492.7132059999999
 20
267.3192809999999
 30
0.0
 40
3.7
100
AcDbArc
 50
239.867256
 51
300.1327439999999
  0
ARC
  5
239
330
1E
100
AcDbEntity
  8
1
  6
Continuous
 62
     7
100
AcDbCircle
 10
492.7132059999999
 20
267.3192809999999
 30
0.0
 40
1.7
100
AcDbArc
 50
224.900907
 51
315.0990929999999
  0
ARC
  5
23A
330
1E
100
AcDbEntity
  8
1
  6
Continuous
 62
     7
100
AcDbCircle
 10
502.5132089999999
 20
271.419279
 30
0.0
 40
0.6
100
AcDbArc
 50
180.0
 51
270.0
  0
ARC
  5
23B
330
1E
100
AcDbEntity
  8
1
  6
Continuous
 62
     7
100
AcDbCircle
 10
494.313212
 20
271.419279
 30
0.0
 40
0.6
100
AcDbArc
 50
270.0
 51
0.0
  0
ARC
  5
23C
330
1E
100
AcDbEntity
  8
1
  6
Continuous
 62
     7
100
AcDbCircle
 10
492.5132089999999
 20
271.419279
 30
0.0
 40
0.6
100
AcDbArc
 50
180.0
 51
270.0
  0
ARC
  5
23D
330
1E
100
AcDbEntity
  8
1
  6
Continuous
 62
     7
100
AcDbCircle
 10
492.7132059999999
 20
267.3192809999999
 30
0.0
 40
1.7
100
AcDbArc
 50
44.900725
 51
135.099275
  0
ARC
  5
23E
330
1E
100
AcDbEntity
  8
1
  6
Continuous
 62
     7
100
AcDbCircle
 10
484.3132119999999
 20
271.419279
 30
0.0
 40
0.6
100
AcDbArc
 50
270.0
 51
0.0
  0
ARC
  5
23F
330
1E
100
AcDbEntity
  8
1
  6
Continuous
 62
     7
100
AcDbCircle
 10
505.1131999999999
 20
270.219275
 30
0.0
 40
0.6
100
AcDbArc
 50
0.0
 51
90.0
  0
ARC
  5
240
330
1E
100
AcDbEntity
  8
1
  6
Continuous
 62
     7
100
AcDbCircle
 10
505.1131999999999
 20
264.7192749999999
 30
0.0
 40
0.6
100
AcDbArc
 50
270.0
 51
0.0
  0
ARC
  5
241
330
1E
100
AcDbEntity
  8
1
  6
Continuous
 62
     7
100
AcDbCircle
 10
500.413203
 20
273.819281
 30
0.0
 40
1.5
100
AcDbArc
 50
0.0
 51
90.0
  0
ARC
  5
242
330
1E
100
AcDbEntity
  8
1
  6
Continuous
 62
     7
100
AcDbCircle
 10
496.413203
 20
273.819281
 30
0.0
 40
1.5
100
AcDbArc
 50
90.0
 51
180.0
  0
ARC
  5
243
330
1E
100
AcDbEntity
  8
1
  6
Continuous
 62
     7
100
AcDbCircle
 10
490.413203
 20
273.819281
 30
0.0
 40
1.5
100
AcDbArc
 50
0.0
 51
90.0
  0
ARC
  5
244
330
1E
100
AcDbEntity
  8
1
  6
Continuous
 62
     7
100
AcDbCircle
 10
486.413203
 20
273.819281
 30
0.0
 40
1.5
100
AcDbArc
 50
90.0
 51
180.0
  0
ARC
  5
245
330
1E
100
AcDbEntity
  8
1
  6
Continuous
 62
     7
100
AcDbCircle
 10
476.413211
 20
269.819281
 30
0.0
 40
1.5
100
AcDbArc
 50
180.0
 51
270.0
  0
ARC
  5
246
330
1E
100
AcDbEntity
  8
1
  6
Continuous
 62
     7
100
AcDbCircle
 10
480.413211
 20
273.819281
 30
0.0
 40
1.5
100
AcDbArc
 50
0.0
 51
90.0
  0
ARC
  5
247
330
1E
100
AcDbEntity
  8
1
  6
Continuous
 62
     7
100
AcDbCircle
 10
476.413211
 20
273.819281
 30
0.0
 40
1.5
100
AcDbArc
 50
90.0
 51
180.0
  0
ARC
  5
248
330
1E
100
AcDbEntity
  8
1
  6
Continuous
 62
     7
100
AcDbCircle
 10
482.5132089999999
 20
271.419279
 30
0.0
 40
0.6
100
AcDbArc
 50
180.0
 51
270.0
  0
ARC
  5
249
330
1E
100
AcDbEntity
  8
1
  6
Continuous
 62
     7
100
AcDbCircle
 10
475.013209
 20
263.419279
 30
0.0
 40
0.35
100
AcDbArc
 50
180.0
 51
270.0
  0
ARC
  5
24A
330
1E
100
AcDbEntity
  8
1
  6
Continuous
 62
     7
100
AcDbCircle
 10
505.813212
 20
263.419279
 30
0.0
 40
0.35
100
AcDbArc
 50
270.0
 51
0.0
  0
ARC
  5
24B
330
1E
100
AcDbEntity
  8
1
  6
Continuous
 62
     7
100
AcDbCircle
 10
505.813212
 20
275.2192749999999
 30
0.0
 40
0.35
100
AcDbArc
 50
0.0
 51
90.0
  0
ARC
  5
24C
330
1E
100
AcDbEntity
  8
1
  6
Continuous
 62
     7
100
AcDbCircle
 10
475.013209
 20
275.2192749999999
 30
0.0
 40
0.35
100
AcDbArc
 50
90.0
 51
180.0
  0
ARC
  5
24D
330
1E
100
AcDbEntity
  8
1
  6
Continuous
 62
     7
100
AcDbCircle
 10
505.813212
 20
275.2192749999999
 30
0.0
 40
0.6
100
AcDbArc
 50
0.0
 51
90.0
  0
ARC
  5
24E
330
1E
100
AcDbEntity
  8
1
  6
Continuous
 62
     7
100
AcDbCircle
 10
475.013209
 20
275.2192749999999
 30
0.0
 40
0.6
100
AcDbArc
 50
90.0
 51
180.0
  0
ARC
  5
24F
330
1E
100
AcDbEntity
  8
1
  6
Continuous
 62
     7
100
AcDbCircle
 10
505.813212
 20
263.419279
 30
0.0
 40
0.6
100
AcDbArc
 50
270.0
 51
0.0
  0
ARC
  5
250
330
1E
100
AcDbEntity
  8
1
  6
Continuous
 62
     7
100
AcDbCircle
 10
475.013209
 20
263.419279
 30
0.0
 40
0.6
100
AcDbArc
 50
180.0
 51
270.0
  0
CIRCLE
  5
251
330
1E
100
AcDbEntity
  8
1
  6
Continuous
 62
     7
100
AcDbCircle
 10
498.413203
 20
271.819281
 30
0.0
 40
2.0
  0
ARC
  5
252
330
1E
100
AcDbEntity
  8
1
  6
Continuous
 62
     7
100
AcDbCircle
 10
527.7782089999999
 20
267.1192759999999
 30
0.0
 40
0.6
100
AcDbArc
 50
131.8099679999999
 51
180.0
  0
ARC
  5
253
330
1E
100
AcDbEntity
  8
1
  6
Continuous
 62
     7
100
AcDbCircle
 10
531.5882059999999
 20
267.1192759999999
 30
0.0
 40
0.8
100
AcDbArc
 50
299.999716
 51
60.00055699999999
  0
ARC
  5
254
330
1E
100
AcDbEntity
  8
1
  6
Continuous
 62
     7
100
AcDbCircle
 10
520.1582129999999
 20
267.1192759999999
 30
0.0
 40
0.8
100
AcDbArc
 50
120.0003889999999
 51
180.0
  0
ARC
  5
255
330
1E
100
AcDbEntity
  8
1
  6
Continuous
 62
     7
100
AcDbCircle
 10
527.7782089999999
 20
267.1192759999999
 30
0.0
 40
0.8
100
AcDbArc
 50
180.0
 51
240.000284
  0
ARC
  5
256
330
1E
100
AcDbEntity
  8
1
  6
Continuous
 62
     7
100
AcDbCircle
 10
527.7782089999999
 20
267.1192759999999
 30
0.0
 40
0.8
100
AcDbArc
 50
299.999716
 51
60.00055699999999
  0
CIRCLE
  5
257
330
1E
100
AcDbEntity
  8
1
  6
Continuous
 62
     7
100
AcDbCircle
 10
531.8882089999999
 20
273.1192759999999
 30
0.0
 40
1.5
  0
ARC
  5
258
330
1E
100
AcDbEntity
  8
1
  6
Continuous
 62
     7
100
AcDbCircle
 10
531.5882059999999
 20
267.1192759999999
 30
0.0
 40
0.6
100
AcDbArc
 50
311.8099679999999
 51
48.190032
  0
ARC
  5
259
330
1E
100
AcDbEntity
  8
1
  6
Continuous
 62
     7
100
AcDbCircle
 10
531.5882059999999
 20
267.1192759999999
 30
0.0
 40
0.8
100
AcDbArc
 50
119.999443
 51
180.0
  0
ARC
  5
25A
330
1E
100
AcDbEntity
  8
1
  6
Continuous
 62
     7
100
AcDbCircle
 10
531.5882059999999
 20
267.1192759999999
 30
0.0
 40
0.6
100
AcDbArc
 50
180.0
 51
228.190032
  0
ARC
  5
25B
330
1E
100
AcDbEntity
  8
1
  6
Continuous
 62
     7
100
AcDbCircle
 10
531.5882059999999
 20
267.1192759999999
 30
0.0
 40
0.8
100
AcDbArc
 50
180.0
 51
240.000284
  0
CIRCLE
  5
25C
330
1E
100
AcDbEntity
  8
1
  6
HIDDEN
 62
     7
100
AcDbCircle
 10
512.103205
 20
266.502791
 30
0.0
 40
0.5
  0
ARC
  5
25D
330
1E
100
AcDbEntity
  8
1
  6
Continuous
 62
     7
100
AcDbCircle
 10
520.1582129999999
 20
267.1192759999999
 30
0.0
 40
0.6
100
AcDbArc
 50
311.8099679999999
 51
48.190032
  0
ARC
  5
25E
330
1E
100
AcDbEntity
  8
1
  6
Continuous
 62
     7
100
AcDbCircle
 10
520.1582129999999
 20
267.1192759999999
 30
0.0
 40
0.8
100
AcDbArc
 50
299.999716
 51
60.00055699999999
  0
CIRCLE
  5
25F
330
1E
100
AcDbEntity
  8
1
  6
Continuous
 62
     7
100
AcDbCircle
 10
528.078212
 20
273.1192759999999
 30
0.0
 40
0.8
  0
ARC
  5
260
330
1E
100
AcDbEntity
  8
1
  6
Continuous
 62
     7
100
AcDbCircle
 10
527.7782089999999
 20
267.1192759999999
 30
0.0
 40
0.6
100
AcDbArc
 50
311.8099679999999
 51
48.190032
  0
ARC
  5
261
330
1E
100
AcDbEntity
  8
1
  6
Continuous
 62
     7
100
AcDbCircle
 10
527.7782089999999
 20
267.1192759999999
 30
0.0
 40
0.8
100
AcDbArc
 50
119.999443
 51
180.0
  0
CIRCLE
  5
262
330
1E
100
AcDbEntity
  8
1
  6
Continuous
 62
     7
100
AcDbCircle
 10
531.8882089999999
 20
273.1192759999999
 30
0.0
 40
0.8
  0
ARC
  5
263
330
1E
100
AcDbEntity
  8
1
  6
Continuous
 62
     7
100
AcDbCircle
 10
535.3982039999999
 20
267.1192759999999
 30
0.0
 40
0.8
100
AcDbArc
 50
300.0006619999999
 51
59.999611
  0
ARC
  5
264
330
1E
100
AcDbEntity
  8
1
  6
Continuous
 62
     7
100
AcDbCircle
 10
535.3982039999999
 20
267.1192759999999
 30
0.0
 40
0.6
100
AcDbArc
 50
311.8110539999999
 51
48.188946
  0
ARC
  5
265
330
1E
100
AcDbEntity
  8
1
  6
Continuous
 62
     7
100
AcDbCircle
 10
535.3982039999999
 20
267.1192759999999
 30
0.0
 40
0.8
100
AcDbArc
 50
119.999443
 51
180.0
  0
ARC
  5
266
330
1E
100
AcDbEntity
  8
1
  6
Continuous
 62
     7
100
AcDbCircle
 10
535.3982039999999
 20
267.1192759999999
 30
0.0
 40
0.6
100
AcDbArc
 50
131.8099679999999
 51
180.0
  0
ARC
  5
267
330
1E
100
AcDbEntity
  8
1
  6
Continuous
 62
     7
100
AcDbCircle
 10
535.3982039999999
 20
267.1192759999999
 30
0.0
 40
0.6
100
AcDbArc
 50
180.0
 51
228.190032
  0
ARC
  5
268
330
1E
100
AcDbEntity
  8
1
  6
Continuous
 62
     7
100
AcDbCircle
 10
535.3982039999999
 20
267.1192759999999
 30
0.0
 40
0.8
100
AcDbArc
 50
180.0
 51
240.000284
  0
CIRCLE
  5
269
330
1E
100
AcDbEntity
  8
1
  6
Continuous
 62
     7
100
AcDbCircle
 10
535.6982069999999
 20
273.1192759999999
 30
0.0
 40
0.8
  0
ARC
  5
26A
330
1E
100
AcDbEntity
  8
1
  6
Continuous
 62
     7
100
AcDbCircle
 10
539.208201
 20
267.1192759999999
 30
0.0
 40
0.8
100
AcDbArc
 50
300.0006619999999
 51
59.999611
  0
ARC
  5
26B
330
1E
100
AcDbEntity
  8
1
  6
Continuous
 62
     7
100
AcDbCircle
 10
539.208201
 20
267.1192759999999
 30
0.0
 40
0.6
100
AcDbArc
 50
311.8110539999999
 51
48.188946
  0
CIRCLE
  5
26C
330
1E
100
AcDbEntity
  8
1
  6
Continuous
 62
     7
100
AcDbCircle
 10
535.6982069999999
 20
273.1192759999999
 30
0.0
 40
1.5
  0
ARC
  5
26D
330
1E
100
AcDbEntity
  8
1
  6
Continuous
 62
     7
100
AcDbCircle
 10
539.208201
 20
267.1192759999999
 30
0.0
 40
0.8
100
AcDbArc
 50
119.999443
 51
180.0
  0
ARC
  5
26E
330
1E
100
AcDbEntity
  8
1
  6
Continuous
 62
     7
100
AcDbCircle
 10
539.208201
 20
267.1192759999999
 30
0.0
 40
0.6
100
AcDbArc
 50
131.8099679999999
 51
180.0
  0
ARC
  5
26F
330
1E
100
AcDbEntity
  8
1
  6
Continuous
 62
     7
100
AcDbCircle
 10
539.208201
 20
267.1192759999999
 30
0.0
 40
0.6
100
AcDbArc
 50
180.0
 51
228.190032
  0
ARC
  5
270
330
1E
100
AcDbEntity
  8
1
  6
Continuous
 62
     7
100
AcDbCircle
 10
539.208201
 20
267.1192759999999
 30
0.0
 40
0.8
100
AcDbArc
 50
180.0
 51
240.000284
  0
CIRCLE
  5
271
330
1E
100
AcDbEntity
  8
1
  6
Continuous
 62
     7
100
AcDbCircle
 10
539.508204
 20
273.1192759999999
 30
0.0
 40
0.8
  0
CIRCLE
  5
272
330
1E
100
AcDbEntity
  8
1
  6
Continuous
 62
     7
100
AcDbCircle
 10
539.508204
 20
273.1192759999999
 30
0.0
 40
1.5
  0
ARC
  5
273
330
1E
100
AcDbEntity
  8
1
  6
Continuous
 62
     7
100
AcDbCircle
 10
531.5882059999999
 20
267.1192759999999
 30
0.0
 40
0.6
100
AcDbArc
 50
131.8099679999999
 51
180.0
  0
CIRCLE
  5
274
330
1E
100
AcDbEntity
  8
1
  6
HIDDEN
 62
     7
100
AcDbCircle
 10
512.103205
 20
269.042791
 30
0.0
 40
0.5
  0
CIRCLE
  5
275
330
1E
100
AcDbEntity
  8
1
  6
HIDDEN
 62
     7
100
AcDbCircle
 10
512.103205
 20
271.5827919999999
 30
0.0
 40
0.5
  0
CIRCLE
  5
276
330
1E
100
AcDbEntity
  8
1
  6
HIDDEN
 62
     7
100
AcDbCircle
 10
512.103205
 20
274.1227929999999
 30
0.0
 40
0.5
  0
CIRCLE
  5
277
330
1E
100
AcDbEntity
  8
1
  6
Continuous
 62
     7
100
AcDbCircle
 10
524.2682139999999
 20
273.1192759999999
 30
0.0
 40
0.8
  0
CIRCLE
  5
278
330
1E
100
AcDbEntity
  8
1
  6
Continuous
 62
     7
100
AcDbCircle
 10
524.2682139999999
 20
273.1192759999999
 30
0.0
 40
1.5
  0
ARC
  5
279
330
1E
100
AcDbEntity
  8
1
  6
Continuous
 62
     7
100
AcDbCircle
 10
523.968211
 20
267.1192759999999
 30
0.0
 40
0.8
100
AcDbArc
 50
180.0
 51
239.999338
  0
ARC
  5
27A
330
1E
100
AcDbEntity
  8
1
  6
Continuous
 62
     7
100
AcDbCircle
 10
523.968211
 20
267.1192759999999
 30
0.0
 40
0.6
100
AcDbArc
 50
180.0
 51
228.1889459999999
  0
ARC
  5
27B
330
1E
100
AcDbEntity
  8
1
  6
Continuous
 62
     7
100
AcDbCircle
 10
523.968211
 20
267.1192759999999
 30
0.0
 40
0.6
100
AcDbArc
 50
131.811054
 51
180.0
  0
CIRCLE
  5
27C
330
1E
100
AcDbEntity
  8
1
  6
Continuous
 62
     7
100
AcDbCircle
 10
528.078212
 20
273.1192759999999
 30
0.0
 40
1.5
  0
CIRCLE
  5
27D
330
1E
100
AcDbEntity
  8
1
  6
Continuous
 62
     7
100
AcDbCircle
 10
520.458201
 20
273.1192759999999
 30
0.0
 40
1.5
  0
ARC
  5
27E
330
1E
100
AcDbEntity
  8
1
  6
Continuous
 62
     7
100
AcDbCircle
 10
523.968211
 20
267.1192759999999
 30
0.0
 40
0.8
100
AcDbArc
 50
120.0003889999999
 51
180.0
  0
ARC
  5
27F
330
1E
100
AcDbEntity
  8
1
  6
Continuous
 62
     7
100
AcDbCircle
 10
523.968211
 20
267.1192759999999
 30
0.0
 40
0.6
100
AcDbArc
 50
311.8099679999999
 51
48.190032
  0
CIRCLE
  5
280
330
1E
100
AcDbEntity
  8
1
  6
Continuous
 62
     7
100
AcDbCircle
 10
520.458201
 20
273.1192759999999
 30
0.0
 40
0.8
  0
ARC
  5
281
330
1E
100
AcDbEntity
  8
1
  6
Continuous
 62
     7
100
AcDbCircle
 10
523.968211
 20
267.1192759999999
 30
0.0
 40
0.8
100
AcDbArc
 50
299.999716
 51
60.00055699999999
  0
ARC
  5
282
330
1E
100
AcDbEntity
  8
1
  6
Continuous
 62
     7
100
AcDbCircle
 10
520.1582129999999
 20
267.1192759999999
 30
0.0
 40
0.6
100
AcDbArc
 50
180.0
 51
228.1889459999999
  0
ARC
  5
283
330
1E
100
AcDbEntity
  8
1
  6
Continuous
 62
     7
100
AcDbCircle
 10
520.1582129999999
 20
267.1192759999999
 30
0.0
 40
0.6
100
AcDbArc
 50
131.811054
 51
180.0
  0
ARC
  5
284
330
1E
100
AcDbEntity
  8
1
  6
Continuous
 62
     7
100
AcDbCircle
 10
520.1582129999999
 20
267.1192759999999
 30
0.0
 40
0.8
100
AcDbArc
 50
180.0
 51
239.999338
  0
ARC
  5
285
330
1E
100
AcDbEntity
  8
1
  6
Continuous
 62
     7
100
AcDbCircle
 10
527.7782089999999
 20
267.1192759999999
 30
0.0
 40
0.6
100
AcDbArc
 50
180.0
 51
228.190032
  0
ARC
  5
286
330
1E
100
AcDbEntity
  8
1
  6
Continuous
 62
     7
100
AcDbCircle
 10
548.413203
 20
279.8192809999999
 30
0.0
 40
2.0
100
AcDbArc
 50
270.0
 51
0.0
  0
ARC
  5
287
330
1E
100
AcDbEntity
  8
1
  6
Continuous
 62
     7
100
AcDbCircle
 10
467.413211
 20
279.8192809999999
 30
0.0
 40
2.0
100
AcDbArc
 50
180.0
 51
270.0
  0
ARC
  5
288
330
1E
100
AcDbEntity
  8
1
  6
Continuous
 62
     7
100
AcDbCircle
 10
468.913211
 20
324.919279
 30
0.0
 40
3.5
100
AcDbArc
 50
90.0
 51
180.0
  0
ARC
  5
289
330
1E
100
AcDbEntity
  8
1
  6
Continuous
 62
     7
100
AcDbCircle
 10
546.913203
 20
262.919279
 30
0.0
 40
3.5
100
AcDbArc
 50
270.0
 51
0.0
  0
ARC
  5
28A
330
1E
100
AcDbEntity
  8
1
  6
Continuous
 62
     7
100
AcDbCircle
 10
546.913203
 20
324.919279
 30
0.0
 40
3.5
100
AcDbArc
 50
0.0
 51
90.0
  0
ARC
  5
28B
330
1E
100
AcDbEntity
  8
1
  6
Continuous
 62
     7
100
AcDbCircle
 10
468.913211
 20
262.919279
 30
0.0
 40
3.5
100
AcDbArc
 50
180.0
 51
270.0
  0
ARC
  5
28C
330
1E
100
AcDbEntity
  8
1
  6
Continuous
 62
     7
100
AcDbCircle
 10
487.3687849999999
 20
336.9111769999999
 30
0.0
 40
2.25
100
AcDbArc
 50
295.547056
 51
115.949718
  0
ARC
  5
28D
330
1E
100
AcDbEntity
  8
1
  6
Continuous
 62
     7
100
AcDbCircle
 10
482.5441389999999
 20
334.251982
 30
0.0
 40
2.25
100
AcDbArc
 50
122.174787
 51
302.563606
  0
ARC
  5
28E
330
1E
100
AcDbEntity
  8
1
  6
Continuous
 62
     7
100
AcDbCircle
 10
507.917994
 20
293.9198129999999
 30
0.0
 40
49.899994
100
AcDbArc
 50
115.528906
 51
122.174899
  0
ARC
  5
28F
330
1E
100
AcDbEntity
  8
1
  6
Continuous
 62
     7
100
AcDbCircle
 10
507.917994
 20
293.9198129999999
 30
0.0
 40
45.399994
100
AcDbArc
 50
115.547073
 51
122.194171
  0
ARC
  5
290
330
1E
100
AcDbEntity
  8
1
  6
Continuous
 62
     7
100
AcDbCircle
 10
533.282283
 20
334.251982
 30
0.0
 40
2.25
100
AcDbArc
 50
237.4363939999999
 51
57.82521299999999
  0
CIRCLE
  5
291
330
1E
100
AcDbEntity
  8
1
  6
Continuous
 62
     7
100
AcDbCircle
 10
484.9132029999999
 20
344.419279
 30
0.0
 40
1.75
  0
CIRCLE
  5
292
330
1E
100
AcDbEntity
  8
1
  6
Continuous
 62
     7
100
AcDbCircle
 10
530.913203
 20
344.419279
 30
0.0
 40
1.75
  0
ARC
  5
293
330
1E
100
AcDbEntity
  8
1
  6
Continuous
 62
     7
100
AcDbCircle
 10
528.4576209999999
 20
250.927382
 30
0.0
 40
2.25
100
AcDbArc
 50
115.5471399999999
 51
295.95011
  0
CIRCLE
  5
294
330
1E
100
AcDbEntity
  8
1
  6
Continuous
 62
     7
100
AcDbCircle
 10
530.913203
 20
243.419279
 30
0.0
 40
1.75
  0
ARC
  5
295
330
1E
100
AcDbEntity
  8
1
  6
Continuous
 62
     7
100
AcDbCircle
 10
507.908427
 20
293.918745
 30
0.0
 40
49.899994
100
AcDbArc
 50
295.5289019999999
 51
302.1748989999999
  0
ARC
  5
296
330
1E
100
AcDbEntity
  8
1
  6
Continuous
 62
     7
100
AcDbCircle
 10
533.282283
 20
253.586569
 30
0.0
 40
2.25
100
AcDbArc
 50
302.1748909999999
 51
122.5635019999999
  0
ARC
  5
297
330
1E
100
AcDbEntity
  8
1
  6
Continuous
 62
     7
100
AcDbCircle
 10
528.4576209999999
 20
336.9111769999999
 30
0.0
 40
2.25
100
AcDbArc
 50
64.049933
 51
244.4529439999999
  0
ARC
  5
298
330
1E
100
AcDbEntity
  8
1
  6
Continuous
 62
     7
100
AcDbCircle
 10
507.908427
 20
293.9198129999999
 30
0.0
 40
45.399994
100
AcDbArc
 50
57.80584599999999
 51
64.452927
  0
ARC
  5
299
330
1E
100
AcDbEntity
  8
1
  6
Continuous
 62
     7
100
AcDbCircle
 10
507.908427
 20
293.918745
 30
0.0
 40
45.399994
100
AcDbArc
 50
295.547068
 51
302.194154
  0
ARC
  5
29A
330
1E
100
AcDbEntity
  8
1
  6
Continuous
 62
     7
100
AcDbCircle
 10
507.908427
 20
293.9198129999999
 30
0.0
 40
49.899994
100
AcDbArc
 50
57.82510100000001
 51
64.47109399999999
  0
LINE
  5
29B
330
1E
100
AcDbEntity
  8
1
  6
Continuous
 62
     7
100
AcDbLine
 10
474.663211
 20
263.9981209999999
 30
0.0
 11
474.663211
 21
263.419279
 31
0.0
  0
LINE
  5
29C
330
1E
100
AcDbEntity
  8
1
  6
Continuous
 62
     7
100
AcDbLine
 10
510.413203
 20
238.0492839999999
 30
0.0
 11
556.313212
 21
238.0492839999999
 31
0.0
  0
LINE
  5
29D
330
1E
100
AcDbEntity
  8
1
  6
Continuous
 62
     7
100
AcDbLine
 10
562.765025
 20
332.019285
 30
0.0
 11
556.795024
 21
332.019285
 31
0.0
  0
LINE
  5
29E
330
1E
100
AcDbEntity
  8
1
  6
Continuous
 62
     7
100
AcDbLine
 10
557.7950239999999
 20
333.2192819999999
 30
0.0
 11
557.7950239999999
 21
350.2593979999999
 31
0.0
  0
LINE
  5
29F
330
1E
100
AcDbEntity
  8
1
  6
Continuous
 62
     7
100
AcDbLine
 10
556.295024
 20
332.519285
 30
0.0
 11
556.295024
 21
350.1886729999999
 31
0.0
  0
LINE
  5
2A0
330
1E
100
AcDbEntity
  8
1
  6
Continuous
 62
     7
100
AcDbLine
 10
459.513202
 20
255.319281
 30
0.0
 11
459.513202
 21
237.649881
 31
0.0
  0
LINE
  5
2A1
330
1E
100
AcDbEntity
  8
1
  6
Continuous
 62
     7
100
AcDbLine
 10
562.7832129999999
 20
254.819281
 30
0.0
 11
559.5832159999999
 21
254.819281
 31
0.0
  0
LINE
  5
2A2
330
1E
100
AcDbEntity
  8
1
  6
DIVIDE
 62
     7
100
AcDbLine
 10
521.395015
 20
240.3192769999999
 30
0.0
 11
521.395015
 21
239.819277
 31
0.0
  0
LINE
  5
2A3
330
1E
100
AcDbEntity
  8
1
  6
Continuous
 62
     7
100
AcDbLine
 10
456.4432019999999
 20
335.019285
 30
0.0
 11
458.0132019999999
 21
335.019285
 31
0.0
  0
LINE
  5
2A4
330
1E
100
AcDbEntity
  8
1
  6
Continuous
 62
     7
100
AcDbLine
 10
558.9132179999999
 20
238.849283
 30
0.0
 11
557.813212
 21
238.849283
 31
0.0
  0
LINE
  5
2A5
330
1E
100
AcDbEntity
  8
1
  6
Continuous
 62
     7
100
AcDbLine
 10
547.8950150000001
 20
238.8192769999999
 30
0.0
 11
513.9313919999999
 21
238.8192769999999
 31
0.0
  0
LINE
  5
2A6
330
1E
100
AcDbEntity
  8
1
  6
Continuous
 62
     7
100
AcDbLine
 10
547.8950150000001
 20
239.819277
 30
0.0
 11
547.8950150000001
 21
238.0492839999999
 31
0.0
  0
LINE
  5
2A7
330
1E
100
AcDbEntity
  8
1
  6
DIVIDE
 62
     7
100
AcDbLine
 10
525.395015
 20
240.3192769999999
 30
0.0
 11
525.395015
 21
239.819277
 31
0.0
  0
LINE
  5
2A8
330
1E
100
AcDbEntity
  8
1
  6
Continuous
 62
     7
100
AcDbLine
 10
456.913203
 20
238.849283
 30
0.0
 11
458.0132019999999
 21
238.849283
 31
0.0
  0
LINE
  5
2A9
330
1E
100
AcDbEntity
  8
1
  6
Continuous
 62
     7
100
AcDbLine
 10
548.895015
 20
239.319277
 30
0.0
 11
548.895015
 21
238.0492839999999
 31
0.0
  0
LINE
  5
2AA
330
1E
100
AcDbEntity
  8
1
  6
Continuous
 62
     7
100
AcDbLine
 10
547.8950150000001
 20
239.819277
 30
0.0
 11
513.9313919999999
 21
239.819277
 31
0.0
  0
LINE
  5
2AB
330
1E
100
AcDbEntity
  8
1
  6
DIVIDE
 62
     7
100
AcDbLine
 10
543.395015
 20
240.3192769999999
 30
0.0
 11
543.395015
 21
239.819277
 31
0.0
  0
LINE
  5
2AC
330
1E
100
AcDbEntity
  8
1
  6
DIVIDE
 62
     7
100
AcDbLine
 10
547.395015
 20
240.3192769999999
 30
0.0
 11
547.395015
 21
239.819277
 31
0.0
  0
LINE
  5
2AD
330
1E
100
AcDbEntity
  8
1
  6
DIVIDE
 62
     7
100
AcDbLine
 10
514.3950150000001
 20
243.319277
 30
0.0
 11
514.3950150000001
 21
239.819277
 31
0.0
  0
LINE
  5
2AE
330
1E
100
AcDbEntity
  8
1
  6
DIVIDE
 62
     7
100
AcDbLine
 10
517.395015
 20
240.3192769999999
 30
0.0
 11
517.395015
 21
239.819277
 31
0.0
  0
LINE
  5
2AF
330
1E
100
AcDbEntity
  8
1
  6
DIVIDE
 62
     7
100
AcDbLine
 10
540.395015
 20
347.519285
 30
0.0
 11
540.395015
 21
348.019285
 31
0.0
  0
LINE
  5
2B0
330
1E
100
AcDbEntity
  8
1
  6
DIVIDE
 62
     7
100
AcDbLine
 10
536.395015
 20
347.519285
 30
0.0
 11
536.395015
 21
348.019285
 31
0.0
  0
LINE
  5
2B1
330
1E
100
AcDbEntity
  8
1
  6
Continuous
 62
     7
100
AcDbLine
 10
456.4432019999999
 20
251.819281
 30
0.0
 11
458.0132019999999
 21
251.819281
 31
0.0
  0
LINE
  5
2B2
330
1E
100
AcDbEntity
  8
1
  6
DIVIDE
 62
     7
100
AcDbLine
 10
522.395015
 20
347.519285
 30
0.0
 11
522.395015
 21
348.019285
 31
0.0
  0
LINE
  5
2B3
330
1E
100
AcDbEntity
  8
1
  6
DIVIDE
 62
     7
100
AcDbLine
 10
518.395015
 20
240.3192769999999
 30
0.0
 11
518.395015
 21
239.819277
 31
0.0
  0
LINE
  5
2B4
330
1E
100
AcDbEntity
  8
1
  6
Continuous
 62
     7
100
AcDbLine
 10
501.8950150000001
 20
348.019285
 30
0.0
 11
501.8950150000001
 21
349.789274
 31
0.0
  0
LINE
  5
2B5
330
1E
100
AcDbEntity
  8
1
  6
DIVIDE
 62
     7
100
AcDbLine
 10
544.395015
 20
347.519285
 30
0.0
 11
544.395015
 21
348.019285
 31
0.0
  0
LINE
  5
2B6
330
1E
100
AcDbEntity
  8
1
  6
Continuous
 62
     7
100
AcDbLine
 10
513.9313919999999
 20
239.819277
 30
0.0
 11
513.9313919999999
 21
238.0492839999999
 31
0.0
  0
LINE
  5
2B7
330
1E
100
AcDbEntity
  8
1
  6
DIVIDE
 62
     7
100
AcDbLine
 10
521.395015
 20
347.519285
 30
0.0
 11
521.395015
 21
348.019285
 31
0.0
  0
LINE
  5
2B8
330
1E
100
AcDbEntity
  8
1
  6
Continuous
 62
     7
100
AcDbLine
 10
456.2432049999999
 20
291.419279
 30
0.0
 11
456.2432049999999
 21
296.419279
 31
0.0
  0
LINE
  5
2B9
330
1E
100
AcDbEntity
  8
1
  6
Continuous
 62
     7
100
AcDbLine
 10
459.513202
 20
332.519285
 30
0.0
 11
459.513202
 21
350.1886729999999
 31
0.0
  0
LINE
  5
2BA
330
1E
100
AcDbEntity
  8
1
  6
Continuous
 62
     7
100
AcDbLine
 10
453.0432
 20
332.019285
 30
0.0
 11
459.0132019999999
 21
332.019285
 31
0.0
  0
LINE
  5
2BB
330
1E
100
AcDbEntity
  8
1
  6
Continuous
 62
     7
100
AcDbLine
 10
458.0132019999999
 20
333.2192819999999
 30
0.0
 11
458.0132019999999
 21
350.2593979999999
 31
0.0
  0
LINE
  5
2BC
330
1E
100
AcDbEntity
  8
1
  6
Continuous
 62
     7
100
AcDbLine
 10
562.765025
 20
333.019285
 30
0.0
 11
557.9950209999999
 21
333.019285
 31
0.0
  0
LINE
  5
2BD
330
1E
100
AcDbEntity
  8
1
  6
Continuous
 62
     7
100
AcDbLine
 10
453.0432
 20
291.419279
 30
0.0
 11
456.2432049999999
 21
291.419279
 31
0.0
  0
LINE
  5
2BE
330
1E
100
AcDbEntity
  8
1
  6
Continuous
 62
     7
100
AcDbLine
 10
453.0432
 20
296.419279
 30
0.0
 11
456.2432049999999
 21
296.419279
 31
0.0
  0
LINE
  5
2BF
330
1E
100
AcDbEntity
  8
1
  6
Continuous
 62
     7
100
AcDbLine
 10
559.5832159999999
 20
254.819281
 30
0.0
 11
559.5832159999999
 21
249.819277
 31
0.0
  0
LINE
  5
2C0
330
1E
100
AcDbEntity
  8
1
  6
Continuous
 62
     7
100
AcDbLine
 10
559.5832159999999
 20
291.419279
 30
0.0
 11
559.5832159999999
 21
296.419279
 31
0.0
  0
LINE
  5
2C1
330
1E
100
AcDbEntity
  8
1
  6
Continuous
 62
     7
100
AcDbLine
 10
456.4432019999999
 20
336.019285
 30
0.0
 11
458.0132019999999
 21
336.019285
 31
0.0
  0
LINE
  5
2C2
330
1E
100
AcDbEntity
  8
1
  6
Continuous
 62
     7
100
AcDbLine
 10
455.0431999999999
 20
291.419279
 30
0.0
 11
455.0431999999999
 21
296.419279
 31
0.0
  0
LINE
  5
2C3
330
1E
100
AcDbEntity
  8
1
  6
DIVIDE
 62
     7
100
AcDbLine
 10
539.3950150000001
 20
240.3192769999999
 30
0.0
 11
539.3950150000001
 21
239.819277
 31
0.0
  0
LINE
  5
2C4
330
1E
100
AcDbEntity
  8
1
  6
Continuous
 62
     7
100
AcDbLine
 10
466.931399
 20
348.519285
 30
0.0
 11
466.931399
 21
349.789274
 31
0.0
  0
LINE
  5
2C5
330
1E
100
AcDbEntity
  8
1
  6
Continuous
 62
     7
100
AcDbLine
 10
512.9313919999999
 20
348.519285
 30
0.0
 11
512.9313919999999
 21
349.789274
 31
0.0
  0
LINE
  5
2C6
330
1E
100
AcDbEntity
  8
1
  6
Continuous
 62
     7
100
AcDbLine
 10
510.413203
 20
350.789274
 30
0.0
 11
510.413203
 21
345.5892769999999
 31
0.0
  0
LINE
  5
2C7
330
1E
100
AcDbEntity
  8
1
  6
Continuous
 62
     7
100
AcDbLine
 10
505.4132029999999
 20
350.789274
 30
0.0
 11
505.4132029999999
 21
345.5892769999999
 31
0.0
  0
LINE
  5
2C8
330
1E
100
AcDbEntity
  8
1
  6
DIVIDE
 62
     7
100
AcDbLine
 10
497.431392
 20
347.519285
 30
0.0
 11
497.431392
 21
348.019285
 31
0.0
  0
LINE
  5
2C9
330
1E
100
AcDbEntity
  8
1
  6
DIVIDE
 62
     7
100
AcDbLine
 10
539.3950150000001
 20
347.519285
 30
0.0
 11
539.3950150000001
 21
348.019285
 31
0.0
  0
LINE
  5
2CA
330
1E
100
AcDbEntity
  8
1
  6
DIVIDE
 62
     7
100
AcDbLine
 10
490.4313919999999
 20
347.519285
 30
0.0
 11
490.4313919999999
 21
348.019285
 31
0.0
  0
LINE
  5
2CB
330
1E
100
AcDbEntity
  8
1
  6
DIVIDE
 62
     7
100
AcDbLine
 10
547.395015
 20
347.519285
 30
0.0
 11
547.395015
 21
348.019285
 31
0.0
  0
LINE
  5
2CC
330
1E
100
AcDbEntity
  8
1
  6
Continuous
 62
     7
100
AcDbLine
 10
510.413203
 20
347.5892769999999
 30
0.0
 11
505.4132029999999
 21
347.5892769999999
 31
0.0
  0
LINE
  5
2CD
330
1E
100
AcDbEntity
  8
1
  6
Continuous
 62
     7
100
AcDbLine
 10
547.8950150000001
 20
349.019285
 30
0.0
 11
513.9313919999999
 21
349.019285
 31
0.0
  0
LINE
  5
2CE
330
1E
100
AcDbEntity
  8
1
  6
DIVIDE
 62
     7
100
AcDbLine
 10
517.395015
 20
347.519285
 30
0.0
 11
517.395015
 21
348.019285
 31
0.0
  0
LINE
  5
2CF
330
1E
100
AcDbEntity
  8
1
  6
DIVIDE
 62
     7
100
AcDbLine
 10
501.431392
 20
344.519285
 30
0.0
 11
501.431392
 21
348.019285
 31
0.0
  0
LINE
  5
2D0
330
1E
100
AcDbEntity
  8
1
  6
Continuous
 62
     7
100
AcDbLine
 10
512.9313919999999
 20
239.319277
 30
0.0
 11
512.9313919999999
 21
238.0492839999999
 31
0.0
  0
LINE
  5
2D1
330
1E
100
AcDbEntity
  8
1
  6
Continuous
 62
     7
100
AcDbLine
 10
467.9313989999999
 20
348.019285
 30
0.0
 11
467.9313989999999
 21
349.789274
 31
0.0
  0
LINE
  5
2D2
330
1E
100
AcDbEntity
  8
1
  6
Continuous
 62
     7
100
AcDbLine
 10
467.9313989999999
 20
348.019285
 30
0.0
 11
501.8950150000001
 21
348.019285
 31
0.0
  0
LINE
  5
2D3
330
1E
100
AcDbEntity
  8
1
  6
DIVIDE
 62
     7
100
AcDbLine
 10
498.4313919999999
 20
347.519285
 30
0.0
 11
498.4313919999999
 21
348.019285
 31
0.0
  0
LINE
  5
2D4
330
1E
100
AcDbEntity
  8
1
  6
Continuous
 62
     7
100
AcDbLine
 10
467.9313989999999
 20
349.019285
 30
0.0
 11
501.8950150000001
 21
349.019285
 31
0.0
  0
LINE
  5
2D5
330
1E
100
AcDbEntity
  8
1
  6
Continuous
 62
     7
100
AcDbLine
 10
453.0432
 20
338.019285
 30
0.0
 11
455.0431999999999
 21
338.019285
 31
0.0
  0
LINE
  5
2D6
330
1E
100
AcDbEntity
  8
1
  6
Continuous
 62
     7
100
AcDbLine
 10
455.0431999999999
 20
254.819281
 30
0.0
 11
455.0431999999999
 21
249.819277
 31
0.0
  0
LINE
  5
2D7
330
1E
100
AcDbEntity
  8
1
  6
Continuous
 62
     7
100
AcDbLine
 10
455.0431999999999
 20
333.019285
 30
0.0
 11
455.0431999999999
 21
338.019285
 31
0.0
  0
LINE
  5
2D8
330
1E
100
AcDbEntity
  8
1
  6
Continuous
 62
     7
100
AcDbLine
 10
547.8950150000001
 20
348.019285
 30
0.0
 11
513.9313919999999
 21
348.019285
 31
0.0
  0
LINE
  5
2D9
330
1E
100
AcDbEntity
  8
1
  6
Continuous
 62
     7
100
AcDbLine
 10
562.7832129999999
 20
291.419279
 30
0.0
 11
559.5832159999999
 21
291.419279
 31
0.0
  0
LINE
  5
2DA
330
1E
100
AcDbEntity
  8
1
  6
Continuous
 62
     7
100
AcDbLine
 10
505.4132029999999
 20
349.789274
 30
0.0
 11
459.513202
 21
349.789274
 31
0.0
  0
LINE
  5
2DB
330
1E
100
AcDbEntity
  8
1
  6
Continuous
 62
     7
100
AcDbLine
 10
560.7832129999999
 20
291.419279
 30
0.0
 11
560.7832129999999
 21
296.419279
 31
0.0
  0
LINE
  5
2DC
330
1E
100
AcDbEntity
  8
1
  6
Continuous
 62
     7
100
AcDbLine
 10
559.3650309999999
 20
335.019285
 30
0.0
 11
557.7950239999999
 21
335.019285
 31
0.0
  0
LINE
  5
2DD
330
1E
100
AcDbEntity
  8
1
  6
Continuous
 62
     7
100
AcDbLine
 10
562.7832129999999
 20
296.419279
 30
0.0
 11
559.5832159999999
 21
296.419279
 31
0.0
  0
LINE
  5
2DE
330
1E
100
AcDbEntity
  8
1
  6
Continuous
 62
     7
100
AcDbLine
 10
453.0432
 20
249.819277
 30
0.0
 11
455.0431999999999
 21
249.819277
 31
0.0
  0
LINE
  5
2DF
330
1E
100
AcDbEntity
  8
1
  6
Continuous
 62
     7
100
AcDbLine
 10
547.8950150000001
 20
348.019285
 30
0.0
 11
547.8950150000001
 21
349.789274
 31
0.0
  0
LINE
  5
2E0
330
1E
100
AcDbEntity
  8
1
  6
Continuous
 62
     7
100
AcDbLine
 10
453.0432
 20
254.819281
 30
0.0
 11
456.2432049999999
 21
254.819281
 31
0.0
  0
LINE
  5
2E1
330
1E
100
AcDbEntity
  8
1
  6
Continuous
 62
     7
100
AcDbLine
 10
453.0432
 20
333.019285
 30
0.0
 11
457.8132049999999
 21
333.019285
 31
0.0
  0
LINE
  5
2E2
330
1E
100
AcDbEntity
  8
1
  6
DIVIDE
 62
     7
100
AcDbLine
 10
468.4313989999999
 20
347.519285
 30
0.0
 11
468.4313989999999
 21
348.019285
 31
0.0
  0
LINE
  5
2E3
330
1E
100
AcDbEntity
  8
1
  6
Continuous
 62
     7
100
AcDbLine
 10
562.7832129999999
 20
254.819281
 30
0.0
 11
559.5832159999999
 21
254.819281
 31
0.0
  0
LINE
  5
2E4
330
1E
100
AcDbEntity
  8
1
  6
DIVIDE
 62
     7
100
AcDbLine
 10
498.4313919999999
 20
240.3192769999999
 30
0.0
 11
498.4313919999999
 21
239.819277
 31
0.0
  0
LINE
  5
2E5
330
1E
100
AcDbEntity
  8
1
  6
DIVIDE
 62
     7
100
AcDbLine
 10
476.4313989999999
 20
347.519285
 30
0.0
 11
476.4313989999999
 21
348.019285
 31
0.0
  0
LINE
  5
2E6
330
1E
100
AcDbEntity
  8
1
  6
Continuous
 62
     7
100
AcDbLine
 10
562.7832129999999
 20
333.019285
 30
0.0
 11
559.5832159999999
 21
333.019285
 31
0.0
  0
LINE
  5
2E7
330
1E
100
AcDbEntity
  8
1
  6
Continuous
 62
     7
100
AcDbLine
 10
562.7832129999999
 20
249.819277
 30
0.0
 11
559.5832159999999
 21
249.819277
 31
0.0
  0
LINE
  5
2E8
330
1E
100
AcDbEntity
  8
1
  6
Continuous
 62
     7
100
AcDbLine
 10
560.7832129999999
 20
254.819281
 30
0.0
 11
560.7832129999999
 21
249.819277
 31
0.0
  0
LINE
  5
2E9
330
1E
100
AcDbEntity
  8
1
  6
Continuous
 62
     7
100
AcDbLine
 10
560.7832129999999
 20
333.019285
 30
0.0
 11
560.7832129999999
 21
338.019285
 31
0.0
  0
LINE
  5
2EA
330
1E
100
AcDbEntity
  8
1
  6
Continuous
 62
     7
100
AcDbLine
 10
560.9650219999999
 20
240.645479
 30
0.0
 11
560.9650219999999
 21
249.819277
 31
0.0
  0
LINE
  5
2EB
330
1E
100
AcDbEntity
  8
1
  6
Continuous
 62
     7
100
AcDbLine
 10
454.8432029999999
 20
255.819281
 30
0.0
 11
454.8432029999999
 21
291.419279
 31
0.0
  0
LINE
  5
2EC
330
1E
100
AcDbEntity
  8
1
  6
Continuous
 62
     7
100
AcDbLine
 10
454.8432029999999
 20
296.419279
 30
0.0
 11
454.8432029999999
 21
332.019285
 31
0.0
  0
LINE
  5
2ED
330
1E
100
AcDbEntity
  8
1
  6
Continuous
 62
     7
100
AcDbLine
 10
562.7832129999999
 20
338.019285
 30
0.0
 11
560.7832129999999
 21
338.019285
 31
0.0
  0
LINE
  5
2EE
330
1E
100
AcDbEntity
  8
1
  6
DIVIDE
 62
     7
100
AcDbLine
 10
544.395015
 20
240.3192769999999
 30
0.0
 11
544.395015
 21
239.819277
 31
0.0
  0
LINE
  5
2EF
330
1E
100
AcDbEntity
  8
1
  6
Continuous
 62
     7
100
AcDbLine
 10
467.9313989999999
 20
239.819277
 30
0.0
 11
467.9313989999999
 21
238.0492839999999
 31
0.0
  0
LINE
  5
2F0
330
1E
100
AcDbEntity
  8
1
  6
DIVIDE
 62
     7
100
AcDbLine
 10
522.395015
 20
240.3192769999999
 30
0.0
 11
522.395015
 21
239.819277
 31
0.0
  0
LINE
  5
2F1
330
1E
100
AcDbEntity
  8
1
  6
DIVIDE
 62
     7
100
AcDbLine
 10
501.431392
 20
243.319277
 30
0.0
 11
501.431392
 21
239.819277
 31
0.0
  0
LINE
  5
2F2
330
1E
100
AcDbEntity
  8
1
  6
Continuous
 62
     7
100
AcDbLine
 10
510.413203
 20
240.249285
 30
0.0
 11
505.4132029999999
 21
240.249285
 31
0.0
  0
LINE
  5
2F3
330
1E
100
AcDbEntity
  8
1
  6
DIVIDE
 62
     7
100
AcDbLine
 10
490.4313919999999
 20
240.3192769999999
 30
0.0
 11
490.4313919999999
 21
239.819277
 31
0.0
  0
LINE
  5
2F4
330
1E
100
AcDbEntity
  8
1
  6
Continuous
 62
     7
100
AcDbLine
 10
510.413203
 20
242.249285
 30
0.0
 11
505.4132029999999
 21
242.249285
 31
0.0
  0
LINE
  5
2F5
330
1E
100
AcDbEntity
  8
1
  6
DIVIDE
 62
     7
100
AcDbLine
 10
497.431392
 20
240.3192769999999
 30
0.0
 11
497.431392
 21
239.819277
 31
0.0
  0
LINE
  5
2F6
330
1E
100
AcDbEntity
  8
1
  6
DIVIDE
 62
     7
100
AcDbLine
 10
536.395015
 20
240.3192769999999
 30
0.0
 11
536.395015
 21
239.819277
 31
0.0
  0
LINE
  5
2F7
330
1E
100
AcDbEntity
  8
1
  6
DIVIDE
 62
     7
100
AcDbLine
 10
540.395015
 20
240.3192769999999
 30
0.0
 11
540.395015
 21
239.819277
 31
0.0
  0
LINE
  5
2F8
330
1E
100
AcDbEntity
  8
1
  6
Continuous
 62
     7
100
AcDbLine
 10
466.931399
 20
239.319277
 30
0.0
 11
466.931399
 21
238.0492839999999
 31
0.0
  0
LINE
  5
2F9
330
1E
100
AcDbEntity
  8
1
  6
DIVIDE
 62
     7
100
AcDbLine
 10
494.4313919999999
 20
240.3192769999999
 30
0.0
 11
494.4313919999999
 21
239.819277
 31
0.0
  0
LINE
  5
2FA
330
1E
100
AcDbEntity
  8
1
  6
DIVIDE
 62
     7
100
AcDbLine
 10
493.431392
 20
240.3192769999999
 30
0.0
 11
493.431392
 21
239.819277
 31
0.0
  0
LINE
  5
2FB
330
1E
100
AcDbEntity
  8
1
  6
DIVIDE
 62
     7
100
AcDbLine
 10
471.4313989999999
 20
240.3192769999999
 30
0.0
 11
471.4313989999999
 21
239.819277
 31
0.0
  0
LINE
  5
2FC
330
1E
100
AcDbEntity
  8
1
  6
DIVIDE
 62
     7
100
AcDbLine
 10
514.3950150000001
 20
344.519285
 30
0.0
 11
514.3950150000001
 21
348.019285
 31
0.0
  0
LINE
  5
2FD
330
1E
100
AcDbEntity
  8
1
  6
Continuous
 62
     7
100
AcDbLine
 10
456.4432019999999
 20
252.819281
 30
0.0
 11
458.0132019999999
 21
252.819281
 31
0.0
  0
LINE
  5
2FE
330
1E
100
AcDbEntity
  8
1
  6
Continuous
 62
     7
100
AcDbLine
 10
502.895015
 20
348.519285
 30
0.0
 11
502.895015
 21
349.789274
 31
0.0
  0
LINE
  5
2FF
330
1E
100
AcDbEntity
  8
1
  6
Continuous
 62
     7
100
AcDbLine
 10
453.0432
 20
254.819281
 30
0.0
 11
457.8132049999999
 21
254.819281
 31
0.0
  0
LINE
  5
300
330
1E
100
AcDbEntity
  8
1
  6
Continuous
 62
     7
100
AcDbLine
 10
559.3650309999999
 20
336.019285
 30
0.0
 11
557.7950239999999
 21
336.019285
 31
0.0
  0
LINE
  5
301
330
1E
100
AcDbEntity
  8
1
  6
Continuous
 62
     7
100
AcDbLine
 10
510.413203
 20
242.249285
 30
0.0
 11
510.413203
 21
237.0492839999999
 31
0.0
  0
LINE
  5
302
330
1E
100
AcDbEntity
  8
1
  6
Continuous
 62
     7
100
AcDbLine
 10
560.9650219999999
 20
338.019285
 30
0.0
 11
560.9650219999999
 21
346.919279
 31
0.0
  0
LINE
  5
303
330
1E
100
AcDbEntity
  8
1
  6
Continuous
 62
     7
100
AcDbLine
 10
501.8950150000001
 20
239.819277
 30
0.0
 11
501.8950150000001
 21
238.0492839999999
 31
0.0
  0
LINE
  5
304
330
1E
100
AcDbEntity
  8
1
  6
Continuous
 62
     7
100
AcDbLine
 10
559.38322
 20
251.819281
 30
0.0
 11
557.813212
 21
251.819281
 31
0.0
  0
LINE
  5
305
330
1E
100
AcDbEntity
  8
1
  6
Continuous
 62
     7
100
AcDbLine
 10
558.9132179999999
 20
353.919279
 30
0.0
 11
456.913203
 21
353.919279
 31
0.0
  0
LINE
  5
306
330
1E
100
AcDbEntity
  8
1
  6
Continuous
 62
     7
100
AcDbLine
 10
449.913203
 20
240.919283
 30
0.0
 11
449.913203
 21
346.919279
 31
0.0
  0
LINE
  5
307
330
1E
100
AcDbEntity
  8
1
  6
Continuous
 62
     7
100
AcDbLine
 10
565.9132179999999
 20
240.919283
 30
0.0
 11
565.9132179999999
 21
346.919279
 31
0.0
  0
LINE
  5
308
330
1E
100
AcDbEntity
  8
1
  6
Continuous
 62
     7
100
AcDbLine
 10
562.7832129999999
 20
240.919283
 30
0.0
 11
562.7832129999999
 21
346.919279
 31
0.0
  0
LINE
  5
309
330
1E
100
AcDbEntity
  8
1
  6
DIVIDE
 62
     7
100
AcDbLine
 10
543.395015
 20
347.519285
 30
0.0
 11
543.395015
 21
348.019285
 31
0.0
  0
LINE
  5
30A
330
1E
100
AcDbEntity
  8
1
  6
Continuous
 62
     7
100
AcDbLine
 10
558.89503
 20
348.9892709999999
 30
0.0
 11
557.7950239999999
 21
348.9892709999999
 31
0.0
  0
LINE
  5
30B
330
1E
100
AcDbEntity
  8
1
  6
Continuous
 62
     7
100
AcDbLine
 10
453.0432
 20
255.819281
 30
0.0
 11
459.0132019999999
 21
255.819281
 31
0.0
  0
LINE
  5
30C
330
1E
100
AcDbEntity
  8
1
  6
Continuous
 62
     7
100
AcDbLine
 10
556.313212
 20
255.319281
 30
0.0
 11
556.313212
 21
237.649881
 31
0.0
  0
LINE
  5
30D
330
1E
100
AcDbEntity
  8
1
  6
Continuous
 62
     7
100
AcDbLine
 10
510.3950150000001
 20
349.789274
 30
0.0
 11
556.295024
 21
349.789274
 31
0.0
  0
LINE
  5
30E
330
1E
100
AcDbEntity
  8
1
  6
DIVIDE
 62
     7
100
AcDbLine
 10
525.395015
 20
347.519285
 30
0.0
 11
525.395015
 21
348.019285
 31
0.0
  0
LINE
  5
30F
330
1E
100
AcDbEntity
  8
1
  6
Continuous
 62
     7
100
AcDbLine
 10
505.4132029999999
 20
242.249285
 30
0.0
 11
505.4132029999999
 21
237.0492839999999
 31
0.0
  0
LINE
  5
310
330
1E
100
AcDbEntity
  8
1
  6
Continuous
 62
     7
100
AcDbLine
 10
558.9132179999999
 20
350.789274
 30
0.0
 11
456.913203
 21
350.789274
 31
0.0
  0
LINE
  5
311
330
1E
100
AcDbEntity
  8
1
  6
Continuous
 62
     7
100
AcDbLine
 10
453.0432
 20
240.919283
 30
0.0
 11
453.0432
 21
346.919279
 31
0.0
  0
LINE
  5
312
330
1E
100
AcDbEntity
  8
1
  6
Continuous
 62
     7
100
AcDbLine
 10
456.913203
 20
348.9892709999999
 30
0.0
 11
458.0132019999999
 21
348.9892709999999
 31
0.0
  0
LINE
  5
313
330
1E
100
AcDbEntity
  8
1
  6
Continuous
 62
     7
100
AcDbLine
 10
454.8432029999999
 20
240.919283
 30
0.0
 11
454.8432029999999
 21
249.819277
 31
0.0
  0
LINE
  5
314
330
1E
100
AcDbEntity
  8
1
  6
Continuous
 62
     7
100
AcDbLine
 10
454.8432029999999
 20
338.019285
 30
0.0
 11
454.8432029999999
 21
346.919279
 31
0.0
  0
LINE
  5
315
330
1E
100
AcDbEntity
  8
1
  6
DIVIDE
 62
     7
100
AcDbLine
 10
475.4313989999999
 20
240.3192769999999
 30
0.0
 11
475.4313989999999
 21
239.819277
 31
0.0
  0
LINE
  5
316
330
1E
100
AcDbEntity
  8
1
  6
Continuous
 62
     7
100
AcDbLine
 10
458.0132019999999
 20
254.6192759999999
 30
0.0
 11
458.0132019999999
 21
237.579157
 31
0.0
  0
LINE
  5
317
330
1E
100
AcDbEntity
  8
1
  6
Continuous
 62
     7
100
AcDbLine
 10
510.413203
 20
345.5892769999999
 30
0.0
 11
505.4132029999999
 21
345.5892769999999
 31
0.0
  0
LINE
  5
318
330
1E
100
AcDbEntity
  8
1
  6
DIVIDE
 62
     7
100
AcDbLine
 10
472.4313989999999
 20
240.3192769999999
 30
0.0
 11
472.4313989999999
 21
239.819277
 31
0.0
  0
LINE
  5
319
330
1E
100
AcDbEntity
  8
1
  6
DIVIDE
 62
     7
100
AcDbLine
 10
479.431399
 20
240.3192769999999
 30
0.0
 11
479.431399
 21
239.819277
 31
0.0
  0
LINE
  5
31A
330
1E
100
AcDbEntity
  8
1
  6
Continuous
 62
     7
100
AcDbLine
 10
502.895015
 20
239.319277
 30
0.0
 11
502.895015
 21
238.0492839999999
 31
0.0
  0
LINE
  5
31B
330
1E
100
AcDbEntity
  8
1
  6
DIVIDE
 62
     7
100
AcDbLine
 10
476.4313989999999
 20
240.3192769999999
 30
0.0
 11
476.4313989999999
 21
239.819277
 31
0.0
  0
LINE
  5
31C
330
1E
100
AcDbEntity
  8
1
  6
DIVIDE
 62
     7
100
AcDbLine
 10
468.4313989999999
 20
240.3192769999999
 30
0.0
 11
468.4313989999999
 21
239.819277
 31
0.0
  0
LINE
  5
31D
330
1E
100
AcDbEntity
  8
1
  6
DIVIDE
 62
     7
100
AcDbLine
 10
479.431399
 20
347.519285
 30
0.0
 11
479.431399
 21
348.019285
 31
0.0
  0
LINE
  5
31E
330
1E
100
AcDbEntity
  8
1
  6
DIVIDE
 62
     7
100
AcDbLine
 10
472.4313989999999
 20
347.519285
 30
0.0
 11
472.4313989999999
 21
348.019285
 31
0.0
  0
LINE
  5
31F
330
1E
100
AcDbEntity
  8
1
  6
DIVIDE
 62
     7
100
AcDbLine
 10
475.4313989999999
 20
347.519285
 30
0.0
 11
475.4313989999999
 21
348.019285
 31
0.0
  0
LINE
  5
320
330
1E
100
AcDbEntity
  8
1
  6
DIVIDE
 62
     7
100
AcDbLine
 10
471.4313989999999
 20
347.519285
 30
0.0
 11
471.4313989999999
 21
348.019285
 31
0.0
  0
LINE
  5
321
330
1E
100
AcDbEntity
  8
1
  6
DIVIDE
 62
     7
100
AcDbLine
 10
493.431392
 20
347.519285
 30
0.0
 11
493.431392
 21
348.019285
 31
0.0
  0
LINE
  5
322
330
1E
100
AcDbEntity
  8
1
  6
DIVIDE
 62
     7
100
AcDbLine
 10
518.395015
 20
347.519285
 30
0.0
 11
518.395015
 21
348.019285
 31
0.0
  0
LINE
  5
323
330
1E
100
AcDbEntity
  8
1
  6
Continuous
 62
     7
100
AcDbLine
 10
548.895015
 20
348.519285
 30
0.0
 11
548.895015
 21
349.789274
 31
0.0
  0
LINE
  5
324
330
1E
100
AcDbEntity
  8
1
  6
Continuous
 62
     7
100
AcDbLine
 10
513.9313919999999
 20
348.019285
 30
0.0
 11
513.9313919999999
 21
349.789274
 31
0.0
  0
LINE
  5
325
330
1E
100
AcDbEntity
  8
1
  6
DIVIDE
 62
     7
100
AcDbLine
 10
494.4313919999999
 20
347.519285
 30
0.0
 11
494.4313919999999
 21
348.019285
 31
0.0
  0
LINE
  5
326
330
1E
100
AcDbEntity
  8
1
  6
Continuous
 62
     7
100
AcDbLine
 10
560.9650219999999
 20
296.419279
 30
0.0
 11
560.9650219999999
 21
332.019285
 31
0.0
  0
LINE
  5
327
330
1E
100
AcDbEntity
  8
1
  6
Continuous
 62
     7
100
AcDbLine
 10
559.38322
 20
252.819281
 30
0.0
 11
557.813212
 21
252.819281
 31
0.0
  0
LINE
  5
328
330
1E
100
AcDbEntity
  8
1
  6
Continuous
 62
     7
100
AcDbLine
 10
562.7832129999999
 20
254.819281
 30
0.0
 11
558.0132089999999
 21
254.819281
 31
0.0
  0
LINE
  5
329
330
1E
100
AcDbEntity
  8
1
  6
Continuous
 62
     7
100
AcDbLine
 10
562.7832129999999
 20
255.819281
 30
0.0
 11
556.813212
 21
255.819281
 31
0.0
  0
LINE
  5
32A
330
1E
100
AcDbEntity
  8
1
  6
Continuous
 62
     7
100
AcDbLine
 10
557.813212
 20
254.6192759999999
 30
0.0
 11
557.813212
 21
237.579157
 31
0.0
  0
LINE
  5
32B
330
1E
100
AcDbEntity
  8
1
  6
Continuous
 62
     7
100
AcDbLine
 10
560.9650219999999
 20
254.819281
 30
0.0
 11
560.9650219999999
 21
291.419279
 31
0.0
  0
LINE
  5
32C
330
1E
100
AcDbEntity
  8
1
  6
Continuous
 62
     7
100
AcDbLine
 10
515.4532119999999
 20
263.806295
 30
0.0
 11
515.4532119999999
 21
276.8192809999999
 31
0.0
  0
LINE
  5
32D
330
1E
100
AcDbEntity
  8
1
  6
Continuous
 62
     7
100
AcDbLine
 10
494.570628
 20
264.1192759999999
 30
0.0
 11
505.1131999999999
 21
264.1192759999999
 31
0.0
  0
LINE
  5
32E
330
1E
100
AcDbEntity
  8
1
  6
Continuous
 62
     7
100
AcDbLine
 10
476.413211
 20
262.3192809999999
 30
0.0
 11
476.413211
 21
262.8192809999999
 31
0.0
  0
LINE
  5
32F
330
1E
100
AcDbEntity
  8
1
  6
Continuous
 62
     7
100
AcDbLine
 10
477.913211
 20
262.3192809999999
 30
0.0
 11
477.913211
 21
262.8192809999999
 31
0.0
  0
LINE
  5
330
330
1E
100
AcDbEntity
  8
1
  6
Continuous
 62
     7
100
AcDbLine
 10
493.313212
 20
268.019278
 30
0.0
 11
493.313212
 21
266.6192759999999
 31
0.0
  0
LINE
  5
331
330
1E
100
AcDbEntity
  8
1
  6
Continuous
 62
     7
100
AcDbLine
 10
492.1132
 20
268.019278
 30
0.0
 11
492.1132
 21
266.6192759999999
 31
0.0
  0
LINE
  5
332
330
1E
100
AcDbEntity
  8
1
  6
Continuous
 62
     7
100
AcDbLine
 10
505.7132059999999
 20
270.219275
 30
0.0
 11
505.7132059999999
 21
264.7192749999999
 31
0.0
  0
LINE
  5
333
330
1E
100
AcDbEntity
  8
1
  6
Continuous
 62
     7
100
AcDbLine
 10
479.413211
 20
276.319281
 30
0.0
 11
479.413211
 21
275.819281
 31
0.0
  0
LINE
  5
334
330
1E
100
AcDbEntity
  8
1
  6
Continuous
 62
     7
100
AcDbLine
 10
539.60821
 20
264.3192809999999
 30
0.0
 11
538.808207
 21
264.3192809999999
 31
0.0
  0
LINE
  5
335
330
1E
100
AcDbEntity
  8
1
  6
Continuous
 62
     7
100
AcDbLine
 10
538.808207
 20
264.3192809999999
 30
0.0
 11
538.808207
 21
266.672064
 31
0.0
  0
LINE
  5
336
330
1E
100
AcDbEntity
  8
1
  6
Continuous
 62
     7
100
AcDbLine
 10
537.0032150000001
 20
261.319281
 30
0.0
 11
533.793208
 21
261.319281
 31
0.0
  0
LINE
  5
337
330
1E
100
AcDbEntity
  8
1
  6
Continuous
 62
     7
100
AcDbLine
 10
539.60821
 20
264.3192809999999
 30
0.0
 11
539.60821
 21
266.672064
 31
0.0
  0
LINE
  5
338
330
1E
100
AcDbEntity
  8
1
  6
Continuous
 62
     7
100
AcDbLine
 10
496.7132059999999
 20
268.019278
 30
0.0
 11
496.7132059999999
 21
266.6192759999999
 31
0.0
  0
LINE
  5
339
330
1E
100
AcDbEntity
  8
1
  6
Continuous
 62
     7
100
AcDbLine
 10
475.013209
 20
275.5692809999999
 30
0.0
 11
505.813212
 21
275.5692809999999
 31
0.0
  0
LINE
  5
33A
330
1E
100
AcDbEntity
  8
1
  6
Continuous
 62
     7
100
AcDbLine
 10
474.663211
 20
275.2192749999999
 30
0.0
 11
474.663211
 21
265.263441
 31
0.0
  0
LINE
  5
33B
330
1E
100
AcDbEntity
  8
1
  6
Continuous
 62
     7
100
AcDbLine
 10
540.813212
 20
270.8192809999999
 30
0.0
 11
537.603205
 21
270.8192809999999
 31
0.0
  0
LINE
  5
33C
330
1E
100
AcDbEntity
  8
1
  6
Continuous
 62
     7
100
AcDbLine
 10
538.808207
 20
267.5664879999999
 30
0.0
 11
538.808207
 21
269.919279
 31
0.0
  0
LINE
  5
33D
330
1E
100
AcDbEntity
  8
1
  6
Continuous
 62
     7
100
AcDbLine
 10
539.60821
 20
269.919279
 30
0.0
 11
538.808207
 21
269.919279
 31
0.0
  0
LINE
  5
33E
330
1E
100
AcDbEntity
  8
1
  6
Continuous
 62
     7
100
AcDbLine
 10
537.0032150000001
 20
261.319281
 30
0.0
 11
537.0032150000001
 21
270.8192809999999
 31
0.0
  0
LINE
  5
33F
330
1E
100
AcDbEntity
  8
1
  6
Continuous
 62
     7
100
AcDbLine
 10
537.0032150000001
 20
270.8192809999999
 30
0.0
 11
533.793208
 21
270.8192809999999
 31
0.0
  0
LINE
  5
340
330
1E
100
AcDbEntity
  8
1
  6
Continuous
 62
     7
100
AcDbLine
 10
539.60821
 20
267.5664879999999
 30
0.0
 11
539.60821
 21
269.919279
 31
0.0
  0
LINE
  5
341
330
1E
100
AcDbEntity
  8
1
  6
Continuous
 62
     7
100
AcDbLine
 10
491.1632029999999
 20
262.3192809999999
 30
0.0
 11
491.1632029999999
 21
262.8192809999999
 31
0.0
  0
LINE
  5
342
330
1E
100
AcDbEntity
  8
1
  6
Continuous
 62
     7
100
AcDbLine
 10
481.7132059999999
 20
268.5192779999999
 30
0.0
 11
481.7132059999999
 21
266.1192759999999
 31
0.0
  0
LINE
  5
343
330
1E
100
AcDbEntity
  8
1
  6
Continuous
 62
     7
100
AcDbLine
 10
489.663203
 20
262.3192809999999
 30
0.0
 11
489.663203
 21
262.8192809999999
 31
0.0
  0
LINE
  5
344
330
1E
100
AcDbEntity
  8
1
  6
Continuous
 62
     7
100
AcDbLine
 10
506.163203
 20
275.2192749999999
 30
0.0
 11
506.163203
 21
263.419279
 31
0.0
  0
LINE
  5
345
330
1E
100
AcDbEntity
  8
1
  6
Continuous
 62
     7
100
AcDbLine
 10
481.913203
 20
273.819281
 30
0.0
 11
481.913203
 21
271.419279
 31
0.0
  0
LINE
  5
346
330
1E
100
AcDbEntity
  8
1
  6
Continuous
 62
     7
100
AcDbLine
 10
474.913211
 20
273.819281
 30
0.0
 11
474.913211
 21
269.819281
 31
0.0
  0
LINE
  5
347
330
1E
100
AcDbEntity
  8
1
  6
Continuous
 62
     7
100
AcDbLine
 10
476.413211
 20
275.3192809999999
 30
0.0
 11
480.413211
 21
275.3192809999999
 31
0.0
  0
LINE
  5
348
330
1E
100
AcDbEntity
  8
1
  6
Continuous
 62
     7
100
AcDbLine
 10
484.9132029999999
 20
273.819281
 30
0.0
 11
484.9132029999999
 21
271.419279
 31
0.0
  0
LINE
  5
349
330
1E
100
AcDbEntity
  8
1
  6
Continuous
 62
     7
100
AcDbLine
 10
501.4132029999999
 20
276.319281
 30
0.0
 11
501.4132029999999
 21
275.819281
 31
0.0
  0
LINE
  5
34A
330
1E
100
AcDbEntity
  8
1
  6
Continuous
 62
     7
100
AcDbLine
 10
502.5132089999999
 20
270.8192809999999
 30
0.0
 11
505.1131999999999
 21
270.8192809999999
 31
0.0
  0
LINE
  5
34B
330
1E
100
AcDbEntity
  8
1
  6
Continuous
 62
     7
100
AcDbLine
 10
492.5132089999999
 20
270.8192809999999
 30
0.0
 11
494.313212
 21
270.8192809999999
 31
0.0
  0
LINE
  5
34C
330
1E
100
AcDbEntity
  8
1
  6
Continuous
 62
     7
100
AcDbLine
 10
503.7132059999999
 20
268.5192779999999
 30
0.0
 11
503.7132059999999
 21
266.1192759999999
 31
0.0
  0
LINE
  5
34D
330
1E
100
AcDbEntity
  8
1
  6
Continuous
 62
     7
100
AcDbLine
 10
499.913203
 20
276.319281
 30
0.0
 11
499.913203
 21
275.819281
 31
0.0
  0
LINE
  5
34E
330
1E
100
AcDbEntity
  8
1
  6
Continuous
 62
     7
100
AcDbLine
 10
541.4132030000001
 20
262.8192809999999
 30
0.0
 11
540.813212
 21
262.8192809999999
 31
0.0
  0
LINE
  5
34F
330
1E
100
AcDbEntity
  8
1
  6
Continuous
 62
     7
100
AcDbLine
 10
516.753215
 20
262.8192809999999
 30
0.0
 11
516.753215
 21
276.8192809999999
 31
0.0
  0
LINE
  5
350
330
1E
100
AcDbEntity
  8
1
  6
Continuous
 62
     7
100
AcDbLine
 10
540.813212
 20
261.319281
 30
0.0
 11
540.813212
 21
270.8192809999999
 31
0.0
  0
LINE
  5
351
330
1E
100
AcDbEntity
  8
1
  6
Continuous
 62
     7
100
AcDbLine
 10
518.5532019999999
 20
261.319281
 30
0.0
 11
518.5532019999999
 21
276.8192809999999
 31
0.0
  0
LINE
  5
352
330
1E
100
AcDbEntity
  8
1
  6
Continuous
 62
     7
100
AcDbLine
 10
522.3632
 20
261.319281
 30
0.0
 11
522.3632
 21
276.8192809999999
 31
0.0
  0
LINE
  5
353
330
1E
100
AcDbEntity
  8
1
  6
Continuous
 62
     7
100
AcDbLine
 10
526.173213
 20
261.319281
 30
0.0
 11
526.173213
 21
276.8192809999999
 31
0.0
  0
LINE
  5
354
330
1E
100
AcDbEntity
  8
1
  6
Continuous
 62
     7
100
AcDbLine
 10
541.4132030000001
 20
262.8192809999999
 30
0.0
 11
541.4132030000001
 21
276.8192809999999
 31
0.0
  0
LINE
  5
355
330
1E
100
AcDbEntity
  8
1
  6
Continuous
 62
     7
100
AcDbLine
 10
535.798213
 20
264.3192809999999
 30
0.0
 11
535.798213
 21
266.672064
 31
0.0
  0
LINE
  5
356
330
1E
100
AcDbEntity
  8
1
  6
Continuous
 62
     7
100
AcDbLine
 10
533.1932019999999
 20
261.319281
 30
0.0
 11
533.1932019999999
 21
270.8192809999999
 31
0.0
  0
LINE
  5
357
330
1E
100
AcDbEntity
  8
1
  6
Continuous
 62
     7
100
AcDbLine
 10
533.1932019999999
 20
261.319281
 30
0.0
 11
529.9832099999999
 21
261.319281
 31
0.0
  0
LINE
  5
358
330
1E
100
AcDbEntity
  8
1
  6
Continuous
 62
     7
100
AcDbLine
 10
531.1882119999999
 20
264.3192809999999
 30
0.0
 11
531.1882119999999
 21
266.672064
 31
0.0
  0
LINE
  5
359
330
1E
100
AcDbEntity
  8
1
  6
Continuous
 62
     7
100
AcDbLine
 10
527.378215
 20
264.3192809999999
 30
0.0
 11
527.378215
 21
266.672064
 31
0.0
  0
LINE
  5
35A
330
1E
100
AcDbEntity
  8
1
  6
Continuous
 62
     7
100
AcDbLine
 10
534.99821
 20
264.3192809999999
 30
0.0
 11
534.99821
 21
266.672064
 31
0.0
  0
LINE
  5
35B
330
1E
100
AcDbEntity
  8
1
  6
Continuous
 62
     7
100
AcDbLine
 10
474.413211
 20
275.819281
 30
0.0
 11
506.413203
 21
275.819281
 31
0.0
  0
LINE
  5
35C
330
1E
100
AcDbEntity
  8
1
  6
Continuous
 62
     7
100
AcDbLine
 10
506.413203
 20
275.819281
 30
0.0
 11
506.413203
 21
262.8192809999999
 31
0.0
  0
LINE
  5
35D
330
1E
100
AcDbEntity
  8
1
  6
Continuous
 62
     7
100
AcDbLine
 10
504.413203
 20
262.3192809999999
 30
0.0
 11
504.413203
 21
262.8192809999999
 31
0.0
  0
LINE
  5
35E
330
1E
100
AcDbEntity
  8
1
  6
Continuous
 62
     7
100
AcDbLine
 10
502.913203
 20
262.3192809999999
 30
0.0
 11
502.913203
 21
262.8192809999999
 31
0.0
  0
LINE
  5
35F
330
1E
100
AcDbEntity
  8
1
  6
Continuous
 62
     7
100
AcDbLine
 10
474.413211
 20
275.819281
 30
0.0
 11
474.413211
 21
262.8192809999999
 31
0.0
  0
LINE
  5
360
330
1E
100
AcDbEntity
  8
1
  6
Continuous
 62
     7
100
AcDbLine
 10
531.9881999999999
 20
269.919279
 30
0.0
 11
531.1882119999999
 21
269.919279
 31
0.0
  0
LINE
  5
361
330
1E
100
AcDbEntity
  8
1
  6
Continuous
 62
     7
100
AcDbLine
 10
531.9881999999999
 20
264.3192809999999
 30
0.0
 11
531.9881999999999
 21
266.672064
 31
0.0
  0
LINE
  5
362
330
1E
100
AcDbEntity
  8
1
  6
Continuous
 62
     7
100
AcDbLine
 10
527.378215
 20
267.5664879999999
 30
0.0
 11
527.378215
 21
269.919279
 31
0.0
  0
LINE
  5
363
330
1E
100
AcDbEntity
  8
1
  6
Continuous
 62
     7
100
AcDbLine
 10
520.558207
 20
269.919279
 30
0.0
 11
519.7582039999999
 21
269.919279
 31
0.0
  0
LINE
  5
364
330
1E
100
AcDbEntity
  8
1
  6
Continuous
 62
     7
100
AcDbLine
 10
528.1782019999999
 20
267.5664879999999
 30
0.0
 11
528.1782019999999
 21
269.919279
 31
0.0
  0
LINE
  5
365
330
1E
100
AcDbEntity
  8
1
  6
Continuous
 62
     7
100
AcDbLine
 10
531.9881999999999
 20
264.3192809999999
 30
0.0
 11
531.1882119999999
 21
264.3192809999999
 31
0.0
  0
LINE
  5
366
330
1E
100
AcDbEntity
  8
1
  6
Continuous
 62
     7
100
AcDbLine
 10
480.9132029999999
 20
276.319281
 30
0.0
 11
480.9132029999999
 21
275.819281
 31
0.0
  0
LINE
  5
367
330
1E
100
AcDbEntity
  8
1
  6
Continuous
 62
     7
100
AcDbLine
 10
503.5132089999999
 20
268.3192809999999
 30
0.0
 11
503.5132089999999
 21
266.3192809999999
 31
0.0
  0
LINE
  5
368
330
1E
100
AcDbEntity
  8
1
  6
Continuous
 62
     7
100
AcDbLine
 10
481.913203
 20
268.3192809999999
 30
0.0
 11
481.913203
 21
266.3192809999999
 31
0.0
  0
LINE
  5
369
330
1E
100
AcDbEntity
  8
1
  6
Continuous
 62
     7
100
AcDbLine
 10
535.798213
 20
267.5664879999999
 30
0.0
 11
535.798213
 21
269.919279
 31
0.0
  0
LINE
  5
36A
330
1E
100
AcDbEntity
  8
1
  6
Continuous
 62
     7
100
AcDbLine
 10
535.798213
 20
269.919279
 30
0.0
 11
534.99821
 21
269.919279
 31
0.0
  0
LINE
  5
36B
330
1E
100
AcDbEntity
  8
1
  6
Continuous
 62
     7
100
AcDbLine
 10
535.798213
 20
264.3192809999999
 30
0.0
 11
534.99821
 21
264.3192809999999
 31
0.0
  0
LINE
  5
36C
330
1E
100
AcDbEntity
  8
1
  6
Continuous
 62
     7
100
AcDbLine
 10
534.99821
 20
267.5664879999999
 30
0.0
 11
534.99821
 21
269.919279
 31
0.0
  0
LINE
  5
36D
330
1E
100
AcDbEntity
  8
1
  6
Continuous
 62
     7
100
AcDbLine
 10
528.1782019999999
 20
264.3192809999999
 30
0.0
 11
527.378215
 21
264.3192809999999
 31
0.0
  0
LINE
  5
36E
330
1E
100
AcDbEntity
  8
1
  6
Continuous
 62
     7
100
AcDbLine
 10
531.9881999999999
 20
267.5664879999999
 30
0.0
 11
531.9881999999999
 21
269.919279
 31
0.0
  0
LINE
  5
36F
330
1E
100
AcDbEntity
  8
1
  6
Continuous
 62
     7
100
AcDbLine
 10
516.753215
 20
275.3192809999999
 30
0.0
 11
541.4132030000001
 21
275.3192809999999
 31
0.0
  0
LINE
  5
370
330
1E
100
AcDbEntity
  8
1
  6
Continuous
 62
     7
100
AcDbLine
 10
528.1782019999999
 20
264.3192809999999
 30
0.0
 11
528.1782019999999
 21
266.672064
 31
0.0
  0
LINE
  5
371
330
1E
100
AcDbEntity
  8
1
  6
Continuous
 62
     7
100
AcDbLine
 10
516.753215
 20
276.8192809999999
 30
0.0
 11
541.4132030000001
 21
276.8192809999999
 31
0.0
  0
LINE
  5
372
330
1E
100
AcDbEntity
  8
1
  6
Continuous
 62
     7
100
AcDbLine
 10
526.173213
 20
262.8192809999999
 30
0.0
 11
525.573207
 21
262.8192809999999
 31
0.0
  0
LINE
  5
373
330
1E
100
AcDbEntity
  8
1
  6
Continuous
 62
     7
100
AcDbLine
 10
529.9832099999999
 20
262.8192809999999
 30
0.0
 11
529.3832039999999
 21
262.8192809999999
 31
0.0
  0
LINE
  5
374
330
1E
100
AcDbEntity
  8
1
  6
Continuous
 62
     7
100
AcDbLine
 10
522.3632
 20
262.8192809999999
 30
0.0
 11
521.7632089999999
 21
262.8192809999999
 31
0.0
  0
LINE
  5
375
330
1E
100
AcDbEntity
  8
1
  6
Continuous
 62
     7
100
AcDbLine
 10
486.413203
 20
275.3192809999999
 30
0.0
 11
490.413203
 21
275.3192809999999
 31
0.0
  0
LINE
  5
376
330
1E
100
AcDbEntity
  8
1
  6
Continuous
 62
     7
100
AcDbLine
 10
494.913203
 20
273.819281
 30
0.0
 11
494.913203
 21
271.419279
 31
0.0
  0
LINE
  5
377
330
1E
100
AcDbEntity
  8
1
  6
Continuous
 62
     7
100
AcDbLine
 10
496.413203
 20
275.3192809999999
 30
0.0
 11
500.413203
 21
275.3192809999999
 31
0.0
  0
LINE
  5
378
330
1E
100
AcDbEntity
  8
1
  6
Continuous
 62
     7
100
AcDbLine
 10
501.913203
 20
273.819281
 30
0.0
 11
501.913203
 21
271.419279
 31
0.0
  0
LINE
  5
379
330
1E
100
AcDbEntity
  8
1
  6
Continuous
 62
     7
100
AcDbLine
 10
482.5132089999999
 20
270.8192809999999
 30
0.0
 11
484.3132119999999
 21
270.8192809999999
 31
0.0
  0
LINE
  5
37A
330
1E
100
AcDbEntity
  8
1
  6
Continuous
 62
     7
100
AcDbLine
 10
491.913203
 20
273.819281
 30
0.0
 11
491.913203
 21
271.419279
 31
0.0
  0
LINE
  5
37B
330
1E
100
AcDbEntity
  8
1
  6
Continuous
 62
     7
100
AcDbLine
 10
529.9832099999999
 20
261.319281
 30
0.0
 11
529.9832099999999
 21
276.8192809999999
 31
0.0
  0
LINE
  5
37C
330
1E
100
AcDbEntity
  8
1
  6
Continuous
 62
     7
100
AcDbLine
 10
537.603205
 20
261.319281
 30
0.0
 11
537.603205
 21
276.8192809999999
 31
0.0
  0
LINE
  5
37D
330
1E
100
AcDbEntity
  8
1
  6
Continuous
 62
     7
100
AcDbLine
 10
540.813212
 20
261.319281
 30
0.0
 11
537.603205
 21
261.319281
 31
0.0
  0
LINE
  5
37E
330
1E
100
AcDbEntity
  8
1
  6
Continuous
 62
     7
100
AcDbLine
 10
531.1882119999999
 20
267.5664879999999
 30
0.0
 11
531.1882119999999
 21
269.919279
 31
0.0
  0
LINE
  5
37F
330
1E
100
AcDbEntity
  8
1
  6
Continuous
 62
     7
100
AcDbLine
 10
537.603205
 20
262.8192809999999
 30
0.0
 11
537.0032150000001
 21
262.8192809999999
 31
0.0
  0
LINE
  5
380
330
1E
100
AcDbEntity
  8
1
  6
Continuous
 62
     7
100
AcDbLine
 10
533.793208
 20
261.319281
 30
0.0
 11
533.793208
 21
276.8192809999999
 31
0.0
  0
LINE
  5
381
330
1E
100
AcDbEntity
  8
1
  6
Continuous
 62
     7
100
AcDbLine
 10
533.793208
 20
262.8192809999999
 30
0.0
 11
533.1932019999999
 21
262.8192809999999
 31
0.0
  0
LINE
  5
382
330
1E
100
AcDbEntity
  8
1
  6
Continuous
 62
     7
100
AcDbLine
 10
519.7582039999999
 20
264.3192809999999
 30
0.0
 11
519.7582039999999
 21
266.672064
 31
0.0
  0
LINE
  5
383
330
1E
100
AcDbEntity
  8
1
  6
Continuous
 62
     7
100
AcDbLine
 10
520.558207
 20
264.3192809999999
 30
0.0
 11
520.558207
 21
266.672064
 31
0.0
  0
LINE
  5
384
330
1E
100
AcDbEntity
  8
1
  6
Continuous
 62
     7
100
AcDbLine
 10
520.558207
 20
264.3192809999999
 30
0.0
 11
519.7582039999999
 21
264.3192809999999
 31
0.0
  0
LINE
  5
385
330
1E
100
AcDbEntity
  8
1
  6
Continuous
 62
     7
100
AcDbLine
 10
518.5532019999999
 20
262.8192809999999
 30
0.0
 11
516.753215
 21
262.8192809999999
 31
0.0
  0
LINE
  5
386
330
1E
100
AcDbEntity
  8
1
  6
Continuous
 62
     7
100
AcDbLine
 10
513.6522169999999
 20
265.8082939999999
 30
0.0
 11
514.453212
 21
265.8082939999999
 31
0.0
  0
LINE
  5
387
330
1E
100
AcDbEntity
  8
1
  6
Continuous
 62
     7
100
AcDbLine
 10
511.852961
 20
268.7925399999999
 30
0.0
 11
512.3534499999999
 21
268.7925399999999
 31
0.0
  0
LINE
  5
388
330
1E
100
AcDbEntity
  8
1
  6
Continuous
 62
     7
100
AcDbLine
 10
512.3534499999999
 20
266.7530419999999
 30
0.0
 11
512.3534499999999
 21
266.252539
 31
0.0
  0
LINE
  5
389
330
1E
100
AcDbEntity
  8
1
  6
Continuous
 62
     7
100
AcDbLine
 10
512.1532089999999
 20
264.607298
 30
0.0
 11
512.1532089999999
 21
263.806295
 31
0.0
  0
LINE
  5
38A
330
1E
100
AcDbEntity
  8
1
  6
Continuous
 62
     7
100
AcDbLine
 10
520.558207
 20
267.5664879999999
 30
0.0
 11
520.558207
 21
269.919279
 31
0.0
  0
LINE
  5
38B
330
1E
100
AcDbEntity
  8
1
  6
Continuous
 62
     7
100
AcDbLine
 10
529.3832039999999
 20
261.319281
 30
0.0
 11
526.173213
 21
261.319281
 31
0.0
  0
LINE
  5
38C
330
1E
100
AcDbEntity
  8
1
  6
Continuous
 62
     7
100
AcDbLine
 10
512.3534499999999
 20
269.293043
 30
0.0
 11
512.3534499999999
 21
268.7925399999999
 31
0.0
  0
LINE
  5
38D
330
1E
100
AcDbEntity
  8
1
  6
Continuous
 62
     7
100
AcDbLine
 10
513.6522169999999
 20
264.607298
 30
0.0
 11
513.6522169999999
 21
276.018286
 31
0.0
  0
LINE
  5
38E
330
1E
100
AcDbEntity
  8
1
  6
Continuous
 62
     7
100
AcDbLine
 10
509.503215
 20
276.018286
 30
0.0
 11
513.6522169999999
 21
276.018286
 31
0.0
  0
LINE
  5
38F
330
1E
100
AcDbEntity
  8
1
  6
Continuous
 62
     7
100
AcDbLine
 10
513.6522169999999
 20
267.009482
 30
0.0
 11
514.453212
 21
267.009482
 31
0.0
  0
LINE
  5
390
330
1E
100
AcDbEntity
  8
1
  6
Continuous
 62
     7
100
AcDbLine
 10
519.7582039999999
 20
267.5664879999999
 30
0.0
 11
519.7582039999999
 21
269.919279
 31
0.0
  0
LINE
  5
391
330
1E
100
AcDbEntity
  8
1
  6
Continuous
 62
     7
100
AcDbLine
 10
514.453212
 20
263.806295
 30
0.0
 11
514.453212
 21
276.8192809999999
 31
0.0
  0
LINE
  5
392
330
1E
100
AcDbEntity
  8
1
  6
Continuous
 62
     7
100
AcDbLine
 10
511.852961
 20
269.293043
 30
0.0
 11
512.3534499999999
 21
269.293043
 31
0.0
  0
LINE
  5
393
330
1E
100
AcDbEntity
  8
1
  6
Continuous
 62
     7
100
AcDbLine
 10
512.3534499999999
 20
274.373045
 30
0.0
 11
512.3534499999999
 21
273.872542
 31
0.0
  0
LINE
  5
394
330
1E
100
AcDbEntity
  8
1
  6
Continuous
 62
     7
100
AcDbLine
 10
511.852961
 20
269.293043
 30
0.0
 11
511.852961
 21
268.7925399999999
 31
0.0
  0
LINE
  5
395
330
1E
100
AcDbEntity
  8
1
  6
Continuous
 62
     7
100
AcDbLine
 10
521.7632089999999
 20
261.319281
 30
0.0
 11
518.5532019999999
 21
261.319281
 31
0.0
  0
LINE
  5
396
330
1E
100
AcDbEntity
  8
1
  6
Continuous
 62
     7
100
AcDbLine
 10
525.573207
 20
261.319281
 30
0.0
 11
525.573207
 21
270.8192809999999
 31
0.0
  0
LINE
  5
397
330
1E
100
AcDbEntity
  8
1
  6
Continuous
 62
     7
100
AcDbLine
 10
511.852961
 20
271.8330439999999
 30
0.0
 11
511.852961
 21
271.3325409999999
 31
0.0
  0
LINE
  5
398
330
1E
100
AcDbEntity
  8
1
  6
Continuous
 62
     7
100
AcDbLine
 10
511.852961
 20
266.7530419999999
 30
0.0
 11
511.852961
 21
266.252539
 31
0.0
  0
LINE
  5
399
330
1E
100
AcDbEntity
  8
1
  6
Continuous
 62
     7
100
AcDbLine
 10
513.6522169999999
 20
273.616095
 30
0.0
 11
514.453212
 21
273.616095
 31
0.0
  0
LINE
  5
39A
330
1E
100
AcDbEntity
  8
1
  6
Continuous
 62
     7
100
AcDbLine
 10
529.3832039999999
 20
261.319281
 30
0.0
 11
529.3832039999999
 21
270.8192809999999
 31
0.0
  0
LINE
  5
39B
330
1E
100
AcDbEntity
  8
1
  6
Continuous
 62
     7
100
AcDbLine
 10
521.7632089999999
 20
270.8192809999999
 30
0.0
 11
518.5532019999999
 21
270.8192809999999
 31
0.0
  0
LINE
  5
39C
330
1E
100
AcDbEntity
  8
1
  6
Continuous
 62
     7
100
AcDbLine
 10
509.503215
 20
264.607298
 30
0.0
 11
513.6522169999999
 21
264.607298
 31
0.0
  0
LINE
  5
39D
330
1E
100
AcDbEntity
  8
1
  6
Continuous
 62
     7
100
AcDbLine
 10
511.852961
 20
266.7530419999999
 30
0.0
 11
512.3534499999999
 21
266.7530419999999
 31
0.0
  0
LINE
  5
39E
330
1E
100
AcDbEntity
  8
1
  6
Continuous
 62
     7
100
AcDbLine
 10
513.353205
 20
276.8192809999999
 30
0.0
 11
513.353205
 21
276.018286
 31
0.0
  0
LINE
  5
39F
330
1E
100
AcDbEntity
  8
1
  6
Continuous
 62
     7
100
AcDbLine
 10
511.852961
 20
271.8330439999999
 30
0.0
 11
512.3534499999999
 21
271.8330439999999
 31
0.0
  0
LINE
  5
3A0
330
1E
100
AcDbEntity
  8
1
  6
Continuous
 62
     7
100
AcDbLine
 10
524.368205
 20
269.919279
 30
0.0
 11
523.5682019999999
 21
269.919279
 31
0.0
  0
LINE
  5
3A1
330
1E
100
AcDbEntity
  8
1
  6
Continuous
 62
     7
100
AcDbLine
 10
524.368205
 20
264.3192809999999
 30
0.0
 11
524.368205
 21
266.672064
 31
0.0
  0
LINE
  5
3A2
330
1E
100
AcDbEntity
  8
1
  6
Continuous
 62
     7
100
AcDbLine
 10
524.368205
 20
264.3192809999999
 30
0.0
 11
523.5682019999999
 21
264.3192809999999
 31
0.0
  0
LINE
  5
3A3
330
1E
100
AcDbEntity
  8
1
  6
Continuous
 62
     7
100
AcDbLine
 10
533.1932019999999
 20
270.8192809999999
 30
0.0
 11
529.9832099999999
 21
270.8192809999999
 31
0.0
  0
LINE
  5
3A4
330
1E
100
AcDbEntity
  8
1
  6
Continuous
 62
     7
100
AcDbLine
 10
523.5682019999999
 20
267.5664879999999
 30
0.0
 11
523.5682019999999
 21
269.919279
 31
0.0
  0
LINE
  5
3A5
330
1E
100
AcDbEntity
  8
1
  6
Continuous
 62
     7
100
AcDbLine
 10
511.852961
 20
274.373045
 30
0.0
 11
512.3534499999999
 21
274.373045
 31
0.0
  0
LINE
  5
3A6
330
1E
100
AcDbEntity
  8
1
  6
Continuous
 62
     7
100
AcDbLine
 10
511.852961
 20
273.872542
 30
0.0
 11
512.3534499999999
 21
273.872542
 31
0.0
  0
LINE
  5
3A7
330
1E
100
AcDbEntity
  8
1
  6
Continuous
 62
     7
100
AcDbLine
 10
512.1532089999999
 20
276.8192809999999
 30
0.0
 11
512.1532089999999
 21
276.018286
 31
0.0
  0
LINE
  5
3A8
330
1E
100
AcDbEntity
  8
1
  6
Continuous
 62
     7
100
AcDbLine
 10
508.7032119999999
 20
276.8192809999999
 30
0.0
 11
515.4532119999999
 21
276.8192809999999
 31
0.0
  0
LINE
  5
3A9
330
1E
100
AcDbEntity
  8
1
  6
Continuous
 62
     7
100
AcDbLine
 10
512.3534499999999
 20
271.8330439999999
 30
0.0
 11
512.3534499999999
 21
271.3325409999999
 31
0.0
  0
LINE
  5
3AA
330
1E
100
AcDbEntity
  8
1
  6
Continuous
 62
     7
100
AcDbLine
 10
513.6522169999999
 20
274.817297
 30
0.0
 11
514.453212
 21
274.817297
 31
0.0
  0
LINE
  5
3AB
330
1E
100
AcDbEntity
  8
1
  6
Continuous
 62
     7
100
AcDbLine
 10
511.852961
 20
274.373045
 30
0.0
 11
511.852961
 21
273.872542
 31
0.0
  0
LINE
  5
3AC
330
1E
100
AcDbEntity
  8
1
  6
Continuous
 62
     7
100
AcDbLine
 10
521.7632089999999
 20
261.319281
 30
0.0
 11
521.7632089999999
 21
270.8192809999999
 31
0.0
  0
LINE
  5
3AD
330
1E
100
AcDbEntity
  8
1
  6
Continuous
 62
     7
100
AcDbLine
 10
523.5682019999999
 20
264.3192809999999
 30
0.0
 11
523.5682019999999
 21
266.672064
 31
0.0
  0
LINE
  5
3AE
330
1E
100
AcDbEntity
  8
1
  6
Continuous
 62
     7
100
AcDbLine
 10
509.503215
 20
264.607298
 30
0.0
 11
509.503215
 21
276.018286
 31
0.0
  0
LINE
  5
3AF
330
1E
100
AcDbEntity
  8
1
  6
Continuous
 62
     7
100
AcDbLine
 10
513.353205
 20
264.607298
 30
0.0
 11
513.353205
 21
263.806295
 31
0.0
  0
LINE
  5
3B0
330
1E
100
AcDbEntity
  8
1
  6
Continuous
 62
     7
100
AcDbLine
 10
528.1782019999999
 20
269.919279
 30
0.0
 11
527.378215
 21
269.919279
 31
0.0
  0
LINE
  5
3B1
330
1E
100
AcDbEntity
  8
1
  6
Continuous
 62
     7
100
AcDbLine
 10
511.852961
 20
266.252539
 30
0.0
 11
512.3534499999999
 21
266.252539
 31
0.0
  0
LINE
  5
3B2
330
1E
100
AcDbEntity
  8
1
  6
Continuous
 62
     7
100
AcDbLine
 10
529.3832039999999
 20
270.8192809999999
 30
0.0
 11
526.173213
 21
270.8192809999999
 31
0.0
  0
LINE
  5
3B3
330
1E
100
AcDbEntity
  8
1
  6
Continuous
 62
     7
100
AcDbLine
 10
511.852961
 20
271.3325409999999
 30
0.0
 11
512.3534499999999
 21
271.3325409999999
 31
0.0
  0
LINE
  5
3B4
330
1E
100
AcDbEntity
  8
1
  6
Continuous
 62
     7
100
AcDbLine
 10
508.7032119999999
 20
263.806295
 30
0.0
 11
508.7032119999999
 21
276.8192809999999
 31
0.0
  0
LINE
  5
3B5
330
1E
100
AcDbEntity
  8
1
  6
Continuous
 62
     7
100
AcDbLine
 10
508.7032119999999
 20
263.806295
 30
0.0
 11
515.4532119999999
 21
263.806295
 31
0.0
  0
LINE
  5
3B6
330
1E
100
AcDbEntity
  8
1
  6
Continuous
 62
     7
100
AcDbLine
 10
514.453212
 20
263.806295
 30
0.0
 11
514.453212
 21
276.8192809999999
 31
0.0
  0
LINE
  5
3B7
330
1E
100
AcDbEntity
  8
1
  6
Continuous
 62
     7
100
AcDbLine
 10
507.503215
 20
262.3192809999999
 30
0.0
 11
507.503215
 21
263.306295
 31
0.0
  0
LINE
  5
3B8
330
1E
100
AcDbEntity
  8
1
  6
Continuous
 62
     7
100
AcDbLine
 10
525.573207
 20
270.8192809999999
 30
0.0
 11
522.3632
 21
270.8192809999999
 31
0.0
  0
LINE
  5
3B9
330
1E
100
AcDbEntity
  8
1
  6
Continuous
 62
     7
100
AcDbLine
 10
525.573207
 20
261.319281
 30
0.0
 11
522.3632
 21
261.319281
 31
0.0
  0
LINE
  5
3BA
330
1E
100
AcDbEntity
  8
1
  6
Continuous
 62
     7
100
AcDbLine
 10
524.368205
 20
267.5664879999999
 30
0.0
 11
524.368205
 21
269.919279
 31
0.0
  0
LINE
  5
3BB
330
1E
100
AcDbEntity
  8
1
  6
Continuous
 62
     7
100
AcDbLine
 10
507.503215
 20
263.306295
 30
0.0
 11
515.253215
 21
263.306295
 31
0.0
  0
LINE
  5
3BC
330
1E
100
AcDbEntity
  8
1
  6
Continuous
 62
     7
100
AcDbLine
 10
515.253215
 20
261.319281
 30
0.0
 11
515.253215
 21
263.306295
 31
0.0
  0
LINE
  5
3BD
330
1E
100
AcDbEntity
  8
1
  6
Continuous
 62
     7
100
AcDbLine
 10
507.503215
 20
277.3192809999999
 30
0.0
 11
541.913203
 21
277.3192809999999
 31
0.0
  0
LINE
  5
3BE
330
1E
100
AcDbEntity
  8
1
  6
Continuous
 62
     7
100
AcDbLine
 10
541.913203
 20
261.319281
 30
0.0
 11
541.913203
 21
277.3192809999999
 31
0.0
  0
LINE
  5
3BF
330
1E
100
AcDbEntity
  8
1
  6
Continuous
 62
     7
100
AcDbLine
 10
473.913211
 20
262.3192809999999
 30
0.0
 11
473.913211
 21
276.319281
 31
0.0
  0
LINE
  5
3C0
330
1E
100
AcDbEntity
  8
1
  6
Continuous
 62
     7
100
AcDbLine
 10
548.413203
 20
277.8192809999999
 30
0.0
 11
467.413211
 21
277.8192809999999
 31
0.0
  0
LINE
  5
3C1
330
1E
100
AcDbEntity
  8
1
  6
Continuous
 62
     7
100
AcDbLine
 10
507.503215
 20
276.319281
 30
0.0
 11
473.913211
 21
276.319281
 31
0.0
  0
LINE
  5
3C2
330
1E
100
AcDbEntity
  8
1
  6
Continuous
 62
     7
100
AcDbLine
 10
515.253215
 20
261.319281
 30
0.0
 11
541.913203
 21
261.319281
 31
0.0
  0
LINE
  5
3C3
330
1E
100
AcDbEntity
  8
1
  6
Continuous
 62
     7
100
AcDbLine
 10
473.913211
 20
262.3192809999999
 30
0.0
 11
473.913211
 21
276.319281
 31
0.0
  0
LINE
  5
3C4
330
1E
100
AcDbEntity
  8
1
  6
Continuous
 62
     7
100
AcDbLine
 10
465.413211
 20
324.919279
 30
0.0
 11
465.413211
 21
262.919279
 31
0.0
  0
LINE
  5
3C5
330
1E
100
AcDbEntity
  8
1
  6
Continuous
 62
     7
100
AcDbLine
 10
468.913211
 20
328.419279
 30
0.0
 11
546.913203
 21
328.419279
 31
0.0
  0
LINE
  5
3C6
330
1E
100
AcDbEntity
  8
1
  6
Continuous
 62
     7
100
AcDbLine
 10
550.413203
 20
262.919279
 30
0.0
 11
550.413203
 21
324.919279
 31
0.0
  0
LINE
  5
3C7
330
1E
100
AcDbEntity
  8
1
  6
Continuous
 62
     7
100
AcDbLine
 10
507.503215
 20
276.319281
 30
0.0
 11
507.503215
 21
277.3192809999999
 31
0.0
  0
LINE
  5
3C8
330
1E
100
AcDbEntity
  8
1
  6
Continuous
 62
     7
100
AcDbLine
 10
501.5132089999999
 20
276.319281
 30
0.0
 11
473.913211
 21
276.319281
 31
0.0
  0
LINE
  5
3C9
330
1E
100
AcDbEntity
  8
1
  6
Continuous
 62
     7
100
AcDbLine
 10
510.9222969999999
 20
338.819273
 30
0.0
 11
510.9222969999999
 21
334.819273
 31
0.0
  0
LINE
  5
3CA
330
1E
100
AcDbEntity
  8
1
  6
Continuous
 62
     7
100
AcDbLine
 10
504.9222969999999
 20
338.819273
 30
0.0
 11
504.9222969999999
 21
334.819273
 31
0.0
  0
LINE
  5
3CB
330
1E
100
AcDbEntity
  8
1
  6
Continuous
 62
     7
100
AcDbLine
 10
504.9222969999999
 20
334.819273
 30
0.0
 11
510.9222969999999
 21
334.819273
 31
0.0
  0
LINE
  5
3CC
330
1E
100
AcDbEntity
  8
1
  6
Continuous
 62
     7
100
AcDbLine
 10
468.913211
 20
334.819273
 30
0.0
 11
474.913211
 21
334.819273
 31
0.0
  0
LINE
  5
3CD
330
1E
100
AcDbEntity
  8
1
  6
Continuous
 62
     7
100
AcDbLine
 10
540.9132030000001
 20
334.819273
 30
0.0
 11
546.913203
 21
334.819273
 31
0.0
  0
LINE
  5
3CE
330
1E
100
AcDbEntity
  8
1
  6
Continuous
 62
     7
100
AcDbLine
 10
546.913203
 20
338.819273
 30
0.0
 11
540.9132030000001
 21
338.819273
 31
0.0
  0
LINE
  5
3CF
330
1E
100
AcDbEntity
  8
1
  6
Continuous
 62
     7
100
AcDbLine
 10
474.913211
 20
338.819273
 30
0.0
 11
468.913211
 21
338.819273
 31
0.0
  0
LINE
  5
3D0
330
1E
100
AcDbEntity
  8
1
  6
Continuous
 62
     7
100
AcDbLine
 10
474.913211
 20
334.819273
 30
0.0
 11
474.913211
 21
338.819273
 31
0.0
  0
LINE
  5
3D1
330
1E
100
AcDbEntity
  8
1
  6
Continuous
 62
     7
100
AcDbLine
 10
546.913203
 20
249.019278
 30
0.0
 11
540.9132030000001
 21
249.019278
 31
0.0
  0
LINE
  5
3D2
330
1E
100
AcDbEntity
  8
1
  6
Continuous
 62
     7
100
AcDbLine
 10
468.913211
 20
334.819273
 30
0.0
 11
468.913211
 21
338.819273
 31
0.0
  0
LINE
  5
3D3
330
1E
100
AcDbEntity
  8
1
  6
Continuous
 62
     7
100
AcDbLine
 10
540.9132030000001
 20
253.0192779999999
 30
0.0
 11
546.913203
 21
253.0192779999999
 31
0.0
  0
LINE
  5
3D4
330
1E
100
AcDbEntity
  8
1
  6
Continuous
 62
     7
100
AcDbLine
 10
540.9132030000001
 20
334.819273
 30
0.0
 11
540.9132030000001
 21
338.819273
 31
0.0
  0
LINE
  5
3D5
330
1E
100
AcDbEntity
  8
1
  6
Continuous
 62
     7
100
AcDbLine
 10
546.913203
 20
334.819273
 30
0.0
 11
546.913203
 21
338.819273
 31
0.0
  0
LINE
  5
3D6
330
1E
100
AcDbEntity
  8
1
  6
Continuous
 62
     7
100
AcDbLine
 10
474.913211
 20
336.319273
 30
0.0
 11
468.913211
 21
336.319273
 31
0.0
  0
LINE
  5
3D7
330
1E
100
AcDbEntity
  8
1
  6
Continuous
 62
     7
100
AcDbLine
 10
504.9132029999999
 20
253.0192779999999
 30
0.0
 11
504.9132029999999
 21
249.019278
 31
0.0
  0
LINE
  5
3D8
330
1E
100
AcDbEntity
  8
1
  6
Continuous
 62
     7
100
AcDbLine
 10
510.913203
 20
251.519278
 30
0.0
 11
504.9132029999999
 21
251.519278
 31
0.0
  0
LINE
  5
3D9
330
1E
100
AcDbEntity
  8
1
  6
Continuous
 62
     7
100
AcDbLine
 10
510.913203
 20
253.0192779999999
 30
0.0
 11
510.913203
 21
249.019278
 31
0.0
  0
LINE
  5
3DA
330
1E
100
AcDbEntity
  8
1
  6
Continuous
 62
     7
100
AcDbLine
 10
546.913203
 20
336.319273
 30
0.0
 11
540.9132030000001
 21
336.319273
 31
0.0
  0
LINE
  5
3DB
330
1E
100
AcDbEntity
  8
1
  6
Continuous
 62
     7
100
AcDbLine
 10
468.913211
 20
253.0192779999999
 30
0.0
 11
474.913211
 21
253.0192779999999
 31
0.0
  0
LINE
  5
3DC
330
1E
100
AcDbEntity
  8
1
  6
Continuous
 62
     7
100
AcDbLine
 10
474.913211
 20
249.019278
 30
0.0
 11
468.913211
 21
249.019278
 31
0.0
  0
LINE
  5
3DD
330
1E
100
AcDbEntity
  8
1
  6
Continuous
 62
     7
100
AcDbLine
 10
474.913211
 20
253.0192779999999
 30
0.0
 11
474.913211
 21
249.019278
 31
0.0
  0
LINE
  5
3DE
330
1E
100
AcDbEntity
  8
1
  6
Continuous
 62
     7
100
AcDbLine
 10
504.9132029999999
 20
253.0192779999999
 30
0.0
 11
510.913203
 21
253.0192779999999
 31
0.0
  0
LINE
  5
3DF
330
1E
100
AcDbEntity
  8
1
  6
Continuous
 62
     7
100
AcDbLine
 10
468.913211
 20
253.0192779999999
 30
0.0
 11
468.913211
 21
249.019278
 31
0.0
  0
LINE
  5
3E0
330
1E
100
AcDbEntity
  8
1
  6
Continuous
 62
     7
100
AcDbLine
 10
546.913203
 20
251.519278
 30
0.0
 11
540.9132030000001
 21
251.519278
 31
0.0
  0
LINE
  5
3E1
330
1E
100
AcDbEntity
  8
1
  6
Continuous
 62
     7
100
AcDbLine
 10
510.913203
 20
249.019278
 30
0.0
 11
504.9132029999999
 21
249.019278
 31
0.0
  0
LINE
  5
3E2
330
1E
100
AcDbEntity
  8
1
  6
Continuous
 62
     7
100
AcDbLine
 10
540.9132030000001
 20
253.0192779999999
 30
0.0
 11
540.9132030000001
 21
249.019278
 31
0.0
  0
LINE
  5
3E3
330
1E
100
AcDbEntity
  8
1
  6
Continuous
 62
     7
100
AcDbLine
 10
474.913211
 20
251.519278
 30
0.0
 11
468.913211
 21
251.519278
 31
0.0
  0
LINE
  5
3E4
330
1E
100
AcDbEntity
  8
1
  6
Continuous
 62
     7
100
AcDbLine
 10
510.9222969999999
 20
336.319273
 30
0.0
 11
504.9222969999999
 21
336.319273
 31
0.0
  0
LINE
  5
3E5
330
1E
100
AcDbEntity
  8
1
  6
Continuous
 62
     7
100
AcDbLine
 10
510.9222969999999
 20
338.819273
 30
0.0
 11
504.9222969999999
 21
338.819273
 31
0.0
  0
LINE
  5
3E6
330
1E
100
AcDbEntity
  8
1
  6
Continuous
 62
     7
100
AcDbLine
 10
546.913203
 20
253.0192779999999
 30
0.0
 11
546.913203
 21
249.019278
 31
0.0
  0
LINE
  5
3E7
330
1E
100
AcDbEntity
  8
1
  6
Continuous
 62
     7
100
AcDbLine
 10
463.1132079999999
 20
240.3192769999999
 30
0.0
 11
460.113208
 21
243.319277
 31
0.0
  0
LINE
  5
3E8
330
1E
100
AcDbEntity
  8
1
  6
Continuous
 62
     7
100
AcDbLine
 10
555.7132059999999
 20
243.319277
 30
0.0
 11
552.713206
 21
240.3192769999999
 31
0.0
  0
LINE
  5
3E9
330
1E
100
AcDbEntity
  8
1
  6
Continuous
 62
     7
100
AcDbLine
 10
552.713206
 20
347.519285
 30
0.0
 11
555.7132059999999
 21
344.519285
 31
0.0
  0
LINE
  5
3EA
330
1E
100
AcDbEntity
  8
1
  6
Continuous
 62
     7
100
AcDbLine
 10
555.7132059999999
 20
344.519285
 30
0.0
 11
555.7132059999999
 21
243.319277
 31
0.0
  0
LINE
  5
3EB
330
1E
100
AcDbEntity
  8
1
  6
Continuous
 62
     7
100
AcDbLine
 10
515.9132030000001
 20
347.519285
 30
0.0
 11
515.9132030000001
 21
344.519285
 31
0.0
  0
LINE
  5
3EC
330
1E
100
AcDbEntity
  8
1
  6
Continuous
 62
     7
100
AcDbLine
 10
499.913203
 20
347.519285
 30
0.0
 11
499.913203
 21
344.519285
 31
0.0
  0
LINE
  5
3ED
330
1E
100
AcDbEntity
  8
1
  6
Continuous
 62
     7
100
AcDbLine
 10
460.113208
 20
344.519285
 30
0.0
 11
460.113208
 21
243.319277
 31
0.0
  0
LINE
  5
3EE
330
1E
100
AcDbEntity
  8
1
  6
Continuous
 62
     7
100
AcDbLine
 10
499.913203
 20
347.519285
 30
0.0
 11
463.1132079999999
 21
347.519285
 31
0.0
  0
LINE
  5
3EF
330
1E
100
AcDbEntity
  8
1
  6
Continuous
 62
     7
100
AcDbLine
 10
552.713206
 20
240.3192769999999
 30
0.0
 11
515.9132030000001
 21
240.3192769999999
 31
0.0
  0
LINE
  5
3F0
330
1E
100
AcDbEntity
  8
1
  6
Continuous
 62
     7
100
AcDbLine
 10
499.913203
 20
240.3192769999999
 30
0.0
 11
499.913203
 21
243.319277
 31
0.0
  0
LINE
  5
3F1
330
1E
100
AcDbEntity
  8
1
  6
Continuous
 62
     7
100
AcDbLine
 10
515.9132030000001
 20
240.3192769999999
 30
0.0
 11
515.9132030000001
 21
243.319277
 31
0.0
  0
LINE
  5
3F2
330
1E
100
AcDbEntity
  8
1
  6
Continuous
 62
     7
100
AcDbLine
 10
515.9132030000001
 20
243.319277
 30
0.0
 11
499.913203
 21
243.319277
 31
0.0
  0
LINE
  5
3F3
330
1E
100
AcDbEntity
  8
1
  6
Continuous
 62
     7
100
AcDbLine
 10
515.9132030000001
 20
344.519285
 30
0.0
 11
499.913203
 21
344.519285
 31
0.0
  0
LINE
  5
3F4
330
1E
100
AcDbEntity
  8
1
  6
Continuous
 62
     7
100
AcDbLine
 10
552.713206
 20
347.519285
 30
0.0
 11
515.9132030000001
 21
347.519285
 31
0.0
  0
LINE
  5
3F5
330
1E
100
AcDbEntity
  8
1
  6
Continuous
 62
     7
100
AcDbLine
 10
463.1132079999999
 20
347.519285
 30
0.0
 11
460.113208
 21
344.519285
 31
0.0
  0
CIRCLE
  5
3F6
330
1E
100
AcDbEntity
  8
1
  6
Continuous
 62
     7
100
AcDbCircle
 10
544.1190699999999
 20
351.785337
 30
0.0
 40
0.019231
  0
CIRCLE
  5
3F7
330
1E
100
AcDbEntity
  8
1
  6
Continuous
 62
     7
100
AcDbCircle
 10
544.1190699999999
 20
351.785337
 30
0.0
 40
0.009615
  0
CIRCLE
  5
3F8
330
1E
100
AcDbEntity
  8
1
  6
Continuous
 62
     7
100
AcDbCircle
 10
526.4871009999999
 20
337.9972509999999
 30
0.0
 40
0.019231
  0
CIRCLE
  5
3F9
330
1E
100
AcDbEntity
  8
1
  6
Continuous
 62
     7
100
AcDbCircle
 10
526.4871009999999
 20
337.9972509999999
 30
0.0
 40
0.009615
  0
CIRCLE
  5
3FA
330
1E
100
AcDbEntity
  8
1
  6
Continuous
 62
     7
100
AcDbCircle
 10
535.252787
 20
333.165907
 30
0.0
 40
0.019231
  0
CIRCLE
  5
3FB
330
1E
100
AcDbEntity
  8
1
  6
Continuous
 62
     7
100
AcDbCircle
 10
535.252787
 20
333.165907
 30
0.0
 40
0.009615
  0
CIRCLE
  5
3FC
330
1E
100
AcDbEntity
  8
1
  6
Continuous
 62
     7
100
AcDbCircle
 10
527.4873
 20
334.881147
 30
0.0
 40
0.019231
  0
CIRCLE
  5
3FD
330
1E
100
AcDbEntity
  8
1
  6
Continuous
 62
     7
100
AcDbCircle
 10
527.4873
 20
334.881147
 30
0.0
 40
0.009615
  0
CIRCLE
  5
3FE
330
1E
100
AcDbEntity
  8
1
  6
Continuous
 62
     7
100
AcDbCircle
 10
529.4421949999999
 20
338.934324
 30
0.0
 40
0.019231
  0
CIRCLE
  5
3FF
330
1E
100
AcDbEntity
  8
1
  6
Continuous
 62
     7
100
AcDbCircle
 10
529.4421949999999
 20
338.934324
 30
0.0
 40
0.009615
  0
CIRCLE
  5
400
330
1E
100
AcDbEntity
  8
1
  6
Continuous
 62
     7
100
AcDbCircle
 10
534.268504
 20
332.229643
 30
0.0
 40
0.019231
  0
CIRCLE
  5
401
330
1E
100
AcDbEntity
  8
1
  6
Continuous
 62
     7
100
AcDbCircle
 10
534.268504
 20
332.229643
 30
0.0
 40
0.009615
  0
CIRCLE
  5
402
330
1E
100
AcDbEntity
  8
1
  6
Continuous
 62
     7
100
AcDbCircle
 10
527.2938339999999
 20
338.83682
 30
0.0
 40
0.019231
  0
CIRCLE
  5
403
330
1E
100
AcDbEntity
  8
1
  6
Continuous
 62
     7
100
AcDbCircle
 10
527.2938339999999
 20
338.83682
 30
0.0
 40
0.009615
  0
DIMENSION
  5
404
330
1E
100
AcDbEntity
  8
1
  6
Continuous
 62
     7
100
AcDbDimension
  2
*D0
 10
133.4535999999999
 20
374.06591
 30
0.0
 11
191.4536
 21
375.06591
 31
0.0
  1
116
 71
     5
 42
-1.0
100
AcDbAlignedDimension
 13
133.4535999999999
 23
350.89461
 33
0.0
 14
249.4536
 24
350.89461
 34
0.0
100
AcDbRotatedDimension
  0
DIMENSION
  5
405
330
1E
100
AcDbEntity
  8
1
  6
Continuous
 62
     7
100
AcDbDimension
  2
*D1
 10
269.0324219999999
 20
353.894609
 30
0.0
 11
268.032422
 21
293.8946089999999
 31
0.0
  1
120
 71
     5
 42
-1.0
100
AcDbAlignedDimension
 13
246.4535999999999
 23
353.8946099999999
 33
0.0
 14
246.4535999999999
 24
233.89461
 34
0.0
 50
270.0
100
AcDbRotatedDimension
  0
DIMENSION
  5
406
330
1E
100
AcDbEntity
  8
1
  6
Continuous
 62
     7
100
AcDbDimension
  2
*D2
 10
329.7536
 20
374.06591
 30
0.0
 11
318.3310349999999
 21
375.06591
 31
0.0
  1
8.8
 71
     5
 42
-1.0
100
AcDbAlignedDimension
 13
329.7536
 23
357.89461
 33
0.0
 14
338.4536
 24
357.8946189999999
 34
0.0
100
AcDbRotatedDimension
  0
DIMENSION
  5
407
330
1E
100
AcDbEntity
  8
1
  6
Continuous
 62
     7
100
AcDbDimension
  2
*D3
 10
400.444765
 20
328.39461
 30
0.0
 11
399.444765
 21
293.8946099999999
 31
0.0
  1
69
 71
     5
 42
-1.0
100
AcDbAlignedDimension
 13
372.4536
 23
328.39461
 33
0.0
 14
358.4535999999999
 24
259.39461
 34
0.0
 50
270.0
100
AcDbRotatedDimension
  0
DIMENSION
  5
408
330
1E
100
AcDbEntity
  8
1
  6
Continuous
 62
     7
100
AcDbDimension
  2
*D4
 10
338.4536
 20
374.06591
 30
0.0
 11
353.4536
 21
375.06591
 31
0.0
  1
30
 71
     5
 42
-1.0
100
AcDbAlignedDimension
 13
338.4536
 23
357.89461
 33
0.0
 14
368.4536
 24
329.9276649999999
 34
0.0
100
AcDbRotatedDimension
  0
LINE
  5
409
330
1E
100
AcDbEntity
  8
1
  6
DASHDOT
 62
     7
100
AcDbLine
 10
507.913211
 20
324.3481
 30
0.0
 11
507.913211
 21
219.046886
 31
0.0
  0
LINE
  5
40A
330
1E
100
AcDbEntity
  8
1
  6
DASHDOT
 62
     7
100
AcDbLine
 10
507.913211
 20
360.5658859999999
 30
0.0
 11
507.913211
 21
324.3911
 31
0.0
  0
TEXT
  5
40B
330
1E
100
AcDbEntity
  8
15
  6
Continuous
 62
    96
100
AcDbText
 10
679.441009
 20
265.145096
 30
0.0
 40
6.0
  1
ＪＥＭ－Ａ標準コネクタにて出力
 41
0.944444
  7
KANJI
100
AcDbText
  0
TEXT
  5
40C
330
1E
100
AcDbEntity
  8
15
  6
Continuous
 62
    96
100
AcDbText
 10
646.4410019999998
 20
251.6450959999999
 30
0.0
 40
6.0
  1
※設定にてメイク／ブレイクの切り換え可能
 41
0.944444
  7
KANJI
100
AcDbText
  0
DIMENSION
  5
40D
330
1E
100
AcDbEntity
  8
1
  6
Continuous
 62
     7
100
AcDbDimension
  2
*D5
 10
484.921073
 20
374.0969
 30
0.0
 11
507.921266
 21
375.0968999999999
 31
0.0
  1
46
 71
     5
 42
-1.0
100
AcDbAlignedDimension
 13
484.921073
 23
339.619828
 33
0.0
 14
530.921459
 24
339.622147
 34
0.0
100
AcDbRotatedDimension
  0
DIMENSION
  5
40E
330
1E
100
AcDbEntity
  8
1
  6
Continuous
 62
     7
100
AcDbDimension
  2
*D6
 10
585.9132179999999
 20
335.622147
 30
0.0
 11
584.9132179999998
 21
293.880166
 31
0.0
  1
83.5
 71
     5
 42
-1.0
100
AcDbAlignedDimension
 13
534.921459
 23
335.622147
 33
0.0
 14
534.913211
 24
252.1381859999999
 34
0.0
 50
270.0
100
AcDbRotatedDimension
  0
LINE
  5
40F
330
1E
100
AcDbEntity
  8
1
  6
DASHDOT
 62
     7
100
AcDbLine
 10
440.982091
 20
293.857186
 30
0.0
 11
574.1109629999999
 21
293.857186
 31
0.0
  0
ARC
  5
410
330
1E
100
AcDbEntity
  8
1
  6
DASHDOT
 62
     7
100
AcDbCircle
 10
507.913211
 20
293.857186
 30
0.0
 40
47.675469
100
AcDbArc
 50
50.645513
 51
71.39000300000001
  0
LINE
  5
411
330
1E
100
AcDbEntity
  8
1
  6
DASHDOT
 62
     7
100
AcDbLine
 10
533.448424
 20
340.241614
 30
0.0
 11
528.269911
 21
330.834903
 31
0.0
  0
ARC
  5
412
330
1E
100
AcDbEntity
  8
1
  6
DASHDOT
 62
     7
100
AcDbCircle
 10
507.982478
 20
293.8572299999999
 30
0.0
 40
47.675469
100
AcDbArc
 50
108.682897
 51
129.427386
  0
LINE
  5
413
330
1E
100
AcDbEntity
  8
1
  6
DASHDOT
 62
     7
100
AcDbLine
 10
482.388269
 20
340.209132
 30
0.0
 11
487.5787469999999
 21
330.8090169999999
 31
0.0
  0
ARC
  5
414
330
1E
100
AcDbEntity
  8
1
  6
DASHDOT
 62
     7
100
AcDbCircle
 10
507.913211
 20
293.9324099999999
 30
0.0
 40
47.675469
100
AcDbArc
 50
288.6099969999999
 51
309.354487
  0
LINE
  5
415
330
1E
100
AcDbEntity
  8
1
  6
DASHDOT
 62
     7
100
AcDbLine
 10
533.448424
 20
247.5479819999999
 30
0.0
 11
528.269911
 21
256.954693
 31
0.0
  0
TEXT
  5
416
330
1E
100
AcDbEntity
  8
15
  6
Continuous
 62
    96
100
AcDbText
 10
672.727081
 20
392.645096
 30
0.0
 40
6.0
  1
瞬時（0.2秒以上）メイク時一回解錠
 41
0.800971
  7
KANJI
100
AcDbText
  0
TEXT
  5
417
330
1E
100
AcDbEntity
  8
15
  6
Continuous
 62
    96
100
AcDbText
 10
672.727081
 20
381.645096
 30
0.0
 40
6.0
  1
瞬時（0.2秒以上）メイク時連続解錠
 41
0.800971
  7
KANJI
100
AcDbText
  0
TEXT
  5
418
330
1E
100
AcDbEntity
  8
15
  6
DIVIDE
 62
    96
100
AcDbText
 10
622.9123019999999
 20
295.80899
 30
0.0
 40
6.0
  1
ﾎｰﾙﾄﾞｱｯﾌﾟ出力※
 41
0.5952380000000001
  7
KANJI
100
AcDbText
  0
TEXT
  5
419
330
1E
100
AcDbEntity
  8
15
  6
Continuous
 62
    96
100
AcDbText
 10
624.2270809999999
 20
359.512096
 30
0.0
 40
6.0
  1
ﾃﾝｷｰ停止入力※
 41
0.7
  7
KANJI
100
AcDbText
  0
LINE
  5
41A
330
1E
100
AcDbEntity
  8
1
  6
Continuous
 62
     7
100
AcDbLine
 10
645.173997
 20
511.1450959999999
 30
0.0
 11
645.173997
 21
478.1450959999999
 31
0.0
  0
LINE
  5
41B
330
1E
100
AcDbEntity
  8
15
  6
Continuous
 62
    96
100
AcDbLine
 10
645.173997
 20
500.145096
 30
0.0
 11
800.4347019999999
 21
500.145096
 31
0.0
  0
LINE
  5
41C
330
1E
100
AcDbEntity
  8
15
  6
Continuous
 62
    96
100
AcDbLine
 10
645.173997
 20
489.145096
 30
0.0
 11
800.2410019999999
 21
489.145096
 31
0.0
  0
TEXT
  5
41D
330
1E
100
AcDbEntity
  8
15
  6
DIVIDE
 62
    96
100
AcDbText
 10
648.6394019999998
 20
502.257596
 30
0.0
 40
6.0
  1
本　体
 41
0.833333
  7
KANJI
100
AcDbText
  0
TEXT
  5
41E
330
1E
100
AcDbEntity
  8
15
  6
DIVIDE
 62
    96
100
AcDbText
 10
623.3905019999999
 20
491.6026959999999
 30
0.0
 40
6.0
  1
彩　色
 41
0.833333
  7
KANJI
100
AcDbText
  0
TEXT
  5
41F
330
1E
100
AcDbEntity
  8
15
  6
DIVIDE
 62
    96
100
AcDbText
 10
649.1560019999999
 20
491.2575959999999
 30
0.0
 40
6.0
  1
パネル
 41
0.833333
  7
KANJI
100
AcDbText
  0
TEXT
  5
420
330
1E
100
AcDbEntity
  8
15
  6
DIVIDE
 62
    96
100
AcDbText
 10
649.220502
 20
480.257696
 30
0.0
 40
6.0
  1
文　字
 41
0.833333
  7
KANJI
100
AcDbText
  0
TEXT
  5
421
330
1E
100
AcDbEntity
  8
15
  6
DIVIDE
 62
    96
100
AcDbText
 10
726.2410019999999
 20
502.645096
 30
0.0
 40
6.0
  1
白　色
 41
0.833333
  7
KANJI
100
AcDbText
  0
TEXT
  5
422
330
1E
100
AcDbEntity
  8
15
  6
DIVIDE
 62
    96
100
AcDbText
 10
726.2410019999999
 20
480.645096
 30
0.0
 40
6.0
  1
黒　色
 41
0.833333
  7
KANJI
100
AcDbText
  0
TEXT
  5
423
330
1E
100
AcDbEntity
  8
15
  6
Continuous
 62
    96
100
AcDbText
 10
700.741002
 20
458.645096
 30
0.0
 40
6.0
  1
AC100Ｖ±10％　50／60Hz
 41
0.605263
  7
KANJI
100
AcDbText
  0
CIRCLE
  5
424
330
1E
100
AcDbEntity
  8
1
  6
Continuous
 62
     7
100
AcDbCircle
 10
498.413203
 20
271.819281
 30
0.0
 40
1.199999999999999
  0
LINE
  5
425
330
1E
100
AcDbEntity
  8
1
  6
Continuous
 62
     7
100
AcDbLine
 10
486.836467
 20
268.5192779999999
 30
0.0
 11
489.613203
 21
268.5192779999999
 31
0.0
  0
LINE
  5
426
330
1E
100
AcDbEntity
  8
1
  6
Continuous
 62
     7
100
AcDbLine
 10
486.5277999999999
 20
268.5192779999999
 30
0.0
 11
489.8431
 21
268.5192779999999
 31
0.0
  0
LINE
  5
427
330
1E
100
AcDbEntity
  8
1
  6
Continuous
 62
     7
100
AcDbLine
 10
486.4501999999999
 20
268.3192809999999
 30
0.0
 11
489.9594
 21
268.3192809999999
 31
0.0
  0
LINE
  5
428
330
1E
100
AcDbEntity
  8
1
  6
Continuous
 62
     7
100
AcDbLine
 10
485.665
 20
266.1192759999999
 30
0.0
 11
489.8090999999999
 21
266.1192759999999
 31
0.0
  0
LINE
  5
429
330
1E
100
AcDbEntity
  8
1
  6
Continuous
 62
     7
100
AcDbLine
 10
486.014
 20
266.3192809999999
 30
0.0
 11
489.6637
 21
266.3192809999999
 31
0.0
  0
LINE
  5
42A
330
1E
100
AcDbEntity
  8
1
  6
Continuous
 62
     7
100
AcDbLine
 10
478.2257
 20
262.3192809999999
 30
0.0
 11
481.3082999999999
 21
262.3192809999999
 31
0.0
  0
LINE
  5
42B
330
1E
100
AcDbEntity
  8
1
  6
Continuous
 62
     7
100
AcDbLine
 10
478.2883959999999
 20
262.8192809999999
 30
0.0
 11
481.2307
 21
262.8192809999999
 31
0.0
  0
LINE
  5
42C
330
1E
100
AcDbEntity
  8
1
  6
Continuous
 62
     7
100
AcDbLine
 10
478.242601
 20
263.0692809999999
 30
0.0
 11
480.9926009999999
 21
263.0692809999999
 31
0.0
  0
LINE
  5
42D
330
1E
100
AcDbEntity
  8
1
  6
Continuous
 62
     7
100
AcDbLine
 10
485.496
 20
262.3192809999999
 30
0.0
 11
488.7531
 21
262.3192809999999
 31
0.0
  0
LINE
  5
42E
330
1E
100
AcDbEntity
  8
1
  6
Continuous
 62
     7
100
AcDbLine
 10
485.814329
 20
262.8192809999999
 30
0.0
 11
488.8888
 21
262.8192809999999
 31
0.0
  0
LINE
  5
42F
330
1E
100
AcDbEntity
  8
1
  6
Continuous
 62
     7
100
AcDbLine
 10
485.8591599999999
 20
263.0692809999999
 30
0.0
 11
488.7919
 21
263.0692809999999
 31
0.0
  0
LINE
  5
430
330
1E
100
AcDbEntity
  8
1
  6
Continuous
 62
     7
100
AcDbLine
 10
485.7479999999999
 20
264.1192759999999
 30
0.0
 11
488.9858
 21
264.1192759999999
 31
0.0
  0
LINE
  5
431
330
1E
100
AcDbEntity
  8
1
  6
Continuous
 62
     7
100
AcDbLine
 10
478.5314
 20
259.419279
 30
0.0
 11
488.9134
 21
259.419279
 31
0.0
  0
LINE
  5
432
330
1E
100
AcDbEntity
  8
1
  6
Continuous
 62
     7
100
AcDbLine
 10
480.2980999999999
 20
240.3192769999999
 30
0.0
 11
486.4341999999999
 21
240.3192769999999
 31
0.0
  0
LINE
  5
433
330
1E
100
AcDbEntity
  8
1
  6
Continuous
 62
     7
100
AcDbLine
 10
480.7017559999999
 20
239.819277
 30
0.0
 11
486.6378
 21
239.819277
 31
0.0
  0
LINE
  5
434
330
1E
100
AcDbEntity
  8
1
  6
Continuous
 62
     7
100
AcDbLine
 10
480.7017559999999
 20
238.8192769999999
 30
0.0
 11
486.6378
 21
238.8192769999999
 31
0.0
  0
LINE
  5
435
330
1E
100
AcDbEntity
  8
1
  6
Continuous
 62
     7
100
AcDbLine
 10
480.3562
 20
238.0492839999999
 30
0.0
 11
486.696
 21
238.0492839999999
 31
0.0
  0
LINE
  5
436
330
1E
100
AcDbEntity
  8
1
  6
Continuous
 62
     7
100
AcDbLine
 10
480.3562
 20
237.0492839999999
 30
0.0
 11
486.8122999999999
 21
237.0492839999999
 31
0.0
  0
LINE
  5
437
330
1E
100
AcDbEntity
  8
1
  6
Continuous
 62
     7
100
AcDbLine
 10
480.0944999999999
 20
233.919283
 30
0.0
 11
486.7831999999999
 21
233.919283
 31
0.0
  0
LINE
  5
438
330
1E
100
AcDbEntity
  8
1
  6
Continuous
 62
     7
100
AcDbLine
 10
487.297809
 20
243.419374
 30
0.0
 11
482.374108
 21
243.419385
 31
0.0
  0
LINE
  5
439
330
1E
100
AcDbEntity
  8
1
  6
Continuous
 62
     7
100
AcDbLine
 10
484.913211
 20
245.8502859999999
 30
0.0
 11
484.913211
 21
241.0888859999999
 31
0.0
  0
CIRCLE
  5
43A
330
1E
100
AcDbEntity
  8
1
  6
Continuous
 62
     7
100
AcDbCircle
 10
484.9132179999999
 20
243.419279
 30
0.0
 40
1.5
  0
ARC
  5
43B
330
1E
100
AcDbEntity
  8
1
  6
Continuous
 62
     7
100
AcDbCircle
 10
487.3688
 20
250.927382
 30
0.0
 40
2.25
100
AcDbArc
 50
244.0498899999999
 51
64.45286
  0
CIRCLE
  5
43C
330
1E
100
AcDbEntity
  8
1
  6
Continuous
 62
     7
100
AcDbCircle
 10
484.9132179999999
 20
243.419279
 30
0.0
 40
1.75
  0
ARC
  5
43D
330
1E
100
AcDbEntity
  8
1
  6
Continuous
 62
     7
100
AcDbCircle
 10
507.917994
 20
293.918745
 30
0.0
 40
49.899994
100
AcDbArc
 50
237.825101
 51
244.4710979999999
  0
ARC
  5
43E
330
1E
100
AcDbEntity
  8
1
  6
Continuous
 62
     7
100
AcDbCircle
 10
482.5441389999999
 20
253.586569
 30
0.0
 40
2.25
100
AcDbArc
 50
57.436498
 51
237.825109
  0
ARC
  5
43F
330
1E
100
AcDbEntity
  8
1
  6
Continuous
 62
     7
100
AcDbCircle
 10
507.917994
 20
293.918745
 30
0.0
 40
45.399994
100
AcDbArc
 50
237.805846
 51
244.452932
  0
ARC
  5
440
330
1E
100
AcDbEntity
  8
1
  6
DASHDOT
 62
     7
100
AcDbCircle
 10
507.913211
 20
293.9324099999999
 30
0.0
 40
47.675469
100
AcDbArc
 50
230.6455129999999
 51
251.390003
  0
LINE
  5
441
330
1E
100
AcDbEntity
  8
1
  6
DASHDOT
 62
     7
100
AcDbLine
 10
482.377997
 20
247.5479819999999
 30
0.0
 11
487.5565110000001
 21
256.954693
 31
0.0
  0
LINE
  5
442
330
1E
100
AcDbEntity
  8
1
  6
Continuous
 62
     7
100
AcDbLine
 10
477.280921
 20
268.3192809999999
 30
0.0
 11
478.8981289999999
 21
268.308632
 31
0.0
  0
ARC
  5
443
330
1E
100
AcDbEntity
  8
1
  6
Continuous
 62
     7
100
AcDbCircle
 10
478.893519
 20
267.608647
 30
0.0
 40
0.7
100
AcDbArc
 50
0.5978780000000001
 51
89.62271800000001
  0
LINE
  5
444
330
1E
100
AcDbEntity
  8
1
  6
Continuous
 62
     7
100
AcDbLine
 10
479.5934809999999
 20
267.615951
 30
0.0
 11
479.622754
 21
264.8107999999999
 31
0.0
  0
LINE
  5
445
330
1E
100
AcDbEntity
  8
1
  6
Continuous
 62
     7
100
AcDbLine
 10
480.324436
 20
264.118107
 30
0.0
 11
480.800266
 21
264.1192759999999
 31
0.0
  0
ARC
  5
446
330
1E
100
AcDbEntity
  8
1
  6
Continuous
 62
     7
100
AcDbCircle
 10
480.322716
 20
264.818105
 30
0.0
 40
0.7
100
AcDbArc
 50
180.5978779999999
 51
270.1408139999999
  0
LINE
  5
447
330
1E
100
AcDbEntity
  8
1
  6
Continuous
 62
     7
100
AcDbLine
 10
489.5078999999999
 20
266.6192759999999
 30
0.0
 11
488.6064
 21
266.6198
 31
0.0
  0
LINE
  5
448
330
1E
100
AcDbEntity
  8
1
  6
Continuous
 62
     7
100
AcDbLine
 10
489.4968059999999
 20
268.019278
 30
0.0
 11
488.6032
 21
268.0238
 31
0.0
  0
LINE
  5
449
330
1E
100
AcDbEntity
  8
1
  6
Continuous
 62
     7
100
AcDbLine
 10
488.6032
 20
268.0238
 30
0.0
 11
488.6064
 21
266.6198
 31
0.0
  0
CIRCLE
  5
44A
330
1E
100
AcDbEntity
  8
1
  6
Continuous
 62
     7
100
AcDbCircle
 10
488.3269
 20
271.8367999999999
 30
0.0
 40
2.0
  0
CIRCLE
  5
44B
330
1E
100
AcDbEntity
  8
1
  6
Continuous
 62
     7
100
AcDbCircle
 10
488.3269
 20
271.8367999999999
 30
0.0
 40
1.199999999999999
  0
CIRCLE
  5
44C
330
1E
100
AcDbEntity
  8
1
  6
Continuous
 62
     7
100
AcDbCircle
 10
478.3374999999999
 20
271.8367999999999
 30
0.0
 40
2.0
  0
CIRCLE
  5
44D
330
1E
100
AcDbEntity
  8
1
  6
Continuous
 62
     7
100
AcDbCircle
 10
478.3374999999999
 20
271.8367999999999
 30
0.0
 40
1.199999999999999
  0
TEXT
  5
44E
330
1E
100
AcDbEntity
  8
15
  6
Continuous
 62
    96
100
AcDbText
 10
712.5870579999999
 20
121.541683
 30
0.0
 40
6.0
  1
G19001-01-07918
 41
0.5
  7
KANJI
100
AcDbText
  0
TEXT
  5
44F
330
1E
100
AcDbEntity
  8
15
  6
Continuous
 62
    96
100
AcDbText
 10
654.5686809999999
 20
56.52665999999999
 30
0.0
 40
7.0
  1
G19001-01-08411
 41
0.5
  7
KANJI
100
AcDbText
  0
TEXT
  5
450
330
1E
100
AcDbEntity
  8
15
  6
Continuous
 62
    96
100
AcDbText
 10
728.811045
 20
56.887915
 30
0.0
 40
6.001769
  1
2008年04月11日
 41
0.6034480000000001
  7
KANJI
100
AcDbText
  0
TEXT
  5
451
330
1E
100
AcDbEntity
  8
15
  6
Continuous
 62
    96
100
AcDbText
 10
651.7410019999999
 20
348.645096
 30
0.0
 40
6.0
  1
外部出力　：接点容量　DC24Ｖ　0.3Ａ以下
 41
0.755814
  7
KANJI
100
AcDbText
  0
TEXT
  5
452
330
1E
100
AcDbEntity
  8
15
  6
Continuous
 62
    96
100
AcDbText
 10
651.734042
 20
403.645096
 30
0.0
 40
6.0
  1
外部入力　：接点容量　DC24Ｖ　0.1Ａ以上
 41
0.755814
  7
KANJI
100
AcDbText
  0
ENDSEC
  0
SECTION
  2
OBJECTS
  0
DICTIONARY
  5
C
330
0
100
AcDbDictionary
281
     1
  3
ACAD_GROUP
350
D
  3
ACAD_LAYOUT
350
19
  3
ACAD_MLINESTYLE
350
16
  3
ACAD_PLOTSETTINGS
350
18
  3
ACAD_PLOTSTYLENAME
350
E
  3
AcDbVariableDictionary
350
456
  0
DICTIONARY
  5
D
102
{ACAD_REACTORS
330
C
102
}
330
C
100
AcDbDictionary
281
     1
  0
DICTIONARY
  5
19
102
{ACAD_REACTORS
330
C
102
}
330
C
100
AcDbDictionary
281
     1
  3
Model
350
21
  3
ﾚｲｱｳﾄ1
350
1D
  0
DICTIONARY
  5
16
102
{ACAD_REACTORS
330
C
102
}
330
C
100
AcDbDictionary
281
     1
  3
Standard
350
17
  0
DICTIONARY
  5
18
102
{ACAD_REACTORS
330
C
102
}
330
C
100
AcDbDictionary
281
     1
  0
ACDBDICTIONARYWDFLT
  5
E
102
{ACAD_REACTORS
330
C
102
}
330
C
100
AcDbDictionary
281
     1
  3
Normal
350
F
100
AcDbDictionaryWithDefault
340
F
  0
DICTIONARY
  5
456
102
{ACAD_REACTORS
330
C
102
}
330
C
100
AcDbDictionary
281
     1
  3
DIMASSOC
350
457
  0
LAYOUT
  5
21
102
{ACAD_REACTORS
330
19
102
}
330
19
100
AcDbPlotSettings
  1

  2
販売管理
  4

  6

 40
0.0
 41
0.0
 42
0.0
 43
0.0
 44
0.0
 45
0.0
 46
0.0
 47
0.0
 48
0.0
 49
0.0
140
0.0
141
0.0
142
1.0
143
1.0
 70
  1712
 72
     0
 73
     0
 74
     0
  7

 75
     0
147
1.0
148
0.0
149
0.0
100
AcDbLayout
  1
Model
 70
     1
 71
     0
 10
0.0
 20
0.0
 11
12.0
 21
9.0
 12
0.0
 22
0.0
 32
0.0
 14
0.0
 24
0.0
 34
0.0
 15
0.0
 25
0.0
 35
0.0
146
0.0
 13
0.0
 23
0.0
 33
0.0
 16
1.0
 26
0.0
 36
0.0
 17
0.0
 27
1.0
 37
0.0
 76
     0
330
1E
  0
LAYOUT
  5
1D
102
{ACAD_REACTORS
330
19
102
}
330
19
100
AcDbPlotSettings
  1

  2
販売管理
  4

  6

 40
0.0
 41
0.0
 42
0.0
 43
0.0
 44
0.0
 45
0.0
 46
0.0
 47
0.0
 48
0.0
 49
0.0
140
0.0
141
0.0
142
1.0
143
1.0
 70
   688
 72
     0
 73
     0
 74
     5
  7

 75
    16
147
1.0
148
0.0
149
0.0
100
AcDbLayout
  1
ﾚｲｱｳﾄ1
 70
     1
 71
     1
 10
0.0
 20
0.0
 11
12.0
 21
9.0
 12
0.0
 22
0.0
 32
0.0
 14
0.0
 24
0.0
 34
0.0
 15
420.0
 25
297.0
 35
0.0
146
0.0
 13
0.0
 23
0.0
 33
0.0
 16
1.0
 26
0.0
 36
0.0
 17
0.0
 27
1.0
 37
0.0
 76
     0
330
1A
  0
MLINESTYLE
  5
17
102
{ACAD_REACTORS
330
16
102
}
330
16
100
AcDbMlineStyle
  2
STANDARD
 70
     0
  3

 62
   256
 51
90.0
 52
90.0
 71
     2
 49
0.5
 62
   256
  6
BYLAYER
 49
-0.5
 62
   256
  6
BYLAYER
  0
ACDBPLACEHOLDER
  5
F
102
{ACAD_REACTORS
330
E
102
}
330
E
  0
DICTIONARYVAR
  5
457
102
{ACAD_REACTORS
330
456
102
}
330
456
100
DictionaryVariables
280
     0
  1
0
  0
ENDSEC
  0
EOF
