  0
SECTION
  2
HEADER
  9
$ACADVER
  1
AC1015
  9
$ACADMAINTVER
 70
     6
  9
$DWGCODEPAGE
  3
DOS932
  9
$INSBASE
 10
0.0
 20
0.0
 30
0.0
  9
$EXTMIN
 10
0.0
 20
0.0
 30
0.0
  9
$EXTMAX
 10
420.0
 20
297.0
 30
0.0
  9
$LIMMIN
 10
0.0
 20
0.0
  9
$LIMMAX
 10
420.0
 20
297.0
  9
$ORTHOMODE
 70
     0
  9
$REGENMODE
 70
     1
  9
$FILLMODE
 70
     1
  9
$QTEXTMODE
 70
     0
  9
$MIRRTEXT
 70
     1
  9
$LTSCALE
 40
0.25
  9
$ATTMODE
 70
     1
  9
$TEXTSIZE
 40
5.0
  9
$TRACEWID
 40
0.05
  9
$TEXTSTYLE
  7
Standard
  9
$CLAYER
  8
0
  9
$CELTYPE
  6
Continuous
  9
$CECOLOR
 62
   256
  9
$CELTSCALE
 40
1.0
  9
$DISPSILH
 70
     0
  9
$DIMSCALE
 40
1.0
  9
$DIMASZ
 40
4.0
  9
$DIMEXO
 40
2.0
  9
$DIMDLI
 40
10.0
  9
$DIMRND
 40
0.0
  9
$DIMDLE
 40
0.0
  9
$DIMEXE
 40
2.0
  9
$DIMTP
 40
0.0
  9
$DIMTM
 40
0.0
  9
$DIMTXT
 40
4.0
  9
$DIMCEN
 40
0.09
  9
$DIMTSZ
 40
0.0
  9
$DIMTOL
 70
     0
  9
$DIMLIM
 70
     0
  9
$DIMTIH
 70
     0
  9
$DIMTOH
 70
     0
  9
$DIMSE1
 70
     0
  9
$DIMSE2
 70
     0
  9
$DIMTAD
 70
     3
  9
$DIMZIN
 70
     0
  9
$DIMBLK
  1

  9
$DIMASO
 70
     1
  9
$DIMSHO
 70
     1
  9
$DIMPOST
  1

  9
$DIMAPOST
  1

  9
$DIMALT
 70
     0
  9
$DIMALTD
 70
     2
  9
$DIMALTF
 40
25.4
  9
$DIMLFAC
 40
1.0
  9
$DIMTOFL
 70
     1
  9
$DIMTVP
 40
0.7
  9
$DIMTIX
 70
     0
  9
$DIMSOXD
 70
     0
  9
$DIMSAH
 70
     0
  9
$DIMBLK1
  1

  9
$DIMBLK2
  1

  9
$DIMSTYLE
  2
Standard
  9
$DIMCLRD
 70
     0
  9
$DIMCLRE
 70
     0
  9
$DIMCLRT
 70
     0
  9
$DIMTFAC
 40
0.5
  9
$DIMGAP
 40
0.0
  9
$DIMJUST
 70
     0
  9
$DIMSD1
 70
     0
  9
$DIMSD2
 70
     0
  9
$DIMTOLJ
 70
     1
  9
$DIMTZIN
 70
     0
  9
$DIMALTZ
 70
     0
  9
$DIMALTTZ
 70
     0
  9
$DIMUPT
 70
     0
  9
$DIMDEC
 70
     2
  9
$DIMTDEC
 70
     4
  9
$DIMALTU
 70
     2
  9
$DIMALTTD
 70
     2
  9
$DIMTXSTY
  7
Standard
  9
$DIMAUNIT
 70
     0
  9
$DIMADEC
 70
     0
  9
$DIMALTRND
 40
0.0
  9
$DIMAZIN
 70
     0
  9
$DIMDSEP
 70
     0
  9
$DIMATFIT
 70
     3
  9
$DIMFRAC
 70
     0
  9
$DIMLDRBLK
  1

  9
$DIMLUNIT
 70
     2
  9
$DIMLWD
 70
     0
  9
$DIMLWE
 70
     0
  9
$DIMTMOVE
 70
     0
  9
$LUNITS
 70
     2
  9
$LUPREC
 70
     4
  9
$SKETCHINC
 40
0.1
  9
$FILLETRAD
 40
0.0
  9
$AUNITS
 70
     0
  9
$AUPREC
 70
     0
  9
$MENU
  1
acad
  9
$ELEVATION
 40
0.0
  9
$PELEVATION
 40
0.0
  9
$THICKNESS
 40
0.0
  9
$LIMCHECK
 70
     0
  9
$CHAMFERA
 40
0.0
  9
$CHAMFERB
 40
0.0
  9
$CHAMFERC
 40
0.0
  9
$CHAMFERD
 40
0.0
  9
$SKPOLY
 70
     0
  9
$TDCREATE
 40
2458365.497696759
  9
$TDUCREATE
 40
0.000000000
  9
$TDUPDATE
 40
2458365.497696759
  9
$TDUUPDATE
 40
0.000000000
  9
$TDINDWG
 40
0.0000000000
  9
$TDUSRTIMER
 40
0.0000000000
  9
$USRTIMER
 70
     1
  9
$ANGBASE
 50
0.0
  9
$ANGDIR
 70
     0
  9
$PDMODE
 70
     0
  9
$PDSIZE
 40
0.0
  9
$PLINEWID
 40
0.0
  9
$SPLFRAME
 70
     0
  9
$SPLINETYPE
 70
     6
  9
$SPLINESEGS
 70
     8
  9
$HANDSEED
  5
3CB
  9
$SURFTAB1
 70
     6
  9
$SURFTAB2
 70
     6
  9
$SURFTYPE
 70
     6
  9
$SURFU
 70
     6
  9
$SURFV
 70
     6
  9
$UCSBASE
  2

  9
$UCSNAME
  2

  9
$UCSORG
 10
0.0
 20
0.0
 30
0.0
  9
$UCSXDIR
 10
1.0
 20
0.0
 30
0.0
  9
$UCSYDIR
 10
0.0
 20
1.0
 30
0.0
  9
$UCSORTHOREF
  2

  9
$UCSORTHOVIEW
 70
     0
  9
$UCSORGTOP
 10
0.0
 20
0.0
 30
0.0
  9
$UCSORGBOTTOM
 10
0.0
 20
0.0
 30
0.0
  9
$UCSORGLEFT
 10
0.0
 20
0.0
 30
0.0
  9
$UCSORGRIGHT
 10
0.0
 20
0.0
 30
0.0
  9
$UCSORGFRONT
 10
0.0
 20
0.0
 30
0.0
  9
$UCSORGBACK
 10
0.0
 20
0.0
 30
0.0
  9
$PUCSBASE
  2

  9
$PUCSNAME
  2

  9
$PUCSORG
 10
0.0
 20
0.0
 30
0.0
  9
$PUCSXDIR
 10
1.0
 20
0.0
 30
0.0
  9
$PUCSYDIR
 10
0.0
 20
1.0
 30
0.0
  9
$PUCSORTHOREF
  2

  9
$PUCSORTHOVIEW
 70
     0
  9
$PUCSORGTOP
 10
0.0
 20
0.0
 30
0.0
  9
$PUCSORGBOTTOM
 10
0.0
 20
0.0
 30
0.0
  9
$PUCSORGLEFT
 10
0.0
 20
0.0
 30
0.0
  9
$PUCSORGRIGHT
 10
0.0
 20
0.0
 30
0.0
  9
$PUCSORGFRONT
 10
0.0
 20
0.0
 30
0.0
  9
$PUCSORGBACK
 10
0.0
 20
0.0
 30
0.0
  9
$USERI1
 70
     0
  9
$USERI2
 70
     0
  9
$USERI3
 70
     0
  9
$USERI4
 70
     0
  9
$USERI5
 70
     0
  9
$USERR1
 40
0.0
  9
$USERR2
 40
0.0
  9
$USERR3
 40
0.0
  9
$USERR4
 40
0.0
  9
$USERR5
 40
0.0
  9
$WORLDVIEW
 70
     1
  9
$SHADEDGE
 70
     3
  9
$SHADEDIF
 70
    70
  9
$TILEMODE
 70
     1
  9
$MAXACTVP
 70
    16
  9
$PINSBASE
 10
0.0
 20
0.0
 30
0.0
  9
$PLIMCHECK
 70
     0
  9
$PEXTMIN
 10
0.0
 20
0.0
 30
0.0
  9
$PEXTMAX
 10
420.0
 20
297.0
 30
0.0
  9
$PLIMMIN
 10
0.0
 20
0.0
  9
$PLIMMAX
 10
420.0
 20
297.0
  9
$UNITMODE
 70
     0
  9
$VISRETAIN
 70
     0
  9
$PLINEGEN
 70
     1
  9
$PSLTSCALE
 70
     0
  9
$TREEDEPTH
 70
  3020
  9
$CMLSTYLE
  2
Standard
  9
$CMLJUST
 70
     0
  9
$CMLSCALE
 40
1.0
  9
$PROXYGRAPHICS
 70
     0
  9
$MEASUREMENT
 70
     0
  9
$CELWEIGHT
370
     0
  9
$ENDCAPS
280
     0
  9
$JOINSTYLE
280
     0
  9
$LWDISPLAY
290
     0
  9
$INSUNITS
 70
     0
  9
$HYPERLINKBASE
  1

  9
$STYLESHEET
  1

  9
$XEDIT
290
     1
  9
$CEPSNTYPE
380
     0
  9
$PSTYLEMODE
290
     1
  9
$FINGERPRINTGUID
  2

  9
$VERSIONGUID
  2

  9
$EXTNAMES
290
     1
  9
$PSVPSCALE
 40
0.0
  0
ENDSEC
  0
SECTION
  2
CLASSES
  0
CLASS
  1
LWPOLYLINE
  2
AcDbPolyline
  3
AutoCAD 2000
 90
    32768
280
     0
281
     1
  0
CLASS
  1
IMAGE
  2
AcDbRasterImage
  3
ISM
 90
    32895
280
     0
281
     1
  0
CLASS
  1
OLE2FRAME
  2
AcDbOle2Frame
  3
AutoCAD 2000
 90
    32768
280
     0
281
     1
  0
CLASS
  1
HATCH
  2
AcDbHatch
  3
AutoCAD 2000
 90
    32768
280
     0
281
     1
  0
CLASS
  1
DICTIONARYVAR
  2
AcDbDictionaryVar
  3
AutoCAD 2000
 90
    32768
280
     0
281
     0
  0
CLASS
  1
RASTERVARIABLES
  2
AcDbRasterVariables
  3
ISM
 90
    32768
280
     0
281
     0
  0
CLASS
  1
IMAGEDEF
  2
AcDbRasterImageDef
  3
ISM
 90
    32768
280
     0
281
     0
  0
CLASS
  1
IMAGEDEF_REACTOR
  2
AcDbRasterImageDefReactor
  3
ISM
 90
    32769
280
     0
281
     0
  0
CLASS
  1
IDBUFFER
  2
AcDbIdBuffer
  3
AutoCAD 2000
 90
    32768
280
     0
281
     0
  0
CLASS
  1
SPATIAL_FILTER
  2
AcDbSpatialFilter
  3
AutoCAD 2000
 90
    32768
280
     0
281
     0
  0
CLASS
  1
XRECORD
  2
AcDbXrecord
  3
AutoCAD 2000
 90
    32768
280
     0
281
     0
  0
CLASS
  1
SORTENTSTABLE
  2
AcDbSortentsTable
  3
AutoCAD 2000
 90
    32768
280
     0
281
     0
  0
CLASS
  1
LAYER_INDEX
  2
AcDbLayerIndex
  3
AutoCAD 2000
 90
    32768
280
     0
281
     0
  0
CLASS
  1
SPATIAL_INDEX
  2
AcDbSpatialIndex
  3
AutoCAD 2000
 90
    32768
280
     0
281
     0
  0
CLASS
  1
OBJECT_PTR
  2
CAseDLPNTableRecord
  3
"ASE-LPNTableRecord"
 90
    32769
280
     0
281
     0
  0
CLASS
  1
LAYOUT
  2
AcDbLayout
  3
AutoCAD 2000
 90
        0
280
     0
281
     0
  0
CLASS
  1
PLOTSETTINGS
  2
AcDbPlotSettings
  3
AutoCAD 2000
 90
    32768
280
     0
281
     0
  0
CLASS
  1
ACDBDICTIONARYWDFLT
  2
AcDbDictionaryWithDefault
  3
AutoCAD 2000
 90
        0
280
     0
281
     0
  0
CLASS
  1
ACDBPLACEHOLDER
  2
AcDbPlaceHolder
  3
AutoCAD 2000
 90
        0
280
     0
281
     0
  0
CLASS
  1
VBA_PROJECT
  2
AcDbVbaProject
  3
acadvba
 90
    32768
280
     0
281
     0
  0
CLASS
  1
WIPEOUT
  2
AcDbWipeout
  3
WipeOut|AutoCAD Express Tool|expresstools@autodesk.com
 90
    32895
280
     0
281
     1
  0
CLASS
  1
WIPEOUTVARIABLES
  2
AcDbWipeoutVariables
  3
WipeOut|AutoCAD Express Tool|expresstools@autodesk.com
 90
        0
280
     0
281
     0
  0
CLASS
  1
RTEXT
  2
RText
  3
RText|AutoCAD Express Tool|expresstools@autodesk.com
 90
    32768
280
     0
281
     1
  0
CLASS
  1
ARCALIGNEDTEXT
  2
AcDbArcAlignedText
  3
ATEXT|AutoCAD Express Tool|expresstools@autodesk.com
 90
    32768
280
     0
281
     1
  0
ENDSEC
  0
SECTION
  2
TABLES
  0
TABLE
  2
VPORT
  5
7
100
AcDbSymbolTable
 70
     1
  0
VPORT
  5
15
100
AcDbSymbolTableRecord
100
AcDbViewportTableRecord
  2
*ACTIVE
 70
     0
 10
0.0
 20
0.0
 11
1.0
 21
1.0
 12
6.591288
 22
4.579184
 13
0.0
 23
0.0
 14
1.0
 24
1.0
 15
0.0
 25
0.0
 16
0.0
 26
0.0
 36
1.0
 17
0.0
 27
0.0
 37
0.0
 40
9.158369
 41
0.688564
 42
50.0
 43
0.0
 44
0.0
 50
0.0
 51
0.0
 71
     0
 72
   100
 73
     1
 74
     1
 75
     0
 76
     0
 77
     0
 78
     0
281
     0
 65
     0
110
0.0
120
0.0
130
0.0
111
1.0
121
0.0
131
0.0
112
0.0
122
1.0
132
0.0
345
0
346
0
 79
     0
146
0.0
  0
ENDTAB
  0
TABLE
  2
LTYPE
  5
4
100
AcDbSymbolTable
 70
     9
  0
LTYPE
  5
11
100
AcDbSymbolTableRecord
100
AcDbLinetypeTableRecord
  2
ByBlock
 70
    64
  3

 72
    65
 73
     0
 40
0.0
  0
LTYPE
  5
12
100
AcDbSymbolTableRecord
100
AcDbLinetypeTableRecord
  2
ByLayer
 70
    64
  3

 72
    65
 73
     0
 40
0.0
  0
LTYPE
  5
13
100
AcDbSymbolTableRecord
100
AcDbLinetypeTableRecord
  2
Continuous
 70
    64
  3
Solid line
 72
    65
 73
     0
 40
0.0
  0
LTYPE
  5
25
100
AcDbSymbolTableRecord
100
AcDbLinetypeTableRecord
  2
HIDDEN
 70
    64
  3
- - - - - - - - 
 72
    65
 73
     2
 40
12.6
 49
8.4
 74
     0
 49
-4.2
 74
     0
  0
LTYPE
  5
26
100
AcDbSymbolTableRecord
100
AcDbLinetypeTableRecord
  2
DOT
 70
    64
  3
･ ･ ･ ･ ･ ･ ･ ･ 
 72
    65
 73
     2
 40
8.0
 49
6.0
 74
     0
 49
-2.0
 74
     0
  0
LTYPE
  5
27
100
AcDbSymbolTableRecord
100
AcDbLinetypeTableRecord
  2
CENTER
 70
    64
  3
- ･ - ･ - ･ - ･ 
 72
    65
 73
     4
 40
50.5
 49
30.0
 74
     0
 49
-9.0
 74
     0
 49
2.5
 74
     0
 49
-9.0
 74
     0
  0
LTYPE
  5
28
100
AcDbSymbolTableRecord
100
AcDbLinetypeTableRecord
  2
PHANTOM
 70
    64
  3
- ･･ - ･･ - ･･ - ･･ 
 72
    65
 73
     6
 40
58.0
 49
30.0
 74
     0
 49
-9.0
 74
     0
 49
2.5
 74
     0
 49
-5.0
 74
     0
 49
2.5
 74
     0
 49
-9.0
 74
     0
  0
LTYPE
  5
29
100
AcDbSymbolTableRecord
100
AcDbLinetypeTableRecord
  2
ACAD_ISO06W100
 70
    64
  3
____ ... ____ ... ____
 72
    65
 73
     8
 40
37.5
 49
24.0
 74
     0
 49
-3.0
 74
     0
 49
0.5
 74
     0
 49
-3.0
 74
     0
 49
0.5
 74
     0
 49
-3.0
 74
     0
 49
0.5
 74
     0
 49
-3.0
 74
     0
  0
LTYPE
  5
2A
100
AcDbSymbolTableRecord
100
AcDbLinetypeTableRecord
  2
ACAD_ISO14W100
 70
    64
  3
__ . . . __ . . . __ . . . 
 72
    65
 73
     8
 40
25.5
 49
12.0
 74
     0
 49
-3.0
 74
     0
 49
0.5
 74
     0
 49
-3.0
 74
     0
 49
0.5
 74
     0
 49
-3.0
 74
     0
 49
0.5
 74
     0
 49
-3.0
 74
     0
  0
ENDTAB
  0
TABLE
  2
LAYER
  5
2
100
AcDbSymbolTable
 70
    32
  0
LAYER
  5
14
100
AcDbSymbolTableRecord
100
AcDbLayerTableRecord
  2
0
 70
     0
 62
     7
  6
Continuous
290
     1
370
    -3
390
1D
  0
LAYER
  5
2B
100
AcDbSymbolTableRecord
100
AcDbLayerTableRecord
  2
1
 70
     0
 62
     7
  6
Continuous
290
     1
370
    -3
390
1D
  0
LAYER
  5
2C
100
AcDbSymbolTableRecord
100
AcDbLayerTableRecord
  2
2
 70
     0
 62
   134
  6
Continuous
290
     1
370
    -3
390
1D
  0
LAYER
  5
2D
100
AcDbSymbolTableRecord
100
AcDbLayerTableRecord
  2
3
 70
     0
 62
   134
  6
Continuous
290
     1
370
    -3
390
1D
  0
LAYER
  5
2E
100
AcDbSymbolTableRecord
100
AcDbLayerTableRecord
  2
4
 70
     0
 62
     7
  6
Continuous
290
     1
370
    -3
390
1D
  0
LAYER
  5
2F
100
AcDbSymbolTableRecord
100
AcDbLayerTableRecord
  2
5
 70
     0
 62
    94
  6
Continuous
290
     1
370
    -3
390
1D
  0
LAYER
  5
30
100
AcDbSymbolTableRecord
100
AcDbLayerTableRecord
  2
6
 70
     0
 62
    14
  6
Continuous
290
     1
370
    -3
390
1D
  0
LAYER
  5
31
100
AcDbSymbolTableRecord
100
AcDbLayerTableRecord
  2
7
 70
     0
 62
     4
  6
Continuous
290
     1
370
    -3
390
1D
  0
LAYER
  5
32
100
AcDbSymbolTableRecord
100
AcDbLayerTableRecord
  2
8
 70
     0
 62
     6
  6
Continuous
290
     1
370
    -3
390
1D
  0
LAYER
  5
33
100
AcDbSymbolTableRecord
100
AcDbLayerTableRecord
  2
9
 70
     0
 62
     2
  6
Continuous
290
     1
370
    -3
390
1D
  0
LAYER
  5
34
100
AcDbSymbolTableRecord
100
AcDbLayerTableRecord
  2
10
 70
     0
 62
     3
  6
Continuous
290
     1
370
    -3
390
1D
  0
LAYER
  5
35
100
AcDbSymbolTableRecord
100
AcDbLayerTableRecord
  2
11
 70
     0
 62
   251
  6
Continuous
290
     1
370
    -3
390
1D
  0
LAYER
  5
36
100
AcDbSymbolTableRecord
100
AcDbLayerTableRecord
  2
12
 70
     0
 62
   136
  6
Continuous
290
     1
370
    -3
390
1D
  0
LAYER
  5
37
100
AcDbSymbolTableRecord
100
AcDbLayerTableRecord
  2
13
 70
     0
 62
   216
  6
Continuous
290
     1
370
    -3
390
1D
  0
LAYER
  5
38
100
AcDbSymbolTableRecord
100
AcDbLayerTableRecord
  2
14
 70
     0
 62
    56
  6
Continuous
290
     1
370
    -3
390
1D
  0
LAYER
  5
39
100
AcDbSymbolTableRecord
100
AcDbLayerTableRecord
  2
15
 70
     0
 62
    96
  6
Continuous
290
     1
370
    -3
390
1D
  0
LAYER
  5
3A
100
AcDbSymbolTableRecord
100
AcDbLayerTableRecord
  2
16
 70
     0
 62
    16
  6
Continuous
290
     1
370
    -3
390
1D
  0
LAYER
  5
3B
100
AcDbSymbolTableRecord
100
AcDbLayerTableRecord
  2
17
 70
     0
 62
   132
  6
Continuous
290
     1
370
    -3
390
1D
  0
LAYER
  5
3C
100
AcDbSymbolTableRecord
100
AcDbLayerTableRecord
  2
18
 70
     0
 62
   212
  6
Continuous
290
     1
370
    -3
390
1D
  0
LAYER
  5
3D
100
AcDbSymbolTableRecord
100
AcDbLayerTableRecord
  2
19
 70
     0
 62
    52
  6
Continuous
290
     1
370
    -3
390
1D
  0
LAYER
  5
3E
100
AcDbSymbolTableRecord
100
AcDbLayerTableRecord
  2
20
 70
     0
 62
   250
  6
Continuous
290
     1
370
    -3
390
1D
  0
LAYER
  5
3F
100
AcDbSymbolTableRecord
100
AcDbLayerTableRecord
  2
102
 70
     0
 62
     7
  6
Continuous
290
     1
370
    -3
390
1D
  0
LAYER
  5
40
100
AcDbSymbolTableRecord
100
AcDbLayerTableRecord
  2
103
 70
     0
 62
     7
  6
Continuous
290
     1
370
    -3
390
1D
  0
LAYER
  5
41
100
AcDbSymbolTableRecord
100
AcDbLayerTableRecord
  2
104
 70
     0
 62
     7
  6
Continuous
290
     1
370
    -3
390
1D
  0
LAYER
  5
42
100
AcDbSymbolTableRecord
100
AcDbLayerTableRecord
  2
105
 70
     0
 62
     7
  6
Continuous
290
     1
370
    -3
390
1D
  0
LAYER
  5
43
100
AcDbSymbolTableRecord
100
AcDbLayerTableRecord
  2
106
 70
     0
 62
     7
  6
Continuous
290
     1
370
    -3
390
1D
  0
LAYER
  5
44
100
AcDbSymbolTableRecord
100
AcDbLayerTableRecord
  2
128
 70
     0
 62
     7
  6
Continuous
290
     1
370
    -3
390
1D
  0
LAYER
  5
45
100
AcDbSymbolTableRecord
100
AcDbLayerTableRecord
  2
129
 70
     0
 62
     7
  6
Continuous
290
     1
370
    -3
390
1D
  0
LAYER
  5
46
100
AcDbSymbolTableRecord
100
AcDbLayerTableRecord
  2
130
 70
     0
 62
     7
  6
Continuous
290
     1
370
    -3
390
1D
  0
LAYER
  5
47
100
AcDbSymbolTableRecord
100
AcDbLayerTableRecord
  2
131
 70
     0
 62
     7
  6
Continuous
290
     1
370
    -3
390
1D
  0
LAYER
  5
48
100
AcDbSymbolTableRecord
100
AcDbLayerTableRecord
  2
200
 70
     0
 62
     7
  6
Continuous
290
     1
370
    -3
390
1D
  0
LAYER
  5
49
100
AcDbSymbolTableRecord
100
AcDbLayerTableRecord
  2
400
 70
     0
 62
     7
  6
Continuous
290
     1
370
    -3
390
1D
  0
ENDTAB
  0
TABLE
  2
STYLE
  5
3
100
AcDbSymbolTable
 70
     2
  0
STYLE
  5
17
100
AcDbSymbolTableRecord
100
AcDbTextStyleTableRecord
  2
Standard
 70
     0
 40
0.0
 41
1.0
 50
0.0
 71
     0
 42
0.0
  3
txt
  4
bigfont
  0
STYLE
  5
24
100
AcDbSymbolTableRecord
100
AcDbTextStyleTableRecord
  2
T_STANDARD
 70
    68
 40
10.0
 41
1.0
 50
0.0
 71
     0
 42
10.0
  3
txt
  4
bigfont
  0
ENDTAB
  0
TABLE
  2
VIEW
  5
5
100
AcDbSymbolTable
 70
     0
  0
ENDTAB
  0
TABLE
  2
UCS
  5
6
100
AcDbSymbolTable
 70
     0
  0
ENDTAB
  0
TABLE
  2
APPID
  5
8
100
AcDbSymbolTable
 70
     1
  0
APPID
  5
16
100
AcDbSymbolTableRecord
100
AcDbRegAppTableRecord
  2
ACAD
 70
     0
  0
ENDTAB
  0
TABLE
  2
DIMSTYLE
  5
9
100
AcDbSymbolTable
 70
     1
100
AcDbDimStyleTable
 71
     0
  0
DIMSTYLE
105
18
100
AcDbSymbolTableRecord
100
AcDbDimStyleTableRecord
  2
Standard
 70
     0
  3

  4

 40
1.0
 41
0.18
 42
0.0625
 43
0.38
 44
0.18
 45
0.0
 46
0.0
 47
0.0
 48
0.0
 71
     0
 72
     0
 73
     1
 74
     1
 75
     0
 76
     0
 77
     0
 78
     0
 79
     0
140
0.18
141
0.09
142
0.0
143
25.4
144
1.0
145
0.0
146
1.0
147
0.09
148
0.0
170
     0
171
     2
172
     0
173
     0
174
     0
175
     0
176
     0
177
     0
178
     0
179
     0
271
     4
272
     4
273
     2
274
     2
275
     0
276
     0
277
     2
278
    46
279
     0
280
     0
281
     0
282
     0
283
     1
284
     0
285
     0
286
     0
288
     0
340
17
341
0
342
0
343
0
344
0
371
    -2
372
    -2
  0
ENDTAB
  0
TABLE
  2
BLOCK_RECORD
  5
1
100
AcDbSymbolTable
 70
     8
  0
BLOCK_RECORD
  5
A
100
AcDbSymbolTableRecord
100
AcDbBlockTableRecord
  2
*MODEL_SPACE
340
20
  0
BLOCK_RECORD
  5
B
100
AcDbSymbolTableRecord
100
AcDbBlockTableRecord
  2
*PAPER_SPACE
340
21
  0
BLOCK_RECORD
  5
4A
100
AcDbSymbolTableRecord
100
AcDbBlockTableRecord
  2
*G0
340
0
102
{BLKREFS
331
4D
102
}
  0
BLOCK_RECORD
  5
76
100
AcDbSymbolTableRecord
100
AcDbBlockTableRecord
  2
*G1
340
0
102
{BLKREFS
331
7A
102
}
  0
BLOCK_RECORD
  5
29F
100
AcDbSymbolTableRecord
100
AcDbBlockTableRecord
  2
*D2
340
0
  0
BLOCK_RECORD
  5
2AB
100
AcDbSymbolTableRecord
100
AcDbBlockTableRecord
  2
*D3
340
0
  0
BLOCK_RECORD
  5
2B7
100
AcDbSymbolTableRecord
100
AcDbBlockTableRecord
  2
*D4
340
0
  0
BLOCK_RECORD
  5
2C3
100
AcDbSymbolTableRecord
100
AcDbBlockTableRecord
  2
*D5
340
0
  0
BLOCK_RECORD
  5
2CF
100
AcDbSymbolTableRecord
100
AcDbBlockTableRecord
  2
*D6
340
0
  0
BLOCK_RECORD
  5
3BF
100
AcDbSymbolTableRecord
100
AcDbBlockTableRecord
  2
*D7
340
0
  0
ENDTAB
  0
ENDSEC
  0
SECTION
  2
BLOCKS
  0
BLOCK
  5
D
100
AcDbEntity
  8
0
100
AcDbBlockBegin
  2
*MODEL_SPACE
 70
     0
 10
0.0
 20
0.0
 30
0.0
  3
*MODEL_SPACE
  1

  0
ENDBLK
  5
E
100
AcDbEntity
  8
0
100
AcDbBlockEnd
  0
BLOCK
  5
F
100
AcDbEntity
 67
     1
  8
0
100
AcDbBlockBegin
  2
*PAPER_SPACE
 70
     0
 10
0.0
 20
0.0
 30
0.0
  3
*PAPER_SPACE
  1

  0
ENDBLK
  5
10
100
AcDbEntity
 67
     1
  8
0
100
AcDbBlockEnd
  0
BLOCK
  5
4B
100
AcDbEntity
  8
0
370
     9
  6
Continuous
 62
     7
100
AcDbBlockBegin
  2
*G0
 70
     0
 10
0.0
 20
0.0
 30
0.0
  3
*G0
  1

  0
ENDBLK
  5
4C
100
AcDbEntity
  8
0
100
AcDbBlockEnd
  0
BLOCK
  5
77
100
AcDbEntity
  8
0
370
     9
  6
Continuous
 62
     7
100
AcDbBlockBegin
  2
*G1
 70
     0
 10
0.0
 20
0.0
 30
0.0
  3
*G1
  1

  0
LINE
  5
78
100
AcDbEntity
  8
15
370
     9
  6
Continuous
 62
    96
100
AcDbLine
 10
324.252714
 20
25.742498
 30
0.0
 11
324.519291
 21
25.742498
 31
0.0
  0
ENDBLK
  5
79
100
AcDbEntity
  8
0
100
AcDbBlockEnd
  0
BLOCK
  5
2A0
100
AcDbEntity
  8
2
370
     9
  6
Continuous
 62
   134
100
AcDbBlockBegin
  2
*D2
 70
     0
 10
0.0
 20
0.0
 30
0.0
  3
*D2
  1

  0
LINE
  5
2A1
100
AcDbEntity
  8
2
370
     9
  6
Continuous
 62
   134
100
AcDbLine
 10
147.468488
 20
178.385
 30
0.0
 11
147.468488
 21
135.385
 31
0.0
  0
LINE
  5
2A2
100
AcDbEntity
  8
2
370
     9
  6
Continuous
 62
   134
100
AcDbLine
 10
145.468488
 20
172.385
 30
0.0
 11
168.532407
 21
172.385
 31
0.0
  0
LINE
  5
2A3
100
AcDbEntity
  8
2
370
     9
  6
Continuous
 62
   134
100
AcDbLine
 10
145.468488
 20
141.385
 30
0.0
 11
168.930223
 21
141.385
 31
0.0
  0
LINE
  5
2A4
100
AcDbEntity
  8
2
370
     9
  6
Continuous
 62
   134
100
AcDbLine
 10
147.468488
 20
172.385
 30
0.0
 11
146.433212
 21
176.248703
 31
0.0
  0
LINE
  5
2A5
100
AcDbEntity
  8
2
370
     9
  6
Continuous
 62
   134
100
AcDbLine
 10
147.468488
 20
172.385
 30
0.0
 11
148.503765
 21
176.248703
 31
0.0
  0
LINE
  5
2A6
100
AcDbEntity
  8
2
370
     9
  6
Continuous
 62
   134
100
AcDbLine
 10
147.468488
 20
141.385
 30
0.0
 11
148.503765
 21
137.521297
 31
0.0
  0
LINE
  5
2A7
100
AcDbEntity
  8
2
370
     9
  6
Continuous
 62
   134
100
AcDbLine
 10
147.468488
 20
141.385
 30
0.0
 11
146.433212
 21
137.521297
 31
0.0
  0
TEXT
  5
2A8
100
AcDbEntity
  8
2
370
     9
  6
Continuous
 62
   134
100
AcDbText
 10
146.968488
 20
147.621734
 30
0.0
 40
3.0
  1
31%%p1
 50
90.0
 41
0.625
 11
146.968488
 21
147.621734
 31
0.0
100
AcDbText
 73
     1
  0
ENDBLK
  5
2A9
100
AcDbEntity
  8
2
370
     9
  6
Continuous
 62
   134
100
AcDbBlockEnd
  0
BLOCK
  5
2AC
100
AcDbEntity
  8
2
370
     9
  6
Continuous
 62
   134
100
AcDbBlockBegin
  2
*D3
 70
     0
 10
0.0
 20
0.0
 30
0.0
  3
*D3
  1

  0
LINE
  5
2AD
100
AcDbEntity
  8
2
370
     9
  6
Continuous
 62
   134
100
AcDbLine
 10
29.747329
 20
127.466767
 30
0.0
 11
80.768723
 21
127.466767
 31
0.0
  0
LINE
  5
2AE
100
AcDbEntity
  8
2
370
     9
  6
Continuous
 62
   134
100
AcDbLine
 10
29.747329
 20
125.466767
 30
0.0
 11
29.747329
 21
159.72856
 31
0.0
  0
LINE
  5
2AF
100
AcDbEntity
  8
2
370
     9
  6
Continuous
 62
   134
100
AcDbLine
 10
80.768723
 20
125.466767
 30
0.0
 11
80.768723
 21
157.948408
 31
0.0
  0
LINE
  5
2B0
100
AcDbEntity
  8
2
370
     9
  6
Continuous
 62
   134
100
AcDbLine
 10
29.747329
 20
127.466767
 30
0.0
 11
33.611032
 21
128.502044
 31
0.0
  0
LINE
  5
2B1
100
AcDbEntity
  8
2
370
     9
  6
Continuous
 62
   134
100
AcDbLine
 10
29.747329
 20
127.466767
 30
0.0
 11
33.611032
 21
126.431491
 31
0.0
  0
LINE
  5
2B2
100
AcDbEntity
  8
2
370
     9
  6
Continuous
 62
   134
100
AcDbLine
 10
80.768723
 20
127.466767
 30
0.0
 11
76.90502
 21
126.431491
 31
0.0
  0
LINE
  5
2B3
100
AcDbEntity
  8
2
370
     9
  6
Continuous
 62
   134
100
AcDbLine
 10
80.768723
 20
127.466767
 30
0.0
 11
76.90502
 21
128.502044
 31
0.0
  0
TEXT
  5
2B4
100
AcDbEntity
  8
2
370
     9
  6
Continuous
 62
   134
100
AcDbText
 10
49.508026
 20
128.466767
 30
0.0
 40
3.0
  1
150%%p10
 41
0.638889
 11
49.508026
 21
128.466767
 31
0.0
100
AcDbText
 73
     1
  0
ENDBLK
  5
2B5
100
AcDbEntity
  8
2
370
     9
  6
Continuous
 62
   134
100
AcDbBlockEnd
  0
BLOCK
  5
2B8
100
AcDbEntity
  8
2
370
     9
  6
Continuous
 62
   134
100
AcDbBlockBegin
  2
*D4
 70
     0
 10
0.0
 20
0.0
 30
0.0
  3
*D4
  1

  0
LINE
  5
2B9
100
AcDbEntity
  8
2
370
     9
  6
Continuous
 62
   134
100
AcDbLine
 10
234.997223
 20
126.385
 30
0.0
 11
164.997223
 21
126.385
 31
0.0
  0
LINE
  5
2BA
100
AcDbEntity
  8
2
370
     9
  6
Continuous
 62
   134
100
AcDbLine
 10
234.997223
 20
124.385
 30
0.0
 11
234.997223
 21
144.885
 31
0.0
  0
LINE
  5
2BB
100
AcDbEntity
  8
2
370
     9
  6
Continuous
 62
   134
100
AcDbLine
 10
164.997223
 20
124.385
 30
0.0
 11
164.997223
 21
144.885
 31
0.0
  0
LINE
  5
2BC
100
AcDbEntity
  8
2
370
     9
  6
Continuous
 62
   134
100
AcDbLine
 10
234.997223
 20
126.385
 30
0.0
 11
231.13352
 21
125.349724
 31
0.0
  0
LINE
  5
2BD
100
AcDbEntity
  8
2
370
     9
  6
Continuous
 62
   134
100
AcDbLine
 10
234.997223
 20
126.385
 30
0.0
 11
231.13352
 21
127.420276
 31
0.0
  0
LINE
  5
2BE
100
AcDbEntity
  8
2
370
     9
  6
Continuous
 62
   134
100
AcDbLine
 10
164.997223
 20
126.385
 30
0.0
 11
168.860926
 21
127.420276
 31
0.0
  0
LINE
  5
2BF
100
AcDbEntity
  8
2
370
     9
  6
Continuous
 62
   134
100
AcDbLine
 10
164.997223
 20
126.385
 30
0.0
 11
168.860926
 21
125.349724
 31
0.0
  0
TEXT
  5
2C0
100
AcDbEntity
  8
2
370
     9
  6
Continuous
 62
   134
100
AcDbText
 10
196.247223
 20
126.385
 30
0.0
 40
3.0
  1
70%%p5
 41
0.625
 11
196.247223
 21
126.385
 31
0.0
100
AcDbText
 73
     1
  0
ENDBLK
  5
2C1
100
AcDbEntity
  8
2
370
     9
  6
Continuous
 62
   134
100
AcDbBlockEnd
  0
BLOCK
  5
2C4
100
AcDbEntity
  8
2
370
     9
  6
Continuous
 62
   134
100
AcDbBlockBegin
  2
*D5
 70
     0
 10
0.0
 20
0.0
 30
0.0
  3
*D5
  1

  0
LINE
  5
2C5
100
AcDbEntity
  8
2
370
     9
  6
Continuous
 62
   134
100
AcDbLine
 10
164.997223
 20
126.385
 30
0.0
 11
113.396323
 21
126.385
 31
0.0
  0
LINE
  5
2C6
100
AcDbEntity
  8
2
370
     9
  6
Continuous
 62
   134
100
AcDbLine
 10
164.997223
 20
124.385
 30
0.0
 11
164.997223
 21
144.885
 31
0.0
  0
LINE
  5
2C7
100
AcDbEntity
  8
2
370
     9
  6
Continuous
 62
   134
100
AcDbLine
 10
113.396323
 20
124.385
 30
0.0
 11
113.396323
 21
160.122105
 31
0.0
  0
LINE
  5
2C8
100
AcDbEntity
  8
2
370
     9
  6
Continuous
 62
   134
100
AcDbLine
 10
164.997223
 20
126.385
 30
0.0
 11
161.13352
 21
125.349724
 31
0.0
  0
LINE
  5
2C9
100
AcDbEntity
  8
2
370
     9
  6
Continuous
 62
   134
100
AcDbLine
 10
164.997223
 20
126.385
 30
0.0
 11
161.13352
 21
127.420276
 31
0.0
  0
LINE
  5
2CA
100
AcDbEntity
  8
2
370
     9
  6
Continuous
 62
   134
100
AcDbLine
 10
113.396323
 20
126.385
 30
0.0
 11
117.260026
 21
127.420276
 31
0.0
  0
LINE
  5
2CB
100
AcDbEntity
  8
2
370
     9
  6
Continuous
 62
   134
100
AcDbLine
 10
113.396323
 20
126.385
 30
0.0
 11
117.260026
 21
125.349724
 31
0.0
  0
TEXT
  5
2CC
100
AcDbEntity
  8
2
370
     9
  6
Continuous
 62
   134
100
AcDbText
 10
134.696773
 20
127.385
 30
0.0
 40
3.0
  1
95%%p18
 41
0.6
 11
134.696773
 21
127.385
 31
0.0
100
AcDbText
 73
     1
  0
ENDBLK
  5
2CD
100
AcDbEntity
  8
2
370
     9
  6
Continuous
 62
   134
100
AcDbBlockEnd
  0
BLOCK
  5
2D0
100
AcDbEntity
  8
2
370
     9
  6
Continuous
 62
   134
100
AcDbBlockBegin
  2
*D6
 70
     0
 10
0.0
 20
0.0
 30
0.0
  3
*D6
  1

  0
LINE
  5
2D1
100
AcDbEntity
  8
2
370
     9
  6
Continuous
 62
   134
100
AcDbLine
 10
234.997223
 20
126.385
 30
0.0
 11
298.52359
 21
126.385
 31
0.0
  0
LINE
  5
2D2
100
AcDbEntity
  8
2
370
     9
  6
Continuous
 62
   134
100
AcDbLine
 10
234.997223
 20
124.385
 30
0.0
 11
234.997223
 21
144.885
 31
0.0
  0
LINE
  5
2D3
100
AcDbEntity
  8
2
370
     9
  6
Continuous
 62
   134
100
AcDbLine
 10
298.52359
 20
124.385
 30
0.0
 11
298.52359
 21
145.338984
 31
0.0
  0
LINE
  5
2D4
100
AcDbEntity
  8
2
370
     9
  6
Continuous
 62
   134
100
AcDbLine
 10
234.997223
 20
126.385
 30
0.0
 11
238.860926
 21
127.420276
 31
0.0
  0
LINE
  5
2D5
100
AcDbEntity
  8
2
370
     9
  6
Continuous
 62
   134
100
AcDbLine
 10
234.997223
 20
126.385
 30
0.0
 11
238.860926
 21
125.349724
 31
0.0
  0
LINE
  5
2D6
100
AcDbEntity
  8
2
370
     9
  6
Continuous
 62
   134
100
AcDbLine
 10
298.52359
 20
126.385
 30
0.0
 11
294.659887
 21
125.349724
 31
0.0
  0
LINE
  5
2D7
100
AcDbEntity
  8
2
370
     9
  6
Continuous
 62
   134
100
AcDbLine
 10
298.52359
 20
126.385
 30
0.0
 11
294.659887
 21
127.420276
 31
0.0
  0
TEXT
  5
2D8
100
AcDbEntity
  8
2
370
     9
  6
Continuous
 62
   134
100
AcDbText
 10
261.510406
 20
126.385
 30
0.0
 40
3.0
  1
115%%p18
 41
0.583333
 11
261.510406
 21
126.385
 31
0.0
100
AcDbText
 73
     1
  0
ENDBLK
  5
2D9
100
AcDbEntity
  8
2
370
     9
  6
Continuous
 62
   134
100
AcDbBlockEnd
  0
BLOCK
  5
3C0
100
AcDbEntity
  8
2
370
     9
  6
Continuous
 62
   134
100
AcDbBlockBegin
  2
*D7
 70
     0
 10
0.0
 20
0.0
 30
0.0
  3
*D7
  1

  0
LINE
  5
3C1
100
AcDbEntity
  8
2
370
     9
  6
Continuous
 62
   134
100
AcDbLine
 10
134.997223
 20
89.385
 30
0.0
 11
134.997223
 21
66.385
 31
0.0
  0
LINE
  5
3C2
100
AcDbEntity
  8
2
370
     9
  6
Continuous
 62
   134
100
AcDbLine
 10
132.997223
 20
83.385
 30
0.0
 11
167.997223
 21
83.385
 31
0.0
  0
LINE
  5
3C3
100
AcDbEntity
  8
2
370
     9
  6
Continuous
 62
   134
100
AcDbLine
 10
132.997223
 20
72.385
 30
0.0
 11
167.997223
 21
72.385
 31
0.0
  0
LINE
  5
3C4
100
AcDbEntity
  8
2
370
     9
  6
Continuous
 62
   134
100
AcDbLine
 10
134.997223
 20
83.385
 30
0.0
 11
133.961947
 21
87.248703
 31
0.0
  0
LINE
  5
3C5
100
AcDbEntity
  8
2
370
     9
  6
Continuous
 62
   134
100
AcDbLine
 10
134.997223
 20
83.385
 30
0.0
 11
136.032499
 21
87.248703
 31
0.0
  0
LINE
  5
3C6
100
AcDbEntity
  8
2
370
     9
  6
Continuous
 62
   134
100
AcDbLine
 10
134.997223
 20
72.385
 30
0.0
 11
136.032499
 21
68.521297
 31
0.0
  0
LINE
  5
3C7
100
AcDbEntity
  8
2
370
     9
  6
Continuous
 62
   134
100
AcDbLine
 10
134.997223
 20
72.385
 30
0.0
 11
133.961947
 21
68.521297
 31
0.0
  0
TEXT
  5
3C8
100
AcDbEntity
  8
2
370
     9
  6
Continuous
 62
   134
100
AcDbText
 10
134.497223
 20
74.135
 30
0.0
 40
3.0
  1
11%%p1
 50
90.0
 41
0.625
 11
134.497223
 21
74.135
 31
0.0
100
AcDbText
 73
     1
  0
ENDBLK
  5
3C9
100
AcDbEntity
  8
2
370
     9
  6
Continuous
 62
   134
100
AcDbBlockEnd
  0
ENDSEC
  0
SECTION
  2
ENTITIES
  0
INSERT
  5
4D
100
AcDbEntity
  8
0
370
     9
  6
Continuous
 62
     7
100
AcDbBlockReference
  2
*G0
 10
0.0
 20
0.0
 30
0.0
  0
LINE
  5
4E
100
AcDbEntity
  8
15
370
    50
  6
Continuous
 62
    96
100
AcDbLine
 10
15.0
 20
272.0
 30
0.0
 11
15.0
 21
15.0
 31
0.0
  0
LINE
  5
4F
100
AcDbEntity
  8
15
370
    50
  6
Continuous
 62
    96
100
AcDbLine
 10
15.0
 20
15.0
 30
0.0
 11
400.0
 21
15.0
 31
0.0
  0
LINE
  5
50
100
AcDbEntity
  8
15
370
    50
  6
Continuous
 62
    96
100
AcDbLine
 10
15.0
 20
272.0
 30
0.0
 11
400.0
 21
272.0
 31
0.0
  0
LINE
  5
51
100
AcDbEntity
  8
15
370
    50
  6
Continuous
 62
    96
100
AcDbLine
 10
400.0
 20
272.0
 30
0.0
 11
400.0
 21
15.0
 31
0.0
  0
LINE
  5
52
100
AcDbEntity
  8
15
370
     9
  6
Continuous
 62
    96
100
AcDbLine
 10
364.336481
 20
20.700096
 30
0.0
 11
351.873818
 21
20.700096
 31
0.0
  0
TEXT
  5
53
100
AcDbEntity
  8
15
370
     9
  6
Continuous
 62
    96
100
AcDbText
 10
334.110576
 20
19.689758
 30
0.0
 40
1.8
  1
出入管理システム
 41
1.018519
 11
334.110576
 21
19.689758
 31
0.0
100
AcDbText
 73
     1
  0
TEXT
  5
54
100
AcDbEntity
  8
15
370
     9
  6
Continuous
 62
    96
100
AcDbText
 10
334.181133
 20
15.809079
 30
0.0
 40
3.6
  1
株式会社
 41
1.753472
 11
334.181133
 21
15.809079
 31
0.0
100
AcDbText
 73
     1
  0
LINE
  5
55
100
AcDbEntity
  8
15
370
    30
  6
Continuous
 62
    96
100
AcDbLine
 10
314.290135
 20
15.878561
 30
0.0
 11
317.456987
 21
15.878561
 31
0.0
  0
LINE
  5
56
100
AcDbEntity
  8
15
370
    30
  6
Continuous
 62
    96
100
AcDbLine
 10
332.925428
 20
19.727154
 30
0.0
 11
332.925428
 21
20.942497
 31
0.0
  0
LINE
  5
57
100
AcDbEntity
  8
15
370
    30
  6
Continuous
 62
    96
100
AcDbLine
 10
331.60881
 20
19.727154
 30
0.0
 11
332.925428
 21
19.727154
 31
0.0
  0
LINE
  5
58
100
AcDbEntity
  8
15
370
    30
  6
Continuous
 62
    96
100
AcDbLine
 10
331.60881
 20
15.878561
 30
0.0
 11
331.60881
 21
19.727154
 31
0.0
  0
LINE
  5
59
100
AcDbEntity
  8
15
370
    30
  6
Continuous
 62
    96
100
AcDbLine
 10
330.190905
 20
15.878561
 30
0.0
 11
331.60881
 21
15.878561
 31
0.0
  0
LINE
  5
5A
100
AcDbEntity
  8
15
370
    30
  6
Continuous
 62
    96
100
AcDbLine
 10
329.338856
 20
15.878561
 30
0.0
 11
327.557658
 21
15.878561
 31
0.0
  0
LINE
  5
5B
100
AcDbEntity
  8
15
370
    30
  6
Continuous
 62
    96
100
AcDbLine
 10
320.164308
 20
15.878561
 30
0.0
 11
324.519291
 21
15.878561
 31
0.0
  0
LINE
  5
5C
100
AcDbEntity
  8
15
370
    30
  6
Continuous
 62
    96
100
AcDbLine
 10
320.164308
 20
18.005414
 30
0.0
 11
320.164308
 21
15.878561
 31
0.0
  0
LINE
  5
5D
100
AcDbEntity
  8
15
370
    30
  6
Continuous
 62
    96
100
AcDbLine
 10
317.456987
 20
15.878561
 30
0.0
 11
322.39244
 21
20.765148
 31
0.0
  0
LINE
  5
5E
100
AcDbEntity
  8
15
370
    30
  6
Continuous
 62
    96
100
AcDbLine
 10
322.39244
 20
20.765148
 30
0.0
 11
322.39244
 21
18.005414
 31
0.0
  0
LINE
  5
5F
100
AcDbEntity
  8
15
370
    30
  6
Continuous
 62
    96
100
AcDbLine
 10
322.39244
 20
18.005414
 30
0.0
 11
320.164308
 21
18.005414
 31
0.0
  0
LINE
  5
60
100
AcDbEntity
  8
15
370
    30
  6
Continuous
 62
    96
100
AcDbLine
 10
324.519291
 20
18.714365
 30
0.0
 11
327.557658
 21
15.878561
 31
0.0
  0
ARC
  5
61
100
AcDbEntity
  8
15
370
    30
  6
Continuous
 62
    96
100
AcDbCircle
 10
326.949984
 20
19.220759
 30
0.0
 40
0.506395
100
AcDbArc
 50
-90.0
 51
90.0
  0
LINE
  5
62
100
AcDbEntity
  8
15
370
    30
  6
Continuous
 62
    96
100
AcDbLine
 10
324.519291
 20
18.714365
 30
0.0
 11
326.949984
 21
18.714365
 31
0.0
  0
LINE
  5
63
100
AcDbEntity
  8
15
370
    30
  6
Continuous
 62
    96
100
AcDbLine
 10
324.924408
 20
19.727154
 30
0.0
 11
326.949984
 21
19.727154
 31
0.0
  0
LINE
  5
64
100
AcDbEntity
  8
15
370
    30
  6
Continuous
 62
    96
100
AcDbLine
 10
324.924408
 20
20.942497
 30
0.0
 11
324.924408
 21
19.727154
 31
0.0
  0
LINE
  5
65
100
AcDbEntity
  8
15
370
    30
  6
Continuous
 62
    96
100
AcDbLine
 10
324.924408
 20
20.942497
 30
0.0
 11
327.333779
 21
20.942497
 31
0.0
  0
ARC
  5
66
100
AcDbEntity
  8
15
370
    30
  6
Continuous
 62
    96
100
AcDbCircle
 10
327.141879
 20
19.220759
 30
0.0
 40
1.732399
100
AcDbArc
 50
-76.055153
 51
83.640296
  0
LINE
  5
67
100
AcDbEntity
  8
15
370
    30
  6
Continuous
 62
    96
100
AcDbLine
 10
327.557658
 20
17.541014
 30
0.0
 11
329.338856
 21
15.878561
 31
0.0
  0
LINE
  5
68
100
AcDbEntity
  8
15
370
    30
  6
Continuous
 62
    96
100
AcDbLine
 10
332.925428
 20
20.942497
 30
0.0
 11
328.874278
 21
20.942497
 31
0.0
  0
LINE
  5
69
100
AcDbEntity
  8
15
370
    30
  6
Continuous
 62
    96
100
AcDbLine
 10
328.874278
 20
20.942497
 30
0.0
 11
328.874278
 21
19.727154
 31
0.0
  0
LINE
  5
6A
100
AcDbEntity
  8
15
370
    30
  6
Continuous
 62
    96
100
AcDbLine
 10
328.874278
 20
19.727154
 30
0.0
 11
330.190905
 21
19.727154
 31
0.0
  0
LINE
  5
6B
100
AcDbEntity
  8
15
370
    30
  6
Continuous
 62
    96
100
AcDbLine
 10
330.190905
 20
19.727154
 30
0.0
 11
330.190905
 21
15.878561
 31
0.0
  0
TEXT
  5
6C
100
AcDbEntity
  8
15
370
    30
  6
Continuous
 62
    96
100
AcDbText
 10
310.431027
 20
57.115582
 30
0.0
 40
2.5
  1
型　式
 41
0.855556
 11
310.431027
 21
57.115582
 31
0.0
100
AcDbText
 73
     1
  0
TEXT
  5
6D
100
AcDbEntity
  8
15
370
    30
  6
Continuous
 62
    96
100
AcDbText
 10
310.431027
 20
47.954625
 30
0.0
 40
2.5
  1
製品名
 41
0.855556
 11
310.431027
 21
47.954625
 31
0.0
100
AcDbText
 73
     1
  0
LINE
  5
6E
100
AcDbEntity
  8
15
370
    30
  6
Continuous
 62
    96
100
AcDbLine
 10
310.0
 20
15.0
 30
0.0
 11
310.0
 21
60.000007
 31
0.0
  0
LINE
  5
6F
100
AcDbEntity
  8
15
370
     9
  6
Continuous
 62
    96
100
AcDbLine
 10
310.0
 20
51.000007
 30
0.0
 11
400.0
 21
51.000007
 31
0.0
  0
LINE
  5
70
100
AcDbEntity
  8
15
370
     9
  6
Continuous
 62
    96
100
AcDbLine
 10
310.0
 20
51.0
 30
0.0
 11
400.0
 21
51.000007
 31
0.0
  0
LINE
  5
71
100
AcDbEntity
  8
15
370
     9
  6
Continuous
 62
    96
100
AcDbLine
 10
400.0
 20
27.000007
 30
0.0
 11
310.0
 21
27.0
 31
0.0
  0
LINE
  5
72
100
AcDbEntity
  8
15
370
     9
  6
Continuous
 62
    96
100
AcDbLine
 10
310.0
 20
42.0
 30
0.0
 11
399.698557
 21
42.0
 31
0.0
  0
LINE
  5
73
100
AcDbEntity
  8
15
370
     9
  6
Continuous
 62
    96
100
AcDbLine
 10
310.0
 20
60.000007
 30
0.0
 11
400.0
 21
60.000007
 31
0.0
  0
LINE
  5
74
100
AcDbEntity
  8
15
370
     9
  6
Continuous
 62
    96
100
AcDbLine
 10
324.519291
 20
15.878561
 30
0.0
 11
324.519291
 21
26.006435
 31
0.0
  0
LINE
  5
75
100
AcDbEntity
  8
15
370
     9
  6
Continuous
 62
    96
100
AcDbLine
 10
324.519291
 20
26.006435
 30
0.0
 11
314.290135
 21
15.878561
 31
0.0
  0
INSERT
  5
7A
100
AcDbEntity
  8
0
370
     9
  6
Continuous
 62
     7
100
AcDbBlockReference
  2
*G1
 10
0.0
 20
0.0
 30
0.0
  0
TEXT
  5
7B
100
AcDbEntity
  8
15
370
     9
  6
Continuous
 62
    96
100
AcDbText
 10
366.508819
 20
15.386878
 30
0.0
 40
10.0
  1
アート
 41
0.833333
 11
366.508819
 21
15.386878
 31
0.0
100
AcDbText
 73
     1
  0
LINE
  5
7C
100
AcDbEntity
  8
15
370
     9
  6
Continuous
 62
    96
100
AcDbLine
 10
335.0
 20
272.0
 30
0.0
 11
335.0
 21
266.5
 31
0.0
  0
LINE
  5
7D
100
AcDbEntity
  8
15
370
    30
  6
Continuous
 62
    96
100
AcDbLine
 10
310.0
 20
266.5
 30
0.0
 11
400.0
 21
266.5
 31
0.0
  0
LINE
  5
7E
100
AcDbEntity
  8
15
370
    30
  6
Continuous
 62
    96
100
AcDbLine
 10
310.0
 20
261.0
 30
0.0
 11
400.0
 21
261.0
 31
0.0
  0
LINE
  5
7F
100
AcDbEntity
  8
15
370
     9
  6
Continuous
 62
    96
100
AcDbLine
 10
310.0
 20
255.5
 30
0.0
 11
400.0
 21
255.5
 31
0.0
  0
LINE
  5
80
100
AcDbEntity
  8
15
370
     9
  6
Continuous
 62
    96
100
AcDbLine
 10
400.0
 20
250.0
 30
0.0
 11
310.0
 21
250.0
 31
0.0
  0
LINE
  5
81
100
AcDbEntity
  8
15
370
    50
  6
Continuous
 62
    96
100
AcDbLine
 10
400.0
 20
113.000021
 30
0.0
 11
400.0
 21
100.200016
 31
0.0
  0
TEXT
  5
82
100
AcDbEntity
  8
15
370
     9
  6
PHANTOM
 62
    96
100
AcDbText
 10
315.0
 20
267.75
 30
0.0
 40
3.0
  1
商品コード
 41
0.833333
 11
315.0
 21
267.75
 31
0.0
100
AcDbText
 73
     1
  0
TEXT
  5
83
100
AcDbEntity
  8
15
370
     9
  6
PHANTOM
 62
    96
100
AcDbText
 10
344.5
 20
262.25
 30
0.0
 40
3.0
  1
定　　　　　格
 41
0.833333
 11
344.5
 21
262.25
 31
0.0
100
AcDbText
 73
     1
  0
LINE
  5
84
100
AcDbEntity
  8
15
370
    30
  6
Continuous
 62
    96
100
AcDbLine
 10
310.0
 20
60.000007
 30
0.0
 11
400.0
 21
60.000007
 31
0.0
  0
LINE
  5
85
100
AcDbEntity
  8
15
370
    30
  6
Continuous
 62
    96
100
AcDbLine
 10
310.0
 20
65.500007
 30
0.0
 11
400.0
 21
65.500007
 31
0.0
  0
LINE
  5
86
100
AcDbEntity
  8
15
370
     9
  6
Continuous
 62
    96
100
AcDbLine
 10
335.0
 20
65.500007
 30
0.0
 11
335.0
 21
60.000007
 31
0.0
  0
TEXT
  5
87
100
AcDbEntity
  8
15
370
     9
  6
Continuous
 62
    96
100
AcDbText
 10
316.2
 20
61.250007
 30
0.0
 40
3.0
  1
図面履歴
 41
0.875
 11
316.2
 21
61.250007
 31
0.0
100
AcDbText
 73
     1
  0
LINE
  5
88
100
AcDbEntity
  8
15
370
    30
  6
Continuous
 62
    96
100
AcDbLine
 10
310.0
 20
272.0
 30
0.0
 11
310.0
 21
63.500007
 31
0.0
  0
LINE
  5
89
100
AcDbEntity
  8
15
370
    30
  6
Continuous
 62
    96
100
AcDbLine
 10
310.0
 20
60.000007
 30
0.0
 11
310.0
 21
63.500007
 31
0.0
  0
LINE
  5
8A
100
AcDbEntity
  8
15
370
    30
  6
Continuous
 62
    96
100
AcDbLine
 10
400.0
 20
63.49321
 30
0.0
 11
400.0
 21
110.924646
 31
0.0
  0
LINE
  5
8B
100
AcDbEntity
  8
15
370
    30
  6
Continuous
 62
    96
100
AcDbLine
 10
400.0
 20
63.500007
 30
0.0
 11
400.0
 21
111.178469
 31
0.0
  0
TEXT
  5
8C
100
AcDbEntity
  8
15
370
     9
  6
Continuous
 62
    96
100
AcDbText
 10
310.71945
 20
39.084987
 30
0.0
 40
2.500737
  1
縮尺（Ａ３）
 41
0.861111
 11
310.71945
 21
39.084987
 31
0.0
100
AcDbText
 73
     1
  0
LINE
  5
8D
100
AcDbEntity
  8
15
370
     9
  6
Continuous
 62
    96
100
AcDbLine
 10
324.977882
 20
33.001771
 30
0.0
 11
324.977882
 21
27.000001
 31
0.0
  0
TEXT
  5
8E
100
AcDbEntity
  8
15
370
     9
  6
Continuous
 62
    96
100
AcDbText
 10
312.111695
 20
28.509844
 30
0.0
 40
2.500737
  1
図面番号
 41
0.858333
 11
312.111695
 21
28.509844
 31
0.0
100
AcDbText
 73
     1
  0
TEXT
  5
8F
100
AcDbEntity
  8
15
370
     9
  6
Continuous
 62
    96
100
AcDbText
 10
376.04658
 20
38.852331
 30
0.0
 40
2.500737
  1
作図
 41
0.85
 11
376.04658
 21
38.852331
 31
0.0
100
AcDbText
 73
     1
  0
LINE
  5
90
100
AcDbEntity
  8
15
370
     9
  6
Continuous
 62
    96
100
AcDbLine
 10
324.977882
 20
42.004424
 30
0.0
 11
324.977882
 21
33.001771
 31
0.0
  0
LINE
  5
91
100
AcDbEntity
  8
15
370
     9
  6
Continuous
 62
    96
100
AcDbLine
 10
349.985254
 20
42.004424
 30
0.0
 11
349.985254
 21
33.001773
 31
0.0
  0
LINE
  5
92
100
AcDbEntity
  8
15
370
     9
  6
Continuous
 62
    96
100
AcDbLine
 10
374.992627
 20
42.004424
 30
0.0
 11
374.992627
 21
33.001774
 31
0.0
  0
LINE
  5
93
100
AcDbEntity
  8
15
370
     9
  6
Continuous
 62
    96
100
AcDbLine
 10
355.006961
 20
33.000003
 30
0.0
 11
355.006961
 21
27.000003
 31
0.0
  0
LINE
  5
94
100
AcDbEntity
  8
15
370
     9
  6
Continuous
 62
    96
100
AcDbLine
 10
362.006961
 20
33.000008
 30
0.0
 11
362.006961
 21
27.000008
 31
0.0
  0
TEXT
  5
95
100
AcDbEntity
  8
15
370
     9
  6
Continuous
 62
    96
100
AcDbText
 10
356.018627
 20
28.617941
 30
0.0
 40
2.5
  1
日付
 41
0.85
 11
356.018627
 21
28.617941
 31
0.0
100
AcDbText
 73
     1
  0
LINE
  5
96
100
AcDbEntity
  8
15
370
     9
  6
Continuous
 62
    96
100
AcDbLine
 10
388.0
 20
33.000006
 30
0.0
 11
388.0
 21
27.000006
 31
0.0
  0
LINE
  5
97
100
AcDbEntity
  8
15
370
     9
  6
Continuous
 62
    96
100
AcDbLine
 10
391.050689
 20
32.240006
 30
0.0
 11
391.050689
 21
27.760006
 31
0.0
  0
CIRCLE
  5
98
100
AcDbEntity
  8
15
370
     9
  6
Continuous
 62
    96
100
AcDbCircle
 10
391.050689
 20
30.000006
 30
0.0
 40
0.96
  0
CIRCLE
  5
99
100
AcDbEntity
  8
15
370
     9
  6
Continuous
 62
    96
100
AcDbCircle
 10
391.050689
 20
30.000006
 30
0.0
 40
1.6
  0
LINE
  5
9A
100
AcDbEntity
  8
15
370
     9
  6
Continuous
 62
    96
100
AcDbLine
 10
393.689961
 20
30.960006
 30
0.0
 11
393.689961
 21
29.040006
 31
0.0
  0
LINE
  5
9B
100
AcDbEntity
  8
15
370
     9
  6
Continuous
 62
    96
100
AcDbLine
 10
398.809961
 20
31.600006
 30
0.0
 11
398.809961
 21
28.400006
 31
0.0
  0
LINE
  5
9C
100
AcDbEntity
  8
15
370
     9
  6
Continuous
 62
    96
100
AcDbLine
 10
393.689961
 20
30.960006
 30
0.0
 11
398.809961
 21
31.600006
 31
0.0
  0
LINE
  5
9D
100
AcDbEntity
  8
15
370
     9
  6
Continuous
 62
    96
100
AcDbLine
 10
393.689961
 20
29.040006
 30
0.0
 11
398.809961
 21
28.400006
 31
0.0
  0
LINE
  5
9E
100
AcDbEntity
  8
15
370
     9
  6
Continuous
 62
    96
100
AcDbLine
 10
388.810689
 20
30.000006
 30
0.0
 11
399.355961
 21
30.000006
 31
0.0
  0
TEXT
  5
9F
100
AcDbEntity
  8
15
370
     9
  6
Continuous
 62
    96
100
AcDbText
 10
325.689041
 20
39.17943
 30
0.0
 40
2.500737
  1
承認
 41
0.85
 11
325.689041
 21
39.17943
 31
0.0
100
AcDbText
 73
     1
  0
TEXT
  5
A0
100
AcDbEntity
  8
15
370
     9
  6
Continuous
 62
    96
100
AcDbText
 10
350.696414
 20
39.17943
 30
0.0
 40
2.500737
  1
検図
 41
0.85
 11
350.696414
 21
39.17943
 31
0.0
100
AcDbText
 73
     1
  0
LINE
  5
A1
100
AcDbEntity
  8
15
370
     9
  6
Continuous
 62
    96
100
AcDbLine
 10
400.000259
 20
33.001776
 30
0.0
 11
309.973458
 21
33.001769
 31
0.0
  0
TEXT
  5
A2
100
AcDbEntity
  8
15
370
     9
  6
Continuous
 62
    96
100
AcDbText
 10
312.808324
 20
34.511669
 30
0.0
 40
3.000885
  1
１：１
 41
0.833333
 11
312.808324
 21
34.511669
 31
0.0
100
AcDbText
 73
     1
  0
TEXT
  5
A3
100
AcDbEntity
  8
15
370
     9
  6
Continuous
 62
    96
100
AcDbText
 10
202.036
 20
17.149
 30
0.0
 40
3.0
  1
*　記載されている会社名、製品名は、登録 商標または商標です。
 41
0.878026
 11
202.036
 21
17.149
 31
0.0
100
AcDbText
 73
     1
  0
TEXT
  5
A4
100
AcDbEntity
  8
15
370
     9
  6
PHANTOM
 62
    96
100
AcDbText
 10
318.0
 20
251.25
 30
0.0
 40
3.0
  1
重　量
 41
0.833333
 11
318.0
 21
251.25
 31
0.0
100
AcDbText
 73
     1
  0
TEXT
  5
A5
100
AcDbEntity
  8
15
370
     9
  6
PHANTOM
 62
    96
100
AcDbText
 10
318.0
 20
256.75
 30
0.0
 40
3.0
  1
彩　色
 41
0.833333
 11
318.0
 21
256.75
 31
0.0
100
AcDbText
 73
     1
  0
TEXT
  5
A6
100
AcDbEntity
  8
15
370
     9
  6
PHANTOM
 62
    96
100
AcDbText
 10
360.0
 20
256.75
 30
0.0
 40
3.0
  1
黒（本体）
 41
0.833333
 11
360.0
 21
256.75
 31
0.0
100
AcDbText
 73
     1
  0
LINE
  5
A7
100
AcDbEntity
  8
15
370
     9
  6
Continuous
 62
    96
100
AcDbLine
 10
335.0
 20
261.00005
 30
0.0
 11
335.0
 21
250.0
 31
0.0
  0
LINE
  5
A8
100
AcDbEntity
  8
15
370
    30
  6
Continuous
 62
    96
100
AcDbLine
 10
399.993039
 20
250.0
 30
0.0
 11
309.993039
 21
250.0
 31
0.0
  0
TEXT
  5
A9
100
AcDbEntity
  8
15
370
     9
  6
Continuous
 62
    96
100
AcDbText
 10
385.516012
 20
34.565302
 30
0.0
 40
5.001475
  1
辻
 41
0.833333
 11
385.516012
 21
34.565302
 31
0.0
100
AcDbText
 73
     1
  0
TEXT
  5
AA
100
AcDbEntity
  8
15
370
     9
  6
Continuous
 62
    96
100
AcDbText
 10
359.069052
 20
34.568836
 30
0.0
 40
5.001475
  1
西井
 41
0.85
 11
359.069052
 21
34.568836
 31
0.0
100
AcDbText
 73
     1
  0
TEXT
  5
AB
100
AcDbEntity
  8
15
370
     9
  6
Continuous
 62
    96
100
AcDbText
 10
332.37354
 20
34.567071
 30
0.0
 40
5.001475
  1
加川
 41
0.85
 11
332.37354
 21
34.567071
 31
0.0
100
AcDbText
 73
     1
  0
TEXT
  5
AC
100
AcDbEntity
  8
15
370
     9
  6
PHANTOM
 62
    96
100
AcDbText
 10
363.0
 20
251.25
 30
0.0
 40
3.0
  1
約25ｇ
 41
0.681818
 11
363.0
 21
251.25
 31
0.0
100
AcDbText
 73
     1
  0
TEXT
  5
AD
100
AcDbEntity
  8
15
370
     9
  6
Continuous
 62
    96
100
AcDbText
 10
357.0
 20
267.75
 30
0.0
 40
3.0
  1
０５０１１２２
 41
0.833333
 11
357.0
 21
267.75
 31
0.0
100
AcDbText
 73
     1
  0
TEXT
  5
AE
100
AcDbEntity
  8
15
370
     9
  6
Continuous
 62
    96
100
AcDbText
 10
356.5448
 20
61.080791
 30
0.0
 40
3.5
  1
－－－
 41
0.833333
 11
356.5448
 21
61.080791
 31
0.0
100
AcDbText
 73
     1
  0
TEXT
  5
AF
100
AcDbEntity
  8
15
370
     9
  6
Continuous
 62
    96
100
AcDbText
 10
335.55
 20
53.000007
 30
0.0
 40
5.0
  1
ＢＡＮ-ＦＣＡＤ
 41
0.82766
 11
335.55
 21
53.000007
 31
0.0
100
AcDbText
 73
     1
  0
TEXT
  5
B0
100
AcDbEntity
  8
15
370
     9
  6
Continuous
 62
    96
100
AcDbText
 10
314.351826
 20
43.144977
 30
0.0
 40
4.5
  1
BAN-F01C・F02C用電気錠アダプター
 41
0.760185
 11
314.351826
 21
43.144977
 31
0.0
100
AcDbText
 73
     1
  0
TEXT
  5
B1
100
AcDbEntity
  8
15
370
     9
  6
Continuous
 62
    96
100
AcDbText
 10
327.1708
 20
28.259791
 30
0.0
 40
3.5
  1
G10103-01-18831
 41
0.5
 11
327.1708
 21
28.259791
 31
0.0
100
AcDbText
 73
     1
  0
TEXT
  5
B2
100
AcDbEntity
  8
15
370
     9
  6
Continuous
 62
    96
100
AcDbText
 10
364.291982
 20
28.440418
 30
0.0
 40
3.000885
  1
2018年08月31日
 41
0.603448
 11
364.291982
 21
28.440418
 31
0.0
100
AcDbText
 73
     1
  0
LINE
  5
B3
100
AcDbEntity
  8
1
370
     9
  6
HIDDEN
 62
     7
100
AcDbLine
 10
169.997223
 20
141.885
 30
0.0
 11
229.997223
 21
141.885
 31
0.0
  0
LINE
  5
B4
100
AcDbEntity
  8
1
370
     9
  6
HIDDEN
 62
     7
100
AcDbLine
 10
229.997223
 20
171.885
 30
0.0
 11
229.997223
 21
141.885
 31
0.0
  0
LINE
  5
B5
100
AcDbEntity
  8
1
370
     9
  6
HIDDEN
 62
     7
100
AcDbLine
 10
170.117708
 20
171.885
 30
0.0
 11
229.997223
 21
171.885
 31
0.0
  0
LINE
  5
B6
100
AcDbEntity
  8
1
370
     9
  6
HIDDEN
 62
     7
100
AcDbLine
 10
169.997223
 20
171.885
 30
0.0
 11
169.997223
 21
141.885
 31
0.0
  0
LINE
  5
B7
100
AcDbEntity
  8
1
370
    30
  6
Continuous
 62
     7
100
AcDbLine
 10
164.997223
 20
164.03635
 30
0.0
 11
135.073308
 21
164.92439
 31
0.0
  0
LINE
  5
B8
100
AcDbEntity
  8
1
370
     9
  6
HIDDEN
 62
     7
100
AcDbLine
 10
164.997223
 20
165.33638
 30
0.0
 11
169.997223
 21
165.188
 31
0.0
  0
LINE
  5
B9
100
AcDbEntity
  8
1
370
     9
  6
HIDDEN
 62
     7
100
AcDbLine
 10
169.997223
 20
163.887967
 30
0.0
 11
164.997223
 21
164.03635
 31
0.0
  0
LINE
  5
BA
100
AcDbEntity
  8
1
370
     9
  6
HIDDEN
 62
     7
100
AcDbLine
 10
164.997223
 20
162.833525
 30
0.0
 11
169.997223
 21
162.784065
 31
0.0
  0
LINE
  5
BB
100
AcDbEntity
  8
1
370
     9
  6
HIDDEN
 62
     7
100
AcDbLine
 10
169.997223
 20
161.484062
 30
0.0
 11
164.997223
 21
161.533525
 31
0.0
  0
ARC
  5
BC
100
AcDbEntity
  8
1
370
    30
  6
Continuous
 62
     7
100
AcDbCircle
 10
218.997223
 20
166.885
 30
0.0
 40
1.0
100
AcDbArc
 50
0.0
 51
90.0
  0
LINE
  5
BD
100
AcDbEntity
  8
1
370
    30
  6
Continuous
 62
     7
100
AcDbLine
 10
219.997223
 20
166.885
 30
0.0
 11
219.997223
 21
146.885
 31
0.0
  0
ARC
  5
BE
100
AcDbEntity
  8
1
370
    30
  6
Continuous
 62
     7
100
AcDbCircle
 10
218.997223
 20
146.885
 30
0.0
 40
1.0
100
AcDbArc
 50
-90.0
 51
0.0
  0
LINE
  5
BF
100
AcDbEntity
  8
1
370
    30
  6
Continuous
 62
     7
100
AcDbLine
 10
218.997223
 20
145.885
 30
0.0
 11
210.997223
 21
145.885
 31
0.0
  0
ARC
  5
C0
100
AcDbEntity
  8
1
370
    30
  6
Continuous
 62
     7
100
AcDbCircle
 10
210.997223
 20
146.885
 30
0.0
 40
1.0
100
AcDbArc
 50
180.0
 51
-90.0
  0
LINE
  5
C1
100
AcDbEntity
  8
1
370
    30
  6
Continuous
 62
     7
100
AcDbLine
 10
210.997223
 20
167.885
 30
0.0
 11
218.997223
 21
167.885
 31
0.0
  0
LINE
  5
C2
100
AcDbEntity
  8
1
370
    30
  6
Continuous
 62
     7
100
AcDbLine
 10
209.997223
 20
146.885
 30
0.0
 11
209.997223
 21
166.885
 31
0.0
  0
ARC
  5
C3
100
AcDbEntity
  8
1
370
    30
  6
Continuous
 62
     7
100
AcDbCircle
 10
210.997223
 20
166.885
 30
0.0
 40
1.0
100
AcDbArc
 50
90.0
 51
180.0
  0
LINE
  5
C4
100
AcDbEntity
  8
1
370
     9
  6
HIDDEN
 62
     7
100
AcDbLine
 10
229.997223
 20
158.155434
 30
0.0
 11
234.997278
 21
158.149934
 31
0.0
  0
LINE
  5
C5
100
AcDbEntity
  8
1
370
     9
  6
HIDDEN
 62
     7
100
AcDbLine
 10
229.997223
 20
156.809949
 30
0.0
 11
234.997223
 21
156.904449
 31
0.0
  0
LINE
  5
C6
100
AcDbEntity
  8
1
370
     9
  6
HIDDEN
 62
     7
100
AcDbLine
 10
229.997019
 20
156.855434
 30
0.0
 11
234.997058
 21
156.849933
 31
0.0
  0
LINE
  5
C7
100
AcDbEntity
  8
1
370
     9
  6
HIDDEN
 62
     7
100
AcDbLine
 10
234.997223
 20
155.704414
 30
0.0
 11
229.997223
 21
155.609914
 31
0.0
  0
LINE
  5
C8
100
AcDbEntity
  8
1
370
     9
  6
HIDDEN
 62
     7
100
AcDbLine
 10
229.997223
 20
154.188984
 30
0.0
 11
234.997223
 21
154.188984
 31
0.0
  0
LINE
  5
C9
100
AcDbEntity
  8
1
370
     9
  6
HIDDEN
 62
     7
100
AcDbLine
 10
229.997223
 20
152.888984
 30
0.0
 11
234.997223
 21
152.888984
 31
0.0
  0
LINE
  5
CA
100
AcDbEntity
  8
1
370
     9
  6
HIDDEN
 62
     7
100
AcDbLine
 10
234.998168
 20
151.423544
 30
0.0
 11
229.997223
 21
151.51806
 31
0.0
  0
LINE
  5
CB
100
AcDbEntity
  8
1
370
     9
  6
HIDDEN
 62
     7
100
AcDbLine
 10
229.997223
 20
150.218004
 30
0.0
 11
234.994388
 21
150.123559
 31
0.0
  0
LINE
  5
CC
100
AcDbEntity
  8
1
370
     9
  6
HIDDEN
 62
     7
100
AcDbLine
 10
229.997107
 20
150.178034
 30
0.0
 11
234.997223
 21
150.183534
 31
0.0
  0
LINE
  5
CD
100
AcDbEntity
  8
1
370
     9
  6
HIDDEN
 62
     7
100
AcDbLine
 10
234.997333
 20
148.983534
 30
0.0
 11
229.997223
 21
148.978034
 31
0.0
  0
LINE
  5
CE
100
AcDbEntity
  8
1
370
     9
  6
HIDDEN
 62
     7
100
AcDbLine
 10
229.997223
 20
148.938064
 30
0.0
 11
231.995553
 21
148.980229
 31
0.0
  0
LINE
  5
CF
100
AcDbEntity
  8
1
370
     9
  6
HIDDEN
 62
     7
100
AcDbLine
 10
234.998278
 20
147.743524
 30
0.0
 11
229.997223
 21
147.638
 31
0.0
  0
ARC
  5
D0
100
AcDbEntity
  8
1
370
    30
  6
Continuous
 62
     7
100
AcDbCircle
 10
161.601223
 20
173.306456
 30
0.0
 40
8.225663
100
AcDbArc
 50
-65.615739
 51
-10.062521
  0
ARC
  5
D1
100
AcDbEntity
  8
1
370
    30
  6
Continuous
 62
     7
100
AcDbCircle
 10
238.393222
 20
173.306456
 30
0.0
 40
8.225663
100
AcDbArc
 50
-169.937476
 51
-114.384258
  0
ARC
  5
D2
100
AcDbEntity
  8
1
370
    30
  6
Continuous
 62
     7
100
AcDbCircle
 10
161.601223
 20
140.322385
 30
0.0
 40
8.225663
100
AcDbArc
 50
10.062521
 51
65.615739
  0
ARC
  5
D3
100
AcDbEntity
  8
1
370
    30
  6
Continuous
 62
     7
100
AcDbCircle
 10
238.393223
 20
140.322385
 30
0.0
 40
8.225663
100
AcDbArc
 50
114.384261
 51
169.937479
  0
LINE
  5
D4
100
AcDbEntity
  8
1
370
    30
  6
Continuous
 62
     7
100
AcDbLine
 10
164.997223
 20
165.814546
 30
0.0
 11
164.997223
 21
147.814296
 31
0.0
  0
LINE
  5
D5
100
AcDbEntity
  8
1
370
    30
  6
Continuous
 62
     7
100
AcDbLine
 10
234.997223
 20
165.814546
 30
0.0
 11
234.997223
 21
147.743501
 31
0.0
  0
ARC
  5
D6
100
AcDbEntity
  8
1
370
    30
  6
Continuous
 62
     7
100
AcDbCircle
 10
170.532407
 20
142.385
 30
0.0
 40
1.0
100
AcDbArc
 50
-146.309932
 51
-90.0
  0
ARC
  5
D7
100
AcDbEntity
  8
1
370
    30
  6
Continuous
 62
     7
100
AcDbCircle
 10
229.462039
 20
142.385
 30
0.0
 40
1.0
100
AcDbArc
 50
-90.0
 51
-33.690068
  0
LINE
  5
D8
100
AcDbEntity
  8
1
370
    30
  6
Continuous
 62
     7
100
AcDbLine
 10
170.532407
 20
141.385
 30
0.0
 11
229.565052
 21
141.385
 31
0.0
  0
ARC
  5
D9
100
AcDbEntity
  8
1
370
    30
  6
Continuous
 62
     7
100
AcDbCircle
 10
170.532407
 20
171.385
 30
0.0
 40
1.0
100
AcDbArc
 50
90.0
 51
146.309932
  0
ARC
  5
DA
100
AcDbEntity
  8
1
370
    30
  6
Continuous
 62
     7
100
AcDbCircle
 10
229.462038
 20
171.385
 30
0.0
 40
1.0
100
AcDbArc
 50
33.69007
 51
90.000003
  0
LINE
  5
DB
100
AcDbEntity
  8
1
370
    30
  6
Continuous
 62
     7
100
AcDbLine
 10
170.475471
 20
172.385
 30
0.0
 11
229.462038
 21
172.385
 31
0.0
  0
LINE
  5
DC
100
AcDbEntity
  8
1
370
    30
  6
Continuous
 62
     7
100
AcDbLine
 10
113.268723
 20
159.948416
 30
0.0
 11
113.268723
 21
168.948416
 31
0.0
  0
LINE
  5
DD
100
AcDbEntity
  8
1
370
    30
  6
Continuous
 62
     7
100
AcDbLine
 10
103.268723
 20
158.948423
 30
0.0
 11
103.268723
 21
169.948416
 31
0.0
  0
LINE
  5
DE
100
AcDbEntity
  8
1
370
    30
  6
Continuous
 62
     7
100
AcDbLine
 10
113.268723
 20
159.948416
 30
0.0
 11
103.268723
 21
159.948416
 31
0.0
  0
LINE
  5
DF
100
AcDbEntity
  8
1
370
    30
  6
Continuous
 62
     7
100
AcDbLine
 10
113.268723
 20
168.948416
 30
0.0
 11
103.268723
 21
168.948416
 31
0.0
  0
LINE
  5
E0
100
AcDbEntity
  8
1
370
    30
  6
Continuous
 62
     7
100
AcDbLine
 10
93.268723
 20
158.948423
 30
0.0
 11
103.268723
 21
158.948423
 31
0.0
  0
LINE
  5
E1
100
AcDbEntity
  8
1
370
    30
  6
Continuous
 62
     7
100
AcDbLine
 10
93.268723
 20
169.948416
 30
0.0
 11
103.268723
 21
169.948416
 31
0.0
  0
LINE
  5
E2
100
AcDbEntity
  8
1
370
    30
  6
Continuous
 62
     7
100
AcDbLine
 10
93.268723
 20
158.948423
 30
0.0
 11
93.268723
 21
169.948416
 31
0.0
  0
LINE
  5
E3
100
AcDbEntity
  8
1
370
    30
  6
Continuous
 62
     7
100
AcDbLine
 10
29.747329
 20
161.72856
 30
0.0
 11
29.747329
 21
163.128584
 31
0.0
  0
LINE
  5
E4
100
AcDbEntity
  8
1
370
    30
  6
Continuous
 62
     7
100
AcDbLine
 10
29.747329
 20
165.408568
 30
0.0
 11
29.747329
 21
166.808577
 31
0.0
  0
LINE
  5
E5
100
AcDbEntity
  8
1
370
    30
  6
Continuous
 62
     7
100
AcDbLine
 10
80.768723
 20
159.948408
 30
0.0
 11
80.768723
 21
168.948416
 31
0.0
  0
LINE
  5
E6
100
AcDbEntity
  8
1
370
    30
  6
Continuous
 62
     7
100
AcDbLine
 10
80.768723
 20
159.948408
 30
0.0
 11
93.268723
 21
159.948408
 31
0.0
  0
LINE
  5
E7
100
AcDbEntity
  8
1
370
    30
  6
Continuous
 62
     7
100
AcDbLine
 10
80.768723
 20
168.948416
 30
0.0
 11
93.268723
 21
168.948416
 31
0.0
  0
LINE
  5
E8
100
AcDbEntity
  8
1
370
    30
  6
Continuous
 62
     7
100
AcDbLine
 10
93.268723
 20
167.344818
 30
0.0
 11
103.268723
 21
167.344818
 31
0.0
  0
POLYLINE
  5
E9
100
AcDbEntity
  8
1
370
    30
  6
Continuous
 62
     7
100
AcDb2dPolyline
 66
     1
 10
0.0
 20
0.0
 30
0.0
 70
     2
  0
VERTEX
  5
EA
100
AcDbEntity
  8
1
370
    30
  6
Continuous
 62
     7
100
AcDbVertex
100
AcDb2dVertex
 10
136.730684
 20
169.702855
 30
0.0
  0
VERTEX
  5
EB
100
AcDbEntity
  8
1
370
    30
  6
Continuous
 62
     7
100
AcDbVertex
100
AcDb2dVertex
 10
136.709416
 20
169.669982
 30
0.0
  0
VERTEX
  5
EC
100
AcDbEntity
  8
1
370
    30
  6
Continuous
 62
     7
100
AcDbVertex
100
AcDb2dVertex
 10
136.646215
 20
169.57226
 30
0.0
  0
VERTEX
  5
ED
100
AcDbEntity
  8
1
370
    30
  6
Continuous
 62
     7
100
AcDbVertex
100
AcDb2dVertex
 10
136.543015
 20
169.412369
 30
0.0
  0
VERTEX
  5
EE
100
AcDbEntity
  8
1
370
    30
  6
Continuous
 62
     7
100
AcDbVertex
100
AcDb2dVertex
 10
136.403386
 20
169.194715
 30
0.0
  0
VERTEX
  5
EF
100
AcDbEntity
  8
1
370
    30
  6
Continuous
 62
     7
100
AcDbVertex
100
AcDb2dVertex
 10
136.23289
 20
168.925342
 30
0.0
  0
VERTEX
  5
F0
100
AcDbEntity
  8
1
370
    30
  6
Continuous
 62
     7
100
AcDbVertex
100
AcDb2dVertex
 10
136.039301
 20
168.611787
 30
0.0
  0
VERTEX
  5
F1
100
AcDbEntity
  8
1
370
    30
  6
Continuous
 62
     7
100
AcDbVertex
100
AcDb2dVertex
 10
135.832499
 20
168.262883
 30
0.0
  0
VERTEX
  5
F2
100
AcDbEntity
  8
1
370
    30
  6
Continuous
 62
     7
100
AcDbVertex
100
AcDb2dVertex
 10
135.62393
 20
167.888499
 30
0.0
  0
VERTEX
  5
F3
100
AcDbEntity
  8
1
370
    30
  6
Continuous
 62
     7
100
AcDbVertex
100
AcDb2dVertex
 10
135.425618
 20
167.499232
 30
0.0
  0
VERTEX
  5
F4
100
AcDbEntity
  8
1
370
    30
  6
Continuous
 62
     7
100
AcDbVertex
100
AcDb2dVertex
 10
135.24884
 20
167.106058
 30
0.0
  0
VERTEX
  5
F5
100
AcDbEntity
  8
1
370
    30
  6
Continuous
 62
     7
100
AcDbVertex
100
AcDb2dVertex
 10
135.102687
 20
166.719958
 30
0.0
  0
VERTEX
  5
F6
100
AcDbEntity
  8
1
370
    30
  6
Continuous
 62
     7
100
AcDbVertex
100
AcDb2dVertex
 10
134.992785
 20
166.351567
 30
0.0
  0
VERTEX
  5
F7
100
AcDbEntity
  8
1
370
    30
  6
Continuous
 62
     7
100
AcDbVertex
100
AcDb2dVertex
 10
134.920465
 20
166.010829
 30
0.0
  0
VERTEX
  5
F8
100
AcDbEntity
  8
1
370
    30
  6
Continuous
 62
     7
100
AcDbVertex
100
AcDb2dVertex
 10
134.8826
 20
165.706731
 30
0.0
  0
VERTEX
  5
F9
100
AcDbEntity
  8
1
370
    30
  6
Continuous
 62
     7
100
AcDbVertex
100
AcDb2dVertex
 10
134.872195
 20
165.44708
 30
0.0
  0
VERTEX
  5
FA
100
AcDbEntity
  8
1
370
    30
  6
Continuous
 62
     7
100
AcDbVertex
100
AcDb2dVertex
 10
134.879675
 20
165.23836
 30
0.0
  0
VERTEX
  5
FB
100
AcDbEntity
  8
1
370
    30
  6
Continuous
 62
     7
100
AcDbVertex
100
AcDb2dVertex
 10
134.894661
 20
165.085646
 30
0.0
  0
VERTEX
  5
FC
100
AcDbEntity
  8
1
370
    30
  6
Continuous
 62
     7
100
AcDbVertex
100
AcDb2dVertex
 10
134.907916
 20
164.992568
 30
0.0
  0
VERTEX
  5
FD
100
AcDbEntity
  8
1
370
    30
  6
Continuous
 62
     7
100
AcDbVertex
100
AcDb2dVertex
 10
134.913088
 20
164.9613
 30
0.0
  0
VERTEX
  5
FE
100
AcDbEntity
  8
1
370
    30
  6
Continuous
 62
     7
100
AcDbVertex
100
AcDb2dVertex
 10
134.918622
 20
164.930055
 30
0.0
  0
VERTEX
  5
FF
100
AcDbEntity
  8
1
370
    30
  6
Continuous
 62
     7
100
AcDbVertex
100
AcDb2dVertex
 10
134.937168
 20
164.837301
 30
0.0
  0
VERTEX
  5
100
100
AcDbEntity
  8
1
370
    30
  6
Continuous
 62
     7
100
AcDbVertex
100
AcDb2dVertex
 10
134.973995
 20
164.685945
 30
0.0
  0
VERTEX
  5
101
100
AcDbEntity
  8
1
370
    30
  6
Continuous
 62
     7
100
AcDbVertex
100
AcDb2dVertex
 10
135.036156
 20
164.480698
 30
0.0
  0
VERTEX
  5
102
100
AcDbEntity
  8
1
370
    30
  6
Continuous
 62
     7
100
AcDbVertex
100
AcDb2dVertex
 10
135.130331
 20
164.227883
 30
0.0
  0
VERTEX
  5
103
100
AcDbEntity
  8
1
370
    30
  6
Continuous
 62
     7
100
AcDbVertex
100
AcDb2dVertex
 10
135.260613
 20
163.935184
 30
0.0
  0
VERTEX
  5
104
100
AcDbEntity
  8
1
370
    30
  6
Continuous
 62
     7
100
AcDbVertex
100
AcDb2dVertex
 10
135.426764
 20
163.611352
 30
0.0
  0
VERTEX
  5
105
100
AcDbEntity
  8
1
370
    30
  6
Continuous
 62
     7
100
AcDbVertex
100
AcDb2dVertex
 10
135.623408
 20
163.265882
 30
0.0
  0
VERTEX
  5
106
100
AcDbEntity
  8
1
370
    30
  6
Continuous
 62
     7
100
AcDbVertex
100
AcDb2dVertex
 10
135.840356
 20
162.908685
 30
0.0
  0
VERTEX
  5
107
100
AcDbEntity
  8
1
370
    30
  6
Continuous
 62
     7
100
AcDbVertex
100
AcDb2dVertex
 10
136.064041
 20
162.54976
 30
0.0
  0
VERTEX
  5
108
100
AcDbEntity
  8
1
370
    30
  6
Continuous
 62
     7
100
AcDbVertex
100
AcDb2dVertex
 10
136.279722
 20
162.198898
 30
0.0
  0
VERTEX
  5
109
100
AcDbEntity
  8
1
370
    30
  6
Continuous
 62
     7
100
AcDbVertex
100
AcDb2dVertex
 10
136.473968
 20
161.865413
 30
0.0
  0
VERTEX
  5
10A
100
AcDbEntity
  8
1
370
    30
  6
Continuous
 62
     7
100
AcDbVertex
100
AcDb2dVertex
 10
136.636853
 20
161.557915
 30
0.0
  0
VERTEX
  5
10B
100
AcDbEntity
  8
1
370
    30
  6
Continuous
 62
     7
100
AcDbVertex
100
AcDb2dVertex
 10
136.763352
 20
161.284129
 30
0.0
  0
VERTEX
  5
10C
100
AcDbEntity
  8
1
370
    30
  6
Continuous
 62
     7
100
AcDbVertex
100
AcDb2dVertex
 10
136.853638
 20
161.050758
 30
0.0
  0
VERTEX
  5
10D
100
AcDbEntity
  8
1
370
    30
  6
Continuous
 62
     7
100
AcDbVertex
100
AcDb2dVertex
 10
136.912225
 20
160.863379
 30
0.0
  0
VERTEX
  5
10E
100
AcDbEntity
  8
1
370
    30
  6
Continuous
 62
     7
100
AcDbVertex
100
AcDb2dVertex
 10
136.946182
 20
160.726377
 30
0.0
  0
VERTEX
  5
10F
100
AcDbEntity
  8
1
370
    30
  6
Continuous
 62
     7
100
AcDbVertex
100
AcDb2dVertex
 10
136.96287
 20
160.64291
 30
0.0
  0
VERTEX
  5
110
100
AcDbEntity
  8
1
370
    30
  6
Continuous
 62
     7
100
AcDbVertex
100
AcDb2dVertex
 10
136.967762
 20
160.614876
 30
0.0
  0
VERTEX
  5
111
100
AcDbEntity
  8
1
370
    30
  6
Continuous
 62
     7
100
AcDbVertex
100
AcDb2dVertex
 10
136.972283
 20
160.586863
 30
0.0
  0
VERTEX
  5
112
100
AcDbEntity
  8
1
370
    30
  6
Continuous
 62
     7
100
AcDbVertex
100
AcDb2dVertex
 10
136.983551
 20
160.50372
 30
0.0
  0
VERTEX
  5
113
100
AcDbEntity
  8
1
370
    30
  6
Continuous
 62
     7
100
AcDbVertex
100
AcDb2dVertex
 10
136.995123
 20
160.368077
 30
0.0
  0
VERTEX
  5
114
100
AcDbEntity
  8
1
370
    30
  6
Continuous
 62
     7
100
AcDbVertex
100
AcDb2dVertex
 10
136.99764
 20
160.184171
 30
0.0
  0
VERTEX
  5
115
100
AcDbEntity
  8
1
370
    30
  6
Continuous
 62
     7
100
AcDbVertex
100
AcDb2dVertex
 10
136.980612
 20
159.957635
 30
0.0
  0
VERTEX
  5
116
100
AcDbEntity
  8
1
370
    30
  6
Continuous
 62
     7
100
AcDbVertex
100
AcDb2dVertex
 10
136.934405
 20
159.695249
 30
0.0
  0
VERTEX
  5
117
100
AcDbEntity
  8
1
370
    30
  6
Continuous
 62
     7
100
AcDbVertex
100
AcDb2dVertex
 10
136.852056
 20
159.404656
 30
0.0
  0
VERTEX
  5
118
100
AcDbEntity
  8
1
370
    30
  6
Continuous
 62
     7
100
AcDbVertex
100
AcDb2dVertex
 10
136.730588
 20
159.094093
 30
0.0
  0
VERTEX
  5
119
100
AcDbEntity
  8
1
370
    30
  6
Continuous
 62
     7
100
AcDbVertex
100
AcDb2dVertex
 10
136.571607
 20
158.772133
 30
0.0
  0
VERTEX
  5
11A
100
AcDbEntity
  8
1
370
    30
  6
Continuous
 62
     7
100
AcDbVertex
100
AcDb2dVertex
 10
136.38113
 20
158.447458
 30
0.0
  0
VERTEX
  5
11B
100
AcDbEntity
  8
1
370
    30
  6
Continuous
 62
     7
100
AcDbVertex
100
AcDb2dVertex
 10
136.168723
 20
158.128665
 30
0.0
  0
VERTEX
  5
11C
100
AcDbEntity
  8
1
370
    30
  6
Continuous
 62
     7
100
AcDbVertex
100
AcDb2dVertex
 10
135.946191
 20
157.824094
 30
0.0
  0
VERTEX
  5
11D
100
AcDbEntity
  8
1
370
    30
  6
Continuous
 62
     7
100
AcDbVertex
100
AcDb2dVertex
 10
135.726093
 20
157.541668
 30
0.0
  0
VERTEX
  5
11E
100
AcDbEntity
  8
1
370
    30
  6
Continuous
 62
     7
100
AcDbVertex
100
AcDb2dVertex
 10
135.52038
 20
157.288739
 30
0.0
  0
VERTEX
  5
11F
100
AcDbEntity
  8
1
370
    30
  6
Continuous
 62
     7
100
AcDbVertex
100
AcDb2dVertex
 10
135.339372
 20
157.071925
 30
0.0
  0
VERTEX
  5
120
100
AcDbEntity
  8
1
370
    30
  6
Continuous
 62
     7
100
AcDbVertex
100
AcDb2dVertex
 10
135.191206
 20
156.896953
 30
0.0
  0
VERTEX
  5
121
100
AcDbEntity
  8
1
370
    30
  6
Continuous
 62
     7
100
AcDbVertex
100
AcDb2dVertex
 10
135.081721
 20
156.768487
 30
0.0
  0
VERTEX
  5
122
100
AcDbEntity
  8
1
370
    30
  6
Continuous
 62
     7
100
AcDbVertex
100
AcDb2dVertex
 10
135.014676
 20
156.689987
 30
0.0
  0
VERTEX
  5
123
100
AcDbEntity
  8
1
370
    30
  6
Continuous
 62
     7
100
AcDbVertex
100
AcDb2dVertex
 10
134.992114
 20
156.66358
 30
0.0
  0
SEQEND
  5
124
100
AcDbEntity
  8
1
370
    30
  6
Continuous
 62
     7
  0
POLYLINE
  5
125
100
AcDbEntity
  8
1
370
    30
  6
Continuous
 62
     7
100
AcDb2dPolyline
 66
     1
 10
0.0
 20
0.0
 30
0.0
 70
     2
  0
VERTEX
  5
126
100
AcDbEntity
  8
1
370
    30
  6
Continuous
 62
     7
100
AcDbVertex
100
AcDb2dVertex
 10
134.730684
 20
169.702855
 30
0.0
  0
VERTEX
  5
127
100
AcDbEntity
  8
1
370
    30
  6
Continuous
 62
     7
100
AcDbVertex
100
AcDb2dVertex
 10
134.709416
 20
169.669982
 30
0.0
  0
VERTEX
  5
128
100
AcDbEntity
  8
1
370
    30
  6
Continuous
 62
     7
100
AcDbVertex
100
AcDb2dVertex
 10
134.646215
 20
169.57226
 30
0.0
  0
VERTEX
  5
129
100
AcDbEntity
  8
1
370
    30
  6
Continuous
 62
     7
100
AcDbVertex
100
AcDb2dVertex
 10
134.543015
 20
169.412369
 30
0.0
  0
VERTEX
  5
12A
100
AcDbEntity
  8
1
370
    30
  6
Continuous
 62
     7
100
AcDbVertex
100
AcDb2dVertex
 10
134.403386
 20
169.194715
 30
0.0
  0
VERTEX
  5
12B
100
AcDbEntity
  8
1
370
    30
  6
Continuous
 62
     7
100
AcDbVertex
100
AcDb2dVertex
 10
134.23289
 20
168.925342
 30
0.0
  0
VERTEX
  5
12C
100
AcDbEntity
  8
1
370
    30
  6
Continuous
 62
     7
100
AcDbVertex
100
AcDb2dVertex
 10
134.039301
 20
168.611787
 30
0.0
  0
VERTEX
  5
12D
100
AcDbEntity
  8
1
370
    30
  6
Continuous
 62
     7
100
AcDbVertex
100
AcDb2dVertex
 10
133.832499
 20
168.262883
 30
0.0
  0
VERTEX
  5
12E
100
AcDbEntity
  8
1
370
    30
  6
Continuous
 62
     7
100
AcDbVertex
100
AcDb2dVertex
 10
133.62393
 20
167.888499
 30
0.0
  0
VERTEX
  5
12F
100
AcDbEntity
  8
1
370
    30
  6
Continuous
 62
     7
100
AcDbVertex
100
AcDb2dVertex
 10
133.425618
 20
167.499232
 30
0.0
  0
VERTEX
  5
130
100
AcDbEntity
  8
1
370
    30
  6
Continuous
 62
     7
100
AcDbVertex
100
AcDb2dVertex
 10
133.24884
 20
167.106058
 30
0.0
  0
VERTEX
  5
131
100
AcDbEntity
  8
1
370
    30
  6
Continuous
 62
     7
100
AcDbVertex
100
AcDb2dVertex
 10
133.102687
 20
166.719958
 30
0.0
  0
VERTEX
  5
132
100
AcDbEntity
  8
1
370
    30
  6
Continuous
 62
     7
100
AcDbVertex
100
AcDb2dVertex
 10
132.992785
 20
166.351567
 30
0.0
  0
VERTEX
  5
133
100
AcDbEntity
  8
1
370
    30
  6
Continuous
 62
     7
100
AcDbVertex
100
AcDb2dVertex
 10
132.920465
 20
166.010829
 30
0.0
  0
VERTEX
  5
134
100
AcDbEntity
  8
1
370
    30
  6
Continuous
 62
     7
100
AcDbVertex
100
AcDb2dVertex
 10
132.8826
 20
165.706731
 30
0.0
  0
VERTEX
  5
135
100
AcDbEntity
  8
1
370
    30
  6
Continuous
 62
     7
100
AcDbVertex
100
AcDb2dVertex
 10
132.872195
 20
165.44708
 30
0.0
  0
VERTEX
  5
136
100
AcDbEntity
  8
1
370
    30
  6
Continuous
 62
     7
100
AcDbVertex
100
AcDb2dVertex
 10
132.879675
 20
165.23836
 30
0.0
  0
VERTEX
  5
137
100
AcDbEntity
  8
1
370
    30
  6
Continuous
 62
     7
100
AcDbVertex
100
AcDb2dVertex
 10
132.894661
 20
165.085646
 30
0.0
  0
VERTEX
  5
138
100
AcDbEntity
  8
1
370
    30
  6
Continuous
 62
     7
100
AcDbVertex
100
AcDb2dVertex
 10
132.907916
 20
164.992568
 30
0.0
  0
VERTEX
  5
139
100
AcDbEntity
  8
1
370
    30
  6
Continuous
 62
     7
100
AcDbVertex
100
AcDb2dVertex
 10
132.913088
 20
164.9613
 30
0.0
  0
VERTEX
  5
13A
100
AcDbEntity
  8
1
370
    30
  6
Continuous
 62
     7
100
AcDbVertex
100
AcDb2dVertex
 10
132.918622
 20
164.930055
 30
0.0
  0
VERTEX
  5
13B
100
AcDbEntity
  8
1
370
    30
  6
Continuous
 62
     7
100
AcDbVertex
100
AcDb2dVertex
 10
132.937168
 20
164.837301
 30
0.0
  0
VERTEX
  5
13C
100
AcDbEntity
  8
1
370
    30
  6
Continuous
 62
     7
100
AcDbVertex
100
AcDb2dVertex
 10
132.973995
 20
164.685945
 30
0.0
  0
VERTEX
  5
13D
100
AcDbEntity
  8
1
370
    30
  6
Continuous
 62
     7
100
AcDbVertex
100
AcDb2dVertex
 10
133.036156
 20
164.480698
 30
0.0
  0
VERTEX
  5
13E
100
AcDbEntity
  8
1
370
    30
  6
Continuous
 62
     7
100
AcDbVertex
100
AcDb2dVertex
 10
133.130331
 20
164.227883
 30
0.0
  0
VERTEX
  5
13F
100
AcDbEntity
  8
1
370
    30
  6
Continuous
 62
     7
100
AcDbVertex
100
AcDb2dVertex
 10
133.260613
 20
163.935184
 30
0.0
  0
VERTEX
  5
140
100
AcDbEntity
  8
1
370
    30
  6
Continuous
 62
     7
100
AcDbVertex
100
AcDb2dVertex
 10
133.426764
 20
163.611352
 30
0.0
  0
VERTEX
  5
141
100
AcDbEntity
  8
1
370
    30
  6
Continuous
 62
     7
100
AcDbVertex
100
AcDb2dVertex
 10
133.623408
 20
163.265882
 30
0.0
  0
VERTEX
  5
142
100
AcDbEntity
  8
1
370
    30
  6
Continuous
 62
     7
100
AcDbVertex
100
AcDb2dVertex
 10
133.840356
 20
162.908685
 30
0.0
  0
VERTEX
  5
143
100
AcDbEntity
  8
1
370
    30
  6
Continuous
 62
     7
100
AcDbVertex
100
AcDb2dVertex
 10
134.064041
 20
162.54976
 30
0.0
  0
VERTEX
  5
144
100
AcDbEntity
  8
1
370
    30
  6
Continuous
 62
     7
100
AcDbVertex
100
AcDb2dVertex
 10
134.279722
 20
162.198898
 30
0.0
  0
VERTEX
  5
145
100
AcDbEntity
  8
1
370
    30
  6
Continuous
 62
     7
100
AcDbVertex
100
AcDb2dVertex
 10
134.473968
 20
161.865413
 30
0.0
  0
VERTEX
  5
146
100
AcDbEntity
  8
1
370
    30
  6
Continuous
 62
     7
100
AcDbVertex
100
AcDb2dVertex
 10
134.636853
 20
161.557915
 30
0.0
  0
VERTEX
  5
147
100
AcDbEntity
  8
1
370
    30
  6
Continuous
 62
     7
100
AcDbVertex
100
AcDb2dVertex
 10
134.763352
 20
161.284129
 30
0.0
  0
VERTEX
  5
148
100
AcDbEntity
  8
1
370
    30
  6
Continuous
 62
     7
100
AcDbVertex
100
AcDb2dVertex
 10
134.853638
 20
161.050758
 30
0.0
  0
VERTEX
  5
149
100
AcDbEntity
  8
1
370
    30
  6
Continuous
 62
     7
100
AcDbVertex
100
AcDb2dVertex
 10
134.912225
 20
160.863379
 30
0.0
  0
VERTEX
  5
14A
100
AcDbEntity
  8
1
370
    30
  6
Continuous
 62
     7
100
AcDbVertex
100
AcDb2dVertex
 10
134.946182
 20
160.726377
 30
0.0
  0
VERTEX
  5
14B
100
AcDbEntity
  8
1
370
    30
  6
Continuous
 62
     7
100
AcDbVertex
100
AcDb2dVertex
 10
134.96287
 20
160.64291
 30
0.0
  0
VERTEX
  5
14C
100
AcDbEntity
  8
1
370
    30
  6
Continuous
 62
     7
100
AcDbVertex
100
AcDb2dVertex
 10
134.967762
 20
160.614876
 30
0.0
  0
VERTEX
  5
14D
100
AcDbEntity
  8
1
370
    30
  6
Continuous
 62
     7
100
AcDbVertex
100
AcDb2dVertex
 10
134.972283
 20
160.586863
 30
0.0
  0
VERTEX
  5
14E
100
AcDbEntity
  8
1
370
    30
  6
Continuous
 62
     7
100
AcDbVertex
100
AcDb2dVertex
 10
134.983551
 20
160.50372
 30
0.0
  0
VERTEX
  5
14F
100
AcDbEntity
  8
1
370
    30
  6
Continuous
 62
     7
100
AcDbVertex
100
AcDb2dVertex
 10
134.995123
 20
160.368077
 30
0.0
  0
VERTEX
  5
150
100
AcDbEntity
  8
1
370
    30
  6
Continuous
 62
     7
100
AcDbVertex
100
AcDb2dVertex
 10
134.99764
 20
160.184171
 30
0.0
  0
VERTEX
  5
151
100
AcDbEntity
  8
1
370
    30
  6
Continuous
 62
     7
100
AcDbVertex
100
AcDb2dVertex
 10
134.980612
 20
159.957635
 30
0.0
  0
VERTEX
  5
152
100
AcDbEntity
  8
1
370
    30
  6
Continuous
 62
     7
100
AcDbVertex
100
AcDb2dVertex
 10
134.934405
 20
159.695249
 30
0.0
  0
VERTEX
  5
153
100
AcDbEntity
  8
1
370
    30
  6
Continuous
 62
     7
100
AcDbVertex
100
AcDb2dVertex
 10
134.852056
 20
159.404656
 30
0.0
  0
VERTEX
  5
154
100
AcDbEntity
  8
1
370
    30
  6
Continuous
 62
     7
100
AcDbVertex
100
AcDb2dVertex
 10
134.730588
 20
159.094093
 30
0.0
  0
VERTEX
  5
155
100
AcDbEntity
  8
1
370
    30
  6
Continuous
 62
     7
100
AcDbVertex
100
AcDb2dVertex
 10
134.571607
 20
158.772133
 30
0.0
  0
VERTEX
  5
156
100
AcDbEntity
  8
1
370
    30
  6
Continuous
 62
     7
100
AcDbVertex
100
AcDb2dVertex
 10
134.38113
 20
158.447458
 30
0.0
  0
VERTEX
  5
157
100
AcDbEntity
  8
1
370
    30
  6
Continuous
 62
     7
100
AcDbVertex
100
AcDb2dVertex
 10
134.168723
 20
158.128665
 30
0.0
  0
VERTEX
  5
158
100
AcDbEntity
  8
1
370
    30
  6
Continuous
 62
     7
100
AcDbVertex
100
AcDb2dVertex
 10
133.946191
 20
157.824094
 30
0.0
  0
VERTEX
  5
159
100
AcDbEntity
  8
1
370
    30
  6
Continuous
 62
     7
100
AcDbVertex
100
AcDb2dVertex
 10
133.726093
 20
157.541668
 30
0.0
  0
VERTEX
  5
15A
100
AcDbEntity
  8
1
370
    30
  6
Continuous
 62
     7
100
AcDbVertex
100
AcDb2dVertex
 10
133.52038
 20
157.288739
 30
0.0
  0
VERTEX
  5
15B
100
AcDbEntity
  8
1
370
    30
  6
Continuous
 62
     7
100
AcDbVertex
100
AcDb2dVertex
 10
133.339372
 20
157.071925
 30
0.0
  0
VERTEX
  5
15C
100
AcDbEntity
  8
1
370
    30
  6
Continuous
 62
     7
100
AcDbVertex
100
AcDb2dVertex
 10
133.191206
 20
156.896953
 30
0.0
  0
VERTEX
  5
15D
100
AcDbEntity
  8
1
370
    30
  6
Continuous
 62
     7
100
AcDbVertex
100
AcDb2dVertex
 10
133.081721
 20
156.768487
 30
0.0
  0
VERTEX
  5
15E
100
AcDbEntity
  8
1
370
    30
  6
Continuous
 62
     7
100
AcDbVertex
100
AcDb2dVertex
 10
133.014676
 20
156.689987
 30
0.0
  0
VERTEX
  5
15F
100
AcDbEntity
  8
1
370
    30
  6
Continuous
 62
     7
100
AcDbVertex
100
AcDb2dVertex
 10
132.992114
 20
156.66358
 30
0.0
  0
SEQEND
  5
160
100
AcDbEntity
  8
1
370
    30
  6
Continuous
 62
     7
  0
LINE
  5
161
100
AcDbEntity
  8
1
370
    30
  6
Continuous
 62
     7
100
AcDbLine
 10
113.396323
 20
167.102105
 30
0.0
 11
132.980946
 21
166.26252
 31
0.0
  0
LINE
  5
162
100
AcDbEntity
  8
1
370
    30
  6
Continuous
 62
     7
100
AcDbLine
 10
132.908192
 20
164.98301
 30
0.0
 11
113.396323
 21
165.802105
 31
0.0
  0
LINE
  5
163
100
AcDbEntity
  8
1
370
    30
  6
Continuous
 62
     7
100
AcDbLine
 10
113.396323
 20
163.422105
 30
0.0
 11
133.694897
 21
163.153115
 31
0.0
  0
LINE
  5
164
100
AcDbEntity
  8
1
370
    30
  6
Continuous
 62
     7
100
AcDbLine
 10
134.473968
 20
161.85003
 30
0.0
 11
113.396323
 21
162.122105
 31
0.0
  0
LINE
  5
165
100
AcDbEntity
  8
1
370
    30
  6
Continuous
 62
     7
100
AcDbLine
 10
164.997223
 20
161.533525
 30
0.0
 11
136.500453
 21
161.830155
 31
0.0
  0
LINE
  5
166
100
AcDbEntity
  8
1
370
    30
  6
Continuous
 62
     7
100
AcDbLine
 10
135.710044
 20
163.13333
 30
0.0
 11
164.997223
 21
162.833525
 31
0.0
  0
LINE
  5
167
100
AcDbEntity
  8
1
370
    30
  6
Continuous
 62
     7
100
AcDbLine
 10
134.992785
 20
166.204275
 30
0.0
 11
164.997223
 21
165.33638
 31
0.0
  0
POLYLINE
  5
168
100
AcDbEntity
  8
1
370
    30
  6
Continuous
 62
     7
100
AcDb2dPolyline
 66
     1
 10
0.0
 20
0.0
 30
0.0
 70
     2
  0
VERTEX
  5
169
100
AcDbEntity
  8
1
370
    30
  6
Continuous
 62
     7
100
AcDbVertex
100
AcDb2dVertex
 10
57.187384
 20
170.238055
 30
0.0
  0
VERTEX
  5
16A
100
AcDbEntity
  8
1
370
    30
  6
Continuous
 62
     7
100
AcDbVertex
100
AcDb2dVertex
 10
57.166116
 20
170.205182
 30
0.0
  0
VERTEX
  5
16B
100
AcDbEntity
  8
1
370
    30
  6
Continuous
 62
     7
100
AcDbVertex
100
AcDb2dVertex
 10
57.102915
 20
170.10746
 30
0.0
  0
VERTEX
  5
16C
100
AcDbEntity
  8
1
370
    30
  6
Continuous
 62
     7
100
AcDbVertex
100
AcDb2dVertex
 10
56.999715
 20
169.947569
 30
0.0
  0
VERTEX
  5
16D
100
AcDbEntity
  8
1
370
    30
  6
Continuous
 62
     7
100
AcDbVertex
100
AcDb2dVertex
 10
56.860086
 20
169.729915
 30
0.0
  0
VERTEX
  5
16E
100
AcDbEntity
  8
1
370
    30
  6
Continuous
 62
     7
100
AcDbVertex
100
AcDb2dVertex
 10
56.68959
 20
169.460542
 30
0.0
  0
VERTEX
  5
16F
100
AcDbEntity
  8
1
370
    30
  6
Continuous
 62
     7
100
AcDbVertex
100
AcDb2dVertex
 10
56.496001
 20
169.146987
 30
0.0
  0
VERTEX
  5
170
100
AcDbEntity
  8
1
370
    30
  6
Continuous
 62
     7
100
AcDbVertex
100
AcDb2dVertex
 10
56.289199
 20
168.798083
 30
0.0
  0
VERTEX
  5
171
100
AcDbEntity
  8
1
370
    30
  6
Continuous
 62
     7
100
AcDbVertex
100
AcDb2dVertex
 10
56.08063
 20
168.423699
 30
0.0
  0
VERTEX
  5
172
100
AcDbEntity
  8
1
370
    30
  6
Continuous
 62
     7
100
AcDbVertex
100
AcDb2dVertex
 10
55.882318
 20
168.034432
 30
0.0
  0
VERTEX
  5
173
100
AcDbEntity
  8
1
370
    30
  6
Continuous
 62
     7
100
AcDbVertex
100
AcDb2dVertex
 10
55.70554
 20
167.641258
 30
0.0
  0
VERTEX
  5
174
100
AcDbEntity
  8
1
370
    30
  6
Continuous
 62
     7
100
AcDbVertex
100
AcDb2dVertex
 10
55.559387
 20
167.255158
 30
0.0
  0
VERTEX
  5
175
100
AcDbEntity
  8
1
370
    30
  6
Continuous
 62
     7
100
AcDbVertex
100
AcDb2dVertex
 10
55.449485
 20
166.886767
 30
0.0
  0
VERTEX
  5
176
100
AcDbEntity
  8
1
370
    30
  6
Continuous
 62
     7
100
AcDbVertex
100
AcDb2dVertex
 10
55.377165
 20
166.546029
 30
0.0
  0
VERTEX
  5
177
100
AcDbEntity
  8
1
370
    30
  6
Continuous
 62
     7
100
AcDbVertex
100
AcDb2dVertex
 10
55.3393
 20
166.241931
 30
0.0
  0
VERTEX
  5
178
100
AcDbEntity
  8
1
370
    30
  6
Continuous
 62
     7
100
AcDbVertex
100
AcDb2dVertex
 10
55.328895
 20
165.98228
 30
0.0
  0
VERTEX
  5
179
100
AcDbEntity
  8
1
370
    30
  6
Continuous
 62
     7
100
AcDbVertex
100
AcDb2dVertex
 10
55.336375
 20
165.77356
 30
0.0
  0
VERTEX
  5
17A
100
AcDbEntity
  8
1
370
    30
  6
Continuous
 62
     7
100
AcDbVertex
100
AcDb2dVertex
 10
55.351361
 20
165.620846
 30
0.0
  0
VERTEX
  5
17B
100
AcDbEntity
  8
1
370
    30
  6
Continuous
 62
     7
100
AcDbVertex
100
AcDb2dVertex
 10
55.364616
 20
165.527768
 30
0.0
  0
VERTEX
  5
17C
100
AcDbEntity
  8
1
370
    30
  6
Continuous
 62
     7
100
AcDbVertex
100
AcDb2dVertex
 10
55.369788
 20
165.4965
 30
0.0
  0
VERTEX
  5
17D
100
AcDbEntity
  8
1
370
    30
  6
Continuous
 62
     7
100
AcDbVertex
100
AcDb2dVertex
 10
55.375322
 20
165.465255
 30
0.0
  0
VERTEX
  5
17E
100
AcDbEntity
  8
1
370
    30
  6
Continuous
 62
     7
100
AcDbVertex
100
AcDb2dVertex
 10
55.393868
 20
165.372501
 30
0.0
  0
VERTEX
  5
17F
100
AcDbEntity
  8
1
370
    30
  6
Continuous
 62
     7
100
AcDbVertex
100
AcDb2dVertex
 10
55.430695
 20
165.221145
 30
0.0
  0
VERTEX
  5
180
100
AcDbEntity
  8
1
370
    30
  6
Continuous
 62
     7
100
AcDbVertex
100
AcDb2dVertex
 10
55.492856
 20
165.015898
 30
0.0
  0
VERTEX
  5
181
100
AcDbEntity
  8
1
370
    30
  6
Continuous
 62
     7
100
AcDbVertex
100
AcDb2dVertex
 10
55.587031
 20
164.763083
 30
0.0
  0
VERTEX
  5
182
100
AcDbEntity
  8
1
370
    30
  6
Continuous
 62
     7
100
AcDbVertex
100
AcDb2dVertex
 10
55.717313
 20
164.470384
 30
0.0
  0
VERTEX
  5
183
100
AcDbEntity
  8
1
370
    30
  6
Continuous
 62
     7
100
AcDbVertex
100
AcDb2dVertex
 10
55.883464
 20
164.146552
 30
0.0
  0
VERTEX
  5
184
100
AcDbEntity
  8
1
370
    30
  6
Continuous
 62
     7
100
AcDbVertex
100
AcDb2dVertex
 10
56.080108
 20
163.801082
 30
0.0
  0
VERTEX
  5
185
100
AcDbEntity
  8
1
370
    30
  6
Continuous
 62
     7
100
AcDbVertex
100
AcDb2dVertex
 10
56.297056
 20
163.443885
 30
0.0
  0
VERTEX
  5
186
100
AcDbEntity
  8
1
370
    30
  6
Continuous
 62
     7
100
AcDbVertex
100
AcDb2dVertex
 10
56.520741
 20
163.08496
 30
0.0
  0
VERTEX
  5
187
100
AcDbEntity
  8
1
370
    30
  6
Continuous
 62
     7
100
AcDbVertex
100
AcDb2dVertex
 10
56.736422
 20
162.734098
 30
0.0
  0
VERTEX
  5
188
100
AcDbEntity
  8
1
370
    30
  6
Continuous
 62
     7
100
AcDbVertex
100
AcDb2dVertex
 10
56.930668
 20
162.400613
 30
0.0
  0
VERTEX
  5
189
100
AcDbEntity
  8
1
370
    30
  6
Continuous
 62
     7
100
AcDbVertex
100
AcDb2dVertex
 10
57.093553
 20
162.093115
 30
0.0
  0
VERTEX
  5
18A
100
AcDbEntity
  8
1
370
    30
  6
Continuous
 62
     7
100
AcDbVertex
100
AcDb2dVertex
 10
57.220052
 20
161.819329
 30
0.0
  0
VERTEX
  5
18B
100
AcDbEntity
  8
1
370
    30
  6
Continuous
 62
     7
100
AcDbVertex
100
AcDb2dVertex
 10
57.310338
 20
161.585958
 30
0.0
  0
VERTEX
  5
18C
100
AcDbEntity
  8
1
370
    30
  6
Continuous
 62
     7
100
AcDbVertex
100
AcDb2dVertex
 10
57.368925
 20
161.398579
 30
0.0
  0
VERTEX
  5
18D
100
AcDbEntity
  8
1
370
    30
  6
Continuous
 62
     7
100
AcDbVertex
100
AcDb2dVertex
 10
57.402882
 20
161.261577
 30
0.0
  0
VERTEX
  5
18E
100
AcDbEntity
  8
1
370
    30
  6
Continuous
 62
     7
100
AcDbVertex
100
AcDb2dVertex
 10
57.41957
 20
161.17811
 30
0.0
  0
VERTEX
  5
18F
100
AcDbEntity
  8
1
370
    30
  6
Continuous
 62
     7
100
AcDbVertex
100
AcDb2dVertex
 10
57.424462
 20
161.150076
 30
0.0
  0
VERTEX
  5
190
100
AcDbEntity
  8
1
370
    30
  6
Continuous
 62
     7
100
AcDbVertex
100
AcDb2dVertex
 10
57.428983
 20
161.122063
 30
0.0
  0
VERTEX
  5
191
100
AcDbEntity
  8
1
370
    30
  6
Continuous
 62
     7
100
AcDbVertex
100
AcDb2dVertex
 10
57.440251
 20
161.03892
 30
0.0
  0
VERTEX
  5
192
100
AcDbEntity
  8
1
370
    30
  6
Continuous
 62
     7
100
AcDbVertex
100
AcDb2dVertex
 10
57.451823
 20
160.903277
 30
0.0
  0
VERTEX
  5
193
100
AcDbEntity
  8
1
370
    30
  6
Continuous
 62
     7
100
AcDbVertex
100
AcDb2dVertex
 10
57.45434
 20
160.719371
 30
0.0
  0
VERTEX
  5
194
100
AcDbEntity
  8
1
370
    30
  6
Continuous
 62
     7
100
AcDbVertex
100
AcDb2dVertex
 10
57.437312
 20
160.492835
 30
0.0
  0
VERTEX
  5
195
100
AcDbEntity
  8
1
370
    30
  6
Continuous
 62
     7
100
AcDbVertex
100
AcDb2dVertex
 10
57.391105
 20
160.230449
 30
0.0
  0
VERTEX
  5
196
100
AcDbEntity
  8
1
370
    30
  6
Continuous
 62
     7
100
AcDbVertex
100
AcDb2dVertex
 10
57.308756
 20
159.939856
 30
0.0
  0
VERTEX
  5
197
100
AcDbEntity
  8
1
370
    30
  6
Continuous
 62
     7
100
AcDbVertex
100
AcDb2dVertex
 10
57.187288
 20
159.629293
 30
0.0
  0
VERTEX
  5
198
100
AcDbEntity
  8
1
370
    30
  6
Continuous
 62
     7
100
AcDbVertex
100
AcDb2dVertex
 10
57.028307
 20
159.307333
 30
0.0
  0
VERTEX
  5
199
100
AcDbEntity
  8
1
370
    30
  6
Continuous
 62
     7
100
AcDbVertex
100
AcDb2dVertex
 10
56.83783
 20
158.982658
 30
0.0
  0
VERTEX
  5
19A
100
AcDbEntity
  8
1
370
    30
  6
Continuous
 62
     7
100
AcDbVertex
100
AcDb2dVertex
 10
56.625423
 20
158.663865
 30
0.0
  0
VERTEX
  5
19B
100
AcDbEntity
  8
1
370
    30
  6
Continuous
 62
     7
100
AcDbVertex
100
AcDb2dVertex
 10
56.402891
 20
158.359294
 30
0.0
  0
VERTEX
  5
19C
100
AcDbEntity
  8
1
370
    30
  6
Continuous
 62
     7
100
AcDbVertex
100
AcDb2dVertex
 10
56.182793
 20
158.076868
 30
0.0
  0
VERTEX
  5
19D
100
AcDbEntity
  8
1
370
    30
  6
Continuous
 62
     7
100
AcDbVertex
100
AcDb2dVertex
 10
55.97708
 20
157.823939
 30
0.0
  0
VERTEX
  5
19E
100
AcDbEntity
  8
1
370
    30
  6
Continuous
 62
     7
100
AcDbVertex
100
AcDb2dVertex
 10
55.796072
 20
157.607125
 30
0.0
  0
VERTEX
  5
19F
100
AcDbEntity
  8
1
370
    30
  6
Continuous
 62
     7
100
AcDbVertex
100
AcDb2dVertex
 10
55.647906
 20
157.432153
 30
0.0
  0
VERTEX
  5
1A0
100
AcDbEntity
  8
1
370
    30
  6
Continuous
 62
     7
100
AcDbVertex
100
AcDb2dVertex
 10
55.538421
 20
157.303687
 30
0.0
  0
VERTEX
  5
1A1
100
AcDbEntity
  8
1
370
    30
  6
Continuous
 62
     7
100
AcDbVertex
100
AcDb2dVertex
 10
55.471376
 20
157.225187
 30
0.0
  0
VERTEX
  5
1A2
100
AcDbEntity
  8
1
370
    30
  6
Continuous
 62
     7
100
AcDbVertex
100
AcDb2dVertex
 10
55.448814
 20
157.19878
 30
0.0
  0
SEQEND
  5
1A3
100
AcDbEntity
  8
1
370
    30
  6
Continuous
 62
     7
  0
POLYLINE
  5
1A4
100
AcDbEntity
  8
1
370
    30
  6
Continuous
 62
     7
100
AcDb2dPolyline
 66
     1
 10
0.0
 20
0.0
 30
0.0
 70
     2
  0
VERTEX
  5
1A5
100
AcDbEntity
  8
1
370
    30
  6
Continuous
 62
     7
100
AcDbVertex
100
AcDb2dVertex
 10
55.187384
 20
170.238055
 30
0.0
  0
VERTEX
  5
1A6
100
AcDbEntity
  8
1
370
    30
  6
Continuous
 62
     7
100
AcDbVertex
100
AcDb2dVertex
 10
55.166116
 20
170.205182
 30
0.0
  0
VERTEX
  5
1A7
100
AcDbEntity
  8
1
370
    30
  6
Continuous
 62
     7
100
AcDbVertex
100
AcDb2dVertex
 10
55.102915
 20
170.10746
 30
0.0
  0
VERTEX
  5
1A8
100
AcDbEntity
  8
1
370
    30
  6
Continuous
 62
     7
100
AcDbVertex
100
AcDb2dVertex
 10
54.999715
 20
169.947569
 30
0.0
  0
VERTEX
  5
1A9
100
AcDbEntity
  8
1
370
    30
  6
Continuous
 62
     7
100
AcDbVertex
100
AcDb2dVertex
 10
54.860086
 20
169.729915
 30
0.0
  0
VERTEX
  5
1AA
100
AcDbEntity
  8
1
370
    30
  6
Continuous
 62
     7
100
AcDbVertex
100
AcDb2dVertex
 10
54.68959
 20
169.460542
 30
0.0
  0
VERTEX
  5
1AB
100
AcDbEntity
  8
1
370
    30
  6
Continuous
 62
     7
100
AcDbVertex
100
AcDb2dVertex
 10
54.496001
 20
169.146987
 30
0.0
  0
VERTEX
  5
1AC
100
AcDbEntity
  8
1
370
    30
  6
Continuous
 62
     7
100
AcDbVertex
100
AcDb2dVertex
 10
54.289199
 20
168.798083
 30
0.0
  0
VERTEX
  5
1AD
100
AcDbEntity
  8
1
370
    30
  6
Continuous
 62
     7
100
AcDbVertex
100
AcDb2dVertex
 10
54.08063
 20
168.423699
 30
0.0
  0
VERTEX
  5
1AE
100
AcDbEntity
  8
1
370
    30
  6
Continuous
 62
     7
100
AcDbVertex
100
AcDb2dVertex
 10
53.882318
 20
168.034432
 30
0.0
  0
VERTEX
  5
1AF
100
AcDbEntity
  8
1
370
    30
  6
Continuous
 62
     7
100
AcDbVertex
100
AcDb2dVertex
 10
53.70554
 20
167.641258
 30
0.0
  0
VERTEX
  5
1B0
100
AcDbEntity
  8
1
370
    30
  6
Continuous
 62
     7
100
AcDbVertex
100
AcDb2dVertex
 10
53.559387
 20
167.255158
 30
0.0
  0
VERTEX
  5
1B1
100
AcDbEntity
  8
1
370
    30
  6
Continuous
 62
     7
100
AcDbVertex
100
AcDb2dVertex
 10
53.449485
 20
166.886767
 30
0.0
  0
VERTEX
  5
1B2
100
AcDbEntity
  8
1
370
    30
  6
Continuous
 62
     7
100
AcDbVertex
100
AcDb2dVertex
 10
53.377165
 20
166.546029
 30
0.0
  0
VERTEX
  5
1B3
100
AcDbEntity
  8
1
370
    30
  6
Continuous
 62
     7
100
AcDbVertex
100
AcDb2dVertex
 10
53.3393
 20
166.241931
 30
0.0
  0
VERTEX
  5
1B4
100
AcDbEntity
  8
1
370
    30
  6
Continuous
 62
     7
100
AcDbVertex
100
AcDb2dVertex
 10
53.328895
 20
165.98228
 30
0.0
  0
VERTEX
  5
1B5
100
AcDbEntity
  8
1
370
    30
  6
Continuous
 62
     7
100
AcDbVertex
100
AcDb2dVertex
 10
53.336375
 20
165.77356
 30
0.0
  0
VERTEX
  5
1B6
100
AcDbEntity
  8
1
370
    30
  6
Continuous
 62
     7
100
AcDbVertex
100
AcDb2dVertex
 10
53.351361
 20
165.620846
 30
0.0
  0
VERTEX
  5
1B7
100
AcDbEntity
  8
1
370
    30
  6
Continuous
 62
     7
100
AcDbVertex
100
AcDb2dVertex
 10
53.364616
 20
165.527768
 30
0.0
  0
VERTEX
  5
1B8
100
AcDbEntity
  8
1
370
    30
  6
Continuous
 62
     7
100
AcDbVertex
100
AcDb2dVertex
 10
53.369788
 20
165.4965
 30
0.0
  0
VERTEX
  5
1B9
100
AcDbEntity
  8
1
370
    30
  6
Continuous
 62
     7
100
AcDbVertex
100
AcDb2dVertex
 10
53.375322
 20
165.465255
 30
0.0
  0
VERTEX
  5
1BA
100
AcDbEntity
  8
1
370
    30
  6
Continuous
 62
     7
100
AcDbVertex
100
AcDb2dVertex
 10
53.393868
 20
165.372501
 30
0.0
  0
VERTEX
  5
1BB
100
AcDbEntity
  8
1
370
    30
  6
Continuous
 62
     7
100
AcDbVertex
100
AcDb2dVertex
 10
53.430695
 20
165.221145
 30
0.0
  0
VERTEX
  5
1BC
100
AcDbEntity
  8
1
370
    30
  6
Continuous
 62
     7
100
AcDbVertex
100
AcDb2dVertex
 10
53.492856
 20
165.015898
 30
0.0
  0
VERTEX
  5
1BD
100
AcDbEntity
  8
1
370
    30
  6
Continuous
 62
     7
100
AcDbVertex
100
AcDb2dVertex
 10
53.587031
 20
164.763083
 30
0.0
  0
VERTEX
  5
1BE
100
AcDbEntity
  8
1
370
    30
  6
Continuous
 62
     7
100
AcDbVertex
100
AcDb2dVertex
 10
53.717313
 20
164.470384
 30
0.0
  0
VERTEX
  5
1BF
100
AcDbEntity
  8
1
370
    30
  6
Continuous
 62
     7
100
AcDbVertex
100
AcDb2dVertex
 10
53.883464
 20
164.146552
 30
0.0
  0
VERTEX
  5
1C0
100
AcDbEntity
  8
1
370
    30
  6
Continuous
 62
     7
100
AcDbVertex
100
AcDb2dVertex
 10
54.080108
 20
163.801082
 30
0.0
  0
VERTEX
  5
1C1
100
AcDbEntity
  8
1
370
    30
  6
Continuous
 62
     7
100
AcDbVertex
100
AcDb2dVertex
 10
54.297056
 20
163.443885
 30
0.0
  0
VERTEX
  5
1C2
100
AcDbEntity
  8
1
370
    30
  6
Continuous
 62
     7
100
AcDbVertex
100
AcDb2dVertex
 10
54.520741
 20
163.08496
 30
0.0
  0
VERTEX
  5
1C3
100
AcDbEntity
  8
1
370
    30
  6
Continuous
 62
     7
100
AcDbVertex
100
AcDb2dVertex
 10
54.736422
 20
162.734098
 30
0.0
  0
VERTEX
  5
1C4
100
AcDbEntity
  8
1
370
    30
  6
Continuous
 62
     7
100
AcDbVertex
100
AcDb2dVertex
 10
54.930668
 20
162.400613
 30
0.0
  0
VERTEX
  5
1C5
100
AcDbEntity
  8
1
370
    30
  6
Continuous
 62
     7
100
AcDbVertex
100
AcDb2dVertex
 10
55.093553
 20
162.093115
 30
0.0
  0
VERTEX
  5
1C6
100
AcDbEntity
  8
1
370
    30
  6
Continuous
 62
     7
100
AcDbVertex
100
AcDb2dVertex
 10
55.220052
 20
161.819329
 30
0.0
  0
VERTEX
  5
1C7
100
AcDbEntity
  8
1
370
    30
  6
Continuous
 62
     7
100
AcDbVertex
100
AcDb2dVertex
 10
55.310338
 20
161.585958
 30
0.0
  0
VERTEX
  5
1C8
100
AcDbEntity
  8
1
370
    30
  6
Continuous
 62
     7
100
AcDbVertex
100
AcDb2dVertex
 10
55.368925
 20
161.398579
 30
0.0
  0
VERTEX
  5
1C9
100
AcDbEntity
  8
1
370
    30
  6
Continuous
 62
     7
100
AcDbVertex
100
AcDb2dVertex
 10
55.402882
 20
161.261577
 30
0.0
  0
VERTEX
  5
1CA
100
AcDbEntity
  8
1
370
    30
  6
Continuous
 62
     7
100
AcDbVertex
100
AcDb2dVertex
 10
55.41957
 20
161.17811
 30
0.0
  0
VERTEX
  5
1CB
100
AcDbEntity
  8
1
370
    30
  6
Continuous
 62
     7
100
AcDbVertex
100
AcDb2dVertex
 10
55.424462
 20
161.150076
 30
0.0
  0
VERTEX
  5
1CC
100
AcDbEntity
  8
1
370
    30
  6
Continuous
 62
     7
100
AcDbVertex
100
AcDb2dVertex
 10
55.428983
 20
161.122063
 30
0.0
  0
VERTEX
  5
1CD
100
AcDbEntity
  8
1
370
    30
  6
Continuous
 62
     7
100
AcDbVertex
100
AcDb2dVertex
 10
55.440251
 20
161.03892
 30
0.0
  0
VERTEX
  5
1CE
100
AcDbEntity
  8
1
370
    30
  6
Continuous
 62
     7
100
AcDbVertex
100
AcDb2dVertex
 10
55.451823
 20
160.903277
 30
0.0
  0
VERTEX
  5
1CF
100
AcDbEntity
  8
1
370
    30
  6
Continuous
 62
     7
100
AcDbVertex
100
AcDb2dVertex
 10
55.45434
 20
160.719371
 30
0.0
  0
VERTEX
  5
1D0
100
AcDbEntity
  8
1
370
    30
  6
Continuous
 62
     7
100
AcDbVertex
100
AcDb2dVertex
 10
55.437312
 20
160.492835
 30
0.0
  0
VERTEX
  5
1D1
100
AcDbEntity
  8
1
370
    30
  6
Continuous
 62
     7
100
AcDbVertex
100
AcDb2dVertex
 10
55.391105
 20
160.230449
 30
0.0
  0
VERTEX
  5
1D2
100
AcDbEntity
  8
1
370
    30
  6
Continuous
 62
     7
100
AcDbVertex
100
AcDb2dVertex
 10
55.308756
 20
159.939856
 30
0.0
  0
VERTEX
  5
1D3
100
AcDbEntity
  8
1
370
    30
  6
Continuous
 62
     7
100
AcDbVertex
100
AcDb2dVertex
 10
55.187288
 20
159.629293
 30
0.0
  0
VERTEX
  5
1D4
100
AcDbEntity
  8
1
370
    30
  6
Continuous
 62
     7
100
AcDbVertex
100
AcDb2dVertex
 10
55.028307
 20
159.307333
 30
0.0
  0
VERTEX
  5
1D5
100
AcDbEntity
  8
1
370
    30
  6
Continuous
 62
     7
100
AcDbVertex
100
AcDb2dVertex
 10
54.83783
 20
158.982658
 30
0.0
  0
VERTEX
  5
1D6
100
AcDbEntity
  8
1
370
    30
  6
Continuous
 62
     7
100
AcDbVertex
100
AcDb2dVertex
 10
54.625423
 20
158.663865
 30
0.0
  0
VERTEX
  5
1D7
100
AcDbEntity
  8
1
370
    30
  6
Continuous
 62
     7
100
AcDbVertex
100
AcDb2dVertex
 10
54.402891
 20
158.359294
 30
0.0
  0
VERTEX
  5
1D8
100
AcDbEntity
  8
1
370
    30
  6
Continuous
 62
     7
100
AcDbVertex
100
AcDb2dVertex
 10
54.182793
 20
158.076868
 30
0.0
  0
VERTEX
  5
1D9
100
AcDbEntity
  8
1
370
    30
  6
Continuous
 62
     7
100
AcDbVertex
100
AcDb2dVertex
 10
53.97708
 20
157.823939
 30
0.0
  0
VERTEX
  5
1DA
100
AcDbEntity
  8
1
370
    30
  6
Continuous
 62
     7
100
AcDbVertex
100
AcDb2dVertex
 10
53.796072
 20
157.607125
 30
0.0
  0
VERTEX
  5
1DB
100
AcDbEntity
  8
1
370
    30
  6
Continuous
 62
     7
100
AcDbVertex
100
AcDb2dVertex
 10
53.647906
 20
157.432153
 30
0.0
  0
VERTEX
  5
1DC
100
AcDbEntity
  8
1
370
    30
  6
Continuous
 62
     7
100
AcDbVertex
100
AcDb2dVertex
 10
53.538421
 20
157.303687
 30
0.0
  0
VERTEX
  5
1DD
100
AcDbEntity
  8
1
370
    30
  6
Continuous
 62
     7
100
AcDbVertex
100
AcDb2dVertex
 10
53.471376
 20
157.225187
 30
0.0
  0
VERTEX
  5
1DE
100
AcDbEntity
  8
1
370
    30
  6
Continuous
 62
     7
100
AcDbVertex
100
AcDb2dVertex
 10
53.448814
 20
157.19878
 30
0.0
  0
SEQEND
  5
1DF
100
AcDbEntity
  8
1
370
    30
  6
Continuous
 62
     7
  0
LINE
  5
1E0
100
AcDbEntity
  8
1
370
    30
  6
Continuous
 62
     7
100
AcDbLine
 10
29.747329
 20
163.128584
 30
0.0
 11
54.520741
 21
163.128584
 31
0.0
  0
LINE
  5
1E1
100
AcDbEntity
  8
1
370
    30
  6
Continuous
 62
     7
100
AcDbLine
 10
29.747329
 20
161.72856
 30
0.0
 11
55.220052
 21
161.72856
 31
0.0
  0
LINE
  5
1E2
100
AcDbEntity
  8
1
370
    30
  6
Continuous
 62
     7
100
AcDbLine
 10
56.493554
 20
163.128584
 30
0.0
 11
80.768723
 21
163.128584
 31
0.0
  0
LINE
  5
1E3
100
AcDbEntity
  8
1
370
    30
  6
Continuous
 62
     7
100
AcDbLine
 10
57.255169
 20
161.72856
 30
0.0
 11
80.768723
 21
161.72856
 31
0.0
  0
LINE
  5
1E4
100
AcDbEntity
  8
1
370
    30
  6
Continuous
 62
     7
100
AcDbLine
 10
29.747329
 20
166.808577
 30
0.0
 11
53.43289
 21
166.808577
 31
0.0
  0
LINE
  5
1E5
100
AcDbEntity
  8
1
370
    30
  6
Continuous
 62
     7
100
AcDbLine
 10
55.423548
 20
166.808577
 30
0.0
 11
80.768723
 21
166.808577
 31
0.0
  0
LINE
  5
1E6
100
AcDbEntity
  8
1
370
    30
  6
Continuous
 62
     7
100
AcDbLine
 10
55.413584
 20
165.408568
 30
0.0
 11
80.768723
 21
165.408568
 31
0.0
  0
LINE
  5
1E7
100
AcDbEntity
  8
1
370
    30
  6
Continuous
 62
     7
100
AcDbLine
 10
29.747329
 20
165.408568
 30
0.0
 11
53.386656
 21
165.408568
 31
0.0
  0
LINE
  5
1E8
100
AcDbEntity
  8
1
370
    30
  6
Continuous
 62
     7
100
AcDbLine
 10
278.72359
 20
159.738984
 30
0.0
 11
278.72359
 21
147.338984
 31
0.0
  0
LINE
  5
1E9
100
AcDbEntity
  8
1
370
    30
  6
Continuous
 62
     7
100
AcDbLine
 10
278.72359
 20
159.738984
 30
0.0
 11
298.52359
 21
159.738984
 31
0.0
  0
LINE
  5
1EA
100
AcDbEntity
  8
1
370
    30
  6
Continuous
 62
     7
100
AcDbLine
 10
278.72359
 20
147.338984
 30
0.0
 11
298.52359
 21
147.338984
 31
0.0
  0
LINE
  5
1EB
100
AcDbEntity
  8
1
370
    30
  6
Continuous
 62
     7
100
AcDbLine
 10
298.52359
 20
159.738984
 30
0.0
 11
298.52359
 21
147.338984
 31
0.0
  0
LINE
  5
1EC
100
AcDbEntity
  8
1
370
    30
  6
Continuous
 62
     7
100
AcDbLine
 10
297.32359
 20
154.638984
 30
0.0
 11
297.32359
 21
152.438984
 31
0.0
  0
LINE
  5
1ED
100
AcDbEntity
  8
1
370
    30
  6
Continuous
 62
     7
100
AcDbLine
 10
295.52359
 20
154.638984
 30
0.0
 11
295.52359
 21
152.438984
 31
0.0
  0
LINE
  5
1EE
100
AcDbEntity
  8
1
370
    30
  6
Continuous
 62
     7
100
AcDbLine
 10
294.42359
 20
154.638984
 30
0.0
 11
294.42359
 21
152.438984
 31
0.0
  0
LINE
  5
1EF
100
AcDbEntity
  8
1
370
    30
  6
Continuous
 62
     7
100
AcDbLine
 10
292.62359
 20
154.638984
 30
0.0
 11
292.62359
 21
152.438984
 31
0.0
  0
LINE
  5
1F0
100
AcDbEntity
  8
1
370
    30
  6
Continuous
 62
     7
100
AcDbLine
 10
292.62359
 20
154.638984
 30
0.0
 11
297.32359
 21
154.638984
 31
0.0
  0
LINE
  5
1F1
100
AcDbEntity
  8
1
370
    30
  6
Continuous
 62
     7
100
AcDbLine
 10
292.62359
 20
152.438984
 30
0.0
 11
297.32359
 21
152.438984
 31
0.0
  0
LINE
  5
1F2
100
AcDbEntity
  8
1
370
    30
  6
Continuous
 62
     7
100
AcDbLine
 10
278.72548
 20
156.828999
 30
0.0
 11
246.935225
 21
156.228164
 31
0.0
  0
LINE
  5
1F3
100
AcDbEntity
  8
1
370
    30
  6
Continuous
 62
     7
100
AcDbLine
 10
244.925245
 20
156.190174
 30
0.0
 11
234.997223
 21
155.704414
 31
0.0
  0
LINE
  5
1F4
100
AcDbEntity
  8
1
370
    30
  6
Continuous
 62
     7
100
AcDbLine
 10
247.3188
 20
149.014439
 30
0.0
 11
234.997223
 21
148.983534
 31
0.0
  0
LINE
  5
1F5
100
AcDbEntity
  8
1
370
    30
  6
Continuous
 62
     7
100
AcDbLine
 10
278.72359
 20
149.048984
 30
0.0
 11
249.319635
 21
149.016639
 31
0.0
  0
LINE
  5
1F6
100
AcDbEntity
  8
1
370
    30
  6
Continuous
 62
     7
100
AcDbLine
 10
234.997223
 20
158.144434
 30
0.0
 11
245.86842
 21
158.115124
 31
0.0
  0
LINE
  5
1F7
100
AcDbEntity
  8
1
370
    30
  6
Continuous
 62
     7
100
AcDbLine
 10
247.866895
 20
158.112924
 30
0.0
 11
278.72359
 21
158.078984
 31
0.0
  0
LINE
  5
1F8
100
AcDbEntity
  8
1
370
    30
  6
Continuous
 62
     7
100
AcDbLine
 10
247.13755
 20
156.813729
 30
0.0
 11
278.72359
 21
156.778984
 31
0.0
  0
LINE
  5
1F9
100
AcDbEntity
  8
1
370
    30
  6
Continuous
 62
     7
100
AcDbLine
 10
234.997223
 20
156.844434
 30
0.0
 11
245.13847
 21
156.815924
 31
0.0
  0
LINE
  5
1FA
100
AcDbEntity
  8
1
370
    30
  6
Continuous
 62
     7
100
AcDbLine
 10
234.997223
 20
152.888984
 30
0.0
 11
246.07111
 21
152.888984
 31
0.0
  0
LINE
  5
1FB
100
AcDbEntity
  8
1
370
    30
  6
Continuous
 62
     7
100
AcDbLine
 10
234.997223
 20
154.188984
 30
0.0
 11
245.13004
 21
154.188984
 31
0.0
  0
LINE
  5
1FC
100
AcDbEntity
  8
1
370
    30
  6
Continuous
 62
     7
100
AcDbLine
 10
247.13004
 20
154.188984
 30
0.0
 11
278.72359
 21
154.188984
 31
0.0
  0
LINE
  5
1FD
100
AcDbEntity
  8
1
370
    30
  6
Continuous
 62
     7
100
AcDbLine
 10
248.07111
 20
152.888984
 30
0.0
 11
278.72359
 21
152.888984
 31
0.0
  0
LINE
  5
1FE
100
AcDbEntity
  8
1
370
    30
  6
Continuous
 62
     7
100
AcDbLine
 10
247.43228
 20
150.890414
 30
0.0
 11
234.997223
 21
151.423559
 31
0.0
  0
LINE
  5
1FF
100
AcDbEntity
  8
1
370
    30
  6
Continuous
 62
     7
100
AcDbLine
 10
234.997223
 20
150.123504
 30
0.0
 11
247.48973
 21
149.589274
 31
0.0
  0
LINE
  5
200
100
AcDbEntity
  8
1
370
    30
  6
Continuous
 62
     7
100
AcDbLine
 10
249.48163
 20
149.551629
 30
0.0
 11
278.72359
 21
148.998954
 31
0.0
  0
LINE
  5
201
100
AcDbEntity
  8
1
370
    30
  6
Continuous
 62
     7
100
AcDbLine
 10
278.72359
 20
150.299009
 30
0.0
 11
249.44487
 21
150.852379
 31
0.0
  0
LINE
  5
202
100
AcDbEntity
  8
1
370
    30
  6
Continuous
 62
     7
100
AcDbLine
 10
246.99743
 20
148.329529
 30
0.0
 11
234.997223
 21
147.743499
 31
0.0
  0
LINE
  5
203
100
AcDbEntity
  8
1
370
    30
  6
Continuous
 62
     7
100
AcDbLine
 10
278.72359
 20
148.998949
 30
0.0
 11
249.020835
 21
148.372219
 31
0.0
  0
LINE
  5
204
100
AcDbEntity
  8
1
370
    30
  6
Continuous
 62
     7
100
AcDbLine
 10
288.72359
 20
160.738984
 30
0.0
 11
288.72359
 21
159.738984
 31
0.0
  0
LINE
  5
205
100
AcDbEntity
  8
1
370
    30
  6
Continuous
 62
     7
100
AcDbLine
 10
279.72359
 20
160.738984
 30
0.0
 11
288.72359
 21
160.738984
 31
0.0
  0
ARC
  5
206
100
AcDbEntity
  8
1
370
    30
  6
Continuous
 62
     7
100
AcDbCircle
 10
279.72359
 20
159.738984
 30
0.0
 40
1.0
100
AcDbArc
 50
90.0
 51
180.0
  0
POLYLINE
  5
207
100
AcDbEntity
  8
1
370
    30
  6
Continuous
 62
     7
100
AcDb2dPolyline
 66
     1
 10
0.0
 20
0.0
 30
0.0
 70
     2
  0
VERTEX
  5
208
100
AcDbEntity
  8
1
370
    30
  6
Continuous
 62
     7
100
AcDbVertex
100
AcDb2dVertex
 10
247.267364
 20
159.764635
 30
0.0
  0
VERTEX
  5
209
100
AcDbEntity
  8
1
370
    30
  6
Continuous
 62
     7
100
AcDbVertex
100
AcDb2dVertex
 10
247.239908
 20
159.728979
 30
0.0
  0
VERTEX
  5
20A
100
AcDbEntity
  8
1
370
    30
  6
Continuous
 62
     7
100
AcDbVertex
100
AcDb2dVertex
 10
247.158319
 20
159.622988
 30
0.0
  0
VERTEX
  5
20B
100
AcDbEntity
  8
1
370
    30
  6
Continuous
 62
     7
100
AcDbVertex
100
AcDb2dVertex
 10
247.025088
 20
159.449593
 30
0.0
  0
VERTEX
  5
20C
100
AcDbEntity
  8
1
370
    30
  6
Continuous
 62
     7
100
AcDbVertex
100
AcDb2dVertex
 10
246.844809
 20
159.213665
 30
0.0
  0
VERTEX
  5
20D
100
AcDbEntity
  8
1
370
    30
  6
Continuous
 62
     7
100
AcDbVertex
100
AcDb2dVertex
 10
246.624627
 20
158.921971
 30
0.0
  0
VERTEX
  5
20E
100
AcDbEntity
  8
1
370
    30
  6
Continuous
 62
     7
100
AcDbVertex
100
AcDb2dVertex
 10
246.374517
 20
158.583056
 30
0.0
  0
VERTEX
  5
20F
100
AcDbEntity
  8
1
370
    30
  6
Continuous
 62
     7
100
AcDbVertex
100
AcDb2dVertex
 10
246.107144
 20
158.207031
 30
0.0
  0
VERTEX
  5
210
100
AcDbEntity
  8
1
370
    30
  6
Continuous
 62
     7
100
AcDbVertex
100
AcDb2dVertex
 10
245.837175
 20
157.805248
 30
0.0
  0
VERTEX
  5
211
100
AcDbEntity
  8
1
370
    30
  6
Continuous
 62
     7
100
AcDbVertex
100
AcDb2dVertex
 10
245.580023
 20
157.389858
 30
0.0
  0
VERTEX
  5
212
100
AcDbEntity
  8
1
370
    30
  6
Continuous
 62
     7
100
AcDbVertex
100
AcDb2dVertex
 10
245.350158
 20
156.9733
 30
0.0
  0
VERTEX
  5
213
100
AcDbEntity
  8
1
370
    30
  6
Continuous
 62
     7
100
AcDbVertex
100
AcDb2dVertex
 10
245.159273
 20
156.56774
 30
0.0
  0
VERTEX
  5
214
100
AcDbEntity
  8
1
370
    30
  6
Continuous
 62
     7
100
AcDbVertex
100
AcDb2dVertex
 10
245.014656
 20
156.184549
 30
0.0
  0
VERTEX
  5
215
100
AcDbEntity
  8
1
370
    30
  6
Continuous
 62
     7
100
AcDbVertex
100
AcDb2dVertex
 10
244.918136
 20
155.833866
 30
0.0
  0
VERTEX
  5
216
100
AcDbEntity
  8
1
370
    30
  6
Continuous
 62
     7
100
AcDbVertex
100
AcDb2dVertex
 10
244.865867
 20
155.524296
 30
0.0
  0
VERTEX
  5
217
100
AcDbEntity
  8
1
370
    30
  6
Continuous
 62
     7
100
AcDbVertex
100
AcDb2dVertex
 10
244.849075
 20
155.26277
 30
0.0
  0
VERTEX
  5
218
100
AcDbEntity
  8
1
370
    30
  6
Continuous
 62
     7
100
AcDbVertex
100
AcDb2dVertex
 10
244.855692
 20
155.054564
 30
0.0
  0
VERTEX
  5
219
100
AcDbEntity
  8
1
370
    30
  6
Continuous
 62
     7
100
AcDbVertex
100
AcDb2dVertex
 10
244.872612
 20
154.90344
 30
0.0
  0
VERTEX
  5
21A
100
AcDbEntity
  8
1
370
    30
  6
Continuous
 62
     7
100
AcDbVertex
100
AcDb2dVertex
 10
244.888157
 20
154.811856
 30
0.0
  0
VERTEX
  5
21B
100
AcDbEntity
  8
1
370
    30
  6
Continuous
 62
     7
100
AcDbVertex
100
AcDb2dVertex
 10
244.894292
 20
154.781182
 30
0.0
  0
VERTEX
  5
21C
100
AcDbEntity
  8
1
370
    30
  6
Continuous
 62
     7
100
AcDbVertex
100
AcDb2dVertex
 10
244.900886
 20
154.750577
 30
0.0
  0
VERTEX
  5
21D
100
AcDbEntity
  8
1
370
    30
  6
Continuous
 62
     7
100
AcDbVertex
100
AcDb2dVertex
 10
244.923154
 20
154.659992
 30
0.0
  0
VERTEX
  5
21E
100
AcDbEntity
  8
1
370
    30
  6
Continuous
 62
     7
100
AcDbVertex
100
AcDb2dVertex
 10
244.967835
 20
154.513004
 30
0.0
  0
VERTEX
  5
21F
100
AcDbEntity
  8
1
370
    30
  6
Continuous
 62
     7
100
AcDbVertex
100
AcDb2dVertex
 10
245.043983
 20
154.315198
 30
0.0
  0
VERTEX
  5
220
100
AcDbEntity
  8
1
370
    30
  6
Continuous
 62
     7
100
AcDbVertex
100
AcDb2dVertex
 10
245.160249
 20
154.073685
 30
0.0
  0
VERTEX
  5
221
100
AcDbEntity
  8
1
370
    30
  6
Continuous
 62
     7
100
AcDbVertex
100
AcDb2dVertex
 10
245.322077
 20
153.796549
 30
0.0
  0
VERTEX
  5
222
100
AcDbEntity
  8
1
370
    30
  6
Continuous
 62
     7
100
AcDbVertex
100
AcDb2dVertex
 10
245.529494
 20
153.492333
 30
0.0
  0
VERTEX
  5
223
100
AcDbEntity
  8
1
370
    30
  6
Continuous
 62
     7
100
AcDbVertex
100
AcDb2dVertex
 10
245.776051
 20
153.169623
 30
0.0
  0
VERTEX
  5
224
100
AcDbEntity
  8
1
370
    30
  6
Continuous
 62
     7
100
AcDbVertex
100
AcDb2dVertex
 10
246.049207
 20
152.836807
 30
0.0
  0
VERTEX
  5
225
100
AcDbEntity
  8
1
370
    30
  6
Continuous
 62
     7
100
AcDbVertex
100
AcDb2dVertex
 10
246.33208
 20
152.501974
 30
0.0
  0
VERTEX
  5
226
100
AcDbEntity
  8
1
370
    30
  6
Continuous
 62
     7
100
AcDbVertex
100
AcDb2dVertex
 10
246.606187
 20
152.172963
 30
0.0
  0
VERTEX
  5
227
100
AcDbEntity
  8
1
370
    30
  6
Continuous
 62
     7
100
AcDbVertex
100
AcDb2dVertex
 10
246.854543
 20
151.857451
 30
0.0
  0
VERTEX
  5
228
100
AcDbEntity
  8
1
370
    30
  6
Continuous
 62
     7
100
AcDbVertex
100
AcDb2dVertex
 10
247.064412
 20
151.563044
 30
0.0
  0
VERTEX
  5
229
100
AcDbEntity
  8
1
370
    30
  6
Continuous
 62
     7
100
AcDbVertex
100
AcDb2dVertex
 10
247.22908
 20
151.297267
 30
0.0
  0
VERTEX
  5
22A
100
AcDbEntity
  8
1
370
    30
  6
Continuous
 62
     7
100
AcDbVertex
100
AcDb2dVertex
 10
247.348266
 20
151.067432
 30
0.0
  0
VERTEX
  5
22B
100
AcDbEntity
  8
1
370
    30
  6
Continuous
 62
     7
100
AcDbVertex
100
AcDb2dVertex
 10
247.427096
 20
150.880357
 30
0.0
  0
VERTEX
  5
22C
100
AcDbEntity
  8
1
370
    30
  6
Continuous
 62
     7
100
AcDbVertex
100
AcDb2dVertex
 10
247.473933
 20
150.74199
 30
0.0
  0
VERTEX
  5
22D
100
AcDbEntity
  8
1
370
    30
  6
Continuous
 62
     7
100
AcDbVertex
100
AcDb2dVertex
 10
247.497595
 20
150.656982
 30
0.0
  0
VERTEX
  5
22E
100
AcDbEntity
  8
1
370
    30
  6
Continuous
 62
     7
100
AcDbVertex
100
AcDb2dVertex
 10
247.504672
 20
150.628305
 30
0.0
  0
VERTEX
  5
22F
100
AcDbEntity
  8
1
370
    30
  6
Continuous
 62
     7
100
AcDbVertex
100
AcDb2dVertex
 10
247.511295
 20
150.599587
 30
0.0
  0
VERTEX
  5
230
100
AcDbEntity
  8
1
370
    30
  6
Continuous
 62
     7
100
AcDbVertex
100
AcDb2dVertex
 10
247.528332
 20
150.51397
 30
0.0
  0
VERTEX
  5
231
100
AcDbEntity
  8
1
370
    30
  6
Continuous
 62
     7
100
AcDbVertex
100
AcDb2dVertex
 10
247.547815
 20
150.373099
 30
0.0
  0
VERTEX
  5
232
100
AcDbEntity
  8
1
370
    30
  6
Continuous
 62
     7
100
AcDbVertex
100
AcDb2dVertex
 10
247.558158
 20
150.179795
 30
0.0
  0
VERTEX
  5
233
100
AcDbEntity
  8
1
370
    30
  6
Continuous
 62
     7
100
AcDbVertex
100
AcDb2dVertex
 10
247.546338
 20
149.938157
 30
0.0
  0
VERTEX
  5
234
100
AcDbEntity
  8
1
370
    30
  6
Continuous
 62
     7
100
AcDbVertex
100
AcDb2dVertex
 10
247.500331
 20
149.653638
 30
0.0
  0
VERTEX
  5
235
100
AcDbEntity
  8
1
370
    30
  6
Continuous
 62
     7
100
AcDbVertex
100
AcDb2dVertex
 10
247.41134
 20
149.333071
 30
0.0
  0
VERTEX
  5
236
100
AcDbEntity
  8
1
370
    30
  6
Continuous
 62
     7
100
AcDbVertex
100
AcDb2dVertex
 10
247.275406
 20
148.984611
 30
0.0
  0
VERTEX
  5
237
100
AcDbEntity
  8
1
370
    30
  6
Continuous
 62
     7
100
AcDbVertex
100
AcDb2dVertex
 10
247.094151
 20
148.617572
 30
0.0
  0
VERTEX
  5
238
100
AcDbEntity
  8
1
370
    30
  6
Continuous
 62
     7
100
AcDbVertex
100
AcDb2dVertex
 10
246.874571
 20
148.242153
 30
0.0
  0
VERTEX
  5
239
100
AcDbEntity
  8
1
370
    30
  6
Continuous
 62
     7
100
AcDbVertex
100
AcDb2dVertex
 10
246.628001
 20
147.869089
 30
0.0
  0
VERTEX
  5
23A
100
AcDbEntity
  8
1
370
    30
  6
Continuous
 62
     7
100
AcDbVertex
100
AcDb2dVertex
 10
246.368514
 20
147.509234
 30
0.0
  0
VERTEX
  5
23B
100
AcDbEntity
  8
1
370
    30
  6
Continuous
 62
     7
100
AcDbVertex
100
AcDb2dVertex
 10
246.111122
 20
147.173135
 30
0.0
  0
VERTEX
  5
23C
100
AcDbEntity
  8
1
370
    30
  6
Continuous
 62
     7
100
AcDbVertex
100
AcDb2dVertex
 10
245.870114
 20
146.87063
 30
0.0
  0
VERTEX
  5
23D
100
AcDbEntity
  8
1
370
    30
  6
Continuous
 62
     7
100
AcDbVertex
100
AcDb2dVertex
 10
245.657825
 20
146.610502
 30
0.0
  0
VERTEX
  5
23E
100
AcDbEntity
  8
1
370
    30
  6
Continuous
 62
     7
100
AcDbVertex
100
AcDb2dVertex
 10
245.483954
 20
146.400208
 30
0.0
  0
VERTEX
  5
23F
100
AcDbEntity
  8
1
370
    30
  6
Continuous
 62
     7
100
AcDbVertex
100
AcDb2dVertex
 10
245.355441
 20
146.245687
 30
0.0
  0
VERTEX
  5
240
100
AcDbEntity
  8
1
370
    30
  6
Continuous
 62
     7
100
AcDbVertex
100
AcDb2dVertex
 10
245.276738
 20
146.151239
 30
0.0
  0
VERTEX
  5
241
100
AcDbEntity
  8
1
370
    30
  6
Continuous
 62
     7
100
AcDbVertex
100
AcDb2dVertex
 10
245.250253
 20
146.119467
 30
0.0
  0
SEQEND
  5
242
100
AcDbEntity
  8
1
370
    30
  6
Continuous
 62
     7
  0
POLYLINE
  5
243
100
AcDbEntity
  8
1
370
    30
  6
Continuous
 62
     7
100
AcDb2dPolyline
 66
     1
 10
0.0
 20
0.0
 30
0.0
 70
     2
  0
VERTEX
  5
244
100
AcDbEntity
  8
1
370
    30
  6
Continuous
 62
     7
100
AcDbVertex
100
AcDb2dVertex
 10
249.267364
 20
159.764635
 30
0.0
  0
VERTEX
  5
245
100
AcDbEntity
  8
1
370
    30
  6
Continuous
 62
     7
100
AcDbVertex
100
AcDb2dVertex
 10
249.239908
 20
159.728979
 30
0.0
  0
VERTEX
  5
246
100
AcDbEntity
  8
1
370
    30
  6
Continuous
 62
     7
100
AcDbVertex
100
AcDb2dVertex
 10
249.158319
 20
159.622988
 30
0.0
  0
VERTEX
  5
247
100
AcDbEntity
  8
1
370
    30
  6
Continuous
 62
     7
100
AcDbVertex
100
AcDb2dVertex
 10
249.025088
 20
159.449593
 30
0.0
  0
VERTEX
  5
248
100
AcDbEntity
  8
1
370
    30
  6
Continuous
 62
     7
100
AcDbVertex
100
AcDb2dVertex
 10
248.844809
 20
159.213665
 30
0.0
  0
VERTEX
  5
249
100
AcDbEntity
  8
1
370
    30
  6
Continuous
 62
     7
100
AcDbVertex
100
AcDb2dVertex
 10
248.624627
 20
158.921971
 30
0.0
  0
VERTEX
  5
24A
100
AcDbEntity
  8
1
370
    30
  6
Continuous
 62
     7
100
AcDbVertex
100
AcDb2dVertex
 10
248.374517
 20
158.583056
 30
0.0
  0
VERTEX
  5
24B
100
AcDbEntity
  8
1
370
    30
  6
Continuous
 62
     7
100
AcDbVertex
100
AcDb2dVertex
 10
248.107144
 20
158.207031
 30
0.0
  0
VERTEX
  5
24C
100
AcDbEntity
  8
1
370
    30
  6
Continuous
 62
     7
100
AcDbVertex
100
AcDb2dVertex
 10
247.837175
 20
157.805248
 30
0.0
  0
VERTEX
  5
24D
100
AcDbEntity
  8
1
370
    30
  6
Continuous
 62
     7
100
AcDbVertex
100
AcDb2dVertex
 10
247.580023
 20
157.389858
 30
0.0
  0
VERTEX
  5
24E
100
AcDbEntity
  8
1
370
    30
  6
Continuous
 62
     7
100
AcDbVertex
100
AcDb2dVertex
 10
247.350158
 20
156.9733
 30
0.0
  0
VERTEX
  5
24F
100
AcDbEntity
  8
1
370
    30
  6
Continuous
 62
     7
100
AcDbVertex
100
AcDb2dVertex
 10
247.159273
 20
156.56774
 30
0.0
  0
VERTEX
  5
250
100
AcDbEntity
  8
1
370
    30
  6
Continuous
 62
     7
100
AcDbVertex
100
AcDb2dVertex
 10
247.014656
 20
156.184549
 30
0.0
  0
VERTEX
  5
251
100
AcDbEntity
  8
1
370
    30
  6
Continuous
 62
     7
100
AcDbVertex
100
AcDb2dVertex
 10
246.918136
 20
155.833866
 30
0.0
  0
VERTEX
  5
252
100
AcDbEntity
  8
1
370
    30
  6
Continuous
 62
     7
100
AcDbVertex
100
AcDb2dVertex
 10
246.865867
 20
155.524296
 30
0.0
  0
VERTEX
  5
253
100
AcDbEntity
  8
1
370
    30
  6
Continuous
 62
     7
100
AcDbVertex
100
AcDb2dVertex
 10
246.849075
 20
155.26277
 30
0.0
  0
VERTEX
  5
254
100
AcDbEntity
  8
1
370
    30
  6
Continuous
 62
     7
100
AcDbVertex
100
AcDb2dVertex
 10
246.855692
 20
155.054564
 30
0.0
  0
VERTEX
  5
255
100
AcDbEntity
  8
1
370
    30
  6
Continuous
 62
     7
100
AcDbVertex
100
AcDb2dVertex
 10
246.872612
 20
154.90344
 30
0.0
  0
VERTEX
  5
256
100
AcDbEntity
  8
1
370
    30
  6
Continuous
 62
     7
100
AcDbVertex
100
AcDb2dVertex
 10
246.888157
 20
154.811856
 30
0.0
  0
VERTEX
  5
257
100
AcDbEntity
  8
1
370
    30
  6
Continuous
 62
     7
100
AcDbVertex
100
AcDb2dVertex
 10
246.894292
 20
154.781182
 30
0.0
  0
VERTEX
  5
258
100
AcDbEntity
  8
1
370
    30
  6
Continuous
 62
     7
100
AcDbVertex
100
AcDb2dVertex
 10
246.900886
 20
154.750577
 30
0.0
  0
VERTEX
  5
259
100
AcDbEntity
  8
1
370
    30
  6
Continuous
 62
     7
100
AcDbVertex
100
AcDb2dVertex
 10
246.923154
 20
154.659992
 30
0.0
  0
VERTEX
  5
25A
100
AcDbEntity
  8
1
370
    30
  6
Continuous
 62
     7
100
AcDbVertex
100
AcDb2dVertex
 10
246.967835
 20
154.513004
 30
0.0
  0
VERTEX
  5
25B
100
AcDbEntity
  8
1
370
    30
  6
Continuous
 62
     7
100
AcDbVertex
100
AcDb2dVertex
 10
247.043983
 20
154.315198
 30
0.0
  0
VERTEX
  5
25C
100
AcDbEntity
  8
1
370
    30
  6
Continuous
 62
     7
100
AcDbVertex
100
AcDb2dVertex
 10
247.160249
 20
154.073685
 30
0.0
  0
VERTEX
  5
25D
100
AcDbEntity
  8
1
370
    30
  6
Continuous
 62
     7
100
AcDbVertex
100
AcDb2dVertex
 10
247.322077
 20
153.796549
 30
0.0
  0
VERTEX
  5
25E
100
AcDbEntity
  8
1
370
    30
  6
Continuous
 62
     7
100
AcDbVertex
100
AcDb2dVertex
 10
247.529494
 20
153.492333
 30
0.0
  0
VERTEX
  5
25F
100
AcDbEntity
  8
1
370
    30
  6
Continuous
 62
     7
100
AcDbVertex
100
AcDb2dVertex
 10
247.776051
 20
153.169623
 30
0.0
  0
VERTEX
  5
260
100
AcDbEntity
  8
1
370
    30
  6
Continuous
 62
     7
100
AcDbVertex
100
AcDb2dVertex
 10
248.049207
 20
152.836807
 30
0.0
  0
VERTEX
  5
261
100
AcDbEntity
  8
1
370
    30
  6
Continuous
 62
     7
100
AcDbVertex
100
AcDb2dVertex
 10
248.33208
 20
152.501974
 30
0.0
  0
VERTEX
  5
262
100
AcDbEntity
  8
1
370
    30
  6
Continuous
 62
     7
100
AcDbVertex
100
AcDb2dVertex
 10
248.606187
 20
152.172963
 30
0.0
  0
VERTEX
  5
263
100
AcDbEntity
  8
1
370
    30
  6
Continuous
 62
     7
100
AcDbVertex
100
AcDb2dVertex
 10
248.854543
 20
151.857451
 30
0.0
  0
VERTEX
  5
264
100
AcDbEntity
  8
1
370
    30
  6
Continuous
 62
     7
100
AcDbVertex
100
AcDb2dVertex
 10
249.064412
 20
151.563044
 30
0.0
  0
VERTEX
  5
265
100
AcDbEntity
  8
1
370
    30
  6
Continuous
 62
     7
100
AcDbVertex
100
AcDb2dVertex
 10
249.22908
 20
151.297267
 30
0.0
  0
VERTEX
  5
266
100
AcDbEntity
  8
1
370
    30
  6
Continuous
 62
     7
100
AcDbVertex
100
AcDb2dVertex
 10
249.348266
 20
151.067432
 30
0.0
  0
VERTEX
  5
267
100
AcDbEntity
  8
1
370
    30
  6
Continuous
 62
     7
100
AcDbVertex
100
AcDb2dVertex
 10
249.427096
 20
150.880357
 30
0.0
  0
VERTEX
  5
268
100
AcDbEntity
  8
1
370
    30
  6
Continuous
 62
     7
100
AcDbVertex
100
AcDb2dVertex
 10
249.473933
 20
150.74199
 30
0.0
  0
VERTEX
  5
269
100
AcDbEntity
  8
1
370
    30
  6
Continuous
 62
     7
100
AcDbVertex
100
AcDb2dVertex
 10
249.497595
 20
150.656982
 30
0.0
  0
VERTEX
  5
26A
100
AcDbEntity
  8
1
370
    30
  6
Continuous
 62
     7
100
AcDbVertex
100
AcDb2dVertex
 10
249.504672
 20
150.628305
 30
0.0
  0
VERTEX
  5
26B
100
AcDbEntity
  8
1
370
    30
  6
Continuous
 62
     7
100
AcDbVertex
100
AcDb2dVertex
 10
249.511295
 20
150.599587
 30
0.0
  0
VERTEX
  5
26C
100
AcDbEntity
  8
1
370
    30
  6
Continuous
 62
     7
100
AcDbVertex
100
AcDb2dVertex
 10
249.528332
 20
150.51397
 30
0.0
  0
VERTEX
  5
26D
100
AcDbEntity
  8
1
370
    30
  6
Continuous
 62
     7
100
AcDbVertex
100
AcDb2dVertex
 10
249.547815
 20
150.373099
 30
0.0
  0
VERTEX
  5
26E
100
AcDbEntity
  8
1
370
    30
  6
Continuous
 62
     7
100
AcDbVertex
100
AcDb2dVertex
 10
249.558158
 20
150.179795
 30
0.0
  0
VERTEX
  5
26F
100
AcDbEntity
  8
1
370
    30
  6
Continuous
 62
     7
100
AcDbVertex
100
AcDb2dVertex
 10
249.546338
 20
149.938157
 30
0.0
  0
VERTEX
  5
270
100
AcDbEntity
  8
1
370
    30
  6
Continuous
 62
     7
100
AcDbVertex
100
AcDb2dVertex
 10
249.500331
 20
149.653638
 30
0.0
  0
VERTEX
  5
271
100
AcDbEntity
  8
1
370
    30
  6
Continuous
 62
     7
100
AcDbVertex
100
AcDb2dVertex
 10
249.41134
 20
149.333071
 30
0.0
  0
VERTEX
  5
272
100
AcDbEntity
  8
1
370
    30
  6
Continuous
 62
     7
100
AcDbVertex
100
AcDb2dVertex
 10
249.275406
 20
148.984611
 30
0.0
  0
VERTEX
  5
273
100
AcDbEntity
  8
1
370
    30
  6
Continuous
 62
     7
100
AcDbVertex
100
AcDb2dVertex
 10
249.094151
 20
148.617572
 30
0.0
  0
VERTEX
  5
274
100
AcDbEntity
  8
1
370
    30
  6
Continuous
 62
     7
100
AcDbVertex
100
AcDb2dVertex
 10
248.874571
 20
148.242153
 30
0.0
  0
VERTEX
  5
275
100
AcDbEntity
  8
1
370
    30
  6
Continuous
 62
     7
100
AcDbVertex
100
AcDb2dVertex
 10
248.628001
 20
147.869089
 30
0.0
  0
VERTEX
  5
276
100
AcDbEntity
  8
1
370
    30
  6
Continuous
 62
     7
100
AcDbVertex
100
AcDb2dVertex
 10
248.368514
 20
147.509234
 30
0.0
  0
VERTEX
  5
277
100
AcDbEntity
  8
1
370
    30
  6
Continuous
 62
     7
100
AcDbVertex
100
AcDb2dVertex
 10
248.111122
 20
147.173135
 30
0.0
  0
VERTEX
  5
278
100
AcDbEntity
  8
1
370
    30
  6
Continuous
 62
     7
100
AcDbVertex
100
AcDb2dVertex
 10
247.870114
 20
146.87063
 30
0.0
  0
VERTEX
  5
279
100
AcDbEntity
  8
1
370
    30
  6
Continuous
 62
     7
100
AcDbVertex
100
AcDb2dVertex
 10
247.657825
 20
146.610502
 30
0.0
  0
VERTEX
  5
27A
100
AcDbEntity
  8
1
370
    30
  6
Continuous
 62
     7
100
AcDbVertex
100
AcDb2dVertex
 10
247.483954
 20
146.400208
 30
0.0
  0
VERTEX
  5
27B
100
AcDbEntity
  8
1
370
    30
  6
Continuous
 62
     7
100
AcDbVertex
100
AcDb2dVertex
 10
247.355441
 20
146.245687
 30
0.0
  0
VERTEX
  5
27C
100
AcDbEntity
  8
1
370
    30
  6
Continuous
 62
     7
100
AcDbVertex
100
AcDb2dVertex
 10
247.276738
 20
146.151239
 30
0.0
  0
VERTEX
  5
27D
100
AcDbEntity
  8
1
370
    30
  6
Continuous
 62
     7
100
AcDbVertex
100
AcDb2dVertex
 10
247.250253
 20
146.119467
 30
0.0
  0
SEQEND
  5
27E
100
AcDbEntity
  8
1
370
    30
  6
Continuous
 62
     7
  0
LINE
  5
27F
100
AcDbEntity
  8
2
370
     9
  6
Continuous
 62
   134
100
AcDbLine
 10
99.694476
 20
169.948416
 30
0.0
 11
95.648752
 21
172.53146
 31
0.0
  0
LINE
  5
280
100
AcDbEntity
  8
2
370
     9
  6
Continuous
 62
   134
100
AcDbLine
 10
99.694476
 20
169.948416
 30
0.0
 11
97.482299
 21
174.20826
 31
0.0
  0
POLYLINE
  5
281
100
AcDbEntity
  8
2
370
     9
  6
Continuous
 62
   134
100
AcDb2dPolyline
 66
     1
 10
0.0
 20
0.0
 30
0.0
  0
VERTEX
  5
282
100
AcDbEntity
  8
2
370
     9
  6
Continuous
 62
   134
100
AcDbVertex
100
AcDb2dVertex
 10
99.694476
 20
169.948416
 30
0.0
  0
VERTEX
  5
283
100
AcDbEntity
  8
2
370
     9
  6
Continuous
 62
   134
100
AcDbVertex
100
AcDb2dVertex
 10
77.319576
 20
194.414918
 30
0.0
  0
VERTEX
  5
284
100
AcDbEntity
  8
2
370
     9
  6
Continuous
 62
   134
100
AcDbVertex
100
AcDb2dVertex
 10
47.319576
 20
194.414918
 30
0.0
  0
SEQEND
  5
285
100
AcDbEntity
  8
2
370
     9
  6
Continuous
 62
   134
  0
TEXT
  5
286
100
AcDbEntity
  8
2
370
     9
  6
Continuous
 62
   134
100
AcDbText
 10
47.319576
 20
195.414918
 30
0.0
 40
3.0
  1
日本MOLEX 1625-2P1
 41
0.625
 11
47.319576
 21
195.414918
 31
0.0
100
AcDbText
 73
     1
  0
LINE
  5
287
100
AcDbEntity
  8
2
370
     9
  6
Continuous
 62
   134
100
AcDbLine
 10
87.312876
 20
168.948416
 30
0.0
 11
83.142365
 21
171.324723
 31
0.0
  0
LINE
  5
288
100
AcDbEntity
  8
2
370
     9
  6
Continuous
 62
   134
100
AcDbLine
 10
87.312876
 20
168.948416
 30
0.0
 11
84.889261
 21
173.091614
 31
0.0
  0
POLYLINE
  5
289
100
AcDbEntity
  8
2
370
     9
  6
Continuous
 62
   134
100
AcDb2dPolyline
 66
     1
 10
0.0
 20
0.0
 30
0.0
  0
VERTEX
  5
28A
100
AcDbEntity
  8
2
370
     9
  6
Continuous
 62
   134
100
AcDbVertex
100
AcDb2dVertex
 10
87.312876
 20
168.948416
 30
0.0
  0
VERTEX
  5
28B
100
AcDbEntity
  8
2
370
     9
  6
Continuous
 62
   134
100
AcDbVertex
100
AcDb2dVertex
 10
77.256776
 20
178.890718
 30
0.0
  0
VERTEX
  5
28C
100
AcDbEntity
  8
2
370
     9
  6
Continuous
 62
   134
100
AcDbVertex
100
AcDb2dVertex
 10
47.256776
 20
178.890718
 30
0.0
  0
SEQEND
  5
28D
100
AcDbEntity
  8
2
370
     9
  6
Continuous
 62
   134
  0
TEXT
  5
28E
100
AcDbEntity
  8
2
370
     9
  6
Continuous
 62
   134
100
AcDbText
 10
47.256776
 20
179.890718
 30
0.0
 40
3.0
  1
日本MOLEX 1625-2R1
 41
0.625
 11
47.256776
 21
179.890718
 31
0.0
100
AcDbText
 73
     1
  0
LINE
  5
28F
100
AcDbEntity
  8
2
370
     9
  6
Continuous
 62
   134
100
AcDbLine
 10
224.647713
 20
172.385
 30
0.0
 11
221.851072
 21
176.286128
 31
0.0
  0
LINE
  5
290
100
AcDbEntity
  8
2
370
     9
  6
Continuous
 62
   134
100
AcDbLine
 10
224.647713
 20
172.385
 30
0.0
 11
224.176314
 21
177.161796
 31
0.0
  0
POLYLINE
  5
291
100
AcDbEntity
  8
2
370
     9
  6
Continuous
 62
   134
100
AcDb2dPolyline
 66
     1
 10
0.0
 20
0.0
 30
0.0
  0
VERTEX
  5
292
100
AcDbEntity
  8
2
370
     9
  6
Continuous
 62
   134
100
AcDbVertex
100
AcDb2dVertex
 10
224.647713
 20
172.385
 30
0.0
  0
VERTEX
  5
293
100
AcDbEntity
  8
2
370
     9
  6
Continuous
 62
   134
100
AcDbVertex
100
AcDb2dVertex
 10
216.351413
 20
194.414918
 30
0.0
  0
VERTEX
  5
294
100
AcDbEntity
  8
2
370
     9
  6
Continuous
 62
   134
100
AcDbVertex
100
AcDb2dVertex
 10
184.551413
 20
194.414918
 30
0.0
  0
SEQEND
  5
295
100
AcDbEntity
  8
2
370
     9
  6
Continuous
 62
   134
  0
TEXT
  5
296
100
AcDbEntity
  8
2
370
     9
  6
Continuous
 62
   134
100
AcDbText
 10
184.551413
 20
195.414918
 30
0.0
 40
3.0
  1
収縮チューブ（黒色）
 41
0.883333
 11
184.551413
 21
195.414918
 31
0.0
100
AcDbText
 73
     1
  0
LINE
  5
297
100
AcDbEntity
  8
2
370
     9
  6
Continuous
 62
   134
100
AcDbLine
 10
293.97069
 20
159.738984
 30
0.0
 11
291.57723
 21
163.899675
 31
0.0
  0
LINE
  5
298
100
AcDbEntity
  8
2
370
     9
  6
Continuous
 62
   134
100
AcDbLine
 10
293.97069
 20
159.738984
 30
0.0
 11
293.978239
 21
164.538978
 31
0.0
  0
POLYLINE
  5
299
100
AcDbEntity
  8
2
370
     9
  6
Continuous
 62
   134
100
AcDb2dPolyline
 66
     1
 10
0.0
 20
0.0
 30
0.0
  0
VERTEX
  5
29A
100
AcDbEntity
  8
2
370
     9
  6
Continuous
 62
   134
100
AcDbVertex
100
AcDb2dVertex
 10
293.97069
 20
159.738984
 30
0.0
  0
VERTEX
  5
29B
100
AcDbEntity
  8
2
370
     9
  6
Continuous
 62
   134
100
AcDbVertex
100
AcDb2dVertex
 10
284.737727
 20
194.414918
 30
0.0
  0
VERTEX
  5
29C
100
AcDbEntity
  8
2
370
     9
  6
Continuous
 62
   134
100
AcDbVertex
100
AcDb2dVertex
 10
253.037727
 20
194.414918
 30
0.0
  0
SEQEND
  5
29D
100
AcDbEntity
  8
2
370
     9
  6
Continuous
 62
   134
  0
TEXT
  5
29E
100
AcDbEntity
  8
2
370
     9
  6
Continuous
 62
   134
100
AcDbText
 10
253.037727
 20
195.414918
 30
0.0
 40
3.0
  1
日本MOLEX 1625-09R1
 41
0.621569
 11
253.037727
 21
195.414918
 31
0.0
100
AcDbText
 73
     1
  0
DIMENSION
  5
2AA
100
AcDbEntity
  8
2
370
     9
  6
Continuous
 62
   134
100
AcDbDimension
  2
*D2
 10
147.468488
 20
172.385
 30
0.0
 11
146.968488
 21
151.371734
 31
0.0
 71
     5
 72
     1
 41
1.0
 42
0.0
  1
31±1
100
AcDbAlignedDimension
 13
168.532407
 23
172.385
 33
0.0
 14
168.930223
 24
141.385
 34
0.0
 50
90.0
100
AcDbRotatedDimension
  0
DIMENSION
  5
2B6
100
AcDbEntity
  8
2
370
     9
  6
Continuous
 62
   134
100
AcDbDimension
  2
*D3
 10
29.747329
 20
127.466767
 30
0.0
 11
55.258026
 21
128.466767
 31
0.0
 71
     5
 72
     1
 41
1.0
 42
0.0
  1
150±10
100
AcDbAlignedDimension
 13
29.747329
 23
159.72856
 33
0.0
 14
80.768723
 24
157.948408
 34
0.0
100
AcDbRotatedDimension
  0
DIMENSION
  5
2C2
100
AcDbEntity
  8
2
370
     9
  6
Continuous
 62
   134
100
AcDbDimension
  2
*D4
 10
234.997223
 20
126.385
 30
0.0
 11
199.997223
 21
126.385
 31
0.0
 71
     5
 72
     1
 41
1.0
 42
0.0
  1
70±5
100
AcDbAlignedDimension
 13
234.997223
 23
144.885
 33
0.0
 14
164.997223
 24
144.885
 34
0.0
100
AcDbRotatedDimension
  0
DIMENSION
  5
2CE
100
AcDbEntity
  8
2
370
     9
  6
Continuous
 62
   134
100
AcDbDimension
  2
*D5
 10
164.997223
 20
126.385
 30
0.0
 11
139.196773
 21
127.385
 31
0.0
 71
     5
 72
     1
 41
1.0
 42
0.0
  1
95±18
100
AcDbAlignedDimension
 13
164.997223
 23
144.885
 33
0.0
 14
113.396323
 24
160.122105
 34
0.0
100
AcDbRotatedDimension
  0
DIMENSION
  5
2DA
100
AcDbEntity
  8
2
370
     9
  6
Continuous
 62
   134
100
AcDbDimension
  2
*D6
 10
234.997223
 20
126.385
 30
0.0
 11
266.760406
 21
126.385
 31
0.0
 71
     5
 72
     1
 41
1.0
 42
0.0
  1
115±18
100
AcDbAlignedDimension
 13
234.997223
 23
144.885
 33
0.0
 14
298.52359
 24
145.338984
 34
0.0
100
AcDbRotatedDimension
  0
LINE
  5
2DB
100
AcDbEntity
  8
1
370
    30
  6
Continuous
 62
     7
100
AcDbLine
 10
150.083928
 20
77.385
 30
0.0
 11
164.997223
 21
77.385
 31
0.0
  0
LINE
  5
2DC
100
AcDbEntity
  8
1
370
    30
  6
Continuous
 62
     7
100
AcDbLine
 10
148.974627
 20
78.385
 30
0.0
 11
164.997223
 21
78.385
 31
0.0
  0
POLYLINE
  5
2DD
100
AcDbEntity
  8
1
370
    30
  6
Continuous
 62
     7
100
AcDb2dPolyline
 66
     1
 10
0.0
 20
0.0
 30
0.0
 70
     2
  0
VERTEX
  5
2DE
100
AcDbEntity
  8
1
370
    30
  6
Continuous
 62
     7
100
AcDbVertex
100
AcDb2dVertex
 10
150.183584
 20
81.759661
 30
0.0
  0
VERTEX
  5
2DF
100
AcDbEntity
  8
1
370
    30
  6
Continuous
 62
     7
100
AcDbVertex
100
AcDb2dVertex
 10
150.163711
 20
81.740395
 30
0.0
  0
VERTEX
  5
2E0
100
AcDbEntity
  8
1
370
    30
  6
Continuous
 62
     7
100
AcDbVertex
100
AcDb2dVertex
 10
150.104656
 20
81.683127
 30
0.0
  0
VERTEX
  5
2E1
100
AcDbEntity
  8
1
370
    30
  6
Continuous
 62
     7
100
AcDbVertex
100
AcDb2dVertex
 10
150.008219
 20
81.589442
 30
0.0
  0
VERTEX
  5
2E2
100
AcDbEntity
  8
1
370
    30
  6
Continuous
 62
     7
100
AcDbVertex
100
AcDb2dVertex
 10
149.877713
 20
81.461985
 30
0.0
  0
VERTEX
  5
2E3
100
AcDbEntity
  8
1
370
    30
  6
Continuous
 62
     7
100
AcDbVertex
100
AcDb2dVertex
 10
149.718284
 20
81.304435
 30
0.0
  0
VERTEX
  5
2E4
100
AcDbEntity
  8
1
370
    30
  6
Continuous
 62
     7
100
AcDbVertex
100
AcDb2dVertex
 10
149.537103
 20
81.121455
 30
0.0
  0
VERTEX
  5
2E5
100
AcDbEntity
  8
1
370
    30
  6
Continuous
 62
     7
100
AcDbVertex
100
AcDb2dVertex
 10
149.343271
 20
80.918571
 30
0.0
  0
VERTEX
  5
2E6
100
AcDbEntity
  8
1
370
    30
  6
Continuous
 62
     7
100
AcDbVertex
100
AcDb2dVertex
 10
149.147322
 20
80.701992
 30
0.0
  0
VERTEX
  5
2E7
100
AcDbEntity
  8
1
370
    30
  6
Continuous
 62
     7
100
AcDbVertex
100
AcDb2dVertex
 10
148.960329
 20
80.478365
 30
0.0
  0
VERTEX
  5
2E8
100
AcDbEntity
  8
1
370
    30
  6
Continuous
 62
     7
100
AcDbVertex
100
AcDb2dVertex
 10
148.792697
 20
80.254472
 30
0.0
  0
VERTEX
  5
2E9
100
AcDbEntity
  8
1
370
    30
  6
Continuous
 62
     7
100
AcDbVertex
100
AcDb2dVertex
 10
148.652857
 20
80.036917
 30
0.0
  0
VERTEX
  5
2EA
100
AcDbEntity
  8
1
370
    30
  6
Continuous
 62
     7
100
AcDbVertex
100
AcDb2dVertex
 10
148.546105
 20
79.831826
 30
0.0
  0
VERTEX
  5
2EB
100
AcDbEntity
  8
1
370
    30
  6
Continuous
 62
     7
100
AcDbVertex
100
AcDb2dVertex
 10
148.473848
 20
79.644599
 30
0.0
  0
VERTEX
  5
2EC
100
AcDbEntity
  8
1
370
    30
  6
Continuous
 62
     7
100
AcDbVertex
100
AcDb2dVertex
 10
148.433445
 20
79.479749
 30
0.0
  0
VERTEX
  5
2ED
100
AcDbEntity
  8
1
370
    30
  6
Continuous
 62
     7
100
AcDbVertex
100
AcDb2dVertex
 10
148.418741
 20
79.340838
 30
0.0
  0
VERTEX
  5
2EE
100
AcDbEntity
  8
1
370
    30
  6
Continuous
 62
     7
100
AcDbVertex
100
AcDb2dVertex
 10
148.421225
 20
79.230508
 30
0.0
  0
VERTEX
  5
2EF
100
AcDbEntity
  8
1
370
    30
  6
Continuous
 62
     7
100
AcDbVertex
100
AcDb2dVertex
 10
148.431631
 20
79.150584
 30
0.0
  0
VERTEX
  5
2F0
100
AcDbEntity
  8
1
370
    30
  6
Continuous
 62
     7
100
AcDbVertex
100
AcDb2dVertex
 10
148.441694
 20
79.102217
 30
0.0
  0
VERTEX
  5
2F1
100
AcDbEntity
  8
1
370
    30
  6
Continuous
 62
     7
100
AcDbVertex
100
AcDb2dVertex
 10
148.445724
 20
79.08603
 30
0.0
  0
VERTEX
  5
2F2
100
AcDbEntity
  8
1
370
    30
  6
Continuous
 62
     7
100
AcDbVertex
100
AcDb2dVertex
 10
148.450081
 20
79.069885
 30
0.0
  0
VERTEX
  5
2F3
100
AcDbEntity
  8
1
370
    30
  6
Continuous
 62
     7
100
AcDbVertex
100
AcDb2dVertex
 10
148.464928
 20
79.022136
 30
0.0
  0
VERTEX
  5
2F4
100
AcDbEntity
  8
1
370
    30
  6
Continuous
 62
     7
100
AcDbVertex
100
AcDb2dVertex
 10
148.495101
 20
78.944771
 30
0.0
  0
VERTEX
  5
2F5
100
AcDbEntity
  8
1
370
    30
  6
Continuous
 62
     7
100
AcDbVertex
100
AcDb2dVertex
 10
148.547121
 20
78.840887
 30
0.0
  0
VERTEX
  5
2F6
100
AcDbEntity
  8
1
370
    30
  6
Continuous
 62
     7
100
AcDbVertex
100
AcDb2dVertex
 10
148.62729
 20
78.714407
 30
0.0
  0
VERTEX
  5
2F7
100
AcDbEntity
  8
1
370
    30
  6
Continuous
 62
     7
100
AcDbVertex
100
AcDb2dVertex
 10
148.739703
 20
78.569757
 30
0.0
  0
VERTEX
  5
2F8
100
AcDbEntity
  8
1
370
    30
  6
Continuous
 62
     7
100
AcDbVertex
100
AcDb2dVertex
 10
148.884677
 20
78.411565
 30
0.0
  0
VERTEX
  5
2F9
100
AcDbEntity
  8
1
370
    30
  6
Continuous
 62
     7
100
AcDbVertex
100
AcDb2dVertex
 10
149.057977
 20
78.244422
 30
0.0
  0
VERTEX
  5
2FA
100
AcDbEntity
  8
1
370
    30
  6
Continuous
 62
     7
100
AcDbVertex
100
AcDb2dVertex
 10
149.251047
 20
78.072735
 30
0.0
  0
VERTEX
  5
2FB
100
AcDbEntity
  8
1
370
    30
  6
Continuous
 62
     7
100
AcDbVertex
100
AcDb2dVertex
 10
149.452195
 20
77.900674
 30
0.0
  0
VERTEX
  5
2FC
100
AcDbEntity
  8
1
370
    30
  6
Continuous
 62
     7
100
AcDbVertex
100
AcDb2dVertex
 10
149.64848
 20
77.732202
 30
0.0
  0
VERTEX
  5
2FD
100
AcDbEntity
  8
1
370
    30
  6
Continuous
 62
     7
100
AcDbVertex
100
AcDb2dVertex
 10
149.827862
 20
77.571141
 30
0.0
  0
VERTEX
  5
2FE
100
AcDbEntity
  8
1
370
    30
  6
Continuous
 62
     7
100
AcDbVertex
100
AcDb2dVertex
 10
149.981125
 20
77.421238
 30
0.0
  0
VERTEX
  5
2FF
100
AcDbEntity
  8
1
370
    30
  6
Continuous
 62
     7
100
AcDbVertex
100
AcDb2dVertex
 10
150.103136
 20
77.286187
 30
0.0
  0
VERTEX
  5
300
100
AcDbEntity
  8
1
370
    30
  6
Continuous
 62
     7
100
AcDbVertex
100
AcDb2dVertex
 10
150.193173
 20
77.169574
 30
0.0
  0
VERTEX
  5
301
100
AcDbEntity
  8
1
370
    30
  6
Continuous
 62
     7
100
AcDbVertex
100
AcDb2dVertex
 10
150.254261
 20
77.074758
 30
0.0
  0
VERTEX
  5
302
100
AcDbEntity
  8
1
370
    30
  6
Continuous
 62
     7
100
AcDbVertex
100
AcDb2dVertex
 10
150.291718
 20
77.004678
 30
0.0
  0
VERTEX
  5
303
100
AcDbEntity
  8
1
370
    30
  6
Continuous
 62
     7
100
AcDbVertex
100
AcDb2dVertex
 10
150.311279
 20
76.961641
 30
0.0
  0
VERTEX
  5
304
100
AcDbEntity
  8
1
370
    30
  6
Continuous
 62
     7
100
AcDbVertex
100
AcDb2dVertex
 10
150.317265
 20
76.947126
 30
0.0
  0
VERTEX
  5
305
100
AcDbEntity
  8
1
370
    30
  6
Continuous
 62
     7
100
AcDbVertex
100
AcDb2dVertex
 10
150.322947
 20
76.932591
 30
0.0
  0
VERTEX
  5
306
100
AcDbEntity
  8
1
370
    30
  6
Continuous
 62
     7
100
AcDbVertex
100
AcDb2dVertex
 10
150.338052
 20
76.889266
 30
0.0
  0
VERTEX
  5
307
100
AcDbEntity
  8
1
370
    30
  6
Continuous
 62
     7
100
AcDbVertex
100
AcDb2dVertex
 10
150.357121
 20
76.818004
 30
0.0
  0
VERTEX
  5
308
100
AcDbEntity
  8
1
370
    30
  6
Continuous
 62
     7
100
AcDbVertex
100
AcDb2dVertex
 10
150.372198
 20
76.720267
 30
0.0
  0
VERTEX
  5
309
100
AcDbEntity
  8
1
370
    30
  6
Continuous
 62
     7
100
AcDbVertex
100
AcDb2dVertex
 10
150.3743
 20
76.598162
 30
0.0
  0
VERTEX
  5
30A
100
AcDbEntity
  8
1
370
    30
  6
Continuous
 62
     7
100
AcDbVertex
100
AcDb2dVertex
 10
150.355065
 20
76.45448
 30
0.0
  0
VERTEX
  5
30B
100
AcDbEntity
  8
1
370
    30
  6
Continuous
 62
     7
100
AcDbVertex
100
AcDb2dVertex
 10
150.308255
 20
76.292701
 30
0.0
  0
VERTEX
  5
30C
100
AcDbEntity
  8
1
370
    30
  6
Continuous
 62
     7
100
AcDbVertex
100
AcDb2dVertex
 10
150.23085
 20
76.116957
 30
0.0
  0
VERTEX
  5
30D
100
AcDbEntity
  8
1
370
    30
  6
Continuous
 62
     7
100
AcDbVertex
100
AcDb2dVertex
 10
150.12356
 20
75.931952
 30
0.0
  0
VERTEX
  5
30E
100
AcDbEntity
  8
1
370
    30
  6
Continuous
 62
     7
100
AcDbVertex
100
AcDb2dVertex
 10
149.99069
 20
75.742821
 30
0.0
  0
VERTEX
  5
30F
100
AcDbEntity
  8
1
370
    30
  6
Continuous
 62
     7
100
AcDbVertex
100
AcDb2dVertex
 10
149.839461
 20
75.554958
 30
0.0
  0
VERTEX
  5
310
100
AcDbEntity
  8
1
370
    30
  6
Continuous
 62
     7
100
AcDbVertex
100
AcDb2dVertex
 10
149.678942
 20
75.373809
 30
0.0
  0
VERTEX
  5
311
100
AcDbEntity
  8
1
370
    30
  6
Continuous
 62
     7
100
AcDbVertex
100
AcDb2dVertex
 10
149.518846
 20
75.204661
 30
0.0
  0
VERTEX
  5
312
100
AcDbEntity
  8
1
370
    30
  6
Continuous
 62
     7
100
AcDbVertex
100
AcDb2dVertex
 10
149.368432
 20
75.052447
 30
0.0
  0
VERTEX
  5
313
100
AcDbEntity
  8
1
370
    30
  6
Continuous
 62
     7
100
AcDbVertex
100
AcDb2dVertex
 10
149.235676
 20
74.921571
 30
0.0
  0
VERTEX
  5
314
100
AcDbEntity
  8
1
370
    30
  6
Continuous
 62
     7
100
AcDbVertex
100
AcDb2dVertex
 10
149.12683
 20
74.815774
 30
0.0
  0
VERTEX
  5
315
100
AcDbEntity
  8
1
370
    30
  6
Continuous
 62
     7
100
AcDbVertex
100
AcDb2dVertex
 10
149.046341
 20
74.738037
 30
0.0
  0
VERTEX
  5
316
100
AcDbEntity
  8
1
370
    30
  6
Continuous
 62
     7
100
AcDbVertex
100
AcDb2dVertex
 10
148.997041
 20
74.690523
 30
0.0
  0
VERTEX
  5
317
100
AcDbEntity
  8
1
370
    30
  6
Continuous
 62
     7
100
AcDbVertex
100
AcDb2dVertex
 10
148.98045
 20
74.67454
 30
0.0
  0
SEQEND
  5
318
100
AcDbEntity
  8
1
370
    30
  6
Continuous
 62
     7
  0
LINE
  5
319
100
AcDbEntity
  8
1
370
     9
  6
HIDDEN
 62
     7
100
AcDbLine
 10
229.997223
 20
76.685
 30
0.0
 11
229.997223
 21
75.085
 31
0.0
  0
LINE
  5
31A
100
AcDbEntity
  8
1
370
     9
  6
HIDDEN
 62
     7
100
AcDbLine
 10
224.597223
 20
79.485
 30
0.0
 11
224.597223
 21
76.685
 31
0.0
  0
LINE
  5
31B
100
AcDbEntity
  8
1
370
     9
  6
HIDDEN
 62
     7
100
AcDbLine
 10
229.497223
 20
79.485
 30
0.0
 11
229.497223
 21
76.685
 31
0.0
  0
LINE
  5
31C
100
AcDbEntity
  8
1
370
     9
  6
HIDDEN
 62
     7
100
AcDbLine
 10
224.597223
 20
79.485
 30
0.0
 11
229.497223
 21
79.485
 31
0.0
  0
LINE
  5
31D
100
AcDbEntity
  8
1
370
     9
  6
HIDDEN
 62
     7
100
AcDbLine
 10
229.497223
 20
78.385
 30
0.0
 11
239.997223
 21
78.385
 31
0.0
  0
LINE
  5
31E
100
AcDbEntity
  8
1
370
     9
  6
HIDDEN
 62
     7
100
AcDbLine
 10
229.497223
 20
77.385
 30
0.0
 11
239.997223
 21
77.385
 31
0.0
  0
POLYLINE
  5
31F
100
AcDbEntity
  8
1
370
     9
  6
HIDDEN
 62
     7
100
AcDb2dPolyline
 66
     1
 10
0.0
 20
0.0
 30
0.0
 70
     2
  0
VERTEX
  5
320
100
AcDbEntity
  8
1
370
     9
  6
HIDDEN
 62
     7
100
AcDbVertex
100
AcDb2dVertex
 10
226.80354
 20
75.085
 30
0.0
  0
VERTEX
  5
321
100
AcDbEntity
  8
1
370
     9
  6
HIDDEN
 62
     7
100
AcDbVertex
100
AcDb2dVertex
 10
226.810524
 20
75.068944
 30
0.0
  0
VERTEX
  5
322
100
AcDbEntity
  8
1
370
     9
  6
HIDDEN
 62
     7
100
AcDbVertex
100
AcDb2dVertex
 10
226.831284
 20
75.021227
 30
0.0
  0
VERTEX
  5
323
100
AcDbEntity
  8
1
370
     9
  6
HIDDEN
 62
     7
100
AcDbVertex
100
AcDb2dVertex
 10
226.865249
 20
74.943278
 30
0.0
  0
VERTEX
  5
324
100
AcDbEntity
  8
1
370
     9
  6
HIDDEN
 62
     7
100
AcDbVertex
100
AcDb2dVertex
 10
226.911479
 20
74.837678
 30
0.0
  0
VERTEX
  5
325
100
AcDbEntity
  8
1
370
     9
  6
HIDDEN
 62
     7
100
AcDbVertex
100
AcDb2dVertex
 10
226.968674
 20
74.708366
 30
0.0
  0
VERTEX
  5
326
100
AcDbEntity
  8
1
370
     9
  6
HIDDEN
 62
     7
100
AcDbVertex
100
AcDb2dVertex
 10
227.035211
 20
74.560752
 30
0.0
  0
VERTEX
  5
327
100
AcDbEntity
  8
1
370
     9
  6
HIDDEN
 62
     7
100
AcDbVertex
100
AcDb2dVertex
 10
227.10918
 20
74.401637
 30
0.0
  0
VERTEX
  5
328
100
AcDbEntity
  8
1
370
     9
  6
HIDDEN
 62
     7
100
AcDbVertex
100
AcDb2dVertex
 10
227.188441
 20
74.238862
 30
0.0
  0
VERTEX
  5
329
100
AcDbEntity
  8
1
370
     9
  6
HIDDEN
 62
     7
100
AcDbVertex
100
AcDb2dVertex
 10
227.270703
 20
74.080688
 30
0.0
  0
VERTEX
  5
32A
100
AcDbEntity
  8
1
370
     9
  6
HIDDEN
 62
     7
100
AcDbVertex
100
AcDb2dVertex
 10
227.3536
 20
73.934969
 30
0.0
  0
VERTEX
  5
32B
100
AcDbEntity
  8
1
370
     9
  6
HIDDEN
 62
     7
100
AcDbVertex
100
AcDb2dVertex
 10
227.434782
 20
73.808255
 30
0.0
  0
VERTEX
  5
32C
100
AcDbEntity
  8
1
370
     9
  6
HIDDEN
 62
     7
100
AcDbVertex
100
AcDb2dVertex
 10
227.512
 20
73.704989
 30
0.0
  0
VERTEX
  5
32D
100
AcDbEntity
  8
1
370
     9
  6
HIDDEN
 62
     7
100
AcDbVertex
100
AcDb2dVertex
 10
227.583184
 20
73.626985
 30
0.0
  0
VERTEX
  5
32E
100
AcDbEntity
  8
1
370
     9
  6
HIDDEN
 62
     7
100
AcDbVertex
100
AcDb2dVertex
 10
227.646497
 20
73.573294
 30
0.0
  0
VERTEX
  5
32F
100
AcDbEntity
  8
1
370
     9
  6
HIDDEN
 62
     7
100
AcDbVertex
100
AcDb2dVertex
 10
227.700377
 20
73.540538
 30
0.0
  0
VERTEX
  5
330
100
AcDbEntity
  8
1
370
     9
  6
HIDDEN
 62
     7
100
AcDbVertex
100
AcDb2dVertex
 10
227.743561
 20
73.523665
 30
0.0
  0
VERTEX
  5
331
100
AcDbEntity
  8
1
370
     9
  6
HIDDEN
 62
     7
100
AcDbVertex
100
AcDb2dVertex
 10
227.775079
 20
73.516998
 30
0.0
  0
VERTEX
  5
332
100
AcDbEntity
  8
1
370
     9
  6
HIDDEN
 62
     7
100
AcDbVertex
100
AcDb2dVertex
 10
227.794256
 20
73.515395
 30
0.0
  0
VERTEX
  5
333
100
AcDbEntity
  8
1
370
     9
  6
HIDDEN
 62
     7
100
AcDbVertex
100
AcDb2dVertex
 10
227.800692
 20
73.515286
 30
0.0
  0
VERTEX
  5
334
100
AcDbEntity
  8
1
370
     9
  6
HIDDEN
 62
     7
100
AcDbVertex
100
AcDb2dVertex
 10
227.807121
 20
73.515395
 30
0.0
  0
VERTEX
  5
335
100
AcDbEntity
  8
1
370
     9
  6
HIDDEN
 62
     7
100
AcDbVertex
100
AcDb2dVertex
 10
227.826188
 20
73.516998
 30
0.0
  0
VERTEX
  5
336
100
AcDbEntity
  8
1
370
     9
  6
HIDDEN
 62
     7
100
AcDbVertex
100
AcDb2dVertex
 10
227.857249
 20
73.523665
 30
0.0
  0
VERTEX
  5
337
100
AcDbEntity
  8
1
370
     9
  6
HIDDEN
 62
     7
100
AcDbVertex
100
AcDb2dVertex
 10
227.899273
 20
73.540538
 30
0.0
  0
VERTEX
  5
338
100
AcDbEntity
  8
1
370
     9
  6
HIDDEN
 62
     7
100
AcDbVertex
100
AcDb2dVertex
 10
227.950905
 20
73.573294
 30
0.0
  0
VERTEX
  5
339
100
AcDbEntity
  8
1
370
     9
  6
HIDDEN
 62
     7
100
AcDbVertex
100
AcDb2dVertex
 10
228.010531
 20
73.626985
 30
0.0
  0
VERTEX
  5
33A
100
AcDbEntity
  8
1
370
     9
  6
HIDDEN
 62
     7
100
AcDbVertex
100
AcDb2dVertex
 10
228.076359
 20
73.704989
 30
0.0
  0
VERTEX
  5
33B
100
AcDbEntity
  8
1
370
     9
  6
HIDDEN
 62
     7
100
AcDbVertex
100
AcDb2dVertex
 10
228.146487
 20
73.808255
 30
0.0
  0
VERTEX
  5
33C
100
AcDbEntity
  8
1
370
     9
  6
HIDDEN
 62
     7
100
AcDbVertex
100
AcDb2dVertex
 10
228.218969
 20
73.934969
 30
0.0
  0
VERTEX
  5
33D
100
AcDbEntity
  8
1
370
     9
  6
HIDDEN
 62
     7
100
AcDbVertex
100
AcDb2dVertex
 10
228.29186
 20
74.080688
 30
0.0
  0
VERTEX
  5
33E
100
AcDbEntity
  8
1
370
     9
  6
HIDDEN
 62
     7
100
AcDbVertex
100
AcDb2dVertex
 10
228.363262
 20
74.238862
 30
0.0
  0
VERTEX
  5
33F
100
AcDbEntity
  8
1
370
     9
  6
HIDDEN
 62
     7
100
AcDbVertex
100
AcDb2dVertex
 10
228.431347
 20
74.401637
 30
0.0
  0
VERTEX
  5
340
100
AcDbEntity
  8
1
370
     9
  6
HIDDEN
 62
     7
100
AcDbVertex
100
AcDb2dVertex
 10
228.49439
 20
74.560752
 30
0.0
  0
VERTEX
  5
341
100
AcDbEntity
  8
1
370
     9
  6
HIDDEN
 62
     7
100
AcDbVertex
100
AcDb2dVertex
 10
228.550792
 20
74.708366
 30
0.0
  0
VERTEX
  5
342
100
AcDbEntity
  8
1
370
     9
  6
HIDDEN
 62
     7
100
AcDbVertex
100
AcDb2dVertex
 10
228.599109
 20
74.837678
 30
0.0
  0
VERTEX
  5
343
100
AcDbEntity
  8
1
370
     9
  6
HIDDEN
 62
     7
100
AcDbVertex
100
AcDb2dVertex
 10
228.638087
 20
74.943278
 30
0.0
  0
VERTEX
  5
344
100
AcDbEntity
  8
1
370
     9
  6
HIDDEN
 62
     7
100
AcDbVertex
100
AcDb2dVertex
 10
228.666701
 20
75.021227
 30
0.0
  0
VERTEX
  5
345
100
AcDbEntity
  8
1
370
     9
  6
HIDDEN
 62
     7
100
AcDbVertex
100
AcDb2dVertex
 10
228.684185
 20
75.068944
 30
0.0
  0
VERTEX
  5
346
100
AcDbEntity
  8
1
370
     9
  6
HIDDEN
 62
     7
100
AcDbVertex
100
AcDb2dVertex
 10
228.690066
 20
75.085
 30
0.0
  0
SEQEND
  5
347
100
AcDbEntity
  8
1
370
     9
  6
HIDDEN
 62
     7
  0
LINE
  5
348
100
AcDbEntity
  8
1
370
     9
  6
HIDDEN
 62
     7
100
AcDbLine
 10
169.997223
 20
76.685
 30
0.0
 11
169.997223
 21
75.085
 31
0.0
  0
LINE
  5
349
100
AcDbEntity
  8
1
370
     9
  6
HIDDEN
 62
     7
100
AcDbLine
 10
170.497223
 20
79.485
 30
0.0
 11
170.497223
 21
76.685
 31
0.0
  0
LINE
  5
34A
100
AcDbEntity
  8
1
370
     9
  6
HIDDEN
 62
     7
100
AcDbLine
 10
175.397223
 20
79.485
 30
0.0
 11
175.397223
 21
76.685
 31
0.0
  0
LINE
  5
34B
100
AcDbEntity
  8
1
370
     9
  6
HIDDEN
 62
     7
100
AcDbLine
 10
170.497223
 20
79.485
 30
0.0
 11
175.397223
 21
79.485
 31
0.0
  0
LINE
  5
34C
100
AcDbEntity
  8
1
370
     9
  6
HIDDEN
 62
     7
100
AcDbLine
 10
159.997223
 20
78.385
 30
0.0
 11
170.497223
 21
78.385
 31
0.0
  0
LINE
  5
34D
100
AcDbEntity
  8
1
370
     9
  6
HIDDEN
 62
     7
100
AcDbLine
 10
159.997223
 20
77.385
 30
0.0
 11
170.497223
 21
77.385
 31
0.0
  0
POLYLINE
  5
34E
100
AcDbEntity
  8
1
370
     9
  6
HIDDEN
 62
     7
100
AcDb2dPolyline
 66
     1
 10
0.0
 20
0.0
 30
0.0
 70
     2
  0
VERTEX
  5
34F
100
AcDbEntity
  8
1
370
     9
  6
HIDDEN
 62
     7
100
AcDbVertex
100
AcDb2dVertex
 10
171.20354
 20
75.085
 30
0.0
  0
VERTEX
  5
350
100
AcDbEntity
  8
1
370
     9
  6
HIDDEN
 62
     7
100
AcDbVertex
100
AcDb2dVertex
 10
171.210524
 20
75.068944
 30
0.0
  0
VERTEX
  5
351
100
AcDbEntity
  8
1
370
     9
  6
HIDDEN
 62
     7
100
AcDbVertex
100
AcDb2dVertex
 10
171.231284
 20
75.021227
 30
0.0
  0
VERTEX
  5
352
100
AcDbEntity
  8
1
370
     9
  6
HIDDEN
 62
     7
100
AcDbVertex
100
AcDb2dVertex
 10
171.265249
 20
74.943278
 30
0.0
  0
VERTEX
  5
353
100
AcDbEntity
  8
1
370
     9
  6
HIDDEN
 62
     7
100
AcDbVertex
100
AcDb2dVertex
 10
171.311479
 20
74.837678
 30
0.0
  0
VERTEX
  5
354
100
AcDbEntity
  8
1
370
     9
  6
HIDDEN
 62
     7
100
AcDbVertex
100
AcDb2dVertex
 10
171.368674
 20
74.708366
 30
0.0
  0
VERTEX
  5
355
100
AcDbEntity
  8
1
370
     9
  6
HIDDEN
 62
     7
100
AcDbVertex
100
AcDb2dVertex
 10
171.435211
 20
74.560752
 30
0.0
  0
VERTEX
  5
356
100
AcDbEntity
  8
1
370
     9
  6
HIDDEN
 62
     7
100
AcDbVertex
100
AcDb2dVertex
 10
171.50918
 20
74.401637
 30
0.0
  0
VERTEX
  5
357
100
AcDbEntity
  8
1
370
     9
  6
HIDDEN
 62
     7
100
AcDbVertex
100
AcDb2dVertex
 10
171.588441
 20
74.238862
 30
0.0
  0
VERTEX
  5
358
100
AcDbEntity
  8
1
370
     9
  6
HIDDEN
 62
     7
100
AcDbVertex
100
AcDb2dVertex
 10
171.670703
 20
74.080688
 30
0.0
  0
VERTEX
  5
359
100
AcDbEntity
  8
1
370
     9
  6
HIDDEN
 62
     7
100
AcDbVertex
100
AcDb2dVertex
 10
171.7536
 20
73.934969
 30
0.0
  0
VERTEX
  5
35A
100
AcDbEntity
  8
1
370
     9
  6
HIDDEN
 62
     7
100
AcDbVertex
100
AcDb2dVertex
 10
171.834782
 20
73.808255
 30
0.0
  0
VERTEX
  5
35B
100
AcDbEntity
  8
1
370
     9
  6
HIDDEN
 62
     7
100
AcDbVertex
100
AcDb2dVertex
 10
171.912
 20
73.704989
 30
0.0
  0
VERTEX
  5
35C
100
AcDbEntity
  8
1
370
     9
  6
HIDDEN
 62
     7
100
AcDbVertex
100
AcDb2dVertex
 10
171.983184
 20
73.626985
 30
0.0
  0
VERTEX
  5
35D
100
AcDbEntity
  8
1
370
     9
  6
HIDDEN
 62
     7
100
AcDbVertex
100
AcDb2dVertex
 10
172.046497
 20
73.573294
 30
0.0
  0
VERTEX
  5
35E
100
AcDbEntity
  8
1
370
     9
  6
HIDDEN
 62
     7
100
AcDbVertex
100
AcDb2dVertex
 10
172.100377
 20
73.540538
 30
0.0
  0
VERTEX
  5
35F
100
AcDbEntity
  8
1
370
     9
  6
HIDDEN
 62
     7
100
AcDbVertex
100
AcDb2dVertex
 10
172.143561
 20
73.523665
 30
0.0
  0
VERTEX
  5
360
100
AcDbEntity
  8
1
370
     9
  6
HIDDEN
 62
     7
100
AcDbVertex
100
AcDb2dVertex
 10
172.175079
 20
73.516998
 30
0.0
  0
VERTEX
  5
361
100
AcDbEntity
  8
1
370
     9
  6
HIDDEN
 62
     7
100
AcDbVertex
100
AcDb2dVertex
 10
172.194256
 20
73.515395
 30
0.0
  0
VERTEX
  5
362
100
AcDbEntity
  8
1
370
     9
  6
HIDDEN
 62
     7
100
AcDbVertex
100
AcDb2dVertex
 10
172.200692
 20
73.515286
 30
0.0
  0
VERTEX
  5
363
100
AcDbEntity
  8
1
370
     9
  6
HIDDEN
 62
     7
100
AcDbVertex
100
AcDb2dVertex
 10
172.207121
 20
73.515395
 30
0.0
  0
VERTEX
  5
364
100
AcDbEntity
  8
1
370
     9
  6
HIDDEN
 62
     7
100
AcDbVertex
100
AcDb2dVertex
 10
172.226188
 20
73.516998
 30
0.0
  0
VERTEX
  5
365
100
AcDbEntity
  8
1
370
     9
  6
HIDDEN
 62
     7
100
AcDbVertex
100
AcDb2dVertex
 10
172.257249
 20
73.523665
 30
0.0
  0
VERTEX
  5
366
100
AcDbEntity
  8
1
370
     9
  6
HIDDEN
 62
     7
100
AcDbVertex
100
AcDb2dVertex
 10
172.299273
 20
73.540538
 30
0.0
  0
VERTEX
  5
367
100
AcDbEntity
  8
1
370
     9
  6
HIDDEN
 62
     7
100
AcDbVertex
100
AcDb2dVertex
 10
172.350905
 20
73.573294
 30
0.0
  0
VERTEX
  5
368
100
AcDbEntity
  8
1
370
     9
  6
HIDDEN
 62
     7
100
AcDbVertex
100
AcDb2dVertex
 10
172.410531
 20
73.626985
 30
0.0
  0
VERTEX
  5
369
100
AcDbEntity
  8
1
370
     9
  6
HIDDEN
 62
     7
100
AcDbVertex
100
AcDb2dVertex
 10
172.476359
 20
73.704989
 30
0.0
  0
VERTEX
  5
36A
100
AcDbEntity
  8
1
370
     9
  6
HIDDEN
 62
     7
100
AcDbVertex
100
AcDb2dVertex
 10
172.546487
 20
73.808255
 30
0.0
  0
VERTEX
  5
36B
100
AcDbEntity
  8
1
370
     9
  6
HIDDEN
 62
     7
100
AcDbVertex
100
AcDb2dVertex
 10
172.618969
 20
73.934969
 30
0.0
  0
VERTEX
  5
36C
100
AcDbEntity
  8
1
370
     9
  6
HIDDEN
 62
     7
100
AcDbVertex
100
AcDb2dVertex
 10
172.69186
 20
74.080688
 30
0.0
  0
VERTEX
  5
36D
100
AcDbEntity
  8
1
370
     9
  6
HIDDEN
 62
     7
100
AcDbVertex
100
AcDb2dVertex
 10
172.763262
 20
74.238862
 30
0.0
  0
VERTEX
  5
36E
100
AcDbEntity
  8
1
370
     9
  6
HIDDEN
 62
     7
100
AcDbVertex
100
AcDb2dVertex
 10
172.831347
 20
74.401637
 30
0.0
  0
VERTEX
  5
36F
100
AcDbEntity
  8
1
370
     9
  6
HIDDEN
 62
     7
100
AcDbVertex
100
AcDb2dVertex
 10
172.89439
 20
74.560752
 30
0.0
  0
VERTEX
  5
370
100
AcDbEntity
  8
1
370
     9
  6
HIDDEN
 62
     7
100
AcDbVertex
100
AcDb2dVertex
 10
172.950792
 20
74.708366
 30
0.0
  0
VERTEX
  5
371
100
AcDbEntity
  8
1
370
     9
  6
HIDDEN
 62
     7
100
AcDbVertex
100
AcDb2dVertex
 10
172.999109
 20
74.837678
 30
0.0
  0
VERTEX
  5
372
100
AcDbEntity
  8
1
370
     9
  6
HIDDEN
 62
     7
100
AcDbVertex
100
AcDb2dVertex
 10
173.038087
 20
74.943278
 30
0.0
  0
VERTEX
  5
373
100
AcDbEntity
  8
1
370
     9
  6
HIDDEN
 62
     7
100
AcDbVertex
100
AcDb2dVertex
 10
173.066701
 20
75.021227
 30
0.0
  0
VERTEX
  5
374
100
AcDbEntity
  8
1
370
     9
  6
HIDDEN
 62
     7
100
AcDbVertex
100
AcDb2dVertex
 10
173.084185
 20
75.068944
 30
0.0
  0
VERTEX
  5
375
100
AcDbEntity
  8
1
370
     9
  6
HIDDEN
 62
     7
100
AcDbVertex
100
AcDb2dVertex
 10
173.090066
 20
75.085
 30
0.0
  0
SEQEND
  5
376
100
AcDbEntity
  8
1
370
     9
  6
HIDDEN
 62
     7
  0
LINE
  5
377
100
AcDbEntity
  8
1
370
     9
  6
HIDDEN
 62
     7
100
AcDbLine
 10
169.997223
 20
75.085
 30
0.0
 11
229.997223
 21
75.085
 31
0.0
  0
LINE
  5
378
100
AcDbEntity
  8
1
370
     9
  6
HIDDEN
 62
     7
100
AcDbLine
 10
169.997223
 20
76.685
 30
0.0
 11
229.997223
 21
76.685
 31
0.0
  0
LINE
  5
379
100
AcDbEntity
  8
1
370
    30
  6
Continuous
 62
     7
100
AcDbLine
 10
169.997223
 20
83.385
 30
0.0
 11
229.998652
 21
83.385
 31
0.0
  0
ARC
  5
37A
100
AcDbEntity
  8
1
370
    30
  6
Continuous
 62
     7
100
AcDbCircle
 10
235.623118
 20
85.759183
 30
0.0
 40
6.106344
100
AcDbArc
 50
-157.11978
 51
-95.883102
  0
ARC
  5
37B
100
AcDbEntity
  8
1
370
    30
  6
Continuous
 62
     7
100
AcDbCircle
 10
164.371328
 20
85.759183
 30
0.0
 40
6.106344
100
AcDbArc
 50
-84.116898
 51
-22.88022
  0
ARC
  5
37C
100
AcDbEntity
  8
1
370
    30
  6
Continuous
 62
     7
100
AcDbCircle
 10
235.623118
 20
70.010817
 30
0.0
 40
6.106344
100
AcDbArc
 50
95.883102
 51
157.11978
  0
LINE
  5
37D
100
AcDbEntity
  8
1
370
    30
  6
Continuous
 62
     7
100
AcDbLine
 10
169.997223
 20
72.385
 30
0.0
 11
229.997223
 21
72.385
 31
0.0
  0
ARC
  5
37E
100
AcDbEntity
  8
1
370
    30
  6
Continuous
 62
     7
100
AcDbCircle
 10
164.371328
 20
70.010817
 30
0.0
 40
6.106344
100
AcDbArc
 50
22.88022
 51
84.116898
  0
LINE
  5
37F
100
AcDbEntity
  8
1
370
    30
  6
Continuous
 62
     7
100
AcDbLine
 10
234.997223
 20
79.685
 30
0.0
 11
234.997223
 21
76.085
 31
0.0
  0
LINE
  5
380
100
AcDbEntity
  8
1
370
    30
  6
Continuous
 62
     7
100
AcDbLine
 10
164.997223
 20
79.685
 30
0.0
 11
164.997223
 21
76.085
 31
0.0
  0
LINE
  5
381
100
AcDbEntity
  8
1
370
    30
  6
Continuous
 62
     7
100
AcDbLine
 10
234.997223
 20
77.385
 30
0.0
 11
244.949705
 21
77.385
 31
0.0
  0
LINE
  5
382
100
AcDbEntity
  8
1
370
    30
  6
Continuous
 62
     7
100
AcDbLine
 10
234.997223
 20
78.385
 30
0.0
 11
243.840404
 21
78.385
 31
0.0
  0
POLYLINE
  5
383
100
AcDbEntity
  8
1
370
    30
  6
Continuous
 62
     7
100
AcDb2dPolyline
 66
     1
 10
0.0
 20
0.0
 30
0.0
 70
     2
  0
VERTEX
  5
384
100
AcDbEntity
  8
1
370
    30
  6
Continuous
 62
     7
100
AcDbVertex
100
AcDb2dVertex
 10
245.04936
 20
81.759661
 30
0.0
  0
VERTEX
  5
385
100
AcDbEntity
  8
1
370
    30
  6
Continuous
 62
     7
100
AcDbVertex
100
AcDb2dVertex
 10
245.029487
 20
81.740395
 30
0.0
  0
VERTEX
  5
386
100
AcDbEntity
  8
1
370
    30
  6
Continuous
 62
     7
100
AcDbVertex
100
AcDb2dVertex
 10
244.970433
 20
81.683127
 30
0.0
  0
VERTEX
  5
387
100
AcDbEntity
  8
1
370
    30
  6
Continuous
 62
     7
100
AcDbVertex
100
AcDb2dVertex
 10
244.873996
 20
81.589442
 30
0.0
  0
VERTEX
  5
388
100
AcDbEntity
  8
1
370
    30
  6
Continuous
 62
     7
100
AcDbVertex
100
AcDb2dVertex
 10
244.74349
 20
81.461985
 30
0.0
  0
VERTEX
  5
389
100
AcDbEntity
  8
1
370
    30
  6
Continuous
 62
     7
100
AcDbVertex
100
AcDb2dVertex
 10
244.58406
 20
81.304435
 30
0.0
  0
VERTEX
  5
38A
100
AcDbEntity
  8
1
370
    30
  6
Continuous
 62
     7
100
AcDbVertex
100
AcDb2dVertex
 10
244.40288
 20
81.121455
 30
0.0
  0
VERTEX
  5
38B
100
AcDbEntity
  8
1
370
    30
  6
Continuous
 62
     7
100
AcDbVertex
100
AcDb2dVertex
 10
244.209048
 20
80.918571
 30
0.0
  0
VERTEX
  5
38C
100
AcDbEntity
  8
1
370
    30
  6
Continuous
 62
     7
100
AcDbVertex
100
AcDb2dVertex
 10
244.013099
 20
80.701992
 30
0.0
  0
VERTEX
  5
38D
100
AcDbEntity
  8
1
370
    30
  6
Continuous
 62
     7
100
AcDbVertex
100
AcDb2dVertex
 10
243.826106
 20
80.478365
 30
0.0
  0
VERTEX
  5
38E
100
AcDbEntity
  8
1
370
    30
  6
Continuous
 62
     7
100
AcDbVertex
100
AcDb2dVertex
 10
243.658474
 20
80.254472
 30
0.0
  0
VERTEX
  5
38F
100
AcDbEntity
  8
1
370
    30
  6
Continuous
 62
     7
100
AcDbVertex
100
AcDb2dVertex
 10
243.518634
 20
80.036917
 30
0.0
  0
VERTEX
  5
390
100
AcDbEntity
  8
1
370
    30
  6
Continuous
 62
     7
100
AcDbVertex
100
AcDb2dVertex
 10
243.411882
 20
79.831826
 30
0.0
  0
VERTEX
  5
391
100
AcDbEntity
  8
1
370
    30
  6
Continuous
 62
     7
100
AcDbVertex
100
AcDb2dVertex
 10
243.339624
 20
79.644599
 30
0.0
  0
VERTEX
  5
392
100
AcDbEntity
  8
1
370
    30
  6
Continuous
 62
     7
100
AcDbVertex
100
AcDb2dVertex
 10
243.299222
 20
79.479749
 30
0.0
  0
VERTEX
  5
393
100
AcDbEntity
  8
1
370
    30
  6
Continuous
 62
     7
100
AcDbVertex
100
AcDb2dVertex
 10
243.284518
 20
79.340838
 30
0.0
  0
VERTEX
  5
394
100
AcDbEntity
  8
1
370
    30
  6
Continuous
 62
     7
100
AcDbVertex
100
AcDb2dVertex
 10
243.287002
 20
79.230508
 30
0.0
  0
VERTEX
  5
395
100
AcDbEntity
  8
1
370
    30
  6
Continuous
 62
     7
100
AcDbVertex
100
AcDb2dVertex
 10
243.297408
 20
79.150584
 30
0.0
  0
VERTEX
  5
396
100
AcDbEntity
  8
1
370
    30
  6
Continuous
 62
     7
100
AcDbVertex
100
AcDb2dVertex
 10
243.307471
 20
79.102217
 30
0.0
  0
VERTEX
  5
397
100
AcDbEntity
  8
1
370
    30
  6
Continuous
 62
     7
100
AcDbVertex
100
AcDb2dVertex
 10
243.311501
 20
79.08603
 30
0.0
  0
VERTEX
  5
398
100
AcDbEntity
  8
1
370
    30
  6
Continuous
 62
     7
100
AcDbVertex
100
AcDb2dVertex
 10
243.315857
 20
79.069885
 30
0.0
  0
VERTEX
  5
399
100
AcDbEntity
  8
1
370
    30
  6
Continuous
 62
     7
100
AcDbVertex
100
AcDb2dVertex
 10
243.330705
 20
79.022136
 30
0.0
  0
VERTEX
  5
39A
100
AcDbEntity
  8
1
370
    30
  6
Continuous
 62
     7
100
AcDbVertex
100
AcDb2dVertex
 10
243.360878
 20
78.944771
 30
0.0
  0
VERTEX
  5
39B
100
AcDbEntity
  8
1
370
    30
  6
Continuous
 62
     7
100
AcDbVertex
100
AcDb2dVertex
 10
243.412898
 20
78.840887
 30
0.0
  0
VERTEX
  5
39C
100
AcDbEntity
  8
1
370
    30
  6
Continuous
 62
     7
100
AcDbVertex
100
AcDb2dVertex
 10
243.493067
 20
78.714407
 30
0.0
  0
VERTEX
  5
39D
100
AcDbEntity
  8
1
370
    30
  6
Continuous
 62
     7
100
AcDbVertex
100
AcDb2dVertex
 10
243.60548
 20
78.569757
 30
0.0
  0
VERTEX
  5
39E
100
AcDbEntity
  8
1
370
    30
  6
Continuous
 62
     7
100
AcDbVertex
100
AcDb2dVertex
 10
243.750453
 20
78.411565
 30
0.0
  0
VERTEX
  5
39F
100
AcDbEntity
  8
1
370
    30
  6
Continuous
 62
     7
100
AcDbVertex
100
AcDb2dVertex
 10
243.923754
 20
78.244422
 30
0.0
  0
VERTEX
  5
3A0
100
AcDbEntity
  8
1
370
    30
  6
Continuous
 62
     7
100
AcDbVertex
100
AcDb2dVertex
 10
244.116824
 20
78.072735
 30
0.0
  0
VERTEX
  5
3A1
100
AcDbEntity
  8
1
370
    30
  6
Continuous
 62
     7
100
AcDbVertex
100
AcDb2dVertex
 10
244.317972
 20
77.900674
 30
0.0
  0
VERTEX
  5
3A2
100
AcDbEntity
  8
1
370
    30
  6
Continuous
 62
     7
100
AcDbVertex
100
AcDb2dVertex
 10
244.514257
 20
77.732202
 30
0.0
  0
VERTEX
  5
3A3
100
AcDbEntity
  8
1
370
    30
  6
Continuous
 62
     7
100
AcDbVertex
100
AcDb2dVertex
 10
244.693639
 20
77.571141
 30
0.0
  0
VERTEX
  5
3A4
100
AcDbEntity
  8
1
370
    30
  6
Continuous
 62
     7
100
AcDbVertex
100
AcDb2dVertex
 10
244.846902
 20
77.421238
 30
0.0
  0
VERTEX
  5
3A5
100
AcDbEntity
  8
1
370
    30
  6
Continuous
 62
     7
100
AcDbVertex
100
AcDb2dVertex
 10
244.968913
 20
77.286187
 30
0.0
  0
VERTEX
  5
3A6
100
AcDbEntity
  8
1
370
    30
  6
Continuous
 62
     7
100
AcDbVertex
100
AcDb2dVertex
 10
245.05895
 20
77.169574
 30
0.0
  0
VERTEX
  5
3A7
100
AcDbEntity
  8
1
370
    30
  6
Continuous
 62
     7
100
AcDbVertex
100
AcDb2dVertex
 10
245.120038
 20
77.074758
 30
0.0
  0
VERTEX
  5
3A8
100
AcDbEntity
  8
1
370
    30
  6
Continuous
 62
     7
100
AcDbVertex
100
AcDb2dVertex
 10
245.157495
 20
77.004678
 30
0.0
  0
VERTEX
  5
3A9
100
AcDbEntity
  8
1
370
    30
  6
Continuous
 62
     7
100
AcDbVertex
100
AcDb2dVertex
 10
245.177055
 20
76.961641
 30
0.0
  0
VERTEX
  5
3AA
100
AcDbEntity
  8
1
370
    30
  6
Continuous
 62
     7
100
AcDbVertex
100
AcDb2dVertex
 10
245.183042
 20
76.947126
 30
0.0
  0
VERTEX
  5
3AB
100
AcDbEntity
  8
1
370
    30
  6
Continuous
 62
     7
100
AcDbVertex
100
AcDb2dVertex
 10
245.188724
 20
76.932591
 30
0.0
  0
VERTEX
  5
3AC
100
AcDbEntity
  8
1
370
    30
  6
Continuous
 62
     7
100
AcDbVertex
100
AcDb2dVertex
 10
245.203828
 20
76.889266
 30
0.0
  0
VERTEX
  5
3AD
100
AcDbEntity
  8
1
370
    30
  6
Continuous
 62
     7
100
AcDbVertex
100
AcDb2dVertex
 10
245.222898
 20
76.818004
 30
0.0
  0
VERTEX
  5
3AE
100
AcDbEntity
  8
1
370
    30
  6
Continuous
 62
     7
100
AcDbVertex
100
AcDb2dVertex
 10
245.237974
 20
76.720267
 30
0.0
  0
VERTEX
  5
3AF
100
AcDbEntity
  8
1
370
    30
  6
Continuous
 62
     7
100
AcDbVertex
100
AcDb2dVertex
 10
245.240076
 20
76.598162
 30
0.0
  0
VERTEX
  5
3B0
100
AcDbEntity
  8
1
370
    30
  6
Continuous
 62
     7
100
AcDbVertex
100
AcDb2dVertex
 10
245.220841
 20
76.45448
 30
0.0
  0
VERTEX
  5
3B1
100
AcDbEntity
  8
1
370
    30
  6
Continuous
 62
     7
100
AcDbVertex
100
AcDb2dVertex
 10
245.174031
 20
76.292701
 30
0.0
  0
VERTEX
  5
3B2
100
AcDbEntity
  8
1
370
    30
  6
Continuous
 62
     7
100
AcDbVertex
100
AcDb2dVertex
 10
245.096627
 20
76.116957
 30
0.0
  0
VERTEX
  5
3B3
100
AcDbEntity
  8
1
370
    30
  6
Continuous
 62
     7
100
AcDbVertex
100
AcDb2dVertex
 10
244.989337
 20
75.931952
 30
0.0
  0
VERTEX
  5
3B4
100
AcDbEntity
  8
1
370
    30
  6
Continuous
 62
     7
100
AcDbVertex
100
AcDb2dVertex
 10
244.856467
 20
75.742821
 30
0.0
  0
VERTEX
  5
3B5
100
AcDbEntity
  8
1
370
    30
  6
Continuous
 62
     7
100
AcDbVertex
100
AcDb2dVertex
 10
244.705238
 20
75.554958
 30
0.0
  0
VERTEX
  5
3B6
100
AcDbEntity
  8
1
370
    30
  6
Continuous
 62
     7
100
AcDbVertex
100
AcDb2dVertex
 10
244.544718
 20
75.373809
 30
0.0
  0
VERTEX
  5
3B7
100
AcDbEntity
  8
1
370
    30
  6
Continuous
 62
     7
100
AcDbVertex
100
AcDb2dVertex
 10
244.384623
 20
75.204661
 30
0.0
  0
VERTEX
  5
3B8
100
AcDbEntity
  8
1
370
    30
  6
Continuous
 62
     7
100
AcDbVertex
100
AcDb2dVertex
 10
244.234209
 20
75.052447
 30
0.0
  0
VERTEX
  5
3B9
100
AcDbEntity
  8
1
370
    30
  6
Continuous
 62
     7
100
AcDbVertex
100
AcDb2dVertex
 10
244.101453
 20
74.921571
 30
0.0
  0
VERTEX
  5
3BA
100
AcDbEntity
  8
1
370
    30
  6
Continuous
 62
     7
100
AcDbVertex
100
AcDb2dVertex
 10
243.992607
 20
74.815774
 30
0.0
  0
VERTEX
  5
3BB
100
AcDbEntity
  8
1
370
    30
  6
Continuous
 62
     7
100
AcDbVertex
100
AcDb2dVertex
 10
243.912118
 20
74.738037
 30
0.0
  0
VERTEX
  5
3BC
100
AcDbEntity
  8
1
370
    30
  6
Continuous
 62
     7
100
AcDbVertex
100
AcDb2dVertex
 10
243.862818
 20
74.690523
 30
0.0
  0
VERTEX
  5
3BD
100
AcDbEntity
  8
1
370
    30
  6
Continuous
 62
     7
100
AcDbVertex
100
AcDb2dVertex
 10
243.846227
 20
74.67454
 30
0.0
  0
SEQEND
  5
3BE
100
AcDbEntity
  8
1
370
    30
  6
Continuous
 62
     7
  0
DIMENSION
  5
3CA
100
AcDbEntity
  8
2
370
     9
  6
Continuous
 62
   134
100
AcDbDimension
  2
*D7
 10
134.997223
 20
83.385
 30
0.0
 11
134.497223
 21
77.885
 31
0.0
 71
     5
 72
     1
 41
1.0
 42
0.0
  1
11±1
100
AcDbAlignedDimension
 13
167.997223
 23
83.385
 33
0.0
 14
167.997223
 24
72.385
 34
0.0
 50
90.0
100
AcDbRotatedDimension
  0
ENDSEC
  0
SECTION
  2
OBJECTS
  0
DICTIONARY
  5
19
100
AcDbDictionary
280
     0
281
     1
  3
ACAD_GROUP
350
1A
  3
ACAD_MLINESTYLE
350
1B
  3
ACAD_LAYOUT
350
1E
  3
ACAD_PLOTSETTINGS
350
22
  3
ACAD_PLOTSTYLENAME
350
1F
  3
ACAD_WIPEOUT_VARS
350
23
  0
DICTIONARY
  5
1A
102
{ACAD_REACTORS
330
19
102
}
100
AcDbDictionary
280
     0
281
     1
  0
DICTIONARY
  5
1B
102
{ACAD_REACTORS
330
19
102
}
100
AcDbDictionary
280
     0
281
     1
  3
Standard
350
1C
  0
MLINESTYLE
  5
1C
102
{ACAD_REACTORS
330
1B
102
}
100
AcDbMlineStyle
  2
Standard
 70
     0
  3

 62
     0
 51
90.0
 52
90.0
 71
     2
 49
0.5
 62
   256
  6
ByLayer
 49
-0.5
 62
   256
  6
ByLayer
  0
ACDBDICTIONARYWDFLT
  5
1F
102
{ACAD_REACTORS
330
19
102
}
100
AcDbDictionary
281
     1
  3
Normal
350
1D
100
AcDbDictionaryWithDefault
340
1D
  0
ACDBPLACEHOLDER
  5
1D
102
{ACAD_REACTORS
330
1F
102
}
  0
LAYOUT
  5
20
102
{ACAD_REACTORS
330
1E
102
}
100
AcDbPlotSettings
  1

  2

  4

  6

 40
0.0
 41
0.0
 42
0.0
 43
0.0
 44
0.0
 45
0.0
 46
0.0
 47
0.0
 48
0.0
 49
0.0
140
0.0
141
0.0
142
1.0
143
1.0
 70
  1024
 72
     0
 73
     0
 74
     0
  7

 75
     0
147
1.0
148
0.0
149
0.0
100
AcDbLayout
  1
Model
 70
     0
 71
     0
 10
0.0
 20
0.0
 11
0.0
 21
0.0
 12
0.0
 22
0.0
 32
0.0
 14
0.0
 24
0.0
 34
0.0
 15
0.0
 25
0.0
 35
0.0
146
0.0
 13
0.0
 23
0.0
 33
0.0
 16
0.0
 26
0.0
 36
0.0
 17
0.0
 27
0.0
 37
0.0
 76
     0
330
A
331
0
345
0
346
0
  0
LAYOUT
  5
21
102
{ACAD_REACTORS
330
1E
102
}
100
AcDbPlotSettings
  1

  2

  4

  6

 40
0.0
 41
0.0
 42
0.0
 43
0.0
 44
0.0
 45
0.0
 46
0.0
 47
0.0
 48
0.0
 49
0.0
140
0.0
141
0.0
142
1.0
143
1.0
 70
     0
 72
     0
 73
     0
 74
     0
  7

 75
     0
147
1.0
148
0.0
149
0.0
100
AcDbLayout
  1
Layout1
 70
     0
 71
     0
 10
0.0
 20
0.0
 11
0.0
 21
0.0
 12
0.0
 22
0.0
 32
0.0
 14
0.0
 24
0.0
 34
0.0
 15
0.0
 25
0.0
 35
0.0
146
0.0
 13
0.0
 23
0.0
 33
0.0
 16
0.0
 26
0.0
 36
0.0
 17
0.0
 27
0.0
 37
0.0
 76
     0
330
B
331
0
345
0
346
0
  0
DICTIONARY
  5
1E
102
{ACAD_REACTORS
330
19
102
}
100
AcDbDictionary
280
     0
281
     1
  3
Layout1
350
21
  3
Model
350
20
  0
DICTIONARY
  5
22
102
{ACAD_REACTORS
330
19
102
}
100
AcDbDictionary
280
     0
281
     1
  0
WIPEOUTVARIABLES
  5
23
100
AcDbWipeoutVariables
 70
     1
  0
ENDSEC
  0
EOF
