  0
SECTION
  2
HEADER
  9
$ACADVER
  1
AC1015
  9
$ACADMAINTVER
 70
    20
  9
$DWGCODEPAGE
  3
ANSI_932
  9
$INSBASE
 10
0.0
 20
0.0
 30
0.0
  9
$EXTMIN
 10
9.98474220045
 20
8.48817513986512
 30
-0.0015258207003583
  9
$EXTMAX
 10
409.0859995003395
 20
265.5126349321946
 30
0.0000000349246037
  9
$LIMMIN
 10
0.0
 20
0.0
  9
$LIMMAX
 10
420.0
 20
297.0
  9
$ORTHOMODE
 70
     0
  9
$REGENMODE
 70
     1
  9
$FILLMODE
 70
     1
  9
$QTEXTMODE
 70
     0
  9
$MIRRTEXT
 70
     1
  9
$LTSCALE
 40
0.25
  9
$ATTMODE
 70
     1
  9
$TEXTSIZE
 40
0.0
  9
$TRACEWID
 40
0.05
  9
$TEXTSTYLE
  7
Standard
  9
$CLAYER
  8
0
  9
$CELTYPE
  6
Continuous
  9
$CECOLOR
 62
   256
  9
$CELTSCALE
 40
1.0
  9
$DISPSILH
 70
     0
  9
$DIMSCALE
 40
1.0
  9
$DIMASZ
 40
4.0
  9
$DIMEXO
 40
2.0
  9
$DIMDLI
 40
10.0
  9
$DIMRND
 40
0.0
  9
$DIMDLE
 40
0.0
  9
$DIMEXE
 40
2.0
  9
$DIMTP
 40
0.0
  9
$DIMTM
 40
0.0
  9
$DIMTXT
 40
4.0
  9
$DIMCEN
 40
0.09
  9
$DIMTSZ
 40
0.0
  9
$DIMTOL
 70
     0
  9
$DIMLIM
 70
     0
  9
$DIMTIH
 70
     0
  9
$DIMTOH
 70
     0
  9
$DIMSE1
 70
     0
  9
$DIMSE2
 70
     0
  9
$DIMTAD
 70
     3
  9
$DIMZIN
 70
     0
  9
$DIMBLK
  1

  9
$DIMASO
 70
     1
  9
$DIMSHO
 70
     1
  9
$DIMPOST
  1

  9
$DIMAPOST
  1

  9
$DIMALT
 70
     0
  9
$DIMALTD
 70
     2
  9
$DIMALTF
 40
25.4
  9
$DIMLFAC
 40
1.0
  9
$DIMTOFL
 70
     1
  9
$DIMTVP
 40
0.7
  9
$DIMTIX
 70
     0
  9
$DIMSOXD
 70
     0
  9
$DIMSAH
 70
     0
  9
$DIMBLK1
  1

  9
$DIMBLK2
  1

  9
$DIMSTYLE
  2
Standard
  9
$DIMCLRD
 70
     0
  9
$DIMCLRE
 70
     0
  9
$DIMCLRT
 70
     0
  9
$DIMTFAC
 40
0.5
  9
$DIMGAP
 40
0.0
  9
$DIMJUST
 70
     0
  9
$DIMSD1
 70
     0
  9
$DIMSD2
 70
     0
  9
$DIMTOLJ
 70
     1
  9
$DIMTZIN
 70
     0
  9
$DIMALTZ
 70
     0
  9
$DIMALTTZ
 70
     0
  9
$DIMUPT
 70
     0
  9
$DIMDEC
 70
     2
  9
$DIMTDEC
 70
     4
  9
$DIMALTU
 70
     2
  9
$DIMALTTD
 70
     2
  9
$DIMTXSTY
  7
Standard
  9
$DIMAUNIT
 70
     0
  9
$DIMADEC
 70
     0
  9
$DIMALTRND
 40
0.0
  9
$DIMAZIN
 70
     0
  9
$DIMDSEP
 70
     0
  9
$DIMATFIT
 70
     3
  9
$DIMFRAC
 70
     0
  9
$DIMLDRBLK
  1

  9
$DIMLUNIT
 70
     2
  9
$DIMLWD
 70
     0
  9
$DIMLWE
 70
     0
  9
$DIMTMOVE
 70
     0
  9
$LUNITS
 70
     2
  9
$LUPREC
 70
     4
  9
$SKETCHINC
 40
0.1
  9
$FILLETRAD
 40
0.0
  9
$AUNITS
 70
     0
  9
$AUPREC
 70
     0
  9
$MENU
  1
acad
  9
$ELEVATION
 40
0.0
  9
$PELEVATION
 40
0.0
  9
$THICKNESS
 40
0.0
  9
$LIMCHECK
 70
     0
  9
$CHAMFERA
 40
0.0
  9
$CHAMFERB
 40
0.0
  9
$CHAMFERC
 40
0.0
  9
$CHAMFERD
 40
0.0
  9
$SKPOLY
 70
     0
  9
$TDCREATE
 40
2458422.976932870
  9
$TDUCREATE
 40
2458422.601932870
  9
$TDUPDATE
 40
2458422.602753102
  9
$TDUUPDATE
 40
2458422.227753102
  9
$TDINDWG
 40
0.0007434144
  9
$TDUSRTIMER
 40
0.0007434144
  9
$USRTIMER
 70
     1
  9
$ANGBASE
 50
0.0
  9
$ANGDIR
 70
     0
  9
$PDMODE
 70
     0
  9
$PDSIZE
 40
0.0
  9
$PLINEWID
 40
0.0
  9
$SPLFRAME
 70
     0
  9
$SPLINETYPE
 70
     6
  9
$SPLINESEGS
 70
     8
  9
$HANDSEED
  5
5B6
  9
$SURFTAB1
 70
     6
  9
$SURFTAB2
 70
     6
  9
$SURFTYPE
 70
     6
  9
$SURFU
 70
     6
  9
$SURFV
 70
     6
  9
$UCSBASE
  2

  9
$UCSNAME
  2

  9
$UCSORG
 10
0.0
 20
0.0
 30
0.0
  9
$UCSXDIR
 10
1.0
 20
0.0
 30
0.0
  9
$UCSYDIR
 10
0.0
 20
1.0
 30
0.0
  9
$UCSORTHOREF
  2

  9
$UCSORTHOVIEW
 70
     0
  9
$UCSORGTOP
 10
0.0
 20
0.0
 30
0.0
  9
$UCSORGBOTTOM
 10
0.0
 20
0.0
 30
0.0
  9
$UCSORGLEFT
 10
0.0
 20
0.0
 30
0.0
  9
$UCSORGRIGHT
 10
0.0
 20
0.0
 30
0.0
  9
$UCSORGFRONT
 10
0.0
 20
0.0
 30
0.0
  9
$UCSORGBACK
 10
0.0
 20
0.0
 30
0.0
  9
$PUCSBASE
  2

  9
$PUCSNAME
  2

  9
$PUCSORG
 10
0.0
 20
0.0
 30
0.0
  9
$PUCSXDIR
 10
1.0
 20
0.0
 30
0.0
  9
$PUCSYDIR
 10
0.0
 20
1.0
 30
0.0
  9
$PUCSORTHOREF
  2

  9
$PUCSORTHOVIEW
 70
     0
  9
$PUCSORGTOP
 10
0.0
 20
0.0
 30
0.0
  9
$PUCSORGBOTTOM
 10
0.0
 20
0.0
 30
0.0
  9
$PUCSORGLEFT
 10
0.0
 20
0.0
 30
0.0
  9
$PUCSORGRIGHT
 10
0.0
 20
0.0
 30
0.0
  9
$PUCSORGFRONT
 10
0.0
 20
0.0
 30
0.0
  9
$PUCSORGBACK
 10
0.0
 20
0.0
 30
0.0
  9
$USERI1
 70
     0
  9
$USERI2
 70
     0
  9
$USERI3
 70
     0
  9
$USERI4
 70
     0
  9
$USERI5
 70
     0
  9
$USERR1
 40
0.0
  9
$USERR2
 40
0.0
  9
$USERR3
 40
0.0
  9
$USERR4
 40
0.0
  9
$USERR5
 40
0.0
  9
$WORLDVIEW
 70
     1
  9
$SHADEDGE
 70
     3
  9
$SHADEDIF
 70
    70
  9
$TILEMODE
 70
     1
  9
$MAXACTVP
 70
    16
  9
$PINSBASE
 10
0.0
 20
0.0
 30
0.0
  9
$PLIMCHECK
 70
     0
  9
$PEXTMIN
 10
0.0
 20
0.0
 30
0.0
  9
$PEXTMAX
 10
420.0
 20
297.0
 30
0.0
  9
$PLIMMIN
 10
0.0
 20
0.0
  9
$PLIMMAX
 10
420.0
 20
297.0
  9
$UNITMODE
 70
     0
  9
$VISRETAIN
 70
     0
  9
$PLINEGEN
 70
     1
  9
$PSLTSCALE
 70
     0
  9
$TREEDEPTH
 70
  3020
  9
$CMLSTYLE
  2
Standard
  9
$CMLJUST
 70
     0
  9
$CMLSCALE
 40
1.0
  9
$PROXYGRAPHICS
 70
     0
  9
$MEASUREMENT
 70
     0
  9
$CELWEIGHT
370
     0
  9
$ENDCAPS
280
     0
  9
$JOINSTYLE
280
     0
  9
$LWDISPLAY
290
     0
  9
$INSUNITS
 70
     0
  9
$HYPERLINKBASE
  1

  9
$STYLESHEET
  1

  9
$XEDIT
290
     1
  9
$CEPSNTYPE
380
     0
  9
$PSTYLEMODE
290
     1
  9
$FINGERPRINTGUID
  2

  9
$VERSIONGUID
  2
{51DD28DE-BA19-4AD4-AE45-A1684A9729CA}
  9
$EXTNAMES
290
     1
  9
$PSVPSCALE
 40
0.0
  9
$OLESTARTUP
290
     0
  0
ENDSEC
  0
SECTION
  2
CLASSES
  0
CLASS
  1
IMAGE
  2
AcDbRasterImage
  3
ISM
 90
    34943
280
     0
281
     1
  0
CLASS
  1
DICTIONARYVAR
  2
AcDbDictionaryVar
  3
ObjectDBX Classes
 90
        0
280
     0
281
     0
  0
CLASS
  1
RASTERVARIABLES
  2
AcDbRasterVariables
  3
ISM
 90
    32768
280
     0
281
     0
  0
CLASS
  1
IMAGEDEF
  2
AcDbRasterImageDef
  3
ISM
 90
    32768
280
     0
281
     0
  0
CLASS
  1
IMAGEDEF_REACTOR
  2
AcDbRasterImageDefReactor
  3
ISM
 90
    32769
280
     0
281
     0
  0
CLASS
  1
IDBUFFER
  2
AcDbIdBuffer
  3
ObjectDBX Classes
 90
    32768
280
     0
281
     0
  0
CLASS
  1
SPATIAL_FILTER
  2
AcDbSpatialFilter
  3
ObjectDBX Classes
 90
    32768
280
     0
281
     0
  0
CLASS
  1
SORTENTSTABLE
  2
AcDbSortentsTable
  3
ObjectDBX Classes
 90
    32768
280
     0
281
     0
  0
CLASS
  1
LAYER_INDEX
  2
AcDbLayerIndex
  3
ObjectDBX Classes
 90
    32768
280
     0
281
     0
  0
CLASS
  1
SPATIAL_INDEX
  2
AcDbSpatialIndex
  3
ObjectDBX Classes
 90
    32768
280
     0
281
     0
  0
CLASS
  1
OBJECT_PTR
  2
CAseDLPNTableRecord
  3
"ASE-LPNTableRecord"
 90
    32769
280
     0
281
     0
  0
CLASS
  1
LAYOUT
  2
AcDbLayout
  3
ObjectDBX Classes
 90
        0
280
     0
281
     0
  0
CLASS
  1
PLOTSETTINGS
  2
AcDbPlotSettings
  3
ObjectDBX Classes
 90
    32768
280
     0
281
     0
  0
CLASS
  1
ACDBDICTIONARYWDFLT
  2
AcDbDictionaryWithDefault
  3
ObjectDBX Classes
 90
        0
280
     0
281
     0
  0
CLASS
  1
ACDBPLACEHOLDER
  2
AcDbPlaceHolder
  3
ObjectDBX Classes
 90
        0
280
     0
281
     0
  0
CLASS
  1
VBA_PROJECT
  2
AcDbVbaProject
  3
acad
 90
    32768
280
     0
281
     0
  0
CLASS
  1
WIPEOUT
  2
AcDbWipeout
  3
WipeOut|Product Desc: Object Enabler for WipeOut entity | Company: Autodesk, Inc. | WEB Address: www.autodesk.com
 90
    34943
280
     0
281
     1
  0
CLASS
  1
WIPEOUTVARIABLES
  2
AcDbWipeoutVariables
  3
"WipeOut|Product Desc:     WipeOut Dbx Application|Company:          Autodesk, Inc.|WEB Address:      www.autodesk.com"
 90
        0
280
     0
281
     0
  0
CLASS
  1
RTEXT
  2
RText
  3
RText|AutoCAD Express Tool|expresstools@autodesk.com
 90
    32768
280
     0
281
     1
  0
CLASS
  1
ARCALIGNEDTEXT
  2
AcDbArcAlignedText
  3
ATEXT|AutoCAD Express Tool|expresstools@autodesk.com
 90
    32768
280
     0
281
     1
  0
CLASS
  1
MATERIAL
  2
AcDbMaterial
  3
ObjectDBX Classes
 90
     1153
280
     0
281
     0
  0
CLASS
  1
VISUALSTYLE
  2
AcDbVisualStyle
  3
ObjectDBX Classes
 90
     4095
280
     0
281
     0
  0
CLASS
  1
TABLESTYLE
  2
AcDbTableStyle
  3
ObjectDBX Classes
 90
     4095
280
     0
281
     0
  0
CLASS
  1
SCALE
  2
AcDbScale
  3
ObjectDBX Classes
 90
     1153
280
     0
281
     0
  0
CLASS
  1
MLEADERSTYLE
  2
AcDbMLeaderStyle
  3
ACDB_MLEADERSTYLE_CLASS
 90
     4095
280
     0
281
     0
  0
CLASS
  1
ACDBSECTIONVIEWSTYLE
  2
AcDbSectionViewStyle
  3
ObjectDBX Classes
 90
     1025
280
     0
281
     0
  0
CLASS
  1
ACDBDETAILVIEWSTYLE
  2
AcDbDetailViewStyle
  3
ObjectDBX Classes
 90
     1025
280
     0
281
     0
  0
CLASS
  1
CELLSTYLEMAP
  2
AcDbCellStyleMap
  3
ObjectDBX Classes
 90
     1152
280
     0
281
     0
  0
ENDSEC
  0
SECTION
  2
TABLES
  0
TABLE
  2
VPORT
  5
7
330
0
100
AcDbSymbolTable
 70
     1
  0
VPORT
  5
15
330
7
100
AcDbSymbolTableRecord
100
AcDbViewportTableRecord
  2
*ACTIVE
 70
     0
 10
0.0
 20
0.0
 11
1.0
 21
1.0
 12
488.8740906376056
 22
162.2589788421433
 13
0.0
 23
0.0
 14
1.0
 24
1.0
 15
0.0
 25
0.0
 16
0.0
 26
0.0
 36
1.0
 17
0.0
 27
0.0
 37
0.0
 40
1104.347645830743
 41
1.844683393070489
 42
50.0
 43
0.0
 44
0.0
 50
0.0
 51
0.0
 71
     0
 72
   100
 73
     1
 74
     1
 75
     0
 76
     0
 77
     0
 78
     0
281
     0
 65
     0
110
0.0
120
0.0
130
0.0
111
1.0
121
0.0
131
0.0
112
0.0
122
1.0
132
0.0
 79
     0
146
0.0
1001
ACAD_NAV_VCDISPLAY
1070
     3
  0
ENDTAB
  0
TABLE
  2
LTYPE
  5
4
330
0
100
AcDbSymbolTable
 70
     7
  0
LTYPE
  5
11
330
4
100
AcDbSymbolTableRecord
100
AcDbLinetypeTableRecord
  2
ByBlock
 70
     0
  3

 72
    65
 73
     0
 40
0.0
  0
LTYPE
  5
12
330
4
100
AcDbSymbolTableRecord
100
AcDbLinetypeTableRecord
  2
ByLayer
 70
     0
  3

 72
    65
 73
     0
 40
0.0
  0
LTYPE
  5
13
330
4
100
AcDbSymbolTableRecord
100
AcDbLinetypeTableRecord
  2
Continuous
 70
     0
  3
Solid line
 72
    65
 73
     0
 40
0.0
  0
LTYPE
  5
25
330
4
100
AcDbSymbolTableRecord
100
AcDbLinetypeTableRecord
  2
HIDDEN
 70
     0
  3
- - - - - - - - 
 72
    65
 73
     2
 40
12.6
 49
8.4
 74
     0
 49
-4.2
 74
     0
  0
LTYPE
  5
26
330
4
100
AcDbSymbolTableRecord
100
AcDbLinetypeTableRecord
  2
DOT
 70
     0
  3
･ ･ ･ ･ ･ ･ ･ ･ 
 72
    65
 73
     2
 40
8.0
 49
6.0
 74
     0
 49
-2.0
 74
     0
  0
LTYPE
  5
27
330
4
100
AcDbSymbolTableRecord
100
AcDbLinetypeTableRecord
  2
CENTER
 70
     0
  3
- ･ - ･ - ･ - ･ 
 72
    65
 73
     4
 40
50.5
 49
30.0
 74
     0
 49
-9.0
 74
     0
 49
2.5
 74
     0
 49
-9.0
 74
     0
  0
LTYPE
  5
28
330
4
100
AcDbSymbolTableRecord
100
AcDbLinetypeTableRecord
  2
PHANTOM
 70
     0
  3
- ･･ - ･･ - ･･ - ･･ 
 72
    65
 73
     6
 40
58.0
 49
30.0
 74
     0
 49
-9.0
 74
     0
 49
2.5
 74
     0
 49
-5.0
 74
     0
 49
2.5
 74
     0
 49
-9.0
 74
     0
  0
LTYPE
  5
29
330
4
100
AcDbSymbolTableRecord
100
AcDbLinetypeTableRecord
  2
ACAD_ISO06W100
 70
     0
  3
____ ... ____ ... ____
 72
    65
 73
     8
 40
37.5
 49
24.0
 74
     0
 49
-3.0
 74
     0
 49
0.5
 74
     0
 49
-3.0
 74
     0
 49
0.5
 74
     0
 49
-3.0
 74
     0
 49
0.5
 74
     0
 49
-3.0
 74
     0
  0
LTYPE
  5
2A
330
4
100
AcDbSymbolTableRecord
100
AcDbLinetypeTableRecord
  2
ACAD_ISO14W100
 70
     0
  3
__ . . . __ . . . __ . . . 
 72
    65
 73
     8
 40
25.5
 49
12.0
 74
     0
 49
-3.0
 74
     0
 49
0.5
 74
     0
 49
-3.0
 74
     0
 49
0.5
 74
     0
 49
-3.0
 74
     0
 49
0.5
 74
     0
 49
-3.0
 74
     0
  0
ENDTAB
  0
TABLE
  2
LAYER
  5
2
102
{ACAD_XDICTIONARY
360
54B
102
}
330
0
100
AcDbSymbolTable
 70
    74
  0
LAYER
  5
14
102
{ACAD_XDICTIONARY
360
4B4
102
}
330
2
100
AcDbSymbolTableRecord
100
AcDbLayerTableRecord
  2
0
 70
     0
 62
     7
  6
Continuous
370
    -3
390
1D
  0
LAYER
  5
2B
102
{ACAD_XDICTIONARY
360
4B6
102
}
330
2
100
AcDbSymbolTableRecord
100
AcDbLayerTableRecord
  2
1
 70
     0
 62
     7
  6
Continuous
370
    -3
390
1D
  0
LAYER
  5
2C
102
{ACAD_XDICTIONARY
360
4B8
102
}
330
2
100
AcDbSymbolTableRecord
100
AcDbLayerTableRecord
  2
2
 70
     0
 62
     7
  6
Continuous
370
    -3
390
1D
  0
LAYER
  5
2D
102
{ACAD_XDICTIONARY
360
4BA
102
}
330
2
100
AcDbSymbolTableRecord
100
AcDbLayerTableRecord
  2
3
 70
     0
 62
   214
  6
Continuous
370
    -3
390
1D
  0
LAYER
  5
2E
102
{ACAD_XDICTIONARY
360
4BC
102
}
330
2
100
AcDbSymbolTableRecord
100
AcDbLayerTableRecord
  2
4
 70
     0
 62
    54
  6
Continuous
370
    -3
390
1D
  0
LAYER
  5
2F
102
{ACAD_XDICTIONARY
360
4BE
102
}
330
2
100
AcDbSymbolTableRecord
100
AcDbLayerTableRecord
  2
5
 70
     0
 62
    94
  6
Continuous
370
    -3
390
1D
  0
LAYER
  5
30
102
{ACAD_XDICTIONARY
360
4C0
102
}
330
2
100
AcDbSymbolTableRecord
100
AcDbLayerTableRecord
  2
6
 70
     0
 62
    14
  6
Continuous
370
    -3
390
1D
  0
LAYER
  5
31
102
{ACAD_XDICTIONARY
360
4C2
102
}
330
2
100
AcDbSymbolTableRecord
100
AcDbLayerTableRecord
  2
7
 70
     0
 62
     4
  6
Continuous
370
    -3
390
1D
  0
LAYER
  5
32
102
{ACAD_XDICTIONARY
360
4C4
102
}
330
2
100
AcDbSymbolTableRecord
100
AcDbLayerTableRecord
  2
8
 70
     0
 62
     6
  6
Continuous
370
    -3
390
1D
  0
LAYER
  5
33
102
{ACAD_XDICTIONARY
360
4C6
102
}
330
2
100
AcDbSymbolTableRecord
100
AcDbLayerTableRecord
  2
9
 70
     0
 62
     2
  6
Continuous
370
    -3
390
1D
  0
LAYER
  5
34
102
{ACAD_XDICTIONARY
360
4C8
102
}
330
2
100
AcDbSymbolTableRecord
100
AcDbLayerTableRecord
  2
10
 70
     0
 62
     3
  6
Continuous
370
    -3
390
1D
  0
LAYER
  5
35
102
{ACAD_XDICTIONARY
360
4CA
102
}
330
2
100
AcDbSymbolTableRecord
100
AcDbLayerTableRecord
  2
11
 70
     0
 62
   251
  6
Continuous
370
    -3
390
1D
  0
LAYER
  5
36
102
{ACAD_XDICTIONARY
360
4CC
102
}
330
2
100
AcDbSymbolTableRecord
100
AcDbLayerTableRecord
  2
12
 70
     0
 62
   136
  6
Continuous
370
    -3
390
1D
  0
LAYER
  5
37
102
{ACAD_XDICTIONARY
360
4CE
102
}
330
2
100
AcDbSymbolTableRecord
100
AcDbLayerTableRecord
  2
13
 70
     0
 62
   216
  6
Continuous
370
    -3
390
1D
  0
LAYER
  5
38
102
{ACAD_XDICTIONARY
360
4D0
102
}
330
2
100
AcDbSymbolTableRecord
100
AcDbLayerTableRecord
  2
14
 70
     0
 62
    56
  6
Continuous
370
    -3
390
1D
  0
LAYER
  5
39
102
{ACAD_XDICTIONARY
360
4D2
102
}
330
2
100
AcDbSymbolTableRecord
100
AcDbLayerTableRecord
  2
15
 70
     0
 62
    96
  6
Continuous
370
    -3
390
1D
  0
LAYER
  5
3A
102
{ACAD_XDICTIONARY
360
4D4
102
}
330
2
100
AcDbSymbolTableRecord
100
AcDbLayerTableRecord
  2
16
 70
     0
 62
    16
  6
Continuous
370
    -3
390
1D
  0
LAYER
  5
3B
102
{ACAD_XDICTIONARY
360
4D6
102
}
330
2
100
AcDbSymbolTableRecord
100
AcDbLayerTableRecord
  2
17
 70
     0
 62
   132
  6
Continuous
370
    -3
390
1D
  0
LAYER
  5
3C
102
{ACAD_XDICTIONARY
360
4D8
102
}
330
2
100
AcDbSymbolTableRecord
100
AcDbLayerTableRecord
  2
18
 70
     0
 62
   212
  6
Continuous
370
    -3
390
1D
  0
LAYER
  5
3D
102
{ACAD_XDICTIONARY
360
4DA
102
}
330
2
100
AcDbSymbolTableRecord
100
AcDbLayerTableRecord
  2
19
 70
     0
 62
    52
  6
Continuous
370
    -3
390
1D
  0
LAYER
  5
3E
102
{ACAD_XDICTIONARY
360
4DC
102
}
330
2
100
AcDbSymbolTableRecord
100
AcDbLayerTableRecord
  2
20
 70
     0
 62
     6
  6
Continuous
370
    -3
390
1D
  0
LAYER
  5
3F
102
{ACAD_XDICTIONARY
360
4DE
102
}
330
2
100
AcDbSymbolTableRecord
100
AcDbLayerTableRecord
  2
21
 70
     0
 62
     3
  6
Continuous
370
    -3
390
1D
  0
LAYER
  5
40
102
{ACAD_XDICTIONARY
360
4E0
102
}
330
2
100
AcDbSymbolTableRecord
100
AcDbLayerTableRecord
  2
22
 70
     0
 62
     7
  6
Continuous
370
    -3
390
1D
  0
LAYER
  5
41
102
{ACAD_XDICTIONARY
360
4E2
102
}
330
2
100
AcDbSymbolTableRecord
100
AcDbLayerTableRecord
  2
23
 70
     0
 62
    21
  6
Continuous
370
    -3
390
1D
  0
LAYER
  5
42
102
{ACAD_XDICTIONARY
360
4E4
102
}
330
2
100
AcDbSymbolTableRecord
100
AcDbLayerTableRecord
  2
24
 70
     0
 62
   214
  6
Continuous
370
    -3
390
1D
  0
LAYER
  5
43
102
{ACAD_XDICTIONARY
360
4E6
102
}
330
2
100
AcDbSymbolTableRecord
100
AcDbLayerTableRecord
  2
25
 70
     0
 62
   251
  6
Continuous
370
    -3
390
1D
  0
LAYER
  5
44
102
{ACAD_XDICTIONARY
360
4E8
102
}
330
2
100
AcDbSymbolTableRecord
100
AcDbLayerTableRecord
  2
26
 70
     0
 62
     3
  6
Continuous
370
    -3
390
1D
  0
LAYER
  5
45
102
{ACAD_XDICTIONARY
360
4EA
102
}
330
2
100
AcDbSymbolTableRecord
100
AcDbLayerTableRecord
  2
27
 70
     0
 62
     3
  6
Continuous
370
    -3
390
1D
  0
LAYER
  5
46
102
{ACAD_XDICTIONARY
360
4EC
102
}
330
2
100
AcDbSymbolTableRecord
100
AcDbLayerTableRecord
  2
28
 70
     0
 62
     1
  6
Continuous
370
    -3
390
1D
  0
LAYER
  5
47
102
{ACAD_XDICTIONARY
360
4EE
102
}
330
2
100
AcDbSymbolTableRecord
100
AcDbLayerTableRecord
  2
29
 70
     0
 62
     4
  6
Continuous
370
    -3
390
1D
  0
LAYER
  5
48
102
{ACAD_XDICTIONARY
360
4F0
102
}
330
2
100
AcDbSymbolTableRecord
100
AcDbLayerTableRecord
  2
30
 70
     0
 62
     6
  6
Continuous
370
    -3
390
1D
  0
LAYER
  5
49
102
{ACAD_XDICTIONARY
360
4F2
102
}
330
2
100
AcDbSymbolTableRecord
100
AcDbLayerTableRecord
  2
31
 70
     0
 62
     2
  6
Continuous
370
    -3
390
1D
  0
LAYER
  5
4A
102
{ACAD_XDICTIONARY
360
4F4
102
}
330
2
100
AcDbSymbolTableRecord
100
AcDbLayerTableRecord
  2
32
 70
     0
 62
     7
  6
Continuous
370
    -3
390
1D
  0
LAYER
  5
4B
102
{ACAD_XDICTIONARY
360
4F6
102
}
330
2
100
AcDbSymbolTableRecord
100
AcDbLayerTableRecord
  2
33
 70
     0
 62
     7
  6
Continuous
370
    -3
390
1D
  0
LAYER
  5
4C
102
{ACAD_XDICTIONARY
360
4F8
102
}
330
2
100
AcDbSymbolTableRecord
100
AcDbLayerTableRecord
  2
34
 70
     0
 62
   253
  6
Continuous
370
    -3
390
1D
  0
LAYER
  5
4D
102
{ACAD_XDICTIONARY
360
4FA
102
}
330
2
100
AcDbSymbolTableRecord
100
AcDbLayerTableRecord
  2
35
 70
     0
 62
     7
  6
Continuous
370
    -3
390
1D
  0
LAYER
  5
4E
102
{ACAD_XDICTIONARY
360
4FC
102
}
330
2
100
AcDbSymbolTableRecord
100
AcDbLayerTableRecord
  2
36
 70
     0
 62
    94
  6
Continuous
370
    -3
390
1D
  0
LAYER
  5
4F
102
{ACAD_XDICTIONARY
360
4FE
102
}
330
2
100
AcDbSymbolTableRecord
100
AcDbLayerTableRecord
  2
37
 70
     0
 62
    14
  6
Continuous
370
    -3
390
1D
  0
LAYER
  5
50
102
{ACAD_XDICTIONARY
360
500
102
}
330
2
100
AcDbSymbolTableRecord
100
AcDbLayerTableRecord
  2
38
 70
     0
 62
   134
  6
Continuous
370
    -3
390
1D
  0
LAYER
  5
51
102
{ACAD_XDICTIONARY
360
502
102
}
330
2
100
AcDbSymbolTableRecord
100
AcDbLayerTableRecord
  2
39
 70
     0
 62
    54
  6
Continuous
370
    -3
390
1D
  0
LAYER
  5
52
102
{ACAD_XDICTIONARY
360
504
102
}
330
2
100
AcDbSymbolTableRecord
100
AcDbLayerTableRecord
  2
40
 70
     0
 62
   214
  6
Continuous
370
    -3
390
1D
  0
LAYER
  5
53
102
{ACAD_XDICTIONARY
360
506
102
}
330
2
100
AcDbSymbolTableRecord
100
AcDbLayerTableRecord
  2
41
 70
     0
 62
     7
  6
Continuous
370
    -3
390
1D
  0
LAYER
  5
54
102
{ACAD_XDICTIONARY
360
508
102
}
330
2
100
AcDbSymbolTableRecord
100
AcDbLayerTableRecord
  2
42
 70
     0
 62
     5
  6
Continuous
370
    -3
390
1D
  0
LAYER
  5
55
102
{ACAD_XDICTIONARY
360
50A
102
}
330
2
100
AcDbSymbolTableRecord
100
AcDbLayerTableRecord
  2
43
 70
     0
 62
     3
  6
Continuous
370
    -3
390
1D
  0
LAYER
  5
56
102
{ACAD_XDICTIONARY
360
50C
102
}
330
2
100
AcDbSymbolTableRecord
100
AcDbLayerTableRecord
  2
44
 70
     0
 62
     1
  6
Continuous
370
    -3
390
1D
  0
LAYER
  5
57
102
{ACAD_XDICTIONARY
360
50E
102
}
330
2
100
AcDbSymbolTableRecord
100
AcDbLayerTableRecord
  2
45
 70
     0
 62
     3
  6
Continuous
370
    -3
390
1D
  0
LAYER
  5
58
102
{ACAD_XDICTIONARY
360
510
102
}
330
2
100
AcDbSymbolTableRecord
100
AcDbLayerTableRecord
  2
46
 70
     0
 62
     6
  6
Continuous
370
    -3
390
1D
  0
LAYER
  5
59
102
{ACAD_XDICTIONARY
360
512
102
}
330
2
100
AcDbSymbolTableRecord
100
AcDbLayerTableRecord
  2
47
 70
     0
 62
     2
  6
Continuous
370
    -3
390
1D
  0
LAYER
  5
5A
102
{ACAD_XDICTIONARY
360
514
102
}
330
2
100
AcDbSymbolTableRecord
100
AcDbLayerTableRecord
  2
48
 70
     0
 62
     7
  6
Continuous
370
    -3
390
1D
  0
LAYER
  5
5B
102
{ACAD_XDICTIONARY
360
516
102
}
330
2
100
AcDbSymbolTableRecord
100
AcDbLayerTableRecord
  2
49
 70
     0
 62
     7
  6
Continuous
370
    -3
390
1D
  0
LAYER
  5
5C
102
{ACAD_XDICTIONARY
360
518
102
}
330
2
100
AcDbSymbolTableRecord
100
AcDbLayerTableRecord
  2
50
 70
     0
 62
   253
  6
Continuous
370
    -3
390
1D
  0
LAYER
  5
5D
102
{ACAD_XDICTIONARY
360
51A
102
}
330
2
100
AcDbSymbolTableRecord
100
AcDbLayerTableRecord
  2
51
 70
     0
 62
   174
  6
Continuous
370
    -3
390
1D
  0
LAYER
  5
5E
102
{ACAD_XDICTIONARY
360
51C
102
}
330
2
100
AcDbSymbolTableRecord
100
AcDbLayerTableRecord
  2
52
 70
     0
 62
    94
  6
Continuous
370
    -3
390
1D
  0
LAYER
  5
5F
102
{ACAD_XDICTIONARY
360
51E
102
}
330
2
100
AcDbSymbolTableRecord
100
AcDbLayerTableRecord
  2
53
 70
     0
 62
    14
  6
Continuous
370
    -3
390
1D
  0
LAYER
  5
60
102
{ACAD_XDICTIONARY
360
520
102
}
330
2
100
AcDbSymbolTableRecord
100
AcDbLayerTableRecord
  2
54
 70
     0
 62
     3
  6
Continuous
370
    -3
390
1D
  0
LAYER
  5
61
102
{ACAD_XDICTIONARY
360
522
102
}
330
2
100
AcDbSymbolTableRecord
100
AcDbLayerTableRecord
  2
55
 70
     0
 62
    54
  6
Continuous
370
    -3
390
1D
  0
LAYER
  5
62
102
{ACAD_XDICTIONARY
360
524
102
}
330
2
100
AcDbSymbolTableRecord
100
AcDbLayerTableRecord
  2
56
 70
     0
 62
   214
  6
Continuous
370
    -3
390
1D
  0
LAYER
  5
63
102
{ACAD_XDICTIONARY
360
526
102
}
330
2
100
AcDbSymbolTableRecord
100
AcDbLayerTableRecord
  2
57
 70
     0
 62
     3
  6
Continuous
370
    -3
390
1D
  0
LAYER
  5
64
102
{ACAD_XDICTIONARY
360
528
102
}
330
2
100
AcDbSymbolTableRecord
100
AcDbLayerTableRecord
  2
58
 70
     0
 62
     5
  6
Continuous
370
    -3
390
1D
  0
LAYER
  5
65
102
{ACAD_XDICTIONARY
360
52A
102
}
330
2
100
AcDbSymbolTableRecord
100
AcDbLayerTableRecord
  2
59
 70
     0
 62
     3
  6
Continuous
370
    -3
390
1D
  0
LAYER
  5
66
102
{ACAD_XDICTIONARY
360
52C
102
}
330
2
100
AcDbSymbolTableRecord
100
AcDbLayerTableRecord
  2
60
 70
     0
 62
     1
  6
Continuous
370
    -3
390
1D
  0
LAYER
  5
67
102
{ACAD_XDICTIONARY
360
52E
102
}
330
2
100
AcDbSymbolTableRecord
100
AcDbLayerTableRecord
  2
61
 70
     0
 62
     4
  6
Continuous
370
    -3
390
1D
  0
LAYER
  5
68
102
{ACAD_XDICTIONARY
360
530
102
}
330
2
100
AcDbSymbolTableRecord
100
AcDbLayerTableRecord
  2
62
 70
     0
 62
     6
  6
Continuous
370
    -3
390
1D
  0
LAYER
  5
69
102
{ACAD_XDICTIONARY
360
532
102
}
330
2
100
AcDbSymbolTableRecord
100
AcDbLayerTableRecord
  2
63
 70
     0
 62
     2
  6
Continuous
370
    -3
390
1D
  0
LAYER
  5
6A
102
{ACAD_XDICTIONARY
360
534
102
}
330
2
100
AcDbSymbolTableRecord
100
AcDbLayerTableRecord
  2
64
 70
     0
 62
     7
  6
Continuous
370
    -3
390
1D
  0
LAYER
  5
6B
102
{ACAD_XDICTIONARY
360
536
102
}
330
2
100
AcDbSymbolTableRecord
100
AcDbLayerTableRecord
  2
103
 70
     0
 62
     3
  6
Continuous
370
    -3
390
1D
  0
LAYER
  5
6C
102
{ACAD_XDICTIONARY
360
538
102
}
330
2
100
AcDbSymbolTableRecord
100
AcDbLayerTableRecord
  2
128
 70
     0
 62
     7
  6
Continuous
370
    -3
390
1D
  0
LAYER
  5
6D
102
{ACAD_XDICTIONARY
360
53A
102
}
330
2
100
AcDbSymbolTableRecord
100
AcDbLayerTableRecord
  2
129
 70
     0
 62
     7
  6
Continuous
370
    -3
390
1D
  0
LAYER
  5
6E
102
{ACAD_XDICTIONARY
360
53C
102
}
330
2
100
AcDbSymbolTableRecord
100
AcDbLayerTableRecord
  2
145
 70
     0
 62
     3
  6
Continuous
370
    -3
390
1D
  0
LAYER
  5
6F
102
{ACAD_XDICTIONARY
360
53E
102
}
330
2
100
AcDbSymbolTableRecord
100
AcDbLayerTableRecord
  2
242
 70
     0
 62
     3
  6
Continuous
370
    -3
390
1D
  0
LAYER
  5
70
102
{ACAD_XDICTIONARY
360
540
102
}
330
2
100
AcDbSymbolTableRecord
100
AcDbLayerTableRecord
  2
244
 70
     0
 62
     3
  6
Continuous
370
    -3
390
1D
  0
LAYER
  5
71
102
{ACAD_XDICTIONARY
360
542
102
}
330
2
100
AcDbSymbolTableRecord
100
AcDbLayerTableRecord
  2
245
 70
     0
 62
     3
  6
Continuous
370
    -3
390
1D
  0
LAYER
  5
72
102
{ACAD_XDICTIONARY
360
544
102
}
330
2
100
AcDbSymbolTableRecord
100
AcDbLayerTableRecord
  2
255
 70
     0
 62
     3
  6
Continuous
370
    -3
390
1D
  0
LAYER
  5
73
102
{ACAD_XDICTIONARY
360
546
102
}
330
2
100
AcDbSymbolTableRecord
100
AcDbLayerTableRecord
  2
256
 70
     0
 62
     3
  6
Continuous
370
    -3
390
1D
  0
ENDTAB
  0
TABLE
  2
STYLE
  5
3
330
0
100
AcDbSymbolTable
 70
     2
  0
STYLE
  5
17
330
3
100
AcDbSymbolTableRecord
100
AcDbTextStyleTableRecord
  2
Standard
 70
     0
 40
0.0
 41
1.0
 50
0.0
 71
     0
 42
0.0
  3
txt
  4
bigfont
  0
STYLE
  5
24
330
3
100
AcDbSymbolTableRecord
100
AcDbTextStyleTableRecord
  2
T_STANDARD
 70
     4
 40
10.0
 41
1.0
 50
0.0
 71
     0
 42
10.0
  3
txt
  4
bigfont
  0
ENDTAB
  0
TABLE
  2
VIEW
  5
5
330
0
100
AcDbSymbolTable
 70
     1
  0
ENDTAB
  0
TABLE
  2
UCS
  5
6
330
0
100
AcDbSymbolTable
 70
     0
  0
ENDTAB
  0
TABLE
  2
APPID
  5
8
330
0
100
AcDbSymbolTable
 70
     3
  0
APPID
  5
16
330
8
100
AcDbSymbolTableRecord
100
AcDbRegAppTableRecord
  2
ACAD
 70
     0
  0
APPID
  5
551
330
8
100
AcDbSymbolTableRecord
100
AcDbRegAppTableRecord
  2
ACAD_NAV_VCDISPLAY
 70
     0
  0
APPID
  5
5AF
330
8
100
AcDbSymbolTableRecord
100
AcDbRegAppTableRecord
  2
ACAD_MLEADERVER
 70
     0
  0
ENDTAB
  0
TABLE
  2
DIMSTYLE
  5
9
330
0
100
AcDbSymbolTable
 70
     1
100
AcDbDimStyleTable
 71
     0
  0
DIMSTYLE
105
18
330
9
100
AcDbSymbolTableRecord
100
AcDbDimStyleTableRecord
  2
Standard
 70
     0
289
     0
340
17
  0
ENDTAB
  0
TABLE
  2
BLOCK_RECORD
  5
1
330
0
100
AcDbSymbolTable
 70
    12
  0
BLOCK_RECORD
  5
A
330
1
100
AcDbSymbolTableRecord
100
AcDbBlockTableRecord
  2
*MODEL_SPACE
340
20
  0
BLOCK_RECORD
  5
B
330
1
100
AcDbSymbolTableRecord
100
AcDbBlockTableRecord
  2
*PAPER_SPACE
340
21
  0
BLOCK_RECORD
  5
74
330
1
100
AcDbSymbolTableRecord
100
AcDbBlockTableRecord
  2
*G0
340
0
102
{BLKREFS
331
77
102
}
  0
BLOCK_RECORD
  5
A2
330
1
100
AcDbSymbolTableRecord
100
AcDbBlockTableRecord
  2
*G1
340
0
102
{BLKREFS
331
A6
102
}
  0
BLOCK_RECORD
  5
130
330
1
100
AcDbSymbolTableRecord
100
AcDbBlockTableRecord
  2
*D2
340
0
  0
BLOCK_RECORD
  5
13C
330
1
100
AcDbSymbolTableRecord
100
AcDbBlockTableRecord
  2
*D3
340
0
  0
BLOCK_RECORD
  5
19C
330
1
100
AcDbSymbolTableRecord
100
AcDbBlockTableRecord
  2
*D4
340
0
  0
BLOCK_RECORD
  5
1A8
330
1
100
AcDbSymbolTableRecord
100
AcDbBlockTableRecord
  2
*D5
340
0
  0
BLOCK_RECORD
  5
1BC
330
1
100
AcDbSymbolTableRecord
100
AcDbBlockTableRecord
  2
*G6
340
0
102
{BLKREFS
331
1C3
102
}
  0
BLOCK_RECORD
  5
1C4
330
1
100
AcDbSymbolTableRecord
100
AcDbBlockTableRecord
  2
*G7
340
0
102
{BLKREFS
331
1D8
102
}
  0
BLOCK_RECORD
  5
1FA
330
1
100
AcDbSymbolTableRecord
100
AcDbBlockTableRecord
  2
*D8
340
0
  0
BLOCK_RECORD
  5
206
330
1
100
AcDbSymbolTableRecord
100
AcDbBlockTableRecord
  2
*D9
340
0
  0
BLOCK_RECORD
  5
212
330
1
100
AcDbSymbolTableRecord
100
AcDbBlockTableRecord
  2
*D10
340
0
  0
BLOCK_RECORD
  5
22F
330
1
100
AcDbSymbolTableRecord
100
AcDbBlockTableRecord
  2
*D11
340
0
  0
ENDTAB
  0
ENDSEC
  0
SECTION
  2
BLOCKS
  0
BLOCK
  5
D
330
A
100
AcDbEntity
  8
0
100
AcDbBlockBegin
  2
*MODEL_SPACE
 70
     0
 10
0.0
 20
0.0
 30
0.0
  3
*MODEL_SPACE
  1

  0
ENDBLK
  5
E
330
A
100
AcDbEntity
  8
0
100
AcDbBlockEnd
  0
BLOCK
  5
F
330
B
100
AcDbEntity
 67
     1
  8
0
100
AcDbBlockBegin
  2
*PAPER_SPACE
 70
     0
 10
0.0
 20
0.0
 30
0.0
  3
*PAPER_SPACE
  1

  0
ENDBLK
  5
10
330
B
100
AcDbEntity
 67
     1
  8
0
100
AcDbBlockEnd
  0
BLOCK
  5
75
330
74
100
AcDbEntity
  8
0
 62
     7
370
     9
100
AcDbBlockBegin
  2
*G0
 70
     0
 10
0.0
 20
0.0
 30
0.0
  3
*G0
  1

  0
ENDBLK
  5
76
330
74
100
AcDbEntity
  8
0
100
AcDbBlockEnd
  0
BLOCK
  5
A3
330
A2
100
AcDbEntity
  8
0
 62
    96
370
     9
100
AcDbBlockBegin
  2
*G1
 70
     0
 10
0.0
 20
0.0
 30
0.0
  3
*G1
  1

  0
LINE
  5
A4
330
A2
100
AcDbEntity
  8
15
  6
Continuous
 62
    96
370
     9
100
AcDbLine
 10
319.2527140981864
 20
19.24249821102744
 30
0.0
 11
319.5192908341634
 21
19.24249821102744
 31
0.0
  0
ENDBLK
  5
A5
330
A2
100
AcDbEntity
  8
0
100
AcDbBlockEnd
  0
BLOCK
  5
131
330
130
100
AcDbEntity
  8
2
  6
Continuous
 62
     7
370
     9
100
AcDbBlockBegin
  2
*D2
 70
     0
 10
0.0
 20
0.0
 30
0.0
  3
*D2
  1

  0
LINE
  5
132
330
130
100
AcDbEntity
  8
2
  6
Continuous
 62
     7
370
     9
100
AcDbLine
 10
25.75336234491604
 20
230.6435805093306
 30
0.0
 11
100.7533743130011
 21
230.6435805093306
 31
0.0
  0
LINE
  5
133
330
130
100
AcDbEntity
  8
2
  6
Continuous
 62
     7
370
     9
100
AcDbLine
 10
25.75336234491604
 20
232.6435805093306
 30
0.0
 11
25.75336234491602
 21
216.7293866344585
 31
0.0
  0
LINE
  5
134
330
130
100
AcDbEntity
  8
2
  6
Continuous
 62
     7
370
     9
100
AcDbLine
 10
100.7533743130011
 20
232.6435805093306
 30
0.0
 11
100.7533743130011
 21
217.1400019742076
 31
0.0
  0
LINE
  5
135
330
130
100
AcDbEntity
  8
2
  6
Continuous
 62
     7
370
     9
100
AcDbLine
 10
25.75336234491604
 20
230.6435805093306
 30
0.0
 11
28.0715843280098
 21
231.2647462175767
 31
0.0
  0
LINE
  5
136
330
130
100
AcDbEntity
  8
2
  6
Continuous
 62
     7
370
     9
100
AcDbLine
 10
25.75336234491604
 20
230.6435805093306
 30
0.0
 11
28.0715843280098
 21
230.0224148010845
 31
0.0
  0
LINE
  5
137
330
130
100
AcDbEntity
  8
2
  6
Continuous
 62
     7
370
     9
100
AcDbLine
 10
100.7533743130011
 20
230.6435805093306
 30
0.0
 11
98.43515232990739
 21
230.0224148010845
 31
0.0
  0
LINE
  5
138
330
130
100
AcDbEntity
  8
2
  6
Continuous
 62
     7
370
     9
100
AcDbLine
 10
100.7533743130011
 20
230.6435805093306
 30
0.0
 11
98.43515232990739
 21
231.2647462175767
 31
0.0
  0
TEXT
  5
139
330
130
100
AcDbEntity
  8
2
  6
Continuous
 62
     7
370
     9
100
AcDbText
 10
61.6533683289586
 20
231.5435805093306
 30
0.0
 40
3.0
  1
75
 41
0.5666666666666666
 11
61.6533683289586
 21
231.1435805093306
 31
0.0
100
AcDbText
 73
     1
  0
ENDBLK
  5
13A
330
130
100
AcDbEntity
  8
2
  6
Continuous
 62
     7
370
     9
100
AcDbBlockEnd
  0
BLOCK
  5
13D
330
13C
100
AcDbEntity
  8
2
  6
Continuous
 62
     7
370
     9
100
AcDbBlockBegin
  2
*D3
 70
     0
 10
0.0
 20
0.0
 30
0.0
  3
*D3
  1

  0
LINE
  5
13E
330
13C
100
AcDbEntity
  8
2
  6
Continuous
 62
     7
370
     9
100
AcDbLine
 10
110.753374313001
 20
220.6435805093306
 30
0.0
 11
110.7533743130012
 21
88.64557519018168
 31
0.0
  0
LINE
  5
13F
330
13C
100
AcDbEntity
  8
2
  6
Continuous
 62
     7
370
     9
100
AcDbLine
 10
112.753374313001
 20
220.6435805093306
 30
0.0
 11
97.76667218534155
 21
220.6435805093306
 31
0.0
  0
LINE
  5
140
330
13C
100
AcDbEntity
  8
2
  6
Continuous
 62
     7
370
     9
100
AcDbLine
 10
112.7533743130012
 20
88.64557519018168
 30
0.0
 11
82.4220286571718
 21
88.64557519018168
 31
0.0
  0
LINE
  5
141
330
13C
100
AcDbEntity
  8
2
  6
Continuous
 62
     7
370
     9
100
AcDbLine
 10
110.753374313001
 20
220.6435805093306
 30
0.0
 11
111.3745400212471
 21
218.3253585262368
 31
0.0
  0
LINE
  5
142
330
13C
100
AcDbEntity
  8
2
  6
Continuous
 62
     7
370
     9
100
AcDbLine
 10
110.753374313001
 20
220.6435805093306
 30
0.0
 11
110.132208604755
 21
218.3253585262368
 31
0.0
  0
LINE
  5
143
330
13C
100
AcDbEntity
  8
2
  6
Continuous
 62
     7
370
     9
100
AcDbLine
 10
110.7533743130012
 20
88.64557519018168
 30
0.0
 11
110.1322086047552
 21
90.96379717327545
 31
0.0
  0
LINE
  5
144
330
13C
100
AcDbEntity
  8
2
  6
Continuous
 62
     7
370
     9
100
AcDbLine
 10
110.7533743130012
 20
88.64557519018168
 30
0.0
 11
111.3745400212473
 21
90.96379717327545
 31
0.0
  0
TEXT
  5
145
330
13C
100
AcDbEntity
  8
2
  6
Continuous
 62
     7
370
     9
100
AcDbText
 10
109.8533743130011
 20
152.1945778497562
 30
0.0
 40
3.0
  1
132
 50
89.99999999999991
 41
0.5666666666666666
 11
110.2533743130011
 21
152.1945778497562
 31
0.0
100
AcDbText
 73
     1
  0
ENDBLK
  5
146
330
13C
100
AcDbEntity
  8
2
  6
Continuous
 62
     7
370
     9
100
AcDbBlockEnd
  0
BLOCK
  5
19D
330
19C
100
AcDbEntity
  8
2
  6
Continuous
 62
     7
370
     9
100
AcDbBlockBegin
  2
*D4
 70
     0
 10
0.0
 20
0.0
 30
0.0
  3
*D4
  1

  0
LINE
  5
19E
330
19C
100
AcDbEntity
  8
2
  6
Continuous
 62
     7
370
     9
100
AcDbLine
 10
152.6369452020496
 20
230.6435805093306
 30
0.0
 11
127.889673584117
 21
230.6435805093306
 31
0.0
  0
LINE
  5
19F
330
19C
100
AcDbEntity
  8
2
  6
Continuous
 62
     7
370
     9
100
AcDbLine
 10
152.6369452020496
 20
232.6435805093306
 30
0.0
 11
152.6369452020495
 21
222.6435805093306
 31
0.0
  0
LINE
  5
1A0
330
19C
100
AcDbEntity
  8
2
  6
Continuous
 62
     7
370
     9
100
AcDbLine
 10
127.889673584117
 20
232.6435805093306
 30
0.0
 11
127.889673584117
 21
202.584221687282
 31
0.0
  0
LINE
  5
1A1
330
19C
100
AcDbEntity
  8
2
  6
Continuous
 62
     7
370
     9
100
AcDbLine
 10
152.6369452020496
 20
230.6435805093306
 30
0.0
 11
150.3187232189558
 21
230.0224148010845
 31
0.0
  0
LINE
  5
1A2
330
19C
100
AcDbEntity
  8
2
  6
Continuous
 62
     7
370
     9
100
AcDbLine
 10
152.6369452020496
 20
230.6435805093306
 30
0.0
 11
150.3187232189558
 21
231.2647462175767
 31
0.0
  0
LINE
  5
1A3
330
19C
100
AcDbEntity
  8
2
  6
Continuous
 62
     7
370
     9
100
AcDbLine
 10
127.889673584117
 20
230.6435805093306
 30
0.0
 11
130.2078955672108
 21
231.2647462175767
 31
0.0
  0
LINE
  5
1A4
330
19C
100
AcDbEntity
  8
2
  6
Continuous
 62
     7
370
     9
100
AcDbLine
 10
127.889673584117
 20
230.6435805093306
 30
0.0
 11
130.2078955672108
 21
230.0224148010845
 31
0.0
  0
TEXT
  5
1A5
330
19C
100
AcDbEntity
  8
2
  6
Continuous
 62
     7
370
     9
100
AcDbText
 10
136.9633093930833
 20
231.5435805093306
 30
0.0
 40
3.0
  1
24.5
 41
0.5666666666666666
 11
136.9633093930833
 21
231.1435805093306
 31
0.0
100
AcDbText
 73
     1
  0
ENDBLK
  5
1A6
330
19C
100
AcDbEntity
  8
2
  6
Continuous
 62
     7
370
     9
100
AcDbBlockEnd
  0
BLOCK
  5
1A9
330
1A8
100
AcDbEntity
  8
2
  6
Continuous
 62
     7
370
     9
100
AcDbBlockBegin
  2
*D5
 70
     0
 10
0.0
 20
0.0
 30
0.0
  3
*D5
  1

  0
LINE
  5
1AA
330
1A8
100
AcDbEntity
  8
2
  6
Continuous
 62
     7
370
     9
100
AcDbLine
 10
153.1369452020496
 20
240.6435805093306
 30
0.0
 11
127.8805612020496
 21
240.6435805093306
 31
0.0
  0
LINE
  5
1AB
330
1A8
100
AcDbEntity
  8
2
  6
Continuous
 62
     7
370
     9
100
AcDbLine
 10
153.1369452020496
 20
242.6435805093306
 30
0.0
 11
153.1369452020495
 21
220.0435725093306
 31
0.0
  0
LINE
  5
1AC
330
1A8
100
AcDbEntity
  8
2
  6
Continuous
 62
     7
370
     9
100
AcDbLine
 10
127.8805612020496
 20
242.6435805093306
 30
0.0
 11
127.8805612020495
 21
203.0210685093307
 31
0.0
  0
LINE
  5
1AD
330
1A8
100
AcDbEntity
  8
2
  6
Continuous
 62
     7
370
     9
100
AcDbLine
 10
153.1369452020496
 20
240.6435805093306
 30
0.0
 11
150.8187232189558
 21
240.0224148010845
 31
0.0
  0
LINE
  5
1AE
330
1A8
100
AcDbEntity
  8
2
  6
Continuous
 62
     7
370
     9
100
AcDbLine
 10
153.1369452020496
 20
240.6435805093306
 30
0.0
 11
150.8187232189558
 21
241.2647462175766
 31
0.0
  0
LINE
  5
1AF
330
1A8
100
AcDbEntity
  8
2
  6
Continuous
 62
     7
370
     9
100
AcDbLine
 10
127.8805612020496
 20
240.6435805093306
 30
0.0
 11
130.1987831851434
 21
241.2647462175766
 31
0.0
  0
LINE
  5
1B0
330
1A8
100
AcDbEntity
  8
2
  6
Continuous
 62
     7
370
     9
100
AcDbLine
 10
127.8805612020496
 20
240.6435805093306
 30
0.0
 11
130.1987831851434
 21
240.0224148010845
 31
0.0
  0
TEXT
  5
1B1
330
1A8
100
AcDbEntity
  8
2
  6
Continuous
 62
     7
370
     9
100
AcDbText
 10
138.9087532020496
 20
241.5435805093306
 30
0.0
 40
3.0
  1
25
 41
0.5666666666666666
 11
138.9087532020496
 21
241.1435805093306
 31
0.0
100
AcDbText
 73
     1
  0
ENDBLK
  5
1B2
330
1A8
100
AcDbEntity
  8
2
  6
Continuous
 62
     7
370
     9
100
AcDbBlockEnd
  0
BLOCK
  5
1BD
330
1BC
100
AcDbEntity
  8
0
 62
     7
370
     9
100
AcDbBlockBegin
  2
*G6
 70
     0
 10
0.0
 20
0.0
 30
0.0
  3
*G6
  1

  0
LINE
  5
1BE
330
1BC
100
AcDbEntity
  8
1
  6
Continuous
 62
     7
370
     9
100
AcDbLine
 10
207.8373111696035
 20
192.1322758335775
 30
0.0
 11
207.8373111696035
 21
117.1322758335775
 31
0.0
  0
LINE
  5
1BF
330
1BC
100
AcDbEntity
  8
1
  6
Continuous
 62
     7
370
     9
100
AcDbLine
 10
207.8373111696035
 20
117.1322758335775
 30
0.0
 11
257.8373111696034
 21
117.1322758335775
 31
0.0
  0
LINE
  5
1C0
330
1BC
100
AcDbEntity
  8
1
  6
Continuous
 62
     7
370
     9
100
AcDbLine
 10
257.8373111696034
 20
117.1322758335775
 30
0.0
 11
257.8373111696034
 21
192.1322758335775
 31
0.0
  0
LINE
  5
1C1
330
1BC
100
AcDbEntity
  8
1
  6
Continuous
 62
     7
370
     9
100
AcDbLine
 10
257.8373111696034
 20
192.1322758335775
 30
0.0
 11
207.8373111696035
 21
192.1322758335775
 31
0.0
  0
ENDBLK
  5
1C2
330
1BC
100
AcDbEntity
  8
0
100
AcDbBlockEnd
  0
BLOCK
  5
1C5
330
1C4
100
AcDbEntity
  8
0
 62
     7
370
     9
100
AcDbBlockBegin
  2
*G7
 70
     0
 10
0.0
 20
0.0
 30
0.0
  3
*G7
  1

  0
LINE
  5
1C6
330
1C4
100
AcDbEntity
  8
1
  6
Continuous
 62
     7
370
     9
100
AcDbLine
 10
251.9058536645272
 20
117.1322758335775
 30
0.0
 11
257.8373111696034
 21
123.0637333386537
 31
0.0
  0
LINE
  5
1C7
330
1C4
100
AcDbEntity
  8
1
  6
Continuous
 62
     7
370
     9
100
AcDbLine
 10
244.8347858526618
 20
117.1322758335775
 30
0.0
 11
257.8373111696034
 21
130.1348011505192
 31
0.0
  0
LINE
  5
1C8
330
1C4
100
AcDbEntity
  8
1
  6
Continuous
 62
     7
370
     9
100
AcDbLine
 10
237.7637180407962
 20
117.1322758335775
 30
0.0
 11
257.8373111696034
 21
137.2058689623847
 31
0.0
  0
LINE
  5
1C9
330
1C4
100
AcDbEntity
  8
1
  6
Continuous
 62
     7
370
     9
100
AcDbLine
 10
230.6926502289307
 20
117.1322758335775
 30
0.0
 11
257.8373111696034
 21
144.2769367742501
 31
0.0
  0
LINE
  5
1CA
330
1C4
100
AcDbEntity
  8
1
  6
Continuous
 62
     7
370
     9
100
AcDbLine
 10
223.6215824170653
 20
117.1322758335775
 30
0.0
 11
257.8373111696034
 21
151.3480045861157
 31
0.0
  0
LINE
  5
1CB
330
1C4
100
AcDbEntity
  8
1
  6
Continuous
 62
     7
370
     9
100
AcDbLine
 10
216.5505146051998
 20
117.1322758335775
 30
0.0
 11
257.8373111696034
 21
158.4190723979811
 31
0.0
  0
LINE
  5
1CC
330
1C4
100
AcDbEntity
  8
1
  6
Continuous
 62
     7
370
     9
100
AcDbLine
 10
209.4794467933343
 20
117.1322758335775
 30
0.0
 11
257.8373111696034
 21
165.4901402098466
 31
0.0
  0
LINE
  5
1CD
330
1C4
100
AcDbEntity
  8
1
  6
Continuous
 62
     7
370
     9
100
AcDbLine
 10
207.8373111696035
 20
122.5612080217122
 30
0.0
 11
257.8373111696034
 21
172.5612080217122
 31
0.0
  0
LINE
  5
1CE
330
1C4
100
AcDbEntity
  8
1
  6
Continuous
 62
     7
370
     9
100
AcDbLine
 10
207.8373111696035
 20
129.6322758335777
 30
0.0
 11
257.8373111696034
 21
179.6322758335776
 31
0.0
  0
LINE
  5
1CF
330
1C4
100
AcDbEntity
  8
1
  6
Continuous
 62
     7
370
     9
100
AcDbLine
 10
207.8373111696035
 20
136.7033436454431
 30
0.0
 11
257.8373111696034
 21
186.7033436454431
 31
0.0
  0
LINE
  5
1D0
330
1C4
100
AcDbEntity
  8
1
  6
Continuous
 62
     7
370
     9
100
AcDbLine
 10
207.8373111696035
 20
143.7744114573086
 30
0.0
 11
256.1951755458723
 21
192.1322758335775
 31
0.0
  0
LINE
  5
1D1
330
1C4
100
AcDbEntity
  8
1
  6
Continuous
 62
     7
370
     9
100
AcDbLine
 10
207.8373111696035
 20
150.8454792691741
 30
0.0
 11
249.1241077340069
 21
192.1322758335775
 31
0.0
  0
LINE
  5
1D2
330
1C4
100
AcDbEntity
  8
1
  6
Continuous
 62
     7
370
     9
100
AcDbLine
 10
207.8373111696035
 20
157.9165470810396
 30
0.0
 11
242.0530399221414
 21
192.1322758335775
 31
0.0
  0
LINE
  5
1D3
330
1C4
100
AcDbEntity
  8
1
  6
Continuous
 62
     7
370
     9
100
AcDbLine
 10
207.8373111696035
 20
164.9876148929051
 30
0.0
 11
234.9819721102759
 21
192.1322758335775
 31
0.0
  0
LINE
  5
1D4
330
1C4
100
AcDbEntity
  8
1
  6
Continuous
 62
     7
370
     9
100
AcDbLine
 10
207.8373111696035
 20
172.0586827047706
 30
0.0
 11
227.9109042984104
 21
192.1322758335775
 31
0.0
  0
LINE
  5
1D5
330
1C4
100
AcDbEntity
  8
1
  6
Continuous
 62
     7
370
     9
100
AcDbLine
 10
207.8373111696035
 20
179.1297505166361
 30
0.0
 11
220.8398364865449
 21
192.1322758335775
 31
0.0
  0
LINE
  5
1D6
330
1C4
100
AcDbEntity
  8
1
  6
Continuous
 62
     7
370
     9
100
AcDbLine
 10
207.8373111696035
 20
186.2008183285015
 30
0.0
 11
213.7687686746794
 21
192.1322758335775
 31
0.0
  0
ENDBLK
  5
1D7
330
1C4
100
AcDbEntity
  8
0
100
AcDbBlockEnd
  0
BLOCK
  5
1FB
330
1FA
100
AcDbEntity
  8
1
  6
Continuous
 62
     7
370
     9
100
AcDbBlockBegin
  2
*D8
 70
     0
 10
0.0
 20
0.0
 30
0.0
  3
*D8
  1

  0
LINE
  5
1FC
330
1FA
100
AcDbEntity
  8
1
  6
Continuous
 62
     7
370
     9
100
AcDbLine
 10
207.8373111696036
 20
230.6435805093306
 30
0.0
 11
257.8373111696034
 21
230.6435805093306
 31
0.0
  0
LINE
  5
1FD
330
1FA
100
AcDbEntity
  8
1
  6
Continuous
 62
     7
370
     9
100
AcDbLine
 10
207.8373111696036
 20
232.6435805093306
 30
0.0
 11
207.8373111696035
 21
194.1322758335775
 31
0.0
  0
LINE
  5
1FE
330
1FA
100
AcDbEntity
  8
1
  6
Continuous
 62
     7
370
     9
100
AcDbLine
 10
257.8373111696034
 20
232.6435805093306
 30
0.0
 11
257.8373111696034
 21
194.1322758335775
 31
0.0
  0
LINE
  5
1FF
330
1FA
100
AcDbEntity
  8
1
  6
Continuous
 62
     7
370
     9
100
AcDbLine
 10
207.8373111696036
 20
230.6435805093306
 30
0.0
 11
210.1555331526973
 21
231.2647462175767
 31
0.0
  0
LINE
  5
200
330
1FA
100
AcDbEntity
  8
1
  6
Continuous
 62
     7
370
     9
100
AcDbLine
 10
207.8373111696036
 20
230.6435805093306
 30
0.0
 11
210.1555331526973
 21
230.0224148010845
 31
0.0
  0
LINE
  5
201
330
1FA
100
AcDbEntity
  8
1
  6
Continuous
 62
     7
370
     9
100
AcDbLine
 10
257.8373111696034
 20
230.6435805093306
 30
0.0
 11
255.5190891865096
 21
230.0224148010845
 31
0.0
  0
LINE
  5
202
330
1FA
100
AcDbEntity
  8
1
  6
Continuous
 62
     7
370
     9
100
AcDbLine
 10
257.8373111696034
 20
230.6435805093306
 30
0.0
 11
255.5190891865096
 21
231.2647462175767
 31
0.0
  0
TEXT
  5
203
330
1FA
100
AcDbEntity
  8
1
  6
Continuous
 62
     7
370
     9
100
AcDbText
 10
230.7373111696035
 20
231.5435805093306
 30
0.0
 40
3.0
  1
50
 41
0.7333333333333334
 11
230.7373111696035
 21
231.1435805093306
 31
0.0
100
AcDbText
 73
     1
  0
ENDBLK
  5
204
330
1FA
100
AcDbEntity
  8
1
  6
Continuous
 62
     7
370
     9
100
AcDbBlockEnd
  0
BLOCK
  5
207
330
206
100
AcDbEntity
  8
1
  6
Continuous
 62
     7
370
     9
100
AcDbBlockBegin
  2
*D9
 70
     0
 10
0.0
 20
0.0
 30
0.0
  3
*D9
  1

  0
LINE
  5
208
330
206
100
AcDbEntity
  8
1
  6
Continuous
 62
     7
370
     9
100
AcDbLine
 10
280.466120258194
 20
192.1322758335775
 30
0.0
 11
280.466120258194
 21
117.1322758335775
 31
0.0
  0
LINE
  5
209
330
206
100
AcDbEntity
  8
1
  6
Continuous
 62
     7
370
     9
100
AcDbLine
 10
282.466120258194
 20
192.1322758335775
 30
0.0
 11
259.8373111696034
 21
192.1322758335775
 31
0.0
  0
LINE
  5
20A
330
206
100
AcDbEntity
  8
1
  6
Continuous
 62
     7
370
     9
100
AcDbLine
 10
282.466120258194
 20
117.1322758335775
 30
0.0
 11
259.8373111696034
 21
117.1322758335775
 31
0.0
  0
LINE
  5
20B
330
206
100
AcDbEntity
  8
1
  6
Continuous
 62
     7
370
     9
100
AcDbLine
 10
280.466120258194
 20
192.1322758335775
 30
0.0
 11
281.08728596644
 21
189.8140538504837
 31
0.0
  0
LINE
  5
20C
330
206
100
AcDbEntity
  8
1
  6
Continuous
 62
     7
370
     9
100
AcDbLine
 10
280.466120258194
 20
192.1322758335775
 30
0.0
 11
279.8449545499479
 21
189.8140538504837
 31
0.0
  0
LINE
  5
20D
330
206
100
AcDbEntity
  8
1
  6
Continuous
 62
     7
370
     9
100
AcDbLine
 10
280.466120258194
 20
117.1322758335775
 30
0.0
 11
279.8449545499479
 21
119.4504978166712
 31
0.0
  0
LINE
  5
20E
330
206
100
AcDbEntity
  8
1
  6
Continuous
 62
     7
370
     9
100
AcDbLine
 10
280.466120258194
 20
117.1322758335775
 30
0.0
 11
281.08728596644
 21
119.4504978166712
 31
0.0
  0
TEXT
  5
20F
330
206
100
AcDbEntity
  8
1
  6
Continuous
 62
     7
370
     9
100
AcDbText
 10
279.566120258194
 20
152.5322758335775
 30
0.0
 40
3.0
  1
75
 50
89.99999999999991
 41
0.7333333333333334
 11
279.966120258194
 21
152.5322758335775
 31
0.0
100
AcDbText
 73
     1
  0
ENDBLK
  5
210
330
206
100
AcDbEntity
  8
1
  6
Continuous
 62
     7
370
     9
100
AcDbBlockEnd
  0
BLOCK
  5
213
330
212
100
AcDbEntity
  8
1
  6
Continuous
 62
     7
370
     9
100
AcDbBlockBegin
  2
*D10
 70
     0
 10
0.0
 20
0.0
 30
0.0
  3
*D10
  1

  0
LINE
  5
214
330
212
100
AcDbEntity
  8
1
  6
Continuous
 62
     7
370
     9
100
AcDbLine
 10
290.466120258194
 20
196.3822758335775
 30
0.0
 11
290.466120258194
 21
112.8822758335775
 31
0.0
  0
LINE
  5
215
330
212
100
AcDbEntity
  8
1
  6
Continuous
 62
     7
370
     9
100
AcDbLine
 10
292.466120258194
 20
196.3822758335775
 30
0.0
 11
239.8373111696035
 21
196.3822758335775
 31
0.0
  0
LINE
  5
216
330
212
100
AcDbEntity
  8
1
  6
Continuous
 62
     7
370
     9
100
AcDbLine
 10
292.466120258194
 20
112.8822758335775
 30
0.0
 11
239.8373111696035
 21
112.8822758335775
 31
0.0
  0
LINE
  5
217
330
212
100
AcDbEntity
  8
1
  6
Continuous
 62
     7
370
     9
100
AcDbLine
 10
290.466120258194
 20
196.3822758335775
 30
0.0
 11
291.08728596644
 21
194.0640538504837
 31
0.0
  0
LINE
  5
218
330
212
100
AcDbEntity
  8
1
  6
Continuous
 62
     7
370
     9
100
AcDbLine
 10
290.466120258194
 20
196.3822758335775
 30
0.0
 11
289.8449545499479
 21
194.0640538504837
 31
0.0
  0
LINE
  5
219
330
212
100
AcDbEntity
  8
1
  6
Continuous
 62
     7
370
     9
100
AcDbLine
 10
290.466120258194
 20
112.8822758335775
 30
0.0
 11
289.8449545499479
 21
115.2004978166712
 31
0.0
  0
LINE
  5
21A
330
212
100
AcDbEntity
  8
1
  6
Continuous
 62
     7
370
     9
100
AcDbLine
 10
290.466120258194
 20
112.8822758335775
 30
0.0
 11
291.08728596644
 21
115.2004978166712
 31
0.0
  0
TEXT
  5
21B
330
212
100
AcDbEntity
  8
1
  6
Continuous
 62
     7
370
     9
100
AcDbText
 10
289.5661202581941
 20
150.3322758335775
 30
0.0
 40
3.0
  1
83.5
 50
89.99999999999991
 41
0.7333333333333334
 11
289.966120258194
 21
150.3322758335775
 31
0.0
100
AcDbText
 73
     1
  0
ENDBLK
  5
21C
330
212
100
AcDbEntity
  8
1
  6
Continuous
 62
     7
370
     9
100
AcDbBlockEnd
  0
BLOCK
  5
230
330
22F
100
AcDbEntity
  8
2
  6
Continuous
 62
     7
370
     9
100
AcDbBlockBegin
  2
*D11
 70
     0
 10
0.0
 20
0.0
 30
0.0
  3
*D11
  1

  0
LINE
  5
231
330
22F
100
AcDbEntity
  8
2
  6
Continuous
 62
     7
370
     9
100
AcDbLine
 10
171.5445590159629
 20
95.02824622986649
 30
0.0
 11
171.5445590159629
 21
90.02824622986645
 31
0.0
  0
LINE
  5
232
330
22F
100
AcDbEntity
  8
2
  6
Continuous
 62
     7
370
     9
100
AcDbLine
 10
173.5445590159629
 20
95.02824622986649
 30
0.0
 11
163.5445590159628
 21
95.02824622986649
 31
0.0
  0
LINE
  5
233
330
22F
100
AcDbEntity
  8
2
  6
Continuous
 62
     7
370
     9
100
AcDbLine
 10
173.5445590159629
 20
90.02824622986645
 30
0.0
 11
163.5445590159628
 21
90.02824622986645
 31
0.0
  0
LINE
  5
234
330
22F
100
AcDbEntity
  8
2
  6
Continuous
 62
     7
370
     9
100
AcDbLine
 10
171.5445590159629
 20
95.02824622986649
 30
0.0
 11
170.9233933077168
 21
97.34646821296024
 31
0.0
  0
LINE
  5
235
330
22F
100
AcDbEntity
  8
2
  6
Continuous
 62
     7
370
     9
100
AcDbLine
 10
171.5445590159629
 20
95.02824622986649
 30
0.0
 11
172.1657247242089
 21
97.34646821296024
 31
0.0
  0
LINE
  5
236
330
22F
100
AcDbEntity
  8
2
  6
Continuous
 62
     7
370
     9
100
AcDbLine
 10
171.5445590159629
 20
90.02824622986645
 30
0.0
 11
172.1657247242089
 21
87.71002424677268
 31
0.0
  0
LINE
  5
237
330
22F
100
AcDbEntity
  8
2
  6
Continuous
 62
     7
370
     9
100
AcDbLine
 10
171.5445590159629
 20
90.02824622986645
 30
0.0
 11
170.9233933077168
 21
87.71002424677268
 31
0.0
  0
TEXT
  5
238
330
22F
100
AcDbEntity
  8
2
  6
Continuous
 62
     7
370
     9
100
AcDbText
 10
170.6445590159628
 20
91.77824622986646
 30
0.0
 40
3.0
  1
5
 50
89.99999999999991
 41
0.5666666666666666
 11
171.0445590159628
 21
91.77824622986646
 31
0.0
100
AcDbText
 73
     1
  0
ENDBLK
  5
239
330
22F
100
AcDbEntity
  8
2
  6
Continuous
 62
     7
370
     9
100
AcDbBlockEnd
  0
ENDSEC
  0
SECTION
  2
ENTITIES
  0
INSERT
  5
77
330
A
100
AcDbEntity
  8
0
  6
Continuous
 62
     7
370
     9
100
AcDbBlockReference
  2
*G0
 10
0.0
 20
0.0
 30
0.0
  0
LINE
  5
78
330
A
100
AcDbEntity
  8
15
  6
Continuous
 62
    96
370
    50
100
AcDbLine
 10
10.00000000000003
 20
265.5
 30
0.0
 11
10.00000000000003
 21
8.499999999999996
 31
0.0
  0
LINE
  5
79
330
A
100
AcDbEntity
  8
15
  6
Continuous
 62
    96
370
    50
100
AcDbLine
 10
10.00000000000003
 20
8.499999999999996
 30
0.0
 11
395.0000000000002
 21
8.500000000000014
 31
0.0
  0
LINE
  5
7A
330
A
100
AcDbEntity
  8
15
  6
Continuous
 62
    96
370
    50
100
AcDbLine
 10
10.00000000000003
 20
265.5
 30
0.0
 11
395.0000000000002
 21
265.5
 31
0.0
  0
LINE
  5
7B
330
A
100
AcDbEntity
  8
15
  6
Continuous
 62
    96
370
    50
100
AcDbLine
 10
395.0000000000002
 20
265.5
 30
0.0
 11
395.0000000000002
 21
8.500000000000014
 31
0.0
  0
LINE
  5
7C
330
A
100
AcDbEntity
  8
15
  6
Continuous
 62
    96
370
     9
100
AcDbLine
 10
359.3364811017139
 20
14.20009581938212
 30
0.0
 11
346.8738184197766
 21
14.20009581938212
 31
0.0
  0
TEXT
  5
7D
330
A
100
AcDbEntity
  8
15
  6
Continuous
 62
    96
370
     9
100
AcDbText
 10
329.1105756274573
 20
13.42975793894753
 30
0.0
 40
1.8
  1
出入管理システム
 41
1.222222222222222
 11
329.1105756274573
 21
13.18975793894753
 31
0.0
100
AcDbText
 73
     1
  0
TEXT
  5
7E
330
A
100
AcDbEntity
  8
15
  6
Continuous
 62
    96
370
     9
100
AcDbText
 10
329.18113343353
 20
9.789078604942014
 30
0.0
 40
3.6
  1
株式会社
 41
2.138888888888888
 11
329.18113343353
 21
9.309078604942014
 31
0.0
100
AcDbText
 73
     1
  0
LINE
  5
7F
330
A
100
AcDbEntity
  8
15
  6
Continuous
 62
    96
370
    30
100
AcDbLine
 10
309.290134649967
 20
9.378560922504721
 30
0.0
 11
312.4569867546307
 21
9.378560922504721
 31
0.0
  0
LINE
  5
80
330
A
100
AcDbEntity
  8
15
  6
Continuous
 62
    96
370
    30
100
AcDbLine
 10
327.925427656864
 20
13.22715384757644
 30
0.0
 11
327.925427656864
 21
14.44249708449966
 31
0.0
  0
LINE
  5
81
330
A
100
AcDbEntity
  8
15
  6
Continuous
 62
    96
370
    30
100
AcDbLine
 10
326.6088095719565
 20
13.22715384757644
 30
0.0
 11
327.925427656864
 21
13.22715384757644
 31
0.0
  0
LINE
  5
82
330
A
100
AcDbEntity
  8
15
  6
Continuous
 62
    96
370
    30
100
AcDbLine
 10
326.6088095719565
 20
9.378560922504721
 30
0.0
 11
326.6088095719565
 21
13.22715384757644
 31
0.0
  0
LINE
  5
83
330
A
100
AcDbEntity
  8
15
  6
Continuous
 62
    96
370
    30
100
AcDbLine
 10
325.1909053737867
 20
9.378560922504721
 30
0.0
 11
326.6088095719565
 21
9.378560922504721
 31
0.0
  0
LINE
  5
84
330
A
100
AcDbEntity
  8
15
  6
Continuous
 62
    96
370
    30
100
AcDbLine
 10
324.3388560826529
 20
9.378560922504721
 30
0.0
 11
322.5576579386938
 21
9.378560922504721
 31
0.0
  0
LINE
  5
85
330
A
100
AcDbEntity
  8
15
  6
Continuous
 62
    96
370
    30
100
AcDbLine
 10
315.164307897781
 20
9.378560922504721
 30
0.0
 11
319.5192908341634
 21
9.378560922504721
 31
0.0
  0
LINE
  5
86
330
A
100
AcDbEntity
  8
15
  6
Continuous
 62
    96
370
    30
100
AcDbLine
 10
315.164307897781
 20
11.50541384017592
 30
0.0
 11
315.164307897781
 21
9.378560922504721
 31
0.0
  0
LINE
  5
87
330
A
100
AcDbEntity
  8
15
  6
Continuous
 62
    96
370
    30
100
AcDbLine
 10
312.4569867546307
 20
9.378560922504721
 30
0.0
 11
317.3924401695477
 21
14.26514781510955
 31
0.0
  0
LINE
  5
88
330
A
100
AcDbEntity
  8
15
  6
Continuous
 62
    96
370
    30
100
AcDbLine
 10
317.3924401695477
 20
14.26514781510955
 30
0.0
 11
317.3924401695477
 21
11.50541384017592
 31
0.0
  0
LINE
  5
89
330
A
100
AcDbEntity
  8
15
  6
Continuous
 62
    96
370
    30
100
AcDbLine
 10
317.3924401695477
 20
11.50541384017592
 30
0.0
 11
315.164307897781
 21
11.50541384017592
 31
0.0
  0
LINE
  5
8A
330
A
100
AcDbEntity
  8
15
  6
Continuous
 62
    96
370
    30
100
AcDbLine
 10
319.5192908341634
 20
12.21436481273299
 30
0.0
 11
322.5576579386938
 21
9.378560922504721
 31
0.0
  0
ARC
  5
8B
330
A
100
AcDbEntity
  8
15
  6
Continuous
 62
    96
370
    30
100
AcDbCircle
 10
321.9499840671765
 20
12.72075933015471
 30
0.0
 40
0.5063945174217225
100
AcDbArc
 50
-89.9999999051093
 51
89.9999999051093
  0
LINE
  5
8C
330
A
100
AcDbEntity
  8
15
  6
Continuous
 62
    96
370
    30
100
AcDbLine
 10
319.5192908341634
 20
12.21436481273299
 30
0.0
 11
321.9499840671765
 21
12.21436481273299
 31
0.0
  0
LINE
  5
8D
330
A
100
AcDbEntity
  8
15
  6
Continuous
 62
    96
370
    30
100
AcDbLine
 10
319.9244082505452
 20
13.22715384757644
 30
0.0
 11
321.9499840671765
 21
13.22715384757644
 31
0.0
  0
LINE
  5
8E
330
A
100
AcDbEntity
  8
15
  6
Continuous
 62
    96
370
    30
100
AcDbLine
 10
319.9244082505452
 20
14.44249708449966
 30
0.0
 11
319.9244082505452
 21
13.22715384757644
 31
0.0
  0
LINE
  5
8F
330
A
100
AcDbEntity
  8
15
  6
Continuous
 62
    96
370
    30
100
AcDbLine
 10
319.9244082505452
 20
14.44249708449966
 30
0.0
 11
322.33377856562
 21
14.44249708449966
 31
0.0
  0
ARC
  5
90
330
A
100
AcDbEntity
  8
15
  6
Continuous
 62
    96
370
    30
100
AcDbCircle
 10
322.1418790633429
 20
12.72075933015471
 30
0.0
 40
1.732399213314056
100
AcDbArc
 50
-76.05515336937369
 51
83.64029606427759
  0
LINE
  5
91
330
A
100
AcDbEntity
  8
15
  6
Continuous
 62
    96
370
    30
100
AcDbLine
 10
322.5576579386938
 20
11.04101402557021
 30
0.0
 11
324.3388560826529
 21
9.378560922504721
 31
0.0
  0
LINE
  5
92
330
A
100
AcDbEntity
  8
15
  6
Continuous
 62
    96
370
    30
100
AcDbLine
 10
327.925427656864
 20
14.44249708449966
 30
0.0
 11
323.8742782766568
 21
14.44249708449966
 31
0.0
  0
LINE
  5
93
330
A
100
AcDbEntity
  8
15
  6
Continuous
 62
    96
370
    30
100
AcDbLine
 10
323.8742782766568
 20
14.44249708449966
 30
0.0
 11
323.8742782766568
 21
13.22715384757644
 31
0.0
  0
LINE
  5
94
330
A
100
AcDbEntity
  8
15
  6
Continuous
 62
    96
370
    30
100
AcDbLine
 10
323.8742782766568
 20
13.22715384757644
 30
0.0
 11
325.1909053737867
 21
13.22715384757644
 31
0.0
  0
LINE
  5
95
330
A
100
AcDbEntity
  8
15
  6
Continuous
 62
    96
370
    30
100
AcDbLine
 10
325.1909053737867
 20
13.22715384757644
 30
0.0
 11
325.1909053737867
 21
9.378560922504721
 31
0.0
  0
TEXT
  5
96
330
A
100
AcDbEntity
  8
15
  6
Continuous
 62
    96
370
    30
100
AcDbText
 10
305.4310265911253
 20
50.94891556689773
 30
0.0
 40
2.499999850988388
  1
型　式
 41
1.080000375509284
 11
305.4310265911253
 21
50.61558225343262
 31
0.0
100
AcDbText
 73
     1
  0
TEXT
  5
97
330
A
100
AcDbEntity
  8
15
  6
Continuous
 62
    96
370
    30
100
AcDbText
 10
305.4310265911253
 20
41.78795856581368
 30
0.0
 40
2.499999850988388
  1
製品名
 41
1.080000375509284
 11
305.4310265911253
 21
41.45462525234856
 31
0.0
100
AcDbText
 73
     1
  0
LINE
  5
98
330
A
100
AcDbEntity
  8
15
  6
Continuous
 62
    96
370
    30
100
AcDbLine
 10
305.0000000000001
 20
8.499999999999996
 30
0.0
 11
305.0000000000001
 21
53.50000683963301
 31
0.0
  0
LINE
  5
99
330
A
100
AcDbEntity
  8
15
  6
Continuous
 62
    96
370
     9
100
AcDbLine
 10
305.0000000000002
 20
44.50000683963302
 30
0.0
 11
395.0000000000002
 21
44.50000683963302
 31
0.0
  0
LINE
  5
9A
330
A
100
AcDbEntity
  8
15
  6
Continuous
 62
    96
370
     9
100
AcDbLine
 10
304.9999999999999
 20
44.5
 30
0.0
 11
395.0000000000002
 21
44.50000683963302
 31
0.0
  0
LINE
  5
9B
330
A
100
AcDbEntity
  8
15
  6
Continuous
 62
    96
370
     9
100
AcDbLine
 10
395.0
 20
20.50000683963301
 30
0.0
 11
304.9999999999999
 21
20.49999999999999
 31
0.0
  0
LINE
  5
9C
330
A
100
AcDbEntity
  8
15
  6
Continuous
 62
    96
370
     9
100
AcDbLine
 10
305.0000000000001
 20
35.49999999999999
 30
0.0
 11
394.6985570769172
 21
35.49999999999999
 31
0.0
  0
LINE
  5
9D
330
A
100
AcDbEntity
  8
15
  6
Continuous
 62
    96
370
     9
100
AcDbLine
 10
394.6985570769172
 20
26.50000683963301
 30
0.0
 11
305.0000000000001
 21
26.49999999999999
 31
0.0
  0
TEXT
  5
9E
330
A
100
AcDbEntity
  8
15
  6
Continuous
 62
    96
370
     9
100
AcDbText
 10
305.7457717617754
 20
32.91475690573613
 30
0.0
 40
2.499999850988388
  1
縮尺（Ａ３）
 41
1.080000375509284
 11
305.7457717617754
 21
32.58142359227101
 31
0.0
100
AcDbText
 73
     1
  0
LINE
  5
9F
330
A
100
AcDbEntity
  8
15
  6
Continuous
 62
    96
370
     9
100
AcDbLine
 10
320.0000000000001
 20
26.50000116284726
 30
0.0
 11
320.0000000000001
 21
20.50000113993883
 31
0.0
  0
LINE
  5
A0
330
A
100
AcDbEntity
  8
15
  6
Continuous
 62
    96
370
     9
100
AcDbLine
 10
319.5192908341634
 20
9.378560922504721
 30
0.0
 11
319.5192908341634
 21
19.50643549955015
 31
0.0
  0
LINE
  5
A1
330
A
100
AcDbEntity
  8
15
  6
Continuous
 62
    96
370
     9
100
AcDbLine
 10
319.5192908341634
 20
19.50643549955015
 30
0.0
 11
309.290134649967
 21
9.378560922504721
 31
0.0
  0
INSERT
  5
A6
330
A
100
AcDbEntity
  8
0
  6
Continuous
 62
    96
370
     9
100
AcDbBlockReference
  2
*G1
 10
0.0
 20
0.0
 30
0.0
  0
TEXT
  5
A7
330
A
100
AcDbEntity
  8
15
  6
Continuous
 62
    96
370
     9
100
AcDbText
 10
361.5088193111599
 20
10.22021151261263
 30
0.0
 40
9.999999999999998
  1
アート
 11
361.5088193111599
 21
8.886878179279296
 31
0.0
100
AcDbText
 73
     1
  0
TEXT
  5
A8
330
A
100
AcDbEntity
  8
15
  6
Continuous
 62
    96
370
     9
100
AcDbText
 10
307.1376061087245
 20
22.34273248770283
 30
0.0
 40
2.499999850988388
  1
図面番号
 41
1.080000375509284
 11
307.1376061087245
 21
22.00939917423772
 31
0.0
100
AcDbText
 73
     1
  0
TEXT
  5
A9
330
A
100
AcDbEntity
  8
15
  6
Continuous
 62
    96
370
     9
100
AcDbText
 10
371.0536417114852
 20
32.68216969072822
 30
0.0
 40
2.499999850988388
  1
作図
 41
1.080000375509284
 11
371.0536417114852
 21
32.3488363772631
 31
0.0
100
AcDbText
 73
     1
  0
LINE
  5
AA
330
A
100
AcDbEntity
  8
15
  6
Continuous
 62
    96
370
     9
100
AcDbLine
 10
320.0000000000001
 20
35.49999999999999
 30
0.0
 11
320.0000000000001
 21
26.50000116284726
 31
0.0
  0
LINE
  5
AB
330
A
100
AcDbEntity
  8
15
  6
Continuous
 62
    96
370
     9
100
AcDbLine
 10
345.0000000000002
 20
35.49999999999999
 30
0.0
 11
345.0000000000002
 21
26.50000306274532
 31
0.0
  0
LINE
  5
AC
330
A
100
AcDbEntity
  8
15
  6
Continuous
 62
    96
370
     9
100
AcDbLine
 10
370.0000000000002
 20
35.49999999999999
 30
0.0
 11
370.0000000000002
 21
26.50000496264338
 31
0.0
  0
LINE
  5
AD
330
A
100
AcDbEntity
  8
15
  6
Continuous
 62
    96
370
     9
100
AcDbLine
 10
330.0000000000002
 20
265.5
 30
0.0
 11
330.0000000000002
 21
260.0000000000001
 31
0.0
  0
LINE
  5
AE
330
A
100
AcDbEntity
  8
15
  6
Continuous
 62
    96
370
    30
100
AcDbLine
 10
305.0000000000002
 20
260.0
 30
0.0
 11
395.0000000000002
 21
260.0
 31
0.0
  0
LINE
  5
AF
330
A
100
AcDbEntity
  8
15
  6
Continuous
 62
    96
370
    30
100
AcDbLine
 10
305.0000000000002
 20
254.5
 30
0.0
 11
395.0000000000002
 21
254.5
 31
0.0
  0
LINE
  5
B0
330
A
100
AcDbEntity
  8
15
  6
Continuous
 62
    96
370
     9
100
AcDbLine
 10
305.0000000000002
 20
249.0
 30
0.0
 11
395.0000000000002
 21
249.0
 31
0.0
  0
LINE
  5
B1
330
A
100
AcDbEntity
  8
15
  6
Continuous
 62
    96
370
     9
100
AcDbLine
 10
395.0000000000002
 20
243.5
 30
0.0
 11
305.0000000000002
 21
243.5
 31
0.0
  0
LINE
  5
B2
330
A
100
AcDbEntity
  8
15
  6
Continuous
 62
    96
370
     9
100
AcDbLine
 10
305.0000000000002
 20
238.0
 30
0.0
 11
395.0000000000002
 21
238.0
 31
0.0
  0
LINE
  5
B3
330
A
100
AcDbEntity
  8
15
  6
Continuous
 62
    96
370
     9
100
AcDbLine
 10
305.0000000000002
 20
232.5
 30
0.0
 11
395.0000000000002
 21
232.5
 31
0.0
  0
LINE
  5
B4
330
A
100
AcDbEntity
  8
15
  6
Continuous
 62
    96
370
     9
100
AcDbLine
 10
305.0000000000002
 20
227.0
 30
0.0
 11
395.0000000000002
 21
227.0
 31
0.0
  0
LINE
  5
B5
330
A
100
AcDbEntity
  8
15
  6
Continuous
 62
    96
370
    30
100
AcDbLine
 10
305.0000000000002
 20
265.5
 30
0.0
 11
305.0000000000002
 21
66.00000683963301
 31
0.0
  0
LINE
  5
B6
330
A
100
AcDbEntity
  8
15
  6
Continuous
 62
    96
370
    30
100
AcDbLine
 10
305.0000000000002
 20
53.50000683963301
 30
0.0
 11
305.0000000000002
 21
66.00000683963301
 31
0.0
  0
LINE
  5
B7
330
A
100
AcDbEntity
  8
15
  6
Continuous
 62
    96
370
    30
100
AcDbLine
 10
395.0000000000002
 20
65.99321020844971
 30
0.0
 11
395.0000000000002
 21
104.4246462878547
 31
0.0
  0
LINE
  5
B8
330
A
100
AcDbEntity
  8
15
  6
Continuous
 62
    96
370
    30
100
AcDbLine
 10
395.0000000000002
 20
66.00000683963301
 30
0.0
 11
395.0000000000002
 21
104.6784689981407
 31
0.0
  0
LINE
  5
B9
330
A
100
AcDbEntity
  8
15
  6
Continuous
 62
    96
370
    50
100
AcDbLine
 10
395.0000000000002
 20
106.500020518899
 30
0.0
 11
395.0000000000002
 21
93.70001595914345
 31
0.0
  0
TEXT
  5
BA
330
A
100
AcDbEntity
  8
15
  6
Continuous
 62
    96
370
     9
100
AcDbText
 10
307.8340299057446
 20
28.40945463713588
 30
0.0
 40
3.0
  1
１：１
 11
307.8340299057446
 21
28.00945463713588
 31
0.0
100
AcDbText
 73
     1
  0
TEXT
  5
BB
330
A
100
AcDbEntity
  8
15
  6
PHANTOM
 62
    96
370
     9
100
AcDbText
 10
310.0000000000001
 20
261.65
 30
0.0
 40
3.0
  1
商品コード
 11
310.0000000000001
 21
261.25
 31
0.0
100
AcDbText
 73
     1
  0
TEXT
  5
BC
330
A
100
AcDbEntity
  8
15
  6
PHANTOM
 62
    96
370
     9
100
AcDbText
 10
339.5000000000002
 20
256.15
 30
0.0
 40
3.0
  1
定　　　　　格
 11
339.5000000000002
 21
255.75
 31
0.0
100
AcDbText
 73
     1
  0
TEXT
  5
BD
330
A
100
AcDbEntity
  8
15
  6
Continuous
 62
    96
370
     9
100
AcDbText
 10
320.7109497213943
 20
33.0091721680197
 30
0.0
 40
2.499999850988388
  1
承認
 41
1.080000375509284
 11
320.7109497213943
 21
32.67583885455458
 31
0.0
100
AcDbText
 73
     1
  0
TEXT
  5
BE
330
A
100
AcDbEntity
  8
15
  6
Continuous
 62
    96
370
     9
100
AcDbText
 10
345.7109497213944
 20
33.0091721680197
 30
0.0
 40
2.499999850988388
  1
検図
 41
1.080000375509284
 11
345.7109497213944
 21
32.67583885455458
 31
0.0
100
AcDbText
 73
     1
  0
LINE
  5
BF
330
A
100
AcDbEntity
  8
1
  6
Continuous
 62
     7
370
     9
100
AcDbLine
 10
84.82138998553478
 20
60.12743439647586
 30
0.0
 11
84.82138998553478
 21
24.5855687943402
 31
0.0
  0
LINE
  5
C0
330
A
100
AcDbEntity
  8
1
  6
Continuous
 62
     7
370
     9
100
AcDbLine
 10
94.34610418722355
 20
31.46953914436728
 30
0.0
 11
93.21998163804734
 21
30.30634757253558
 31
0.0
  0
LINE
  5
C1
330
A
100
AcDbEntity
  8
1
  6
Continuous
 62
     7
370
     9
100
AcDbLine
 10
91.95431202397072
 20
32.61156607541472
 30
0.0
 11
94.34610418722355
 21
31.46953914436728
 31
0.0
  0
LINE
  5
C2
330
A
100
AcDbEntity
  8
1
  6
Continuous
 62
     7
370
     9
100
AcDbLine
 10
94.34610418722355
 20
33.60275875899226
 30
0.0
 11
91.95431202397072
 21
32.61156607541472
 31
0.0
  0
LINE
  5
C3
330
A
100
AcDbEntity
  8
1
  6
Continuous
 62
     7
370
     9
100
AcDbLine
 10
91.93276405081475
 20
34.8956199375096
 30
0.0
 11
94.34610418722355
 21
33.60275875899226
 31
0.0
  0
LINE
  5
C4
330
A
100
AcDbEntity
  8
1
  6
Continuous
 62
     7
370
     9
100
AcDbLine
 10
93.21998163804734
 20
36.02712791535289
 30
0.0
 11
91.93276405081475
 21
34.8956199375096
 31
0.0
  0
LINE
  5
C5
330
A
100
AcDbEntity
  8
1
  6
Continuous
 62
     7
370
     9
100
AcDbLine
 10
90.74528172359192
 20
45.16426023218065
 30
0.0
 11
95.7153329972955
 21
45.19479695829779
 31
0.0
  0
LINE
  5
C6
330
A
100
AcDbEntity
  8
1
  6
Continuous
 62
     7
370
     9
100
AcDbLine
 10
93.21998163804734
 20
45.1954087254706
 30
0.0
 11
90.52279248580658
 21
48.17355077835948
 31
0.0
  0
LINE
  5
C7
330
A
100
AcDbEntity
  8
1
  6
Continuous
 62
     7
370
     9
100
AcDbLine
 10
95.9149990950557
 20
48.17799899849326
 30
0.0
 11
93.21998163804734
 21
45.1954087254706
 31
0.0
  0
LINE
  5
C8
330
A
100
AcDbEntity
  8
1
  6
Continuous
 62
     7
370
     9
100
AcDbLine
 10
90.52279248580658
 20
48.17355077835948
 30
0.0
 11
95.9149990950557
 21
48.17799899849326
 31
0.0
  0
LINE
  5
C9
330
A
100
AcDbEntity
  8
1
  6
Continuous
 62
     7
370
     9
100
AcDbLine
 10
93.21998163804734
 20
30.30634757253558
 30
0.0
 11
93.21998163804734
 21
24.5855687943402
 31
0.0
  0
LINE
  5
CA
330
A
100
AcDbEntity
  8
1
  6
Continuous
 62
     7
370
     9
100
AcDbLine
 10
93.21998163804734
 20
43.86009466025263
 30
0.0
 11
93.21998163804734
 21
36.02712791535289
 31
0.0
  0
LINE
  5
CB
330
A
100
AcDbEntity
  8
1
  6
Continuous
 62
     7
370
     9
100
AcDbLine
 10
93.21998163804734
 20
60.12743439647586
 30
0.0
 11
93.21998163804734
 21
50.02478171262175
 31
0.0
  0
LINE
  5
CC
330
A
100
AcDbEntity
  8
1
  6
Continuous
 62
     7
370
     9
100
AcDbLine
 10
84.82138998553478
 20
60.12743439647586
 30
0.0
 11
93.21998163804734
 21
60.12743439647586
 31
0.0
  0
CIRCLE
  5
CD
330
A
100
AcDbEntity
  8
1
  6
Continuous
 62
     7
370
     9
100
AcDbCircle
 10
93.21998163804734
 20
46.86009448143869
 30
0.0
 40
2.999999821186065
  0
LINE
  5
CE
330
A
100
AcDbEntity
  8
1
  6
Continuous
 62
     7
370
     9
100
AcDbLine
 10
62.04092442736347
 20
46.86009448143841
 30
0.0
 11
63.25811110183914
 21
46.86009448143841
 31
0.0
  0
LINE
  5
CF
330
A
100
AcDbEntity
  8
1
  6
Continuous
 62
     7
370
     9
100
AcDbLine
 10
63.25811110183914
 20
43.69540725025536
 30
0.0
 11
63.25811110183914
 21
50.02478171262147
 31
0.0
  0
LINE
  5
D0
330
A
100
AcDbEntity
  8
1
  6
Continuous
 62
     7
370
     9
100
AcDbLine
 10
74.82138998553475
 20
60.12743439647557
 30
0.0
 11
66.4227983330222
 21
60.12743439647557
 31
0.0
  0
LINE
  5
D1
330
A
100
AcDbEntity
  8
1
  6
Continuous
 62
     7
370
     9
100
AcDbLine
 10
66.4227983330222
 20
51.02478165301683
 30
0.0
 11
66.4227983330222
 21
60.12743439647557
 31
0.0
  0
LINE
  5
D2
330
A
100
AcDbEntity
  8
1
  6
Continuous
 62
     7
370
     9
100
AcDbLine
 10
66.4227983330222
 20
24.58556879433992
 30
0.0
 11
66.4227983330222
 21
42.69540730986
 31
0.0
  0
CIRCLE
  5
D3
330
A
100
AcDbEntity
  8
1
  6
Continuous
 62
     7
370
     9
100
AcDbCircle
 10
66.4227983330222
 20
43.69540725025536
 30
0.0
 40
0.999999940395355
  0
CIRCLE
  5
D4
330
A
100
AcDbEntity
  8
1
  6
Continuous
 62
     7
370
     9
100
AcDbCircle
 10
66.4227983330222
 20
50.02478171262147
 30
0.0
 40
0.999999940395355
  0
LINE
  5
D5
330
A
100
AcDbEntity
  8
1
  6
Continuous
 62
     7
370
     9
100
AcDbLine
 10
74.82138998553475
 20
60.12743439647557
 30
0.0
 11
74.82138998553475
 21
24.58556879433992
 31
0.0
  0
TEXT
  5
D6
330
A
100
AcDbEntity
  8
1
  6
Continuous
 62
     7
370
     9
100
AcDbText
 10
93.2965842011901
 20
71.07610947313846
 30
0.0
 40
3.75
  1
解錠
 50
-0.0000000000000891
 41
0.8888888888888889
  7
T_STANDARD
 11
93.2965842011901
 21
71.07610947313846
 31
0.0
100
AcDbText
 73
     2
  0
TEXT
  5
D7
330
A
100
AcDbEntity
  8
1
  6
Continuous
 62
     7
370
     9
100
AcDbText
 10
64.23942333749754
 20
19.54790212767324
 30
0.0
 40
4.0
  1
茶
 41
1.1
 11
64.23942333749754
 21
19.01456879433991
 31
0.0
100
AcDbText
 73
     1
  0
TEXT
  5
D8
330
A
100
AcDbEntity
  8
1
  6
Continuous
 62
     7
370
     9
100
AcDbText
 10
82.66246391901008
 20
19.54790212767353
 30
0.0
 40
4.0
  1
赤
 41
1.1
 11
82.66246391901008
 21
19.01456879434019
 31
0.0
100
AcDbText
 73
     1
  0
TEXT
  5
D9
330
A
100
AcDbEntity
  8
1
  6
Continuous
 62
     7
370
     9
100
AcDbText
 10
72.82424700187796
 20
19.62490186648569
 30
0.0
 40
4.0
  1
橙
 41
1.1
 11
72.82424700187796
 21
19.09156853315236
 31
0.0
100
AcDbText
 73
     1
  0
TEXT
  5
DA
330
A
100
AcDbEntity
  8
1
  6
Continuous
 62
     7
370
     9
100
AcDbText
 10
91.27887112995532
 20
19.60590212767353
 30
0.0
 40
4.0
  1
黄
 41
1.1
 11
91.27887112995532
 21
19.07256879434019
 31
0.0
100
AcDbText
 73
     1
  0
TEXT
  5
DB
330
A
100
AcDbEntity
  8
1
  6
Continuous
 62
     7
370
     9
100
AcDbText
 10
95.04809072110381
 20
36.72674902873268
 30
0.0
 40
4.0
  1
2.4K\U+03A9
 41
0.525
 11
95.04809072110381
 21
36.19341569539936
 31
0.0
100
AcDbText
 73
     1
  0
TEXT
  5
DC
330
A
100
AcDbEntity
  8
15
  6
PHANTOM
 62
    96
370
     9
100
AcDbText
 10
314.5000000000001
 20
245.15
 30
0.0
 40
3.0
  1
電源
 11
314.5000000000001
 21
244.75
 31
0.0
100
AcDbText
 73
     1
  0
TEXT
  5
DD
330
A
100
AcDbEntity
  8
15
  6
PHANTOM
 62
    96
370
     9
100
AcDbText
 10
347.5000000000002
 20
245.15
 30
0.0
 40
3.0
  1
電気錠制御盤より供給
 11
347.5000000000002
 21
244.75
 31
0.0
100
AcDbText
 73
     1
  0
TEXT
  5
DE
330
A
100
AcDbEntity
  8
15
  6
PHANTOM
 62
    96
370
     9
100
AcDbText
 10
308.5000000000001
 20
239.65
 30
0.0
 40
3.0
  1
使用環境温度
 11
308.5000000000001
 21
239.25
 31
0.0
100
AcDbText
 73
     1
  0
TEXT
  5
DF
330
A
100
AcDbEntity
  8
15
  6
PHANTOM
 62
    96
370
     9
100
AcDbText
 10
341.5000000000002
 20
239.65
 30
0.0
 40
3.0
  1
０℃～４０℃（結露なきこと）
 11
341.5000000000002
 21
239.25
 31
0.0
100
AcDbText
 73
     1
  0
TEXT
  5
E0
330
A
100
AcDbEntity
  8
15
  6
PHANTOM
 62
    96
370
     9
100
AcDbText
 10
311.4930394147461
 20
234.15
 30
0.0
 40
3.0
  1
設置場所
 11
311.4930394147461
 21
233.75
 31
0.0
100
AcDbText
 73
     1
  0
TEXT
  5
E1
330
A
100
AcDbEntity
  8
15
  6
PHANTOM
 62
    96
370
     9
100
AcDbText
 10
356.4930394147462
 20
234.15
 30
0.0
 40
3.0
  1
屋内外用
 11
356.4930394147462
 21
233.75
 31
0.0
100
AcDbText
 73
     1
  0
TEXT
  5
E2
330
A
100
AcDbEntity
  8
15
  6
Continuous
 62
    96
370
     9
100
AcDbText
 10
378.7268112631945
 20
28.73150701370451
 30
0.0
 40
4.999999999999999
  1
東
 41
1.08
 11
378.7268112631945
 21
28.06484034703784
 31
0.0
100
AcDbText
 73
     1
  0
LINE
  5
E3
330
A
100
AcDbEntity
  8
1
  6
Continuous
 62
     7
370
     9
100
AcDbLine
 10
25.75336234491601
 20
215.6568783816711
 30
0.0
 11
25.75336234491601
 21
93.98135444550083
 31
0.0
  0
LINE
  5
E4
330
A
100
AcDbEntity
  8
1
  6
Continuous
 62
     7
370
     9
100
AcDbLine
 10
100.7533743130011
 20
215.6568783816711
 30
0.0
 11
100.7533743130011
 21
93.98135444550083
 31
0.0
  0
LINE
  5
E5
330
A
100
AcDbEntity
  8
1
  6
Continuous
 62
     7
370
     9
100
AcDbLine
 10
30.74008043002259
 20
220.6435805093306
 30
0.0
 11
95.76667218534154
 21
220.6435805093306
 31
0.0
  0
LINE
  5
E6
330
A
100
AcDbEntity
  8
1
  6
Continuous
 62
     7
370
     9
100
AcDbLine
 10
81.9896588874692
 20
88.99465231784123
 30
0.0
 11
95.76667218534154
 21
88.99465231784123
 31
0.0
  0
LINE
  5
E7
330
A
100
AcDbEntity
  8
1
  6
Continuous
 62
     7
370
     9
100
AcDbLine
 10
30.7400644725756
 20
88.99465231784123
 30
0.0
 11
44.51707777044797
 21
88.99465231784123
 31
0.0
  0
LINE
  5
E8
330
A
100
AcDbEntity
  8
1
  6
Continuous
 62
     7
370
     9
100
AcDbLine
 10
60.76001527044806
 20
88.64557519018168
 30
0.0
 11
60.76001527044806
 21
86.85036242422425
 31
0.0
  0
LINE
  5
E9
330
A
100
AcDbEntity
  8
1
  6
Continuous
 62
     7
370
     9
100
AcDbLine
 10
65.74671739810762
 20
88.64557519018168
 30
0.0
 11
65.74671739810762
 21
86.85036242422425
 31
0.0
  0
LINE
  5
EA
330
A
100
AcDbEntity
  8
1
  6
Continuous
 62
     7
370
     9
100
AcDbLine
 10
61.75735569597995
 20
85.85302199869236
 30
0.0
 11
64.74937697257573
 21
85.85302199869236
 31
0.0
  0
LINE
  5
EB
330
A
100
AcDbEntity
  8
1
  6
Continuous
 62
     7
370
     9
100
AcDbLine
 10
30.83980250449061
 20
218.4993065731604
 30
0.0
 11
95.66693016406507
 21
218.4993065731604
 31
0.0
  0
LINE
  5
EC
330
A
100
AcDbEntity
  8
1
  6
Continuous
 62
     7
370
     9
100
AcDbLine
 10
27.8477692598098
 20
215.5072852965647
 30
0.0
 11
27.8477692598098
 21
94.13095151996888
 31
0.0
  0
LINE
  5
ED
330
A
100
AcDbEntity
  8
1
  6
Continuous
 62
     7
370
     9
100
AcDbLine
 10
98.65895144066081
 20
215.5072852965647
 30
0.0
 11
98.65895144066081
 21
94.13095151996888
 31
0.0
  0
LINE
  5
EE
330
A
100
AcDbEntity
  8
1
  6
Continuous
 62
     7
370
     9
100
AcDbLine
 10
30.83979053640553
 20
91.13893024337315
 30
0.0
 11
43.6929035683203
 21
91.13893024337315
 31
0.0
  0
LINE
  5
EF
330
A
100
AcDbEntity
  8
1
  6
Continuous
 62
     7
370
     9
100
AcDbLine
 10
88.38634505768192
 20
217.4022241263519
 30
0.0
 11
88.38634505768192
 21
212.2889674774157
 31
0.0
  0
LINE
  5
F0
330
A
100
AcDbEntity
  8
1
  6
Continuous
 62
     7
370
     9
100
AcDbLine
 10
38.12039160023524
 20
217.4022241263519
 30
0.0
 11
38.12039160023524
 21
212.2889674774157
 31
0.0
  0
LINE
  5
F1
330
A
100
AcDbEntity
  8
1
  6
Continuous
 62
     7
370
     9
100
AcDbLine
 10
48.29325995129912
 20
217.8369927433732
 30
0.0
 11
48.29325995129912
 21
212.2889674774157
 31
0.0
  0
LINE
  5
F2
330
A
100
AcDbEntity
  8
1
  6
Continuous
 62
     7
370
     9
100
AcDbLine
 10
78.21347271725656
 20
217.8369927433732
 30
0.0
 11
78.21347271725656
 21
212.2889674774157
 31
0.0
  0
LINE
  5
F3
330
A
100
AcDbEntity
  8
1
  6
Continuous
 62
     7
370
     9
100
AcDbLine
 10
48.29325995129912
 20
217.8369927433732
 30
0.0
 11
78.21347271725656
 21
217.8369927433732
 31
0.0
  0
LINE
  5
F4
330
A
100
AcDbEntity
  8
1
  6
Continuous
 62
     7
370
     9
100
AcDbLine
 10
30.83979053640553
 20
217.4022241263519
 30
0.0
 11
48.29325995129912
 21
217.4022241263519
 31
0.0
  0
LINE
  5
F5
330
A
100
AcDbEntity
  8
1
  6
Continuous
 62
     7
370
     9
100
AcDbLine
 10
78.21347271725656
 20
217.4022241263519
 30
0.0
 11
95.16825995129911
 21
217.4022241263519
 31
0.0
  0
LINE
  5
F6
330
A
100
AcDbEntity
  8
1
  6
Continuous
 62
     7
370
     9
100
AcDbLine
 10
38.12039160023524
 20
212.2889674774157
 30
0.0
 11
48.29325995129912
 21
212.2889674774157
 31
0.0
  0
LINE
  5
F7
330
A
100
AcDbEntity
  8
1
  6
Continuous
 62
     7
370
     9
100
AcDbLine
 10
78.21347271725656
 20
212.2889674774157
 30
0.0
 11
88.38634505768192
 21
212.2889674774157
 31
0.0
  0
LINE
  5
F8
330
A
100
AcDbEntity
  8
1
  6
Continuous
 62
     7
370
     9
100
AcDbLine
 10
33.33314160023532
 20
201.4447773178413
 30
0.0
 11
93.17357910023529
 21
201.4447773178413
 31
0.0
  0
LINE
  5
F9
330
A
100
AcDbEntity
  8
1
  6
Continuous
 62
     7
370
     9
100
AcDbLine
 10
94.1709195257672
 20
200.4474368923093
 30
0.0
 11
94.1709195257672
 21
96.12563237103271
 31
0.0
  0
LINE
  5
FA
330
A
100
AcDbEntity
  8
1
  6
Continuous
 62
     7
370
     9
100
AcDbLine
 10
34.8291522385332
 20
93.63228130720292
 30
0.0
 11
91.67756846193739
 21
93.63228130720292
 31
0.0
  0
LINE
  5
FB
330
A
100
AcDbEntity
  8
1
  6
Continuous
 62
     7
370
     9
100
AcDbLine
 10
32.33580117470341
 20
200.4474368923093
 30
0.0
 11
32.33580117470341
 21
96.12563237103271
 31
0.0
  0
LINE
  5
FC
330
A
100
AcDbEntity
  8
1
  6
Continuous
 62
     7
370
     9
100
AcDbLine
 10
94.1709195257672
 20
93.63228529656462
 30
0.0
 11
96.38935569597993
 21
92.24576667954332
 31
0.0
  0
LINE
  5
FD
330
A
100
AcDbEntity
  8
1
  6
Continuous
 62
     7
370
     9
100
AcDbLine
 10
94.38904186619263
 20
202.3173145518838
 30
0.0
 11
97.461600376831
 21
214.6075087008199
 31
0.0
  0
LINE
  5
FE
330
A
100
AcDbEntity
  8
1
  6
Continuous
 62
     7
370
     9
100
AcDbLine
 10
32.33581314278848
 20
93.63228130720292
 30
0.0
 11
30.08059904704373
 21
92.22277199869225
 31
0.0
  0
LINE
  5
FF
330
A
100
AcDbEntity
  8
1
  6
Continuous
 62
     7
370
     9
100
AcDbLine
 10
32.06849000449067
 20
202.5140698710327
 30
0.0
 11
28.98534372789483
 21
214.8466749242242
 31
0.0
  0
LINE
  5
100
330
A
100
AcDbEntity
  8
1
  6
Continuous
 62
     7
370
     9
100
AcDbLine
 10
43.30654585555447
 20
92.71560577528802
 30
0.0
 11
44.02453920661833
 21
89.785531307203
 31
0.0
  0
LINE
  5
101
330
A
100
AcDbEntity
  8
1
  6
Continuous
 62
     7
370
     9
100
AcDbLine
 10
82.48218149385227
 20
89.78553928592637
 30
0.0
 11
83.20017484491613
 21
92.71560976464972
 31
0.0
  0
LINE
  5
102
330
A
100
AcDbEntity
  8
1
  6
Continuous
 62
     7
370
     9
100
AcDbLine
 10
45.47757245129907
 20
88.64557519018168
 30
0.0
 11
81.0291482491713
 21
88.64557519018168
 31
0.0
  0
LINE
  5
103
330
A
100
AcDbEntity
  8
1
  6
Continuous
 62
     7
370
     9
100
AcDbLine
 10
43.30654585555447
 20
92.71560976464972
 30
0.0
 11
83.20017484491613
 21
92.71560976464972
 31
0.0
  0
LINE
  5
104
330
A
100
AcDbEntity
  8
1
  6
Continuous
 62
     7
370
     9
100
AcDbLine
 10
82.8138171321501
 20
91.13893024337315
 30
0.0
 11
95.66693016406507
 21
91.13893024337315
 31
0.0
  0
LINE
  5
105
330
A
100
AcDbEntity
  8
1
  6
HIDDEN
 62
     7
370
     9
100
AcDbLine
 10
49.04126527044806
 20
166.3882533816711
 30
0.0
 11
77.46546739810762
 21
166.3882533816711
 31
0.0
  0
LINE
  5
106
330
A
100
AcDbEntity
  8
1
  6
HIDDEN
 62
     7
370
     9
100
AcDbLine
 10
49.04126527044806
 20
143.249963488054
 30
0.0
 11
77.46546739810762
 21
143.249963488054
 31
0.0
  0
LINE
  5
107
330
A
100
AcDbEntity
  8
1
  6
HIDDEN
 62
     7
370
     9
100
AcDbLine
 10
49.04126527044806
 20
166.3882533816711
 30
0.0
 11
49.04126527044806
 21
143.249963488054
 31
0.0
  0
LINE
  5
108
330
A
100
AcDbEntity
  8
1
  6
HIDDEN
 62
     7
370
     9
100
AcDbLine
 10
77.46546739810762
 20
166.3882533816711
 30
0.0
 11
77.46546739810762
 21
143.249963488054
 31
0.0
  0
ARC
  5
109
330
A
100
AcDbEntity
  8
1
  6
Continuous
 62
     7
370
     9
100
AcDbCircle
 10
95.76667218534154
 20
215.6568783816711
 30
0.0
 40
4.986702127659573
100
AcDbArc
 50
0.0
 51
89.99999999999991
  0
ARC
  5
10A
330
A
100
AcDbEntity
  8
1
  6
Continuous
 62
     7
370
     9
100
AcDbCircle
 10
30.74008043002259
 20
215.6568783816711
 30
0.0
 40
4.986702127659573
100
AcDbArc
 50
89.99999999999991
 51
179.9999999999998
  0
ARC
  5
10B
330
A
100
AcDbEntity
  8
1
  6
Continuous
 62
     7
370
     9
100
AcDbCircle
 10
95.76667218534154
 20
93.98135444550083
 30
0.0
 40
4.986702127659573
100
AcDbArc
 50
-89.99999999999991
 51
0.0
  0
ARC
  5
10C
330
A
100
AcDbEntity
  8
1
  6
Continuous
 62
     7
370
     9
100
AcDbCircle
 10
30.7400644725756
 20
93.98135444550083
 30
0.0
 40
4.986702127659573
100
AcDbArc
 50
179.9999849999998
 51
-89.99999999999991
  0
ARC
  5
10D
330
A
100
AcDbEntity
  8
1
  6
Continuous
 62
     7
370
     9
100
AcDbCircle
 10
61.75735569597995
 20
86.85036242422425
 30
0.0
 40
0.9973404255319147
100
AcDbArc
 50
179.9999690000001
 51
-89.99999999999991
  0
ARC
  5
10E
330
A
100
AcDbEntity
  8
1
  6
Continuous
 62
     7
370
     9
100
AcDbCircle
 10
64.74937697257573
 20
86.85036242422425
 30
0.0
 40
0.9973404255319147
100
AcDbArc
 50
-89.99996900000342
 51
0.0
  0
ARC
  5
10F
330
A
100
AcDbEntity
  8
1
  6
Continuous
 62
     7
370
     9
100
AcDbCircle
 10
95.66693016406507
 20
215.5072852965647
 30
0.0
 40
2.992021276595744
100
AcDbArc
 50
0.0
 51
89.99999999999991
  0
ARC
  5
110
330
A
100
AcDbEntity
  8
1
  6
Continuous
 62
     7
370
     9
100
AcDbCircle
 10
30.83980250449061
 20
215.5072852965647
 30
0.0
 40
2.992021276595744
100
AcDbArc
 50
89.99999999999991
 51
179.9999999999998
  0
ARC
  5
111
330
A
100
AcDbEntity
  8
1
  6
Continuous
 62
     7
370
     9
100
AcDbCircle
 10
95.66693016406507
 20
94.13095151996888
 30
0.0
 40
2.992021276595744
100
AcDbArc
 50
-89.99999999999991
 51
0.0
  0
ARC
  5
112
330
A
100
AcDbEntity
  8
1
  6
Continuous
 62
     7
370
     9
100
AcDbCircle
 10
30.83979053640553
 20
94.13095151996888
 30
0.0
 40
2.992021276595744
100
AcDbArc
 50
179.9999849999985
 51
-89.99999999999991
  0
ARC
  5
113
330
A
100
AcDbEntity
  8
1
  6
Continuous
 62
     7
370
     9
100
AcDbCircle
 10
95.66693016406507
 20
214.4102028497562
 30
0.0
 40
2.992021276595744
100
AcDbArc
 50
0.0
 51
89.99999999999991
  0
ARC
  5
114
330
A
100
AcDbEntity
  8
1
  6
Continuous
 62
     7
370
     9
100
AcDbCircle
 10
30.83979053640553
 20
214.4102028497562
 30
0.0
 40
2.992021276595744
100
AcDbArc
 50
89.99999999999991
 51
179.9999999999998
  0
ARC
  5
115
330
A
100
AcDbEntity
  8
1
  6
Continuous
 62
     7
370
     9
100
AcDbCircle
 10
91.67756846193739
 20
96.12563237103271
 30
0.0
 40
2.493351063829786
100
AcDbArc
 50
-89.99999999999991
 51
0.0
  0
ARC
  5
116
330
A
100
AcDbEntity
  8
1
  6
Continuous
 62
     7
370
     9
100
AcDbCircle
 10
34.8291522385332
 20
96.12563237103271
 30
0.0
 40
2.493351063829786
100
AcDbArc
 50
179.9999849999978
 51
-89.99999999999991
  0
ARC
  5
117
330
A
100
AcDbEntity
  8
1
  6
Continuous
 62
     7
370
     9
100
AcDbCircle
 10
93.17357910023529
 20
200.4474368923093
 30
0.0
 40
0.9973404255319147
100
AcDbArc
 50
0.0
 51
89.99999999999991
  0
ARC
  5
118
330
A
100
AcDbEntity
  8
1
  6
Continuous
 62
     7
370
     9
100
AcDbCircle
 10
45.47757245129907
 20
90.1415898178412
 30
0.0
 40
1.496010638297872
100
AcDbArc
 50
-166.2312620000011
 51
-89.99999999999991
  0
ARC
  5
119
330
A
100
AcDbEntity
  8
1
  6
Continuous
 62
     7
370
     9
100
AcDbCircle
 10
81.0291482491713
 20
90.1415898178412
 30
0.0
 40
1.496010638297872
100
AcDbArc
 50
-89.99999999999991
 51
-13.76873799999676
  0
ARC
  5
11A
330
A
100
AcDbEntity
  8
1
  6
Continuous
 62
     7
370
     9
100
AcDbCircle
 10
33.33314160023532
 20
200.4474368923093
 30
0.0
 40
0.9973404255319147
100
AcDbArc
 50
89.99999999999991
 51
179.9999999999998
  0
TEXT
  5
11B
330
A
100
AcDbEntity
  8
1
  6
DOT
 62
     7
370
     9
100
AcDbText
 10
58.18910918960378
 20
153.1762188326963
 30
0.0
 40
5.0
  1
解錠
 41
1.079999999999999
 11
58.18910918960378
 21
152.5095521660297
 31
0.0
100
AcDbText
 73
     1
  0
LINE
  5
11C
330
A
100
AcDbEntity
  8
1
  6
DOT
 62
     7
370
     9
100
AcDbLine
 10
56.19667541557271
 20
147.8228419364261
 30
0.0
 11
54.49667541557272
 21
146.1228419364261
 31
0.0
  0
LINE
  5
11D
330
A
100
AcDbEntity
  8
1
  6
DOT
 62
     7
370
     9
100
AcDbLine
 10
70.3966754155727
 20
147.8228419364261
 30
0.0
 11
72.09667541557275
 21
146.1228419364261
 31
0.0
  0
LINE
  5
11E
330
A
100
AcDbEntity
  8
1
  6
DOT
 62
     7
370
     9
100
AcDbLine
 10
70.3966754155727
 20
162.0228419364262
 30
0.0
 11
72.09667541557275
 21
163.7228419364261
 31
0.0
  0
LINE
  5
11F
330
A
100
AcDbEntity
  8
1
  6
DOT
 62
     7
370
     9
100
AcDbLine
 10
54.49667541557272
 20
163.7228419364261
 30
0.0
 11
56.19667541557271
 21
162.0228419364262
 31
0.0
  0
LINE
  5
120
330
A
100
AcDbEntity
  8
1
  6
DOT
 62
     7
370
     9
100
AcDbLine
 10
70.3966754155727
 20
162.0228419364262
 30
0.0
 11
56.19667541557271
 21
162.0228419364262
 31
0.0
  0
LINE
  5
121
330
A
100
AcDbEntity
  8
1
  6
DOT
 62
     7
370
     9
100
AcDbLine
 10
70.3966754155727
 20
147.8228419364261
 30
0.0
 11
70.3966754155727
 21
162.0228419364262
 31
0.0
  0
LINE
  5
122
330
A
100
AcDbEntity
  8
1
  6
DOT
 62
     7
370
     9
100
AcDbLine
 10
56.19667541557271
 20
147.8228419364261
 30
0.0
 11
70.3966754155727
 21
147.8228419364261
 31
0.0
  0
LINE
  5
123
330
A
100
AcDbEntity
  8
1
  6
DOT
 62
     7
370
     9
100
AcDbLine
 10
56.19667541557271
 20
162.0228419364262
 30
0.0
 11
56.19667541557271
 21
147.8228419364261
 31
0.0
  0
LINE
  5
124
330
A
100
AcDbEntity
  8
1
  6
DOT
 62
     7
370
     9
100
AcDbLine
 10
72.09667541557275
 20
163.7228419364261
 30
0.0
 11
54.49667541557272
 21
163.7228419364261
 31
0.0
  0
LINE
  5
125
330
A
100
AcDbEntity
  8
1
  6
DOT
 62
     7
370
     9
100
AcDbLine
 10
72.09667541557275
 20
146.1228419364261
 30
0.0
 11
72.09667541557275
 21
163.7228419364261
 31
0.0
  0
LINE
  5
126
330
A
100
AcDbEntity
  8
1
  6
DOT
 62
     7
370
     9
100
AcDbLine
 10
54.49667541557272
 20
146.1228419364261
 30
0.0
 11
72.09667541557275
 21
146.1228419364261
 31
0.0
  0
LINE
  5
127
330
A
100
AcDbEntity
  8
1
  6
DOT
 62
     7
370
     9
100
AcDbLine
 10
54.49667541557272
 20
163.7228419364261
 30
0.0
 11
54.49667541557272
 21
146.1228419364261
 31
0.0
  0
ARC
  5
128
330
A
100
AcDbEntity
  8
1
  6
DOT
 62
     7
370
     9
100
AcDbCircle
 10
69.09667541557275
 20
149.1228419364261
 30
0.0
 40
0.2000000000000028
100
AcDbArc
 50
-89.99999999999991
 51
0.0
  0
LINE
  5
129
330
A
100
AcDbEntity
  8
1
  6
DOT
 62
     7
370
     9
100
AcDbLine
 10
57.49667541557272
 20
148.9228419364262
 30
0.0
 11
69.09667541557275
 21
148.9228419364262
 31
0.0
  0
ARC
  5
12A
330
A
100
AcDbEntity
  8
1
  6
DOT
 62
     7
370
     9
100
AcDbCircle
 10
57.49667541557272
 20
149.1228419364261
 30
0.0
 40
0.1999999999999993
100
AcDbArc
 50
179.9999999999998
 51
-89.99999999999991
  0
LINE
  5
12B
330
A
100
AcDbEntity
  8
1
  6
DOT
 62
     7
370
     9
100
AcDbLine
 10
69.09667541557275
 20
160.9228419364262
 30
0.0
 11
57.49667541557272
 21
160.9228419364262
 31
0.0
  0
ARC
  5
12C
330
A
100
AcDbEntity
  8
1
  6
DOT
 62
     7
370
     9
100
AcDbCircle
 10
57.49667541557272
 20
160.7228419364262
 30
0.0
 40
0.1999999999999993
100
AcDbArc
 50
89.99999999999991
 51
179.9999999999998
  0
ARC
  5
12D
330
A
100
AcDbEntity
  8
1
  6
DOT
 62
     7
370
     9
100
AcDbCircle
 10
69.09667541557275
 20
160.7228419364262
 30
0.0
 40
0.2000000000000028
100
AcDbArc
 50
0.0
 51
89.99999999999991
  0
LINE
  5
12E
330
A
100
AcDbEntity
  8
1
  6
DOT
 62
     7
370
     9
100
AcDbLine
 10
69.29667541557273
 20
149.1228419364261
 30
0.0
 11
69.29667541557273
 21
160.7228419364262
 31
0.0
  0
LINE
  5
12F
330
A
100
AcDbEntity
  8
1
  6
DOT
 62
     7
370
     9
100
AcDbLine
 10
57.29667541557273
 20
160.7228419364262
 30
0.0
 11
57.29667541557273
 21
149.1228419364261
 31
0.0
  0
DIMENSION
  5
13B
330
A
100
AcDbEntity
  8
2
  6
Continuous
 62
     7
370
     9
100
AcDbDimension
  2
*D2
 10
25.75336234491604
 20
230.6435805093306
 30
0.0
 11
63.2533683289586
 21
231.1435805093306
 31
0.0
 70
    32
  1
75
 71
     5
 42
0.0
100
AcDbAlignedDimension
 13
25.75336234491602
 23
216.7293866344585
 33
0.0
 14
100.7533743130011
 24
217.1400019742076
 34
0.0
100
AcDbRotatedDimension
  0
DIMENSION
  5
147
330
A
100
AcDbEntity
  8
2
  6
Continuous
 62
     7
370
     9
100
AcDbDimension
  2
*D3
 10
110.753374313001
 20
220.6435805093306
 30
0.0
 11
110.2533743130011
 21
154.6445778497561
 31
0.0
 70
    32
  1
132
 71
     5
 42
0.0
100
AcDbAlignedDimension
 13
97.76667218534155
 23
220.6435805093306
 33
0.0
 14
82.4220286571718
 24
88.64557519018168
 34
0.0
 50
89.99999999999991
100
AcDbRotatedDimension
  0
ARC
  5
148
330
A
100
AcDbEntity
  8
22
  6
Continuous
 62
     7
370
     9
100
AcDbCircle
 10
133.6029492020495
 20
88.74874850933066
 30
0.0
 40
0.5
100
AcDbArc
 50
-172.614792000005
 51
-89.60000600000556
  0
ARC
  5
149
330
A
100
AcDbEntity
  8
22
  6
Continuous
 62
     7
370
     9
100
AcDbCircle
 10
134.6604452020496
 20
88.75612850933066
 30
0.0
 40
0.5
100
AcDbArc
 50
-89.60000600000556
 51
0.3999999999927113
  0
ARC
  5
14A
330
A
100
AcDbEntity
  8
22
  6
Continuous
 62
     7
370
     9
100
AcDbCircle
 10
137.1174372020496
 20
91.77335650933059
 30
0.0
 40
1.0
100
AcDbArc
 50
-109.7857970000028
 51
-89.60000600000556
  0
ARC
  5
14B
330
A
100
AcDbEntity
  8
22
  6
Continuous
 62
     7
370
     9
100
AcDbCircle
 10
137.1603852020495
 20
88.77358450933058
 30
0.0
 40
2.0
100
AcDbArc
 50
90.40000899999993
 51
-179.599991
  0
ARC
  5
14C
330
A
100
AcDbEntity
  8
22
  6
Continuous
 62
     7
370
     9
100
AcDbCircle
 10
128.8803372020495
 20
201.0419245093307
 30
0.0
 40
1.0
100
AcDbArc
 50
148.7981109999988
 51
-178.8050080000001
  0
ARC
  5
14D
330
A
100
AcDbEntity
  8
22
  6
Continuous
 62
     7
370
     9
100
AcDbCircle
 10
139.5869492020495
 20
213.8935805093306
 30
0.0
 40
3.5
100
AcDbArc
 50
148.7980959999989
 51
-179.600006
  0
CIRCLE
  5
14E
330
A
100
AcDbEntity
  8
22
  6
Continuous
 62
     7
370
     9
100
AcDbCircle
 10
139.5869492020495
 20
213.8935805093306
 30
0.0
 40
1.350000000000001
  0
ARC
  5
14F
330
A
100
AcDbEntity
  8
22
  6
Continuous
 62
     7
370
     9
100
AcDbCircle
 10
139.5869492020495
 20
213.8935805093306
 30
0.0
 40
3.5
100
AcDbArc
 50
0.4000000000001556
 51
148.7980959999989
  0
ARC
  5
150
330
A
100
AcDbEntity
  8
22
  6
Continuous
 62
     7
370
     9
100
AcDbCircle
 10
131.7222972020495
 20
91.5887365093306
 30
0.0
 40
1.0
100
AcDbArc
 50
7.385209000001225
 51
70.21420299999722
  0
ARC
  5
151
330
A
100
AcDbEntity
  8
22
  6
Continuous
 62
     7
370
     9
100
AcDbCircle
 10
148.4369412020495
 20
89.64357250933062
 30
0.0
 40
1.0
100
AcDbArc
 50
179.9999849999985
 51
-89.99999999999991
  0
ARC
  5
152
330
A
100
AcDbEntity
  8
22
  6
Continuous
 62
     7
370
     9
100
AcDbCircle
 10
148.4369412020495
 20
219.6435805093306
 30
0.0
 40
1.0
100
AcDbArc
 50
89.99999999999991
 51
179.9999999999998
  0
ARC
  5
153
330
A
100
AcDbEntity
  8
22
  6
Continuous
 62
     7
370
     9
100
AcDbCircle
 10
139.1731092020495
 20
215.5266525093307
 30
0.0
 40
2.299999999999997
100
AcDbArc
 50
60.40000500000136
 51
148.7981110000022
  0
ARC
  5
154
330
A
100
AcDbEntity
  8
22
  6
Continuous
 62
     7
370
     9
100
AcDbCircle
 10
131.1145852020495
 20
93.93283250933064
 30
0.0
 40
1.0
100
AcDbArc
 50
-178.8050080000001
 51
-109.7857969999966
  0
LINE
  5
155
330
A
100
AcDbEntity
  8
22
  6
Continuous
 62
     7
370
     9
100
AcDbLine
 10
147.4369412020495
 20
219.6435805093306
 30
0.0
 11
147.4369412020495
 21
150.2935725093306
 31
0.0
  0
LINE
  5
156
330
A
100
AcDbEntity
  8
22
  6
Continuous
 62
     7
370
     9
100
AcDbLine
 10
147.4369412020495
 20
89.64357250933062
 30
0.0
 11
147.4369412020495
 21
150.2935725093306
 31
0.0
  0
LINE
  5
157
330
A
100
AcDbEntity
  8
22
  6
Continuous
 62
     7
370
     9
100
AcDbLine
 10
148.4369412020495
 20
220.6435805093306
 30
0.0
 11
152.6369452020495
 21
220.6435805093306
 31
0.0
  0
LINE
  5
158
330
A
100
AcDbEntity
  8
22
  6
Continuous
 62
     7
370
     9
100
AcDbLine
 10
152.6369452020495
 20
220.6435805093306
 30
0.0
 11
152.6369452020495
 21
150.2935725093306
 31
0.0
  0
LINE
  5
159
330
A
100
AcDbEntity
  8
22
  6
Continuous
 62
     7
370
     9
100
AcDbLine
 10
152.6369452020495
 20
218.0435725093306
 30
0.0
 11
153.1369452020495
 21
218.0435725093306
 31
0.0
  0
LINE
  5
15A
330
A
100
AcDbEntity
  8
22
  6
Continuous
 62
     7
370
     9
100
AcDbLine
 10
153.1369452020495
 20
218.0435725093306
 30
0.0
 11
153.1369452020495
 21
92.64356850933063
 31
0.0
  0
LINE
  5
15B
330
A
100
AcDbEntity
  8
22
  6
Continuous
 62
     7
370
     9
100
AcDbLine
 10
143.0868652020496
 20
213.9180085093307
 30
0.0
 11
143.9462572020495
 21
90.82100450933069
 31
0.0
  0
LINE
  5
15C
330
A
100
AcDbEntity
  8
22
  6
Continuous
 62
     7
370
     9
100
AcDbLine
 10
152.6369452020495
 20
150.2935725093306
 30
0.0
 11
152.6369452020495
 21
88.64357250933062
 31
0.0
  0
LINE
  5
15D
330
A
100
AcDbEntity
  8
22
  6
Continuous
 62
     7
370
     9
100
AcDbLine
 10
136.0870332020495
 20
213.8691365093306
 30
0.0
 11
136.9464252020495
 21
90.7721405093306
 31
0.0
  0
LINE
  5
15E
330
A
100
AcDbEntity
  8
22
  6
Continuous
 62
     7
370
     9
100
AcDbLine
 10
130.1147972020495
 20
93.91198450933064
 30
0.0
 11
127.8805612020495
 21
201.0210685093307
 31
0.0
  0
LINE
  5
15F
330
A
100
AcDbEntity
  8
22
  6
Continuous
 62
     7
370
     9
100
AcDbLine
 10
128.0249932020494
 20
201.5599765093307
 30
0.0
 11
137.2058252020495
 21
216.7181965093306
 31
0.0
  0
LINE
  5
160
330
A
100
AcDbEntity
  8
22
  6
Continuous
 62
     7
370
     9
100
AcDbLine
 10
143.5746292020495
 20
215.6714565093306
 30
0.0
 11
143.5774212020495
 21
215.2714645093306
 31
0.0
  0
LINE
  5
161
330
A
100
AcDbEntity
  8
22
  6
Continuous
 62
     7
370
     9
100
AcDbLine
 10
143.5746372020495
 20
215.6714445093306
 30
0.0
 11
140.3091812020495
 21
217.5264845093307
 31
0.0
  0
LINE
  5
162
330
A
100
AcDbEntity
  8
22
  6
Continuous
 62
     7
370
     9
100
AcDbLine
 10
133.6064372020495
 20
88.2487685093306
 30
0.0
 11
134.6639372020495
 21
88.25614450933063
 31
0.0
  0
LINE
  5
163
330
A
100
AcDbEntity
  8
22
  6
Continuous
 62
     7
370
     9
100
AcDbLine
 10
137.1244172020494
 20
90.77338450933064
 30
0.0
 11
143.9462572020495
 21
90.82100450933069
 31
0.0
  0
LINE
  5
164
330
A
100
AcDbEntity
  8
22
  6
Continuous
 62
     7
370
     9
100
AcDbLine
 10
130.7760852020495
 20
92.99186850933063
 30
0.0
 11
136.7789372020495
 21
90.8323885093306
 31
0.0
  0
LINE
  5
165
330
A
100
AcDbEntity
  8
22
  6
Continuous
 62
     7
370
     9
100
AcDbLine
 10
132.7140012020495
 20
91.71727650933064
 30
0.0
 11
133.1071012020495
 21
88.68447250933058
 31
0.0
  0
LINE
  5
166
330
A
100
AcDbEntity
  8
22
  6
Continuous
 62
     7
370
     9
100
AcDbLine
 10
148.4369412020495
 20
88.64357250933062
 30
0.0
 11
152.6369452020495
 21
88.64357250933062
 31
0.0
  0
LINE
  5
167
330
A
100
AcDbEntity
  8
22
  6
Continuous
 62
     7
370
     9
100
AcDbLine
 10
152.6369452020495
 20
92.64356850933063
 30
0.0
 11
153.1369452020495
 21
92.64356850933063
 31
0.0
  0
LINE
  5
168
330
A
100
AcDbEntity
  8
22
  6
Continuous
 62
     7
370
     9
100
AcDbLine
 10
142.8066092020495
 20
215.2660765093307
 30
0.0
 11
143.5774212020495
 21
215.2714645093306
 31
0.0
  0
LINE
  5
169
330
A
100
AcDbEntity
  8
22
  6
Continuous
 62
     7
370
     9
100
AcDbLine
 10
140.5431492020495
 20
217.3935805093306
 30
0.0
 11
143.9369412020495
 21
217.3935805093306
 31
0.0
  0
LINE
  5
16A
330
A
100
AcDbEntity
  8
22
  6
Continuous
 62
     7
370
     9
100
AcDbLine
 10
143.9369412020495
 20
218.4935725093307
 30
0.0
 11
143.9369412020495
 21
90.7935725093306
 31
0.0
  0
LINE
  5
16B
330
A
100
AcDbEntity
  8
22
  6
Continuous
 62
     7
370
     9
100
AcDbLine
 10
143.9369412020495
 20
90.7935725093306
 30
0.0
 11
147.4369412020495
 21
90.7935725093306
 31
0.0
  0
LINE
  5
16C
330
A
100
AcDbEntity
  8
22
  6
Continuous
 62
     7
370
     9
100
AcDbLine
 10
143.9369412020495
 20
218.4935725093307
 30
0.0
 11
147.4369412020495
 21
218.4935725093307
 31
0.0
  0
LINE
  5
16D
330
A
100
AcDbEntity
  8
1
  6
Continuous
 62
     7
370
     9
100
AcDbLine
 10
152.5445590159629
 20
151.1782465651424
 30
0.0
 11
159.5445590159628
 21
151.1782465651424
 31
0.0
  0
LINE
  5
16E
330
A
100
AcDbEntity
  8
1
  6
Continuous
 62
     7
370
     9
100
AcDbLine
 10
159.5445590159629
 20
151.1782465651424
 30
0.0
 11
159.5445590159628
 21
148.8782465651425
 31
0.0
  0
LINE
  5
16F
330
A
100
AcDbEntity
  8
1
  6
Continuous
 62
     7
370
     9
100
AcDbLine
 10
159.5445590159628
 20
148.8782465651425
 30
0.0
 11
152.5445590159629
 21
148.8782465651425
 31
0.0
  0
LINE
  5
170
330
A
100
AcDbEntity
  8
1
  6
Continuous
 62
     7
370
     9
100
AcDbLine
 10
152.5445430159629
 20
156.1782465651424
 30
0.0
 11
159.5445430159629
 21
156.1782465651424
 31
0.0
  0
LINE
  5
171
330
A
100
AcDbEntity
  8
1
  6
Continuous
 62
     7
370
     9
100
AcDbLine
 10
159.5445430159629
 20
156.1782465651424
 30
0.0
 11
159.5445430159629
 21
153.8782465651426
 31
0.0
  0
LINE
  5
172
330
A
100
AcDbEntity
  8
1
  6
Continuous
 62
     7
370
     9
100
AcDbLine
 10
159.5445430159629
 20
153.8782465651426
 30
0.0
 11
152.5445430159629
 21
153.8782465651426
 31
0.0
  0
LINE
  5
173
330
A
100
AcDbEntity
  8
1
  6
Continuous
 62
     7
370
     9
100
AcDbLine
 10
159.5445430159629
 20
155.7282465651425
 30
0.0
 11
160.2445430159629
 21
155.7282465651425
 31
0.0
  0
ARC
  5
174
330
A
100
AcDbEntity
  8
1
  6
Continuous
 62
     7
370
     9
100
AcDbCircle
 10
160.2445430159629
 20
154.3282465651425
 30
0.0
 40
1.399999999999999
100
AcDbArc
 50
0.0
 51
89.99999999999884
  0
LINE
  5
175
330
A
100
AcDbEntity
  8
1
  6
Continuous
 62
     7
370
     9
100
AcDbLine
 10
159.5445430159629
 20
154.3282465651426
 30
0.0
 11
160.0445430159629
 21
154.3282465651426
 31
0.0
  0
ARC
  5
176
330
A
100
AcDbEntity
  8
1
  6
Continuous
 62
     7
370
     9
100
AcDbCircle
 10
160.0445430159629
 20
154.1282465651426
 30
0.0
 40
0.2
100
AcDbArc
 50
0.0
 51
89.99999999999991
  0
LINE
  5
177
330
A
100
AcDbEntity
  8
1
  6
Continuous
 62
     7
370
     9
100
AcDbLine
 10
160.2445430159629
 20
154.1282465651426
 30
0.0
 11
160.2445430159629
 21
151.1882465651425
 31
0.0
  0
LINE
  5
178
330
A
100
AcDbEntity
  8
1
  6
Continuous
 62
     7
370
     9
100
AcDbLine
 10
161.6445430159629
 20
154.3282465651425
 30
0.0
 11
161.6445430159629
 21
150.4662465651425
 31
0.0
  0
LINE
  5
179
330
A
100
AcDbEntity
  8
1
  6
Continuous
 62
     7
370
     9
100
AcDbLine
 10
159.7445430159629
 20
155.7282465651425
 30
0.0
 11
160.4445430159629
 21
155.7282465651425
 31
0.0
  0
ARC
  5
17A
330
A
100
AcDbEntity
  8
1
  6
Continuous
 62
     7
370
     9
100
AcDbCircle
 10
160.4445430159629
 20
154.3282465651425
 30
0.0
 40
1.399999999999999
100
AcDbArc
 50
0.0
 51
89.99999999999884
  0
LINE
  5
17B
330
A
100
AcDbEntity
  8
1
  6
Continuous
 62
     7
370
     9
100
AcDbLine
 10
161.8445430159629
 20
154.3282465651425
 30
0.0
 11
161.8445430159629
 21
150.4662465651425
 31
0.0
  0
LINE
  5
17C
330
A
100
AcDbEntity
  8
1
  6
Continuous
 62
     7
370
     9
100
AcDbLine
 10
159.5445590159628
 20
150.7282465651425
 30
0.0
 11
160.2445590159629
 21
150.7282465651425
 31
0.0
  0
ARC
  5
17D
330
A
100
AcDbEntity
  8
1
  6
Continuous
 62
     7
370
     9
100
AcDbCircle
 10
160.2445590159629
 20
149.3282465651425
 30
0.0
 40
1.399999999999999
100
AcDbArc
 50
0.0
 51
89.99999999999884
  0
LINE
  5
17E
330
A
100
AcDbEntity
  8
1
  6
Continuous
 62
     7
370
     9
100
AcDbLine
 10
159.5445590159629
 20
149.3282465651426
 30
0.0
 11
160.0445590159629
 21
149.3282465651426
 31
0.0
  0
ARC
  5
17F
330
A
100
AcDbEntity
  8
1
  6
Continuous
 62
     7
370
     9
100
AcDbCircle
 10
160.0445590159629
 20
149.1282465651426
 30
0.0
 40
0.2
100
AcDbArc
 50
0.0
 51
89.99999999999991
  0
LINE
  5
180
330
A
100
AcDbEntity
  8
1
  6
Continuous
 62
     7
370
     9
100
AcDbLine
 10
159.7445590159628
 20
150.7287126750937
 30
0.0
 11
160.4445590159629
 21
150.7287126750937
 31
0.0
  0
ARC
  5
181
330
A
100
AcDbEntity
  8
1
  6
Continuous
 62
     7
370
     9
100
AcDbCircle
 10
160.4445590159629
 20
149.3287126750937
 30
0.0
 40
1.399999999999999
100
AcDbArc
 50
0.0000000000023263
 51
89.99999999999884
  0
LINE
  5
182
330
A
100
AcDbEntity
  8
1
  6
Continuous
 62
     7
370
     9
100
AcDbLine
 10
160.2445590159629
 20
95.02824622986649
 30
0.0
 11
161.8445590159629
 21
95.02824622986647
 31
0.0
  0
LINE
  5
183
330
A
100
AcDbEntity
  8
1
  6
Continuous
 62
     7
370
     9
100
AcDbLine
 10
160.5445590159629
 20
95.02824622986649
 30
0.0
 11
160.5445590159629
 21
90.02824622986647
 31
0.0
  0
LINE
  5
184
330
A
100
AcDbEntity
  8
1
  6
Continuous
 62
     7
370
     9
100
AcDbLine
 10
160.5445590159629
 20
90.02824622986647
 30
0.0
 11
161.3445590159629
 21
90.02824622986647
 31
0.0
  0
LINE
  5
185
330
A
100
AcDbEntity
  8
1
  6
Continuous
 62
     7
370
     9
100
AcDbLine
 10
161.3445590159629
 20
90.02824622986647
 30
0.0
 11
161.3445590159629
 21
95.02824622986647
 31
0.0
  0
LINE
  5
186
330
A
100
AcDbEntity
  8
1
  6
Continuous
 62
     7
370
     9
100
AcDbLine
 10
160.7445590159629
 20
90.02824622986645
 30
0.0
 11
161.5445590159628
 21
90.02824622986645
 31
0.0
  0
LINE
  5
187
330
A
100
AcDbEntity
  8
1
  6
Continuous
 62
     7
370
     9
100
AcDbLine
 10
161.5445590159628
 20
90.02824622986645
 30
0.0
 11
161.5445590159628
 21
95.02824622986645
 31
0.0
  0
ARC
  5
188
330
A
100
AcDbEntity
  8
1
  6
Continuous
 62
     7
370
     9
100
AcDbCircle
 10
159.9445590159629
 20
105.3542401445802
 30
0.0
 40
1.250000000000073
100
AcDbArc
 50
36.86989764584637
 51
143.1301023541536
  0
ARC
  5
189
330
A
100
AcDbEntity
  8
1
  6
Continuous
 62
     7
370
     9
100
AcDbCircle
 10
161.9445590159629
 20
106.8542401445803
 30
0.0
 40
1.249999999999982
100
AcDbArc
 50
-143.130102354157
 51
-36.86989764584298
  0
LINE
  5
18A
330
A
100
AcDbEntity
  8
1
  6
Continuous
 62
     7
370
     9
100
AcDbLine
 10
160.2445590159629
 20
149.1282465651426
 30
0.0
 11
160.2445590159629
 21
106.5677062545315
 31
0.0
  0
LINE
  5
18B
330
A
100
AcDbEntity
  8
1
  6
Continuous
 62
     7
370
     9
100
AcDbLine
 10
161.6445590159629
 20
149.3282465651425
 30
0.0
 11
161.6445590159629
 21
105.6407740346291
 31
0.0
  0
LINE
  5
18C
330
A
100
AcDbEntity
  8
1
  6
Continuous
 62
     7
370
     9
100
AcDbLine
 10
161.8445590159629
 20
149.3287126750938
 30
0.0
 11
161.8445590159629
 21
105.6082465651426
 31
0.0
  0
ARC
  5
18D
330
A
100
AcDbEntity
  8
1
  6
Continuous
 62
     7
370
     9
100
AcDbCircle
 10
159.9445590159627
 20
104.8542401445802
 30
0.0
 40
1.250000000000073
100
AcDbArc
 50
36.86989764584637
 51
143.1301023541536
  0
ARC
  5
18E
330
A
100
AcDbEntity
  8
1
  6
Continuous
 62
     7
370
     9
100
AcDbCircle
 10
161.9445590159626
 20
106.3542401445803
 30
0.0
 40
1.249999999999982
100
AcDbArc
 50
-143.130102354157
 51
-36.86989764584298
  0
LINE
  5
18F
330
A
100
AcDbEntity
  8
1
  6
Continuous
 62
     7
370
     9
100
AcDbLine
 10
160.2445590159629
 20
106.0677062545313
 30
0.0
 11
160.2445590159629
 21
95.02824622986649
 31
0.0
  0
LINE
  5
190
330
A
100
AcDbEntity
  8
1
  6
Continuous
 62
     7
370
     9
100
AcDbLine
 10
161.6445590159629
 20
105.140774034629
 30
0.0
 11
161.6445590159629
 21
95.02824622986649
 31
0.0
  0
LINE
  5
191
330
A
100
AcDbEntity
  8
1
  6
Continuous
 62
     7
370
     9
100
AcDbLine
 10
161.8445590159629
 20
105.1087126750937
 30
0.0
 11
161.8445590159629
 21
95.02824622986649
 31
0.0
  0
TEXT
  5
192
330
A
100
AcDbEntity
  8
15
  6
PHANTOM
 62
    96
370
     9
100
AcDbText
 10
314.5000000000001
 20
250.65
 30
0.0
 40
3.0
  1
材質
 11
314.5000000000001
 21
250.25
 31
0.0
100
AcDbText
 73
     1
  0
TEXT
  5
193
330
A
100
AcDbEntity
  8
15
  6
PHANTOM
 62
    96
370
     9
100
AcDbText
 10
350.5000000000002
 20
250.65
 30
0.0
 40
3.0
  1
アルミダイカスト
 11
350.5000000000002
 21
250.25
 31
0.0
100
AcDbText
 73
     1
  0
LINE
  5
194
330
A
100
AcDbEntity
  8
2
  6
Continuous
 62
     7
370
     9
100
AcDbLine
 10
161.8445590159629
 20
146.1687375065386
 30
0.0
 11
163.1142553064561
 21
144.1321051563321
 31
0.0
  0
LINE
  5
195
330
A
100
AcDbEntity
  8
2
  6
Continuous
 62
     7
370
     9
100
AcDbLine
 10
161.8445590159629
 20
146.1687375065386
 30
0.0
 11
161.9258320835177
 21
143.7701140078439
 31
0.0
  0
POLYLINE
  5
196
330
A
100
AcDbEntity
  8
2
  6
Continuous
 62
     7
370
     9
100
AcDb2dPolyline
 66
     1
 10
0.0
 20
0.0
 30
0.0
  0
VERTEX
  5
197
330
196
100
AcDbEntity
  8
2
  6
Continuous
 62
     7
370
     9
100
AcDbVertex
100
AcDb2dVertex
 10
161.8445590159629
 20
146.1687375065386
 30
0.0
  0
VERTEX
  5
198
330
196
100
AcDbEntity
  8
2
  6
Continuous
 62
     7
370
     9
100
AcDbVertex
100
AcDb2dVertex
 10
185.4579469233007
 20
68.64557519018164
 30
0.0
  0
VERTEX
  5
199
330
196
100
AcDbEntity
  8
2
  6
Continuous
 62
     7
370
     9
100
AcDbVertex
100
AcDb2dVertex
 10
252.0449547973164
 20
68.64557519018164
 30
0.0
  0
SEQEND
  5
19A
330
196
100
AcDbEntity
  8
2
  6
Continuous
 62
     7
370
     9
  0
TEXT
  5
19B
330
A
100
AcDbEntity
  8
2
  6
Continuous
 62
     7
370
     9
100
AcDbText
 10
185.9449547973164
 20
69.54557519018165
 30
0.0
 40
3.0
  1
配線長290\U+00B115mm（各配線ボタン接続部より）
 41
0.9680555555555555
 11
185.9449547973164
 21
69.14557519018164
 31
0.0
100
AcDbText
 73
     1
  0
DIMENSION
  5
1A7
330
A
100
AcDbEntity
  8
2
  6
Continuous
 62
     7
370
     9
100
AcDbDimension
  2
*D4
 10
152.6369452020496
 20
230.6435805093306
 30
0.0
 11
140.2633093930833
 21
231.1435805093306
 31
0.0
 70
    32
  1
24.5
 71
     5
 42
0.0
100
AcDbAlignedDimension
 13
152.6369452020495
 23
222.6435805093306
 33
0.0
 14
127.889673584117
 24
202.584221687282
 34
0.0
100
AcDbRotatedDimension
  0
DIMENSION
  5
1B3
330
A
100
AcDbEntity
  8
2
  6
Continuous
 62
     7
370
     9
100
AcDbDimension
  2
*D5
 10
153.1369452020496
 20
240.6435805093306
 30
0.0
 11
140.5087532020496
 21
241.1435805093306
 31
0.0
 70
    32
  1
25
 71
     5
 42
0.0
100
AcDbAlignedDimension
 13
153.1369452020495
 23
220.0435725093306
 33
0.0
 14
127.8805612020495
 24
203.0210685093307
 34
0.0
100
AcDbRotatedDimension
  0
ARC
  5
1B4
330
A
100
AcDbEntity
  8
1
  6
Continuous
 62
     7
370
     9
100
AcDbCircle
 10
215.190318396492
 20
90.1415898178412
 30
0.0
 40
1.496010638297872
100
AcDbArc
 50
-166.2312620000009
 51
-89.99999999999991
  0
LINE
  5
1B5
330
A
100
AcDbEntity
  8
1
  6
CENTER
 62
     7
370
     9
100
AcDbLine
 10
232.8373111696035
 20
221.8192758335775
 30
0.0
 11
232.8373111696035
 21
88.15427583357754
 31
0.0
  0
CIRCLE
  5
1B6
330
A
100
AcDbEntity
  8
1
  6
Continuous
 62
     7
370
     9
100
AcDbCircle
 10
232.8373111696035
 20
196.3822758335775
 30
0.0
 40
2.0
  0
CIRCLE
  5
1B7
330
A
100
AcDbEntity
  8
1
  6
Continuous
 62
     7
370
     9
100
AcDbCircle
 10
232.8373111696035
 20
112.8822758335775
 30
0.0
 40
2.0
  0
CIRCLE
  5
1B8
330
A
100
AcDbEntity
  8
1
  6
Continuous
 62
     7
370
     9
100
AcDbCircle
 10
232.8373111696035
 20
196.3822758335775
 30
0.0
 40
1.85
  0
CIRCLE
  5
1B9
330
A
100
AcDbEntity
  8
1
  6
Continuous
 62
     7
370
     9
100
AcDbCircle
 10
232.8373111696035
 20
112.8822758335775
 30
0.0
 40
1.85
  0
LINE
  5
1BA
330
A
100
AcDbEntity
  8
1
  6
CENTER
 62
     7
370
     9
100
AcDbLine
 10
228.4703121128471
 20
196.3822758335775
 30
0.0
 11
237.8373111696035
 21
196.3822758335775
 31
0.0
  0
LINE
  5
1BB
330
A
100
AcDbEntity
  8
1
  6
CENTER
 62
     7
370
     9
100
AcDbLine
 10
228.4703121128471
 20
112.8822758335775
 30
0.0
 11
237.8373111696035
 21
112.8822758335775
 31
0.0
  0
INSERT
  5
1C3
330
A
100
AcDbEntity
  8
0
  6
Continuous
 62
     7
370
     9
100
AcDbBlockReference
  2
*G6
 10
0.0
 20
0.0
 30
0.0
  0
INSERT
  5
1D8
330
A
100
AcDbEntity
  8
0
  6
Continuous
 62
     7
370
     9
100
AcDbBlockReference
  2
*G7
 10
0.0
 20
0.0
 30
0.0
  0
LINE
  5
1D9
330
A
100
AcDbEntity
  8
1
  6
CENTER
 62
     7
370
     9
100
AcDbLine
 10
196.2483121128471
 20
154.6322758335775
 30
0.0
 11
273.305312112847
 21
154.6322758335775
 31
0.0
  0
ARC
  5
1DA
330
A
100
AcDbEntity
  8
1
  6
PHANTOM
 62
     7
370
     9
100
AcDbCircle
 10
200.4528263752155
 20
215.656878381671
 30
0.0
 40
4.986702127659573
100
AcDbArc
 50
89.99999999999991
 51
179.9999999999998
  0
LINE
  5
1DB
330
A
100
AcDbEntity
  8
1
  6
PHANTOM
 62
     7
370
     9
100
AcDbLine
 10
195.4661082901089
 20
215.656878381671
 30
0.0
 11
195.4661082901089
 21
93.98135444550078
 31
0.0
  0
LINE
  5
1DC
330
A
100
AcDbEntity
  8
1
  6
PHANTOM
 62
     7
370
     9
100
AcDbLine
 10
200.4528263752155
 20
220.6435805093306
 30
0.0
 11
265.4794181305344
 21
220.6435805093306
 31
0.0
  0
LINE
  5
1DD
330
A
100
AcDbEntity
  8
1
  6
PHANTOM
 62
     7
370
     9
100
AcDbLine
 10
270.466120258194
 20
215.656878381671
 30
0.0
 11
270.466120258194
 21
93.98135444550078
 31
0.0
  0
ARC
  5
1DE
330
A
100
AcDbEntity
  8
1
  6
CENTER
 62
     7
370
     9
100
AcDbCircle
 10
250.7418941943643
 20
90.1415898178412
 30
0.0
 40
1.496010638297872
100
AcDbArc
 50
-89.99999999999991
 51
-13.76873799999753
  0
ARC
  5
1DF
330
A
100
AcDbEntity
  8
1
  6
CENTER
 62
     7
370
     9
100
AcDbCircle
 10
265.4794181305344
 20
93.98135444550078
 30
0.0
 40
4.986702127659573
100
AcDbArc
 50
-89.99999999999991
 51
0.0
  0
LINE
  5
1E0
330
A
100
AcDbEntity
  8
1
  6
CENTER
 62
     7
370
     9
100
AcDbLine
 10
215.190318396492
 20
88.64557519018163
 30
0.0
 11
250.7418941943643
 21
88.64557519018163
 31
0.0
  0
LINE
  5
1E1
330
A
100
AcDbEntity
  8
1
  6
CENTER
 62
     7
370
     9
100
AcDbLine
 10
251.7024048326621
 20
88.9946523178412
 30
0.0
 11
265.4794181305344
 21
88.9946523178412
 31
0.0
  0
ARC
  5
1E2
330
A
100
AcDbEntity
  8
1
  6
PHANTOM
 62
     7
370
     9
100
AcDbCircle
 10
234.4621229177686
 20
86.85036242422425
 30
0.0
 40
0.9973404255319147
100
AcDbArc
 50
-89.99996900000178
 51
0.0
  0
ARC
  5
1E3
330
A
100
AcDbEntity
  8
1
  6
PHANTOM
 62
     7
370
     9
100
AcDbCircle
 10
231.4701016411729
 20
86.85036242422425
 30
0.0
 40
0.9973404255319147
100
AcDbArc
 50
179.9999690000018
 51
-89.99999999999991
  0
LINE
  5
1E4
330
A
100
AcDbEntity
  8
1
  6
PHANTOM
 62
     7
370
     9
100
AcDbLine
 10
231.4701016411729
 20
85.85302199869232
 30
0.0
 11
234.4621229177686
 21
85.85302199869232
 31
0.0
  0
LINE
  5
1E5
330
A
100
AcDbEntity
  8
1
  6
PHANTOM
 62
     7
370
     9
100
AcDbLine
 10
235.4594633433006
 20
88.64557519018163
 30
0.0
 11
235.4594633433006
 21
86.85036242422425
 31
0.0
  0
LINE
  5
1E6
330
A
100
AcDbEntity
  8
1
  6
PHANTOM
 62
     7
370
     9
100
AcDbLine
 10
230.472761215641
 20
88.64557519018163
 30
0.0
 11
230.472761215641
 21
86.85036242422425
 31
0.0
  0
LINE
  5
1E7
330
A
100
AcDbEntity
  8
1
  6
PHANTOM
 62
     7
370
     9
100
AcDbLine
 10
200.4528104177685
 20
88.9946523178412
 30
0.0
 11
214.2298237156408
 21
88.9946523178412
 31
0.0
  0
ARC
  5
1E8
330
A
100
AcDbEntity
  8
1
  6
PHANTOM
 62
     7
370
     9
100
AcDbCircle
 10
200.4528104177685
 20
93.98135444550078
 30
0.0
 40
4.986702127659573
100
AcDbArc
 50
179.9999849999998
 51
-89.99999999999991
  0
ARC
  5
1E9
330
A
100
AcDbEntity
  8
1
  6
PHANTOM
 62
     7
370
     9
100
AcDbCircle
 10
265.4794181305344
 20
215.656878381671
 30
0.0
 40
4.986702127659573
100
AcDbArc
 50
0.0
 51
89.99999999999991
  0
LINE
  5
1EA
330
A
100
AcDbEntity
  8
1
  6
Continuous
 62
     7
370
     9
100
AcDbLine
 10
231.6795856645676
 20
111.2514258542755
 30
0.0
 11
231.0059342769065
 21
108.9479081513042
 31
0.0
  0
LINE
  5
1EB
330
A
100
AcDbEntity
  8
1
  6
Continuous
 62
     7
370
     9
100
AcDbLine
 10
231.6795856645676
 20
111.2514258542755
 30
0.0
 11
229.9444275980728
 21
109.5933466992657
 31
0.0
  0
POLYLINE
  5
1EC
330
A
100
AcDbEntity
  8
1
  6
Continuous
 62
     7
370
     9
100
AcDb2dPolyline
 66
     1
 10
0.0
 20
0.0
 30
0.0
  0
VERTEX
  5
1ED
330
1EC
100
AcDbEntity
  8
1
  6
Continuous
 62
     7
370
     9
100
AcDbVertex
100
AcDb2dVertex
 10
231.6795856645676
 20
111.2514258542755
 30
0.0
  0
VERTEX
  5
1EE
330
1EC
100
AcDbEntity
  8
1
  6
Continuous
 62
     7
370
     9
100
AcDbVertex
100
AcDb2dVertex
 10
211.8539233985472
 20
78.64557519018163
 30
0.0
  0
VERTEX
  5
1EF
330
1EC
100
AcDbEntity
  8
1
  6
Continuous
 62
     7
370
     9
100
AcDbVertex
100
AcDb2dVertex
 10
205.5051045009093
 20
78.64557519018163
 30
0.0
  0
SEQEND
  5
1F0
330
1EC
100
AcDbEntity
  8
1
  6
Continuous
 62
     7
370
     9
  0
TEXT
  5
1F1
330
A
100
AcDbEntity
  8
1
  6
Continuous
 62
     7
370
     9
100
AcDbText
 10
205.5051045009094
 20
79.54557519018163
 30
0.0
 40
3.0
  1
2-M4
 41
0.5666666666666668
 11
205.5051045009094
 21
79.14557519018163
 31
0.0
100
AcDbText
 73
     1
  0
LINE
  5
1F2
330
A
100
AcDbEntity
  8
2
  6
Continuous
 62
     7
370
     9
100
AcDbLine
 10
247.9596142831273
 20
117.1322758335775
 30
0.0
 11
249.4289846240423
 21
115.2346586958915
 31
0.0
  0
LINE
  5
1F3
330
A
100
AcDbEntity
  8
2
  6
Continuous
 62
     7
370
     9
100
AcDbLine
 10
247.9596142831273
 20
117.1322758335775
 30
0.0
 11
248.2833177570841
 21
114.7542060152273
 31
0.0
  0
POLYLINE
  5
1F4
330
A
100
AcDbEntity
  8
2
  6
Continuous
 62
     7
370
     9
100
AcDb2dPolyline
 66
     1
 10
0.0
 20
0.0
 30
0.0
  0
VERTEX
  5
1F5
330
1F4
100
AcDbEntity
  8
2
  6
Continuous
 62
     7
370
     9
100
AcDbVertex
100
AcDb2dVertex
 10
247.9596142831273
 20
117.1322758335775
 30
0.0
  0
VERTEX
  5
1F6
330
1F4
100
AcDbEntity
  8
2
  6
Continuous
 62
     7
370
     9
100
AcDbVertex
100
AcDb2dVertex
 10
264.0995926898857
 20
78.64557519018163
 30
0.0
  0
VERTEX
  5
1F7
330
1F4
100
AcDbEntity
  8
2
  6
Continuous
 62
     7
370
     9
100
AcDbVertex
100
AcDb2dVertex
 10
274.8328426295842
 20
78.64557519018163
 30
0.0
  0
SEQEND
  5
1F8
330
1F4
100
AcDbEntity
  8
2
  6
Continuous
 62
     7
370
     9
  0
TEXT
  5
1F9
330
A
100
AcDbEntity
  8
2
  6
Continuous
 62
     7
370
     9
100
AcDbText
 10
265.4328426295842
 20
79.54557519018163
 30
0.0
 40
3.0
  1
開口部
 41
1.133333333333333
 11
265.4328426295842
 21
79.14557519018163
 31
0.0
100
AcDbText
 73
     1
  0
DIMENSION
  5
205
330
A
100
AcDbEntity
  8
1
  6
Continuous
 62
     7
370
     9
100
AcDbDimension
  2
*D8
 10
207.8373111696036
 20
230.6435805093306
 30
0.0
 11
232.8373111696035
 21
231.1435805093306
 31
0.0
 70
    32
  1
50
 71
     5
 42
0.0
100
AcDbAlignedDimension
 13
207.8373111696035
 23
194.1322758335775
 33
0.0
 14
257.8373111696034
 24
194.1322758335775
 34
0.0
100
AcDbRotatedDimension
  0
DIMENSION
  5
211
330
A
100
AcDbEntity
  8
1
  6
Continuous
 62
     7
370
     9
100
AcDbDimension
  2
*D9
 10
280.466120258194
 20
192.1322758335775
 30
0.0
 11
279.966120258194
 21
154.6322758335775
 31
0.0
 70
    32
  1
75
 71
     5
 42
0.0
100
AcDbAlignedDimension
 13
259.8373111696034
 23
192.1322758335775
 33
0.0
 14
259.8373111696034
 24
117.1322758335775
 34
0.0
 50
89.99999999999991
100
AcDbRotatedDimension
  0
DIMENSION
  5
21D
330
A
100
AcDbEntity
  8
1
  6
Continuous
 62
     7
370
     9
100
AcDbDimension
  2
*D10
 10
290.466120258194
 20
196.3822758335775
 30
0.0
 11
289.966120258194
 21
154.6322758335775
 31
0.0
 70
    32
  1
83.5
 71
     5
 42
0.0
100
AcDbAlignedDimension
 13
239.8373111696035
 23
196.3822758335775
 33
0.0
 14
239.8373111696035
 24
112.8822758335775
 34
0.0
 50
89.99999999999991
100
AcDbRotatedDimension
  0
LINE
  5
21E
330
A
100
AcDbEntity
  8
22
  6
Continuous
 62
     7
370
     9
100
AcDbLine
 10
151.1369452020495
 20
88.64357250933062
 30
0.0
 11
151.1369452020495
 21
85.85302199869236
 31
0.0
  0
LINE
  5
21F
330
A
100
AcDbEntity
  8
22
  6
Continuous
 62
     7
370
     9
100
AcDbLine
 10
152.6369452020495
 20
88.64357250933062
 30
0.0
 11
152.6369452020495
 21
85.85302199869236
 31
0.0
  0
LINE
  5
220
330
A
100
AcDbEntity
  8
22
  6
Continuous
 62
     7
370
     9
100
AcDbLine
 10
151.1377176880464
 20
85.85302199869236
 30
0.0
 11
152.6377176880464
 21
85.85302199869236
 31
0.0
  0
LINE
  5
221
330
A
100
AcDbEntity
  8
15
  6
Continuous
 62
    96
370
     9
100
AcDbLine
 10
305.0468358309808
 20
216.1329146402667
 30
0.0
 11
395.0468358309808
 21
216.1329146402667
 31
0.0
  0
LINE
  5
222
330
A
100
AcDbEntity
  8
15
  6
Continuous
 62
    96
370
     9
100
AcDbLine
 10
305.0398752457269
 20
216.1329146402667
 30
0.0
 11
395.0398752457268
 21
216.1329146402667
 31
0.0
  0
LINE
  5
223
330
A
100
AcDbEntity
  8
15
  6
Continuous
 62
    96
370
     9
100
AcDbLine
 10
305.0398752457269
 20
216.1329146402667
 30
0.0
 11
395.0398752457268
 21
216.1329146402667
 31
0.0
  0
LINE
  5
224
330
A
100
AcDbEntity
  8
15
  6
Continuous
 62
    96
370
     9
100
AcDbLine
 10
305.0398752457269
 20
216.1329146402667
 30
0.0
 11
395.0398752457268
 21
216.1329146402667
 31
0.0
  0
LINE
  5
225
330
A
100
AcDbEntity
  8
15
  6
Continuous
 62
    96
370
     9
100
AcDbLine
 10
305.0398752457269
 20
216.1329146402667
 30
0.0
 11
395.0398752457268
 21
216.1329146402667
 31
0.0
  0
LINE
  5
226
330
A
100
AcDbEntity
  8
15
  6
Continuous
 62
    96
370
     9
100
AcDbLine
 10
305.0468358309808
 20
210.6329146402666
 30
0.0
 11
395.0468358309808
 21
210.6329146402666
 31
0.0
  0
LINE
  5
227
330
A
100
AcDbEntity
  8
15
  6
Continuous
 62
    96
370
     9
100
AcDbLine
 10
305.0398752457269
 20
210.6329146402666
 30
0.0
 11
395.0398752457268
 21
210.6329146402666
 31
0.0
  0
LINE
  5
228
330
A
100
AcDbEntity
  8
15
  6
Continuous
 62
    96
370
     9
100
AcDbLine
 10
305.0398752457269
 20
210.6329146402666
 30
0.0
 11
395.0398752457268
 21
210.6329146402666
 31
0.0
  0
LINE
  5
229
330
A
100
AcDbEntity
  8
15
  6
Continuous
 62
    96
370
     9
100
AcDbLine
 10
305.0398752457269
 20
210.6329146402666
 30
0.0
 11
395.0398752457268
 21
210.6329146402666
 31
0.0
  0
LINE
  5
22A
330
A
100
AcDbEntity
  8
15
  6
Continuous
 62
    96
370
     9
100
AcDbLine
 10
305.0398752457269
 20
210.6329146402666
 30
0.0
 11
395.0398752457268
 21
210.6329146402666
 31
0.0
  0
LINE
  5
22B
330
A
100
AcDbEntity
  8
15
  6
Continuous
 62
    96
370
     9
100
AcDbLine
 10
305.0468358309808
 20
221.6329146402666
 30
0.0
 11
395.0468358309808
 21
221.6329146402666
 31
0.0
  0
TEXT
  5
22C
330
A
100
AcDbEntity
  8
15
  6
Continuous
 62
    96
370
     9
100
AcDbText
 10
328.7268112631945
 20
28.73150701370451
 30
0.0
 40
4.999999999999999
  1
加川
 41
1.08
 11
328.7268112631945
 21
28.06484034703784
 31
0.0
100
AcDbText
 73
     1
  0
TEXT
  5
22D
330
A
100
AcDbEntity
  8
15
  6
Continuous
 62
    96
370
     9
100
AcDbText
 10
353.7268112631945
 20
28.73150701370451
 30
0.0
 40
4.999999999999999
  1
辻
 41
1.08
 11
353.7268112631945
 21
28.06484034703784
 31
0.0
100
AcDbText
 73
     1
  0
LINE
  5
22E
330
A
100
AcDbEntity
  8
15
  6
Continuous
 62
    96
370
     9
100
AcDbLine
 10
330.0000000000002
 20
254.4999999999999
 30
0.0
 11
330.0000000000002
 21
232.5
 31
0.0
  0
DIMENSION
  5
23A
330
A
100
AcDbEntity
  8
2
  6
Continuous
 62
     7
370
     9
100
AcDbDimension
  2
*D11
 10
171.5445590159629
 20
95.02824622986649
 30
0.0
 11
171.0445590159628
 21
92.52824622986647
 31
0.0
 70
    32
  1
5
 71
     5
 42
0.0
100
AcDbAlignedDimension
 13
163.5445590159628
 23
95.02824622986649
 33
0.0
 14
163.5445590159628
 24
90.02824622986645
 34
0.0
 50
89.99999999999991
100
AcDbRotatedDimension
  0
TEXT
  5
23B
330
A
100
AcDbEntity
  8
15
  6
Continuous
 62
    96
370
     9
100
AcDbText
 10
352.0000000000002
 20
261.65
 30
0.0
 40
3.0
  1
０８０１０６５
 11
352.0000000000002
 21
261.25
 31
0.0
100
AcDbText
 73
     1
  0
LINE
  5
23C
330
A
100
AcDbEntity
  8
15
  6
Continuous
 62
    96
370
    30
100
AcDbLine
 10
305.0000000000002
 20
53.50000683963301
 30
0.0
 11
395.0000000000002
 21
53.50000683963301
 31
0.0
  0
LINE
  5
23D
330
A
100
AcDbEntity
  8
15
  6
Continuous
 62
    96
370
    30
100
AcDbLine
 10
305.0000000000002
 20
59.00000683963301
 30
0.0
 11
395.0000000000002
 21
59.00000683963301
 31
0.0
  0
LINE
  5
23E
330
A
100
AcDbEntity
  8
15
  6
Continuous
 62
    96
370
     9
100
AcDbLine
 10
330.0000000000001
 20
59.00000683963301
 30
0.0
 11
330.0000000000001
 21
53.50000683963301
 31
0.0
  0
TEXT
  5
23F
330
A
100
AcDbEntity
  8
15
  6
Continuous
 62
    96
370
     9
100
AcDbText
 10
311.2000000000003
 20
55.15000683963301
 30
0.0
 40
3.0
  1
図面履歴
 41
1.133333333333333
 11
311.2000000000003
 21
54.75000683963301
 31
0.0
100
AcDbText
 73
     1
  0
TEXT
  5
240
330
A
100
AcDbEntity
  8
15
  6
CENTER
 62
    96
370
    50
100
AcDbText
 10
355.7816771071721
 20
55.15200114185429
 30
0.0
 40
3.0
  1
－－－－
 11
355.7816771071721
 21
54.75200114185429
 31
0.0
100
AcDbText
 73
     1
  0
TEXT
  5
241
330
A
100
AcDbEntity
  8
15
  6
CENTER
 62
    96
370
    50
100
AcDbText
 10
321.2351504453699
 20
22.11000114185428
 30
0.0
 40
3.0
  1
G50007-01-18712
 41
0.5
 11
321.2351504453699
 21
21.71000114185428
 31
0.0
100
AcDbText
 73
     1
  0
LINE
  5
242
330
A
100
AcDbEntity
  8
15
  6
Continuous
 62
    96
370
     9
100
AcDbLine
 10
352.3466457856563
 20
26.50076875375079
 30
0.0
 11
352.3466457856563
 21
20.50076873084234
 31
0.0
  0
LINE
  5
243
330
A
100
AcDbEntity
  8
15
  6
Continuous
 62
    96
370
     9
100
AcDbLine
 10
345.0000000000002
 20
26.5007637911074
 30
0.0
 11
345.0000000000002
 21
20.50076379110739
 31
0.0
  0
TEXT
  5
244
330
A
100
AcDbEntity
  8
15
  6
Continuous
 62
    96
370
     9
100
AcDbText
 10
346.2626662516711
 20
22.42403434571723
 30
0.0
 40
2.499999850988388
  1
日付
 41
1.080000375509284
 11
346.2626662516711
 21
22.09070103225212
 31
0.0
100
AcDbText
 73
     1
  0
LINE
  5
245
330
A
100
AcDbEntity
  8
15
  6
Continuous
 62
    96
370
     9
100
AcDbLine
 10
383.7682562816866
 20
26.2389041012336
 30
0.0
 11
383.7682562816866
 21
20.86290410123361
 31
0.0
  0
CIRCLE
  5
246
330
A
100
AcDbEntity
  8
15
  6
Continuous
 62
    96
370
     9
100
AcDbCircle
 10
383.7682562816866
 20
23.5509041012336
 30
0.0
 40
1.151999999999975
  0
CIRCLE
  5
247
330
A
100
AcDbEntity
  8
15
  6
Continuous
 62
    96
370
     9
100
AcDbCircle
 10
383.7682562816866
 20
23.5509041012336
 30
0.0
 40
1.920000000000027
  0
LINE
  5
248
330
A
100
AcDbEntity
  8
15
  6
Continuous
 62
    96
370
     9
100
AcDbLine
 10
386.9353817912324
 20
24.7029041012336
 30
0.0
 11
386.9353817912324
 21
22.39890410123361
 31
0.0
  0
LINE
  5
249
330
A
100
AcDbEntity
  8
15
  6
Continuous
 62
    96
370
     9
100
AcDbLine
 10
393.0793817912325
 20
25.47090410123361
 30
0.0
 11
393.0793817912325
 21
21.63090410123359
 31
0.0
  0
LINE
  5
24A
330
A
100
AcDbEntity
  8
15
  6
Continuous
 62
    96
370
     9
100
AcDbLine
 10
386.9353817912324
 20
24.7029041012336
 30
0.0
 11
393.0793817912325
 21
25.47090410123361
 31
0.0
  0
LINE
  5
24B
330
A
100
AcDbEntity
  8
15
  6
Continuous
 62
    96
370
     9
100
AcDbLine
 10
386.9353817912324
 20
22.39890410123361
 30
0.0
 11
393.0793817912325
 21
21.63090410123359
 31
0.0
  0
LINE
  5
24C
330
A
100
AcDbEntity
  8
15
  6
Continuous
 62
    96
370
     9
100
AcDbLine
 10
381.0802562816867
 20
23.5509041012336
 30
0.0
 11
393.7345817912326
 21
23.5509041012336
 31
0.0
  0
LINE
  5
24D
330
A
100
AcDbEntity
  8
15
  6
Continuous
 62
    96
370
     9
100
AcDbLine
 10
380.107429088928
 20
26.49968187872766
 30
0.0
 11
380.107429088928
 21
20.50000237551912
 31
0.0
  0
TEXT
  5
24E
330
A
100
AcDbEntity
  8
15
  6
Continuous
 62
    96
370
     9
100
AcDbText
 10
355.204157631247
 20
22.34080750321782
 30
0.0
 40
3.0
  1
2018年07月12日
 41
0.6363636363636364
 11
355.204157631247
 21
21.94080750321782
 31
0.0
100
AcDbText
 73
     1
  0
TEXT
  5
24F
330
A
100
AcDbEntity
  8
1
  6
Continuous
 62
     7
370
     9
100
AcDbText
 10
58.77864975695022
 20
53.25250033148771
 30
0.0
 40
3.466666666666666
  1
解錠ボタン
 41
0.9615384615384616
  7
T_STANDARD
 11
58.77864975695022
 21
53.25250033148771
 31
0.0
100
AcDbText
 73
     2
  0
TEXT
  5
250
330
A
100
AcDbEntity
  8
15
  6
Continuous
 62
    96
370
     9
100
AcDbText
 10
328.4930000000002
 20
47.00367350629968
 30
0.0
 40
5.0
  1
Ｂ－９７１１ＦＤＰ
 41
1.08
 11
328.4930000000002
 21
46.33700683963302
 31
0.0
100
AcDbText
 73
     1
  0
TEXT
  5
251
330
A
100
AcDbEntity
  8
15
  6
Continuous
 62
    96
370
     9
100
AcDbText
 10
330.0357400722023
 20
38.32551143200962
 30
0.0
 40
5.0
  1
操作表示器　防滴型
 41
1.08
 11
330.0357400722023
 21
37.65884476534296
 31
0.0
100
AcDbText
 73
     1
  0
LINE
  5
252
330
A
100
AcDbEntity
  8
15
  6
Continuous
 62
    96
370
     9
100
AcDbLine
 10
330.0468358309808
 20
232.5000670122543
 30
0.0
 11
330.0468358309808
 21
216.1329146402667
 31
0.0
  0
TEXT
  5
253
330
A
100
AcDbEntity
  8
15
  6
PHANTOM
 62
    96
370
     9
100
AcDbText
 10
307.0876669201981
 20
223.0891739863306
 30
0.0
 40
3.0
  1
ブランクチップ
 41
0.9
 11
307.0876669201981
 21
222.6891739863306
 31
0.0
100
AcDbText
 73
     1
  0
TEXT
  5
254
330
A
100
AcDbEntity
  8
15
  6
PHANTOM
 62
    96
370
     9
100
AcDbText
 10
310.1216367588114
 20
217.7746438026025
 30
0.0
 40
3.0
  1
解錠ボタン
 11
310.1216367588114
 21
217.3746438026025
 31
0.0
100
AcDbText
 73
     1
  0
TEXT
  5
255
330
A
100
AcDbEntity
  8
15
  6
Continuous
 62
    96
370
     9
100
AcDbText
 10
332.4515973440654
 20
217.6866438026025
 30
0.0
 40
3.0
  1
照光式スイッチ：緑色　モーメンタリ動作
 41
0.8
 11
332.4515973440654
 21
217.2866438026025
 31
0.0
100
AcDbText
 73
     1
  0
TEXT
  5
256
330
A
100
AcDbEntity
  8
15
  6
PHANTOM
 62
    96
370
     9
100
AcDbText
 10
308.5200769013666
 20
228.7143321733734
 30
0.0
 40
3.0
  1
防滴プレート
 11
308.5200769013666
 21
228.3143321733734
 31
0.0
100
AcDbText
 73
     1
  0
TEXT
  5
257
330
A
100
AcDbEntity
  8
15
  6
PHANTOM
 62
    96
370
     9
100
AcDbText
 10
348.4232312246689
 20
223.0891739863306
 30
0.0
 40
3.0
  1
Panasonic　WN3020SW
 41
0.5277777777777778
 11
348.4232312246689
 21
222.6891739863306
 31
0.0
100
AcDbText
 73
     1
  0
TEXT
  5
258
330
A
100
AcDbEntity
  8
15
  6
PHANTOM
 62
    96
370
     9
100
AcDbText
 10
348.5503573904397
 20
228.5514143441924
 30
0.0
 40
3.0
  1
Panasonic　WN7801K
 41
0.5294117647058824
 11
348.5503573904397
 21
228.1514143441924
 31
0.0
100
AcDbText
 73
     1
  0
TEXT
  5
259
330
A
100
AcDbEntity
  8
15
  6
Continuous
 62
    96
370
     9
100
AcDbText
 10
322.8946092605719
 20
212.1013888888889
 30
0.0
 40
3.0
  1
※１個用スイッチボックスに取付可能
 41
1.133332999999999
 11
322.8946092605719
 21
211.7013888888889
 31
0.0
100
AcDbText
 73
     1
  0
ENDSEC
  0
SECTION
  2
OBJECTS
  0
DICTIONARY
  5
19
330
0
100
AcDbDictionary
281
     1
  3
ACAD_CIP_PREVIOUS_PRODUCT_INFO
350
2AB
  3
ACAD_COLOR
350
28D
  3
ACAD_DETAILVIEWSTYLE
350
2A6
  3
ACAD_GROUP
350
1A
  3
ACAD_LAYOUT
350
1E
  3
ACAD_MATERIAL
350
25B
  3
ACAD_MLEADERSTYLE
350
2A2
  3
ACAD_MLINESTYLE
350
1B
  3
ACAD_PLOTSETTINGS
350
22
  3
ACAD_PLOTSTYLENAME
350
1F
  3
ACAD_SCALELIST
350
290
  3
ACAD_SECTIONVIEWSTYLE
350
2A4
  3
ACAD_TABLESTYLE
350
28E
  3
ACAD_VISUALSTYLE
350
274
  3
ACAD_WIPEOUT_VARS
350
23
  3
ACDB_RECOMPOSE_DATA
350
56D
  3
AcDbVariableDictionary
350
561
  3
AcDsDecomposeData
350
574
  3
DWGPROPS
350
56E
  0
DICTIONARY
  5
54B
330
2
100
AcDbDictionary
280
     1
281
     1
  3
ACAD_LAYERSTATES
360
54C
  0
DICTIONARY
  5
4B4
330
14
100
AcDbDictionary
280
     1
281
     1
  3
ADSK_XREC_LAYER_RECONCILED
360
4B5
  0
DICTIONARY
  5
4B6
330
2B
100
AcDbDictionary
280
     1
281
     1
  3
ADSK_XREC_LAYER_RECONCILED
360
4B7
  0
DICTIONARY
  5
4B8
330
2C
100
AcDbDictionary
280
     1
281
     1
  3
ADSK_XREC_LAYER_RECONCILED
360
4B9
  0
DICTIONARY
  5
4BA
330
2D
100
AcDbDictionary
280
     1
281
     1
  3
ADSK_XREC_LAYER_RECONCILED
360
4BB
  0
DICTIONARY
  5
4BC
330
2E
100
AcDbDictionary
280
     1
281
     1
  3
ADSK_XREC_LAYER_RECONCILED
360
4BD
  0
DICTIONARY
  5
4BE
330
2F
100
AcDbDictionary
280
     1
281
     1
  3
ADSK_XREC_LAYER_RECONCILED
360
4BF
  0
DICTIONARY
  5
4C0
330
30
100
AcDbDictionary
280
     1
281
     1
  3
ADSK_XREC_LAYER_RECONCILED
360
4C1
  0
DICTIONARY
  5
4C2
330
31
100
AcDbDictionary
280
     1
281
     1
  3
ADSK_XREC_LAYER_RECONCILED
360
4C3
  0
DICTIONARY
  5
4C4
330
32
100
AcDbDictionary
280
     1
281
     1
  3
ADSK_XREC_LAYER_RECONCILED
360
4C5
  0
DICTIONARY
  5
4C6
330
33
100
AcDbDictionary
280
     1
281
     1
  3
ADSK_XREC_LAYER_RECONCILED
360
4C7
  0
DICTIONARY
  5
4C8
330
34
100
AcDbDictionary
280
     1
281
     1
  3
ADSK_XREC_LAYER_RECONCILED
360
4C9
  0
DICTIONARY
  5
4CA
330
35
100
AcDbDictionary
280
     1
281
     1
  3
ADSK_XREC_LAYER_RECONCILED
360
4CB
  0
DICTIONARY
  5
4CC
330
36
100
AcDbDictionary
280
     1
281
     1
  3
ADSK_XREC_LAYER_RECONCILED
360
4CD
  0
DICTIONARY
  5
4CE
330
37
100
AcDbDictionary
280
     1
281
     1
  3
ADSK_XREC_LAYER_RECONCILED
360
4CF
  0
DICTIONARY
  5
4D0
330
38
100
AcDbDictionary
280
     1
281
     1
  3
ADSK_XREC_LAYER_RECONCILED
360
4D1
  0
DICTIONARY
  5
4D2
330
39
100
AcDbDictionary
280
     1
281
     1
  3
ADSK_XREC_LAYER_RECONCILED
360
4D3
  0
DICTIONARY
  5
4D4
330
3A
100
AcDbDictionary
280
     1
281
     1
  3
ADSK_XREC_LAYER_RECONCILED
360
4D5
  0
DICTIONARY
  5
4D6
330
3B
100
AcDbDictionary
280
     1
281
     1
  3
ADSK_XREC_LAYER_RECONCILED
360
4D7
  0
DICTIONARY
  5
4D8
330
3C
100
AcDbDictionary
280
     1
281
     1
  3
ADSK_XREC_LAYER_RECONCILED
360
4D9
  0
DICTIONARY
  5
4DA
330
3D
100
AcDbDictionary
280
     1
281
     1
  3
ADSK_XREC_LAYER_RECONCILED
360
4DB
  0
DICTIONARY
  5
4DC
330
3E
100
AcDbDictionary
280
     1
281
     1
  3
ADSK_XREC_LAYER_RECONCILED
360
4DD
  0
DICTIONARY
  5
4DE
330
3F
100
AcDbDictionary
280
     1
281
     1
  3
ADSK_XREC_LAYER_RECONCILED
360
4DF
  0
DICTIONARY
  5
4E0
330
40
100
AcDbDictionary
280
     1
281
     1
  3
ADSK_XREC_LAYER_RECONCILED
360
4E1
  0
DICTIONARY
  5
4E2
330
41
100
AcDbDictionary
280
     1
281
     1
  3
ADSK_XREC_LAYER_RECONCILED
360
4E3
  0
DICTIONARY
  5
4E4
330
42
100
AcDbDictionary
280
     1
281
     1
  3
ADSK_XREC_LAYER_RECONCILED
360
4E5
  0
DICTIONARY
  5
4E6
330
43
100
AcDbDictionary
280
     1
281
     1
  3
ADSK_XREC_LAYER_RECONCILED
360
4E7
  0
DICTIONARY
  5
4E8
330
44
100
AcDbDictionary
280
     1
281
     1
  3
ADSK_XREC_LAYER_RECONCILED
360
4E9
  0
DICTIONARY
  5
4EA
330
45
100
AcDbDictionary
280
     1
281
     1
  3
ADSK_XREC_LAYER_RECONCILED
360
4EB
  0
DICTIONARY
  5
4EC
330
46
100
AcDbDictionary
280
     1
281
     1
  3
ADSK_XREC_LAYER_RECONCILED
360
4ED
  0
DICTIONARY
  5
4EE
330
47
100
AcDbDictionary
280
     1
281
     1
  3
ADSK_XREC_LAYER_RECONCILED
360
4EF
  0
DICTIONARY
  5
4F0
330
48
100
AcDbDictionary
280
     1
281
     1
  3
ADSK_XREC_LAYER_RECONCILED
360
4F1
  0
DICTIONARY
  5
4F2
330
49
100
AcDbDictionary
280
     1
281
     1
  3
ADSK_XREC_LAYER_RECONCILED
360
4F3
  0
DICTIONARY
  5
4F4
330
4A
100
AcDbDictionary
280
     1
281
     1
  3
ADSK_XREC_LAYER_RECONCILED
360
4F5
  0
DICTIONARY
  5
4F6
330
4B
100
AcDbDictionary
280
     1
281
     1
  3
ADSK_XREC_LAYER_RECONCILED
360
4F7
  0
DICTIONARY
  5
4F8
330
4C
100
AcDbDictionary
280
     1
281
     1
  3
ADSK_XREC_LAYER_RECONCILED
360
4F9
  0
DICTIONARY
  5
4FA
330
4D
100
AcDbDictionary
280
     1
281
     1
  3
ADSK_XREC_LAYER_RECONCILED
360
4FB
  0
DICTIONARY
  5
4FC
330
4E
100
AcDbDictionary
280
     1
281
     1
  3
ADSK_XREC_LAYER_RECONCILED
360
4FD
  0
DICTIONARY
  5
4FE
330
4F
100
AcDbDictionary
280
     1
281
     1
  3
ADSK_XREC_LAYER_RECONCILED
360
4FF
  0
DICTIONARY
  5
500
330
50
100
AcDbDictionary
280
     1
281
     1
  3
ADSK_XREC_LAYER_RECONCILED
360
501
  0
DICTIONARY
  5
502
330
51
100
AcDbDictionary
280
     1
281
     1
  3
ADSK_XREC_LAYER_RECONCILED
360
503
  0
DICTIONARY
  5
504
330
52
100
AcDbDictionary
280
     1
281
     1
  3
ADSK_XREC_LAYER_RECONCILED
360
505
  0
DICTIONARY
  5
506
330
53
100
AcDbDictionary
280
     1
281
     1
  3
ADSK_XREC_LAYER_RECONCILED
360
507
  0
DICTIONARY
  5
508
330
54
100
AcDbDictionary
280
     1
281
     1
  3
ADSK_XREC_LAYER_RECONCILED
360
509
  0
DICTIONARY
  5
50A
330
55
100
AcDbDictionary
280
     1
281
     1
  3
ADSK_XREC_LAYER_RECONCILED
360
50B
  0
DICTIONARY
  5
50C
330
56
100
AcDbDictionary
280
     1
281
     1
  3
ADSK_XREC_LAYER_RECONCILED
360
50D
  0
DICTIONARY
  5
50E
330
57
100
AcDbDictionary
280
     1
281
     1
  3
ADSK_XREC_LAYER_RECONCILED
360
50F
  0
DICTIONARY
  5
510
330
58
100
AcDbDictionary
280
     1
281
     1
  3
ADSK_XREC_LAYER_RECONCILED
360
511
  0
DICTIONARY
  5
512
330
59
100
AcDbDictionary
280
     1
281
     1
  3
ADSK_XREC_LAYER_RECONCILED
360
513
  0
DICTIONARY
  5
514
330
5A
100
AcDbDictionary
280
     1
281
     1
  3
ADSK_XREC_LAYER_RECONCILED
360
515
  0
DICTIONARY
  5
516
330
5B
100
AcDbDictionary
280
     1
281
     1
  3
ADSK_XREC_LAYER_RECONCILED
360
517
  0
DICTIONARY
  5
518
330
5C
100
AcDbDictionary
280
     1
281
     1
  3
ADSK_XREC_LAYER_RECONCILED
360
519
  0
DICTIONARY
  5
51A
330
5D
100
AcDbDictionary
280
     1
281
     1
  3
ADSK_XREC_LAYER_RECONCILED
360
51B
  0
DICTIONARY
  5
51C
330
5E
100
AcDbDictionary
280
     1
281
     1
  3
ADSK_XREC_LAYER_RECONCILED
360
51D
  0
DICTIONARY
  5
51E
330
5F
100
AcDbDictionary
280
     1
281
     1
  3
ADSK_XREC_LAYER_RECONCILED
360
51F
  0
DICTIONARY
  5
520
330
60
100
AcDbDictionary
280
     1
281
     1
  3
ADSK_XREC_LAYER_RECONCILED
360
521
  0
DICTIONARY
  5
522
330
61
100
AcDbDictionary
280
     1
281
     1
  3
ADSK_XREC_LAYER_RECONCILED
360
523
  0
DICTIONARY
  5
524
330
62
100
AcDbDictionary
280
     1
281
     1
  3
ADSK_XREC_LAYER_RECONCILED
360
525
  0
DICTIONARY
  5
526
330
63
100
AcDbDictionary
280
     1
281
     1
  3
ADSK_XREC_LAYER_RECONCILED
360
527
  0
DICTIONARY
  5
528
330
64
100
AcDbDictionary
280
     1
281
     1
  3
ADSK_XREC_LAYER_RECONCILED
360
529
  0
DICTIONARY
  5
52A
330
65
100
AcDbDictionary
280
     1
281
     1
  3
ADSK_XREC_LAYER_RECONCILED
360
52B
  0
DICTIONARY
  5
52C
330
66
100
AcDbDictionary
280
     1
281
     1
  3
ADSK_XREC_LAYER_RECONCILED
360
52D
  0
DICTIONARY
  5
52E
330
67
100
AcDbDictionary
280
     1
281
     1
  3
ADSK_XREC_LAYER_RECONCILED
360
52F
  0
DICTIONARY
  5
530
330
68
100
AcDbDictionary
280
     1
281
     1
  3
ADSK_XREC_LAYER_RECONCILED
360
531
  0
DICTIONARY
  5
532
330
69
100
AcDbDictionary
280
     1
281
     1
  3
ADSK_XREC_LAYER_RECONCILED
360
533
  0
DICTIONARY
  5
534
330
6A
100
AcDbDictionary
280
     1
281
     1
  3
ADSK_XREC_LAYER_RECONCILED
360
535
  0
DICTIONARY
  5
536
330
6B
100
AcDbDictionary
280
     1
281
     1
  3
ADSK_XREC_LAYER_RECONCILED
360
537
  0
DICTIONARY
  5
538
330
6C
100
AcDbDictionary
280
     1
281
     1
  3
ADSK_XREC_LAYER_RECONCILED
360
539
  0
DICTIONARY
  5
53A
330
6D
100
AcDbDictionary
280
     1
281
     1
  3
ADSK_XREC_LAYER_RECONCILED
360
53B
  0
DICTIONARY
  5
53C
330
6E
100
AcDbDictionary
280
     1
281
     1
  3
ADSK_XREC_LAYER_RECONCILED
360
53D
  0
DICTIONARY
  5
53E
330
6F
100
AcDbDictionary
280
     1
281
     1
  3
ADSK_XREC_LAYER_RECONCILED
360
53F
  0
DICTIONARY
  5
540
330
70
100
AcDbDictionary
280
     1
281
     1
  3
ADSK_XREC_LAYER_RECONCILED
360
541
  0
DICTIONARY
  5
542
330
71
100
AcDbDictionary
280
     1
281
     1
  3
ADSK_XREC_LAYER_RECONCILED
360
543
  0
DICTIONARY
  5
544
330
72
100
AcDbDictionary
280
     1
281
     1
  3
ADSK_XREC_LAYER_RECONCILED
360
545
  0
DICTIONARY
  5
546
330
73
100
AcDbDictionary
280
     1
281
     1
  3
ADSK_XREC_LAYER_RECONCILED
360
547
  0
XRECORD
  5
2AB
102
{ACAD_REACTORS
330
19
102
}
330
19
100
AcDbXrecord
280
     1
300
ACDLT
300
2015
300
ACDLT_F_S
  0
DICTIONARY
  5
28D
102
{ACAD_REACTORS
330
19
102
}
330
19
100
AcDbDictionary
281
     1
  0
DICTIONARY
  5
2A6
102
{ACAD_REACTORS
330
19
102
}
330
19
100
AcDbDictionary
281
     1
  3
Imperial24
350
2A7
  0
DICTIONARY
  5
1A
102
{ACAD_REACTORS
330
19
102
}
330
19
100
AcDbDictionary
281
     1
  0
DICTIONARY
  5
1E
102
{ACAD_REACTORS
330
19
102
}
330
19
100
AcDbDictionary
281
     1
  3
Layout1
350
21
  3
Model
350
20
  0
DICTIONARY
  5
25B
102
{ACAD_REACTORS
330
19
102
}
330
19
100
AcDbDictionary
281
     1
  3
ByBlock
350
264
  3
ByLayer
350
25C
  3
Global
350
26C
  0
DICTIONARY
  5
2A2
102
{ACAD_REACTORS
330
19
102
}
330
19
100
AcDbDictionary
281
     1
  3
Standard
350
2A3
  0
DICTIONARY
  5
1B
102
{ACAD_REACTORS
330
19
102
}
330
19
100
AcDbDictionary
281
     1
  3
Standard
350
1C
  0
DICTIONARY
  5
22
102
{ACAD_REACTORS
330
19
102
}
330
19
100
AcDbDictionary
281
     1
  0
ACDBDICTIONARYWDFLT
  5
1F
102
{ACAD_REACTORS
330
19
102
}
330
19
100
AcDbDictionary
281
     1
  3
Normal
350
1D
100
AcDbDictionaryWithDefault
340
1D
  0
DICTIONARY
  5
290
102
{ACAD_REACTORS
330
19
102
}
330
19
100
AcDbDictionary
281
     1
  3
A0
350
291
  3
A1
350
292
  3
A2
350
293
  3
A3
350
294
  3
A4
350
295
  3
A5
350
296
  3
A6
350
297
  3
A7
350
298
  3
A8
350
299
  3
A9
350
29A
  3
B0
350
29B
  3
B1
350
29C
  3
B2
350
29D
  3
B3
350
29E
  3
B4
350
29F
  3
B5
350
2A0
  3
B6
350
2A1
  0
DICTIONARY
  5
2A4
102
{ACAD_REACTORS
330
19
102
}
330
19
100
AcDbDictionary
281
     1
  3
Imperial24
350
2A5
  0
DICTIONARY
  5
28E
102
{ACAD_REACTORS
330
19
102
}
330
19
100
AcDbDictionary
281
     1
  3
Standard
350
28F
  0
DICTIONARY
  5
274
102
{ACAD_REACTORS
330
19
102
}
330
19
100
AcDbDictionary
281
     1
  3
2dWireframe
350
27A
  3
Basic
350
279
  3
Brighten
350
280
  3
ColorChange
350
284
  3
Conceptual
350
27D
  3
Dim
350
27F
  3
EdgeColorOff
350
28C
  3
Facepattern
350
283
  3
Flat
350
275
  3
FlatWithEdges
350
276
  3
Gouraud
350
277
  3
GouraudWithEdges
350
278
  3
Hidden
350
27C
  3
JitterOff
350
28A
  3
Linepattern
350
282
  3
OverhangOff
350
28B
  3
Realistic
350
27E
  3
Shaded
350
289
  3
Shaded with edges
350
288
  3
Shades of Gray
350
285
  3
Sketchy
350
286
  3
Thicken
350
281
  3
Wireframe
350
27B
  3
X-Ray
350
287
  0
WIPEOUTVARIABLES
  5
23
330
19
100
AcDbWipeoutVariables
 70
     1
  0
XRECORD
  5
56D
102
{ACAD_REACTORS
330
19
102
}
330
19
100
AcDbXrecord
280
     1
 90
        1
330
28F
  0
DICTIONARY
  5
561
102
{ACAD_REACTORS
330
19
102
}
330
19
100
AcDbDictionary
281
     1
  3
CANNOSCALE
350
566
  3
CMLEADERSTYLE
350
563
  3
CTABLESTYLE
350
562
  3
CVIEWDETAILSTYLE
350
564
  3
CVIEWSECTIONSTYLE
350
565
  3
DIMASSOC
350
569
  3
INDEXCTL
350
568
  3
SORTENTS
350
567
  3
XCLIPFRAME
350
56A
  0
DICTIONARY
  5
574
102
{ACAD_REACTORS
330
19
102
}
330
19
100
AcDbDictionary
281
     1
  3
AcDsRecords
350
576
  3
AcDsSchemas
350
575
1001
ACAD
1070
     2
  0
XRECORD
  5
56E
102
{ACAD_REACTORS
330
19
102
}
330
19
100
AcDbXrecord
280
     1
  1
DWGPROPS COOKIE
  2

  3

  4

  6

  7

  8
shimabukurom
  9

300
=
301
=
302
=
303
=
304
=
305
=
306
=
307
=
308
=
309
=
 40
0.0007427083333333
 41
2458422.97693287
 42
2458422.602753102
  1

 90
        0
  0
DICTIONARY
  5
54C
102
{ACAD_REACTORS
330
54B
102
}
330
54B
100
AcDbDictionary
281
     1
  0
XRECORD
  5
4B5
102
{ACAD_REACTORS
330
4B4
102
}
330
4B4
100
AcDbXrecord
280
     1
290
     1
  0
XRECORD
  5
4B7
102
{ACAD_REACTORS
330
4B6
102
}
330
4B6
100
AcDbXrecord
280
     1
290
     1
  0
XRECORD
  5
4B9
102
{ACAD_REACTORS
330
4B8
102
}
330
4B8
100
AcDbXrecord
280
     1
290
     1
  0
XRECORD
  5
4BB
102
{ACAD_REACTORS
330
4BA
102
}
330
4BA
100
AcDbXrecord
280
     1
290
     1
  0
XRECORD
  5
4BD
102
{ACAD_REACTORS
330
4BC
102
}
330
4BC
100
AcDbXrecord
280
     1
290
     1
  0
XRECORD
  5
4BF
102
{ACAD_REACTORS
330
4BE
102
}
330
4BE
100
AcDbXrecord
280
     1
290
     1
  0
XRECORD
  5
4C1
102
{ACAD_REACTORS
330
4C0
102
}
330
4C0
100
AcDbXrecord
280
     1
290
     1
  0
XRECORD
  5
4C3
102
{ACAD_REACTORS
330
4C2
102
}
330
4C2
100
AcDbXrecord
280
     1
290
     1
  0
XRECORD
  5
4C5
102
{ACAD_REACTORS
330
4C4
102
}
330
4C4
100
AcDbXrecord
280
     1
290
     1
  0
XRECORD
  5
4C7
102
{ACAD_REACTORS
330
4C6
102
}
330
4C6
100
AcDbXrecord
280
     1
290
     1
  0
XRECORD
  5
4C9
102
{ACAD_REACTORS
330
4C8
102
}
330
4C8
100
AcDbXrecord
280
     1
290
     1
  0
XRECORD
  5
4CB
102
{ACAD_REACTORS
330
4CA
102
}
330
4CA
100
AcDbXrecord
280
     1
290
     1
  0
XRECORD
  5
4CD
102
{ACAD_REACTORS
330
4CC
102
}
330
4CC
100
AcDbXrecord
280
     1
290
     1
  0
XRECORD
  5
4CF
102
{ACAD_REACTORS
330
4CE
102
}
330
4CE
100
AcDbXrecord
280
     1
290
     1
  0
XRECORD
  5
4D1
102
{ACAD_REACTORS
330
4D0
102
}
330
4D0
100
AcDbXrecord
280
     1
290
     1
  0
XRECORD
  5
4D3
102
{ACAD_REACTORS
330
4D2
102
}
330
4D2
100
AcDbXrecord
280
     1
290
     1
  0
XRECORD
  5
4D5
102
{ACAD_REACTORS
330
4D4
102
}
330
4D4
100
AcDbXrecord
280
     1
290
     1
  0
XRECORD
  5
4D7
102
{ACAD_REACTORS
330
4D6
102
}
330
4D6
100
AcDbXrecord
280
     1
290
     1
  0
XRECORD
  5
4D9
102
{ACAD_REACTORS
330
4D8
102
}
330
4D8
100
AcDbXrecord
280
     1
290
     1
  0
XRECORD
  5
4DB
102
{ACAD_REACTORS
330
4DA
102
}
330
4DA
100
AcDbXrecord
280
     1
290
     1
  0
XRECORD
  5
4DD
102
{ACAD_REACTORS
330
4DC
102
}
330
4DC
100
AcDbXrecord
280
     1
290
     1
  0
XRECORD
  5
4DF
102
{ACAD_REACTORS
330
4DE
102
}
330
4DE
100
AcDbXrecord
280
     1
290
     1
  0
XRECORD
  5
4E1
102
{ACAD_REACTORS
330
4E0
102
}
330
4E0
100
AcDbXrecord
280
     1
290
     1
  0
XRECORD
  5
4E3
102
{ACAD_REACTORS
330
4E2
102
}
330
4E2
100
AcDbXrecord
280
     1
290
     1
  0
XRECORD
  5
4E5
102
{ACAD_REACTORS
330
4E4
102
}
330
4E4
100
AcDbXrecord
280
     1
290
     1
  0
XRECORD
  5
4E7
102
{ACAD_REACTORS
330
4E6
102
}
330
4E6
100
AcDbXrecord
280
     1
290
     1
  0
XRECORD
  5
4E9
102
{ACAD_REACTORS
330
4E8
102
}
330
4E8
100
AcDbXrecord
280
     1
290
     1
  0
XRECORD
  5
4EB
102
{ACAD_REACTORS
330
4EA
102
}
330
4EA
100
AcDbXrecord
280
     1
290
     1
  0
XRECORD
  5
4ED
102
{ACAD_REACTORS
330
4EC
102
}
330
4EC
100
AcDbXrecord
280
     1
290
     1
  0
XRECORD
  5
4EF
102
{ACAD_REACTORS
330
4EE
102
}
330
4EE
100
AcDbXrecord
280
     1
290
     1
  0
XRECORD
  5
4F1
102
{ACAD_REACTORS
330
4F0
102
}
330
4F0
100
AcDbXrecord
280
     1
290
     1
  0
XRECORD
  5
4F3
102
{ACAD_REACTORS
330
4F2
102
}
330
4F2
100
AcDbXrecord
280
     1
290
     1
  0
XRECORD
  5
4F5
102
{ACAD_REACTORS
330
4F4
102
}
330
4F4
100
AcDbXrecord
280
     1
290
     1
  0
XRECORD
  5
4F7
102
{ACAD_REACTORS
330
4F6
102
}
330
4F6
100
AcDbXrecord
280
     1
290
     1
  0
XRECORD
  5
4F9
102
{ACAD_REACTORS
330
4F8
102
}
330
4F8
100
AcDbXrecord
280
     1
290
     1
  0
XRECORD
  5
4FB
102
{ACAD_REACTORS
330
4FA
102
}
330
4FA
100
AcDbXrecord
280
     1
290
     1
  0
XRECORD
  5
4FD
102
{ACAD_REACTORS
330
4FC
102
}
330
4FC
100
AcDbXrecord
280
     1
290
     1
  0
XRECORD
  5
4FF
102
{ACAD_REACTORS
330
4FE
102
}
330
4FE
100
AcDbXrecord
280
     1
290
     1
  0
XRECORD
  5
501
102
{ACAD_REACTORS
330
500
102
}
330
500
100
AcDbXrecord
280
     1
290
     1
  0
XRECORD
  5
503
102
{ACAD_REACTORS
330
502
102
}
330
502
100
AcDbXrecord
280
     1
290
     1
  0
XRECORD
  5
505
102
{ACAD_REACTORS
330
504
102
}
330
504
100
AcDbXrecord
280
     1
290
     1
  0
XRECORD
  5
507
102
{ACAD_REACTORS
330
506
102
}
330
506
100
AcDbXrecord
280
     1
290
     1
  0
XRECORD
  5
509
102
{ACAD_REACTORS
330
508
102
}
330
508
100
AcDbXrecord
280
     1
290
     1
  0
XRECORD
  5
50B
102
{ACAD_REACTORS
330
50A
102
}
330
50A
100
AcDbXrecord
280
     1
290
     1
  0
XRECORD
  5
50D
102
{ACAD_REACTORS
330
50C
102
}
330
50C
100
AcDbXrecord
280
     1
290
     1
  0
XRECORD
  5
50F
102
{ACAD_REACTORS
330
50E
102
}
330
50E
100
AcDbXrecord
280
     1
290
     1
  0
XRECORD
  5
511
102
{ACAD_REACTORS
330
510
102
}
330
510
100
AcDbXrecord
280
     1
290
     1
  0
XRECORD
  5
513
102
{ACAD_REACTORS
330
512
102
}
330
512
100
AcDbXrecord
280
     1
290
     1
  0
XRECORD
  5
515
102
{ACAD_REACTORS
330
514
102
}
330
514
100
AcDbXrecord
280
     1
290
     1
  0
XRECORD
  5
517
102
{ACAD_REACTORS
330
516
102
}
330
516
100
AcDbXrecord
280
     1
290
     1
  0
XRECORD
  5
519
102
{ACAD_REACTORS
330
518
102
}
330
518
100
AcDbXrecord
280
     1
290
     1
  0
XRECORD
  5
51B
102
{ACAD_REACTORS
330
51A
102
}
330
51A
100
AcDbXrecord
280
     1
290
     1
  0
XRECORD
  5
51D
102
{ACAD_REACTORS
330
51C
102
}
330
51C
100
AcDbXrecord
280
     1
290
     1
  0
XRECORD
  5
51F
102
{ACAD_REACTORS
330
51E
102
}
330
51E
100
AcDbXrecord
280
     1
290
     1
  0
XRECORD
  5
521
102
{ACAD_REACTORS
330
520
102
}
330
520
100
AcDbXrecord
280
     1
290
     1
  0
XRECORD
  5
523
102
{ACAD_REACTORS
330
522
102
}
330
522
100
AcDbXrecord
280
     1
290
     1
  0
XRECORD
  5
525
102
{ACAD_REACTORS
330
524
102
}
330
524
100
AcDbXrecord
280
     1
290
     1
  0
XRECORD
  5
527
102
{ACAD_REACTORS
330
526
102
}
330
526
100
AcDbXrecord
280
     1
290
     1
  0
XRECORD
  5
529
102
{ACAD_REACTORS
330
528
102
}
330
528
100
AcDbXrecord
280
     1
290
     1
  0
XRECORD
  5
52B
102
{ACAD_REACTORS
330
52A
102
}
330
52A
100
AcDbXrecord
280
     1
290
     1
  0
XRECORD
  5
52D
102
{ACAD_REACTORS
330
52C
102
}
330
52C
100
AcDbXrecord
280
     1
290
     1
  0
XRECORD
  5
52F
102
{ACAD_REACTORS
330
52E
102
}
330
52E
100
AcDbXrecord
280
     1
290
     1
  0
XRECORD
  5
531
102
{ACAD_REACTORS
330
530
102
}
330
530
100
AcDbXrecord
280
     1
290
     1
  0
XRECORD
  5
533
102
{ACAD_REACTORS
330
532
102
}
330
532
100
AcDbXrecord
280
     1
290
     1
  0
XRECORD
  5
535
102
{ACAD_REACTORS
330
534
102
}
330
534
100
AcDbXrecord
280
     1
290
     1
  0
XRECORD
  5
537
102
{ACAD_REACTORS
330
536
102
}
330
536
100
AcDbXrecord
280
     1
290
     1
  0
XRECORD
  5
539
102
{ACAD_REACTORS
330
538
102
}
330
538
100
AcDbXrecord
280
     1
290
     1
  0
XRECORD
  5
53B
102
{ACAD_REACTORS
330
53A
102
}
330
53A
100
AcDbXrecord
280
     1
290
     1
  0
XRECORD
  5
53D
102
{ACAD_REACTORS
330
53C
102
}
330
53C
100
AcDbXrecord
280
     1
290
     1
  0
XRECORD
  5
53F
102
{ACAD_REACTORS
330
53E
102
}
330
53E
100
AcDbXrecord
280
     1
290
     1
  0
XRECORD
  5
541
102
{ACAD_REACTORS
330
540
102
}
330
540
100
AcDbXrecord
280
     1
290
     1
  0
XRECORD
  5
543
102
{ACAD_REACTORS
330
542
102
}
330
542
100
AcDbXrecord
280
     1
290
     1
  0
XRECORD
  5
545
102
{ACAD_REACTORS
330
544
102
}
330
544
100
AcDbXrecord
280
     1
290
     1
  0
XRECORD
  5
547
102
{ACAD_REACTORS
330
546
102
}
330
546
100
AcDbXrecord
280
     1
290
     1
  0
ACDBDETAILVIEWSTYLE
  5
2A7
102
{ACAD_XDICTIONARY
360
5B4
102
}
102
{ACAD_REACTORS
330
2A6
102
}
330
2A6
100
AcDbModelDocViewStyle
 70
     0
  3
Imperial24
290
     0
100
AcDbDetailViewStyle
 70
     0
 71
     0
 90
        3
 71
     1
340
17
 40
0.24
340
0
 40
0.24
300

 40
0.36
280
     3
 71
     2
340
13
 90
       25
 71
     3
340
17
 40
0.24
 90
        1
 40
0.75
 90
        1
300
%<\AcVar ViewType \f "%tc1">% %<\AcVar ViewDetailId>%\PSCALE %<\AcVar ViewScale \f "%sn">%
 71
     4
340
13
 90
       25
340
13
 90
       25
280
     0
  0
LAYOUT
  5
21
102
{ACAD_XDICTIONARY
360
579
102
}
102
{ACAD_REACTORS
330
1E
102
}
330
1E
100
AcDbPlotSettings
  1

  2

  4

  6

 40
0.0
 41
0.0
 42
0.0
 43
0.0
 44
0.0
 45
0.0
 46
0.0
 47
0.0
 48
0.0
 49
0.0
140
0.0
141
0.0
142
1.0
143
1.0
 70
     0
 72
     0
 73
     0
 74
     0
  7

 75
     0
147
1.0
148
0.0
149
0.0
100
AcDbLayout
  1
Layout1
 70
     0
 71
     1
 10
0.0
 20
0.0
 11
420.0
 21
297.0
 12
0.0
 22
0.0
 32
0.0
 14
0.0
 24
0.0
 34
0.0
 15
420.0
 25
297.0
 35
0.0
146
0.0
 13
0.0
 23
0.0
 33
0.0
 16
1.0
 26
0.0
 36
0.0
 17
0.0
 27
1.0
 37
0.0
 76
     0
330
B
  0
LAYOUT
  5
20
102
{ACAD_XDICTIONARY
360
577
102
}
102
{ACAD_REACTORS
330
1E
102
}
330
1E
100
AcDbPlotSettings
  1

  2

  4

  6

 40
0.0
 41
0.0
 42
0.0
 43
0.0
 44
0.0
 45
0.0
 46
0.0
 47
0.0
 48
0.0
 49
0.0
140
0.0
141
0.0
142
1.0
143
1.0
 70
  1024
 72
     0
 73
     0
 74
     0
  7

 75
     0
147
1.0
148
0.0
149
0.0
100
AcDbLayout
  1
Model
 70
     0
 71
     0
 10
0.0
 20
0.0
 11
0.0
 21
0.0
 12
0.0
 22
0.0
 32
0.0
 14
0.0
 24
0.0
 34
0.0
 15
0.0
 25
0.0
 35
0.0
146
0.0
 13
0.0
 23
0.0
 33
0.0
 16
0.0
 26
0.0
 36
0.0
 17
0.0
 27
0.0
 37
0.0
 76
     0
330
A
331
15
  0
MATERIAL
  5
264
102
{ACAD_XDICTIONARY
360
265
102
}
102
{ACAD_REACTORS
330
25B
102
}
330
25B
100
AcDbMaterial
  1
ByBlock
 72
     0
 43
0.0208333333333333
 43
0.0
 43
0.0
 43
0.0
 43
0.0
 43
0.0208333333333333
 43
0.0
 43
0.0
 43
0.0
 43
0.0
 43
1.0
 43
0.0
 43
0.0
 43
0.0
 43
0.0
 43
1.0
 77
     0
 47
0.0208333333333333
 47
0.0
 47
0.0
 47
0.0
 47
0.0
 47
0.0208333333333333
 47
0.0
 47
0.0
 47
0.0
 47
0.0
 47
1.0
 47
0.0
 47
0.0
 47
0.0
 47
0.0
 47
1.0
171
     0
 49
0.0208333333333333
 49
0.0
 49
0.0
 49
0.0
 49
0.0
 49
0.0208333333333333
 49
0.0
 49
0.0
 49
0.0
 49
0.0
 49
1.0
 49
0.0
 49
0.0
 49
0.0
 49
0.0
 49
1.0
175
     0
142
0.0208333333333333
142
0.0
142
0.0
142
0.0
142
0.0
142
0.0208333333333333
142
0.0
142
0.0
142
0.0
142
0.0
142
1.0
142
0.0
142
0.0
142
0.0
142
0.0
142
1.0
179
     0
144
0.0208333333333333
144
0.0
144
0.0
144
0.0
144
0.0
144
0.0208333333333333
144
0.0
144
0.0
144
0.0
144
0.0
144
1.0
144
0.0
144
0.0
144
0.0
144
0.0
144
1.0
147
0.0208333333333333
147
0.0
147
0.0
147
0.0
147
0.0
147
0.0208333333333333
147
0.0
147
0.0
147
0.0
147
0.0
147
1.0
147
0.0
147
0.0
147
0.0
147
0.0
147
1.0
  0
MATERIAL
  5
25C
102
{ACAD_XDICTIONARY
360
25D
102
}
102
{ACAD_REACTORS
330
25B
102
}
330
25B
100
AcDbMaterial
  1
ByLayer
 72
     0
 43
0.0208333333333333
 43
0.0
 43
0.0
 43
0.0
 43
0.0
 43
0.0208333333333333
 43
0.0
 43
0.0
 43
0.0
 43
0.0
 43
1.0
 43
0.0
 43
0.0
 43
0.0
 43
0.0
 43
1.0
 77
     0
 47
0.0208333333333333
 47
0.0
 47
0.0
 47
0.0
 47
0.0
 47
0.0208333333333333
 47
0.0
 47
0.0
 47
0.0
 47
0.0
 47
1.0
 47
0.0
 47
0.0
 47
0.0
 47
0.0
 47
1.0
171
     0
 49
0.0208333333333333
 49
0.0
 49
0.0
 49
0.0
 49
0.0
 49
0.0208333333333333
 49
0.0
 49
0.0
 49
0.0
 49
0.0
 49
1.0
 49
0.0
 49
0.0
 49
0.0
 49
0.0
 49
1.0
175
     0
142
0.0208333333333333
142
0.0
142
0.0
142
0.0
142
0.0
142
0.0208333333333333
142
0.0
142
0.0
142
0.0
142
0.0
142
1.0
142
0.0
142
0.0
142
0.0
142
0.0
142
1.0
179
     0
144
0.0208333333333333
144
0.0
144
0.0
144
0.0
144
0.0
144
0.0208333333333333
144
0.0
144
0.0
144
0.0
144
0.0
144
1.0
144
0.0
144
0.0
144
0.0
144
0.0
144
1.0
147
0.0208333333333333
147
0.0
147
0.0
147
0.0
147
0.0
147
0.0208333333333333
147
0.0
147
0.0
147
0.0
147
0.0
147
1.0
147
0.0
147
0.0
147
0.0
147
0.0
147
1.0
  0
MATERIAL
  5
26C
102
{ACAD_XDICTIONARY
360
26D
102
}
102
{ACAD_REACTORS
330
25B
102
}
330
25B
100
AcDbMaterial
  1
Global
 72
     0
 43
0.0208333333333333
 43
0.0
 43
0.0
 43
0.0
 43
0.0
 43
0.0208333333333333
 43
0.0
 43
0.0
 43
0.0
 43
0.0
 43
1.0
 43
0.0
 43
0.0
 43
0.0
 43
0.0
 43
1.0
 77
     0
 47
0.0208333333333333
 47
0.0
 47
0.0
 47
0.0
 47
0.0
 47
0.0208333333333333
 47
0.0
 47
0.0
 47
0.0
 47
0.0
 47
1.0
 47
0.0
 47
0.0
 47
0.0
 47
0.0
 47
1.0
171
     0
 49
0.0208333333333333
 49
0.0
 49
0.0
 49
0.0
 49
0.0
 49
0.0208333333333333
 49
0.0
 49
0.0
 49
0.0
 49
0.0
 49
1.0
 49
0.0
 49
0.0
 49
0.0
 49
0.0
 49
1.0
175
     0
142
0.0208333333333333
142
0.0
142
0.0
142
0.0
142
0.0
142
0.0208333333333333
142
0.0
142
0.0
142
0.0
142
0.0
142
1.0
142
0.0
142
0.0
142
0.0
142
0.0
142
1.0
179
     0
144
0.0208333333333333
144
0.0
144
0.0
144
0.0
144
0.0
144
0.0208333333333333
144
0.0
144
0.0
144
0.0
144
0.0
144
1.0
144
0.0
144
0.0
144
0.0
144
0.0
144
1.0
147
0.0208333333333333
147
0.0
147
0.0
147
0.0
147
0.0
147
0.0208333333333333
147
0.0
147
0.0
147
0.0
147
0.0
147
1.0
147
0.0
147
0.0
147
0.0
147
0.0
147
1.0
  0
MLEADERSTYLE
  5
2A3
102
{ACAD_XDICTIONARY
360
5B0
102
}
102
{ACAD_REACTORS
330
2A2
102
}
330
2A2
100
AcDbMLeaderStyle
170
     2
171
     1
172
     0
 90
        2
 40
0.0
 41
0.0
173
     1
 91
-1056964608
340
11
 92
       -2
290
     1
 42
0.09
291
     1
 43
0.36
  3
Standard
 44
0.18
300

342
17
174
     1
178
     6
175
     1
176
     0
 93
-1056964608
 45
0.18
292
     0
297
     0
 46
0.18
 94
-1056964608
 47
1.0
 49
1.0
140
1.0
293
     1
141
0.0
294
     1
177
     0
142
1.0
295
     0
296
     0
143
0.125
1001
ACAD_MLEADERVER
1070
     2
  0
MLINESTYLE
  5
1C
102
{ACAD_REACTORS
330
1B
102
}
330
1B
100
AcDbMlineStyle
  2
STANDARD
 70
     0
  3

 62
     0
 51
90.0
 52
90.0
 71
     2
 49
0.5
 62
   256
  6
BYLAYER
 49
-0.5
 62
   256
  6
BYLAYER
  0
ACDBPLACEHOLDER
  5
1D
102
{ACAD_REACTORS
330
1F
102
}
330
1F
  0
SCALE
  5
291
102
{ACAD_REACTORS
330
290
102
}
330
290
100
AcDbScale
 70
     0
300
1:1
140
1.0
141
1.0
290
     1
  0
SCALE
  5
292
102
{ACAD_REACTORS
330
290
102
}
330
290
100
AcDbScale
 70
     0
300
1/128" = 1'-0"
140
0.0078125
141
12.0
290
     0
  0
SCALE
  5
293
102
{ACAD_REACTORS
330
290
102
}
330
290
100
AcDbScale
 70
     0
300
1/64" = 1'-0"
140
0.015625
141
12.0
290
     0
  0
SCALE
  5
294
102
{ACAD_REACTORS
330
290
102
}
330
290
100
AcDbScale
 70
     0
300
1/32" = 1'-0"
140
0.03125
141
12.0
290
     0
  0
SCALE
  5
295
102
{ACAD_REACTORS
330
290
102
}
330
290
100
AcDbScale
 70
     0
300
1/16" = 1'-0"
140
0.0625
141
12.0
290
     0
  0
SCALE
  5
296
102
{ACAD_REACTORS
330
290
102
}
330
290
100
AcDbScale
 70
     0
300
3/32" = 1'-0"
140
0.09375
141
12.0
290
     0
  0
SCALE
  5
297
102
{ACAD_REACTORS
330
290
102
}
330
290
100
AcDbScale
 70
     0
300
1/8" = 1'-0"
140
0.125
141
12.0
290
     0
  0
SCALE
  5
298
102
{ACAD_REACTORS
330
290
102
}
330
290
100
AcDbScale
 70
     0
300
3/16" = 1'-0"
140
0.1875
141
12.0
290
     0
  0
SCALE
  5
299
102
{ACAD_REACTORS
330
290
102
}
330
290
100
AcDbScale
 70
     0
300
1/4" = 1'-0"
140
0.25
141
12.0
290
     0
  0
SCALE
  5
29A
102
{ACAD_REACTORS
330
290
102
}
330
290
100
AcDbScale
 70
     0
300
3/8" = 1'-0"
140
0.375
141
12.0
290
     0
  0
SCALE
  5
29B
102
{ACAD_REACTORS
330
290
102
}
330
290
100
AcDbScale
 70
     0
300
1/2" = 1'-0"
140
0.5
141
12.0
290
     0
  0
SCALE
  5
29C
102
{ACAD_REACTORS
330
290
102
}
330
290
100
AcDbScale
 70
     0
300
3/4" = 1'-0"
140
0.75
141
12.0
290
     0
  0
SCALE
  5
29D
102
{ACAD_REACTORS
330
290
102
}
330
290
100
AcDbScale
 70
     0
300
1" = 1'-0"
140
1.0
141
12.0
290
     0
  0
SCALE
  5
29E
102
{ACAD_REACTORS
330
290
102
}
330
290
100
AcDbScale
 70
     0
300
1-1/2" = 1'-0"
140
1.5
141
12.0
290
     0
  0
SCALE
  5
29F
102
{ACAD_REACTORS
330
290
102
}
330
290
100
AcDbScale
 70
     0
300
3" = 1'-0"
140
3.0
141
12.0
290
     0
  0
SCALE
  5
2A0
102
{ACAD_REACTORS
330
290
102
}
330
290
100
AcDbScale
 70
     0
300
6" = 1'-0"
140
6.0
141
12.0
290
     0
  0
SCALE
  5
2A1
102
{ACAD_REACTORS
330
290
102
}
330
290
100
AcDbScale
 70
     0
300
1'-0" = 1'-0"
140
12.0
141
12.0
290
     0
  0
ACDBSECTIONVIEWSTYLE
  5
2A5
102
{ACAD_XDICTIONARY
360
5B2
102
}
102
{ACAD_REACTORS
330
2A4
102
}
330
2A4
100
AcDbModelDocViewStyle
 70
     0
  3
Imperial24
290
     0
100
AcDbSectionViewStyle
 70
     0
 71
     0
 90
       78
 71
     1
340
17
 40
0.24
340
0
340
0
 40
0.24
300
I, O, Q, S, X, Z
 40
0.48
 90
        3
 40
0.18
 90
        1
 71
     2
340
13
 90
       25
340
13
 90
       50
 40
0.24
 40
0.0
 40
0.24
 71
     3
340
17
 40
0.24
 90
        1
 40
0.75
 90
        1
300
%<\AcVar ViewType \f "%tc1">% %<\AcVar ViewSectionStartId>%-%<\AcVar ViewSectionEndId>%\PSCALE %<\AcVar ViewScale \f "%sn">%
 71
     4
300
ANSI31
 40
1.0
 90
        0
290
     0
290
     0
 90
        6
 40
0.0
 40
1.570796326794896
 40
0.2617993877991494
 40
1.308996938995747
 40
-0.2617993877991494
 40
1.832595714594046
  0
TABLESTYLE
  5
28F
102
{ACAD_XDICTIONARY
360
56B
102
}
102
{ACAD_REACTORS
330
28E
102
}
330
28E
100
AcDbTableStyle
  3
Standard
 70
     0
 71
     0
 40
0.06
 41
0.06
280
     0
281
     0
  7
Standard
140
0.18
170
     2
 62
     0
 63
     7
283
     0
274
    -2
284
     1
 64
     0
275
    -2
285
     1
 65
     0
276
    -2
286
     1
 66
     0
277
    -2
287
     1
 67
     0
278
    -2
288
     1
 68
     0
279
    -2
289
     1
 69
     0
  7
Standard
140
0.25
170
     5
 62
     0
 63
     7
283
     0
274
    -2
284
     1
 64
     0
275
    -2
285
     1
 65
     0
276
    -2
286
     1
 66
     0
277
    -2
287
     1
 67
     0
278
    -2
288
     1
 68
     0
279
    -2
289
     1
 69
     0
  7
Standard
140
0.18
170
     5
 62
     0
 63
     7
283
     0
274
    -2
284
     1
 64
     0
275
    -2
285
     1
 65
     0
276
    -2
286
     1
 66
     0
277
    -2
287
     1
 67
     0
278
    -2
288
     1
 68
     0
279
    -2
289
     1
 69
     0
  0
VISUALSTYLE
  5
27A
102
{ACAD_XDICTIONARY
360
588
102
}
102
{ACAD_REACTORS
330
274
102
}
330
274
100
AcDbVisualStyle
  2
2dWireframe
 70
     4
 71
     0
 72
     2
 73
     0
 90
        0
 40
-0.6
 41
-30.0
 62
     5
 63
     7
 74
     1
 91
        4
 64
     7
 65
   257
 75
     1
175
     1
 42
1.0
 92
        0
 66
   257
 43
1.0
 76
     1
 77
     6
 78
     2
 67
     7
 79
     5
170
     0
171
     0
290
     0
174
     0
 93
        1
 44
0.0
173
     0
291
     0
 45
0.0
1001
ACAD
1000
AcDbSavedByObjectVersion
1070
     0
  0
VISUALSTYLE
  5
279
102
{ACAD_XDICTIONARY
360
586
102
}
102
{ACAD_REACTORS
330
274
102
}
330
274
100
AcDbVisualStyle
  2
Basic
 70
     7
 71
     1
 72
     0
 73
     1
 90
        0
 40
-0.6
 41
-30.0
 62
     5
 63
     7
 74
     0
 91
        4
 64
     7
 65
   257
 75
     1
175
     1
 42
1.0
 92
        8
 66
     7
 43
1.0
 76
     1
 77
     6
 78
     2
 67
     7
 79
     5
170
     0
171
     0
290
     0
174
     0
 93
        1
 44
0.0
173
     0
291
     1
 45
0.0
1001
ACAD
1000
AcDbSavedByObjectVersion
1070
     0
  0
VISUALSTYLE
  5
280
102
{ACAD_XDICTIONARY
360
594
102
}
102
{ACAD_REACTORS
330
274
102
}
330
274
100
AcDbVisualStyle
  2
Brighten
 70
    12
 71
     2
 72
     2
 73
     0
 90
        0
 40
-0.6
 41
-30.0
 62
     5
 63
     7
 74
     1
 91
        4
 64
     7
 65
   257
 75
     1
175
     1
 42
1.0
 92
        8
 66
     7
 43
1.0
 76
     1
 77
     6
 78
     2
 67
     7
 79
     5
170
     0
171
     0
290
     0
174
     0
 93
        1
 44
50.0
173
     0
291
     1
 45
0.0
1001
ACAD
1000
AcDbSavedByObjectVersion
1070
     0
  0
VISUALSTYLE
  5
284
102
{ACAD_XDICTIONARY
360
59C
102
}
102
{ACAD_REACTORS
330
274
102
}
330
274
100
AcDbVisualStyle
  2
ColorChange
 70
    16
 71
     2
 72
     2
 73
     3
 90
        0
 40
-0.6
 41
-30.0
 62
     5
 63
     8
 74
     1
 91
        4
 64
     7
 65
   257
 75
     1
175
     1
 42
1.0
 92
        8
 66
     8
 43
1.0
 76
     1
 77
     6
 78
     2
 67
     7
 79
     5
170
     0
171
     0
290
     0
174
     0
 93
        1
 44
0.0
173
     0
291
     1
 45
0.0
1001
ACAD
1000
AcDbSavedByObjectVersion
1070
     0
  0
VISUALSTYLE
  5
27D
102
{ACAD_XDICTIONARY
360
58E
102
}
102
{ACAD_REACTORS
330
274
102
}
330
274
100
AcDbVisualStyle
  2
Conceptual
 70
     9
 71
     3
 72
     2
 73
     0
 90
        0
 40
-0.6
 41
-30.0
 62
     5
 63
     7
 74
     2
 91
        2
 64
     7
 65
   257
 75
     1
175
     1
 42
179.0
 92
        8
 66
     7
 43
1.0
 76
     1
 77
     6
 78
     2
 67
     7
 79
     3
170
     0
171
     0
290
     0
174
     0
 93
        1
 44
0.0
173
     0
291
     0
 45
0.0
1001
ACAD
1000
AcDbSavedByObjectVersion
1070
     0
  0
VISUALSTYLE
  5
27F
102
{ACAD_XDICTIONARY
360
592
102
}
102
{ACAD_REACTORS
330
274
102
}
330
274
100
AcDbVisualStyle
  2
Dim
 70
    11
 71
     2
 72
     2
 73
     0
 90
        0
 40
-0.6
 41
-30.0
 62
     5
 63
     7
 74
     1
 91
        4
 64
     7
 65
   257
 75
     1
175
     1
 42
1.0
 92
        8
 66
     7
 43
1.0
 76
     1
 77
     6
 78
     2
 67
     7
 79
     5
170
     0
171
     0
290
     0
174
     0
 93
        1
 44
-50.0
173
     0
291
     1
 45
0.0
1001
ACAD
1000
AcDbSavedByObjectVersion
1070
     0
  0
VISUALSTYLE
  5
28C
102
{ACAD_XDICTIONARY
360
5AC
102
}
102
{ACAD_REACTORS
330
274
102
}
330
274
100
AcDbVisualStyle
  2
EdgeColorOff
 70
    22
 71
     2
 72
     2
 73
     0
 90
        0
 40
-0.6
 41
-30.0
 62
     5
 63
     7
 74
     1
 91
        4
 64
     7
 65
   257
 75
     1
175
     1
 42
1.0
 92
        8
 66
     7
 43
1.0
 76
     1
 77
     6
 78
     2
 67
     7
 79
     5
170
     0
171
     0
290
     0
174
     0
 93
        1
 44
0.0
173
     0
291
     1
 45
0.0
1001
ACAD
1000
AcDbSavedByObjectVersion
1070
     0
  0
VISUALSTYLE
  5
283
102
{ACAD_XDICTIONARY
360
59A
102
}
102
{ACAD_REACTORS
330
274
102
}
330
274
100
AcDbVisualStyle
  2
Facepattern
 70
    15
 71
     2
 72
     2
 73
     0
 90
        0
 40
-0.6
 41
-30.0
 62
     5
 63
     7
 74
     1
 91
        4
 64
     7
 65
   257
 75
     1
175
     1
 42
1.0
 92
        8
 66
     7
 43
1.0
 76
     1
 77
     6
 78
     2
 67
     7
 79
     5
170
     0
171
     0
290
     0
174
     0
 93
        1
 44
0.0
173
     0
291
     1
 45
0.0
1001
ACAD
1000
AcDbSavedByObjectVersion
1070
     0
  0
VISUALSTYLE
  5
275
102
{ACAD_XDICTIONARY
360
57E
102
}
102
{ACAD_REACTORS
330
274
102
}
330
274
100
AcDbVisualStyle
  2
Flat
 70
     0
 71
     2
 72
     1
 73
     1
 90
        2
 40
-0.6
 41
30.0
 62
     5
 63
     7
 74
     0
 91
        0
 64
     7
 65
   257
 75
     1
175
     1
 42
1.0
 92
        8
 66
     7
 43
1.0
 76
     1
 77
     6
 78
     2
 67
     7
 79
     5
170
     0
171
     0
290
     0
174
     0
 93
       13
 44
0.0
173
     0
291
     1
 45
0.0
1001
ACAD
1000
AcDbSavedByObjectVersion
1070
     0
  0
VISUALSTYLE
  5
276
102
{ACAD_XDICTIONARY
360
580
102
}
102
{ACAD_REACTORS
330
274
102
}
330
274
100
AcDbVisualStyle
  2
FlatWithEdges
 70
     1
 71
     2
 72
     1
 73
     1
 90
        2
 40
-0.6
 41
30.0
 62
     5
 63
     7
 74
     1
 91
        0
 64
     7
 65
   257
 75
     1
175
     1
 42
1.0
 92
        0
 66
   257
 43
1.0
 76
     1
 77
     6
 78
     2
 67
     7
 79
     5
170
     0
171
     0
290
     0
174
     0
 93
       13
 44
0.0
173
     0
291
     1
 45
0.0
1001
ACAD
1000
AcDbSavedByObjectVersion
1070
     0
  0
VISUALSTYLE
  5
277
102
{ACAD_XDICTIONARY
360
582
102
}
102
{ACAD_REACTORS
330
274
102
}
330
274
100
AcDbVisualStyle
  2
Gouraud
 70
     2
 71
     2
 72
     2
 73
     1
 90
        2
 40
-0.6
 41
30.0
 62
     5
 63
     7
 74
     0
 91
        0
 64
     7
 65
   257
 75
     1
175
     1
 42
1.0
 92
        0
 66
     7
 43
1.0
 76
     1
 77
     6
 78
     2
 67
     7
 79
     5
170
     0
171
     0
290
     0
174
     0
 93
       13
 44
0.0
173
     0
291
     1
 45
0.0
1001
ACAD
1000
AcDbSavedByObjectVersion
1070
     0
  0
VISUALSTYLE
  5
278
102
{ACAD_XDICTIONARY
360
584
102
}
102
{ACAD_REACTORS
330
274
102
}
330
274
100
AcDbVisualStyle
  2
GouraudWithEdges
 70
     3
 71
     2
 72
     2
 73
     1
 90
        2
 40
-0.6
 41
30.0
 62
     5
 63
     7
 74
     1
 91
        0
 64
     7
 65
   257
 75
     1
175
     1
 42
1.0
 92
        0
 66
   257
 43
1.0
 76
     1
 77
     6
 78
     2
 67
     7
 79
     5
170
     0
171
     0
290
     0
174
     0
 93
       13
 44
0.0
173
     0
291
     1
 45
0.0
1001
ACAD
1000
AcDbSavedByObjectVersion
1070
     0
  0
VISUALSTYLE
  5
27C
102
{ACAD_XDICTIONARY
360
58C
102
}
102
{ACAD_REACTORS
330
274
102
}
330
274
100
AcDbVisualStyle
  2
Hidden
 70
     6
 71
     1
 72
     2
 73
     2
 90
        0
 40
-0.6
 41
-30.0
 62
     5
 63
     7
 74
     2
 91
        2
 64
     7
 65
   257
 75
     2
175
     1
 42
40.0
 92
        0
 66
   257
 43
1.0
 76
     1
 77
     6
 78
     2
 67
     7
 79
     3
170
     0
171
     0
290
     0
174
     0
 93
        1
 44
0.0
173
     0
291
     0
 45
0.0
1001
ACAD
1000
AcDbSavedByObjectVersion
1070
     0
  0
VISUALSTYLE
  5
28A
102
{ACAD_XDICTIONARY
360
5A8
102
}
102
{ACAD_REACTORS
330
274
102
}
330
274
100
AcDbVisualStyle
  2
JitterOff
 70
    20
 71
     2
 72
     2
 73
     0
 90
        0
 40
-0.6
 41
-30.0
 62
     5
 63
     7
 74
     1
 91
        4
 64
     7
 65
   257
 75
     1
175
     1
 42
1.0
 92
       10
 66
     7
 43
1.0
 76
     1
 77
     6
 78
     2
 67
     7
 79
     5
170
     0
171
     0
290
     0
174
     0
 93
        1
 44
0.0
173
     0
291
     1
 45
0.0
1001
ACAD
1000
AcDbSavedByObjectVersion
1070
     0
  0
VISUALSTYLE
  5
282
102
{ACAD_XDICTIONARY
360
598
102
}
102
{ACAD_REACTORS
330
274
102
}
330
274
100
AcDbVisualStyle
  2
Linepattern
 70
    14
 71
     2
 72
     2
 73
     0
 90
        0
 40
-0.6
 41
-30.0
 62
     5
 63
     7
 74
     1
 91
        4
 64
     7
 65
   257
 75
     7
175
     7
 42
1.0
 92
        8
 66
     7
 43
1.0
 76
     1
 77
     6
 78
     2
 67
     7
 79
     5
170
     0
171
     0
290
     0
174
     0
 93
        1
 44
0.0
173
     0
291
     1
 45
0.0
1001
ACAD
1000
AcDbSavedByObjectVersion
1070
     0
  0
VISUALSTYLE
  5
28B
102
{ACAD_XDICTIONARY
360
5AA
102
}
102
{ACAD_REACTORS
330
274
102
}
330
274
100
AcDbVisualStyle
  2
OverhangOff
 70
    21
 71
     2
 72
     2
 73
     0
 90
        0
 40
-0.6
 41
-30.0
 62
     5
 63
     7
 74
     1
 91
        4
 64
     7
 65
   257
 75
     1
175
     1
 42
1.0
 92
        9
 66
     7
 43
1.0
 76
     1
 77
     6
 78
     2
 67
     7
 79
     5
170
     0
171
     0
290
     0
174
     0
 93
        1
 44
0.0
173
     0
291
     1
 45
0.0
1001
ACAD
1000
AcDbSavedByObjectVersion
1070
     0
  0
VISUALSTYLE
  5
27E
102
{ACAD_XDICTIONARY
360
590
102
}
102
{ACAD_REACTORS
330
274
102
}
330
274
100
AcDbVisualStyle
  2
Realistic
 70
     8
 71
     2
 72
     3
 73
     0
 90
        2
 40
-0.6
 41
30.0
 62
     5
 63
     7
 74
     0
 91
        0
 64
     7
 65
   257
 75
     1
175
     1
 42
1.0
 92
        8
 66
   257
 43
1.0
 76
     1
 77
     6
 78
     2
 67
     7
 79
     3
170
     0
171
     0
290
     0
174
     0
 93
       13
 44
0.0
173
     0
291
     0
 45
0.0
1001
ACAD
1000
AcDbSavedByObjectVersion
1070
     0
  0
VISUALSTYLE
  5
289
102
{ACAD_XDICTIONARY
360
5A6
102
}
102
{ACAD_REACTORS
330
274
102
}
330
274
100
AcDbVisualStyle
  2
Shaded
 70
    27
 71
     2
 72
     2
 73
     1
 90
        2
 40
-0.6
 41
30.0
 62
     5
 63
     7
 74
     0
 91
        4
 64
     7
 65
   257
 75
     1
175
     1
 42
1.0
 92
        8
 66
   257
 43
1.0
 76
     1
 77
     6
 78
     2
 67
     8
 79
     3
170
     0
171
     0
290
     0
174
     0
 93
        5
 44
0.0
173
     0
291
     0
 45
0.0
1001
ACAD
1000
AcDbSavedByObjectVersion
1070
     0
  0
VISUALSTYLE
  5
288
102
{ACAD_XDICTIONARY
360
5A4
102
}
102
{ACAD_REACTORS
330
274
102
}
330
274
100
AcDbVisualStyle
  2
Shaded with edges
 70
    26
 71
     2
 72
     2
 73
     1
 90
        2
 40
-0.6
 41
30.0
 62
     5
 63
     7
 74
     1
 91
       10
 64
     7
 65
   257
 75
     2
175
     1
 42
1.0
 92
        8
 66
   257
 43
1.0
 76
     1
 77
     6
 78
     2
 67
     7
 79
     3
170
     0
171
     0
290
     0
174
     0
 93
        5
 44
0.0
173
     0
291
     0
 45
0.0
1001
ACAD
1000
AcDbSavedByObjectVersion
1070
     0
  0
VISUALSTYLE
  5
285
102
{ACAD_XDICTIONARY
360
59E
102
}
102
{ACAD_REACTORS
330
274
102
}
330
274
100
AcDbVisualStyle
  2
Shades of Gray
 70
    23
 71
     2
 72
     2
 73
     3
 90
        0
 40
-0.6
 41
-30.0
 62
     5
 63
     7
 74
     2
 91
        2
 64
     7
 65
     7
 75
     1
175
     1
 42
40.0
 92
        8
 66
     7
 43
1.0
 76
     1
 77
     6
 78
     2
 67
     7
 79
     3
170
     0
171
     0
290
     0
174
     0
 93
        1
 44
0.0
173
     0
291
     0
 45
0.0
1001
ACAD
1000
AcDbSavedByObjectVersion
1070
     0
  0
VISUALSTYLE
  5
286
102
{ACAD_XDICTIONARY
360
5A0
102
}
102
{ACAD_REACTORS
330
274
102
}
330
274
100
AcDbVisualStyle
  2
Sketchy
 70
    24
 71
     1
 72
     2
 73
     2
 90
        0
 40
-0.6
 41
-30.0
 62
     5
 63
     7
 74
     2
 91
        2
 64
     7
 65
     7
 75
     1
175
     1
 42
40.0
 92
       11
 66
     7
 43
1.0
 76
     1
 77
     6
 78
     2
 67
     7
 79
     6
170
     0
171
     0
290
     0
174
     0
 93
        1
 44
0.0
173
     0
291
     0
 45
0.0
1001
ACAD
1000
AcDbSavedByObjectVersion
1070
     0
  0
VISUALSTYLE
  5
281
102
{ACAD_XDICTIONARY
360
596
102
}
102
{ACAD_REACTORS
330
274
102
}
330
274
100
AcDbVisualStyle
  2
Thicken
 70
    13
 71
     2
 72
     2
 73
     0
 90
        0
 40
-0.6
 41
-30.0
 62
     5
 63
     7
 74
     1
 91
        4
 64
     7
 65
   257
 75
     1
175
     1
 42
1.0
 92
       12
 66
     7
 43
1.0
 76
     1
 77
     6
 78
     2
 67
     7
 79
     5
170
     0
171
     0
290
     0
174
     0
 93
        1
 44
0.0
173
     0
291
     1
 45
0.0
1001
ACAD
1000
AcDbSavedByObjectVersion
1070
     0
  0
VISUALSTYLE
  5
27B
102
{ACAD_XDICTIONARY
360
58A
102
}
102
{ACAD_REACTORS
330
274
102
}
330
274
100
AcDbVisualStyle
  2
Wireframe
 70
     5
 71
     0
 72
     2
 73
     0
 90
        0
 40
-0.6
 41
-30.0
 62
     5
 63
     7
 74
     1
 91
        4
 64
     7
 65
   257
 75
     1
175
     1
 42
1.0
 92
        0
 66
   257
 43
1.0
 76
     1
 77
     6
 78
     2
 67
     7
 79
     3
170
     0
171
     0
290
     0
174
     0
 93
        1
 44
0.0
173
     0
291
     0
 45
0.0
1001
ACAD
1000
AcDbSavedByObjectVersion
1070
     0
  0
VISUALSTYLE
  5
287
102
{ACAD_XDICTIONARY
360
5A2
102
}
102
{ACAD_REACTORS
330
274
102
}
330
274
100
AcDbVisualStyle
  2
X-Ray
 70
    25
 71
     2
 72
     2
 73
     1
 90
        1
 40
0.5
 41
-30.0
 62
     5
 63
     7
 74
     1
 91
        0
 64
     7
 65
   257
 75
     1
175
     1
 42
1.0
 92
        8
 66
     7
 43
1.0
 76
     1
 77
     6
 78
     2
 67
     7
 79
     3
170
     0
171
     0
290
     0
174
     0
 93
       13
 44
0.0
173
     0
291
     0
 45
0.0
1001
ACAD
1000
AcDbSavedByObjectVersion
1070
     0
  0
DICTIONARYVAR
  5
566
102
{ACAD_REACTORS
330
561
102
}
330
561
100
DictionaryVariables
280
     0
  1
1:1
  0
DICTIONARYVAR
  5
563
102
{ACAD_REACTORS
330
561
102
}
330
561
100
DictionaryVariables
280
     0
  1
STANDARD
  0
DICTIONARYVAR
  5
562
102
{ACAD_REACTORS
330
561
102
}
330
561
100
DictionaryVariables
280
     0
  1
STANDARD
  0
DICTIONARYVAR
  5
564
102
{ACAD_REACTORS
330
561
102
}
330
561
100
DictionaryVariables
280
     0
  1
Imperial24
  0
DICTIONARYVAR
  5
565
102
{ACAD_REACTORS
330
561
102
}
330
561
100
DictionaryVariables
280
     0
  1
Imperial24
  0
DICTIONARYVAR
  5
569
102
{ACAD_REACTORS
330
561
102
}
330
561
100
DictionaryVariables
280
     0
  1
1
  0
DICTIONARYVAR
  5
568
102
{ACAD_REACTORS
330
561
102
}
330
561
100
DictionaryVariables
280
     0
  1
0
  0
DICTIONARYVAR
  5
567
102
{ACAD_REACTORS
330
561
102
}
330
561
100
DictionaryVariables
280
     0
  1
127
  0
DICTIONARYVAR
  5
56A
102
{ACAD_REACTORS
330
561
102
}
330
561
100
DictionaryVariables
280
     0
  1
2
  0
DICTIONARY
  5
576
102
{ACAD_REACTORS
330
574
102
}
330
574
100
AcDbDictionary
281
     1
  0
DICTIONARY
  5
575
102
{ACAD_REACTORS
330
574
102
}
330
574
100
AcDbDictionary
281
     1
  3
8796087915632
350
56F
  3
8796087915648
350
570
  3
8796087915664
350
571
  3
8796087915680
350
572
  3
8796087915696
350
573
  0
DICTIONARY
  5
5B4
330
2A7
100
AcDbDictionary
280
     1
281
     1
  3
ACAD_XREC_ROUNDTRIP
360
5B5
  0
DICTIONARY
  5
579
330
21
100
AcDbDictionary
280
     1
281
     1
  3
ACAD_XREC_ROUNDTRIP
360
57A
  0
DICTIONARY
  5
577
330
20
100
AcDbDictionary
280
     1
281
     1
  3
ACAD_XREC_ROUNDTRIP
360
578
  0
DICTIONARY
  5
265
330
264
100
AcDbDictionary
280
     1
281
     1
  3
ACAD_XREC_ROUNDTRIP
360
57C
  3
BUMPTILE
360
267
  3
DIFFUSETILE
360
266
  3
OPACITYTILE
360
26A
  3
REFLECTIONTILE
360
269
  3
REFRACTIONTILE
360
26B
  3
SPECULARTILE
360
268
  0
DICTIONARY
  5
25D
330
25C
100
AcDbDictionary
280
     1
281
     1
  3
ACAD_XREC_ROUNDTRIP
360
57B
  3
BUMPTILE
360
25F
  3
DIFFUSETILE
360
25E
  3
OPACITYTILE
360
262
  3
REFLECTIONTILE
360
261
  3
REFRACTIONTILE
360
263
  3
SPECULARTILE
360
260
  0
DICTIONARY
  5
26D
330
26C
100
AcDbDictionary
280
     1
281
     1
  3
ACAD_XREC_ROUNDTRIP
360
57D
  3
BUMPTILE
360
26F
  3
DIFFUSETILE
360
26E
  3
OPACITYTILE
360
272
  3
REFLECTIONTILE
360
271
  3
REFRACTIONTILE
360
273
  3
SPECULARTILE
360
270
  0
DICTIONARY
  5
5B0
330
2A3
100
AcDbDictionary
280
     1
281
     1
  3
ACAD_XREC_ROUNDTRIP
360
5B1
  0
DICTIONARY
  5
5B2
330
2A5
100
AcDbDictionary
280
     1
281
     1
  3
ACAD_XREC_ROUNDTRIP
360
5B3
  0
DICTIONARY
  5
56B
330
28F
100
AcDbDictionary
280
     1
281
     1
  3
ACAD_ROUNDTRIP_2008_TABLESTYLE_CELLSTYLEMAP
360
56C
  3
ACAD_XREC_ROUNDTRIP
360
5AE
  0
DICTIONARY
  5
588
330
27A
100
AcDbDictionary
280
     1
281
     1
  3
ACAD_XREC_ROUNDTRIP
360
589
  0
DICTIONARY
  5
586
330
279
100
AcDbDictionary
280
     1
281
     1
  3
ACAD_XREC_ROUNDTRIP
360
587
  0
DICTIONARY
  5
594
330
280
100
AcDbDictionary
280
     1
281
     1
  3
ACAD_XREC_ROUNDTRIP
360
595
  0
DICTIONARY
  5
59C
330
284
100
AcDbDictionary
280
     1
281
     1
  3
ACAD_XREC_ROUNDTRIP
360
59D
  0
DICTIONARY
  5
58E
330
27D
100
AcDbDictionary
280
     1
281
     1
  3
ACAD_XREC_ROUNDTRIP
360
58F
  0
DICTIONARY
  5
592
330
27F
100
AcDbDictionary
280
     1
281
     1
  3
ACAD_XREC_ROUNDTRIP
360
593
  0
DICTIONARY
  5
5AC
330
28C
100
AcDbDictionary
280
     1
281
     1
  3
ACAD_XREC_ROUNDTRIP
360
5AD
  0
DICTIONARY
  5
59A
330
283
100
AcDbDictionary
280
     1
281
     1
  3
ACAD_XREC_ROUNDTRIP
360
59B
  0
DICTIONARY
  5
57E
330
275
100
AcDbDictionary
280
     1
281
     1
  3
ACAD_XREC_ROUNDTRIP
360
57F
  0
DICTIONARY
  5
580
330
276
100
AcDbDictionary
280
     1
281
     1
  3
ACAD_XREC_ROUNDTRIP
360
581
  0
DICTIONARY
  5
582
330
277
100
AcDbDictionary
280
     1
281
     1
  3
ACAD_XREC_ROUNDTRIP
360
583
  0
DICTIONARY
  5
584
330
278
100
AcDbDictionary
280
     1
281
     1
  3
ACAD_XREC_ROUNDTRIP
360
585
  0
DICTIONARY
  5
58C
330
27C
100
AcDbDictionary
280
     1
281
     1
  3
ACAD_XREC_ROUNDTRIP
360
58D
  0
DICTIONARY
  5
5A8
330
28A
100
AcDbDictionary
280
     1
281
     1
  3
ACAD_XREC_ROUNDTRIP
360
5A9
  0
DICTIONARY
  5
598
330
282
100
AcDbDictionary
280
     1
281
     1
  3
ACAD_XREC_ROUNDTRIP
360
599
  0
DICTIONARY
  5
5AA
330
28B
100
AcDbDictionary
280
     1
281
     1
  3
ACAD_XREC_ROUNDTRIP
360
5AB
  0
DICTIONARY
  5
590
330
27E
100
AcDbDictionary
280
     1
281
     1
  3
ACAD_XREC_ROUNDTRIP
360
591
  0
DICTIONARY
  5
5A6
330
289
100
AcDbDictionary
280
     1
281
     1
  3
ACAD_XREC_ROUNDTRIP
360
5A7
  0
DICTIONARY
  5
5A4
330
288
100
AcDbDictionary
280
     1
281
     1
  3
ACAD_XREC_ROUNDTRIP
360
5A5
  0
DICTIONARY
  5
59E
330
285
100
AcDbDictionary
280
     1
281
     1
  3
ACAD_XREC_ROUNDTRIP
360
59F
  0
DICTIONARY
  5
5A0
330
286
100
AcDbDictionary
280
     1
281
     1
  3
ACAD_XREC_ROUNDTRIP
360
5A1
  0
DICTIONARY
  5
596
330
281
100
AcDbDictionary
280
     1
281
     1
  3
ACAD_XREC_ROUNDTRIP
360
597
  0
DICTIONARY
  5
58A
330
27B
100
AcDbDictionary
280
     1
281
     1
  3
ACAD_XREC_ROUNDTRIP
360
58B
  0
DICTIONARY
  5
5A2
330
287
100
AcDbDictionary
280
     1
281
     1
  3
ACAD_XREC_ROUNDTRIP
360
5A3
  0
XRECORD
  5
56F
102
{ACAD_REACTORS
330
575
102
}
330
575
100
AcDbXrecord
280
     1
  1
AcDb_Thumbnail_Schema
102
{ATTRRECORD
341
570
  2
AcDbDs::TreatedAsObjectData
280
     1
291
     1
102
ATTRRECORD}
102
{ATTRRECORD
341
571
  2
AcDbDs::Legacy
280
     1
291
     1
102
ATTRRECORD}
  2
AcDbDs::ID
280
    10
 91
        8
102
{ATTRRECORD
341
572
  2
AcDs:Indexable
280
     1
291
     1
102
ATTRRECORD}
102
{ATTRRECORD
341
573
  2
AcDbDs::HandleAttribute
280
     7
282
     1
102
ATTRRECORD}
  2
Thumbnail_Data
280
    15
 91
        0
  0
XRECORD
  5
570
102
{ACAD_REACTORS
330
575
102
}
330
575
100
AcDbXrecord
280
     1
  1
AcDbDs::TreatedAsObjectDataSchema
  2
AcDbDs::TreatedAsObjectData
280
     1
 91
        0
  0
XRECORD
  5
571
102
{ACAD_REACTORS
330
575
102
}
330
575
100
AcDbXrecord
280
     1
  1
AcDbDs::LegacySchema
  2
AcDbDs::Legacy
280
     1
 91
        0
  0
XRECORD
  5
572
102
{ACAD_REACTORS
330
575
102
}
330
575
100
AcDbXrecord
280
     1
  1
AcDbDs::IndexedPropertySchema
  2
AcDs:Indexable
280
     1
 91
        0
  0
XRECORD
  5
573
102
{ACAD_REACTORS
330
575
102
}
330
575
100
AcDbXrecord
280
     1
  1
AcDbDs::HandleAttributeSchema
  2
AcDbDs::HandleAttribute
280
     7
 91
        1
284
     1
  0
XRECORD
  5
5B5
102
{ACAD_REACTORS
330
5B4
102
}
330
5B4
100
AcDbXrecord
280
     1
102
DISPLAYNAME
  1
Imperial24
102
FLAGS
 90
        0
  0
XRECORD
  5
57A
102
{ACAD_REACTORS
330
579
102
}
330
579
100
AcDbXrecord
280
     1
102
SHADEPLOT
 70
     0
102
SHADEPLOTRESLEVEL
 70
     2
102
SHADEPLOTCUSTOMDPI
 70
   300
  0
XRECORD
  5
578
102
{ACAD_REACTORS
330
577
102
}
330
577
100
AcDbXrecord
280
     1
102
SHADEPLOT
 70
     0
102
SHADEPLOTRESLEVEL
 70
     2
102
SHADEPLOTCUSTOMDPI
 70
   300
  0
XRECORD
  5
57C
102
{ACAD_REACTORS
330
265
102
}
330
265
100
AcDbXrecord
280
     1
102
MATERIAL
148
0.0
149
0.0
149
0.0
 93
        0
 94
      127
282
     0
 72
     0
 77
     0
171
     0
175
     0
179
     0
273
     0
  0
XRECORD
  5
267
102
{ACAD_REACTORS
330
265
102
}
330
265
100
AcDbXrecord
280
     1
270
     1
271
     1
  0
XRECORD
  5
266
102
{ACAD_REACTORS
330
265
102
}
330
265
100
AcDbXrecord
280
     1
270
     1
271
     1
  0
XRECORD
  5
26A
102
{ACAD_REACTORS
330
265
102
}
330
265
100
AcDbXrecord
280
     1
270
     1
271
     1
  0
XRECORD
  5
269
102
{ACAD_REACTORS
330
265
102
}
330
265
100
AcDbXrecord
280
     1
270
     1
271
     1
  0
XRECORD
  5
26B
102
{ACAD_REACTORS
330
265
102
}
330
265
100
AcDbXrecord
280
     1
270
     1
271
     1
  0
XRECORD
  5
268
102
{ACAD_REACTORS
330
265
102
}
330
265
100
AcDbXrecord
280
     1
270
     1
271
     1
  0
XRECORD
  5
57B
102
{ACAD_REACTORS
330
25D
102
}
330
25D
100
AcDbXrecord
280
     1
102
MATERIAL
148
0.0
149
0.0
149
0.0
 93
        0
 94
      127
282
     0
 72
     0
 77
     0
171
     0
175
     0
179
     0
273
     0
  0
XRECORD
  5
25F
102
{ACAD_REACTORS
330
25D
102
}
330
25D
100
AcDbXrecord
280
     1
270
     1
271
     1
  0
XRECORD
  5
25E
102
{ACAD_REACTORS
330
25D
102
}
330
25D
100
AcDbXrecord
280
     1
270
     1
271
     1
  0
XRECORD
  5
262
102
{ACAD_REACTORS
330
25D
102
}
330
25D
100
AcDbXrecord
280
     1
270
     1
271
     1
  0
XRECORD
  5
261
102
{ACAD_REACTORS
330
25D
102
}
330
25D
100
AcDbXrecord
280
     1
270
     1
271
     1
  0
XRECORD
  5
263
102
{ACAD_REACTORS
330
25D
102
}
330
25D
100
AcDbXrecord
280
     1
270
     1
271
     1
  0
XRECORD
  5
260
102
{ACAD_REACTORS
330
25D
102
}
330
25D
100
AcDbXrecord
280
     1
270
     1
271
     1
  0
XRECORD
  5
57D
102
{ACAD_REACTORS
330
26D
102
}
330
26D
100
AcDbXrecord
280
     1
102
MATERIAL
148
0.0
149
0.0
149
0.0
 93
        0
 94
      127
282
     0
 72
     0
 77
     0
171
     0
175
     0
179
     0
273
     0
  0
XRECORD
  5
26F
102
{ACAD_REACTORS
330
26D
102
}
330
26D
100
AcDbXrecord
280
     1
270
     1
271
     1
  0
XRECORD
  5
26E
102
{ACAD_REACTORS
330
26D
102
}
330
26D
100
AcDbXrecord
280
     1
270
     1
271
     1
  0
XRECORD
  5
272
102
{ACAD_REACTORS
330
26D
102
}
330
26D
100
AcDbXrecord
280
     1
270
     1
271
     1
  0
XRECORD
  5
271
102
{ACAD_REACTORS
330
26D
102
}
330
26D
100
AcDbXrecord
280
     1
270
     1
271
     1
  0
XRECORD
  5
273
102
{ACAD_REACTORS
330
26D
102
}
330
26D
100
AcDbXrecord
280
     1
270
     1
271
     1
  0
XRECORD
  5
270
102
{ACAD_REACTORS
330
26D
102
}
330
26D
100
AcDbXrecord
280
     1
270
     1
271
     1
  0
XRECORD
  5
5B1
102
{ACAD_REACTORS
330
5B0
102
}
330
5B0
100
AcDbXrecord
280
     1
102
ACAD_ROUNDTRIP_2012_MLEADER_STYLE
298
     1
  0
XRECORD
  5
5B3
102
{ACAD_REACTORS
330
5B2
102
}
330
5B2
100
AcDbXrecord
280
     1
102
DISPLAYNAME
  1
Imperial24
102
FLAGS
 90
        0
  0
CELLSTYLEMAP
  5
56C
102
{ACAD_REACTORS
330
56B
102
}
330
56B
100
AcDbCellStyleMap
 90
        3
300
CELLSTYLE
  1
TABLEFORMAT_BEGIN
 90
        5
170
     1
 91
        0
 92
    32768
 62
   257
 93
        1
300
CONTENTFORMAT
  1
CONTENTFORMAT_BEGIN
 90
        0
 91
        0
 92
      512
 93
        0
300

 40
0.0
140
1.0
 94
        5
 62
     0
340
17
144
0.25
309
CONTENTFORMAT_END
171
     0
 94
        0
309
TABLEFORMAT_END
  1
CELLSTYLE_BEGIN
 90
        1
 91
        1
300
_TITLE
309
CELLSTYLE_END
300
CELLSTYLE
  1
TABLEFORMAT_BEGIN
 90
        5
170
     1
 91
        0
 92
        0
 62
   257
 93
        1
300
CONTENTFORMAT
  1
CONTENTFORMAT_BEGIN
 90
        0
 91
        0
 92
      512
 93
        0
300

 40
0.0
140
1.0
 94
        5
 62
     0
340
17
144
0.18
309
CONTENTFORMAT_END
171
     0
 94
        0
309
TABLEFORMAT_END
  1
CELLSTYLE_BEGIN
 90
        2
 91
        1
300
_HEADER
309
CELLSTYLE_END
300
CELLSTYLE
  1
TABLEFORMAT_BEGIN
 90
        5
170
     1
 91
        0
 92
        0
 62
   257
 93
        1
300
CONTENTFORMAT
  1
CONTENTFORMAT_BEGIN
 90
        0
 91
        0
 92
      512
 93
        0
300

 40
0.0
140
1.0
 94
        2
 62
     0
340
17
144
0.18
309
CONTENTFORMAT_END
171
     0
 94
        0
309
TABLEFORMAT_END
  1
CELLSTYLE_BEGIN
 90
        3
 91
        2
300
_DATA
309
CELLSTYLE_END
  0
XRECORD
  5
5AE
102
{ACAD_REACTORS
330
56B
102
}
330
56B
100
AcDbXrecord
280
     1
102
ACAD_ROUNDTRIP_PRE2007_TABLESTYLE
 90
      512
 91
        0
  1

 92
      512
 93
        0
  2

 94
      512
 95
        0
  3

  0
XRECORD
  5
589
102
{ACAD_REACTORS
330
588
102
}
330
588
100
AcDbXrecord
280
     1
102
RTVSPost2010Prop28
280
     1
102
RTVSPost2010PropOp28
 70
     1
102
RTVSPost2010Prop29
280
     1
102
RTVSPost2010PropOp29
 70
     1
102
RTVSPost2010Prop30
280
     0
102
RTVSPost2010PropOp30
 70
     1
102
RTVSPost2010Prop31
280
     0
102
RTVSPost2010PropOp31
 70
     1
102
RTVSPost2010Prop32
280
     0
102
RTVSPost2010PropOp32
 70
     1
102
RTVSPost2010Prop33
280
     0
102
RTVSPost2010PropOp33
 70
     1
102
RTVSPost2010Prop34
280
     0
102
RTVSPost2010PropOp34
 70
     1
102
RTVSPost2010Prop35
280
     0
102
RTVSPost2010PropOp35
 70
     1
102
RTVSPost2010Prop36
280
     0
102
RTVSPost2010PropOp36
 70
     1
102
RTVSPost2010Prop37
 90
       50
102
RTVSPost2010PropOp37
 70
     1
102
RTVSPost2010Prop38
140
0.0
102
RTVSPost2010PropOp38
 70
     1
102
RTVSPost2010Prop39
140
1.0
102
RTVSPost2010PropOp39
 70
     1
102
RTVSPost2010Prop40
 90
        0
102
RTVSPost2010PropOp40
 70
     1
102
RTVSPost2010Prop41ColorIndex
 90
       18
102
RTVSPost2010Prop41ColorRGB
 90
        0
102
RTVSPost2010PropOp41
 70
     1
102
RTVSPost2010Prop42
 90
       50
102
RTVSPost2010PropOp42
 70
     1
102
RTVSPost2010Prop43
 90
        3
102
RTVSPost2010PropOp43
 70
     1
102
RTVSPost2010Prop44ColorIndex
 90
        5
102
RTVSPost2010Prop44ColorRGB
 90
      255
102
RTVSPost2010PropOp44
 70
     1
102
RTVSPost2010Prop45
280
     0
102
RTVSPost2010PropOp45
 70
     1
102
RTVSPost2010Prop46
 90
       50
102
RTVSPost2010PropOp46
 70
     1
102
RTVSPost2010Prop47
 90
       50
102
RTVSPost2010PropOp47
 70
     1
102
RTVSPost2010Prop48
 90
       50
102
RTVSPost2010PropOp48
 70
     1
102
RTVSPost2010Prop49
280
     0
102
RTVSPost2010PropOp49
 70
     1
102
RTVSPost2010Prop50
 90
       50
102
RTVSPost2010PropOp50
 70
     1
102
RTVSPost2010Prop51ColorIndex
 90
      256
102
RTVSPost2010Prop51ColorRGB
 90
-16777216
102
RTVSPost2010PropOp51
 70
     0
102
RTVSPost2010Prop52
140
1.0
102
RTVSPost2010PropOp52
 70
     0
102
RTVSPost2010Prop53
 90
        2
102
RTVSPost2010PropOp53
 70
     1
102
RTVSPost2010Prop54
  1
strokes_ogs.tif
102
RTVSPost2010PropOp54
 70
     1
102
RTVSPost2010Prop55
280
     0
102
RTVSPost2010PropOp55
 70
     1
102
RTVSPost2010Prop56
140
1.0
102
RTVSPost2010PropOp56
 70
     1
102
RTVSPost2010Prop57
140
1.0
102
RTVSPost2010PropOp57
 70
     1
102
RTVSPropertyOp0
 70
     1
102
RTVSPropertyOp1
 70
     1
102
RTVSPropertyOp2
 70
     1
102
RTVSPropertyOp3
 70
     1
102
RTVSPropertyOp4
 70
     1
102
RTVSPropertyOp5
 70
     1
102
RTVSPropertyOp6
 70
     1
102
RTVSPropertyOp7
 70
     1
102
RTVSPropertyOp8
 70
     1
102
RTVSPropertyOp9
 70
     1
102
RTVSPropertyOp10
 70
     1
102
RTVSPropertyOp11
 70
     1
102
RTVSPropertyOp12
 70
     1
102
RTVSPropertyOp13
 70
     1
102
RTVSPropertyOp14
 70
     1
102
RTVSPropertyOp15
 70
     1
102
RTVSPropertyOp16
 70
     1
102
RTVSPropertyOp17
 70
     1
102
RTVSPropertyOp18
 70
     1
102
RTVSPropertyOp19
 70
     1
102
RTVSPropertyOp20
 70
     1
102
RTVSPropertyOp21
 70
     1
102
RTVSPropertyOp22
 70
     1
102
RTVSPropertyOp23
 70
     1
102
RTVSPropertyOp24
 70
     1
102
RTVSPropertyOp25
 70
     1
102
RTVSPropertyOp26
 70
     1
102
RTVSPropertyOp27
 70
     1
102
RTVSPropertyOp28
 70
     1
102
RTVSPropertyOp29
 70
     1
102
RTVSPropertyOp30
 70
     1
102
RTVSPropertyOp31
 70
     1
102
RTVSPropertyOp32
 70
     1
102
RTVSPropertyOp33
 70
     1
102
RTVSPropertyOp34
 70
     1
102
RTVSPropertyOp35
 70
     1
102
RTVSPropertyOp36
 70
     1
102
RTVSPropertyOp37
 70
     1
102
RTVSPropertyOp38
 70
     1
102
RTVSPropertyOp39
 70
     1
102
RTVSPropertyOp40
 70
     1
102
RTVSPropertyOp41
 70
     1
102
RTVSPropertyOp42
 70
     1
102
RTVSPropertyOp43
 70
     1
102
RTVSPropertyOp44
 70
     1
102
RTVSPropertyOp45
 70
     1
102
RTVSPropertyOp46
 70
     1
102
RTVSPropertyOp47
 70
     1
102
RTVSPropertyOp48
 70
     1
102
RTVSPropertyOp49
 70
     1
102
RTVSPropertyOp50
 70
     1
102
RTVSPropertyOp51
 70
     0
102
RTVSPropertyOp52
 70
     0
102
RTVSPropertyOp53
 70
     1
102
RTVSPropertyOp54
 70
     1
102
RTVSPropertyOp55
 70
     1
102
RTVSPropertyOp56
 70
     1
102
RTVSPropertyOp57
 70
     1
102
RTVSPropertyOp58
 70
     1
102
RTVSPropertyOp59
 70
     1
102
RTVSPropertyOp60
 70
     1
102
RTVSPropertyOp61
 70
     1
102
RTVSPropertyOp62
 70
     1
  0
XRECORD
  5
587
102
{ACAD_REACTORS
330
586
102
}
330
586
100
AcDbXrecord
280
     1
102
RTVSPost2010Prop28
280
     0
102
RTVSPost2010PropOp28
 70
     1
102
RTVSPost2010Prop29
280
     1
102
RTVSPost2010PropOp29
 70
     1
102
RTVSPost2010Prop30
280
     1
102
RTVSPost2010PropOp30
 70
     1
102
RTVSPost2010Prop31
280
     0
102
RTVSPost2010PropOp31
 70
     1
102
RTVSPost2010Prop32
280
     0
102
RTVSPost2010PropOp32
 70
     1
102
RTVSPost2010Prop33
280
     0
102
RTVSPost2010PropOp33
 70
     1
102
RTVSPost2010Prop34
280
     0
102
RTVSPost2010PropOp34
 70
     1
102
RTVSPost2010Prop35
280
     0
102
RTVSPost2010PropOp35
 70
     1
102
RTVSPost2010Prop36
280
     0
102
RTVSPost2010PropOp36
 70
     1
102
RTVSPost2010Prop37
 90
       50
102
RTVSPost2010PropOp37
 70
     1
102
RTVSPost2010Prop38
140
0.0
102
RTVSPost2010PropOp38
 70
     1
102
RTVSPost2010Prop39
140
1.0
102
RTVSPost2010PropOp39
 70
     1
102
RTVSPost2010Prop40
 90
        0
102
RTVSPost2010PropOp40
 70
     1
102
RTVSPost2010Prop41ColorIndex
 90
       18
102
RTVSPost2010Prop41ColorRGB
 90
        0
102
RTVSPost2010PropOp41
 70
     1
102
RTVSPost2010Prop42
 90
       50
102
RTVSPost2010PropOp42
 70
     1
102
RTVSPost2010Prop43
 90
        3
102
RTVSPost2010PropOp43
 70
     1
102
RTVSPost2010Prop44ColorIndex
 90
        5
102
RTVSPost2010Prop44ColorRGB
 90
      255
102
RTVSPost2010PropOp44
 70
     1
102
RTVSPost2010Prop45
280
     0
102
RTVSPost2010PropOp45
 70
     1
102
RTVSPost2010Prop46
 90
       50
102
RTVSPost2010PropOp46
 70
     1
102
RTVSPost2010Prop47
 90
       50
102
RTVSPost2010PropOp47
 70
     1
102
RTVSPost2010Prop48
 90
       50
102
RTVSPost2010PropOp48
 70
     1
102
RTVSPost2010Prop49
280
     0
102
RTVSPost2010PropOp49
 70
     1
102
RTVSPost2010Prop50
 90
       50
102
RTVSPost2010PropOp50
 70
     1
102
RTVSPost2010Prop51ColorIndex
 90
      256
102
RTVSPost2010Prop51ColorRGB
 90
-16777216
102
RTVSPost2010PropOp51
 70
     0
102
RTVSPost2010Prop52
140
1.0
102
RTVSPost2010PropOp52
 70
     0
102
RTVSPost2010Prop53
 90
        2
102
RTVSPost2010PropOp53
 70
     1
102
RTVSPost2010Prop54
  1
strokes_ogs.tif
102
RTVSPost2010PropOp54
 70
     1
102
RTVSPost2010Prop55
280
     0
102
RTVSPost2010PropOp55
 70
     1
102
RTVSPost2010Prop56
140
1.0
102
RTVSPost2010PropOp56
 70
     1
102
RTVSPost2010Prop57
140
1.0
102
RTVSPost2010PropOp57
 70
     1
102
RTVSPropertyOp0
 70
     1
102
RTVSPropertyOp1
 70
     1
102
RTVSPropertyOp2
 70
     1
102
RTVSPropertyOp3
 70
     1
102
RTVSPropertyOp4
 70
     1
102
RTVSPropertyOp5
 70
     1
102
RTVSPropertyOp6
 70
     1
102
RTVSPropertyOp7
 70
     1
102
RTVSPropertyOp8
 70
     1
102
RTVSPropertyOp9
 70
     1
102
RTVSPropertyOp10
 70
     1
102
RTVSPropertyOp11
 70
     1
102
RTVSPropertyOp12
 70
     1
102
RTVSPropertyOp13
 70
     1
102
RTVSPropertyOp14
 70
     1
102
RTVSPropertyOp15
 70
     1
102
RTVSPropertyOp16
 70
     1
102
RTVSPropertyOp17
 70
     1
102
RTVSPropertyOp18
 70
     1
102
RTVSPropertyOp19
 70
     1
102
RTVSPropertyOp20
 70
     1
102
RTVSPropertyOp21
 70
     1
102
RTVSPropertyOp22
 70
     1
102
RTVSPropertyOp23
 70
     1
102
RTVSPropertyOp24
 70
     1
102
RTVSPropertyOp25
 70
     1
102
RTVSPropertyOp26
 70
     1
102
RTVSPropertyOp27
 70
     1
102
RTVSPropertyOp28
 70
     1
102
RTVSPropertyOp29
 70
     1
102
RTVSPropertyOp30
 70
     1
102
RTVSPropertyOp31
 70
     1
102
RTVSPropertyOp32
 70
     1
102
RTVSPropertyOp33
 70
     1
102
RTVSPropertyOp34
 70
     1
102
RTVSPropertyOp35
 70
     1
102
RTVSPropertyOp36
 70
     1
102
RTVSPropertyOp37
 70
     1
102
RTVSPropertyOp38
 70
     1
102
RTVSPropertyOp39
 70
     1
102
RTVSPropertyOp40
 70
     1
102
RTVSPropertyOp41
 70
     1
102
RTVSPropertyOp42
 70
     1
102
RTVSPropertyOp43
 70
     1
102
RTVSPropertyOp44
 70
     1
102
RTVSPropertyOp45
 70
     1
102
RTVSPropertyOp46
 70
     1
102
RTVSPropertyOp47
 70
     1
102
RTVSPropertyOp48
 70
     1
102
RTVSPropertyOp49
 70
     1
102
RTVSPropertyOp50
 70
     1
102
RTVSPropertyOp51
 70
     0
102
RTVSPropertyOp52
 70
     0
102
RTVSPropertyOp53
 70
     1
102
RTVSPropertyOp54
 70
     1
102
RTVSPropertyOp55
 70
     1
102
RTVSPropertyOp56
 70
     1
102
RTVSPropertyOp57
 70
     1
102
RTVSPropertyOp58
 70
     1
102
RTVSPropertyOp59
 70
     1
102
RTVSPropertyOp60
 70
     1
102
RTVSPropertyOp61
 70
     1
102
RTVSPropertyOp62
 70
     1
  0
XRECORD
  5
595
102
{ACAD_REACTORS
330
594
102
}
330
594
100
AcDbXrecord
280
     1
102
RTVSPost2010Prop28
280
     0
102
RTVSPost2010PropOp28
 70
     1
102
RTVSPost2010Prop29
280
     1
102
RTVSPost2010PropOp29
 70
     1
102
RTVSPost2010Prop30
280
     1
102
RTVSPost2010PropOp30
 70
     1
102
RTVSPost2010Prop31
280
     0
102
RTVSPost2010PropOp31
 70
     1
102
RTVSPost2010Prop32
280
     0
102
RTVSPost2010PropOp32
 70
     1
102
RTVSPost2010Prop33
280
     0
102
RTVSPost2010PropOp33
 70
     1
102
RTVSPost2010Prop34
280
     0
102
RTVSPost2010PropOp34
 70
     1
102
RTVSPost2010Prop35
280
     0
102
RTVSPost2010PropOp35
 70
     1
102
RTVSPost2010Prop36
280
     0
102
RTVSPost2010PropOp36
 70
     1
102
RTVSPost2010Prop37
 90
       50
102
RTVSPost2010PropOp37
 70
     1
102
RTVSPost2010Prop38
140
0.0
102
RTVSPost2010PropOp38
 70
     1
102
RTVSPost2010Prop39
140
1.0
102
RTVSPost2010PropOp39
 70
     1
102
RTVSPost2010Prop40
 90
        0
102
RTVSPost2010PropOp40
 70
     1
102
RTVSPost2010Prop41ColorIndex
 90
       18
102
RTVSPost2010Prop41ColorRGB
 90
        0
102
RTVSPost2010PropOp41
 70
     1
102
RTVSPost2010Prop42
 90
       50
102
RTVSPost2010PropOp42
 70
     1
102
RTVSPost2010Prop43
 90
        3
102
RTVSPost2010PropOp43
 70
     1
102
RTVSPost2010Prop44ColorIndex
 90
        5
102
RTVSPost2010Prop44ColorRGB
 90
      255
102
RTVSPost2010PropOp44
 70
     1
102
RTVSPost2010Prop45
280
     0
102
RTVSPost2010PropOp45
 70
     1
102
RTVSPost2010Prop46
 90
       50
102
RTVSPost2010PropOp46
 70
     1
102
RTVSPost2010Prop47
 90
       50
102
RTVSPost2010PropOp47
 70
     1
102
RTVSPost2010Prop48
 90
       50
102
RTVSPost2010PropOp48
 70
     1
102
RTVSPost2010Prop49
280
     0
102
RTVSPost2010PropOp49
 70
     1
102
RTVSPost2010Prop50
 90
       50
102
RTVSPost2010PropOp50
 70
     1
102
RTVSPost2010Prop51ColorIndex
 90
      256
102
RTVSPost2010Prop51ColorRGB
 90
-16777216
102
RTVSPost2010PropOp51
 70
     0
102
RTVSPost2010Prop52
140
1.0
102
RTVSPost2010PropOp52
 70
     0
102
RTVSPost2010Prop53
 90
        2
102
RTVSPost2010PropOp53
 70
     1
102
RTVSPost2010Prop54
  1
strokes_ogs.tif
102
RTVSPost2010PropOp54
 70
     1
102
RTVSPost2010Prop55
280
     0
102
RTVSPost2010PropOp55
 70
     1
102
RTVSPost2010Prop56
140
1.0
102
RTVSPost2010PropOp56
 70
     1
102
RTVSPost2010Prop57
140
1.0
102
RTVSPost2010PropOp57
 70
     1
102
RTVSPropertyOp0
 70
     1
102
RTVSPropertyOp1
 70
     1
102
RTVSPropertyOp2
 70
     1
102
RTVSPropertyOp3
 70
     1
102
RTVSPropertyOp4
 70
     1
102
RTVSPropertyOp5
 70
     1
102
RTVSPropertyOp6
 70
     1
102
RTVSPropertyOp7
 70
     1
102
RTVSPropertyOp8
 70
     1
102
RTVSPropertyOp9
 70
     1
102
RTVSPropertyOp10
 70
     1
102
RTVSPropertyOp11
 70
     1
102
RTVSPropertyOp12
 70
     1
102
RTVSPropertyOp13
 70
     1
102
RTVSPropertyOp14
 70
     1
102
RTVSPropertyOp15
 70
     1
102
RTVSPropertyOp16
 70
     1
102
RTVSPropertyOp17
 70
     1
102
RTVSPropertyOp18
 70
     1
102
RTVSPropertyOp19
 70
     1
102
RTVSPropertyOp20
 70
     1
102
RTVSPropertyOp21
 70
     1
102
RTVSPropertyOp22
 70
     1
102
RTVSPropertyOp23
 70
     1
102
RTVSPropertyOp24
 70
     1
102
RTVSPropertyOp25
 70
     1
102
RTVSPropertyOp26
 70
     1
102
RTVSPropertyOp27
 70
     1
102
RTVSPropertyOp28
 70
     1
102
RTVSPropertyOp29
 70
     1
102
RTVSPropertyOp30
 70
     1
102
RTVSPropertyOp31
 70
     1
102
RTVSPropertyOp32
 70
     1
102
RTVSPropertyOp33
 70
     1
102
RTVSPropertyOp34
 70
     1
102
RTVSPropertyOp35
 70
     1
102
RTVSPropertyOp36
 70
     1
102
RTVSPropertyOp37
 70
     1
102
RTVSPropertyOp38
 70
     1
102
RTVSPropertyOp39
 70
     1
102
RTVSPropertyOp40
 70
     1
102
RTVSPropertyOp41
 70
     1
102
RTVSPropertyOp42
 70
     1
102
RTVSPropertyOp43
 70
     1
102
RTVSPropertyOp44
 70
     1
102
RTVSPropertyOp45
 70
     1
102
RTVSPropertyOp46
 70
     1
102
RTVSPropertyOp47
 70
     1
102
RTVSPropertyOp48
 70
     1
102
RTVSPropertyOp49
 70
     1
102
RTVSPropertyOp50
 70
     1
102
RTVSPropertyOp51
 70
     0
102
RTVSPropertyOp52
 70
     0
102
RTVSPropertyOp53
 70
     1
102
RTVSPropertyOp54
 70
     1
102
RTVSPropertyOp55
 70
     1
102
RTVSPropertyOp56
 70
     1
102
RTVSPropertyOp57
 70
     1
102
RTVSPropertyOp58
 70
     1
102
RTVSPropertyOp59
 70
     1
102
RTVSPropertyOp60
 70
     1
102
RTVSPropertyOp61
 70
     1
102
RTVSPropertyOp62
 70
     1
  0
XRECORD
  5
59D
102
{ACAD_REACTORS
330
59C
102
}
330
59C
100
AcDbXrecord
280
     1
102
RTVSPost2010Prop28
280
     0
102
RTVSPost2010PropOp28
 70
     1
102
RTVSPost2010Prop29
280
     1
102
RTVSPost2010PropOp29
 70
     1
102
RTVSPost2010Prop30
280
     1
102
RTVSPost2010PropOp30
 70
     1
102
RTVSPost2010Prop31
280
     0
102
RTVSPost2010PropOp31
 70
     1
102
RTVSPost2010Prop32
280
     0
102
RTVSPost2010PropOp32
 70
     1
102
RTVSPost2010Prop33
280
     0
102
RTVSPost2010PropOp33
 70
     1
102
RTVSPost2010Prop34
280
     0
102
RTVSPost2010PropOp34
 70
     1
102
RTVSPost2010Prop35
280
     0
102
RTVSPost2010PropOp35
 70
     1
102
RTVSPost2010Prop36
280
     0
102
RTVSPost2010PropOp36
 70
     1
102
RTVSPost2010Prop37
 90
       50
102
RTVSPost2010PropOp37
 70
     1
102
RTVSPost2010Prop38
140
0.0
102
RTVSPost2010PropOp38
 70
     1
102
RTVSPost2010Prop39
140
1.0
102
RTVSPost2010PropOp39
 70
     1
102
RTVSPost2010Prop40
 90
        0
102
RTVSPost2010PropOp40
 70
     1
102
RTVSPost2010Prop41ColorIndex
 90
       18
102
RTVSPost2010Prop41ColorRGB
 90
        0
102
RTVSPost2010PropOp41
 70
     1
102
RTVSPost2010Prop42
 90
       50
102
RTVSPost2010PropOp42
 70
     1
102
RTVSPost2010Prop43
 90
        3
102
RTVSPost2010PropOp43
 70
     1
102
RTVSPost2010Prop44ColorIndex
 90
        5
102
RTVSPost2010Prop44ColorRGB
 90
      255
102
RTVSPost2010PropOp44
 70
     1
102
RTVSPost2010Prop45
280
     0
102
RTVSPost2010PropOp45
 70
     1
102
RTVSPost2010Prop46
 90
       50
102
RTVSPost2010PropOp46
 70
     1
102
RTVSPost2010Prop47
 90
       50
102
RTVSPost2010PropOp47
 70
     1
102
RTVSPost2010Prop48
 90
       50
102
RTVSPost2010PropOp48
 70
     1
102
RTVSPost2010Prop49
280
     0
102
RTVSPost2010PropOp49
 70
     1
102
RTVSPost2010Prop50
 90
       50
102
RTVSPost2010PropOp50
 70
     1
102
RTVSPost2010Prop51ColorIndex
 90
      256
102
RTVSPost2010Prop51ColorRGB
 90
-16777216
102
RTVSPost2010PropOp51
 70
     0
102
RTVSPost2010Prop52
140
1.0
102
RTVSPost2010PropOp52
 70
     0
102
RTVSPost2010Prop53
 90
        2
102
RTVSPost2010PropOp53
 70
     1
102
RTVSPost2010Prop54
  1
strokes_ogs.tif
102
RTVSPost2010PropOp54
 70
     1
102
RTVSPost2010Prop55
280
     0
102
RTVSPost2010PropOp55
 70
     1
102
RTVSPost2010Prop56
140
1.0
102
RTVSPost2010PropOp56
 70
     1
102
RTVSPost2010Prop57
140
1.0
102
RTVSPost2010PropOp57
 70
     1
102
RTVSPropertyOp0
 70
     1
102
RTVSPropertyOp1
 70
     1
102
RTVSPropertyOp2
 70
     1
102
RTVSPropertyOp3
 70
     1
102
RTVSPropertyOp4
 70
     1
102
RTVSPropertyOp5
 70
     1
102
RTVSPropertyOp6
 70
     1
102
RTVSPropertyOp7
 70
     1
102
RTVSPropertyOp8
 70
     1
102
RTVSPropertyOp9
 70
     1
102
RTVSPropertyOp10
 70
     1
102
RTVSPropertyOp11
 70
     1
102
RTVSPropertyOp12
 70
     1
102
RTVSPropertyOp13
 70
     1
102
RTVSPropertyOp14
 70
     1
102
RTVSPropertyOp15
 70
     1
102
RTVSPropertyOp16
 70
     1
102
RTVSPropertyOp17
 70
     1
102
RTVSPropertyOp18
 70
     1
102
RTVSPropertyOp19
 70
     1
102
RTVSPropertyOp20
 70
     1
102
RTVSPropertyOp21
 70
     1
102
RTVSPropertyOp22
 70
     1
102
RTVSPropertyOp23
 70
     1
102
RTVSPropertyOp24
 70
     1
102
RTVSPropertyOp25
 70
     1
102
RTVSPropertyOp26
 70
     1
102
RTVSPropertyOp27
 70
     1
102
RTVSPropertyOp28
 70
     1
102
RTVSPropertyOp29
 70
     1
102
RTVSPropertyOp30
 70
     1
102
RTVSPropertyOp31
 70
     1
102
RTVSPropertyOp32
 70
     1
102
RTVSPropertyOp33
 70
     1
102
RTVSPropertyOp34
 70
     1
102
RTVSPropertyOp35
 70
     1
102
RTVSPropertyOp36
 70
     1
102
RTVSPropertyOp37
 70
     1
102
RTVSPropertyOp38
 70
     1
102
RTVSPropertyOp39
 70
     1
102
RTVSPropertyOp40
 70
     1
102
RTVSPropertyOp41
 70
     1
102
RTVSPropertyOp42
 70
     1
102
RTVSPropertyOp43
 70
     1
102
RTVSPropertyOp44
 70
     1
102
RTVSPropertyOp45
 70
     1
102
RTVSPropertyOp46
 70
     1
102
RTVSPropertyOp47
 70
     1
102
RTVSPropertyOp48
 70
     1
102
RTVSPropertyOp49
 70
     1
102
RTVSPropertyOp50
 70
     1
102
RTVSPropertyOp51
 70
     0
102
RTVSPropertyOp52
 70
     0
102
RTVSPropertyOp53
 70
     1
102
RTVSPropertyOp54
 70
     1
102
RTVSPropertyOp55
 70
     1
102
RTVSPropertyOp56
 70
     1
102
RTVSPropertyOp57
 70
     1
102
RTVSPropertyOp58
 70
     1
102
RTVSPropertyOp59
 70
     1
102
RTVSPropertyOp60
 70
     1
102
RTVSPropertyOp61
 70
     1
102
RTVSPropertyOp62
 70
     1
  0
XRECORD
  5
58F
102
{ACAD_REACTORS
330
58E
102
}
330
58E
100
AcDbXrecord
280
     1
102
RTVSPost2010Prop28
280
     0
102
RTVSPost2010PropOp28
 70
     1
102
RTVSPost2010Prop29
280
     1
102
RTVSPost2010PropOp29
 70
     1
102
RTVSPost2010Prop30
280
     1
102
RTVSPost2010PropOp30
 70
     1
102
RTVSPost2010Prop31
280
     0
102
RTVSPost2010PropOp31
 70
     1
102
RTVSPost2010Prop32
280
     0
102
RTVSPost2010PropOp32
 70
     1
102
RTVSPost2010Prop33
280
     0
102
RTVSPost2010PropOp33
 70
     1
102
RTVSPost2010Prop34
280
     0
102
RTVSPost2010PropOp34
 70
     1
102
RTVSPost2010Prop35
280
     0
102
RTVSPost2010PropOp35
 70
     1
102
RTVSPost2010Prop36
280
     0
102
RTVSPost2010PropOp36
 70
     1
102
RTVSPost2010Prop37
 90
       50
102
RTVSPost2010PropOp37
 70
     1
102
RTVSPost2010Prop38
140
0.0
102
RTVSPost2010PropOp38
 70
     1
102
RTVSPost2010Prop39
140
1.0
102
RTVSPost2010PropOp39
 70
     1
102
RTVSPost2010Prop40
 90
        0
102
RTVSPost2010PropOp40
 70
     1
102
RTVSPost2010Prop41ColorIndex
 90
       18
102
RTVSPost2010Prop41ColorRGB
 90
        0
102
RTVSPost2010PropOp41
 70
     1
102
RTVSPost2010Prop42
 90
       50
102
RTVSPost2010PropOp42
 70
     1
102
RTVSPost2010Prop43
 90
        3
102
RTVSPost2010PropOp43
 70
     1
102
RTVSPost2010Prop44ColorIndex
 90
        5
102
RTVSPost2010Prop44ColorRGB
 90
      255
102
RTVSPost2010PropOp44
 70
     1
102
RTVSPost2010Prop45
280
     0
102
RTVSPost2010PropOp45
 70
     1
102
RTVSPost2010Prop46
 90
       50
102
RTVSPost2010PropOp46
 70
     1
102
RTVSPost2010Prop47
 90
       50
102
RTVSPost2010PropOp47
 70
     1
102
RTVSPost2010Prop48
 90
       50
102
RTVSPost2010PropOp48
 70
     1
102
RTVSPost2010Prop49
280
     0
102
RTVSPost2010PropOp49
 70
     1
102
RTVSPost2010Prop50
 90
       50
102
RTVSPost2010PropOp50
 70
     1
102
RTVSPost2010Prop51ColorIndex
 90
      256
102
RTVSPost2010Prop51ColorRGB
 90
-16777216
102
RTVSPost2010PropOp51
 70
     0
102
RTVSPost2010Prop52
140
1.0
102
RTVSPost2010PropOp52
 70
     0
102
RTVSPost2010Prop53
 90
        2
102
RTVSPost2010PropOp53
 70
     1
102
RTVSPost2010Prop54
  1
strokes_ogs.tif
102
RTVSPost2010PropOp54
 70
     1
102
RTVSPost2010Prop55
280
     0
102
RTVSPost2010PropOp55
 70
     1
102
RTVSPost2010Prop56
140
1.0
102
RTVSPost2010PropOp56
 70
     1
102
RTVSPost2010Prop57
140
1.0
102
RTVSPost2010PropOp57
 70
     1
102
RTVSPropertyOp0
 70
     1
102
RTVSPropertyOp1
 70
     1
102
RTVSPropertyOp2
 70
     1
102
RTVSPropertyOp3
 70
     1
102
RTVSPropertyOp4
 70
     1
102
RTVSPropertyOp5
 70
     1
102
RTVSPropertyOp6
 70
     1
102
RTVSPropertyOp7
 70
     1
102
RTVSPropertyOp8
 70
     1
102
RTVSPropertyOp9
 70
     1
102
RTVSPropertyOp10
 70
     1
102
RTVSPropertyOp11
 70
     1
102
RTVSPropertyOp12
 70
     1
102
RTVSPropertyOp13
 70
     1
102
RTVSPropertyOp14
 70
     1
102
RTVSPropertyOp15
 70
     1
102
RTVSPropertyOp16
 70
     1
102
RTVSPropertyOp17
 70
     1
102
RTVSPropertyOp18
 70
     1
102
RTVSPropertyOp19
 70
     1
102
RTVSPropertyOp20
 70
     1
102
RTVSPropertyOp21
 70
     1
102
RTVSPropertyOp22
 70
     1
102
RTVSPropertyOp23
 70
     1
102
RTVSPropertyOp24
 70
     1
102
RTVSPropertyOp25
 70
     1
102
RTVSPropertyOp26
 70
     1
102
RTVSPropertyOp27
 70
     1
102
RTVSPropertyOp28
 70
     1
102
RTVSPropertyOp29
 70
     1
102
RTVSPropertyOp30
 70
     1
102
RTVSPropertyOp31
 70
     1
102
RTVSPropertyOp32
 70
     1
102
RTVSPropertyOp33
 70
     1
102
RTVSPropertyOp34
 70
     1
102
RTVSPropertyOp35
 70
     1
102
RTVSPropertyOp36
 70
     1
102
RTVSPropertyOp37
 70
     1
102
RTVSPropertyOp38
 70
     1
102
RTVSPropertyOp39
 70
     1
102
RTVSPropertyOp40
 70
     1
102
RTVSPropertyOp41
 70
     1
102
RTVSPropertyOp42
 70
     1
102
RTVSPropertyOp43
 70
     1
102
RTVSPropertyOp44
 70
     1
102
RTVSPropertyOp45
 70
     1
102
RTVSPropertyOp46
 70
     1
102
RTVSPropertyOp47
 70
     1
102
RTVSPropertyOp48
 70
     1
102
RTVSPropertyOp49
 70
     1
102
RTVSPropertyOp50
 70
     1
102
RTVSPropertyOp51
 70
     0
102
RTVSPropertyOp52
 70
     0
102
RTVSPropertyOp53
 70
     1
102
RTVSPropertyOp54
 70
     1
102
RTVSPropertyOp55
 70
     1
102
RTVSPropertyOp56
 70
     1
102
RTVSPropertyOp57
 70
     1
102
RTVSPropertyOp58
 70
     1
102
RTVSPropertyOp59
 70
     1
102
RTVSPropertyOp60
 70
     1
102
RTVSPropertyOp61
 70
     1
102
RTVSPropertyOp62
 70
     1
  0
XRECORD
  5
593
102
{ACAD_REACTORS
330
592
102
}
330
592
100
AcDbXrecord
280
     1
102
RTVSPost2010Prop28
280
     0
102
RTVSPost2010PropOp28
 70
     1
102
RTVSPost2010Prop29
280
     1
102
RTVSPost2010PropOp29
 70
     1
102
RTVSPost2010Prop30
280
     1
102
RTVSPost2010PropOp30
 70
     1
102
RTVSPost2010Prop31
280
     0
102
RTVSPost2010PropOp31
 70
     1
102
RTVSPost2010Prop32
280
     0
102
RTVSPost2010PropOp32
 70
     1
102
RTVSPost2010Prop33
280
     0
102
RTVSPost2010PropOp33
 70
     1
102
RTVSPost2010Prop34
280
     0
102
RTVSPost2010PropOp34
 70
     1
102
RTVSPost2010Prop35
280
     0
102
RTVSPost2010PropOp35
 70
     1
102
RTVSPost2010Prop36
280
     0
102
RTVSPost2010PropOp36
 70
     1
102
RTVSPost2010Prop37
 90
       50
102
RTVSPost2010PropOp37
 70
     1
102
RTVSPost2010Prop38
140
0.0
102
RTVSPost2010PropOp38
 70
     1
102
RTVSPost2010Prop39
140
1.0
102
RTVSPost2010PropOp39
 70
     1
102
RTVSPost2010Prop40
 90
        0
102
RTVSPost2010PropOp40
 70
     1
102
RTVSPost2010Prop41ColorIndex
 90
       18
102
RTVSPost2010Prop41ColorRGB
 90
        0
102
RTVSPost2010PropOp41
 70
     1
102
RTVSPost2010Prop42
 90
       50
102
RTVSPost2010PropOp42
 70
     1
102
RTVSPost2010Prop43
 90
        3
102
RTVSPost2010PropOp43
 70
     1
102
RTVSPost2010Prop44ColorIndex
 90
        5
102
RTVSPost2010Prop44ColorRGB
 90
      255
102
RTVSPost2010PropOp44
 70
     1
102
RTVSPost2010Prop45
280
     0
102
RTVSPost2010PropOp45
 70
     1
102
RTVSPost2010Prop46
 90
       50
102
RTVSPost2010PropOp46
 70
     1
102
RTVSPost2010Prop47
 90
       50
102
RTVSPost2010PropOp47
 70
     1
102
RTVSPost2010Prop48
 90
       50
102
RTVSPost2010PropOp48
 70
     1
102
RTVSPost2010Prop49
280
     0
102
RTVSPost2010PropOp49
 70
     1
102
RTVSPost2010Prop50
 90
       50
102
RTVSPost2010PropOp50
 70
     1
102
RTVSPost2010Prop51ColorIndex
 90
      256
102
RTVSPost2010Prop51ColorRGB
 90
-16777216
102
RTVSPost2010PropOp51
 70
     0
102
RTVSPost2010Prop52
140
1.0
102
RTVSPost2010PropOp52
 70
     0
102
RTVSPost2010Prop53
 90
        2
102
RTVSPost2010PropOp53
 70
     1
102
RTVSPost2010Prop54
  1
strokes_ogs.tif
102
RTVSPost2010PropOp54
 70
     1
102
RTVSPost2010Prop55
280
     0
102
RTVSPost2010PropOp55
 70
     1
102
RTVSPost2010Prop56
140
1.0
102
RTVSPost2010PropOp56
 70
     1
102
RTVSPost2010Prop57
140
1.0
102
RTVSPost2010PropOp57
 70
     1
102
RTVSPropertyOp0
 70
     1
102
RTVSPropertyOp1
 70
     1
102
RTVSPropertyOp2
 70
     1
102
RTVSPropertyOp3
 70
     1
102
RTVSPropertyOp4
 70
     1
102
RTVSPropertyOp5
 70
     1
102
RTVSPropertyOp6
 70
     1
102
RTVSPropertyOp7
 70
     1
102
RTVSPropertyOp8
 70
     1
102
RTVSPropertyOp9
 70
     1
102
RTVSPropertyOp10
 70
     1
102
RTVSPropertyOp11
 70
     1
102
RTVSPropertyOp12
 70
     1
102
RTVSPropertyOp13
 70
     1
102
RTVSPropertyOp14
 70
     1
102
RTVSPropertyOp15
 70
     1
102
RTVSPropertyOp16
 70
     1
102
RTVSPropertyOp17
 70
     1
102
RTVSPropertyOp18
 70
     1
102
RTVSPropertyOp19
 70
     1
102
RTVSPropertyOp20
 70
     1
102
RTVSPropertyOp21
 70
     1
102
RTVSPropertyOp22
 70
     1
102
RTVSPropertyOp23
 70
     1
102
RTVSPropertyOp24
 70
     1
102
RTVSPropertyOp25
 70
     1
102
RTVSPropertyOp26
 70
     1
102
RTVSPropertyOp27
 70
     1
102
RTVSPropertyOp28
 70
     1
102
RTVSPropertyOp29
 70
     1
102
RTVSPropertyOp30
 70
     1
102
RTVSPropertyOp31
 70
     1
102
RTVSPropertyOp32
 70
     1
102
RTVSPropertyOp33
 70
     1
102
RTVSPropertyOp34
 70
     1
102
RTVSPropertyOp35
 70
     1
102
RTVSPropertyOp36
 70
     1
102
RTVSPropertyOp37
 70
     1
102
RTVSPropertyOp38
 70
     1
102
RTVSPropertyOp39
 70
     1
102
RTVSPropertyOp40
 70
     1
102
RTVSPropertyOp41
 70
     1
102
RTVSPropertyOp42
 70
     1
102
RTVSPropertyOp43
 70
     1
102
RTVSPropertyOp44
 70
     1
102
RTVSPropertyOp45
 70
     1
102
RTVSPropertyOp46
 70
     1
102
RTVSPropertyOp47
 70
     1
102
RTVSPropertyOp48
 70
     1
102
RTVSPropertyOp49
 70
     1
102
RTVSPropertyOp50
 70
     1
102
RTVSPropertyOp51
 70
     0
102
RTVSPropertyOp52
 70
     0
102
RTVSPropertyOp53
 70
     1
102
RTVSPropertyOp54
 70
     1
102
RTVSPropertyOp55
 70
     1
102
RTVSPropertyOp56
 70
     1
102
RTVSPropertyOp57
 70
     1
102
RTVSPropertyOp58
 70
     1
102
RTVSPropertyOp59
 70
     1
102
RTVSPropertyOp60
 70
     1
102
RTVSPropertyOp61
 70
     1
102
RTVSPropertyOp62
 70
     1
  0
XRECORD
  5
5AD
102
{ACAD_REACTORS
330
5AC
102
}
330
5AC
100
AcDbXrecord
280
     1
102
RTVSPost2010Prop28
280
     0
102
RTVSPost2010PropOp28
 70
     0
102
RTVSPost2010Prop29
280
     1
102
RTVSPost2010PropOp29
 70
     0
102
RTVSPost2010Prop30
280
     1
102
RTVSPost2010PropOp30
 70
     0
102
RTVSPost2010Prop31
280
     0
102
RTVSPost2010PropOp31
 70
     0
102
RTVSPost2010Prop32
280
     0
102
RTVSPost2010PropOp32
 70
     0
102
RTVSPost2010Prop33
280
     0
102
RTVSPost2010PropOp33
 70
     0
102
RTVSPost2010Prop34
280
     0
102
RTVSPost2010PropOp34
 70
     0
102
RTVSPost2010Prop35
280
     0
102
RTVSPost2010PropOp35
 70
     0
102
RTVSPost2010Prop36
280
     0
102
RTVSPost2010PropOp36
 70
     0
102
RTVSPost2010Prop37
 90
       50
102
RTVSPost2010PropOp37
 70
     0
102
RTVSPost2010Prop38
140
0.0
102
RTVSPost2010PropOp38
 70
     0
102
RTVSPost2010Prop39
140
1.0
102
RTVSPost2010PropOp39
 70
     0
102
RTVSPost2010Prop40
 90
        0
102
RTVSPost2010PropOp40
 70
     0
102
RTVSPost2010Prop41ColorIndex
 90
       18
102
RTVSPost2010Prop41ColorRGB
 90
        0
102
RTVSPost2010PropOp41
 70
     0
102
RTVSPost2010Prop42
 90
       50
102
RTVSPost2010PropOp42
 70
     0
102
RTVSPost2010Prop43
 90
        3
102
RTVSPost2010PropOp43
 70
     0
102
RTVSPost2010Prop44ColorIndex
 90
        5
102
RTVSPost2010Prop44ColorRGB
 90
      255
102
RTVSPost2010PropOp44
 70
     0
102
RTVSPost2010Prop45
280
     0
102
RTVSPost2010PropOp45
 70
     0
102
RTVSPost2010Prop46
 90
       50
102
RTVSPost2010PropOp46
 70
     0
102
RTVSPost2010Prop47
 90
       50
102
RTVSPost2010PropOp47
 70
     0
102
RTVSPost2010Prop48
 90
       50
102
RTVSPost2010PropOp48
 70
     0
102
RTVSPost2010Prop49
280
     0
102
RTVSPost2010PropOp49
 70
     0
102
RTVSPost2010Prop50
 90
       50
102
RTVSPost2010PropOp50
 70
     0
102
RTVSPost2010Prop51ColorIndex
 90
      256
102
RTVSPost2010Prop51ColorRGB
 90
-16777216
102
RTVSPost2010PropOp51
 70
     0
102
RTVSPost2010Prop52
140
1.0
102
RTVSPost2010PropOp52
 70
     0
102
RTVSPost2010Prop53
 90
        2
102
RTVSPost2010PropOp53
 70
     0
102
RTVSPost2010Prop54
  1
strokes_ogs.tif
102
RTVSPost2010PropOp54
 70
     0
102
RTVSPost2010Prop55
280
     0
102
RTVSPost2010PropOp55
 70
     0
102
RTVSPost2010Prop56
140
1.0
102
RTVSPost2010PropOp56
 70
     0
102
RTVSPost2010Prop57
140
1.0
102
RTVSPost2010PropOp57
 70
     0
102
RTVSPropertyOp0
 70
     0
102
RTVSPropertyOp1
 70
     0
102
RTVSPropertyOp2
 70
     0
102
RTVSPropertyOp3
 70
     0
102
RTVSPropertyOp4
 70
     0
102
RTVSPropertyOp5
 70
     0
102
RTVSPropertyOp6
 70
     0
102
RTVSPropertyOp7
 70
     0
102
RTVSPropertyOp8
 70
     0
102
RTVSPropertyOp9
 70
     0
102
RTVSPropertyOp10
 70
     0
102
RTVSPropertyOp11
 70
     0
102
RTVSPropertyOp12
 70
     0
102
RTVSPropertyOp13
 70
     0
102
RTVSPropertyOp14
 70
     2
102
RTVSPropertyOp15
 70
     0
102
RTVSPropertyOp16
 70
     0
102
RTVSPropertyOp17
 70
     0
102
RTVSPropertyOp18
 70
     0
102
RTVSPropertyOp19
 70
     0
102
RTVSPropertyOp20
 70
     0
102
RTVSPropertyOp21
 70
     0
102
RTVSPropertyOp22
 70
     0
102
RTVSPropertyOp23
 70
     0
102
RTVSPropertyOp24
 70
     0
102
RTVSPropertyOp25
 70
     0
102
RTVSPropertyOp26
 70
     0
102
RTVSPropertyOp27
 70
     0
102
RTVSPropertyOp28
 70
     0
102
RTVSPropertyOp29
 70
     0
102
RTVSPropertyOp30
 70
     0
102
RTVSPropertyOp31
 70
     0
102
RTVSPropertyOp32
 70
     0
102
RTVSPropertyOp33
 70
     0
102
RTVSPropertyOp34
 70
     0
102
RTVSPropertyOp35
 70
     0
102
RTVSPropertyOp36
 70
     0
102
RTVSPropertyOp37
 70
     0
102
RTVSPropertyOp38
 70
     0
102
RTVSPropertyOp39
 70
     0
102
RTVSPropertyOp40
 70
     0
102
RTVSPropertyOp41
 70
     0
102
RTVSPropertyOp42
 70
     0
102
RTVSPropertyOp43
 70
     0
102
RTVSPropertyOp44
 70
     0
102
RTVSPropertyOp45
 70
     0
102
RTVSPropertyOp46
 70
     0
102
RTVSPropertyOp47
 70
     0
102
RTVSPropertyOp48
 70
     0
102
RTVSPropertyOp49
 70
     0
102
RTVSPropertyOp50
 70
     0
102
RTVSPropertyOp51
 70
     0
102
RTVSPropertyOp52
 70
     0
102
RTVSPropertyOp53
 70
     0
102
RTVSPropertyOp54
 70
     0
102
RTVSPropertyOp55
 70
     0
102
RTVSPropertyOp56
 70
     0
102
RTVSPropertyOp57
 70
     0
102
RTVSPropertyOp58
 70
     0
102
RTVSPropertyOp59
 70
     0
102
RTVSPropertyOp60
 70
     0
102
RTVSPropertyOp61
 70
     0
102
RTVSPropertyOp62
 70
     0
  0
XRECORD
  5
59B
102
{ACAD_REACTORS
330
59A
102
}
330
59A
100
AcDbXrecord
280
     1
102
RTVSPost2010Prop28
280
     0
102
RTVSPost2010PropOp28
 70
     1
102
RTVSPost2010Prop29
280
     1
102
RTVSPost2010PropOp29
 70
     1
102
RTVSPost2010Prop30
280
     1
102
RTVSPost2010PropOp30
 70
     1
102
RTVSPost2010Prop31
280
     0
102
RTVSPost2010PropOp31
 70
     1
102
RTVSPost2010Prop32
280
     0
102
RTVSPost2010PropOp32
 70
     1
102
RTVSPost2010Prop33
280
     0
102
RTVSPost2010PropOp33
 70
     1
102
RTVSPost2010Prop34
280
     0
102
RTVSPost2010PropOp34
 70
     1
102
RTVSPost2010Prop35
280
     0
102
RTVSPost2010PropOp35
 70
     1
102
RTVSPost2010Prop36
280
     0
102
RTVSPost2010PropOp36
 70
     1
102
RTVSPost2010Prop37
 90
       50
102
RTVSPost2010PropOp37
 70
     1
102
RTVSPost2010Prop38
140
0.0
102
RTVSPost2010PropOp38
 70
     1
102
RTVSPost2010Prop39
140
1.0
102
RTVSPost2010PropOp39
 70
     1
102
RTVSPost2010Prop40
 90
        0
102
RTVSPost2010PropOp40
 70
     1
102
RTVSPost2010Prop41ColorIndex
 90
       18
102
RTVSPost2010Prop41ColorRGB
 90
        0
102
RTVSPost2010PropOp41
 70
     1
102
RTVSPost2010Prop42
 90
       50
102
RTVSPost2010PropOp42
 70
     1
102
RTVSPost2010Prop43
 90
        3
102
RTVSPost2010PropOp43
 70
     1
102
RTVSPost2010Prop44ColorIndex
 90
        5
102
RTVSPost2010Prop44ColorRGB
 90
      255
102
RTVSPost2010PropOp44
 70
     1
102
RTVSPost2010Prop45
280
     0
102
RTVSPost2010PropOp45
 70
     1
102
RTVSPost2010Prop46
 90
       50
102
RTVSPost2010PropOp46
 70
     1
102
RTVSPost2010Prop47
 90
       50
102
RTVSPost2010PropOp47
 70
     1
102
RTVSPost2010Prop48
 90
       50
102
RTVSPost2010PropOp48
 70
     1
102
RTVSPost2010Prop49
280
     0
102
RTVSPost2010PropOp49
 70
     1
102
RTVSPost2010Prop50
 90
       50
102
RTVSPost2010PropOp50
 70
     1
102
RTVSPost2010Prop51ColorIndex
 90
      256
102
RTVSPost2010Prop51ColorRGB
 90
-16777216
102
RTVSPost2010PropOp51
 70
     0
102
RTVSPost2010Prop52
140
1.0
102
RTVSPost2010PropOp52
 70
     0
102
RTVSPost2010Prop53
 90
        2
102
RTVSPost2010PropOp53
 70
     1
102
RTVSPost2010Prop54
  1
strokes_ogs.tif
102
RTVSPost2010PropOp54
 70
     1
102
RTVSPost2010Prop55
280
     0
102
RTVSPost2010PropOp55
 70
     1
102
RTVSPost2010Prop56
140
1.0
102
RTVSPost2010PropOp56
 70
     1
102
RTVSPost2010Prop57
140
1.0
102
RTVSPost2010PropOp57
 70
     1
102
RTVSPropertyOp0
 70
     1
102
RTVSPropertyOp1
 70
     1
102
RTVSPropertyOp2
 70
     1
102
RTVSPropertyOp3
 70
     1
102
RTVSPropertyOp4
 70
     1
102
RTVSPropertyOp5
 70
     1
102
RTVSPropertyOp6
 70
     1
102
RTVSPropertyOp7
 70
     1
102
RTVSPropertyOp8
 70
     1
102
RTVSPropertyOp9
 70
     1
102
RTVSPropertyOp10
 70
     1
102
RTVSPropertyOp11
 70
     1
102
RTVSPropertyOp12
 70
     1
102
RTVSPropertyOp13
 70
     1
102
RTVSPropertyOp14
 70
     1
102
RTVSPropertyOp15
 70
     1
102
RTVSPropertyOp16
 70
     1
102
RTVSPropertyOp17
 70
     1
102
RTVSPropertyOp18
 70
     1
102
RTVSPropertyOp19
 70
     1
102
RTVSPropertyOp20
 70
     1
102
RTVSPropertyOp21
 70
     1
102
RTVSPropertyOp22
 70
     1
102
RTVSPropertyOp23
 70
     1
102
RTVSPropertyOp24
 70
     1
102
RTVSPropertyOp25
 70
     1
102
RTVSPropertyOp26
 70
     1
102
RTVSPropertyOp27
 70
     1
102
RTVSPropertyOp28
 70
     1
102
RTVSPropertyOp29
 70
     1
102
RTVSPropertyOp30
 70
     1
102
RTVSPropertyOp31
 70
     1
102
RTVSPropertyOp32
 70
     1
102
RTVSPropertyOp33
 70
     1
102
RTVSPropertyOp34
 70
     1
102
RTVSPropertyOp35
 70
     1
102
RTVSPropertyOp36
 70
     1
102
RTVSPropertyOp37
 70
     1
102
RTVSPropertyOp38
 70
     1
102
RTVSPropertyOp39
 70
     1
102
RTVSPropertyOp40
 70
     1
102
RTVSPropertyOp41
 70
     1
102
RTVSPropertyOp42
 70
     1
102
RTVSPropertyOp43
 70
     1
102
RTVSPropertyOp44
 70
     1
102
RTVSPropertyOp45
 70
     1
102
RTVSPropertyOp46
 70
     1
102
RTVSPropertyOp47
 70
     1
102
RTVSPropertyOp48
 70
     1
102
RTVSPropertyOp49
 70
     1
102
RTVSPropertyOp50
 70
     1
102
RTVSPropertyOp51
 70
     0
102
RTVSPropertyOp52
 70
     0
102
RTVSPropertyOp53
 70
     1
102
RTVSPropertyOp54
 70
     1
102
RTVSPropertyOp55
 70
     1
102
RTVSPropertyOp56
 70
     1
102
RTVSPropertyOp57
 70
     1
102
RTVSPropertyOp58
 70
     1
102
RTVSPropertyOp59
 70
     1
102
RTVSPropertyOp60
 70
     1
102
RTVSPropertyOp61
 70
     1
102
RTVSPropertyOp62
 70
     1
  0
XRECORD
  5
57F
102
{ACAD_REACTORS
330
57E
102
}
330
57E
100
AcDbXrecord
280
     1
102
RTVSPost2010Prop28
280
     0
102
RTVSPost2010PropOp28
 70
     1
102
RTVSPost2010Prop29
280
     1
102
RTVSPost2010PropOp29
 70
     1
102
RTVSPost2010Prop30
280
     1
102
RTVSPost2010PropOp30
 70
     1
102
RTVSPost2010Prop31
280
     0
102
RTVSPost2010PropOp31
 70
     1
102
RTVSPost2010Prop32
280
     0
102
RTVSPost2010PropOp32
 70
     1
102
RTVSPost2010Prop33
280
     0
102
RTVSPost2010PropOp33
 70
     1
102
RTVSPost2010Prop34
280
     0
102
RTVSPost2010PropOp34
 70
     1
102
RTVSPost2010Prop35
280
     0
102
RTVSPost2010PropOp35
 70
     1
102
RTVSPost2010Prop36
280
     0
102
RTVSPost2010PropOp36
 70
     1
102
RTVSPost2010Prop37
 90
       50
102
RTVSPost2010PropOp37
 70
     1
102
RTVSPost2010Prop38
140
0.0
102
RTVSPost2010PropOp38
 70
     1
102
RTVSPost2010Prop39
140
1.0
102
RTVSPost2010PropOp39
 70
     1
102
RTVSPost2010Prop40
 90
        0
102
RTVSPost2010PropOp40
 70
     1
102
RTVSPost2010Prop41ColorIndex
 90
       18
102
RTVSPost2010Prop41ColorRGB
 90
        0
102
RTVSPost2010PropOp41
 70
     1
102
RTVSPost2010Prop42
 90
       50
102
RTVSPost2010PropOp42
 70
     1
102
RTVSPost2010Prop43
 90
        3
102
RTVSPost2010PropOp43
 70
     1
102
RTVSPost2010Prop44ColorIndex
 90
        5
102
RTVSPost2010Prop44ColorRGB
 90
      255
102
RTVSPost2010PropOp44
 70
     1
102
RTVSPost2010Prop45
280
     0
102
RTVSPost2010PropOp45
 70
     1
102
RTVSPost2010Prop46
 90
       50
102
RTVSPost2010PropOp46
 70
     1
102
RTVSPost2010Prop47
 90
       50
102
RTVSPost2010PropOp47
 70
     1
102
RTVSPost2010Prop48
 90
       50
102
RTVSPost2010PropOp48
 70
     1
102
RTVSPost2010Prop49
280
     0
102
RTVSPost2010PropOp49
 70
     1
102
RTVSPost2010Prop50
 90
       50
102
RTVSPost2010PropOp50
 70
     1
102
RTVSPost2010Prop51ColorIndex
 90
      256
102
RTVSPost2010Prop51ColorRGB
 90
-16777216
102
RTVSPost2010PropOp51
 70
     0
102
RTVSPost2010Prop52
140
1.0
102
RTVSPost2010PropOp52
 70
     0
102
RTVSPost2010Prop53
 90
        2
102
RTVSPost2010PropOp53
 70
     1
102
RTVSPost2010Prop54
  1
strokes_ogs.tif
102
RTVSPost2010PropOp54
 70
     1
102
RTVSPost2010Prop55
280
     0
102
RTVSPost2010PropOp55
 70
     1
102
RTVSPost2010Prop56
140
1.0
102
RTVSPost2010PropOp56
 70
     1
102
RTVSPost2010Prop57
140
1.0
102
RTVSPost2010PropOp57
 70
     1
102
RTVSPropertyOp0
 70
     1
102
RTVSPropertyOp1
 70
     1
102
RTVSPropertyOp2
 70
     1
102
RTVSPropertyOp3
 70
     1
102
RTVSPropertyOp4
 70
     1
102
RTVSPropertyOp5
 70
     1
102
RTVSPropertyOp6
 70
     1
102
RTVSPropertyOp7
 70
     1
102
RTVSPropertyOp8
 70
     1
102
RTVSPropertyOp9
 70
     1
102
RTVSPropertyOp10
 70
     1
102
RTVSPropertyOp11
 70
     1
102
RTVSPropertyOp12
 70
     1
102
RTVSPropertyOp13
 70
     1
102
RTVSPropertyOp14
 70
     1
102
RTVSPropertyOp15
 70
     1
102
RTVSPropertyOp16
 70
     1
102
RTVSPropertyOp17
 70
     1
102
RTVSPropertyOp18
 70
     1
102
RTVSPropertyOp19
 70
     1
102
RTVSPropertyOp20
 70
     1
102
RTVSPropertyOp21
 70
     1
102
RTVSPropertyOp22
 70
     1
102
RTVSPropertyOp23
 70
     1
102
RTVSPropertyOp24
 70
     1
102
RTVSPropertyOp25
 70
     1
102
RTVSPropertyOp26
 70
     1
102
RTVSPropertyOp27
 70
     1
102
RTVSPropertyOp28
 70
     1
102
RTVSPropertyOp29
 70
     1
102
RTVSPropertyOp30
 70
     1
102
RTVSPropertyOp31
 70
     1
102
RTVSPropertyOp32
 70
     1
102
RTVSPropertyOp33
 70
     1
102
RTVSPropertyOp34
 70
     1
102
RTVSPropertyOp35
 70
     1
102
RTVSPropertyOp36
 70
     1
102
RTVSPropertyOp37
 70
     1
102
RTVSPropertyOp38
 70
     1
102
RTVSPropertyOp39
 70
     1
102
RTVSPropertyOp40
 70
     1
102
RTVSPropertyOp41
 70
     1
102
RTVSPropertyOp42
 70
     1
102
RTVSPropertyOp43
 70
     1
102
RTVSPropertyOp44
 70
     1
102
RTVSPropertyOp45
 70
     1
102
RTVSPropertyOp46
 70
     1
102
RTVSPropertyOp47
 70
     1
102
RTVSPropertyOp48
 70
     1
102
RTVSPropertyOp49
 70
     1
102
RTVSPropertyOp50
 70
     1
102
RTVSPropertyOp51
 70
     0
102
RTVSPropertyOp52
 70
     0
102
RTVSPropertyOp53
 70
     1
102
RTVSPropertyOp54
 70
     1
102
RTVSPropertyOp55
 70
     1
102
RTVSPropertyOp56
 70
     1
102
RTVSPropertyOp57
 70
     1
102
RTVSPropertyOp58
 70
     1
102
RTVSPropertyOp59
 70
     1
102
RTVSPropertyOp60
 70
     1
102
RTVSPropertyOp61
 70
     1
102
RTVSPropertyOp62
 70
     1
  0
XRECORD
  5
581
102
{ACAD_REACTORS
330
580
102
}
330
580
100
AcDbXrecord
280
     1
102
RTVSPost2010Prop28
280
     0
102
RTVSPost2010PropOp28
 70
     1
102
RTVSPost2010Prop29
280
     1
102
RTVSPost2010PropOp29
 70
     1
102
RTVSPost2010Prop30
280
     1
102
RTVSPost2010PropOp30
 70
     1
102
RTVSPost2010Prop31
280
     0
102
RTVSPost2010PropOp31
 70
     1
102
RTVSPost2010Prop32
280
     0
102
RTVSPost2010PropOp32
 70
     1
102
RTVSPost2010Prop33
280
     0
102
RTVSPost2010PropOp33
 70
     1
102
RTVSPost2010Prop34
280
     0
102
RTVSPost2010PropOp34
 70
     1
102
RTVSPost2010Prop35
280
     0
102
RTVSPost2010PropOp35
 70
     1
102
RTVSPost2010Prop36
280
     0
102
RTVSPost2010PropOp36
 70
     1
102
RTVSPost2010Prop37
 90
       50
102
RTVSPost2010PropOp37
 70
     1
102
RTVSPost2010Prop38
140
0.0
102
RTVSPost2010PropOp38
 70
     1
102
RTVSPost2010Prop39
140
1.0
102
RTVSPost2010PropOp39
 70
     1
102
RTVSPost2010Prop40
 90
        0
102
RTVSPost2010PropOp40
 70
     1
102
RTVSPost2010Prop41ColorIndex
 90
       18
102
RTVSPost2010Prop41ColorRGB
 90
        0
102
RTVSPost2010PropOp41
 70
     1
102
RTVSPost2010Prop42
 90
       50
102
RTVSPost2010PropOp42
 70
     1
102
RTVSPost2010Prop43
 90
        3
102
RTVSPost2010PropOp43
 70
     1
102
RTVSPost2010Prop44ColorIndex
 90
        5
102
RTVSPost2010Prop44ColorRGB
 90
      255
102
RTVSPost2010PropOp44
 70
     1
102
RTVSPost2010Prop45
280
     0
102
RTVSPost2010PropOp45
 70
     1
102
RTVSPost2010Prop46
 90
       50
102
RTVSPost2010PropOp46
 70
     1
102
RTVSPost2010Prop47
 90
       50
102
RTVSPost2010PropOp47
 70
     1
102
RTVSPost2010Prop48
 90
       50
102
RTVSPost2010PropOp48
 70
     1
102
RTVSPost2010Prop49
280
     0
102
RTVSPost2010PropOp49
 70
     1
102
RTVSPost2010Prop50
 90
       50
102
RTVSPost2010PropOp50
 70
     1
102
RTVSPost2010Prop51ColorIndex
 90
      256
102
RTVSPost2010Prop51ColorRGB
 90
-16777216
102
RTVSPost2010PropOp51
 70
     0
102
RTVSPost2010Prop52
140
1.0
102
RTVSPost2010PropOp52
 70
     0
102
RTVSPost2010Prop53
 90
        2
102
RTVSPost2010PropOp53
 70
     1
102
RTVSPost2010Prop54
  1
strokes_ogs.tif
102
RTVSPost2010PropOp54
 70
     1
102
RTVSPost2010Prop55
280
     0
102
RTVSPost2010PropOp55
 70
     1
102
RTVSPost2010Prop56
140
1.0
102
RTVSPost2010PropOp56
 70
     1
102
RTVSPost2010Prop57
140
1.0
102
RTVSPost2010PropOp57
 70
     1
102
RTVSPropertyOp0
 70
     1
102
RTVSPropertyOp1
 70
     1
102
RTVSPropertyOp2
 70
     1
102
RTVSPropertyOp3
 70
     1
102
RTVSPropertyOp4
 70
     1
102
RTVSPropertyOp5
 70
     1
102
RTVSPropertyOp6
 70
     1
102
RTVSPropertyOp7
 70
     1
102
RTVSPropertyOp8
 70
     1
102
RTVSPropertyOp9
 70
     1
102
RTVSPropertyOp10
 70
     1
102
RTVSPropertyOp11
 70
     1
102
RTVSPropertyOp12
 70
     1
102
RTVSPropertyOp13
 70
     1
102
RTVSPropertyOp14
 70
     1
102
RTVSPropertyOp15
 70
     1
102
RTVSPropertyOp16
 70
     1
102
RTVSPropertyOp17
 70
     1
102
RTVSPropertyOp18
 70
     1
102
RTVSPropertyOp19
 70
     1
102
RTVSPropertyOp20
 70
     1
102
RTVSPropertyOp21
 70
     1
102
RTVSPropertyOp22
 70
     1
102
RTVSPropertyOp23
 70
     1
102
RTVSPropertyOp24
 70
     1
102
RTVSPropertyOp25
 70
     1
102
RTVSPropertyOp26
 70
     1
102
RTVSPropertyOp27
 70
     1
102
RTVSPropertyOp28
 70
     1
102
RTVSPropertyOp29
 70
     1
102
RTVSPropertyOp30
 70
     1
102
RTVSPropertyOp31
 70
     1
102
RTVSPropertyOp32
 70
     1
102
RTVSPropertyOp33
 70
     1
102
RTVSPropertyOp34
 70
     1
102
RTVSPropertyOp35
 70
     1
102
RTVSPropertyOp36
 70
     1
102
RTVSPropertyOp37
 70
     1
102
RTVSPropertyOp38
 70
     1
102
RTVSPropertyOp39
 70
     1
102
RTVSPropertyOp40
 70
     1
102
RTVSPropertyOp41
 70
     1
102
RTVSPropertyOp42
 70
     1
102
RTVSPropertyOp43
 70
     1
102
RTVSPropertyOp44
 70
     1
102
RTVSPropertyOp45
 70
     1
102
RTVSPropertyOp46
 70
     1
102
RTVSPropertyOp47
 70
     1
102
RTVSPropertyOp48
 70
     1
102
RTVSPropertyOp49
 70
     1
102
RTVSPropertyOp50
 70
     1
102
RTVSPropertyOp51
 70
     0
102
RTVSPropertyOp52
 70
     0
102
RTVSPropertyOp53
 70
     1
102
RTVSPropertyOp54
 70
     1
102
RTVSPropertyOp55
 70
     1
102
RTVSPropertyOp56
 70
     1
102
RTVSPropertyOp57
 70
     1
102
RTVSPropertyOp58
 70
     1
102
RTVSPropertyOp59
 70
     1
102
RTVSPropertyOp60
 70
     1
102
RTVSPropertyOp61
 70
     1
102
RTVSPropertyOp62
 70
     1
  0
XRECORD
  5
583
102
{ACAD_REACTORS
330
582
102
}
330
582
100
AcDbXrecord
280
     1
102
RTVSPost2010Prop28
280
     0
102
RTVSPost2010PropOp28
 70
     1
102
RTVSPost2010Prop29
280
     1
102
RTVSPost2010PropOp29
 70
     1
102
RTVSPost2010Prop30
280
     1
102
RTVSPost2010PropOp30
 70
     1
102
RTVSPost2010Prop31
280
     0
102
RTVSPost2010PropOp31
 70
     1
102
RTVSPost2010Prop32
280
     0
102
RTVSPost2010PropOp32
 70
     1
102
RTVSPost2010Prop33
280
     0
102
RTVSPost2010PropOp33
 70
     1
102
RTVSPost2010Prop34
280
     0
102
RTVSPost2010PropOp34
 70
     1
102
RTVSPost2010Prop35
280
     0
102
RTVSPost2010PropOp35
 70
     1
102
RTVSPost2010Prop36
280
     0
102
RTVSPost2010PropOp36
 70
     1
102
RTVSPost2010Prop37
 90
       50
102
RTVSPost2010PropOp37
 70
     1
102
RTVSPost2010Prop38
140
0.0
102
RTVSPost2010PropOp38
 70
     1
102
RTVSPost2010Prop39
140
1.0
102
RTVSPost2010PropOp39
 70
     1
102
RTVSPost2010Prop40
 90
        0
102
RTVSPost2010PropOp40
 70
     1
102
RTVSPost2010Prop41ColorIndex
 90
       18
102
RTVSPost2010Prop41ColorRGB
 90
        0
102
RTVSPost2010PropOp41
 70
     1
102
RTVSPost2010Prop42
 90
       50
102
RTVSPost2010PropOp42
 70
     1
102
RTVSPost2010Prop43
 90
        3
102
RTVSPost2010PropOp43
 70
     1
102
RTVSPost2010Prop44ColorIndex
 90
        5
102
RTVSPost2010Prop44ColorRGB
 90
      255
102
RTVSPost2010PropOp44
 70
     1
102
RTVSPost2010Prop45
280
     0
102
RTVSPost2010PropOp45
 70
     1
102
RTVSPost2010Prop46
 90
       50
102
RTVSPost2010PropOp46
 70
     1
102
RTVSPost2010Prop47
 90
       50
102
RTVSPost2010PropOp47
 70
     1
102
RTVSPost2010Prop48
 90
       50
102
RTVSPost2010PropOp48
 70
     1
102
RTVSPost2010Prop49
280
     0
102
RTVSPost2010PropOp49
 70
     1
102
RTVSPost2010Prop50
 90
       50
102
RTVSPost2010PropOp50
 70
     1
102
RTVSPost2010Prop51ColorIndex
 90
      256
102
RTVSPost2010Prop51ColorRGB
 90
-16777216
102
RTVSPost2010PropOp51
 70
     0
102
RTVSPost2010Prop52
140
1.0
102
RTVSPost2010PropOp52
 70
     0
102
RTVSPost2010Prop53
 90
        2
102
RTVSPost2010PropOp53
 70
     1
102
RTVSPost2010Prop54
  1
strokes_ogs.tif
102
RTVSPost2010PropOp54
 70
     1
102
RTVSPost2010Prop55
280
     0
102
RTVSPost2010PropOp55
 70
     1
102
RTVSPost2010Prop56
140
1.0
102
RTVSPost2010PropOp56
 70
     1
102
RTVSPost2010Prop57
140
1.0
102
RTVSPost2010PropOp57
 70
     1
102
RTVSPropertyOp0
 70
     1
102
RTVSPropertyOp1
 70
     1
102
RTVSPropertyOp2
 70
     1
102
RTVSPropertyOp3
 70
     1
102
RTVSPropertyOp4
 70
     1
102
RTVSPropertyOp5
 70
     1
102
RTVSPropertyOp6
 70
     1
102
RTVSPropertyOp7
 70
     1
102
RTVSPropertyOp8
 70
     1
102
RTVSPropertyOp9
 70
     1
102
RTVSPropertyOp10
 70
     1
102
RTVSPropertyOp11
 70
     1
102
RTVSPropertyOp12
 70
     1
102
RTVSPropertyOp13
 70
     1
102
RTVSPropertyOp14
 70
     1
102
RTVSPropertyOp15
 70
     1
102
RTVSPropertyOp16
 70
     1
102
RTVSPropertyOp17
 70
     1
102
RTVSPropertyOp18
 70
     1
102
RTVSPropertyOp19
 70
     1
102
RTVSPropertyOp20
 70
     1
102
RTVSPropertyOp21
 70
     1
102
RTVSPropertyOp22
 70
     1
102
RTVSPropertyOp23
 70
     1
102
RTVSPropertyOp24
 70
     1
102
RTVSPropertyOp25
 70
     1
102
RTVSPropertyOp26
 70
     1
102
RTVSPropertyOp27
 70
     1
102
RTVSPropertyOp28
 70
     1
102
RTVSPropertyOp29
 70
     1
102
RTVSPropertyOp30
 70
     1
102
RTVSPropertyOp31
 70
     1
102
RTVSPropertyOp32
 70
     1
102
RTVSPropertyOp33
 70
     1
102
RTVSPropertyOp34
 70
     1
102
RTVSPropertyOp35
 70
     1
102
RTVSPropertyOp36
 70
     1
102
RTVSPropertyOp37
 70
     1
102
RTVSPropertyOp38
 70
     1
102
RTVSPropertyOp39
 70
     1
102
RTVSPropertyOp40
 70
     1
102
RTVSPropertyOp41
 70
     1
102
RTVSPropertyOp42
 70
     1
102
RTVSPropertyOp43
 70
     1
102
RTVSPropertyOp44
 70
     1
102
RTVSPropertyOp45
 70
     1
102
RTVSPropertyOp46
 70
     1
102
RTVSPropertyOp47
 70
     1
102
RTVSPropertyOp48
 70
     1
102
RTVSPropertyOp49
 70
     1
102
RTVSPropertyOp50
 70
     1
102
RTVSPropertyOp51
 70
     0
102
RTVSPropertyOp52
 70
     0
102
RTVSPropertyOp53
 70
     1
102
RTVSPropertyOp54
 70
     1
102
RTVSPropertyOp55
 70
     1
102
RTVSPropertyOp56
 70
     1
102
RTVSPropertyOp57
 70
     1
102
RTVSPropertyOp58
 70
     1
102
RTVSPropertyOp59
 70
     1
102
RTVSPropertyOp60
 70
     1
102
RTVSPropertyOp61
 70
     1
102
RTVSPropertyOp62
 70
     1
  0
XRECORD
  5
585
102
{ACAD_REACTORS
330
584
102
}
330
584
100
AcDbXrecord
280
     1
102
RTVSPost2010Prop28
280
     0
102
RTVSPost2010PropOp28
 70
     1
102
RTVSPost2010Prop29
280
     1
102
RTVSPost2010PropOp29
 70
     1
102
RTVSPost2010Prop30
280
     1
102
RTVSPost2010PropOp30
 70
     1
102
RTVSPost2010Prop31
280
     0
102
RTVSPost2010PropOp31
 70
     1
102
RTVSPost2010Prop32
280
     0
102
RTVSPost2010PropOp32
 70
     1
102
RTVSPost2010Prop33
280
     0
102
RTVSPost2010PropOp33
 70
     1
102
RTVSPost2010Prop34
280
     0
102
RTVSPost2010PropOp34
 70
     1
102
RTVSPost2010Prop35
280
     0
102
RTVSPost2010PropOp35
 70
     1
102
RTVSPost2010Prop36
280
     0
102
RTVSPost2010PropOp36
 70
     1
102
RTVSPost2010Prop37
 90
       50
102
RTVSPost2010PropOp37
 70
     1
102
RTVSPost2010Prop38
140
0.0
102
RTVSPost2010PropOp38
 70
     1
102
RTVSPost2010Prop39
140
1.0
102
RTVSPost2010PropOp39
 70
     1
102
RTVSPost2010Prop40
 90
        0
102
RTVSPost2010PropOp40
 70
     1
102
RTVSPost2010Prop41ColorIndex
 90
       18
102
RTVSPost2010Prop41ColorRGB
 90
        0
102
RTVSPost2010PropOp41
 70
     1
102
RTVSPost2010Prop42
 90
       50
102
RTVSPost2010PropOp42
 70
     1
102
RTVSPost2010Prop43
 90
        3
102
RTVSPost2010PropOp43
 70
     1
102
RTVSPost2010Prop44ColorIndex
 90
        5
102
RTVSPost2010Prop44ColorRGB
 90
      255
102
RTVSPost2010PropOp44
 70
     1
102
RTVSPost2010Prop45
280
     0
102
RTVSPost2010PropOp45
 70
     1
102
RTVSPost2010Prop46
 90
       50
102
RTVSPost2010PropOp46
 70
     1
102
RTVSPost2010Prop47
 90
       50
102
RTVSPost2010PropOp47
 70
     1
102
RTVSPost2010Prop48
 90
       50
102
RTVSPost2010PropOp48
 70
     1
102
RTVSPost2010Prop49
280
     0
102
RTVSPost2010PropOp49
 70
     1
102
RTVSPost2010Prop50
 90
       50
102
RTVSPost2010PropOp50
 70
     1
102
RTVSPost2010Prop51ColorIndex
 90
      256
102
RTVSPost2010Prop51ColorRGB
 90
-16777216
102
RTVSPost2010PropOp51
 70
     0
102
RTVSPost2010Prop52
140
1.0
102
RTVSPost2010PropOp52
 70
     0
102
RTVSPost2010Prop53
 90
        2
102
RTVSPost2010PropOp53
 70
     1
102
RTVSPost2010Prop54
  1
strokes_ogs.tif
102
RTVSPost2010PropOp54
 70
     1
102
RTVSPost2010Prop55
280
     0
102
RTVSPost2010PropOp55
 70
     1
102
RTVSPost2010Prop56
140
1.0
102
RTVSPost2010PropOp56
 70
     1
102
RTVSPost2010Prop57
140
1.0
102
RTVSPost2010PropOp57
 70
     1
102
RTVSPropertyOp0
 70
     1
102
RTVSPropertyOp1
 70
     1
102
RTVSPropertyOp2
 70
     1
102
RTVSPropertyOp3
 70
     1
102
RTVSPropertyOp4
 70
     1
102
RTVSPropertyOp5
 70
     1
102
RTVSPropertyOp6
 70
     1
102
RTVSPropertyOp7
 70
     1
102
RTVSPropertyOp8
 70
     1
102
RTVSPropertyOp9
 70
     1
102
RTVSPropertyOp10
 70
     1
102
RTVSPropertyOp11
 70
     1
102
RTVSPropertyOp12
 70
     1
102
RTVSPropertyOp13
 70
     1
102
RTVSPropertyOp14
 70
     1
102
RTVSPropertyOp15
 70
     1
102
RTVSPropertyOp16
 70
     1
102
RTVSPropertyOp17
 70
     1
102
RTVSPropertyOp18
 70
     1
102
RTVSPropertyOp19
 70
     1
102
RTVSPropertyOp20
 70
     1
102
RTVSPropertyOp21
 70
     1
102
RTVSPropertyOp22
 70
     1
102
RTVSPropertyOp23
 70
     1
102
RTVSPropertyOp24
 70
     1
102
RTVSPropertyOp25
 70
     1
102
RTVSPropertyOp26
 70
     1
102
RTVSPropertyOp27
 70
     1
102
RTVSPropertyOp28
 70
     1
102
RTVSPropertyOp29
 70
     1
102
RTVSPropertyOp30
 70
     1
102
RTVSPropertyOp31
 70
     1
102
RTVSPropertyOp32
 70
     1
102
RTVSPropertyOp33
 70
     1
102
RTVSPropertyOp34
 70
     1
102
RTVSPropertyOp35
 70
     1
102
RTVSPropertyOp36
 70
     1
102
RTVSPropertyOp37
 70
     1
102
RTVSPropertyOp38
 70
     1
102
RTVSPropertyOp39
 70
     1
102
RTVSPropertyOp40
 70
     1
102
RTVSPropertyOp41
 70
     1
102
RTVSPropertyOp42
 70
     1
102
RTVSPropertyOp43
 70
     1
102
RTVSPropertyOp44
 70
     1
102
RTVSPropertyOp45
 70
     1
102
RTVSPropertyOp46
 70
     1
102
RTVSPropertyOp47
 70
     1
102
RTVSPropertyOp48
 70
     1
102
RTVSPropertyOp49
 70
     1
102
RTVSPropertyOp50
 70
     1
102
RTVSPropertyOp51
 70
     0
102
RTVSPropertyOp52
 70
     0
102
RTVSPropertyOp53
 70
     1
102
RTVSPropertyOp54
 70
     1
102
RTVSPropertyOp55
 70
     1
102
RTVSPropertyOp56
 70
     1
102
RTVSPropertyOp57
 70
     1
102
RTVSPropertyOp58
 70
     1
102
RTVSPropertyOp59
 70
     1
102
RTVSPropertyOp60
 70
     1
102
RTVSPropertyOp61
 70
     1
102
RTVSPropertyOp62
 70
     1
  0
XRECORD
  5
58D
102
{ACAD_REACTORS
330
58C
102
}
330
58C
100
AcDbXrecord
280
     1
102
RTVSPost2010Prop28
280
     0
102
RTVSPost2010PropOp28
 70
     1
102
RTVSPost2010Prop29
280
     1
102
RTVSPost2010PropOp29
 70
     1
102
RTVSPost2010Prop30
280
     1
102
RTVSPost2010PropOp30
 70
     1
102
RTVSPost2010Prop31
280
     0
102
RTVSPost2010PropOp31
 70
     1
102
RTVSPost2010Prop32
280
     0
102
RTVSPost2010PropOp32
 70
     1
102
RTVSPost2010Prop33
280
     0
102
RTVSPost2010PropOp33
 70
     1
102
RTVSPost2010Prop34
280
     0
102
RTVSPost2010PropOp34
 70
     1
102
RTVSPost2010Prop35
280
     0
102
RTVSPost2010PropOp35
 70
     1
102
RTVSPost2010Prop36
280
     0
102
RTVSPost2010PropOp36
 70
     1
102
RTVSPost2010Prop37
 90
       50
102
RTVSPost2010PropOp37
 70
     1
102
RTVSPost2010Prop38
140
0.0
102
RTVSPost2010PropOp38
 70
     1
102
RTVSPost2010Prop39
140
1.0
102
RTVSPost2010PropOp39
 70
     1
102
RTVSPost2010Prop40
 90
        0
102
RTVSPost2010PropOp40
 70
     1
102
RTVSPost2010Prop41ColorIndex
 90
       18
102
RTVSPost2010Prop41ColorRGB
 90
        0
102
RTVSPost2010PropOp41
 70
     1
102
RTVSPost2010Prop42
 90
       50
102
RTVSPost2010PropOp42
 70
     1
102
RTVSPost2010Prop43
 90
        3
102
RTVSPost2010PropOp43
 70
     1
102
RTVSPost2010Prop44ColorIndex
 90
        5
102
RTVSPost2010Prop44ColorRGB
 90
      255
102
RTVSPost2010PropOp44
 70
     1
102
RTVSPost2010Prop45
280
     0
102
RTVSPost2010PropOp45
 70
     1
102
RTVSPost2010Prop46
 90
       50
102
RTVSPost2010PropOp46
 70
     1
102
RTVSPost2010Prop47
 90
       50
102
RTVSPost2010PropOp47
 70
     1
102
RTVSPost2010Prop48
 90
       50
102
RTVSPost2010PropOp48
 70
     1
102
RTVSPost2010Prop49
280
     0
102
RTVSPost2010PropOp49
 70
     1
102
RTVSPost2010Prop50
 90
       50
102
RTVSPost2010PropOp50
 70
     1
102
RTVSPost2010Prop51ColorIndex
 90
      256
102
RTVSPost2010Prop51ColorRGB
 90
-16777216
102
RTVSPost2010PropOp51
 70
     0
102
RTVSPost2010Prop52
140
1.0
102
RTVSPost2010PropOp52
 70
     0
102
RTVSPost2010Prop53
 90
        2
102
RTVSPost2010PropOp53
 70
     1
102
RTVSPost2010Prop54
  1
strokes_ogs.tif
102
RTVSPost2010PropOp54
 70
     1
102
RTVSPost2010Prop55
280
     0
102
RTVSPost2010PropOp55
 70
     1
102
RTVSPost2010Prop56
140
1.0
102
RTVSPost2010PropOp56
 70
     1
102
RTVSPost2010Prop57
140
1.0
102
RTVSPost2010PropOp57
 70
     1
102
RTVSPropertyOp0
 70
     1
102
RTVSPropertyOp1
 70
     1
102
RTVSPropertyOp2
 70
     1
102
RTVSPropertyOp3
 70
     1
102
RTVSPropertyOp4
 70
     1
102
RTVSPropertyOp5
 70
     1
102
RTVSPropertyOp6
 70
     1
102
RTVSPropertyOp7
 70
     1
102
RTVSPropertyOp8
 70
     1
102
RTVSPropertyOp9
 70
     1
102
RTVSPropertyOp10
 70
     1
102
RTVSPropertyOp11
 70
     1
102
RTVSPropertyOp12
 70
     1
102
RTVSPropertyOp13
 70
     1
102
RTVSPropertyOp14
 70
     1
102
RTVSPropertyOp15
 70
     1
102
RTVSPropertyOp16
 70
     1
102
RTVSPropertyOp17
 70
     1
102
RTVSPropertyOp18
 70
     1
102
RTVSPropertyOp19
 70
     1
102
RTVSPropertyOp20
 70
     1
102
RTVSPropertyOp21
 70
     1
102
RTVSPropertyOp22
 70
     1
102
RTVSPropertyOp23
 70
     1
102
RTVSPropertyOp24
 70
     1
102
RTVSPropertyOp25
 70
     1
102
RTVSPropertyOp26
 70
     1
102
RTVSPropertyOp27
 70
     1
102
RTVSPropertyOp28
 70
     1
102
RTVSPropertyOp29
 70
     1
102
RTVSPropertyOp30
 70
     1
102
RTVSPropertyOp31
 70
     1
102
RTVSPropertyOp32
 70
     1
102
RTVSPropertyOp33
 70
     1
102
RTVSPropertyOp34
 70
     1
102
RTVSPropertyOp35
 70
     1
102
RTVSPropertyOp36
 70
     1
102
RTVSPropertyOp37
 70
     1
102
RTVSPropertyOp38
 70
     1
102
RTVSPropertyOp39
 70
     1
102
RTVSPropertyOp40
 70
     1
102
RTVSPropertyOp41
 70
     1
102
RTVSPropertyOp42
 70
     1
102
RTVSPropertyOp43
 70
     1
102
RTVSPropertyOp44
 70
     1
102
RTVSPropertyOp45
 70
     1
102
RTVSPropertyOp46
 70
     1
102
RTVSPropertyOp47
 70
     1
102
RTVSPropertyOp48
 70
     1
102
RTVSPropertyOp49
 70
     1
102
RTVSPropertyOp50
 70
     1
102
RTVSPropertyOp51
 70
     0
102
RTVSPropertyOp52
 70
     0
102
RTVSPropertyOp53
 70
     1
102
RTVSPropertyOp54
 70
     1
102
RTVSPropertyOp55
 70
     1
102
RTVSPropertyOp56
 70
     1
102
RTVSPropertyOp57
 70
     1
102
RTVSPropertyOp58
 70
     1
102
RTVSPropertyOp59
 70
     1
102
RTVSPropertyOp60
 70
     1
102
RTVSPropertyOp61
 70
     1
102
RTVSPropertyOp62
 70
     1
  0
XRECORD
  5
5A9
102
{ACAD_REACTORS
330
5A8
102
}
330
5A8
100
AcDbXrecord
280
     1
102
RTVSPost2010Prop28
280
     0
102
RTVSPost2010PropOp28
 70
     0
102
RTVSPost2010Prop29
280
     1
102
RTVSPost2010PropOp29
 70
     0
102
RTVSPost2010Prop30
280
     1
102
RTVSPost2010PropOp30
 70
     0
102
RTVSPost2010Prop31
280
     0
102
RTVSPost2010PropOp31
 70
     0
102
RTVSPost2010Prop32
280
     0
102
RTVSPost2010PropOp32
 70
     0
102
RTVSPost2010Prop33
280
     0
102
RTVSPost2010PropOp33
 70
     0
102
RTVSPost2010Prop34
280
     0
102
RTVSPost2010PropOp34
 70
     0
102
RTVSPost2010Prop35
280
     0
102
RTVSPost2010PropOp35
 70
     0
102
RTVSPost2010Prop36
280
     0
102
RTVSPost2010PropOp36
 70
     0
102
RTVSPost2010Prop37
 90
       50
102
RTVSPost2010PropOp37
 70
     0
102
RTVSPost2010Prop38
140
0.0
102
RTVSPost2010PropOp38
 70
     0
102
RTVSPost2010Prop39
140
1.0
102
RTVSPost2010PropOp39
 70
     0
102
RTVSPost2010Prop40
 90
        0
102
RTVSPost2010PropOp40
 70
     0
102
RTVSPost2010Prop41ColorIndex
 90
       18
102
RTVSPost2010Prop41ColorRGB
 90
        0
102
RTVSPost2010PropOp41
 70
     0
102
RTVSPost2010Prop42
 90
       50
102
RTVSPost2010PropOp42
 70
     0
102
RTVSPost2010Prop43
 90
        3
102
RTVSPost2010PropOp43
 70
     0
102
RTVSPost2010Prop44ColorIndex
 90
        5
102
RTVSPost2010Prop44ColorRGB
 90
      255
102
RTVSPost2010PropOp44
 70
     0
102
RTVSPost2010Prop45
280
     0
102
RTVSPost2010PropOp45
 70
     0
102
RTVSPost2010Prop46
 90
       50
102
RTVSPost2010PropOp46
 70
     0
102
RTVSPost2010Prop47
 90
       50
102
RTVSPost2010PropOp47
 70
     0
102
RTVSPost2010Prop48
 90
       50
102
RTVSPost2010PropOp48
 70
     0
102
RTVSPost2010Prop49
280
     0
102
RTVSPost2010PropOp49
 70
     0
102
RTVSPost2010Prop50
 90
       50
102
RTVSPost2010PropOp50
 70
     0
102
RTVSPost2010Prop51ColorIndex
 90
      256
102
RTVSPost2010Prop51ColorRGB
 90
-16777216
102
RTVSPost2010PropOp51
 70
     0
102
RTVSPost2010Prop52
140
1.0
102
RTVSPost2010PropOp52
 70
     0
102
RTVSPost2010Prop53
 90
        2
102
RTVSPost2010PropOp53
 70
     0
102
RTVSPost2010Prop54
  1
strokes_ogs.tif
102
RTVSPost2010PropOp54
 70
     0
102
RTVSPost2010Prop55
280
     0
102
RTVSPost2010PropOp55
 70
     0
102
RTVSPost2010Prop56
140
1.0
102
RTVSPost2010PropOp56
 70
     0
102
RTVSPost2010Prop57
140
1.0
102
RTVSPost2010PropOp57
 70
     0
102
RTVSPropertyOp0
 70
     0
102
RTVSPropertyOp1
 70
     0
102
RTVSPropertyOp2
 70
     0
102
RTVSPropertyOp3
 70
     0
102
RTVSPropertyOp4
 70
     0
102
RTVSPropertyOp5
 70
     0
102
RTVSPropertyOp6
 70
     0
102
RTVSPropertyOp7
 70
     0
102
RTVSPropertyOp8
 70
     0
102
RTVSPropertyOp9
 70
     0
102
RTVSPropertyOp10
 70
     0
102
RTVSPropertyOp11
 70
     0
102
RTVSPropertyOp12
 70
     0
102
RTVSPropertyOp13
 70
     0
102
RTVSPropertyOp14
 70
     2
102
RTVSPropertyOp15
 70
     0
102
RTVSPropertyOp16
 70
     0
102
RTVSPropertyOp17
 70
     0
102
RTVSPropertyOp18
 70
     0
102
RTVSPropertyOp19
 70
     0
102
RTVSPropertyOp20
 70
     0
102
RTVSPropertyOp21
 70
     0
102
RTVSPropertyOp22
 70
     0
102
RTVSPropertyOp23
 70
     0
102
RTVSPropertyOp24
 70
     0
102
RTVSPropertyOp25
 70
     0
102
RTVSPropertyOp26
 70
     0
102
RTVSPropertyOp27
 70
     0
102
RTVSPropertyOp28
 70
     0
102
RTVSPropertyOp29
 70
     0
102
RTVSPropertyOp30
 70
     0
102
RTVSPropertyOp31
 70
     0
102
RTVSPropertyOp32
 70
     0
102
RTVSPropertyOp33
 70
     0
102
RTVSPropertyOp34
 70
     0
102
RTVSPropertyOp35
 70
     0
102
RTVSPropertyOp36
 70
     0
102
RTVSPropertyOp37
 70
     0
102
RTVSPropertyOp38
 70
     0
102
RTVSPropertyOp39
 70
     0
102
RTVSPropertyOp40
 70
     0
102
RTVSPropertyOp41
 70
     0
102
RTVSPropertyOp42
 70
     0
102
RTVSPropertyOp43
 70
     0
102
RTVSPropertyOp44
 70
     0
102
RTVSPropertyOp45
 70
     0
102
RTVSPropertyOp46
 70
     0
102
RTVSPropertyOp47
 70
     0
102
RTVSPropertyOp48
 70
     0
102
RTVSPropertyOp49
 70
     0
102
RTVSPropertyOp50
 70
     0
102
RTVSPropertyOp51
 70
     0
102
RTVSPropertyOp52
 70
     0
102
RTVSPropertyOp53
 70
     0
102
RTVSPropertyOp54
 70
     0
102
RTVSPropertyOp55
 70
     0
102
RTVSPropertyOp56
 70
     0
102
RTVSPropertyOp57
 70
     0
102
RTVSPropertyOp58
 70
     0
102
RTVSPropertyOp59
 70
     0
102
RTVSPropertyOp60
 70
     0
102
RTVSPropertyOp61
 70
     0
102
RTVSPropertyOp62
 70
     0
  0
XRECORD
  5
599
102
{ACAD_REACTORS
330
598
102
}
330
598
100
AcDbXrecord
280
     1
102
RTVSPost2010Prop28
280
     0
102
RTVSPost2010PropOp28
 70
     1
102
RTVSPost2010Prop29
280
     1
102
RTVSPost2010PropOp29
 70
     1
102
RTVSPost2010Prop30
280
     1
102
RTVSPost2010PropOp30
 70
     1
102
RTVSPost2010Prop31
280
     0
102
RTVSPost2010PropOp31
 70
     1
102
RTVSPost2010Prop32
280
     0
102
RTVSPost2010PropOp32
 70
     1
102
RTVSPost2010Prop33
280
     0
102
RTVSPost2010PropOp33
 70
     1
102
RTVSPost2010Prop34
280
     0
102
RTVSPost2010PropOp34
 70
     1
102
RTVSPost2010Prop35
280
     0
102
RTVSPost2010PropOp35
 70
     1
102
RTVSPost2010Prop36
280
     0
102
RTVSPost2010PropOp36
 70
     1
102
RTVSPost2010Prop37
 90
       50
102
RTVSPost2010PropOp37
 70
     1
102
RTVSPost2010Prop38
140
0.0
102
RTVSPost2010PropOp38
 70
     1
102
RTVSPost2010Prop39
140
1.0
102
RTVSPost2010PropOp39
 70
     1
102
RTVSPost2010Prop40
 90
        0
102
RTVSPost2010PropOp40
 70
     1
102
RTVSPost2010Prop41ColorIndex
 90
       18
102
RTVSPost2010Prop41ColorRGB
 90
        0
102
RTVSPost2010PropOp41
 70
     1
102
RTVSPost2010Prop42
 90
       50
102
RTVSPost2010PropOp42
 70
     1
102
RTVSPost2010Prop43
 90
        3
102
RTVSPost2010PropOp43
 70
     1
102
RTVSPost2010Prop44ColorIndex
 90
        5
102
RTVSPost2010Prop44ColorRGB
 90
      255
102
RTVSPost2010PropOp44
 70
     1
102
RTVSPost2010Prop45
280
     0
102
RTVSPost2010PropOp45
 70
     1
102
RTVSPost2010Prop46
 90
       50
102
RTVSPost2010PropOp46
 70
     1
102
RTVSPost2010Prop47
 90
       50
102
RTVSPost2010PropOp47
 70
     1
102
RTVSPost2010Prop48
 90
       50
102
RTVSPost2010PropOp48
 70
     1
102
RTVSPost2010Prop49
280
     0
102
RTVSPost2010PropOp49
 70
     1
102
RTVSPost2010Prop50
 90
       50
102
RTVSPost2010PropOp50
 70
     1
102
RTVSPost2010Prop51ColorIndex
 90
      256
102
RTVSPost2010Prop51ColorRGB
 90
-16777216
102
RTVSPost2010PropOp51
 70
     0
102
RTVSPost2010Prop52
140
1.0
102
RTVSPost2010PropOp52
 70
     0
102
RTVSPost2010Prop53
 90
        2
102
RTVSPost2010PropOp53
 70
     1
102
RTVSPost2010Prop54
  1
strokes_ogs.tif
102
RTVSPost2010PropOp54
 70
     1
102
RTVSPost2010Prop55
280
     0
102
RTVSPost2010PropOp55
 70
     1
102
RTVSPost2010Prop56
140
1.0
102
RTVSPost2010PropOp56
 70
     1
102
RTVSPost2010Prop57
140
1.0
102
RTVSPost2010PropOp57
 70
     1
102
RTVSPropertyOp0
 70
     1
102
RTVSPropertyOp1
 70
     1
102
RTVSPropertyOp2
 70
     1
102
RTVSPropertyOp3
 70
     1
102
RTVSPropertyOp4
 70
     1
102
RTVSPropertyOp5
 70
     1
102
RTVSPropertyOp6
 70
     1
102
RTVSPropertyOp7
 70
     1
102
RTVSPropertyOp8
 70
     1
102
RTVSPropertyOp9
 70
     1
102
RTVSPropertyOp10
 70
     1
102
RTVSPropertyOp11
 70
     1
102
RTVSPropertyOp12
 70
     1
102
RTVSPropertyOp13
 70
     1
102
RTVSPropertyOp14
 70
     1
102
RTVSPropertyOp15
 70
     1
102
RTVSPropertyOp16
 70
     1
102
RTVSPropertyOp17
 70
     1
102
RTVSPropertyOp18
 70
     1
102
RTVSPropertyOp19
 70
     1
102
RTVSPropertyOp20
 70
     1
102
RTVSPropertyOp21
 70
     1
102
RTVSPropertyOp22
 70
     1
102
RTVSPropertyOp23
 70
     1
102
RTVSPropertyOp24
 70
     1
102
RTVSPropertyOp25
 70
     1
102
RTVSPropertyOp26
 70
     1
102
RTVSPropertyOp27
 70
     1
102
RTVSPropertyOp28
 70
     1
102
RTVSPropertyOp29
 70
     1
102
RTVSPropertyOp30
 70
     1
102
RTVSPropertyOp31
 70
     1
102
RTVSPropertyOp32
 70
     1
102
RTVSPropertyOp33
 70
     1
102
RTVSPropertyOp34
 70
     1
102
RTVSPropertyOp35
 70
     1
102
RTVSPropertyOp36
 70
     1
102
RTVSPropertyOp37
 70
     1
102
RTVSPropertyOp38
 70
     1
102
RTVSPropertyOp39
 70
     1
102
RTVSPropertyOp40
 70
     1
102
RTVSPropertyOp41
 70
     1
102
RTVSPropertyOp42
 70
     1
102
RTVSPropertyOp43
 70
     1
102
RTVSPropertyOp44
 70
     1
102
RTVSPropertyOp45
 70
     1
102
RTVSPropertyOp46
 70
     1
102
RTVSPropertyOp47
 70
     1
102
RTVSPropertyOp48
 70
     1
102
RTVSPropertyOp49
 70
     1
102
RTVSPropertyOp50
 70
     1
102
RTVSPropertyOp51
 70
     0
102
RTVSPropertyOp52
 70
     0
102
RTVSPropertyOp53
 70
     1
102
RTVSPropertyOp54
 70
     1
102
RTVSPropertyOp55
 70
     1
102
RTVSPropertyOp56
 70
     1
102
RTVSPropertyOp57
 70
     1
102
RTVSPropertyOp58
 70
     1
102
RTVSPropertyOp59
 70
     1
102
RTVSPropertyOp60
 70
     1
102
RTVSPropertyOp61
 70
     1
102
RTVSPropertyOp62
 70
     1
  0
XRECORD
  5
5AB
102
{ACAD_REACTORS
330
5AA
102
}
330
5AA
100
AcDbXrecord
280
     1
102
RTVSPost2010Prop28
280
     0
102
RTVSPost2010PropOp28
 70
     0
102
RTVSPost2010Prop29
280
     1
102
RTVSPost2010PropOp29
 70
     0
102
RTVSPost2010Prop30
280
     1
102
RTVSPost2010PropOp30
 70
     0
102
RTVSPost2010Prop31
280
     0
102
RTVSPost2010PropOp31
 70
     0
102
RTVSPost2010Prop32
280
     0
102
RTVSPost2010PropOp32
 70
     0
102
RTVSPost2010Prop33
280
     0
102
RTVSPost2010PropOp33
 70
     0
102
RTVSPost2010Prop34
280
     0
102
RTVSPost2010PropOp34
 70
     0
102
RTVSPost2010Prop35
280
     0
102
RTVSPost2010PropOp35
 70
     0
102
RTVSPost2010Prop36
280
     0
102
RTVSPost2010PropOp36
 70
     0
102
RTVSPost2010Prop37
 90
       50
102
RTVSPost2010PropOp37
 70
     0
102
RTVSPost2010Prop38
140
0.0
102
RTVSPost2010PropOp38
 70
     0
102
RTVSPost2010Prop39
140
1.0
102
RTVSPost2010PropOp39
 70
     0
102
RTVSPost2010Prop40
 90
        0
102
RTVSPost2010PropOp40
 70
     0
102
RTVSPost2010Prop41ColorIndex
 90
       18
102
RTVSPost2010Prop41ColorRGB
 90
        0
102
RTVSPost2010PropOp41
 70
     0
102
RTVSPost2010Prop42
 90
       50
102
RTVSPost2010PropOp42
 70
     0
102
RTVSPost2010Prop43
 90
        3
102
RTVSPost2010PropOp43
 70
     0
102
RTVSPost2010Prop44ColorIndex
 90
        5
102
RTVSPost2010Prop44ColorRGB
 90
      255
102
RTVSPost2010PropOp44
 70
     0
102
RTVSPost2010Prop45
280
     0
102
RTVSPost2010PropOp45
 70
     0
102
RTVSPost2010Prop46
 90
       50
102
RTVSPost2010PropOp46
 70
     0
102
RTVSPost2010Prop47
 90
       50
102
RTVSPost2010PropOp47
 70
     0
102
RTVSPost2010Prop48
 90
       50
102
RTVSPost2010PropOp48
 70
     0
102
RTVSPost2010Prop49
280
     0
102
RTVSPost2010PropOp49
 70
     0
102
RTVSPost2010Prop50
 90
       50
102
RTVSPost2010PropOp50
 70
     0
102
RTVSPost2010Prop51ColorIndex
 90
      256
102
RTVSPost2010Prop51ColorRGB
 90
-16777216
102
RTVSPost2010PropOp51
 70
     0
102
RTVSPost2010Prop52
140
1.0
102
RTVSPost2010PropOp52
 70
     0
102
RTVSPost2010Prop53
 90
        2
102
RTVSPost2010PropOp53
 70
     0
102
RTVSPost2010Prop54
  1
strokes_ogs.tif
102
RTVSPost2010PropOp54
 70
     0
102
RTVSPost2010Prop55
280
     0
102
RTVSPost2010PropOp55
 70
     0
102
RTVSPost2010Prop56
140
1.0
102
RTVSPost2010PropOp56
 70
     0
102
RTVSPost2010Prop57
140
1.0
102
RTVSPost2010PropOp57
 70
     0
102
RTVSPropertyOp0
 70
     0
102
RTVSPropertyOp1
 70
     0
102
RTVSPropertyOp2
 70
     0
102
RTVSPropertyOp3
 70
     0
102
RTVSPropertyOp4
 70
     0
102
RTVSPropertyOp5
 70
     0
102
RTVSPropertyOp6
 70
     0
102
RTVSPropertyOp7
 70
     0
102
RTVSPropertyOp8
 70
     0
102
RTVSPropertyOp9
 70
     0
102
RTVSPropertyOp10
 70
     0
102
RTVSPropertyOp11
 70
     0
102
RTVSPropertyOp12
 70
     0
102
RTVSPropertyOp13
 70
     0
102
RTVSPropertyOp14
 70
     2
102
RTVSPropertyOp15
 70
     0
102
RTVSPropertyOp16
 70
     0
102
RTVSPropertyOp17
 70
     0
102
RTVSPropertyOp18
 70
     0
102
RTVSPropertyOp19
 70
     0
102
RTVSPropertyOp20
 70
     0
102
RTVSPropertyOp21
 70
     0
102
RTVSPropertyOp22
 70
     0
102
RTVSPropertyOp23
 70
     0
102
RTVSPropertyOp24
 70
     0
102
RTVSPropertyOp25
 70
     0
102
RTVSPropertyOp26
 70
     0
102
RTVSPropertyOp27
 70
     0
102
RTVSPropertyOp28
 70
     0
102
RTVSPropertyOp29
 70
     0
102
RTVSPropertyOp30
 70
     0
102
RTVSPropertyOp31
 70
     0
102
RTVSPropertyOp32
 70
     0
102
RTVSPropertyOp33
 70
     0
102
RTVSPropertyOp34
 70
     0
102
RTVSPropertyOp35
 70
     0
102
RTVSPropertyOp36
 70
     0
102
RTVSPropertyOp37
 70
     0
102
RTVSPropertyOp38
 70
     0
102
RTVSPropertyOp39
 70
     0
102
RTVSPropertyOp40
 70
     0
102
RTVSPropertyOp41
 70
     0
102
RTVSPropertyOp42
 70
     0
102
RTVSPropertyOp43
 70
     0
102
RTVSPropertyOp44
 70
     0
102
RTVSPropertyOp45
 70
     0
102
RTVSPropertyOp46
 70
     0
102
RTVSPropertyOp47
 70
     0
102
RTVSPropertyOp48
 70
     0
102
RTVSPropertyOp49
 70
     0
102
RTVSPropertyOp50
 70
     0
102
RTVSPropertyOp51
 70
     0
102
RTVSPropertyOp52
 70
     0
102
RTVSPropertyOp53
 70
     0
102
RTVSPropertyOp54
 70
     0
102
RTVSPropertyOp55
 70
     0
102
RTVSPropertyOp56
 70
     0
102
RTVSPropertyOp57
 70
     0
102
RTVSPropertyOp58
 70
     0
102
RTVSPropertyOp59
 70
     0
102
RTVSPropertyOp60
 70
     0
102
RTVSPropertyOp61
 70
     0
102
RTVSPropertyOp62
 70
     0
  0
XRECORD
  5
591
102
{ACAD_REACTORS
330
590
102
}
330
590
100
AcDbXrecord
280
     1
102
RTVSPost2010Prop28
280
     0
102
RTVSPost2010PropOp28
 70
     1
102
RTVSPost2010Prop29
280
     1
102
RTVSPost2010PropOp29
 70
     1
102
RTVSPost2010Prop30
280
     1
102
RTVSPost2010PropOp30
 70
     1
102
RTVSPost2010Prop31
280
     0
102
RTVSPost2010PropOp31
 70
     1
102
RTVSPost2010Prop32
280
     0
102
RTVSPost2010PropOp32
 70
     1
102
RTVSPost2010Prop33
280
     0
102
RTVSPost2010PropOp33
 70
     1
102
RTVSPost2010Prop34
280
     0
102
RTVSPost2010PropOp34
 70
     1
102
RTVSPost2010Prop35
280
     0
102
RTVSPost2010PropOp35
 70
     1
102
RTVSPost2010Prop36
280
     0
102
RTVSPost2010PropOp36
 70
     1
102
RTVSPost2010Prop37
 90
       50
102
RTVSPost2010PropOp37
 70
     1
102
RTVSPost2010Prop38
140
0.0
102
RTVSPost2010PropOp38
 70
     1
102
RTVSPost2010Prop39
140
1.0
102
RTVSPost2010PropOp39
 70
     1
102
RTVSPost2010Prop40
 90
        0
102
RTVSPost2010PropOp40
 70
     1
102
RTVSPost2010Prop41ColorIndex
 90
       18
102
RTVSPost2010Prop41ColorRGB
 90
        0
102
RTVSPost2010PropOp41
 70
     1
102
RTVSPost2010Prop42
 90
       50
102
RTVSPost2010PropOp42
 70
     1
102
RTVSPost2010Prop43
 90
        3
102
RTVSPost2010PropOp43
 70
     1
102
RTVSPost2010Prop44ColorIndex
 90
        5
102
RTVSPost2010Prop44ColorRGB
 90
      255
102
RTVSPost2010PropOp44
 70
     1
102
RTVSPost2010Prop45
280
     0
102
RTVSPost2010PropOp45
 70
     1
102
RTVSPost2010Prop46
 90
       50
102
RTVSPost2010PropOp46
 70
     1
102
RTVSPost2010Prop47
 90
       50
102
RTVSPost2010PropOp47
 70
     1
102
RTVSPost2010Prop48
 90
       50
102
RTVSPost2010PropOp48
 70
     1
102
RTVSPost2010Prop49
280
     0
102
RTVSPost2010PropOp49
 70
     1
102
RTVSPost2010Prop50
 90
       50
102
RTVSPost2010PropOp50
 70
     1
102
RTVSPost2010Prop51ColorIndex
 90
      256
102
RTVSPost2010Prop51ColorRGB
 90
-16777216
102
RTVSPost2010PropOp51
 70
     0
102
RTVSPost2010Prop52
140
1.0
102
RTVSPost2010PropOp52
 70
     0
102
RTVSPost2010Prop53
 90
        2
102
RTVSPost2010PropOp53
 70
     1
102
RTVSPost2010Prop54
  1
strokes_ogs.tif
102
RTVSPost2010PropOp54
 70
     1
102
RTVSPost2010Prop55
280
     0
102
RTVSPost2010PropOp55
 70
     1
102
RTVSPost2010Prop56
140
1.0
102
RTVSPost2010PropOp56
 70
     1
102
RTVSPost2010Prop57
140
1.0
102
RTVSPost2010PropOp57
 70
     1
102
RTVSPropertyOp0
 70
     1
102
RTVSPropertyOp1
 70
     1
102
RTVSPropertyOp2
 70
     1
102
RTVSPropertyOp3
 70
     1
102
RTVSPropertyOp4
 70
     1
102
RTVSPropertyOp5
 70
     1
102
RTVSPropertyOp6
 70
     1
102
RTVSPropertyOp7
 70
     1
102
RTVSPropertyOp8
 70
     1
102
RTVSPropertyOp9
 70
     1
102
RTVSPropertyOp10
 70
     1
102
RTVSPropertyOp11
 70
     1
102
RTVSPropertyOp12
 70
     1
102
RTVSPropertyOp13
 70
     1
102
RTVSPropertyOp14
 70
     1
102
RTVSPropertyOp15
 70
     1
102
RTVSPropertyOp16
 70
     1
102
RTVSPropertyOp17
 70
     1
102
RTVSPropertyOp18
 70
     1
102
RTVSPropertyOp19
 70
     1
102
RTVSPropertyOp20
 70
     1
102
RTVSPropertyOp21
 70
     1
102
RTVSPropertyOp22
 70
     1
102
RTVSPropertyOp23
 70
     1
102
RTVSPropertyOp24
 70
     1
102
RTVSPropertyOp25
 70
     1
102
RTVSPropertyOp26
 70
     1
102
RTVSPropertyOp27
 70
     1
102
RTVSPropertyOp28
 70
     1
102
RTVSPropertyOp29
 70
     1
102
RTVSPropertyOp30
 70
     1
102
RTVSPropertyOp31
 70
     1
102
RTVSPropertyOp32
 70
     1
102
RTVSPropertyOp33
 70
     1
102
RTVSPropertyOp34
 70
     1
102
RTVSPropertyOp35
 70
     1
102
RTVSPropertyOp36
 70
     1
102
RTVSPropertyOp37
 70
     1
102
RTVSPropertyOp38
 70
     1
102
RTVSPropertyOp39
 70
     1
102
RTVSPropertyOp40
 70
     1
102
RTVSPropertyOp41
 70
     1
102
RTVSPropertyOp42
 70
     1
102
RTVSPropertyOp43
 70
     1
102
RTVSPropertyOp44
 70
     1
102
RTVSPropertyOp45
 70
     1
102
RTVSPropertyOp46
 70
     1
102
RTVSPropertyOp47
 70
     1
102
RTVSPropertyOp48
 70
     1
102
RTVSPropertyOp49
 70
     1
102
RTVSPropertyOp50
 70
     1
102
RTVSPropertyOp51
 70
     0
102
RTVSPropertyOp52
 70
     0
102
RTVSPropertyOp53
 70
     1
102
RTVSPropertyOp54
 70
     1
102
RTVSPropertyOp55
 70
     1
102
RTVSPropertyOp56
 70
     1
102
RTVSPropertyOp57
 70
     1
102
RTVSPropertyOp58
 70
     1
102
RTVSPropertyOp59
 70
     1
102
RTVSPropertyOp60
 70
     1
102
RTVSPropertyOp61
 70
     1
102
RTVSPropertyOp62
 70
     1
  0
XRECORD
  5
5A7
102
{ACAD_REACTORS
330
5A6
102
}
330
5A6
100
AcDbXrecord
280
     1
102
RTVSPost2010Prop28
280
     0
102
RTVSPost2010PropOp28
 70
     1
102
RTVSPost2010Prop29
280
     1
102
RTVSPost2010PropOp29
 70
     1
102
RTVSPost2010Prop30
280
     1
102
RTVSPost2010PropOp30
 70
     1
102
RTVSPost2010Prop31
280
     0
102
RTVSPost2010PropOp31
 70
     1
102
RTVSPost2010Prop32
280
     0
102
RTVSPost2010PropOp32
 70
     1
102
RTVSPost2010Prop33
280
     0
102
RTVSPost2010PropOp33
 70
     1
102
RTVSPost2010Prop34
280
     0
102
RTVSPost2010PropOp34
 70
     1
102
RTVSPost2010Prop35
280
     0
102
RTVSPost2010PropOp35
 70
     1
102
RTVSPost2010Prop36
280
     0
102
RTVSPost2010PropOp36
 70
     1
102
RTVSPost2010Prop37
 90
       50
102
RTVSPost2010PropOp37
 70
     1
102
RTVSPost2010Prop38
140
0.0
102
RTVSPost2010PropOp38
 70
     1
102
RTVSPost2010Prop39
140
1.0
102
RTVSPost2010PropOp39
 70
     1
102
RTVSPost2010Prop40
 90
        0
102
RTVSPost2010PropOp40
 70
     1
102
RTVSPost2010Prop41ColorIndex
 90
       18
102
RTVSPost2010Prop41ColorRGB
 90
        0
102
RTVSPost2010PropOp41
 70
     1
102
RTVSPost2010Prop42
 90
       50
102
RTVSPost2010PropOp42
 70
     1
102
RTVSPost2010Prop43
 90
        3
102
RTVSPost2010PropOp43
 70
     1
102
RTVSPost2010Prop44ColorIndex
 90
        5
102
RTVSPost2010Prop44ColorRGB
 90
      255
102
RTVSPost2010PropOp44
 70
     1
102
RTVSPost2010Prop45
280
     0
102
RTVSPost2010PropOp45
 70
     1
102
RTVSPost2010Prop46
 90
       50
102
RTVSPost2010PropOp46
 70
     1
102
RTVSPost2010Prop47
 90
       50
102
RTVSPost2010PropOp47
 70
     1
102
RTVSPost2010Prop48
 90
       50
102
RTVSPost2010PropOp48
 70
     1
102
RTVSPost2010Prop49
280
     0
102
RTVSPost2010PropOp49
 70
     1
102
RTVSPost2010Prop50
 90
       50
102
RTVSPost2010PropOp50
 70
     1
102
RTVSPost2010Prop51ColorIndex
 90
      256
102
RTVSPost2010Prop51ColorRGB
 90
-16777216
102
RTVSPost2010PropOp51
 70
     0
102
RTVSPost2010Prop52
140
1.0
102
RTVSPost2010PropOp52
 70
     0
102
RTVSPost2010Prop53
 90
        2
102
RTVSPost2010PropOp53
 70
     1
102
RTVSPost2010Prop54
  1
strokes_ogs.tif
102
RTVSPost2010PropOp54
 70
     1
102
RTVSPost2010Prop55
280
     0
102
RTVSPost2010PropOp55
 70
     1
102
RTVSPost2010Prop56
140
1.0
102
RTVSPost2010PropOp56
 70
     1
102
RTVSPost2010Prop57
140
1.0
102
RTVSPost2010PropOp57
 70
     1
102
RTVSPropertyOp0
 70
     1
102
RTVSPropertyOp1
 70
     1
102
RTVSPropertyOp2
 70
     1
102
RTVSPropertyOp3
 70
     1
102
RTVSPropertyOp4
 70
     1
102
RTVSPropertyOp5
 70
     1
102
RTVSPropertyOp6
 70
     1
102
RTVSPropertyOp7
 70
     1
102
RTVSPropertyOp8
 70
     1
102
RTVSPropertyOp9
 70
     1
102
RTVSPropertyOp10
 70
     1
102
RTVSPropertyOp11
 70
     1
102
RTVSPropertyOp12
 70
     1
102
RTVSPropertyOp13
 70
     1
102
RTVSPropertyOp14
 70
     1
102
RTVSPropertyOp15
 70
     1
102
RTVSPropertyOp16
 70
     1
102
RTVSPropertyOp17
 70
     1
102
RTVSPropertyOp18
 70
     1
102
RTVSPropertyOp19
 70
     1
102
RTVSPropertyOp20
 70
     1
102
RTVSPropertyOp21
 70
     1
102
RTVSPropertyOp22
 70
     1
102
RTVSPropertyOp23
 70
     1
102
RTVSPropertyOp24
 70
     1
102
RTVSPropertyOp25
 70
     1
102
RTVSPropertyOp26
 70
     1
102
RTVSPropertyOp27
 70
     1
102
RTVSPropertyOp28
 70
     1
102
RTVSPropertyOp29
 70
     1
102
RTVSPropertyOp30
 70
     1
102
RTVSPropertyOp31
 70
     1
102
RTVSPropertyOp32
 70
     1
102
RTVSPropertyOp33
 70
     1
102
RTVSPropertyOp34
 70
     1
102
RTVSPropertyOp35
 70
     1
102
RTVSPropertyOp36
 70
     1
102
RTVSPropertyOp37
 70
     1
102
RTVSPropertyOp38
 70
     1
102
RTVSPropertyOp39
 70
     1
102
RTVSPropertyOp40
 70
     1
102
RTVSPropertyOp41
 70
     1
102
RTVSPropertyOp42
 70
     1
102
RTVSPropertyOp43
 70
     1
102
RTVSPropertyOp44
 70
     1
102
RTVSPropertyOp45
 70
     1
102
RTVSPropertyOp46
 70
     1
102
RTVSPropertyOp47
 70
     1
102
RTVSPropertyOp48
 70
     1
102
RTVSPropertyOp49
 70
     1
102
RTVSPropertyOp50
 70
     1
102
RTVSPropertyOp51
 70
     0
102
RTVSPropertyOp52
 70
     0
102
RTVSPropertyOp53
 70
     1
102
RTVSPropertyOp54
 70
     1
102
RTVSPropertyOp55
 70
     1
102
RTVSPropertyOp56
 70
     1
102
RTVSPropertyOp57
 70
     1
102
RTVSPropertyOp58
 70
     1
102
RTVSPropertyOp59
 70
     1
102
RTVSPropertyOp60
 70
     1
102
RTVSPropertyOp61
 70
     1
102
RTVSPropertyOp62
 70
     1
  0
XRECORD
  5
5A5
102
{ACAD_REACTORS
330
5A4
102
}
330
5A4
100
AcDbXrecord
280
     1
102
RTVSPost2010Prop28
280
     0
102
RTVSPost2010PropOp28
 70
     1
102
RTVSPost2010Prop29
280
     1
102
RTVSPost2010PropOp29
 70
     1
102
RTVSPost2010Prop30
280
     1
102
RTVSPost2010PropOp30
 70
     1
102
RTVSPost2010Prop31
280
     0
102
RTVSPost2010PropOp31
 70
     1
102
RTVSPost2010Prop32
280
     0
102
RTVSPost2010PropOp32
 70
     1
102
RTVSPost2010Prop33
280
     0
102
RTVSPost2010PropOp33
 70
     1
102
RTVSPost2010Prop34
280
     0
102
RTVSPost2010PropOp34
 70
     1
102
RTVSPost2010Prop35
280
     0
102
RTVSPost2010PropOp35
 70
     1
102
RTVSPost2010Prop36
280
     0
102
RTVSPost2010PropOp36
 70
     1
102
RTVSPost2010Prop37
 90
       50
102
RTVSPost2010PropOp37
 70
     1
102
RTVSPost2010Prop38
140
0.0
102
RTVSPost2010PropOp38
 70
     1
102
RTVSPost2010Prop39
140
1.0
102
RTVSPost2010PropOp39
 70
     1
102
RTVSPost2010Prop40
 90
        0
102
RTVSPost2010PropOp40
 70
     1
102
RTVSPost2010Prop41ColorIndex
 90
       18
102
RTVSPost2010Prop41ColorRGB
 90
        0
102
RTVSPost2010PropOp41
 70
     1
102
RTVSPost2010Prop42
 90
       50
102
RTVSPost2010PropOp42
 70
     1
102
RTVSPost2010Prop43
 90
        3
102
RTVSPost2010PropOp43
 70
     1
102
RTVSPost2010Prop44ColorIndex
 90
        5
102
RTVSPost2010Prop44ColorRGB
 90
      255
102
RTVSPost2010PropOp44
 70
     1
102
RTVSPost2010Prop45
280
     0
102
RTVSPost2010PropOp45
 70
     1
102
RTVSPost2010Prop46
 90
       50
102
RTVSPost2010PropOp46
 70
     1
102
RTVSPost2010Prop47
 90
       50
102
RTVSPost2010PropOp47
 70
     1
102
RTVSPost2010Prop48
 90
       50
102
RTVSPost2010PropOp48
 70
     1
102
RTVSPost2010Prop49
280
     0
102
RTVSPost2010PropOp49
 70
     1
102
RTVSPost2010Prop50
 90
       50
102
RTVSPost2010PropOp50
 70
     1
102
RTVSPost2010Prop51ColorIndex
 90
      256
102
RTVSPost2010Prop51ColorRGB
 90
-16777216
102
RTVSPost2010PropOp51
 70
     0
102
RTVSPost2010Prop52
140
1.0
102
RTVSPost2010PropOp52
 70
     0
102
RTVSPost2010Prop53
 90
        2
102
RTVSPost2010PropOp53
 70
     1
102
RTVSPost2010Prop54
  1
strokes_ogs.tif
102
RTVSPost2010PropOp54
 70
     1
102
RTVSPost2010Prop55
280
     0
102
RTVSPost2010PropOp55
 70
     1
102
RTVSPost2010Prop56
140
1.0
102
RTVSPost2010PropOp56
 70
     1
102
RTVSPost2010Prop57
140
1.0
102
RTVSPost2010PropOp57
 70
     1
102
RTVSPropertyOp0
 70
     1
102
RTVSPropertyOp1
 70
     1
102
RTVSPropertyOp2
 70
     1
102
RTVSPropertyOp3
 70
     1
102
RTVSPropertyOp4
 70
     1
102
RTVSPropertyOp5
 70
     1
102
RTVSPropertyOp6
 70
     1
102
RTVSPropertyOp7
 70
     1
102
RTVSPropertyOp8
 70
     1
102
RTVSPropertyOp9
 70
     1
102
RTVSPropertyOp10
 70
     1
102
RTVSPropertyOp11
 70
     1
102
RTVSPropertyOp12
 70
     1
102
RTVSPropertyOp13
 70
     1
102
RTVSPropertyOp14
 70
     1
102
RTVSPropertyOp15
 70
     1
102
RTVSPropertyOp16
 70
     1
102
RTVSPropertyOp17
 70
     1
102
RTVSPropertyOp18
 70
     1
102
RTVSPropertyOp19
 70
     1
102
RTVSPropertyOp20
 70
     1
102
RTVSPropertyOp21
 70
     1
102
RTVSPropertyOp22
 70
     1
102
RTVSPropertyOp23
 70
     1
102
RTVSPropertyOp24
 70
     1
102
RTVSPropertyOp25
 70
     1
102
RTVSPropertyOp26
 70
     1
102
RTVSPropertyOp27
 70
     1
102
RTVSPropertyOp28
 70
     1
102
RTVSPropertyOp29
 70
     1
102
RTVSPropertyOp30
 70
     1
102
RTVSPropertyOp31
 70
     1
102
RTVSPropertyOp32
 70
     1
102
RTVSPropertyOp33
 70
     1
102
RTVSPropertyOp34
 70
     1
102
RTVSPropertyOp35
 70
     1
102
RTVSPropertyOp36
 70
     1
102
RTVSPropertyOp37
 70
     1
102
RTVSPropertyOp38
 70
     1
102
RTVSPropertyOp39
 70
     1
102
RTVSPropertyOp40
 70
     1
102
RTVSPropertyOp41
 70
     1
102
RTVSPropertyOp42
 70
     1
102
RTVSPropertyOp43
 70
     1
102
RTVSPropertyOp44
 70
     1
102
RTVSPropertyOp45
 70
     1
102
RTVSPropertyOp46
 70
     1
102
RTVSPropertyOp47
 70
     1
102
RTVSPropertyOp48
 70
     1
102
RTVSPropertyOp49
 70
     1
102
RTVSPropertyOp50
 70
     1
102
RTVSPropertyOp51
 70
     0
102
RTVSPropertyOp52
 70
     0
102
RTVSPropertyOp53
 70
     1
102
RTVSPropertyOp54
 70
     1
102
RTVSPropertyOp55
 70
     1
102
RTVSPropertyOp56
 70
     1
102
RTVSPropertyOp57
 70
     1
102
RTVSPropertyOp58
 70
     1
102
RTVSPropertyOp59
 70
     1
102
RTVSPropertyOp60
 70
     1
102
RTVSPropertyOp61
 70
     1
102
RTVSPropertyOp62
 70
     1
  0
XRECORD
  5
59F
102
{ACAD_REACTORS
330
59E
102
}
330
59E
100
AcDbXrecord
280
     1
102
RTVSPost2010Prop28
280
     0
102
RTVSPost2010PropOp28
 70
     1
102
RTVSPost2010Prop29
280
     1
102
RTVSPost2010PropOp29
 70
     1
102
RTVSPost2010Prop30
280
     1
102
RTVSPost2010PropOp30
 70
     1
102
RTVSPost2010Prop31
280
     0
102
RTVSPost2010PropOp31
 70
     1
102
RTVSPost2010Prop32
280
     0
102
RTVSPost2010PropOp32
 70
     1
102
RTVSPost2010Prop33
280
     0
102
RTVSPost2010PropOp33
 70
     1
102
RTVSPost2010Prop34
280
     0
102
RTVSPost2010PropOp34
 70
     1
102
RTVSPost2010Prop35
280
     0
102
RTVSPost2010PropOp35
 70
     1
102
RTVSPost2010Prop36
280
     0
102
RTVSPost2010PropOp36
 70
     1
102
RTVSPost2010Prop37
 90
       50
102
RTVSPost2010PropOp37
 70
     1
102
RTVSPost2010Prop38
140
0.0
102
RTVSPost2010PropOp38
 70
     1
102
RTVSPost2010Prop39
140
1.0
102
RTVSPost2010PropOp39
 70
     1
102
RTVSPost2010Prop40
 90
        0
102
RTVSPost2010PropOp40
 70
     1
102
RTVSPost2010Prop41ColorIndex
 90
       18
102
RTVSPost2010Prop41ColorRGB
 90
        0
102
RTVSPost2010PropOp41
 70
     1
102
RTVSPost2010Prop42
 90
       50
102
RTVSPost2010PropOp42
 70
     1
102
RTVSPost2010Prop43
 90
        3
102
RTVSPost2010PropOp43
 70
     1
102
RTVSPost2010Prop44ColorIndex
 90
        5
102
RTVSPost2010Prop44ColorRGB
 90
      255
102
RTVSPost2010PropOp44
 70
     1
102
RTVSPost2010Prop45
280
     0
102
RTVSPost2010PropOp45
 70
     1
102
RTVSPost2010Prop46
 90
       50
102
RTVSPost2010PropOp46
 70
     1
102
RTVSPost2010Prop47
 90
       50
102
RTVSPost2010PropOp47
 70
     1
102
RTVSPost2010Prop48
 90
       50
102
RTVSPost2010PropOp48
 70
     1
102
RTVSPost2010Prop49
280
     0
102
RTVSPost2010PropOp49
 70
     1
102
RTVSPost2010Prop50
 90
       50
102
RTVSPost2010PropOp50
 70
     1
102
RTVSPost2010Prop51ColorIndex
 90
      256
102
RTVSPost2010Prop51ColorRGB
 90
-16777216
102
RTVSPost2010PropOp51
 70
     0
102
RTVSPost2010Prop52
140
1.0
102
RTVSPost2010PropOp52
 70
     0
102
RTVSPost2010Prop53
 90
        2
102
RTVSPost2010PropOp53
 70
     1
102
RTVSPost2010Prop54
  1
strokes_ogs.tif
102
RTVSPost2010PropOp54
 70
     1
102
RTVSPost2010Prop55
280
     0
102
RTVSPost2010PropOp55
 70
     1
102
RTVSPost2010Prop56
140
1.0
102
RTVSPost2010PropOp56
 70
     1
102
RTVSPost2010Prop57
140
1.0
102
RTVSPost2010PropOp57
 70
     1
102
RTVSPropertyOp0
 70
     1
102
RTVSPropertyOp1
 70
     1
102
RTVSPropertyOp2
 70
     1
102
RTVSPropertyOp3
 70
     1
102
RTVSPropertyOp4
 70
     1
102
RTVSPropertyOp5
 70
     1
102
RTVSPropertyOp6
 70
     1
102
RTVSPropertyOp7
 70
     1
102
RTVSPropertyOp8
 70
     1
102
RTVSPropertyOp9
 70
     1
102
RTVSPropertyOp10
 70
     1
102
RTVSPropertyOp11
 70
     1
102
RTVSPropertyOp12
 70
     1
102
RTVSPropertyOp13
 70
     1
102
RTVSPropertyOp14
 70
     1
102
RTVSPropertyOp15
 70
     1
102
RTVSPropertyOp16
 70
     1
102
RTVSPropertyOp17
 70
     1
102
RTVSPropertyOp18
 70
     1
102
RTVSPropertyOp19
 70
     1
102
RTVSPropertyOp20
 70
     1
102
RTVSPropertyOp21
 70
     1
102
RTVSPropertyOp22
 70
     1
102
RTVSPropertyOp23
 70
     1
102
RTVSPropertyOp24
 70
     1
102
RTVSPropertyOp25
 70
     1
102
RTVSPropertyOp26
 70
     1
102
RTVSPropertyOp27
 70
     1
102
RTVSPropertyOp28
 70
     1
102
RTVSPropertyOp29
 70
     1
102
RTVSPropertyOp30
 70
     1
102
RTVSPropertyOp31
 70
     1
102
RTVSPropertyOp32
 70
     1
102
RTVSPropertyOp33
 70
     1
102
RTVSPropertyOp34
 70
     1
102
RTVSPropertyOp35
 70
     1
102
RTVSPropertyOp36
 70
     1
102
RTVSPropertyOp37
 70
     1
102
RTVSPropertyOp38
 70
     1
102
RTVSPropertyOp39
 70
     1
102
RTVSPropertyOp40
 70
     1
102
RTVSPropertyOp41
 70
     1
102
RTVSPropertyOp42
 70
     1
102
RTVSPropertyOp43
 70
     1
102
RTVSPropertyOp44
 70
     1
102
RTVSPropertyOp45
 70
     1
102
RTVSPropertyOp46
 70
     1
102
RTVSPropertyOp47
 70
     1
102
RTVSPropertyOp48
 70
     1
102
RTVSPropertyOp49
 70
     1
102
RTVSPropertyOp50
 70
     1
102
RTVSPropertyOp51
 70
     0
102
RTVSPropertyOp52
 70
     0
102
RTVSPropertyOp53
 70
     1
102
RTVSPropertyOp54
 70
     1
102
RTVSPropertyOp55
 70
     1
102
RTVSPropertyOp56
 70
     1
102
RTVSPropertyOp57
 70
     1
102
RTVSPropertyOp58
 70
     1
102
RTVSPropertyOp59
 70
     1
102
RTVSPropertyOp60
 70
     1
102
RTVSPropertyOp61
 70
     1
102
RTVSPropertyOp62
 70
     1
  0
XRECORD
  5
5A1
102
{ACAD_REACTORS
330
5A0
102
}
330
5A0
100
AcDbXrecord
280
     1
102
RTVSPost2010Prop28
280
     0
102
RTVSPost2010PropOp28
 70
     1
102
RTVSPost2010Prop29
280
     1
102
RTVSPost2010PropOp29
 70
     1
102
RTVSPost2010Prop30
280
     1
102
RTVSPost2010PropOp30
 70
     1
102
RTVSPost2010Prop31
280
     0
102
RTVSPost2010PropOp31
 70
     1
102
RTVSPost2010Prop32
280
     0
102
RTVSPost2010PropOp32
 70
     1
102
RTVSPost2010Prop33
280
     0
102
RTVSPost2010PropOp33
 70
     1
102
RTVSPost2010Prop34
280
     0
102
RTVSPost2010PropOp34
 70
     1
102
RTVSPost2010Prop35
280
     0
102
RTVSPost2010PropOp35
 70
     1
102
RTVSPost2010Prop36
280
     0
102
RTVSPost2010PropOp36
 70
     1
102
RTVSPost2010Prop37
 90
       50
102
RTVSPost2010PropOp37
 70
     1
102
RTVSPost2010Prop38
140
0.0
102
RTVSPost2010PropOp38
 70
     1
102
RTVSPost2010Prop39
140
1.0
102
RTVSPost2010PropOp39
 70
     1
102
RTVSPost2010Prop40
 90
        0
102
RTVSPost2010PropOp40
 70
     1
102
RTVSPost2010Prop41ColorIndex
 90
       18
102
RTVSPost2010Prop41ColorRGB
 90
        0
102
RTVSPost2010PropOp41
 70
     1
102
RTVSPost2010Prop42
 90
       50
102
RTVSPost2010PropOp42
 70
     1
102
RTVSPost2010Prop43
 90
        3
102
RTVSPost2010PropOp43
 70
     1
102
RTVSPost2010Prop44ColorIndex
 90
        5
102
RTVSPost2010Prop44ColorRGB
 90
      255
102
RTVSPost2010PropOp44
 70
     1
102
RTVSPost2010Prop45
280
     0
102
RTVSPost2010PropOp45
 70
     1
102
RTVSPost2010Prop46
 90
       50
102
RTVSPost2010PropOp46
 70
     1
102
RTVSPost2010Prop47
 90
       50
102
RTVSPost2010PropOp47
 70
     1
102
RTVSPost2010Prop48
 90
       50
102
RTVSPost2010PropOp48
 70
     1
102
RTVSPost2010Prop49
280
     0
102
RTVSPost2010PropOp49
 70
     1
102
RTVSPost2010Prop50
 90
       50
102
RTVSPost2010PropOp50
 70
     1
102
RTVSPost2010Prop51ColorIndex
 90
      256
102
RTVSPost2010Prop51ColorRGB
 90
-16777216
102
RTVSPost2010PropOp51
 70
     0
102
RTVSPost2010Prop52
140
1.0
102
RTVSPost2010PropOp52
 70
     0
102
RTVSPost2010Prop53
 90
        2
102
RTVSPost2010PropOp53
 70
     1
102
RTVSPost2010Prop54
  1
strokes_ogs.tif
102
RTVSPost2010PropOp54
 70
     1
102
RTVSPost2010Prop55
280
     0
102
RTVSPost2010PropOp55
 70
     1
102
RTVSPost2010Prop56
140
1.0
102
RTVSPost2010PropOp56
 70
     1
102
RTVSPost2010Prop57
140
1.0
102
RTVSPost2010PropOp57
 70
     1
102
RTVSPropertyOp0
 70
     1
102
RTVSPropertyOp1
 70
     1
102
RTVSPropertyOp2
 70
     1
102
RTVSPropertyOp3
 70
     1
102
RTVSPropertyOp4
 70
     1
102
RTVSPropertyOp5
 70
     1
102
RTVSPropertyOp6
 70
     1
102
RTVSPropertyOp7
 70
     1
102
RTVSPropertyOp8
 70
     1
102
RTVSPropertyOp9
 70
     1
102
RTVSPropertyOp10
 70
     1
102
RTVSPropertyOp11
 70
     1
102
RTVSPropertyOp12
 70
     1
102
RTVSPropertyOp13
 70
     1
102
RTVSPropertyOp14
 70
     1
102
RTVSPropertyOp15
 70
     1
102
RTVSPropertyOp16
 70
     1
102
RTVSPropertyOp17
 70
     1
102
RTVSPropertyOp18
 70
     1
102
RTVSPropertyOp19
 70
     1
102
RTVSPropertyOp20
 70
     1
102
RTVSPropertyOp21
 70
     1
102
RTVSPropertyOp22
 70
     1
102
RTVSPropertyOp23
 70
     1
102
RTVSPropertyOp24
 70
     1
102
RTVSPropertyOp25
 70
     1
102
RTVSPropertyOp26
 70
     1
102
RTVSPropertyOp27
 70
     1
102
RTVSPropertyOp28
 70
     1
102
RTVSPropertyOp29
 70
     1
102
RTVSPropertyOp30
 70
     1
102
RTVSPropertyOp31
 70
     1
102
RTVSPropertyOp32
 70
     1
102
RTVSPropertyOp33
 70
     1
102
RTVSPropertyOp34
 70
     1
102
RTVSPropertyOp35
 70
     1
102
RTVSPropertyOp36
 70
     1
102
RTVSPropertyOp37
 70
     1
102
RTVSPropertyOp38
 70
     1
102
RTVSPropertyOp39
 70
     1
102
RTVSPropertyOp40
 70
     1
102
RTVSPropertyOp41
 70
     1
102
RTVSPropertyOp42
 70
     1
102
RTVSPropertyOp43
 70
     1
102
RTVSPropertyOp44
 70
     1
102
RTVSPropertyOp45
 70
     1
102
RTVSPropertyOp46
 70
     1
102
RTVSPropertyOp47
 70
     1
102
RTVSPropertyOp48
 70
     1
102
RTVSPropertyOp49
 70
     1
102
RTVSPropertyOp50
 70
     1
102
RTVSPropertyOp51
 70
     0
102
RTVSPropertyOp52
 70
     0
102
RTVSPropertyOp53
 70
     1
102
RTVSPropertyOp54
 70
     1
102
RTVSPropertyOp55
 70
     1
102
RTVSPropertyOp56
 70
     1
102
RTVSPropertyOp57
 70
     1
102
RTVSPropertyOp58
 70
     1
102
RTVSPropertyOp59
 70
     1
102
RTVSPropertyOp60
 70
     1
102
RTVSPropertyOp61
 70
     1
102
RTVSPropertyOp62
 70
     1
  0
XRECORD
  5
597
102
{ACAD_REACTORS
330
596
102
}
330
596
100
AcDbXrecord
280
     1
102
RTVSPost2010Prop28
280
     0
102
RTVSPost2010PropOp28
 70
     1
102
RTVSPost2010Prop29
280
     1
102
RTVSPost2010PropOp29
 70
     1
102
RTVSPost2010Prop30
280
     1
102
RTVSPost2010PropOp30
 70
     1
102
RTVSPost2010Prop31
280
     0
102
RTVSPost2010PropOp31
 70
     1
102
RTVSPost2010Prop32
280
     0
102
RTVSPost2010PropOp32
 70
     1
102
RTVSPost2010Prop33
280
     0
102
RTVSPost2010PropOp33
 70
     1
102
RTVSPost2010Prop34
280
     0
102
RTVSPost2010PropOp34
 70
     1
102
RTVSPost2010Prop35
280
     0
102
RTVSPost2010PropOp35
 70
     1
102
RTVSPost2010Prop36
280
     0
102
RTVSPost2010PropOp36
 70
     1
102
RTVSPost2010Prop37
 90
       50
102
RTVSPost2010PropOp37
 70
     1
102
RTVSPost2010Prop38
140
0.0
102
RTVSPost2010PropOp38
 70
     1
102
RTVSPost2010Prop39
140
1.0
102
RTVSPost2010PropOp39
 70
     1
102
RTVSPost2010Prop40
 90
        0
102
RTVSPost2010PropOp40
 70
     1
102
RTVSPost2010Prop41ColorIndex
 90
       18
102
RTVSPost2010Prop41ColorRGB
 90
        0
102
RTVSPost2010PropOp41
 70
     1
102
RTVSPost2010Prop42
 90
       50
102
RTVSPost2010PropOp42
 70
     1
102
RTVSPost2010Prop43
 90
        3
102
RTVSPost2010PropOp43
 70
     1
102
RTVSPost2010Prop44ColorIndex
 90
        5
102
RTVSPost2010Prop44ColorRGB
 90
      255
102
RTVSPost2010PropOp44
 70
     1
102
RTVSPost2010Prop45
280
     0
102
RTVSPost2010PropOp45
 70
     1
102
RTVSPost2010Prop46
 90
       50
102
RTVSPost2010PropOp46
 70
     1
102
RTVSPost2010Prop47
 90
       50
102
RTVSPost2010PropOp47
 70
     1
102
RTVSPost2010Prop48
 90
       50
102
RTVSPost2010PropOp48
 70
     1
102
RTVSPost2010Prop49
280
     0
102
RTVSPost2010PropOp49
 70
     1
102
RTVSPost2010Prop50
 90
       50
102
RTVSPost2010PropOp50
 70
     1
102
RTVSPost2010Prop51ColorIndex
 90
      256
102
RTVSPost2010Prop51ColorRGB
 90
-16777216
102
RTVSPost2010PropOp51
 70
     0
102
RTVSPost2010Prop52
140
1.0
102
RTVSPost2010PropOp52
 70
     0
102
RTVSPost2010Prop53
 90
        2
102
RTVSPost2010PropOp53
 70
     1
102
RTVSPost2010Prop54
  1
strokes_ogs.tif
102
RTVSPost2010PropOp54
 70
     1
102
RTVSPost2010Prop55
280
     0
102
RTVSPost2010PropOp55
 70
     1
102
RTVSPost2010Prop56
140
1.0
102
RTVSPost2010PropOp56
 70
     1
102
RTVSPost2010Prop57
140
1.0
102
RTVSPost2010PropOp57
 70
     1
102
RTVSPropertyOp0
 70
     1
102
RTVSPropertyOp1
 70
     1
102
RTVSPropertyOp2
 70
     1
102
RTVSPropertyOp3
 70
     1
102
RTVSPropertyOp4
 70
     1
102
RTVSPropertyOp5
 70
     1
102
RTVSPropertyOp6
 70
     1
102
RTVSPropertyOp7
 70
     1
102
RTVSPropertyOp8
 70
     1
102
RTVSPropertyOp9
 70
     1
102
RTVSPropertyOp10
 70
     1
102
RTVSPropertyOp11
 70
     1
102
RTVSPropertyOp12
 70
     1
102
RTVSPropertyOp13
 70
     1
102
RTVSPropertyOp14
 70
     1
102
RTVSPropertyOp15
 70
     1
102
RTVSPropertyOp16
 70
     1
102
RTVSPropertyOp17
 70
     1
102
RTVSPropertyOp18
 70
     1
102
RTVSPropertyOp19
 70
     1
102
RTVSPropertyOp20
 70
     1
102
RTVSPropertyOp21
 70
     1
102
RTVSPropertyOp22
 70
     1
102
RTVSPropertyOp23
 70
     1
102
RTVSPropertyOp24
 70
     1
102
RTVSPropertyOp25
 70
     1
102
RTVSPropertyOp26
 70
     1
102
RTVSPropertyOp27
 70
     1
102
RTVSPropertyOp28
 70
     1
102
RTVSPropertyOp29
 70
     1
102
RTVSPropertyOp30
 70
     1
102
RTVSPropertyOp31
 70
     1
102
RTVSPropertyOp32
 70
     1
102
RTVSPropertyOp33
 70
     1
102
RTVSPropertyOp34
 70
     1
102
RTVSPropertyOp35
 70
     1
102
RTVSPropertyOp36
 70
     1
102
RTVSPropertyOp37
 70
     1
102
RTVSPropertyOp38
 70
     1
102
RTVSPropertyOp39
 70
     1
102
RTVSPropertyOp40
 70
     1
102
RTVSPropertyOp41
 70
     1
102
RTVSPropertyOp42
 70
     1
102
RTVSPropertyOp43
 70
     1
102
RTVSPropertyOp44
 70
     1
102
RTVSPropertyOp45
 70
     1
102
RTVSPropertyOp46
 70
     1
102
RTVSPropertyOp47
 70
     1
102
RTVSPropertyOp48
 70
     1
102
RTVSPropertyOp49
 70
     1
102
RTVSPropertyOp50
 70
     1
102
RTVSPropertyOp51
 70
     0
102
RTVSPropertyOp52
 70
     0
102
RTVSPropertyOp53
 70
     1
102
RTVSPropertyOp54
 70
     1
102
RTVSPropertyOp55
 70
     1
102
RTVSPropertyOp56
 70
     1
102
RTVSPropertyOp57
 70
     1
102
RTVSPropertyOp58
 70
     1
102
RTVSPropertyOp59
 70
     1
102
RTVSPropertyOp60
 70
     1
102
RTVSPropertyOp61
 70
     1
102
RTVSPropertyOp62
 70
     1
  0
XRECORD
  5
58B
102
{ACAD_REACTORS
330
58A
102
}
330
58A
100
AcDbXrecord
280
     1
102
RTVSPost2010Prop28
280
     0
102
RTVSPost2010PropOp28
 70
     1
102
RTVSPost2010Prop29
280
     1
102
RTVSPost2010PropOp29
 70
     1
102
RTVSPost2010Prop30
280
     1
102
RTVSPost2010PropOp30
 70
     1
102
RTVSPost2010Prop31
280
     0
102
RTVSPost2010PropOp31
 70
     1
102
RTVSPost2010Prop32
280
     0
102
RTVSPost2010PropOp32
 70
     1
102
RTVSPost2010Prop33
280
     0
102
RTVSPost2010PropOp33
 70
     1
102
RTVSPost2010Prop34
280
     0
102
RTVSPost2010PropOp34
 70
     1
102
RTVSPost2010Prop35
280
     0
102
RTVSPost2010PropOp35
 70
     1
102
RTVSPost2010Prop36
280
     0
102
RTVSPost2010PropOp36
 70
     1
102
RTVSPost2010Prop37
 90
       50
102
RTVSPost2010PropOp37
 70
     1
102
RTVSPost2010Prop38
140
0.0
102
RTVSPost2010PropOp38
 70
     1
102
RTVSPost2010Prop39
140
1.0
102
RTVSPost2010PropOp39
 70
     1
102
RTVSPost2010Prop40
 90
        0
102
RTVSPost2010PropOp40
 70
     1
102
RTVSPost2010Prop41ColorIndex
 90
       18
102
RTVSPost2010Prop41ColorRGB
 90
        0
102
RTVSPost2010PropOp41
 70
     1
102
RTVSPost2010Prop42
 90
       50
102
RTVSPost2010PropOp42
 70
     1
102
RTVSPost2010Prop43
 90
        3
102
RTVSPost2010PropOp43
 70
     1
102
RTVSPost2010Prop44ColorIndex
 90
        5
102
RTVSPost2010Prop44ColorRGB
 90
      255
102
RTVSPost2010PropOp44
 70
     1
102
RTVSPost2010Prop45
280
     0
102
RTVSPost2010PropOp45
 70
     1
102
RTVSPost2010Prop46
 90
       50
102
RTVSPost2010PropOp46
 70
     1
102
RTVSPost2010Prop47
 90
       50
102
RTVSPost2010PropOp47
 70
     1
102
RTVSPost2010Prop48
 90
       50
102
RTVSPost2010PropOp48
 70
     1
102
RTVSPost2010Prop49
280
     0
102
RTVSPost2010PropOp49
 70
     1
102
RTVSPost2010Prop50
 90
       50
102
RTVSPost2010PropOp50
 70
     1
102
RTVSPost2010Prop51ColorIndex
 90
      256
102
RTVSPost2010Prop51ColorRGB
 90
-16777216
102
RTVSPost2010PropOp51
 70
     0
102
RTVSPost2010Prop52
140
1.0
102
RTVSPost2010PropOp52
 70
     0
102
RTVSPost2010Prop53
 90
        2
102
RTVSPost2010PropOp53
 70
     1
102
RTVSPost2010Prop54
  1
strokes_ogs.tif
102
RTVSPost2010PropOp54
 70
     1
102
RTVSPost2010Prop55
280
     0
102
RTVSPost2010PropOp55
 70
     1
102
RTVSPost2010Prop56
140
1.0
102
RTVSPost2010PropOp56
 70
     1
102
RTVSPost2010Prop57
140
1.0
102
RTVSPost2010PropOp57
 70
     1
102
RTVSPropertyOp0
 70
     1
102
RTVSPropertyOp1
 70
     1
102
RTVSPropertyOp2
 70
     1
102
RTVSPropertyOp3
 70
     1
102
RTVSPropertyOp4
 70
     1
102
RTVSPropertyOp5
 70
     1
102
RTVSPropertyOp6
 70
     1
102
RTVSPropertyOp7
 70
     1
102
RTVSPropertyOp8
 70
     1
102
RTVSPropertyOp9
 70
     1
102
RTVSPropertyOp10
 70
     1
102
RTVSPropertyOp11
 70
     1
102
RTVSPropertyOp12
 70
     1
102
RTVSPropertyOp13
 70
     1
102
RTVSPropertyOp14
 70
     1
102
RTVSPropertyOp15
 70
     1
102
RTVSPropertyOp16
 70
     1
102
RTVSPropertyOp17
 70
     1
102
RTVSPropertyOp18
 70
     1
102
RTVSPropertyOp19
 70
     1
102
RTVSPropertyOp20
 70
     1
102
RTVSPropertyOp21
 70
     1
102
RTVSPropertyOp22
 70
     1
102
RTVSPropertyOp23
 70
     1
102
RTVSPropertyOp24
 70
     1
102
RTVSPropertyOp25
 70
     1
102
RTVSPropertyOp26
 70
     1
102
RTVSPropertyOp27
 70
     1
102
RTVSPropertyOp28
 70
     1
102
RTVSPropertyOp29
 70
     1
102
RTVSPropertyOp30
 70
     1
102
RTVSPropertyOp31
 70
     1
102
RTVSPropertyOp32
 70
     1
102
RTVSPropertyOp33
 70
     1
102
RTVSPropertyOp34
 70
     1
102
RTVSPropertyOp35
 70
     1
102
RTVSPropertyOp36
 70
     1
102
RTVSPropertyOp37
 70
     1
102
RTVSPropertyOp38
 70
     1
102
RTVSPropertyOp39
 70
     1
102
RTVSPropertyOp40
 70
     1
102
RTVSPropertyOp41
 70
     1
102
RTVSPropertyOp42
 70
     1
102
RTVSPropertyOp43
 70
     1
102
RTVSPropertyOp44
 70
     1
102
RTVSPropertyOp45
 70
     1
102
RTVSPropertyOp46
 70
     1
102
RTVSPropertyOp47
 70
     1
102
RTVSPropertyOp48
 70
     1
102
RTVSPropertyOp49
 70
     1
102
RTVSPropertyOp50
 70
     1
102
RTVSPropertyOp51
 70
     0
102
RTVSPropertyOp52
 70
     0
102
RTVSPropertyOp53
 70
     1
102
RTVSPropertyOp54
 70
     1
102
RTVSPropertyOp55
 70
     1
102
RTVSPropertyOp56
 70
     1
102
RTVSPropertyOp57
 70
     1
102
RTVSPropertyOp58
 70
     1
102
RTVSPropertyOp59
 70
     1
102
RTVSPropertyOp60
 70
     1
102
RTVSPropertyOp61
 70
     1
102
RTVSPropertyOp62
 70
     1
  0
XRECORD
  5
5A3
102
{ACAD_REACTORS
330
5A2
102
}
330
5A2
100
AcDbXrecord
280
     1
102
RTVSPost2010Prop28
280
     0
102
RTVSPost2010PropOp28
 70
     1
102
RTVSPost2010Prop29
280
     1
102
RTVSPost2010PropOp29
 70
     1
102
RTVSPost2010Prop30
280
     1
102
RTVSPost2010PropOp30
 70
     1
102
RTVSPost2010Prop31
280
     0
102
RTVSPost2010PropOp31
 70
     1
102
RTVSPost2010Prop32
280
     0
102
RTVSPost2010PropOp32
 70
     1
102
RTVSPost2010Prop33
280
     0
102
RTVSPost2010PropOp33
 70
     1
102
RTVSPost2010Prop34
280
     0
102
RTVSPost2010PropOp34
 70
     1
102
RTVSPost2010Prop35
280
     0
102
RTVSPost2010PropOp35
 70
     1
102
RTVSPost2010Prop36
280
     0
102
RTVSPost2010PropOp36
 70
     1
102
RTVSPost2010Prop37
 90
       50
102
RTVSPost2010PropOp37
 70
     1
102
RTVSPost2010Prop38
140
0.0
102
RTVSPost2010PropOp38
 70
     1
102
RTVSPost2010Prop39
140
1.0
102
RTVSPost2010PropOp39
 70
     1
102
RTVSPost2010Prop40
 90
        0
102
RTVSPost2010PropOp40
 70
     1
102
RTVSPost2010Prop41ColorIndex
 90
       18
102
RTVSPost2010Prop41ColorRGB
 90
        0
102
RTVSPost2010PropOp41
 70
     1
102
RTVSPost2010Prop42
 90
       50
102
RTVSPost2010PropOp42
 70
     1
102
RTVSPost2010Prop43
 90
        3
102
RTVSPost2010PropOp43
 70
     1
102
RTVSPost2010Prop44ColorIndex
 90
        5
102
RTVSPost2010Prop44ColorRGB
 90
      255
102
RTVSPost2010PropOp44
 70
     1
102
RTVSPost2010Prop45
280
     0
102
RTVSPost2010PropOp45
 70
     1
102
RTVSPost2010Prop46
 90
       50
102
RTVSPost2010PropOp46
 70
     1
102
RTVSPost2010Prop47
 90
       50
102
RTVSPost2010PropOp47
 70
     1
102
RTVSPost2010Prop48
 90
       50
102
RTVSPost2010PropOp48
 70
     1
102
RTVSPost2010Prop49
280
     0
102
RTVSPost2010PropOp49
 70
     1
102
RTVSPost2010Prop50
 90
       50
102
RTVSPost2010PropOp50
 70
     1
102
RTVSPost2010Prop51ColorIndex
 90
      256
102
RTVSPost2010Prop51ColorRGB
 90
-16777216
102
RTVSPost2010PropOp51
 70
     0
102
RTVSPost2010Prop52
140
1.0
102
RTVSPost2010PropOp52
 70
     0
102
RTVSPost2010Prop53
 90
        2
102
RTVSPost2010PropOp53
 70
     1
102
RTVSPost2010Prop54
  1
strokes_ogs.tif
102
RTVSPost2010PropOp54
 70
     1
102
RTVSPost2010Prop55
280
     0
102
RTVSPost2010PropOp55
 70
     1
102
RTVSPost2010Prop56
140
1.0
102
RTVSPost2010PropOp56
 70
     1
102
RTVSPost2010Prop57
140
1.0
102
RTVSPost2010PropOp57
 70
     1
102
RTVSPropertyOp0
 70
     1
102
RTVSPropertyOp1
 70
     1
102
RTVSPropertyOp2
 70
     1
102
RTVSPropertyOp3
 70
     1
102
RTVSPropertyOp4
 70
     1
102
RTVSPropertyOp5
 70
     1
102
RTVSPropertyOp6
 70
     1
102
RTVSPropertyOp7
 70
     1
102
RTVSPropertyOp8
 70
     1
102
RTVSPropertyOp9
 70
     1
102
RTVSPropertyOp10
 70
     1
102
RTVSPropertyOp11
 70
     1
102
RTVSPropertyOp12
 70
     1
102
RTVSPropertyOp13
 70
     1
102
RTVSPropertyOp14
 70
     1
102
RTVSPropertyOp15
 70
     1
102
RTVSPropertyOp16
 70
     1
102
RTVSPropertyOp17
 70
     1
102
RTVSPropertyOp18
 70
     1
102
RTVSPropertyOp19
 70
     1
102
RTVSPropertyOp20
 70
     1
102
RTVSPropertyOp21
 70
     1
102
RTVSPropertyOp22
 70
     1
102
RTVSPropertyOp23
 70
     1
102
RTVSPropertyOp24
 70
     1
102
RTVSPropertyOp25
 70
     1
102
RTVSPropertyOp26
 70
     1
102
RTVSPropertyOp27
 70
     1
102
RTVSPropertyOp28
 70
     1
102
RTVSPropertyOp29
 70
     1
102
RTVSPropertyOp30
 70
     1
102
RTVSPropertyOp31
 70
     1
102
RTVSPropertyOp32
 70
     1
102
RTVSPropertyOp33
 70
     1
102
RTVSPropertyOp34
 70
     1
102
RTVSPropertyOp35
 70
     1
102
RTVSPropertyOp36
 70
     1
102
RTVSPropertyOp37
 70
     1
102
RTVSPropertyOp38
 70
     1
102
RTVSPropertyOp39
 70
     1
102
RTVSPropertyOp40
 70
     1
102
RTVSPropertyOp41
 70
     1
102
RTVSPropertyOp42
 70
     1
102
RTVSPropertyOp43
 70
     1
102
RTVSPropertyOp44
 70
     1
102
RTVSPropertyOp45
 70
     1
102
RTVSPropertyOp46
 70
     1
102
RTVSPropertyOp47
 70
     1
102
RTVSPropertyOp48
 70
     1
102
RTVSPropertyOp49
 70
     1
102
RTVSPropertyOp50
 70
     1
102
RTVSPropertyOp51
 70
     0
102
RTVSPropertyOp52
 70
     0
102
RTVSPropertyOp53
 70
     1
102
RTVSPropertyOp54
 70
     1
102
RTVSPropertyOp55
 70
     1
102
RTVSPropertyOp56
 70
     1
102
RTVSPropertyOp57
 70
     1
102
RTVSPropertyOp58
 70
     1
102
RTVSPropertyOp59
 70
     1
102
RTVSPropertyOp60
 70
     1
102
RTVSPropertyOp61
 70
     1
102
RTVSPropertyOp62
 70
     1
  0
ENDSEC
  0
EOF
