  0
SECTION
  2
HEADER
  9
$ACADVER
  1
AC1015
  9
$ACADMAINTVER
 70
     6
  9
$DWGCODEPAGE
  3
DOS932
  9
$INSBASE
 10
0.0
 20
0.0
 30
0.0
  9
$EXTMIN
 10
0.0
 20
0.0
 30
0.0
  9
$EXTMAX
 10
420.0
 20
297.0
 30
0.0
  9
$LIMMIN
 10
0.0
 20
0.0
  9
$LIMMAX
 10
420.0
 20
297.0
  9
$ORTHOMODE
 70
     0
  9
$REGENMODE
 70
     1
  9
$FILLMODE
 70
     1
  9
$QTEXTMODE
 70
     0
  9
$MIRRTEXT
 70
     1
  9
$LTSCALE
 40
0.25
  9
$ATTMODE
 70
     1
  9
$TEXTSIZE
 40
5.0
  9
$TRACEWID
 40
0.05
  9
$TEXTSTYLE
  7
Standard
  9
$CLAYER
  8
0
  9
$CELTYPE
  6
Continuous
  9
$CECOLOR
 62
   256
  9
$CELTSCALE
 40
1.0
  9
$DISPSILH
 70
     0
  9
$DIMSCALE
 40
1.0
  9
$DIMASZ
 40
4.0
  9
$DIMEXO
 40
2.0
  9
$DIMDLI
 40
10.0
  9
$DIMRND
 40
0.0
  9
$DIMDLE
 40
0.0
  9
$DIMEXE
 40
2.0
  9
$DIMTP
 40
0.0
  9
$DIMTM
 40
0.0
  9
$DIMTXT
 40
4.0
  9
$DIMCEN
 40
0.09
  9
$DIMTSZ
 40
0.0
  9
$DIMTOL
 70
     0
  9
$DIMLIM
 70
     0
  9
$DIMTIH
 70
     0
  9
$DIMTOH
 70
     0
  9
$DIMSE1
 70
     0
  9
$DIMSE2
 70
     0
  9
$DIMTAD
 70
     3
  9
$DIMZIN
 70
     0
  9
$DIMBLK
  1

  9
$DIMASO
 70
     1
  9
$DIMSHO
 70
     1
  9
$DIMPOST
  1

  9
$DIMAPOST
  1

  9
$DIMALT
 70
     0
  9
$DIMALTD
 70
     2
  9
$DIMALTF
 40
25.4
  9
$DIMLFAC
 40
1.0
  9
$DIMTOFL
 70
     1
  9
$DIMTVP
 40
0.7
  9
$DIMTIX
 70
     0
  9
$DIMSOXD
 70
     0
  9
$DIMSAH
 70
     0
  9
$DIMBLK1
  1

  9
$DIMBLK2
  1

  9
$DIMSTYLE
  2
Standard
  9
$DIMCLRD
 70
     0
  9
$DIMCLRE
 70
     0
  9
$DIMCLRT
 70
     0
  9
$DIMTFAC
 40
0.5
  9
$DIMGAP
 40
0.0
  9
$DIMJUST
 70
     0
  9
$DIMSD1
 70
     0
  9
$DIMSD2
 70
     0
  9
$DIMTOLJ
 70
     1
  9
$DIMTZIN
 70
     0
  9
$DIMALTZ
 70
     0
  9
$DIMALTTZ
 70
     0
  9
$DIMUPT
 70
     0
  9
$DIMDEC
 70
     2
  9
$DIMTDEC
 70
     4
  9
$DIMALTU
 70
     2
  9
$DIMALTTD
 70
     2
  9
$DIMTXSTY
  7
Standard
  9
$DIMAUNIT
 70
     0
  9
$DIMADEC
 70
     0
  9
$DIMALTRND
 40
0.0
  9
$DIMAZIN
 70
     0
  9
$DIMDSEP
 70
     0
  9
$DIMATFIT
 70
     3
  9
$DIMFRAC
 70
     0
  9
$DIMLDRBLK
  1

  9
$DIMLUNIT
 70
     2
  9
$DIMLWD
 70
     0
  9
$DIMLWE
 70
     0
  9
$DIMTMOVE
 70
     0
  9
$LUNITS
 70
     2
  9
$LUPREC
 70
     4
  9
$SKETCHINC
 40
0.1
  9
$FILLETRAD
 40
0.0
  9
$AUNITS
 70
     0
  9
$AUPREC
 70
     0
  9
$MENU
  1
acad
  9
$ELEVATION
 40
0.0
  9
$PELEVATION
 40
0.0
  9
$THICKNESS
 40
0.0
  9
$LIMCHECK
 70
     0
  9
$CHAMFERA
 40
0.0
  9
$CHAMFERB
 40
0.0
  9
$CHAMFERC
 40
0.0
  9
$CHAMFERD
 40
0.0
  9
$SKPOLY
 70
     0
  9
$TDCREATE
 40
2458788.674479167
  9
$TDUCREATE
 40
0.000000000
  9
$TDUPDATE
 40
2458788.674479167
  9
$TDUUPDATE
 40
0.000000000
  9
$TDINDWG
 40
0.0000000000
  9
$TDUSRTIMER
 40
0.0000000000
  9
$USRTIMER
 70
     1
  9
$ANGBASE
 50
0.0
  9
$ANGDIR
 70
     0
  9
$PDMODE
 70
     0
  9
$PDSIZE
 40
0.0
  9
$PLINEWID
 40
0.0
  9
$SPLFRAME
 70
     0
  9
$SPLINETYPE
 70
     6
  9
$SPLINESEGS
 70
     8
  9
$HANDSEED
  5
26F
  9
$SURFTAB1
 70
     6
  9
$SURFTAB2
 70
     6
  9
$SURFTYPE
 70
     6
  9
$SURFU
 70
     6
  9
$SURFV
 70
     6
  9
$UCSBASE
  2

  9
$UCSNAME
  2

  9
$UCSORG
 10
0.0
 20
0.0
 30
0.0
  9
$UCSXDIR
 10
1.0
 20
0.0
 30
0.0
  9
$UCSYDIR
 10
0.0
 20
1.0
 30
0.0
  9
$UCSORTHOREF
  2

  9
$UCSORTHOVIEW
 70
     0
  9
$UCSORGTOP
 10
0.0
 20
0.0
 30
0.0
  9
$UCSORGBOTTOM
 10
0.0
 20
0.0
 30
0.0
  9
$UCSORGLEFT
 10
0.0
 20
0.0
 30
0.0
  9
$UCSORGRIGHT
 10
0.0
 20
0.0
 30
0.0
  9
$UCSORGFRONT
 10
0.0
 20
0.0
 30
0.0
  9
$UCSORGBACK
 10
0.0
 20
0.0
 30
0.0
  9
$PUCSBASE
  2

  9
$PUCSNAME
  2

  9
$PUCSORG
 10
0.0
 20
0.0
 30
0.0
  9
$PUCSXDIR
 10
1.0
 20
0.0
 30
0.0
  9
$PUCSYDIR
 10
0.0
 20
1.0
 30
0.0
  9
$PUCSORTHOREF
  2

  9
$PUCSORTHOVIEW
 70
     0
  9
$PUCSORGTOP
 10
0.0
 20
0.0
 30
0.0
  9
$PUCSORGBOTTOM
 10
0.0
 20
0.0
 30
0.0
  9
$PUCSORGLEFT
 10
0.0
 20
0.0
 30
0.0
  9
$PUCSORGRIGHT
 10
0.0
 20
0.0
 30
0.0
  9
$PUCSORGFRONT
 10
0.0
 20
0.0
 30
0.0
  9
$PUCSORGBACK
 10
0.0
 20
0.0
 30
0.0
  9
$USERI1
 70
     0
  9
$USERI2
 70
     0
  9
$USERI3
 70
     0
  9
$USERI4
 70
     0
  9
$USERI5
 70
     0
  9
$USERR1
 40
0.0
  9
$USERR2
 40
0.0
  9
$USERR3
 40
0.0
  9
$USERR4
 40
0.0
  9
$USERR5
 40
0.0
  9
$WORLDVIEW
 70
     1
  9
$SHADEDGE
 70
     3
  9
$SHADEDIF
 70
    70
  9
$TILEMODE
 70
     1
  9
$MAXACTVP
 70
    16
  9
$PINSBASE
 10
0.0
 20
0.0
 30
0.0
  9
$PLIMCHECK
 70
     0
  9
$PEXTMIN
 10
0.0
 20
0.0
 30
0.0
  9
$PEXTMAX
 10
420.0
 20
297.0
 30
0.0
  9
$PLIMMIN
 10
0.0
 20
0.0
  9
$PLIMMAX
 10
420.0
 20
297.0
  9
$UNITMODE
 70
     0
  9
$VISRETAIN
 70
     0
  9
$PLINEGEN
 70
     1
  9
$PSLTSCALE
 70
     0
  9
$TREEDEPTH
 70
  3020
  9
$CMLSTYLE
  2
Standard
  9
$CMLJUST
 70
     0
  9
$CMLSCALE
 40
1.0
  9
$PROXYGRAPHICS
 70
     0
  9
$MEASUREMENT
 70
     0
  9
$CELWEIGHT
370
     0
  9
$ENDCAPS
280
     0
  9
$JOINSTYLE
280
     0
  9
$LWDISPLAY
290
     0
  9
$INSUNITS
 70
     0
  9
$HYPERLINKBASE
  1

  9
$STYLESHEET
  1

  9
$XEDIT
290
     1
  9
$CEPSNTYPE
380
     0
  9
$PSTYLEMODE
290
     1
  9
$FINGERPRINTGUID
  2

  9
$VERSIONGUID
  2

  9
$EXTNAMES
290
     1
  9
$PSVPSCALE
 40
0.0
  0
ENDSEC
  0
SECTION
  2
CLASSES
  0
CLASS
  1
LWPOLYLINE
  2
AcDbPolyline
  3
AutoCAD 2000
 90
    32768
280
     0
281
     1
  0
CLASS
  1
IMAGE
  2
AcDbRasterImage
  3
ISM
 90
    32895
280
     0
281
     1
  0
CLASS
  1
OLE2FRAME
  2
AcDbOle2Frame
  3
AutoCAD 2000
 90
    32768
280
     0
281
     1
  0
CLASS
  1
HATCH
  2
AcDbHatch
  3
AutoCAD 2000
 90
    32768
280
     0
281
     1
  0
CLASS
  1
DICTIONARYVAR
  2
AcDbDictionaryVar
  3
AutoCAD 2000
 90
    32768
280
     0
281
     0
  0
CLASS
  1
RASTERVARIABLES
  2
AcDbRasterVariables
  3
ISM
 90
    32768
280
     0
281
     0
  0
CLASS
  1
IMAGEDEF
  2
AcDbRasterImageDef
  3
ISM
 90
    32768
280
     0
281
     0
  0
CLASS
  1
IMAGEDEF_REACTOR
  2
AcDbRasterImageDefReactor
  3
ISM
 90
    32769
280
     0
281
     0
  0
CLASS
  1
IDBUFFER
  2
AcDbIdBuffer
  3
AutoCAD 2000
 90
    32768
280
     0
281
     0
  0
CLASS
  1
SPATIAL_FILTER
  2
AcDbSpatialFilter
  3
AutoCAD 2000
 90
    32768
280
     0
281
     0
  0
CLASS
  1
XRECORD
  2
AcDbXrecord
  3
AutoCAD 2000
 90
    32768
280
     0
281
     0
  0
CLASS
  1
SORTENTSTABLE
  2
AcDbSortentsTable
  3
AutoCAD 2000
 90
    32768
280
     0
281
     0
  0
CLASS
  1
LAYER_INDEX
  2
AcDbLayerIndex
  3
AutoCAD 2000
 90
    32768
280
     0
281
     0
  0
CLASS
  1
SPATIAL_INDEX
  2
AcDbSpatialIndex
  3
AutoCAD 2000
 90
    32768
280
     0
281
     0
  0
CLASS
  1
OBJECT_PTR
  2
CAseDLPNTableRecord
  3
"ASE-LPNTableRecord"
 90
    32769
280
     0
281
     0
  0
CLASS
  1
LAYOUT
  2
AcDbLayout
  3
AutoCAD 2000
 90
        0
280
     0
281
     0
  0
CLASS
  1
PLOTSETTINGS
  2
AcDbPlotSettings
  3
AutoCAD 2000
 90
    32768
280
     0
281
     0
  0
CLASS
  1
ACDBDICTIONARYWDFLT
  2
AcDbDictionaryWithDefault
  3
AutoCAD 2000
 90
        0
280
     0
281
     0
  0
CLASS
  1
ACDBPLACEHOLDER
  2
AcDbPlaceHolder
  3
AutoCAD 2000
 90
        0
280
     0
281
     0
  0
CLASS
  1
VBA_PROJECT
  2
AcDbVbaProject
  3
acadvba
 90
    32768
280
     0
281
     0
  0
CLASS
  1
WIPEOUT
  2
AcDbWipeout
  3
WipeOut|AutoCAD Express Tool|expresstools@autodesk.com
 90
    32895
280
     0
281
     1
  0
CLASS
  1
WIPEOUTVARIABLES
  2
AcDbWipeoutVariables
  3
WipeOut|AutoCAD Express Tool|expresstools@autodesk.com
 90
        0
280
     0
281
     0
  0
CLASS
  1
RTEXT
  2
RText
  3
RText|AutoCAD Express Tool|expresstools@autodesk.com
 90
    32768
280
     0
281
     1
  0
CLASS
  1
ARCALIGNEDTEXT
  2
AcDbArcAlignedText
  3
ATEXT|AutoCAD Express Tool|expresstools@autodesk.com
 90
    32768
280
     0
281
     1
  0
ENDSEC
  0
SECTION
  2
TABLES
  0
TABLE
  2
VPORT
  5
7
100
AcDbSymbolTable
 70
     1
  0
VPORT
  5
15
100
AcDbSymbolTableRecord
100
AcDbViewportTableRecord
  2
*ACTIVE
 70
     0
 10
0.0
 20
0.0
 11
1.0
 21
1.0
 12
6.591288
 22
4.579184
 13
0.0
 23
0.0
 14
1.0
 24
1.0
 15
0.0
 25
0.0
 16
0.0
 26
0.0
 36
1.0
 17
0.0
 27
0.0
 37
0.0
 40
9.158369
 41
0.688564
 42
50.0
 43
0.0
 44
0.0
 50
0.0
 51
0.0
 71
     0
 72
   100
 73
     1
 74
     1
 75
     0
 76
     0
 77
     0
 78
     0
281
     0
 65
     0
110
0.0
120
0.0
130
0.0
111
1.0
121
0.0
131
0.0
112
0.0
122
1.0
132
0.0
345
0
346
0
 79
     0
146
0.0
  0
ENDTAB
  0
TABLE
  2
LTYPE
  5
4
100
AcDbSymbolTable
 70
     9
  0
LTYPE
  5
11
100
AcDbSymbolTableRecord
100
AcDbLinetypeTableRecord
  2
ByBlock
 70
    64
  3

 72
    65
 73
     0
 40
0.0
  0
LTYPE
  5
12
100
AcDbSymbolTableRecord
100
AcDbLinetypeTableRecord
  2
ByLayer
 70
    64
  3

 72
    65
 73
     0
 40
0.0
  0
LTYPE
  5
13
100
AcDbSymbolTableRecord
100
AcDbLinetypeTableRecord
  2
Continuous
 70
    64
  3
Solid line
 72
    65
 73
     0
 40
0.0
  0
LTYPE
  5
25
100
AcDbSymbolTableRecord
100
AcDbLinetypeTableRecord
  2
HIDDEN
 70
    64
  3
- - - - - - - - 
 72
    65
 73
     2
 40
12.6
 49
8.4
 74
     0
 49
-4.2
 74
     0
  0
LTYPE
  5
26
100
AcDbSymbolTableRecord
100
AcDbLinetypeTableRecord
  2
DOT
 70
    64
  3
･ ･ ･ ･ ･ ･ ･ ･ 
 72
    65
 73
     2
 40
8.0
 49
6.0
 74
     0
 49
-2.0
 74
     0
  0
LTYPE
  5
27
100
AcDbSymbolTableRecord
100
AcDbLinetypeTableRecord
  2
CENTER
 70
    64
  3
- ･ - ･ - ･ - ･ 
 72
    65
 73
     4
 40
50.5
 49
30.0
 74
     0
 49
-9.0
 74
     0
 49
2.5
 74
     0
 49
-9.0
 74
     0
  0
LTYPE
  5
28
100
AcDbSymbolTableRecord
100
AcDbLinetypeTableRecord
  2
PHANTOM
 70
    64
  3
- ･･ - ･･ - ･･ - ･･ 
 72
    65
 73
     6
 40
58.0
 49
30.0
 74
     0
 49
-9.0
 74
     0
 49
2.5
 74
     0
 49
-5.0
 74
     0
 49
2.5
 74
     0
 49
-9.0
 74
     0
  0
LTYPE
  5
29
100
AcDbSymbolTableRecord
100
AcDbLinetypeTableRecord
  2
ACAD_ISO06W100
 70
    64
  3
____ ... ____ ... ____
 72
    65
 73
     8
 40
37.5
 49
24.0
 74
     0
 49
-3.0
 74
     0
 49
0.5
 74
     0
 49
-3.0
 74
     0
 49
0.5
 74
     0
 49
-3.0
 74
     0
 49
0.5
 74
     0
 49
-3.0
 74
     0
  0
LTYPE
  5
2A
100
AcDbSymbolTableRecord
100
AcDbLinetypeTableRecord
  2
ACAD_ISO14W100
 70
    64
  3
__ . . . __ . . . __ . . . 
 72
    65
 73
     8
 40
25.5
 49
12.0
 74
     0
 49
-3.0
 74
     0
 49
0.5
 74
     0
 49
-3.0
 74
     0
 49
0.5
 74
     0
 49
-3.0
 74
     0
 49
0.5
 74
     0
 49
-3.0
 74
     0
  0
ENDTAB
  0
TABLE
  2
LAYER
  5
2
100
AcDbSymbolTable
 70
    73
  0
LAYER
  5
14
100
AcDbSymbolTableRecord
100
AcDbLayerTableRecord
  2
0
 70
     0
 62
     7
  6
Continuous
290
     1
370
    -3
390
1D
  0
LAYER
  5
2B
100
AcDbSymbolTableRecord
100
AcDbLayerTableRecord
  2
1
 70
     0
 62
     7
  6
Continuous
290
     1
370
    -3
390
1D
  0
LAYER
  5
2C
100
AcDbSymbolTableRecord
100
AcDbLayerTableRecord
  2
2
 70
     0
 62
   134
  6
Continuous
290
     1
370
    -3
390
1D
  0
LAYER
  5
2D
100
AcDbSymbolTableRecord
100
AcDbLayerTableRecord
  2
3
 70
     0
 62
   214
  6
Continuous
290
     1
370
    -3
390
1D
  0
LAYER
  5
2E
100
AcDbSymbolTableRecord
100
AcDbLayerTableRecord
  2
4
 70
     0
 62
    54
  6
Continuous
290
     1
370
    -3
390
1D
  0
LAYER
  5
2F
100
AcDbSymbolTableRecord
100
AcDbLayerTableRecord
  2
5
 70
     0
 62
    94
  6
Continuous
290
     1
370
    -3
390
1D
  0
LAYER
  5
30
100
AcDbSymbolTableRecord
100
AcDbLayerTableRecord
  2
6
 70
     0
 62
    14
  6
Continuous
290
     1
370
    -3
390
1D
  0
LAYER
  5
31
100
AcDbSymbolTableRecord
100
AcDbLayerTableRecord
  2
7
 70
     0
 62
     4
  6
Continuous
290
     1
370
    -3
390
1D
  0
LAYER
  5
32
100
AcDbSymbolTableRecord
100
AcDbLayerTableRecord
  2
8
 70
     0
 62
     6
  6
Continuous
290
     1
370
    -3
390
1D
  0
LAYER
  5
33
100
AcDbSymbolTableRecord
100
AcDbLayerTableRecord
  2
9
 70
     0
 62
     2
  6
Continuous
290
     1
370
    -3
390
1D
  0
LAYER
  5
34
100
AcDbSymbolTableRecord
100
AcDbLayerTableRecord
  2
10
 70
     0
 62
     7
  6
Continuous
290
     1
370
    -3
390
1D
  0
LAYER
  5
35
100
AcDbSymbolTableRecord
100
AcDbLayerTableRecord
  2
11
 70
     0
 62
     7
  6
Continuous
290
     1
370
    -3
390
1D
  0
LAYER
  5
36
100
AcDbSymbolTableRecord
100
AcDbLayerTableRecord
  2
12
 70
     0
 62
   136
  6
Continuous
290
     1
370
    -3
390
1D
  0
LAYER
  5
37
100
AcDbSymbolTableRecord
100
AcDbLayerTableRecord
  2
13
 70
     0
 62
   216
  6
Continuous
290
     1
370
    -3
390
1D
  0
LAYER
  5
38
100
AcDbSymbolTableRecord
100
AcDbLayerTableRecord
  2
14
 70
     0
 62
    56
  6
Continuous
290
     1
370
    -3
390
1D
  0
LAYER
  5
39
100
AcDbSymbolTableRecord
100
AcDbLayerTableRecord
  2
15
 70
     0
 62
    96
  6
Continuous
290
     1
370
    -3
390
1D
  0
LAYER
  5
3A
100
AcDbSymbolTableRecord
100
AcDbLayerTableRecord
  2
16
 70
     0
 62
    16
  6
Continuous
290
     1
370
    -3
390
1D
  0
LAYER
  5
3B
100
AcDbSymbolTableRecord
100
AcDbLayerTableRecord
  2
17
 70
     0
 62
   132
  6
Continuous
290
     1
370
    -3
390
1D
  0
LAYER
  5
3C
100
AcDbSymbolTableRecord
100
AcDbLayerTableRecord
  2
18
 70
     0
 62
   212
  6
Continuous
290
     1
370
    -3
390
1D
  0
LAYER
  5
3D
100
AcDbSymbolTableRecord
100
AcDbLayerTableRecord
  2
19
 70
     0
 62
    52
  6
Continuous
290
     1
370
    -3
390
1D
  0
LAYER
  5
3E
100
AcDbSymbolTableRecord
100
AcDbLayerTableRecord
  2
20
 70
     0
 62
     6
  6
Continuous
290
     1
370
    -3
390
1D
  0
LAYER
  5
3F
100
AcDbSymbolTableRecord
100
AcDbLayerTableRecord
  2
21
 70
     0
 62
     3
  6
Continuous
290
     1
370
    -3
390
1D
  0
LAYER
  5
40
100
AcDbSymbolTableRecord
100
AcDbLayerTableRecord
  2
22
 70
     0
 62
     7
  6
Continuous
290
     1
370
    -3
390
1D
  0
LAYER
  5
41
100
AcDbSymbolTableRecord
100
AcDbLayerTableRecord
  2
23
 70
     0
 62
    21
  6
Continuous
290
     1
370
    -3
390
1D
  0
LAYER
  5
42
100
AcDbSymbolTableRecord
100
AcDbLayerTableRecord
  2
24
 70
     0
 62
   214
  6
Continuous
290
     1
370
    -3
390
1D
  0
LAYER
  5
43
100
AcDbSymbolTableRecord
100
AcDbLayerTableRecord
  2
25
 70
     0
 62
   251
  6
Continuous
290
     1
370
    -3
390
1D
  0
LAYER
  5
44
100
AcDbSymbolTableRecord
100
AcDbLayerTableRecord
  2
26
 70
     0
 62
     3
  6
Continuous
290
     1
370
    -3
390
1D
  0
LAYER
  5
45
100
AcDbSymbolTableRecord
100
AcDbLayerTableRecord
  2
27
 70
     0
 62
     3
  6
Continuous
290
     1
370
    -3
390
1D
  0
LAYER
  5
46
100
AcDbSymbolTableRecord
100
AcDbLayerTableRecord
  2
28
 70
     0
 62
     1
  6
Continuous
290
     1
370
    -3
390
1D
  0
LAYER
  5
47
100
AcDbSymbolTableRecord
100
AcDbLayerTableRecord
  2
29
 70
     0
 62
     4
  6
Continuous
290
     1
370
    -3
390
1D
  0
LAYER
  5
48
100
AcDbSymbolTableRecord
100
AcDbLayerTableRecord
  2
30
 70
     0
 62
     6
  6
Continuous
290
     1
370
    -3
390
1D
  0
LAYER
  5
49
100
AcDbSymbolTableRecord
100
AcDbLayerTableRecord
  2
31
 70
     0
 62
     2
  6
Continuous
290
     1
370
    -3
390
1D
  0
LAYER
  5
4A
100
AcDbSymbolTableRecord
100
AcDbLayerTableRecord
  2
32
 70
     0
 62
     7
  6
Continuous
290
     1
370
    -3
390
1D
  0
LAYER
  5
4B
100
AcDbSymbolTableRecord
100
AcDbLayerTableRecord
  2
33
 70
     0
 62
     7
  6
Continuous
290
     1
370
    -3
390
1D
  0
LAYER
  5
4C
100
AcDbSymbolTableRecord
100
AcDbLayerTableRecord
  2
34
 70
     0
 62
   253
  6
Continuous
290
     1
370
    -3
390
1D
  0
LAYER
  5
4D
100
AcDbSymbolTableRecord
100
AcDbLayerTableRecord
  2
35
 70
     0
 62
     7
  6
Continuous
290
     1
370
    -3
390
1D
  0
LAYER
  5
4E
100
AcDbSymbolTableRecord
100
AcDbLayerTableRecord
  2
36
 70
     0
 62
    94
  6
Continuous
290
     1
370
    -3
390
1D
  0
LAYER
  5
4F
100
AcDbSymbolTableRecord
100
AcDbLayerTableRecord
  2
37
 70
     0
 62
    14
  6
Continuous
290
     1
370
    -3
390
1D
  0
LAYER
  5
50
100
AcDbSymbolTableRecord
100
AcDbLayerTableRecord
  2
38
 70
     0
 62
   134
  6
Continuous
290
     1
370
    -3
390
1D
  0
LAYER
  5
51
100
AcDbSymbolTableRecord
100
AcDbLayerTableRecord
  2
39
 70
     0
 62
    54
  6
Continuous
290
     1
370
    -3
390
1D
  0
LAYER
  5
52
100
AcDbSymbolTableRecord
100
AcDbLayerTableRecord
  2
40
 70
     0
 62
   214
  6
Continuous
290
     1
370
    -3
390
1D
  0
LAYER
  5
53
100
AcDbSymbolTableRecord
100
AcDbLayerTableRecord
  2
41
 70
     0
 62
     7
  6
Continuous
290
     1
370
    -3
390
1D
  0
LAYER
  5
54
100
AcDbSymbolTableRecord
100
AcDbLayerTableRecord
  2
42
 70
     0
 62
     5
  6
Continuous
290
     1
370
    -3
390
1D
  0
LAYER
  5
55
100
AcDbSymbolTableRecord
100
AcDbLayerTableRecord
  2
43
 70
     0
 62
     3
  6
Continuous
290
     1
370
    -3
390
1D
  0
LAYER
  5
56
100
AcDbSymbolTableRecord
100
AcDbLayerTableRecord
  2
44
 70
     0
 62
     1
  6
Continuous
290
     1
370
    -3
390
1D
  0
LAYER
  5
57
100
AcDbSymbolTableRecord
100
AcDbLayerTableRecord
  2
45
 70
     0
 62
     3
  6
Continuous
290
     1
370
    -3
390
1D
  0
LAYER
  5
58
100
AcDbSymbolTableRecord
100
AcDbLayerTableRecord
  2
46
 70
     0
 62
     6
  6
Continuous
290
     1
370
    -3
390
1D
  0
LAYER
  5
59
100
AcDbSymbolTableRecord
100
AcDbLayerTableRecord
  2
47
 70
     0
 62
     2
  6
Continuous
290
     1
370
    -3
390
1D
  0
LAYER
  5
5A
100
AcDbSymbolTableRecord
100
AcDbLayerTableRecord
  2
48
 70
     0
 62
     7
  6
Continuous
290
     1
370
    -3
390
1D
  0
LAYER
  5
5B
100
AcDbSymbolTableRecord
100
AcDbLayerTableRecord
  2
49
 70
     0
 62
     7
  6
Continuous
290
     1
370
    -3
390
1D
  0
LAYER
  5
5C
100
AcDbSymbolTableRecord
100
AcDbLayerTableRecord
  2
50
 70
     0
 62
   253
  6
Continuous
290
     1
370
    -3
390
1D
  0
LAYER
  5
5D
100
AcDbSymbolTableRecord
100
AcDbLayerTableRecord
  2
51
 70
     0
 62
   174
  6
Continuous
290
     1
370
    -3
390
1D
  0
LAYER
  5
5E
100
AcDbSymbolTableRecord
100
AcDbLayerTableRecord
  2
52
 70
     0
 62
    94
  6
Continuous
290
     1
370
    -3
390
1D
  0
LAYER
  5
5F
100
AcDbSymbolTableRecord
100
AcDbLayerTableRecord
  2
53
 70
     0
 62
    14
  6
Continuous
290
     1
370
    -3
390
1D
  0
LAYER
  5
60
100
AcDbSymbolTableRecord
100
AcDbLayerTableRecord
  2
54
 70
     0
 62
     3
  6
Continuous
290
     1
370
    -3
390
1D
  0
LAYER
  5
61
100
AcDbSymbolTableRecord
100
AcDbLayerTableRecord
  2
55
 70
     0
 62
    54
  6
Continuous
290
     1
370
    -3
390
1D
  0
LAYER
  5
62
100
AcDbSymbolTableRecord
100
AcDbLayerTableRecord
  2
56
 70
     0
 62
   214
  6
Continuous
290
     1
370
    -3
390
1D
  0
LAYER
  5
63
100
AcDbSymbolTableRecord
100
AcDbLayerTableRecord
  2
57
 70
     0
 62
     3
  6
Continuous
290
     1
370
    -3
390
1D
  0
LAYER
  5
64
100
AcDbSymbolTableRecord
100
AcDbLayerTableRecord
  2
58
 70
     0
 62
     5
  6
Continuous
290
     1
370
    -3
390
1D
  0
LAYER
  5
65
100
AcDbSymbolTableRecord
100
AcDbLayerTableRecord
  2
59
 70
     0
 62
     3
  6
Continuous
290
     1
370
    -3
390
1D
  0
LAYER
  5
66
100
AcDbSymbolTableRecord
100
AcDbLayerTableRecord
  2
60
 70
     0
 62
     1
  6
Continuous
290
     1
370
    -3
390
1D
  0
LAYER
  5
67
100
AcDbSymbolTableRecord
100
AcDbLayerTableRecord
  2
61
 70
     0
 62
     4
  6
Continuous
290
     1
370
    -3
390
1D
  0
LAYER
  5
68
100
AcDbSymbolTableRecord
100
AcDbLayerTableRecord
  2
62
 70
     0
 62
     6
  6
Continuous
290
     1
370
    -3
390
1D
  0
LAYER
  5
69
100
AcDbSymbolTableRecord
100
AcDbLayerTableRecord
  2
63
 70
     0
 62
     2
  6
Continuous
290
     1
370
    -3
390
1D
  0
LAYER
  5
6A
100
AcDbSymbolTableRecord
100
AcDbLayerTableRecord
  2
64
 70
     0
 62
     7
  6
Continuous
290
     1
370
    -3
390
1D
  0
LAYER
  5
6B
100
AcDbSymbolTableRecord
100
AcDbLayerTableRecord
  2
103
 70
     0
 62
     3
  6
Continuous
290
     1
370
    -3
390
1D
  0
LAYER
  5
6C
100
AcDbSymbolTableRecord
100
AcDbLayerTableRecord
  2
128
 70
     0
 62
     7
  6
Continuous
290
     1
370
    -3
390
1D
  0
LAYER
  5
6D
100
AcDbSymbolTableRecord
100
AcDbLayerTableRecord
  2
145
 70
     0
 62
     3
  6
Continuous
290
     1
370
    -3
390
1D
  0
LAYER
  5
6E
100
AcDbSymbolTableRecord
100
AcDbLayerTableRecord
  2
242
 70
     0
 62
     3
  6
Continuous
290
     1
370
    -3
390
1D
  0
LAYER
  5
6F
100
AcDbSymbolTableRecord
100
AcDbLayerTableRecord
  2
244
 70
     0
 62
     3
  6
Continuous
290
     1
370
    -3
390
1D
  0
LAYER
  5
70
100
AcDbSymbolTableRecord
100
AcDbLayerTableRecord
  2
245
 70
     0
 62
     3
  6
Continuous
290
     1
370
    -3
390
1D
  0
LAYER
  5
71
100
AcDbSymbolTableRecord
100
AcDbLayerTableRecord
  2
255
 70
     0
 62
     3
  6
Continuous
290
     1
370
    -3
390
1D
  0
LAYER
  5
72
100
AcDbSymbolTableRecord
100
AcDbLayerTableRecord
  2
256
 70
     0
 62
     3
  6
Continuous
290
     1
370
    -3
390
1D
  0
ENDTAB
  0
TABLE
  2
STYLE
  5
3
100
AcDbSymbolTable
 70
     2
  0
STYLE
  5
17
100
AcDbSymbolTableRecord
100
AcDbTextStyleTableRecord
  2
Standard
 70
     0
 40
0.0
 41
1.0
 50
0.0
 71
     0
 42
0.0
  3
txt
  4
bigfont
  0
STYLE
  5
24
100
AcDbSymbolTableRecord
100
AcDbTextStyleTableRecord
  2
T_STANDARD
 70
    68
 40
10.0
 41
1.0
 50
0.0
 71
     0
 42
10.0
  3
txt
  4
bigfont
  0
ENDTAB
  0
TABLE
  2
VIEW
  5
5
100
AcDbSymbolTable
 70
     0
  0
ENDTAB
  0
TABLE
  2
UCS
  5
6
100
AcDbSymbolTable
 70
     0
  0
ENDTAB
  0
TABLE
  2
APPID
  5
8
100
AcDbSymbolTable
 70
     1
  0
APPID
  5
16
100
AcDbSymbolTableRecord
100
AcDbRegAppTableRecord
  2
ACAD
 70
     0
  0
ENDTAB
  0
TABLE
  2
DIMSTYLE
  5
9
100
AcDbSymbolTable
 70
     1
100
AcDbDimStyleTable
 71
     0
  0
DIMSTYLE
105
18
100
AcDbSymbolTableRecord
100
AcDbDimStyleTableRecord
  2
Standard
 70
     0
  3

  4

 40
1.0
 41
0.18
 42
0.0625
 43
0.38
 44
0.18
 45
0.0
 46
0.0
 47
0.0
 48
0.0
 71
     0
 72
     0
 73
     1
 74
     1
 75
     0
 76
     0
 77
     0
 78
     0
 79
     0
140
0.18
141
0.09
142
0.0
143
25.4
144
1.0
145
0.0
146
1.0
147
0.09
148
0.0
170
     0
171
     2
172
     0
173
     0
174
     0
175
     0
176
     0
177
     0
178
     0
179
     0
271
     4
272
     4
273
     2
274
     2
275
     0
276
     0
277
     2
278
    46
279
     0
280
     0
281
     0
282
     0
283
     1
284
     0
285
     0
286
     0
288
     0
340
17
341
0
342
0
343
0
344
0
371
    -2
372
    -2
  0
ENDTAB
  0
TABLE
  2
BLOCK_RECORD
  5
1
100
AcDbSymbolTable
 70
     8
  0
BLOCK_RECORD
  5
A
100
AcDbSymbolTableRecord
100
AcDbBlockTableRecord
  2
*MODEL_SPACE
340
20
  0
BLOCK_RECORD
  5
B
100
AcDbSymbolTableRecord
100
AcDbBlockTableRecord
  2
*PAPER_SPACE
340
21
  0
BLOCK_RECORD
  5
73
100
AcDbSymbolTableRecord
100
AcDbBlockTableRecord
  2
*G0
340
0
102
{BLKREFS
331
76
102
}
  0
BLOCK_RECORD
  5
90
100
AcDbSymbolTableRecord
100
AcDbBlockTableRecord
  2
*G1
340
0
102
{BLKREFS
331
9B
102
}
  0
BLOCK_RECORD
  5
A2
100
AcDbSymbolTableRecord
100
AcDbBlockTableRecord
  2
*G2
340
0
102
{BLKREFS
331
A9
102
}
  0
BLOCK_RECORD
  5
AA
100
AcDbSymbolTableRecord
100
AcDbBlockTableRecord
  2
*D3
340
0
  0
BLOCK_RECORD
  5
B6
100
AcDbSymbolTableRecord
100
AcDbBlockTableRecord
  2
*D4
340
0
  0
BLOCK_RECORD
  5
CC
100
AcDbSymbolTableRecord
100
AcDbBlockTableRecord
  2
*G5
340
0
102
{BLKREFS
331
D0
102
}
  0
BLOCK_RECORD
  5
234
100
AcDbSymbolTableRecord
100
AcDbBlockTableRecord
  2
*G6
340
0
102
{BLKREFS
331
238
102
}
  0
BLOCK_RECORD
  5
263
100
AcDbSymbolTableRecord
100
AcDbBlockTableRecord
  2
*D7
340
0
  0
ENDTAB
  0
ENDSEC
  0
SECTION
  2
BLOCKS
  0
BLOCK
  5
D
100
AcDbEntity
  8
0
100
AcDbBlockBegin
  2
*MODEL_SPACE
 70
     0
 10
0.0
 20
0.0
 30
0.0
  3
*MODEL_SPACE
  1

  0
ENDBLK
  5
E
100
AcDbEntity
  8
0
100
AcDbBlockEnd
  0
BLOCK
  5
F
100
AcDbEntity
 67
     1
  8
0
100
AcDbBlockBegin
  2
*PAPER_SPACE
 70
     0
 10
0.0
 20
0.0
 30
0.0
  3
*PAPER_SPACE
  1

  0
ENDBLK
  5
10
100
AcDbEntity
 67
     1
  8
0
100
AcDbBlockEnd
  0
BLOCK
  5
74
100
AcDbEntity
  8
0
370
     9
  6
Continuous
 62
     7
100
AcDbBlockBegin
  2
*G0
 70
     0
 10
0.0
 20
0.0
 30
0.0
  3
*G0
  1

  0
ENDBLK
  5
75
100
AcDbEntity
  8
0
100
AcDbBlockEnd
  0
BLOCK
  5
91
100
AcDbEntity
  8
0
370
     9
  6
Continuous
 62
     7
100
AcDbBlockBegin
  2
*G1
 70
     0
 10
0.0
 20
0.0
 30
0.0
  3
*G1
  1

  0
LINE
  5
92
100
AcDbEntity
  8
1
370
     9
  6
Continuous
 62
     7
100
AcDbLine
 10
97.05
 20
62.954082
 30
0.0
 11
177.15
 21
62.954082
 31
0.0
  0
ARC
  5
93
100
AcDbEntity
  8
1
370
     9
  6
Continuous
 62
     7
100
AcDbCircle
 10
97.05
 20
65.954082
 30
0.0
 40
3.0
100
AcDbArc
 50
180.0
 51
-90.0
  0
LINE
  5
94
100
AcDbEntity
  8
1
370
     9
  6
Continuous
 62
     7
100
AcDbLine
 10
94.05
 20
65.954082
 30
0.0
 11
94.05
 21
113.954082
 31
0.0
  0
ARC
  5
95
100
AcDbEntity
  8
1
370
     9
  6
Continuous
 62
     7
100
AcDbCircle
 10
97.05
 20
113.954082
 30
0.0
 40
3.0
100
AcDbArc
 50
90.0
 51
180.0
  0
LINE
  5
96
100
AcDbEntity
  8
1
370
     9
  6
Continuous
 62
     7
100
AcDbLine
 10
177.15
 20
116.954082
 30
0.0
 11
97.05
 21
116.954082
 31
0.0
  0
ARC
  5
97
100
AcDbEntity
  8
1
370
     9
  6
Continuous
 62
     7
100
AcDbCircle
 10
177.15
 20
65.954082
 30
0.0
 40
3.0
100
AcDbArc
 50
-90.0
 51
0.0
  0
LINE
  5
98
100
AcDbEntity
  8
1
370
     9
  6
Continuous
 62
     7
100
AcDbLine
 10
180.15
 20
113.954082
 30
0.0
 11
180.15
 21
65.954082
 31
0.0
  0
ARC
  5
99
100
AcDbEntity
  8
1
370
     9
  6
Continuous
 62
     7
100
AcDbCircle
 10
177.15
 20
113.954082
 30
0.0
 40
3.0
100
AcDbArc
 50
0.0
 51
90.0
  0
ENDBLK
  5
9A
100
AcDbEntity
  8
0
100
AcDbBlockEnd
  0
BLOCK
  5
A3
100
AcDbEntity
  8
0
370
     9
  6
Continuous
 62
     7
100
AcDbBlockBegin
  2
*G2
 70
     0
 10
0.0
 20
0.0
 30
0.0
  3
*G2
  1

  0
LINE
  5
A4
100
AcDbEntity
  8
1
370
     9
  6
Continuous
 62
     7
100
AcDbLine
 10
208.960002
 20
210.953
 30
0.0
 11
209.760002
 21
210.953
 31
0.0
  0
LINE
  5
A5
100
AcDbEntity
  8
1
370
     9
  6
Continuous
 62
     7
100
AcDbLine
 10
209.760002
 20
210.953
 30
0.0
 11
209.760002
 21
156.953
 31
0.0
  0
LINE
  5
A6
100
AcDbEntity
  8
1
370
     9
  6
Continuous
 62
     7
100
AcDbLine
 10
209.760002
 20
156.953
 30
0.0
 11
208.960002
 21
156.953
 31
0.0
  0
LINE
  5
A7
100
AcDbEntity
  8
1
370
     9
  6
Continuous
 62
     7
100
AcDbLine
 10
208.960002
 20
156.953
 30
0.0
 11
208.960002
 21
210.953
 31
0.0
  0
ENDBLK
  5
A8
100
AcDbEntity
  8
0
100
AcDbBlockEnd
  0
BLOCK
  5
AB
100
AcDbEntity
  8
1
370
     9
  6
Continuous
 62
     7
100
AcDbBlockBegin
  2
*D3
 70
     0
 10
0.0
 20
0.0
 30
0.0
  3
*D3
  1

  0
LINE
  5
AC
100
AcDbEntity
  8
1
370
     9
  6
Continuous
 62
     7
100
AcDbLine
 10
94.05
 20
221.052001
 30
0.0
 11
179.650001
 21
221.052001
 31
0.0
  0
LINE
  5
AD
100
AcDbEntity
  8
1
370
     9
  6
Continuous
 62
     7
100
AcDbLine
 10
94.05
 20
223.052001
 30
0.0
 11
94.05
 21
209.953
 31
0.0
  0
LINE
  5
AE
100
AcDbEntity
  8
1
370
     9
  6
Continuous
 62
     7
100
AcDbLine
 10
179.650001
 20
223.052001
 30
0.0
 11
179.650001
 21
209.953
 31
0.0
  0
LINE
  5
AF
100
AcDbEntity
  8
1
370
     9
  6
Continuous
 62
     7
100
AcDbLine
 10
94.05
 20
221.052001
 30
0.0
 11
96.368222
 21
221.673167
 31
0.0
  0
LINE
  5
B0
100
AcDbEntity
  8
1
370
     9
  6
Continuous
 62
     7
100
AcDbLine
 10
94.05
 20
221.052001
 30
0.0
 11
96.368222
 21
220.430835
 31
0.0
  0
LINE
  5
B1
100
AcDbEntity
  8
1
370
     9
  6
Continuous
 62
     7
100
AcDbLine
 10
179.650001
 20
221.052001
 30
0.0
 11
177.331779
 21
220.430835
 31
0.0
  0
LINE
  5
B2
100
AcDbEntity
  8
1
370
     9
  6
Continuous
 62
     7
100
AcDbLine
 10
179.650001
 20
221.052001
 30
0.0
 11
177.331779
 21
221.673167
 31
0.0
  0
TEXT
  5
B3
100
AcDbEntity
  8
1
370
     9
  6
Continuous
 62
     7
100
AcDbText
 10
133.550001
 20
221.552001
 30
0.0
 40
3.0
  1
85.6
 41
0.611111
 11
133.550001
 21
221.552001
 31
0.0
100
AcDbText
 73
     1
  0
ENDBLK
  5
B4
100
AcDbEntity
  8
1
370
     9
  6
Continuous
 62
     7
100
AcDbBlockEnd
  0
BLOCK
  5
B7
100
AcDbEntity
  8
1
370
     9
  6
Continuous
 62
     7
100
AcDbBlockBegin
  2
*D4
 70
     0
 10
0.0
 20
0.0
 30
0.0
  3
*D4
  1

  0
LINE
  5
B8
100
AcDbEntity
  8
1
370
     9
  6
Continuous
 62
     7
100
AcDbLine
 10
192.618001
 20
156.953
 30
0.0
 11
192.618001
 21
210.953
 31
0.0
  0
LINE
  5
B9
100
AcDbEntity
  8
1
370
     9
  6
Continuous
 62
     7
100
AcDbLine
 10
194.618001
 20
156.953
 30
0.0
 11
178.650001
 21
156.953
 31
0.0
  0
LINE
  5
BA
100
AcDbEntity
  8
1
370
     9
  6
Continuous
 62
     7
100
AcDbLine
 10
194.618001
 20
210.953
 30
0.0
 11
178.650003
 21
210.953
 31
0.0
  0
LINE
  5
BB
100
AcDbEntity
  8
1
370
     9
  6
Continuous
 62
     7
100
AcDbLine
 10
192.618001
 20
156.953
 30
0.0
 11
191.996835
 21
159.271222
 31
0.0
  0
LINE
  5
BC
100
AcDbEntity
  8
1
370
     9
  6
Continuous
 62
     7
100
AcDbLine
 10
192.618001
 20
156.953
 30
0.0
 11
193.239166
 21
159.271222
 31
0.0
  0
LINE
  5
BD
100
AcDbEntity
  8
1
370
     9
  6
Continuous
 62
     7
100
AcDbLine
 10
192.618001
 20
210.953
 30
0.0
 11
193.239166
 21
208.634778
 31
0.0
  0
LINE
  5
BE
100
AcDbEntity
  8
1
370
     9
  6
Continuous
 62
     7
100
AcDbLine
 10
192.618001
 20
210.953
 30
0.0
 11
191.996835
 21
208.634778
 31
0.0
  0
TEXT
  5
BF
100
AcDbEntity
  8
1
370
     9
  6
Continuous
 62
     7
100
AcDbText
 10
192.118001
 20
182.353
 30
0.0
 40
3.0
  1
54
 50
90.0
 41
0.533333
 11
192.118001
 21
182.353
 31
0.0
100
AcDbText
 73
     1
  0
ENDBLK
  5
C0
100
AcDbEntity
  8
1
370
     9
  6
Continuous
 62
     7
100
AcDbBlockEnd
  0
BLOCK
  5
CD
100
AcDbEntity
  8
0
370
     9
  6
Continuous
 62
    96
100
AcDbBlockBegin
  2
*G5
 70
     0
 10
0.0
 20
0.0
 30
0.0
  3
*G5
  1

  0
LINE
  5
CE
100
AcDbEntity
  8
1
370
     9
  6
Continuous
 62
     7
100
AcDbLine
 10
105.06939
 20
208.752629
 30
0.0
 11
105.257866
 21
208.752629
 31
0.0
  0
ENDBLK
  5
CF
100
AcDbEntity
  8
0
100
AcDbBlockEnd
  0
BLOCK
  5
235
100
AcDbEntity
  8
0
370
     9
  6
Continuous
 62
    96
100
AcDbBlockBegin
  2
*G6
 70
     0
 10
0.0
 20
0.0
 30
0.0
  3
*G6
  1

  0
LINE
  5
236
100
AcDbEntity
  8
15
370
     9
  6
Continuous
 62
    96
100
AcDbLine
 10
319.230116
 20
19.245989
 30
0.0
 11
319.496771
 21
19.245989
 31
0.0
  0
ENDBLK
  5
237
100
AcDbEntity
  8
0
100
AcDbBlockEnd
  0
BLOCK
  5
264
100
AcDbEntity
  8
1
370
     9
  6
Continuous
 62
     7
100
AcDbBlockBegin
  2
*D7
 70
     0
 10
0.0
 20
0.0
 30
0.0
  3
*D7
  1

  0
LINE
  5
265
100
AcDbEntity
  8
1
370
     9
  6
Continuous
 62
     7
100
AcDbLine
 10
206.560002
 20
221.052001
 30
0.0
 11
221.0412
 21
221.052001
 31
0.0
  0
LINE
  5
266
100
AcDbEntity
  8
1
370
     9
  6
Continuous
 62
     7
100
AcDbLine
 10
208.960002
 20
223.052001
 30
0.0
 11
208.960002
 21
212.953
 31
0.0
  0
LINE
  5
267
100
AcDbEntity
  8
1
370
     9
  6
Continuous
 62
     7
100
AcDbLine
 10
209.760002
 20
223.052001
 30
0.0
 11
209.760002
 21
212.953
 31
0.0
  0
LINE
  5
268
100
AcDbEntity
  8
1
370
     9
  6
Continuous
 62
     7
100
AcDbLine
 10
208.960002
 20
221.052001
 30
0.0
 11
206.64178
 21
220.430835
 31
0.0
  0
LINE
  5
269
100
AcDbEntity
  8
1
370
     9
  6
Continuous
 62
     7
100
AcDbLine
 10
208.960002
 20
221.052001
 30
0.0
 11
206.64178
 21
221.673167
 31
0.0
  0
LINE
  5
26A
100
AcDbEntity
  8
1
370
     9
  6
Continuous
 62
     7
100
AcDbLine
 10
209.760002
 20
221.052001
 30
0.0
 11
212.078224
 21
221.673167
 31
0.0
  0
LINE
  5
26B
100
AcDbEntity
  8
1
370
     9
  6
Continuous
 62
     7
100
AcDbLine
 10
209.760002
 20
221.052001
 30
0.0
 11
212.078224
 21
220.430835
 31
0.0
  0
TEXT
  5
26C
100
AcDbEntity
  8
1
370
     9
  6
Continuous
 62
     7
100
AcDbText
 10
212.7412
 20
221.552001
 30
0.0
 40
3.0
  1
(0.8)
 41
0.601449
 11
212.7412
 21
221.552001
 31
0.0
100
AcDbText
 73
     1
  0
ENDBLK
  5
26D
100
AcDbEntity
  8
1
370
     9
  6
Continuous
 62
     7
100
AcDbBlockEnd
  0
ENDSEC
  0
SECTION
  2
ENTITIES
  0
INSERT
  5
76
100
AcDbEntity
  8
0
370
     9
  6
Continuous
 62
     7
100
AcDbBlockReference
  2
*G0
 10
0.0
 20
0.0
 30
0.0
  0
LINE
  5
77
100
AcDbEntity
  8
15
370
    50
  6
Continuous
 62
    96
100
AcDbLine
 10
10.0
 20
265.5
 30
0.0
 11
10.0
 21
8.5
 31
0.0
  0
LINE
  5
78
100
AcDbEntity
  8
15
370
    50
  6
Continuous
 62
    96
100
AcDbLine
 10
10.0
 20
8.5
 30
0.0
 11
395.0
 21
8.5
 31
0.0
  0
LINE
  5
79
100
AcDbEntity
  8
15
370
    50
  6
Continuous
 62
    96
100
AcDbLine
 10
10.0
 20
265.5
 30
0.0
 11
395.0
 21
265.5
 31
0.0
  0
LINE
  5
7A
100
AcDbEntity
  8
15
370
    50
  6
Continuous
 62
    96
100
AcDbLine
 10
395.0
 20
265.5
 30
0.0
 11
395.0
 21
8.5
 31
0.0
  0
LINE
  5
7B
100
AcDbEntity
  8
15
370
    30
  6
Continuous
 62
    96
100
AcDbLine
 10
305.0
 20
8.5
 30
0.0
 11
305.0
 21
53.500007
 31
0.0
  0
LINE
  5
7C
100
AcDbEntity
  8
15
370
     9
  6
Continuous
 62
    96
100
AcDbLine
 10
330.0
 20
265.5
 30
0.0
 11
330.0
 21
260.0
 31
0.0
  0
LINE
  5
7D
100
AcDbEntity
  8
15
370
    30
  6
Continuous
 62
    96
100
AcDbLine
 10
305.0
 20
260.0
 30
0.0
 11
395.0
 21
260.0
 31
0.0
  0
LINE
  5
7E
100
AcDbEntity
  8
15
370
    30
  6
Continuous
 62
    96
100
AcDbLine
 10
305.0
 20
254.5
 30
0.0
 11
395.0
 21
254.5
 31
0.0
  0
LINE
  5
7F
100
AcDbEntity
  8
15
370
    50
  6
Continuous
 62
    96
100
AcDbLine
 10
395.0
 20
106.500021
 30
0.0
 11
395.0
 21
93.700016
 31
0.0
  0
TEXT
  5
80
100
AcDbEntity
  8
15
370
     9
  6
PHANTOM
 62
    96
100
AcDbText
 10
310.0
 20
261.25
 30
0.0
 40
3.0
  1
商品コード
 41
0.833333
 11
310.0
 21
261.25
 31
0.0
100
AcDbText
 73
     1
  0
TEXT
  5
81
100
AcDbEntity
  8
15
370
     9
  6
PHANTOM
 62
    96
100
AcDbText
 10
339.5
 20
255.75
 30
0.0
 40
3.0
  1
定　　　　　格
 41
0.833333
 11
339.5
 21
255.75
 31
0.0
100
AcDbText
 73
     1
  0
ARC
  5
82
100
AcDbEntity
  8
1
370
     9
  6
Continuous
 62
     7
100
AcDbCircle
 10
97.05
 20
207.953
 30
0.0
 40
3.0
100
AcDbArc
 50
90.0
 51
180.0
  0
ARC
  5
83
100
AcDbEntity
  8
1
370
     9
  6
Continuous
 62
     7
100
AcDbCircle
 10
97.05
 20
159.953
 30
0.0
 40
3.0
100
AcDbArc
 50
180.0
 51
-90.0
  0
LINE
  5
84
100
AcDbEntity
  8
1
370
     9
  6
Continuous
 62
     7
100
AcDbLine
 10
94.05
 20
207.953
 30
0.0
 11
94.05
 21
159.953
 31
0.0
  0
ARC
  5
85
100
AcDbEntity
  8
1
370
     9
  6
Continuous
 62
     7
100
AcDbCircle
 10
176.650001
 20
159.953
 30
0.0
 40
3.0
100
AcDbArc
 50
-90.0
 51
0.0
  0
ARC
  5
86
100
AcDbEntity
  8
1
370
     9
  6
Continuous
 62
     7
100
AcDbCircle
 10
176.650001
 20
207.953
 30
0.0
 40
3.0
100
AcDbArc
 50
0.0
 51
90.0
  0
LINE
  5
87
100
AcDbEntity
  8
1
370
     9
  6
Continuous
 62
     7
100
AcDbLine
 10
179.650001
 20
159.953
 30
0.0
 11
179.650001
 21
207.953
 31
0.0
  0
CIRCLE
  5
88
100
AcDbEntity
  8
1
370
     9
  6
Continuous
 62
     7
100
AcDbCircle
 10
172.828125
 20
100.30625
 30
0.0
 40
0.5
  0
CIRCLE
  5
89
100
AcDbEntity
  8
1
370
     9
  6
Continuous
 62
     7
100
AcDbCircle
 10
172.828125
 20
100.30625
 30
0.0
 40
0.25
  0
POLYLINE
  5
8A
100
AcDbEntity
  8
1
370
     9
  6
Continuous
 62
     7
100
AcDb2dPolyline
 66
     1
 10
0.0
 20
0.0
 30
0.0
  0
VERTEX
  5
8B
100
AcDbEntity
  8
1
370
     9
  6
Continuous
 62
     7
100
AcDbVertex
100
AcDb2dVertex
 10
172.828125
 20
100.30625
 30
0.0
  0
VERTEX
  5
8C
100
AcDbEntity
  8
1
370
     9
  6
Continuous
 62
     7
100
AcDbVertex
100
AcDb2dVertex
 10
190.191025
 20
110.330725
 30
0.0
  0
VERTEX
  5
8D
100
AcDbEntity
  8
1
370
     9
  6
Continuous
 62
     7
100
AcDbVertex
100
AcDb2dVertex
 10
196.484375
 20
110.330725
 30
0.0
  0
SEQEND
  5
8E
100
AcDbEntity
  8
1
370
     9
  6
Continuous
 62
     7
  0
TEXT
  5
8F
100
AcDbEntity
  8
1
370
     9
  6
Continuous
 62
     7
100
AcDbText
 10
190.284375
 20
110.48125
 30
0.0
 40
3.0
  1
裏面
 41
0.861111
 11
190.284375
 21
110.48125
 31
0.0
100
AcDbText
 73
     1
  0
INSERT
  5
9B
100
AcDbEntity
  8
0
370
     9
  6
Continuous
 62
     7
100
AcDbBlockReference
  2
*G1
 10
0.0
 20
0.0
 30
0.0
  0
LINE
  5
9C
100
AcDbEntity
  8
1
370
     9
  6
Continuous
 62
     7
100
AcDbLine
 10
97.05
 20
156.953
 30
0.0
 11
176.650001
 21
156.953
 31
0.0
  0
LINE
  5
9D
100
AcDbEntity
  8
1
370
     9
  6
Continuous
 62
     7
100
AcDbLine
 10
176.650001
 20
210.953
 30
0.0
 11
97.05
 21
210.953
 31
0.0
  0
LINE
  5
9E
100
AcDbEntity
  8
15
370
    30
  6
Continuous
 62
    96
100
AcDbLine
 10
305.0
 20
265.5
 30
0.0
 11
305.0
 21
57.000007
 31
0.0
  0
LINE
  5
9F
100
AcDbEntity
  8
15
370
    30
  6
Continuous
 62
    96
100
AcDbLine
 10
305.0
 20
53.500007
 30
0.0
 11
305.0
 21
57.000007
 31
0.0
  0
LINE
  5
A0
100
AcDbEntity
  8
15
370
    30
  6
Continuous
 62
    96
100
AcDbLine
 10
395.0
 20
56.99321
 30
0.0
 11
395.0
 21
104.424646
 31
0.0
  0
LINE
  5
A1
100
AcDbEntity
  8
15
370
    30
  6
Continuous
 62
    96
100
AcDbLine
 10
395.0
 20
57.000007
 30
0.0
 11
395.0
 21
104.678469
 31
0.0
  0
INSERT
  5
A9
100
AcDbEntity
  8
0
370
     9
  6
Continuous
 62
     7
100
AcDbBlockReference
  2
*G2
 10
0.0
 20
0.0
 30
0.0
  0
DIMENSION
  5
B5
100
AcDbEntity
  8
1
370
     9
  6
Continuous
 62
     7
100
AcDbDimension
  2
*D3
 10
94.05
 20
221.052001
 30
0.0
 11
136.850001
 21
221.552001
 31
0.0
 71
     5
 72
     1
 41
1.0
 42
0.0
  1
85.6
100
AcDbAlignedDimension
 13
94.05
 23
209.953
 33
0.0
 14
179.650001
 24
209.953
 34
0.0
100
AcDbRotatedDimension
  0
DIMENSION
  5
C1
100
AcDbEntity
  8
1
370
     9
  6
Continuous
 62
     7
100
AcDbDimension
  2
*D4
 10
192.618001
 20
156.953
 30
0.0
 11
192.118001
 21
183.953
 31
0.0
 71
     5
 72
     1
 41
1.0
 42
0.0
  1
54
100
AcDbAlignedDimension
 13
178.650001
 23
156.953
 33
0.0
 14
178.650003
 24
210.953
 34
0.0
 50
90.0
100
AcDbRotatedDimension
  0
LINE
  5
C2
100
AcDbEntity
  8
15
370
     9
  6
Continuous
 62
    96
100
AcDbLine
 10
304.969464
 20
248.348825
 30
0.0
 11
394.969464
 21
248.348825
 31
0.0
  0
LINE
  5
C3
100
AcDbEntity
  8
15
370
     9
  6
Continuous
 62
    96
100
AcDbLine
 10
394.924014
 20
237.348825
 30
0.0
 11
304.924014
 21
237.348825
 31
0.0
  0
LINE
  5
C4
100
AcDbEntity
  8
15
370
     9
  6
Continuous
 62
    96
100
AcDbLine
 10
304.924014
 20
231.848825
 30
0.0
 11
394.924014
 21
231.848825
 31
0.0
  0
LINE
  5
C5
100
AcDbEntity
  8
15
370
     9
  6
Continuous
 62
    96
100
AcDbLine
 10
304.924014
 20
226.348825
 30
0.0
 11
394.924014
 21
226.348825
 31
0.0
  0
LINE
  5
C6
100
AcDbEntity
  8
15
370
     9
  6
Continuous
 62
    96
100
AcDbLine
 10
304.970123
 20
242.621291
 30
0.0
 11
394.970123
 21
242.621291
 31
0.0
  0
LINE
  5
C7
100
AcDbEntity
  8
15
370
     9
  6
Continuous
 62
    96
100
AcDbLine
 10
304.969464
 20
220.848825
 30
0.0
 11
394.969464
 21
220.848825
 31
0.0
  0
LINE
  5
C8
100
AcDbEntity
  8
15
370
     9
  6
Continuous
 62
    96
100
AcDbLine
 10
304.969464
 20
215.348825
 30
0.0
 11
394.969464
 21
215.348825
 31
0.0
  0
LINE
  5
C9
100
AcDbEntity
  8
15
370
     9
  6
Continuous
 62
    96
100
AcDbLine
 10
305.0
 20
209.848825
 30
0.0
 11
395.0
 21
209.848825
 31
0.0
  0
TEXT
  5
CA
100
AcDbEntity
  8
1
370
     9
  6
Continuous
 62
     7
100
AcDbText
 10
129.801906
 20
158.547818
 30
0.0
 40
4.0
  1
XS-Ⅲ Card   X3-1010
 41
0.652784
 11
129.801906
 21
158.547818
 31
0.0
100
AcDbText
 73
     1
  0
TEXT
  5
CB
100
AcDbEntity
  8
1
370
     9
  6
Continuous
 62
     7
100
AcDbText
 10
111.528019
 20
201.412112
 30
0.0
 40
3.5
  1
service
 41
0.494837
 11
111.528019
 21
201.412112
 31
0.0
100
AcDbText
 73
     1
  0
INSERT
  5
D0
100
AcDbEntity
  8
0
370
     9
  6
Continuous
 62
    96
100
AcDbBlockReference
  2
*G5
 10
0.0
 20
0.0
 30
0.0
  0
LINE
  5
D1
100
AcDbEntity
  8
1
370
     9
  6
Continuous
 62
     7
100
AcDbLine
 10
105.257866
 20
208.939239
 30
0.0
 11
98.025607
 21
201.778588
 31
0.0
  0
LINE
  5
D2
100
AcDbEntity
  8
1
370
     9
  6
Continuous
 62
     7
100
AcDbLine
 10
105.257866
 20
201.778588
 30
0.0
 11
105.257866
 21
208.939239
 31
0.0
  0
LINE
  5
D3
100
AcDbEntity
  8
1
370
    30
  6
Continuous
 62
     7
100
AcDbLine
 10
109.267834
 20
204.499635
 30
0.0
 11
109.267834
 21
201.778588
 31
0.0
  0
LINE
  5
D4
100
AcDbEntity
  8
1
370
    30
  6
Continuous
 62
     7
100
AcDbLine
 10
108.336947
 20
204.499635
 30
0.0
 11
109.267834
 21
204.499635
 31
0.0
  0
LINE
  5
D5
100
AcDbEntity
  8
1
370
    30
  6
Continuous
 62
     7
100
AcDbLine
 10
108.336947
 20
205.358912
 30
0.0
 11
108.336947
 21
204.499635
 31
0.0
  0
LINE
  5
D6
100
AcDbEntity
  8
1
370
    30
  6
Continuous
 62
     7
100
AcDbLine
 10
111.201207
 20
205.358912
 30
0.0
 11
108.336947
 21
205.358912
 31
0.0
  0
LINE
  5
D7
100
AcDbEntity
  8
1
370
    30
  6
Continuous
 62
     7
100
AcDbLine
 10
107.406065
 20
202.953982
 30
0.0
 11
108.665414
 21
201.778588
 31
0.0
  0
ARC
  5
D8
100
AcDbEntity
  8
1
370
    30
  6
Continuous
 62
     7
100
AcDbCircle
 10
107.112099
 20
204.141602
 30
0.0
 40
1.224848
100
AcDbArc
 50
-76.055153
 51
83.640296
  0
LINE
  5
D9
100
AcDbEntity
  8
1
370
    30
  6
Continuous
 62
     7
100
AcDbLine
 10
105.544294
 20
205.358912
 30
0.0
 11
107.247776
 21
205.358912
 31
0.0
  0
LINE
  5
DA
100
AcDbEntity
  8
1
370
    30
  6
Continuous
 62
     7
100
AcDbLine
 10
105.544294
 20
205.358912
 30
0.0
 11
105.544294
 21
204.499635
 31
0.0
  0
LINE
  5
DB
100
AcDbEntity
  8
1
370
    30
  6
Continuous
 62
     7
100
AcDbLine
 10
105.544294
 20
204.499635
 30
0.0
 11
106.976425
 21
204.499635
 31
0.0
  0
LINE
  5
DC
100
AcDbEntity
  8
1
370
    30
  6
Continuous
 62
     7
100
AcDbLine
 10
105.257866
 20
203.783569
 30
0.0
 11
106.976425
 21
203.783569
 31
0.0
  0
ARC
  5
DD
100
AcDbEntity
  8
1
370
    30
  6
Continuous
 62
     7
100
AcDbCircle
 10
106.976425
 20
204.141602
 30
0.0
 40
0.358033
100
AcDbArc
 50
-90.0
 51
90.0
  0
LINE
  5
DE
100
AcDbEntity
  8
1
370
    30
  6
Continuous
 62
     7
100
AcDbLine
 10
105.257866
 20
203.783569
 30
0.0
 11
107.406065
 21
201.778588
 31
0.0
  0
LINE
  5
DF
100
AcDbEntity
  8
1
370
    30
  6
Continuous
 62
     7
100
AcDbLine
 10
103.754131
 20
203.282324
 30
0.0
 11
102.178788
 21
203.282324
 31
0.0
  0
LINE
  5
E0
100
AcDbEntity
  8
1
370
    30
  6
Continuous
 62
     7
100
AcDbLine
 10
103.754131
 20
205.233522
 30
0.0
 11
103.754131
 21
203.282324
 31
0.0
  0
LINE
  5
E1
100
AcDbEntity
  8
1
370
    30
  6
Continuous
 62
     7
100
AcDbLine
 10
100.264647
 20
201.778588
 30
0.0
 11
103.754131
 21
205.233522
 31
0.0
  0
LINE
  5
E2
100
AcDbEntity
  8
1
370
    30
  6
Continuous
 62
     7
100
AcDbLine
 10
102.178788
 20
203.282324
 30
0.0
 11
102.178788
 21
201.778588
 31
0.0
  0
LINE
  5
E3
100
AcDbEntity
  8
1
370
    30
  6
Continuous
 62
     7
100
AcDbLine
 10
102.178788
 20
201.778588
 30
0.0
 11
105.257866
 21
201.778588
 31
0.0
  0
LINE
  5
E4
100
AcDbEntity
  8
1
370
    30
  6
Continuous
 62
     7
100
AcDbLine
 10
108.665414
 20
201.778588
 30
0.0
 11
107.406065
 21
201.778588
 31
0.0
  0
LINE
  5
E5
100
AcDbEntity
  8
1
370
    30
  6
Continuous
 62
     7
100
AcDbLine
 10
109.267834
 20
201.778588
 30
0.0
 11
110.270326
 21
201.778588
 31
0.0
  0
LINE
  5
E6
100
AcDbEntity
  8
1
370
    30
  6
Continuous
 62
     7
100
AcDbLine
 10
110.270326
 20
201.778588
 30
0.0
 11
110.270326
 21
204.499635
 31
0.0
  0
LINE
  5
E7
100
AcDbEntity
  8
1
370
    30
  6
Continuous
 62
     7
100
AcDbLine
 10
110.270326
 20
204.499635
 30
0.0
 11
111.201207
 21
204.499635
 31
0.0
  0
LINE
  5
E8
100
AcDbEntity
  8
1
370
    30
  6
Continuous
 62
     7
100
AcDbLine
 10
111.201207
 20
204.499635
 30
0.0
 11
111.201207
 21
205.358912
 31
0.0
  0
LINE
  5
E9
100
AcDbEntity
  8
1
370
    30
  6
Continuous
 62
     7
100
AcDbLine
 10
98.025607
 20
201.778588
 30
0.0
 11
100.264647
 21
201.778588
 31
0.0
  0
TEXT
  5
EA
100
AcDbEntity
  8
1
370
     9
  6
Continuous
 62
     7
100
AcDbText
 10
97.05946
 20
65.80829
 30
0.0
 40
0.8
  1
A8FD
 41
0.694375
 11
97.05946
 21
65.80829
 31
0.0
100
AcDbText
 73
     1
  0
TEXT
  5
EB
100
AcDbEntity
  8
1
370
     9
  6
Continuous
 62
     7
100
AcDbText
 10
97.120668
 20
64.962927
 30
0.0
 40
0.8
  1
02
 41
0.64375
 11
97.120668
 21
64.962927
 31
0.0
100
AcDbText
 73
     1
  0
TEXT
  5
EC
100
AcDbEntity
  8
1
370
     9
  6
Continuous
 62
     7
100
AcDbText
 10
99.251414
 20
64.358205
 30
0.0
 40
2.5
  1
000000
 41
0.6
 11
99.251414
 21
64.358205
 31
0.0
100
AcDbText
 73
     1
  0
LINE
  5
ED
100
AcDbEntity
  8
11
370
     9
  6
Continuous
 62
     7
100
AcDbLine
 10
163.024515
 20
66.472121
 30
0.0
 11
163.024515
 21
65.529756
 31
0.0
  0
LINE
  5
EE
100
AcDbEntity
  8
11
370
     9
  6
Continuous
 62
     7
100
AcDbLine
 10
163.024515
 20
65.529756
 30
0.0
 11
163.42197
 21
65.529756
 31
0.0
  0
LINE
  5
EF
100
AcDbEntity
  8
11
370
     9
  6
Continuous
 62
     7
100
AcDbLine
 10
163.42197
 20
65.529756
 30
0.0
 11
163.42197
 21
66.313139
 31
0.0
  0
LINE
  5
F0
100
AcDbEntity
  8
11
370
     9
  6
Continuous
 62
     7
100
AcDbLine
 10
163.42197
 20
66.313139
 30
0.0
 11
165.01179
 21
66.313139
 31
0.0
  0
LINE
  5
F1
100
AcDbEntity
  8
11
370
     9
  6
Continuous
 62
     7
100
AcDbLine
 10
165.01179
 20
66.313139
 30
0.0
 11
165.01179
 21
65.529756
 31
0.0
  0
LINE
  5
F2
100
AcDbEntity
  8
11
370
     9
  6
Continuous
 62
     7
100
AcDbLine
 10
165.01179
 20
65.529756
 30
0.0
 11
165.409246
 21
65.529756
 31
0.0
  0
LINE
  5
F3
100
AcDbEntity
  8
11
370
     9
  6
Continuous
 62
     7
100
AcDbLine
 10
165.409246
 20
65.529756
 30
0.0
 11
165.409246
 21
66.472121
 31
0.0
  0
LINE
  5
F4
100
AcDbEntity
  8
11
370
     9
  6
Continuous
 62
     7
100
AcDbLine
 10
165.409246
 20
66.472121
 30
0.0
 11
163.024515
 21
66.472121
 31
0.0
  0
LINE
  5
F5
100
AcDbEntity
  8
11
370
     9
  6
Continuous
 62
     7
100
AcDbLine
 10
165.568228
 20
66.472121
 30
0.0
 11
165.568228
 21
65.529756
 31
0.0
  0
LINE
  5
F6
100
AcDbEntity
  8
11
370
     9
  6
Continuous
 62
     7
100
AcDbLine
 10
165.568228
 20
65.529756
 30
0.0
 11
167.952958
 21
65.529756
 31
0.0
  0
LINE
  5
F7
100
AcDbEntity
  8
11
370
     9
  6
Continuous
 62
     7
100
AcDbLine
 10
167.952958
 20
65.529756
 30
0.0
 11
167.952958
 21
65.688738
 31
0.0
  0
LINE
  5
F8
100
AcDbEntity
  8
11
370
     9
  6
Continuous
 62
     7
100
AcDbLine
 10
167.952958
 20
65.688738
 30
0.0
 11
165.965683
 21
65.688738
 31
0.0
  0
LINE
  5
F9
100
AcDbEntity
  8
11
370
     9
  6
Continuous
 62
     7
100
AcDbLine
 10
165.965683
 20
65.688738
 30
0.0
 11
165.965683
 21
65.921447
 31
0.0
  0
LINE
  5
FA
100
AcDbEntity
  8
11
370
     9
  6
Continuous
 62
     7
100
AcDbLine
 10
165.965683
 20
65.921447
 30
0.0
 11
167.952958
 21
65.921447
 31
0.0
  0
LINE
  5
FB
100
AcDbEntity
  8
11
370
     9
  6
Continuous
 62
     7
100
AcDbLine
 10
167.952958
 20
65.921447
 30
0.0
 11
167.952958
 21
66.472121
 31
0.0
  0
LINE
  5
FC
100
AcDbEntity
  8
11
370
     9
  6
Continuous
 62
     7
100
AcDbLine
 10
167.952958
 20
66.472121
 30
0.0
 11
165.568228
 21
66.472121
 31
0.0
  0
LINE
  5
FD
100
AcDbEntity
  8
11
370
     9
  6
Continuous
 62
     7
100
AcDbLine
 10
165.965683
 20
66.313139
 30
0.0
 11
165.965683
 21
66.080429
 31
0.0
  0
LINE
  5
FE
100
AcDbEntity
  8
11
370
     9
  6
Continuous
 62
     7
100
AcDbLine
 10
165.965683
 20
66.080429
 30
0.0
 11
167.555503
 21
66.080429
 31
0.0
  0
LINE
  5
FF
100
AcDbEntity
  8
11
370
     9
  6
Continuous
 62
     7
100
AcDbLine
 10
167.555503
 20
66.080429
 30
0.0
 11
167.555503
 21
66.313139
 31
0.0
  0
LINE
  5
100
100
AcDbEntity
  8
11
370
     9
  6
Continuous
 62
     7
100
AcDbLine
 10
167.555503
 20
66.313139
 30
0.0
 11
165.965683
 21
66.313139
 31
0.0
  0
LINE
  5
101
100
AcDbEntity
  8
11
370
     9
  6
Continuous
 62
     7
100
AcDbLine
 10
168.11194
 20
66.472121
 30
0.0
 11
168.11194
 21
65.529756
 31
0.0
  0
LINE
  5
102
100
AcDbEntity
  8
11
370
     9
  6
Continuous
 62
     7
100
AcDbLine
 10
168.11194
 20
65.529756
 30
0.0
 11
170.49667
 21
65.529756
 31
0.0
  0
LINE
  5
103
100
AcDbEntity
  8
11
370
     9
  6
Continuous
 62
     7
100
AcDbLine
 10
170.49667
 20
65.529756
 30
0.0
 11
170.49667
 21
66.868303
 31
0.0
  0
LINE
  5
104
100
AcDbEntity
  8
11
370
     9
  6
Continuous
 62
     7
100
AcDbLine
 10
170.49667
 20
66.868303
 30
0.0
 11
170.099215
 21
66.868303
 31
0.0
  0
LINE
  5
105
100
AcDbEntity
  8
11
370
     9
  6
Continuous
 62
     7
100
AcDbLine
 10
170.099215
 20
66.868303
 30
0.0
 11
170.099215
 21
66.472121
 31
0.0
  0
LINE
  5
106
100
AcDbEntity
  8
11
370
     9
  6
Continuous
 62
     7
100
AcDbLine
 10
170.099215
 20
66.472121
 30
0.0
 11
168.11194
 21
66.472121
 31
0.0
  0
LINE
  5
107
100
AcDbEntity
  8
11
370
     9
  6
Continuous
 62
     7
100
AcDbLine
 10
168.509395
 20
66.313139
 30
0.0
 11
168.509395
 21
65.688738
 31
0.0
  0
LINE
  5
108
100
AcDbEntity
  8
11
370
     9
  6
Continuous
 62
     7
100
AcDbLine
 10
168.509395
 20
65.688738
 30
0.0
 11
170.099215
 21
65.688738
 31
0.0
  0
LINE
  5
109
100
AcDbEntity
  8
11
370
     9
  6
Continuous
 62
     7
100
AcDbLine
 10
170.099215
 20
65.688738
 30
0.0
 11
170.099215
 21
66.313139
 31
0.0
  0
LINE
  5
10A
100
AcDbEntity
  8
11
370
     9
  6
Continuous
 62
     7
100
AcDbLine
 10
170.099215
 20
66.313139
 30
0.0
 11
168.509395
 21
66.313139
 31
0.0
  0
LINE
  5
10B
100
AcDbEntity
  8
11
370
     9
  6
Continuous
 62
     7
100
AcDbLine
 10
170.655652
 20
66.472121
 30
0.0
 11
170.655652
 21
66.313139
 31
0.0
  0
LINE
  5
10C
100
AcDbEntity
  8
11
370
     9
  6
Continuous
 62
     7
100
AcDbLine
 10
170.655652
 20
66.313139
 30
0.0
 11
172.642927
 21
66.313139
 31
0.0
  0
LINE
  5
10D
100
AcDbEntity
  8
11
370
     9
  6
Continuous
 62
     7
100
AcDbLine
 10
172.642927
 20
66.313139
 30
0.0
 11
172.642927
 21
66.080429
 31
0.0
  0
LINE
  5
10E
100
AcDbEntity
  8
11
370
     9
  6
Continuous
 62
     7
100
AcDbLine
 10
172.642927
 20
66.080429
 30
0.0
 11
170.655652
 21
66.080429
 31
0.0
  0
LINE
  5
10F
100
AcDbEntity
  8
11
370
     9
  6
Continuous
 62
     7
100
AcDbLine
 10
170.655652
 20
66.080429
 30
0.0
 11
170.655652
 21
65.529756
 31
0.0
  0
LINE
  5
110
100
AcDbEntity
  8
11
370
     9
  6
Continuous
 62
     7
100
AcDbLine
 10
170.655652
 20
65.529756
 30
0.0
 11
173.040382
 21
65.529756
 31
0.0
  0
LINE
  5
111
100
AcDbEntity
  8
11
370
     9
  6
Continuous
 62
     7
100
AcDbLine
 10
173.040382
 20
65.529756
 30
0.0
 11
173.040382
 21
66.472121
 31
0.0
  0
LINE
  5
112
100
AcDbEntity
  8
11
370
     9
  6
Continuous
 62
     7
100
AcDbLine
 10
173.040382
 20
66.472121
 30
0.0
 11
170.655652
 21
66.472121
 31
0.0
  0
LINE
  5
113
100
AcDbEntity
  8
11
370
     9
  6
Continuous
 62
     7
100
AcDbLine
 10
171.053107
 20
65.921447
 30
0.0
 11
171.053107
 21
65.688738
 31
0.0
  0
LINE
  5
114
100
AcDbEntity
  8
11
370
     9
  6
Continuous
 62
     7
100
AcDbLine
 10
171.053107
 20
65.688738
 30
0.0
 11
172.642927
 21
65.688738
 31
0.0
  0
LINE
  5
115
100
AcDbEntity
  8
11
370
     9
  6
Continuous
 62
     7
100
AcDbLine
 10
172.642927
 20
65.688738
 30
0.0
 11
172.642927
 21
65.921447
 31
0.0
  0
LINE
  5
116
100
AcDbEntity
  8
11
370
     9
  6
Continuous
 62
     7
100
AcDbLine
 10
172.642927
 20
65.921447
 30
0.0
 11
171.053107
 21
65.921447
 31
0.0
  0
LINE
  5
117
100
AcDbEntity
  8
11
370
     9
  6
Continuous
 62
     7
100
AcDbLine
 10
173.199364
 20
66.472121
 30
0.0
 11
173.199364
 21
65.133573
 31
0.0
  0
LINE
  5
118
100
AcDbEntity
  8
11
370
     9
  6
Continuous
 62
     7
100
AcDbLine
 10
173.199364
 20
65.133573
 30
0.0
 11
173.59682
 21
65.133573
 31
0.0
  0
LINE
  5
119
100
AcDbEntity
  8
11
370
     9
  6
Continuous
 62
     7
100
AcDbLine
 10
173.59682
 20
65.133573
 30
0.0
 11
173.59682
 21
65.529756
 31
0.0
  0
LINE
  5
11A
100
AcDbEntity
  8
11
370
     9
  6
Continuous
 62
     7
100
AcDbLine
 10
173.59682
 20
65.529756
 30
0.0
 11
175.584095
 21
65.529756
 31
0.0
  0
LINE
  5
11B
100
AcDbEntity
  8
11
370
     9
  6
Continuous
 62
     7
100
AcDbLine
 10
175.584095
 20
65.529756
 30
0.0
 11
175.584095
 21
66.472121
 31
0.0
  0
LINE
  5
11C
100
AcDbEntity
  8
11
370
     9
  6
Continuous
 62
     7
100
AcDbLine
 10
175.584095
 20
66.472121
 30
0.0
 11
173.199364
 21
66.472121
 31
0.0
  0
LINE
  5
11D
100
AcDbEntity
  8
11
370
     9
  6
Continuous
 62
     7
100
AcDbLine
 10
173.59682
 20
66.313139
 30
0.0
 11
173.59682
 21
65.688738
 31
0.0
  0
LINE
  5
11E
100
AcDbEntity
  8
11
370
     9
  6
Continuous
 62
     7
100
AcDbLine
 10
173.59682
 20
65.688738
 30
0.0
 11
175.18664
 21
65.688738
 31
0.0
  0
LINE
  5
11F
100
AcDbEntity
  8
11
370
     9
  6
Continuous
 62
     7
100
AcDbLine
 10
175.18664
 20
65.688738
 30
0.0
 11
175.18664
 21
66.313139
 31
0.0
  0
LINE
  5
120
100
AcDbEntity
  8
11
370
     9
  6
Continuous
 62
     7
100
AcDbLine
 10
175.18664
 20
66.313139
 30
0.0
 11
173.59682
 21
66.313139
 31
0.0
  0
TEXT
  5
121
100
AcDbEntity
  8
15
370
     9
  6
Continuous
 62
    96
100
AcDbText
 10
352.0
 20
261.25
 30
0.0
 40
3.0
  1
３００２０１８
 41
0.833333
 11
352.0
 21
261.25
 31
0.0
100
AcDbText
 73
     1
  0
LINE
  5
122
100
AcDbEntity
  8
1
370
     9
  6
Continuous
 62
     7
100
AcDbLine
 10
101.398974
 20
64.315781
 30
0.0
 11
103.077837
 21
62.600724
 31
0.0
  0
LINE
  5
123
100
AcDbEntity
  8
1
370
     9
  6
Continuous
 62
     7
100
AcDbLine
 10
101.398974
 20
64.315781
 30
0.0
 11
101.995384
 21
61.991067
 31
0.0
  0
POLYLINE
  5
124
100
AcDbEntity
  8
1
370
     9
  6
Continuous
 62
     7
100
AcDb2dPolyline
 66
     1
 10
0.0
 20
0.0
 30
0.0
  0
VERTEX
  5
125
100
AcDbEntity
  8
1
370
     9
  6
Continuous
 62
     7
100
AcDbVertex
100
AcDb2dVertex
 10
101.398974
 20
64.315781
 30
0.0
  0
VERTEX
  5
126
100
AcDbEntity
  8
1
370
     9
  6
Continuous
 62
     7
100
AcDbVertex
100
AcDb2dVertex
 10
109.335171
 20
50.224983
 30
0.0
  0
VERTEX
  5
127
100
AcDbEntity
  8
1
370
     9
  6
Continuous
 62
     7
100
AcDbVertex
100
AcDb2dVertex
 10
128.335171
 20
50.224983
 30
0.0
  0
SEQEND
  5
128
100
AcDbEntity
  8
1
370
     9
  6
Continuous
 62
     7
  0
TEXT
  5
129
100
AcDbEntity
  8
1
370
     9
  6
Continuous
 62
     7
100
AcDbText
 10
109.335171
 20
50.724983
 30
0.0
 40
3.0
  1
バッジコード
 41
0.87963
 11
109.335171
 21
50.724983
 31
0.0
100
AcDbText
 73
     1
  0
TEXT
  5
12A
100
AcDbEntity
  8
15
370
     9
  6
PHANTOM
 62
    96
100
AcDbText
 10
313.216502
 20
243.928416
 30
0.0
 40
3.0
  1
規　格
 41
0.833333
 11
313.216502
 21
243.928416
 31
0.0
100
AcDbText
 73
     1
  0
LINE
  5
12B
100
AcDbEntity
  8
15
370
     9
  6
Continuous
 62
    96
100
AcDbLine
 10
305.038792
 20
204.345986
 30
0.0
 11
395.038792
 21
204.345986
 31
0.0
  0
TEXT
  5
12C
100
AcDbEntity
  8
15
370
     9
  6
Continuous
 62
    96
100
AcDbText
 10
313.295575
 20
249.857319
 30
0.0
 40
3.0
  1
材　質
 41
0.87037
 11
313.295575
 21
249.857319
 31
0.0
100
AcDbText
 73
     1
  0
TEXT
  5
12D
100
AcDbEntity
  8
15
370
     9
  6
PHANTOM
 62
    96
100
AcDbText
 10
311.782805
 20
238.238644
 30
0.0
 40
3.0
  1
記憶方式
 41
0.833333
 11
311.782805
 21
238.238644
 31
0.0
100
AcDbText
 73
     1
  0
TEXT
  5
12E
100
AcDbEntity
  8
15
370
     9
  6
PHANTOM
 62
    96
100
AcDbText
 10
307.282805
 20
232.738644
 30
0.0
 40
3.0
  1
キャリア周波数
 41
0.833333
 11
307.282805
 21
232.738644
 31
0.0
100
AcDbText
 73
     1
  0
TEXT
  5
12F
100
AcDbEntity
  8
15
370
     9
  6
PHANTOM
 62
    96
100
AcDbText
 10
311.782805
 20
227.238644
 30
0.0
 40
3.0
  1
変調方式
 41
0.833333
 11
311.782805
 21
227.238644
 31
0.0
100
AcDbText
 73
     1
  0
TEXT
  5
130
100
AcDbEntity
  8
15
370
     9
  6
PHANTOM
 62
    96
100
AcDbText
 10
311.782805
 20
221.738644
 30
0.0
 40
3.0
  1
通信速度
 41
0.833333
 11
311.782805
 21
221.738644
 31
0.0
100
AcDbText
 73
     1
  0
TEXT
  5
131
100
AcDbEntity
  8
15
370
     9
  6
Continuous
 62
    96
100
AcDbText
 10
306.888303
 20
216.050991
 30
0.0
 40
3.0
  1
カード感知距離
 41
0.880952
 11
306.888303
 21
216.050991
 31
0.0
100
AcDbText
 73
     1
  0
TEXT
  5
132
100
AcDbEntity
  8
15
370
     9
  6
Continuous
 62
    96
100
AcDbText
 10
307.936035
 20
210.528309
 30
0.0
 40
3.0
  1
カードチップ
 41
0.87963
 11
307.936035
 21
210.528309
 31
0.0
100
AcDbText
 73
     1
  0
TEXT
  5
133
100
AcDbEntity
  8
15
370
     9
  6
Continuous
 62
    96
100
AcDbText
 10
353.222031
 20
210.712398
 30
0.0
 40
3.0
  1
ネダップ社製
 41
0.87963
 11
353.222031
 21
210.712398
 31
0.0
100
AcDbText
 73
     1
  0
TEXT
  5
134
100
AcDbEntity
  8
15
370
     9
  6
PHANTOM
 62
    96
100
AcDbText
 10
313.223093
 20
205.456225
 30
0.0
 40
3.0
  1
寿　命
 41
0.833333
 11
313.223093
 21
205.456225
 31
0.0
100
AcDbText
 73
     1
  0
TEXT
  5
135
100
AcDbEntity
  8
15
370
     9
  6
PHANTOM
 62
    96
100
AcDbText
 10
356.723093
 20
205.456225
 30
0.0
 40
3.0
  1
半永久的
 41
0.833333
 11
356.723093
 21
205.456225
 31
0.0
100
AcDbText
 73
     1
  0
LINE
  5
136
100
AcDbEntity
  8
15
370
    30
  6
Continuous
 62
    96
100
AcDbLine
 10
305.000011
 20
204.345986
 30
0.0
 11
395.000011
 21
204.345986
 31
0.0
  0
LINE
  5
137
100
AcDbEntity
  8
15
370
     9
  6
Continuous
 62
    96
100
AcDbLine
 10
330.0
 20
254.5
 30
0.0
 11
329.989778
 21
204.345986
 31
0.0
  0
TEXT
  5
138
100
AcDbEntity
  8
15
370
     9
  6
Continuous
 62
    96
100
AcDbText
 10
360.325397
 20
249.85132
 30
0.0
 40
3.0
  1
PVC
 41
0.544444
 11
360.325397
 21
249.85132
 31
0.0
100
AcDbText
 73
     1
  0
TEXT
  5
139
100
AcDbEntity
  8
15
370
     9
  6
PHANTOM
 62
    96
100
AcDbText
 10
354.466502
 20
243.928416
 30
0.0
 40
3.0
  1
ISO7810準拠
 41
0.585106
 11
354.466502
 21
243.928416
 31
0.0
100
AcDbText
 73
     1
  0
TEXT
  5
13A
100
AcDbEntity
  8
15
370
     9
  6
PHANTOM
 62
    96
100
AcDbText
 10
358.282805
 20
238.238644
 30
0.0
 40
3.0
  1
EEPROM
 41
0.5
 11
358.282805
 21
238.238644
 31
0.0
100
AcDbText
 73
     1
  0
TEXT
  5
13B
100
AcDbEntity
  8
15
370
     9
  6
PHANTOM
 62
    96
100
AcDbText
 10
358.282805
 20
232.738644
 30
0.0
 40
3.0
  1
120KHz
 41
0.5
 11
358.282805
 21
232.738644
 31
0.0
100
AcDbText
 73
     1
  0
TEXT
  5
13C
100
AcDbEntity
  8
15
370
     9
  6
PHANTOM
 62
    96
100
AcDbText
 10
356.782805
 20
227.238644
 30
0.0
 40
3.0
  1
ASK100％
 41
0.555556
 11
356.782805
 21
227.238644
 31
0.0
100
AcDbText
 73
     1
  0
TEXT
  5
13D
100
AcDbEntity
  8
15
370
     9
  6
PHANTOM
 62
    96
100
AcDbText
 10
358.282805
 20
221.738644
 30
0.0
 40
3.0
  1
２kbps
 41
0.576923
 11
358.282805
 21
221.738644
 31
0.0
100
AcDbText
 73
     1
  0
TEXT
  5
13E
100
AcDbEntity
  8
15
370
     9
  6
Continuous
 62
    96
100
AcDbText
 10
354.906121
 20
216.235081
 30
0.0
 40
3.0
  1
約30cm　※
 41
0.701754
 11
354.906121
 21
216.235081
 31
0.0
100
AcDbText
 73
     1
  0
LINE
  5
13F
100
AcDbEntity
  8
10
370
     9
  6
Continuous
 62
     7
100
AcDbLine
 10
178.650001
 20
194.902454
 30
0.0
 11
178.650001
 21
188.402454
 31
0.0
  0
LINE
  5
140
100
AcDbEntity
  8
10
370
     9
  6
Continuous
 62
     7
100
AcDbLine
 10
178.650001
 20
180.902454
 30
0.0
 11
178.650001
 21
187.402454
 31
0.0
  0
LINE
  5
141
100
AcDbEntity
  8
10
370
     9
  6
Continuous
 62
     7
100
AcDbLine
 10
178.650001
 20
179.902454
 30
0.0
 11
178.650001
 21
173.402454
 31
0.0
  0
LINE
  5
142
100
AcDbEntity
  8
10
370
     9
  6
Continuous
 62
     7
100
AcDbLine
 10
95.05
 20
178.178528
 30
0.0
 11
95.05
 21
176.978528
 31
0.0
  0
LINE
  5
143
100
AcDbEntity
  8
10
370
     9
  6
Continuous
 62
     7
100
AcDbLine
 10
95.05
 20
180.378528
 30
0.0
 11
95.05
 21
179.178528
 31
0.0
  0
LINE
  5
144
100
AcDbEntity
  8
10
370
     9
  6
Continuous
 62
     7
100
AcDbLine
 10
95.05
 20
182.578528
 30
0.0
 11
95.05
 21
181.378528
 31
0.0
  0
POLYLINE
  5
145
100
AcDbEntity
  8
10
370
     9
  6
Continuous
 62
     7
100
AcDb2dPolyline
 66
     1
 10
0.0
 20
0.0
 30
0.0
  0
VERTEX
  5
146
100
AcDbEntity
  8
10
370
     9
  6
Continuous
 62
     7
100
AcDbVertex
100
AcDb2dVertex
 10
95.05
 20
176.978528
 30
0.0
  0
VERTEX
  5
147
100
AcDbEntity
  8
10
370
     9
  6
Continuous
 62
     7
100
AcDbVertex
100
AcDb2dVertex
 10
99.996531
 20
178.439917
 30
0.0
  0
VERTEX
  5
148
100
AcDbEntity
  8
10
370
     9
  6
Continuous
 62
     7
100
AcDbVertex
100
AcDb2dVertex
 10
104.829657
 20
179.679381
 30
0.0
  0
VERTEX
  5
149
100
AcDbEntity
  8
10
370
     9
  6
Continuous
 62
     7
100
AcDbVertex
100
AcDb2dVertex
 10
109.545571
 20
180.709016
 30
0.0
  0
VERTEX
  5
14A
100
AcDbEntity
  8
10
370
     9
  6
Continuous
 62
     7
100
AcDbVertex
100
AcDb2dVertex
 10
114.140461
 20
181.540921
 30
0.0
  0
VERTEX
  5
14B
100
AcDbEntity
  8
10
370
     9
  6
Continuous
 62
     7
100
AcDbVertex
100
AcDb2dVertex
 10
118.61052
 20
182.187196
 30
0.0
  0
VERTEX
  5
14C
100
AcDbEntity
  8
10
370
     9
  6
Continuous
 62
     7
100
AcDbVertex
100
AcDb2dVertex
 10
122.951939
 20
182.659938
 30
0.0
  0
VERTEX
  5
14D
100
AcDbEntity
  8
10
370
     9
  6
Continuous
 62
     7
100
AcDbVertex
100
AcDb2dVertex
 10
127.160907
 20
182.971247
 30
0.0
  0
VERTEX
  5
14E
100
AcDbEntity
  8
10
370
     9
  6
Continuous
 62
     7
100
AcDbVertex
100
AcDb2dVertex
 10
131.233617
 20
183.133221
 30
0.0
  0
VERTEX
  5
14F
100
AcDbEntity
  8
10
370
     9
  6
Continuous
 62
     7
100
AcDbVertex
100
AcDb2dVertex
 10
135.166258
 20
183.157958
 30
0.0
  0
VERTEX
  5
150
100
AcDbEntity
  8
10
370
     9
  6
Continuous
 62
     7
100
AcDbVertex
100
AcDb2dVertex
 10
138.955022
 20
183.057558
 30
0.0
  0
VERTEX
  5
151
100
AcDbEntity
  8
10
370
     9
  6
Continuous
 62
     7
100
AcDbVertex
100
AcDb2dVertex
 10
142.596099
 20
182.844118
 30
0.0
  0
VERTEX
  5
152
100
AcDbEntity
  8
10
370
     9
  6
Continuous
 62
     7
100
AcDbVertex
100
AcDb2dVertex
 10
146.085681
 20
182.529737
 30
0.0
  0
VERTEX
  5
153
100
AcDbEntity
  8
10
370
     9
  6
Continuous
 62
     7
100
AcDbVertex
100
AcDb2dVertex
 10
149.419959
 20
182.126515
 30
0.0
  0
VERTEX
  5
154
100
AcDbEntity
  8
10
370
     9
  6
Continuous
 62
     7
100
AcDbVertex
100
AcDb2dVertex
 10
152.595122
 20
181.646549
 30
0.0
  0
VERTEX
  5
155
100
AcDbEntity
  8
10
370
     9
  6
Continuous
 62
     7
100
AcDbVertex
100
AcDb2dVertex
 10
155.607362
 20
181.101939
 30
0.0
  0
VERTEX
  5
156
100
AcDbEntity
  8
10
370
     9
  6
Continuous
 62
     7
100
AcDbVertex
100
AcDb2dVertex
 10
158.452871
 20
180.504782
 30
0.0
  0
VERTEX
  5
157
100
AcDbEntity
  8
10
370
     9
  6
Continuous
 62
     7
100
AcDbVertex
100
AcDb2dVertex
 10
161.127838
 20
179.867177
 30
0.0
  0
VERTEX
  5
158
100
AcDbEntity
  8
10
370
     9
  6
Continuous
 62
     7
100
AcDbVertex
100
AcDb2dVertex
 10
163.628455
 20
179.201224
 30
0.0
  0
VERTEX
  5
159
100
AcDbEntity
  8
10
370
     9
  6
Continuous
 62
     7
100
AcDbVertex
100
AcDb2dVertex
 10
165.950912
 20
178.51902
 30
0.0
  0
VERTEX
  5
15A
100
AcDbEntity
  8
10
370
     9
  6
Continuous
 62
     7
100
AcDbVertex
100
AcDb2dVertex
 10
168.091401
 20
177.832664
 30
0.0
  0
VERTEX
  5
15B
100
AcDbEntity
  8
10
370
     9
  6
Continuous
 62
     7
100
AcDbVertex
100
AcDb2dVertex
 10
170.046111
 20
177.154256
 30
0.0
  0
VERTEX
  5
15C
100
AcDbEntity
  8
10
370
     9
  6
Continuous
 62
     7
100
AcDbVertex
100
AcDb2dVertex
 10
171.811235
 20
176.495892
 30
0.0
  0
VERTEX
  5
15D
100
AcDbEntity
  8
10
370
     9
  6
Continuous
 62
     7
100
AcDbVertex
100
AcDb2dVertex
 10
173.382963
 20
175.869673
 30
0.0
  0
VERTEX
  5
15E
100
AcDbEntity
  8
10
370
     9
  6
Continuous
 62
     7
100
AcDbVertex
100
AcDb2dVertex
 10
174.757486
 20
175.287696
 30
0.0
  0
VERTEX
  5
15F
100
AcDbEntity
  8
10
370
     9
  6
Continuous
 62
     7
100
AcDbVertex
100
AcDb2dVertex
 10
175.930994
 20
174.762061
 30
0.0
  0
VERTEX
  5
160
100
AcDbEntity
  8
10
370
     9
  6
Continuous
 62
     7
100
AcDbVertex
100
AcDb2dVertex
 10
176.899679
 20
174.304865
 30
0.0
  0
VERTEX
  5
161
100
AcDbEntity
  8
10
370
     9
  6
Continuous
 62
     7
100
AcDbVertex
100
AcDb2dVertex
 10
177.659731
 20
173.928208
 30
0.0
  0
VERTEX
  5
162
100
AcDbEntity
  8
10
370
     9
  6
Continuous
 62
     7
100
AcDbVertex
100
AcDb2dVertex
 10
178.207342
 20
173.644188
 30
0.0
  0
VERTEX
  5
163
100
AcDbEntity
  8
10
370
     9
  6
Continuous
 62
     7
100
AcDbVertex
100
AcDb2dVertex
 10
178.538701
 20
173.464904
 30
0.0
  0
VERTEX
  5
164
100
AcDbEntity
  8
10
370
     9
  6
Continuous
 62
     7
100
AcDbVertex
100
AcDb2dVertex
 10
178.650001
 20
173.402454
 30
0.0
  0
SEQEND
  5
165
100
AcDbEntity
  8
10
370
     9
  6
Continuous
 62
     7
  0
POLYLINE
  5
166
100
AcDbEntity
  8
10
370
     9
  6
Continuous
 62
     7
100
AcDb2dPolyline
 66
     1
 10
0.0
 20
0.0
 30
0.0
  0
VERTEX
  5
167
100
AcDbEntity
  8
10
370
     9
  6
Continuous
 62
     7
100
AcDbVertex
100
AcDb2dVertex
 10
95.05
 20
178.178528
 30
0.0
  0
VERTEX
  5
168
100
AcDbEntity
  8
10
370
     9
  6
Continuous
 62
     7
100
AcDbVertex
100
AcDb2dVertex
 10
99.975213
 20
180.061913
 30
0.0
  0
VERTEX
  5
169
100
AcDbEntity
  8
10
370
     9
  6
Continuous
 62
     7
100
AcDbVertex
100
AcDb2dVertex
 10
104.789912
 20
181.701488
 30
0.0
  0
VERTEX
  5
16A
100
AcDbEntity
  8
10
370
     9
  6
Continuous
 62
     7
100
AcDbVertex
100
AcDb2dVertex
 10
109.490135
 20
183.109883
 30
0.0
  0
VERTEX
  5
16B
100
AcDbEntity
  8
10
370
     9
  6
Continuous
 62
     7
100
AcDbVertex
100
AcDb2dVertex
 10
114.071921
 20
184.29973
 30
0.0
  0
VERTEX
  5
16C
100
AcDbEntity
  8
10
370
     9
  6
Continuous
 62
     7
100
AcDbVertex
100
AcDb2dVertex
 10
118.531308
 20
185.283657
 30
0.0
  0
VERTEX
  5
16D
100
AcDbEntity
  8
10
370
     9
  6
Continuous
 62
     7
100
AcDbVertex
100
AcDb2dVertex
 10
122.864337
 20
186.074297
 30
0.0
  0
VERTEX
  5
16E
100
AcDbEntity
  8
10
370
     9
  6
Continuous
 62
     7
100
AcDbVertex
100
AcDb2dVertex
 10
127.067044
 20
186.684279
 30
0.0
  0
VERTEX
  5
16F
100
AcDbEntity
  8
10
370
     9
  6
Continuous
 62
     7
100
AcDbVertex
100
AcDb2dVertex
 10
131.13547
 20
187.126234
 30
0.0
  0
VERTEX
  5
170
100
AcDbEntity
  8
10
370
     9
  6
Continuous
 62
     7
100
AcDbVertex
100
AcDb2dVertex
 10
135.065652
 20
187.412792
 30
0.0
  0
VERTEX
  5
171
100
AcDbEntity
  8
10
370
     9
  6
Continuous
 62
     7
100
AcDbVertex
100
AcDb2dVertex
 10
138.85363
 20
187.556584
 30
0.0
  0
VERTEX
  5
172
100
AcDbEntity
  8
10
370
     9
  6
Continuous
 62
     7
100
AcDbVertex
100
AcDb2dVertex
 10
142.495443
 20
187.57024
 30
0.0
  0
VERTEX
  5
173
100
AcDbEntity
  8
10
370
     9
  6
Continuous
 62
     7
100
AcDbVertex
100
AcDb2dVertex
 10
145.987129
 20
187.466391
 30
0.0
  0
VERTEX
  5
174
100
AcDbEntity
  8
10
370
     9
  6
Continuous
 62
     7
100
AcDbVertex
100
AcDb2dVertex
 10
149.324727
 20
187.257667
 30
0.0
  0
VERTEX
  5
175
100
AcDbEntity
  8
10
370
     9
  6
Continuous
 62
     7
100
AcDbVertex
100
AcDb2dVertex
 10
152.504275
 20
186.956699
 30
0.0
  0
VERTEX
  5
176
100
AcDbEntity
  8
10
370
     9
  6
Continuous
 62
     7
100
AcDbVertex
100
AcDb2dVertex
 10
155.521814
 20
186.576117
 30
0.0
  0
VERTEX
  5
177
100
AcDbEntity
  8
10
370
     9
  6
Continuous
 62
     7
100
AcDbVertex
100
AcDb2dVertex
 10
158.37338
 20
186.128551
 30
0.0
  0
VERTEX
  5
178
100
AcDbEntity
  8
10
370
     9
  6
Continuous
 62
     7
100
AcDbVertex
100
AcDb2dVertex
 10
161.055014
 20
185.626633
 30
0.0
  0
VERTEX
  5
179
100
AcDbEntity
  8
10
370
     9
  6
Continuous
 62
     7
100
AcDbVertex
100
AcDb2dVertex
 10
163.562753
 20
185.082993
 30
0.0
  0
VERTEX
  5
17A
100
AcDbEntity
  8
10
370
     9
  6
Continuous
 62
     7
100
AcDbVertex
100
AcDb2dVertex
 10
165.892637
 20
184.51026
 30
0.0
  0
VERTEX
  5
17B
100
AcDbEntity
  8
10
370
     9
  6
Continuous
 62
     7
100
AcDbVertex
100
AcDb2dVertex
 10
168.040705
 20
183.921066
 30
0.0
  0
VERTEX
  5
17C
100
AcDbEntity
  8
10
370
     9
  6
Continuous
 62
     7
100
AcDbVertex
100
AcDb2dVertex
 10
170.002995
 20
183.328041
 30
0.0
  0
VERTEX
  5
17D
100
AcDbEntity
  8
10
370
     9
  6
Continuous
 62
     7
100
AcDbVertex
100
AcDb2dVertex
 10
171.775545
 20
182.743816
 30
0.0
  0
VERTEX
  5
17E
100
AcDbEntity
  8
10
370
     9
  6
Continuous
 62
     7
100
AcDbVertex
100
AcDb2dVertex
 10
173.354396
 20
182.181021
 30
0.0
  0
VERTEX
  5
17F
100
AcDbEntity
  8
10
370
     9
  6
Continuous
 62
     7
100
AcDbVertex
100
AcDb2dVertex
 10
174.735585
 20
181.652286
 30
0.0
  0
VERTEX
  5
180
100
AcDbEntity
  8
10
370
     9
  6
Continuous
 62
     7
100
AcDbVertex
100
AcDb2dVertex
 10
175.915152
 20
181.170242
 30
0.0
  0
VERTEX
  5
181
100
AcDbEntity
  8
10
370
     9
  6
Continuous
 62
     7
100
AcDbVertex
100
AcDb2dVertex
 10
176.889134
 20
180.74752
 30
0.0
  0
VERTEX
  5
182
100
AcDbEntity
  8
10
370
     9
  6
Continuous
 62
     7
100
AcDbVertex
100
AcDb2dVertex
 10
177.653572
 20
180.396749
 30
0.0
  0
VERTEX
  5
183
100
AcDbEntity
  8
10
370
     9
  6
Continuous
 62
     7
100
AcDbVertex
100
AcDb2dVertex
 10
178.204503
 20
180.130561
 30
0.0
  0
VERTEX
  5
184
100
AcDbEntity
  8
10
370
     9
  6
Continuous
 62
     7
100
AcDbVertex
100
AcDb2dVertex
 10
178.537966
 20
179.961586
 30
0.0
  0
VERTEX
  5
185
100
AcDbEntity
  8
10
370
     9
  6
Continuous
 62
     7
100
AcDbVertex
100
AcDb2dVertex
 10
178.650001
 20
179.902454
 30
0.0
  0
SEQEND
  5
186
100
AcDbEntity
  8
10
370
     9
  6
Continuous
 62
     7
  0
POLYLINE
  5
187
100
AcDbEntity
  8
10
370
     9
  6
Continuous
 62
     7
100
AcDb2dPolyline
 66
     1
 10
0.0
 20
0.0
 30
0.0
  0
VERTEX
  5
188
100
AcDbEntity
  8
10
370
     9
  6
Continuous
 62
     7
100
AcDbVertex
100
AcDb2dVertex
 10
95.05
 20
179.178528
 30
0.0
  0
VERTEX
  5
189
100
AcDbEntity
  8
10
370
     9
  6
Continuous
 62
     7
100
AcDbVertex
100
AcDb2dVertex
 10
99.973093
 20
181.041374
 30
0.0
  0
VERTEX
  5
18A
100
AcDbEntity
  8
10
370
     9
  6
Continuous
 62
     7
100
AcDbVertex
100
AcDb2dVertex
 10
104.785958
 20
182.663194
 30
0.0
  0
VERTEX
  5
18B
100
AcDbEntity
  8
10
370
     9
  6
Continuous
 62
     7
100
AcDbVertex
100
AcDb2dVertex
 10
109.48462
 20
184.056473
 30
0.0
  0
VERTEX
  5
18C
100
AcDbEntity
  8
10
370
     9
  6
Continuous
 62
     7
100
AcDbVertex
100
AcDb2dVertex
 10
114.065102
 20
185.233693
 30
0.0
  0
VERTEX
  5
18D
100
AcDbEntity
  8
10
370
     9
  6
Continuous
 62
     7
100
AcDbVertex
100
AcDb2dVertex
 10
118.523428
 20
186.207339
 30
0.0
  0
VERTEX
  5
18E
100
AcDbEntity
  8
10
370
     9
  6
Continuous
 62
     7
100
AcDbVertex
100
AcDb2dVertex
 10
122.855622
 20
186.989895
 30
0.0
  0
VERTEX
  5
18F
100
AcDbEntity
  8
10
370
     9
  6
Continuous
 62
     7
100
AcDbVertex
100
AcDb2dVertex
 10
127.057707
 20
187.593845
 30
0.0
  0
VERTEX
  5
190
100
AcDbEntity
  8
10
370
     9
  6
Continuous
 62
     7
100
AcDbVertex
100
AcDb2dVertex
 10
131.125706
 20
188.031672
 30
0.0
  0
VERTEX
  5
191
100
AcDbEntity
  8
10
370
     9
  6
Continuous
 62
     7
100
AcDbVertex
100
AcDb2dVertex
 10
135.055644
 20
188.315861
 30
0.0
  0
VERTEX
  5
192
100
AcDbEntity
  8
10
370
     9
  6
Continuous
 62
     7
100
AcDbVertex
100
AcDb2dVertex
 10
138.843544
 20
188.458896
 30
0.0
  0
VERTEX
  5
193
100
AcDbEntity
  8
10
370
     9
  6
Continuous
 62
     7
100
AcDbVertex
100
AcDb2dVertex
 10
142.48543
 20
188.473261
 30
0.0
  0
VERTEX
  5
194
100
AcDbEntity
  8
10
370
     9
  6
Continuous
 62
     7
100
AcDbVertex
100
AcDb2dVertex
 10
145.977325
 20
188.371439
 30
0.0
  0
VERTEX
  5
195
100
AcDbEntity
  8
10
370
     9
  6
Continuous
 62
     7
100
AcDbVertex
100
AcDb2dVertex
 10
149.315253
 20
188.165914
 30
0.0
  0
VERTEX
  5
196
100
AcDbEntity
  8
10
370
     9
  6
Continuous
 62
     7
100
AcDbVertex
100
AcDb2dVertex
 10
152.495238
 20
187.869171
 30
0.0
  0
VERTEX
  5
197
100
AcDbEntity
  8
10
370
     9
  6
Continuous
 62
     7
100
AcDbVertex
100
AcDb2dVertex
 10
155.513303
 20
187.493693
 30
0.0
  0
VERTEX
  5
198
100
AcDbEntity
  8
10
370
     9
  6
Continuous
 62
     7
100
AcDbVertex
100
AcDb2dVertex
 10
158.365472
 20
187.051964
 30
0.0
  0
VERTEX
  5
199
100
AcDbEntity
  8
10
370
     9
  6
Continuous
 62
     7
100
AcDbVertex
100
AcDb2dVertex
 10
161.047769
 20
186.556469
 30
0.0
  0
VERTEX
  5
19A
100
AcDbEntity
  8
10
370
     9
  6
Continuous
 62
     7
100
AcDbVertex
100
AcDb2dVertex
 10
163.556217
 20
186.019691
 30
0.0
  0
VERTEX
  5
19B
100
AcDbEntity
  8
10
370
     9
  6
Continuous
 62
     7
100
AcDbVertex
100
AcDb2dVertex
 10
165.88684
 20
185.454114
 30
0.0
  0
VERTEX
  5
19C
100
AcDbEntity
  8
10
370
     9
  6
Continuous
 62
     7
100
AcDbVertex
100
AcDb2dVertex
 10
168.035662
 20
184.872223
 30
0.0
  0
VERTEX
  5
19D
100
AcDbEntity
  8
10
370
     9
  6
Continuous
 62
     7
100
AcDbVertex
100
AcDb2dVertex
 10
169.998705
 20
184.2865
 30
0.0
  0
VERTEX
  5
19E
100
AcDbEntity
  8
10
370
     9
  6
Continuous
 62
     7
100
AcDbVertex
100
AcDb2dVertex
 10
171.771995
 20
183.70943
 30
0.0
  0
VERTEX
  5
19F
100
AcDbEntity
  8
10
370
     9
  6
Continuous
 62
     7
100
AcDbVertex
100
AcDb2dVertex
 10
173.351554
 20
183.153497
 30
0.0
  0
VERTEX
  5
1A0
100
AcDbEntity
  8
10
370
     9
  6
Continuous
 62
     7
100
AcDbVertex
100
AcDb2dVertex
 10
174.733407
 20
182.631185
 30
0.0
  0
VERTEX
  5
1A1
100
AcDbEntity
  8
10
370
     9
  6
Continuous
 62
     7
100
AcDbVertex
100
AcDb2dVertex
 10
175.913576
 20
182.154978
 30
0.0
  0
VERTEX
  5
1A2
100
AcDbEntity
  8
10
370
     9
  6
Continuous
 62
     7
100
AcDbVertex
100
AcDb2dVertex
 10
176.888085
 20
181.73736
 30
0.0
  0
VERTEX
  5
1A3
100
AcDbEntity
  8
10
370
     9
  6
Continuous
 62
     7
100
AcDbVertex
100
AcDb2dVertex
 10
177.652959
 20
181.390815
 30
0.0
  0
VERTEX
  5
1A4
100
AcDbEntity
  8
10
370
     9
  6
Continuous
 62
     7
100
AcDbVertex
100
AcDb2dVertex
 10
178.20422
 20
181.127826
 30
0.0
  0
VERTEX
  5
1A5
100
AcDbEntity
  8
10
370
     9
  6
Continuous
 62
     7
100
AcDbVertex
100
AcDb2dVertex
 10
178.537893
 20
180.960878
 30
0.0
  0
VERTEX
  5
1A6
100
AcDbEntity
  8
10
370
     9
  6
Continuous
 62
     7
100
AcDbVertex
100
AcDb2dVertex
 10
178.650001
 20
180.902454
 30
0.0
  0
SEQEND
  5
1A7
100
AcDbEntity
  8
10
370
     9
  6
Continuous
 62
     7
  0
POLYLINE
  5
1A8
100
AcDbEntity
  8
10
370
     9
  6
Continuous
 62
     7
100
AcDb2dPolyline
 66
     1
 10
0.0
 20
0.0
 30
0.0
  0
VERTEX
  5
1A9
100
AcDbEntity
  8
10
370
     9
  6
Continuous
 62
     7
100
AcDbVertex
100
AcDb2dVertex
 10
95.05
 20
180.378528
 30
0.0
  0
VERTEX
  5
1AA
100
AcDbEntity
  8
10
370
     9
  6
Continuous
 62
     7
100
AcDbVertex
100
AcDb2dVertex
 10
99.96704
 20
182.547549
 30
0.0
  0
VERTEX
  5
1AB
100
AcDbEntity
  8
10
370
     9
  6
Continuous
 62
     7
100
AcDbVertex
100
AcDb2dVertex
 10
104.774674
 20
184.469362
 30
0.0
  0
VERTEX
  5
1AC
100
AcDbEntity
  8
10
370
     9
  6
Continuous
 62
     7
100
AcDbVertex
100
AcDb2dVertex
 10
109.468881
 20
186.156154
 30
0.0
  0
VERTEX
  5
1AD
100
AcDbEntity
  8
10
370
     9
  6
Continuous
 62
     7
100
AcDbVertex
100
AcDb2dVertex
 10
114.045643
 20
187.620115
 30
0.0
  0
VERTEX
  5
1AE
100
AcDbEntity
  8
10
370
     9
  6
Continuous
 62
     7
100
AcDbVertex
100
AcDb2dVertex
 10
118.500939
 20
188.873436
 30
0.0
  0
VERTEX
  5
1AF
100
AcDbEntity
  8
10
370
     9
  6
Continuous
 62
     7
100
AcDbVertex
100
AcDb2dVertex
 10
122.83075
 20
189.928305
 30
0.0
  0
VERTEX
  5
1B0
100
AcDbEntity
  8
10
370
     9
  6
Continuous
 62
     7
100
AcDbVertex
100
AcDb2dVertex
 10
127.031057
 20
190.796912
 30
0.0
  0
VERTEX
  5
1B1
100
AcDbEntity
  8
10
370
     9
  6
Continuous
 62
     7
100
AcDbVertex
100
AcDb2dVertex
 10
131.097841
 20
191.491446
 30
0.0
  0
VERTEX
  5
1B2
100
AcDbEntity
  8
10
370
     9
  6
Continuous
 62
     7
100
AcDbVertex
100
AcDb2dVertex
 10
135.027081
 20
192.024098
 30
0.0
  0
VERTEX
  5
1B3
100
AcDbEntity
  8
10
370
     9
  6
Continuous
 62
     7
100
AcDbVertex
100
AcDb2dVertex
 10
138.814757
 20
192.407056
 30
0.0
  0
VERTEX
  5
1B4
100
AcDbEntity
  8
10
370
     9
  6
Continuous
 62
     7
100
AcDbVertex
100
AcDb2dVertex
 10
142.456852
 20
192.65251
 30
0.0
  0
VERTEX
  5
1B5
100
AcDbEntity
  8
10
370
     9
  6
Continuous
 62
     7
100
AcDbVertex
100
AcDb2dVertex
 10
145.949344
 20
192.77265
 30
0.0
  0
VERTEX
  5
1B6
100
AcDbEntity
  8
10
370
     9
  6
Continuous
 62
     7
100
AcDbVertex
100
AcDb2dVertex
 10
149.288215
 20
192.779665
 30
0.0
  0
VERTEX
  5
1B7
100
AcDbEntity
  8
10
370
     9
  6
Continuous
 62
     7
100
AcDbVertex
100
AcDb2dVertex
 10
152.469445
 20
192.685744
 30
0.0
  0
VERTEX
  5
1B8
100
AcDbEntity
  8
10
370
     9
  6
Continuous
 62
     7
100
AcDbVertex
100
AcDb2dVertex
 10
155.489014
 20
192.503078
 30
0.0
  0
VERTEX
  5
1B9
100
AcDbEntity
  8
10
370
     9
  6
Continuous
 62
     7
100
AcDbVertex
100
AcDb2dVertex
 10
158.342904
 20
192.243855
 30
0.0
  0
VERTEX
  5
1BA
100
AcDbEntity
  8
10
370
     9
  6
Continuous
 62
     7
100
AcDbVertex
100
AcDb2dVertex
 10
161.027093
 20
191.920265
 30
0.0
  0
VERTEX
  5
1BB
100
AcDbEntity
  8
10
370
     9
  6
Continuous
 62
     7
100
AcDbVertex
100
AcDb2dVertex
 10
163.537563
 20
191.544499
 30
0.0
  0
VERTEX
  5
1BC
100
AcDbEntity
  8
10
370
     9
  6
Continuous
 62
     7
100
AcDbVertex
100
AcDb2dVertex
 10
165.870295
 20
191.128744
 30
0.0
  0
VERTEX
  5
1BD
100
AcDbEntity
  8
10
370
     9
  6
Continuous
 62
     7
100
AcDbVertex
100
AcDb2dVertex
 10
168.021268
 20
190.685191
 30
0.0
  0
VERTEX
  5
1BE
100
AcDbEntity
  8
10
370
     9
  6
Continuous
 62
     7
100
AcDbVertex
100
AcDb2dVertex
 10
169.986464
 20
190.22603
 30
0.0
  0
VERTEX
  5
1BF
100
AcDbEntity
  8
10
370
     9
  6
Continuous
 62
     7
100
AcDbVertex
100
AcDb2dVertex
 10
171.761862
 20
189.763449
 30
0.0
  0
VERTEX
  5
1C0
100
AcDbEntity
  8
10
370
     9
  6
Continuous
 62
     7
100
AcDbVertex
100
AcDb2dVertex
 10
173.343444
 20
189.309639
 30
0.0
  0
VERTEX
  5
1C1
100
AcDbEntity
  8
10
370
     9
  6
Continuous
 62
     7
100
AcDbVertex
100
AcDb2dVertex
 10
174.727189
 20
188.876788
 30
0.0
  0
VERTEX
  5
1C2
100
AcDbEntity
  8
10
370
     9
  6
Continuous
 62
     7
100
AcDbVertex
100
AcDb2dVertex
 10
175.909078
 20
188.477087
 30
0.0
  0
VERTEX
  5
1C3
100
AcDbEntity
  8
10
370
     9
  6
Continuous
 62
     7
100
AcDbVertex
100
AcDb2dVertex
 10
176.885091
 20
188.122724
 30
0.0
  0
VERTEX
  5
1C4
100
AcDbEntity
  8
10
370
     9
  6
Continuous
 62
     7
100
AcDbVertex
100
AcDb2dVertex
 10
177.65121
 20
187.82589
 30
0.0
  0
VERTEX
  5
1C5
100
AcDbEntity
  8
10
370
     9
  6
Continuous
 62
     7
100
AcDbVertex
100
AcDb2dVertex
 10
178.203414
 20
187.598774
 30
0.0
  0
VERTEX
  5
1C6
100
AcDbEntity
  8
10
370
     9
  6
Continuous
 62
     7
100
AcDbVertex
100
AcDb2dVertex
 10
178.537685
 20
187.453566
 30
0.0
  0
VERTEX
  5
1C7
100
AcDbEntity
  8
10
370
     9
  6
Continuous
 62
     7
100
AcDbVertex
100
AcDb2dVertex
 10
178.650001
 20
187.402454
 30
0.0
  0
SEQEND
  5
1C8
100
AcDbEntity
  8
10
370
     9
  6
Continuous
 62
     7
  0
POLYLINE
  5
1C9
100
AcDbEntity
  8
10
370
     9
  6
Continuous
 62
     7
100
AcDb2dPolyline
 66
     1
 10
0.0
 20
0.0
 30
0.0
  0
VERTEX
  5
1CA
100
AcDbEntity
  8
10
370
     9
  6
Continuous
 62
     7
100
AcDbVertex
100
AcDb2dVertex
 10
95.05
 20
181.378528
 30
0.0
  0
VERTEX
  5
1CB
100
AcDbEntity
  8
10
370
     9
  6
Continuous
 62
     7
100
AcDbVertex
100
AcDb2dVertex
 10
100.044042
 20
183.556538
 30
0.0
  0
VERTEX
  5
1CC
100
AcDbEntity
  8
10
370
     9
  6
Continuous
 62
     7
100
AcDbVertex
100
AcDb2dVertex
 10
104.918239
 20
185.486121
 30
0.0
  0
VERTEX
  5
1CD
100
AcDbEntity
  8
10
370
     9
  6
Continuous
 62
     7
100
AcDbVertex
100
AcDb2dVertex
 10
109.669122
 20
187.179529
 30
0.0
  0
VERTEX
  5
1CE
100
AcDbEntity
  8
10
370
     9
  6
Continuous
 62
     7
100
AcDbVertex
100
AcDb2dVertex
 10
114.293219
 20
188.649017
 30
0.0
  0
VERTEX
  5
1CF
100
AcDbEntity
  8
10
370
     9
  6
Continuous
 62
     7
100
AcDbVertex
100
AcDb2dVertex
 10
118.787062
 20
189.906837
 30
0.0
  0
VERTEX
  5
1D0
100
AcDbEntity
  8
10
370
     9
  6
Continuous
 62
     7
100
AcDbVertex
100
AcDb2dVertex
 10
123.14718
 20
190.965244
 30
0.0
  0
VERTEX
  5
1D1
100
AcDbEntity
  8
10
370
     9
  6
Continuous
 62
     7
100
AcDbVertex
100
AcDb2dVertex
 10
127.370102
 20
191.836491
 30
0.0
  0
VERTEX
  5
1D2
100
AcDbEntity
  8
10
370
     9
  6
Continuous
 62
     7
100
AcDbVertex
100
AcDb2dVertex
 10
131.452359
 20
192.532832
 30
0.0
  0
VERTEX
  5
1D3
100
AcDbEntity
  8
10
370
     9
  6
Continuous
 62
     7
100
AcDbVertex
100
AcDb2dVertex
 10
135.39048
 20
193.06652
 30
0.0
  0
VERTEX
  5
1D4
100
AcDbEntity
  8
10
370
     9
  6
Continuous
 62
     7
100
AcDbVertex
100
AcDb2dVertex
 10
139.180995
 20
193.449809
 30
0.0
  0
VERTEX
  5
1D5
100
AcDbEntity
  8
10
370
     9
  6
Continuous
 62
     7
100
AcDbVertex
100
AcDb2dVertex
 10
142.820434
 20
193.694954
 30
0.0
  0
VERTEX
  5
1D6
100
AcDbEntity
  8
10
370
     9
  6
Continuous
 62
     7
100
AcDbVertex
100
AcDb2dVertex
 10
146.305327
 20
193.814206
 30
0.0
  0
VERTEX
  5
1D7
100
AcDbEntity
  8
10
370
     9
  6
Continuous
 62
     7
100
AcDbVertex
100
AcDb2dVertex
 10
149.632204
 20
193.819821
 30
0.0
  0
VERTEX
  5
1D8
100
AcDbEntity
  8
10
370
     9
  6
Continuous
 62
     7
100
AcDbVertex
100
AcDb2dVertex
 10
152.797594
 20
193.724051
 30
0.0
  0
VERTEX
  5
1D9
100
AcDbEntity
  8
10
370
     9
  6
Continuous
 62
     7
100
AcDbVertex
100
AcDb2dVertex
 10
155.798028
 20
193.539151
 30
0.0
  0
VERTEX
  5
1DA
100
AcDbEntity
  8
10
370
     9
  6
Continuous
 62
     7
100
AcDbVertex
100
AcDb2dVertex
 10
158.630034
 20
193.277374
 30
0.0
  0
VERTEX
  5
1DB
100
AcDbEntity
  8
10
370
     9
  6
Continuous
 62
     7
100
AcDbVertex
100
AcDb2dVertex
 10
161.290143
 20
192.950973
 30
0.0
  0
VERTEX
  5
1DC
100
AcDbEntity
  8
10
370
     9
  6
Continuous
 62
     7
100
AcDbVertex
100
AcDb2dVertex
 10
163.774885
 20
192.572203
 30
0.0
  0
VERTEX
  5
1DD
100
AcDbEntity
  8
10
370
     9
  6
Continuous
 62
     7
100
AcDbVertex
100
AcDb2dVertex
 10
166.08079
 20
192.153317
 30
0.0
  0
VERTEX
  5
1DE
100
AcDbEntity
  8
10
370
     9
  6
Continuous
 62
     7
100
AcDbVertex
100
AcDb2dVertex
 10
168.204387
 20
191.706568
 30
0.0
  0
VERTEX
  5
1DF
100
AcDbEntity
  8
10
370
     9
  6
Continuous
 62
     7
100
AcDbVertex
100
AcDb2dVertex
 10
170.142207
 20
191.244211
 30
0.0
  0
VERTEX
  5
1E0
100
AcDbEntity
  8
10
370
     9
  6
Continuous
 62
     7
100
AcDbVertex
100
AcDb2dVertex
 10
171.890778
 20
190.778498
 30
0.0
  0
VERTEX
  5
1E1
100
AcDbEntity
  8
10
370
     9
  6
Continuous
 62
     7
100
AcDbVertex
100
AcDb2dVertex
 10
173.446631
 20
190.321684
 30
0.0
  0
VERTEX
  5
1E2
100
AcDbEntity
  8
10
370
     9
  6
Continuous
 62
     7
100
AcDbVertex
100
AcDb2dVertex
 10
174.806296
 20
189.886023
 30
0.0
  0
VERTEX
  5
1E3
100
AcDbEntity
  8
10
370
     9
  6
Continuous
 62
     7
100
AcDbVertex
100
AcDb2dVertex
 10
175.966302
 20
189.483767
 30
0.0
  0
VERTEX
  5
1E4
100
AcDbEntity
  8
10
370
     9
  6
Continuous
 62
     7
100
AcDbVertex
100
AcDb2dVertex
 10
176.92318
 20
189.127171
 30
0.0
  0
VERTEX
  5
1E5
100
AcDbEntity
  8
10
370
     9
  6
Continuous
 62
     7
100
AcDbVertex
100
AcDb2dVertex
 10
177.673459
 20
188.828488
 30
0.0
  0
VERTEX
  5
1E6
100
AcDbEntity
  8
10
370
     9
  6
Continuous
 62
     7
100
AcDbVertex
100
AcDb2dVertex
 10
178.213669
 20
188.599971
 30
0.0
  0
VERTEX
  5
1E7
100
AcDbEntity
  8
10
370
     9
  6
Continuous
 62
     7
100
AcDbVertex
100
AcDb2dVertex
 10
178.54034
 20
188.453876
 30
0.0
  0
VERTEX
  5
1E8
100
AcDbEntity
  8
10
370
     9
  6
Continuous
 62
     7
100
AcDbVertex
100
AcDb2dVertex
 10
178.650001
 20
188.402454
 30
0.0
  0
SEQEND
  5
1E9
100
AcDbEntity
  8
10
370
     9
  6
Continuous
 62
     7
  0
POLYLINE
  5
1EA
100
AcDbEntity
  8
10
370
     9
  6
Continuous
 62
     7
100
AcDb2dPolyline
 66
     1
 10
0.0
 20
0.0
 30
0.0
  0
VERTEX
  5
1EB
100
AcDbEntity
  8
10
370
     9
  6
Continuous
 62
     7
100
AcDbVertex
100
AcDb2dVertex
 10
95.05
 20
182.578528
 30
0.0
  0
VERTEX
  5
1EC
100
AcDbEntity
  8
10
370
     9
  6
Continuous
 62
     7
100
AcDbVertex
100
AcDb2dVertex
 10
100.006205
 20
185.270131
 30
0.0
  0
VERTEX
  5
1ED
100
AcDbEntity
  8
10
370
     9
  6
Continuous
 62
     7
100
AcDbVertex
100
AcDb2dVertex
 10
104.847695
 20
187.679007
 30
0.0
  0
VERTEX
  5
1EE
100
AcDbEntity
  8
10
370
     9
  6
Continuous
 62
     7
100
AcDbVertex
100
AcDb2dVertex
 10
109.570729
 20
189.818594
 30
0.0
  0
VERTEX
  5
1EF
100
AcDbEntity
  8
10
370
     9
  6
Continuous
 62
     7
100
AcDbVertex
100
AcDb2dVertex
 10
114.171567
 20
191.702332
 30
0.0
  0
VERTEX
  5
1F0
100
AcDbEntity
  8
10
370
     9
  6
Continuous
 62
     7
100
AcDbVertex
100
AcDb2dVertex
 10
118.646469
 20
193.343658
 30
0.0
  0
VERTEX
  5
1F1
100
AcDbEntity
  8
10
370
     9
  6
Continuous
 62
     7
100
AcDbVertex
100
AcDb2dVertex
 10
122.991695
 20
194.756013
 30
0.0
  0
VERTEX
  5
1F2
100
AcDbEntity
  8
10
370
     9
  6
Continuous
 62
     7
100
AcDbVertex
100
AcDb2dVertex
 10
127.203505
 20
195.952836
 30
0.0
  0
VERTEX
  5
1F3
100
AcDbEntity
  8
10
370
     9
  6
Continuous
 62
     7
100
AcDbVertex
100
AcDb2dVertex
 10
131.278158
 20
196.947564
 30
0.0
  0
VERTEX
  5
1F4
100
AcDbEntity
  8
10
370
     9
  6
Continuous
 62
     7
100
AcDbVertex
100
AcDb2dVertex
 10
135.211916
 20
197.753638
 30
0.0
  0
VERTEX
  5
1F5
100
AcDbEntity
  8
10
370
     9
  6
Continuous
 62
     7
100
AcDbVertex
100
AcDb2dVertex
 10
139.001036
 20
198.384496
 30
0.0
  0
VERTEX
  5
1F6
100
AcDbEntity
  8
10
370
     9
  6
Continuous
 62
     7
100
AcDbVertex
100
AcDb2dVertex
 10
142.64178
 20
198.853578
 30
0.0
  0
VERTEX
  5
1F7
100
AcDbEntity
  8
10
370
     9
  6
Continuous
 62
     7
100
AcDbVertex
100
AcDb2dVertex
 10
146.130407
 20
199.174322
 30
0.0
  0
VERTEX
  5
1F8
100
AcDbEntity
  8
10
370
     9
  6
Continuous
 62
     7
100
AcDbVertex
100
AcDb2dVertex
 10
149.463178
 20
199.360167
 30
0.0
  0
VERTEX
  5
1F9
100
AcDbEntity
  8
10
370
     9
  6
Continuous
 62
     7
100
AcDbVertex
100
AcDb2dVertex
 10
152.636351
 20
199.424553
 30
0.0
  0
VERTEX
  5
1FA
100
AcDbEntity
  8
10
370
     9
  6
Continuous
 62
     7
100
AcDbVertex
100
AcDb2dVertex
 10
155.646187
 20
199.380918
 30
0.0
  0
VERTEX
  5
1FB
100
AcDbEntity
  8
10
370
     9
  6
Continuous
 62
     7
100
AcDbVertex
100
AcDb2dVertex
 10
158.488946
 20
199.242702
 30
0.0
  0
VERTEX
  5
1FC
100
AcDbEntity
  8
10
370
     9
  6
Continuous
 62
     7
100
AcDbVertex
100
AcDb2dVertex
 10
161.160888
 20
199.023342
 30
0.0
  0
VERTEX
  5
1FD
100
AcDbEntity
  8
10
370
     9
  6
Continuous
 62
     7
100
AcDbVertex
100
AcDb2dVertex
 10
163.658272
 20
198.73628
 30
0.0
  0
VERTEX
  5
1FE
100
AcDbEntity
  8
10
370
     9
  6
Continuous
 62
     7
100
AcDbVertex
100
AcDb2dVertex
 10
165.977359
 20
198.394953
 30
0.0
  0
VERTEX
  5
1FF
100
AcDbEntity
  8
10
370
     9
  6
Continuous
 62
     7
100
AcDbVertex
100
AcDb2dVertex
 10
168.114408
 20
198.0128
 30
0.0
  0
VERTEX
  5
200
100
AcDbEntity
  8
10
370
     9
  6
Continuous
 62
     7
100
AcDbVertex
100
AcDb2dVertex
 10
170.065679
 20
197.603261
 30
0.0
  0
VERTEX
  5
201
100
AcDbEntity
  8
10
370
     9
  6
Continuous
 62
     7
100
AcDbVertex
100
AcDb2dVertex
 10
171.827432
 20
197.179775
 30
0.0
  0
VERTEX
  5
202
100
AcDbEntity
  8
10
370
     9
  6
Continuous
 62
     7
100
AcDbVertex
100
AcDb2dVertex
 10
173.395928
 20
196.75578
 30
0.0
  0
VERTEX
  5
203
100
AcDbEntity
  8
10
370
     9
  6
Continuous
 62
     7
100
AcDbVertex
100
AcDb2dVertex
 10
174.767425
 20
196.344715
 30
0.0
  0
VERTEX
  5
204
100
AcDbEntity
  8
10
370
     9
  6
Continuous
 62
     7
100
AcDbVertex
100
AcDb2dVertex
 10
175.938184
 20
195.96002
 30
0.0
  0
VERTEX
  5
205
100
AcDbEntity
  8
10
370
     9
  6
Continuous
 62
     7
100
AcDbVertex
100
AcDb2dVertex
 10
176.904464
 20
195.615134
 30
0.0
  0
VERTEX
  5
206
100
AcDbEntity
  8
10
370
     9
  6
Continuous
 62
     7
100
AcDbVertex
100
AcDb2dVertex
 10
177.662527
 20
195.323495
 30
0.0
  0
VERTEX
  5
207
100
AcDbEntity
  8
10
370
     9
  6
Continuous
 62
     7
100
AcDbVertex
100
AcDb2dVertex
 10
178.20863
 20
195.098543
 30
0.0
  0
VERTEX
  5
208
100
AcDbEntity
  8
10
370
     9
  6
Continuous
 62
     7
100
AcDbVertex
100
AcDb2dVertex
 10
178.539035
 20
194.953716
 30
0.0
  0
VERTEX
  5
209
100
AcDbEntity
  8
10
370
     9
  6
Continuous
 62
     7
100
AcDbVertex
100
AcDb2dVertex
 10
178.650001
 20
194.902454
 30
0.0
  0
SEQEND
  5
20A
100
AcDbEntity
  8
10
370
     9
  6
Continuous
 62
     7
  0
LINE
  5
20B
100
AcDbEntity
  8
1
370
     9
  6
Continuous
 62
     7
100
AcDbLine
 10
173.135913
 20
67.299957
 30
0.0
 11
174.675663
 21
69.140927
 31
0.0
  0
LINE
  5
20C
100
AcDbEntity
  8
1
370
     9
  6
Continuous
 62
     7
100
AcDbLine
 10
173.135913
 20
67.299957
 30
0.0
 11
175.38986
 21
68.124409
 31
0.0
  0
POLYLINE
  5
20D
100
AcDbEntity
  8
1
370
     9
  6
Continuous
 62
     7
100
AcDb2dPolyline
 66
     1
 10
0.0
 20
0.0
 30
0.0
  0
VERTEX
  5
20E
100
AcDbEntity
  8
1
370
     9
  6
Continuous
 62
     7
100
AcDbVertex
100
AcDb2dVertex
 10
173.135913
 20
67.299957
 30
0.0
  0
VERTEX
  5
20F
100
AcDbEntity
  8
1
370
     9
  6
Continuous
 62
     7
100
AcDbVertex
100
AcDb2dVertex
 10
190.723916
 20
79.657148
 30
0.0
  0
VERTEX
  5
210
100
AcDbEntity
  8
1
370
     9
  6
Continuous
 62
     7
100
AcDbVertex
100
AcDb2dVertex
 10
215.023916
 20
79.657148
 30
0.0
  0
SEQEND
  5
211
100
AcDbEntity
  8
1
370
     9
  6
Continuous
 62
     7
  0
TEXT
  5
212
100
AcDbEntity
  8
1
370
     9
  6
Continuous
 62
     7
100
AcDbText
 10
190.723916
 20
80.157148
 30
0.0
 40
3.0
  1
nedapロゴマーク
 41
0.736364
 11
190.723916
 21
80.157148
 31
0.0
100
AcDbText
 73
     1
  0
TEXT
  5
213
100
AcDbEntity
  8
10
370
     9
  6
Continuous
 62
     7
100
AcDbText
 10
176.075353
 20
65.903665
 30
0.0
 40
2.0
  1
R
 41
0.5
 11
176.075353
 21
65.903665
 31
0.0
100
AcDbText
 73
     1
  0
LINE
  5
214
100
AcDbEntity
  8
15
370
     9
  6
Continuous
 62
    96
100
AcDbLine
 10
359.325704
 20
14.2021
 30
0.0
 11
346.859366
 21
14.2021
 31
0.0
  0
TEXT
  5
215
100
AcDbEntity
  8
15
370
     9
  6
Continuous
 62
    96
100
AcDbText
 10
329.090885
 20
13.191464
 30
0.0
 40
1.800531
  1
出入管理システム
 41
1.018519
 11
329.090885
 21
13.191464
 31
0.0
100
AcDbText
 73
     1
  0
TEXT
  5
216
100
AcDbEntity
  8
15
370
     9
  6
Continuous
 62
    96
100
AcDbText
 10
329.161463
 20
9.30964
 30
0.0
 40
3.601062
  1
株式会社
 41
1.753472
 11
329.161463
 21
9.30964
 31
0.0
100
AcDbText
 73
     1
  0
LINE
  5
217
100
AcDbEntity
  8
15
370
    30
  6
Continuous
 62
    96
100
AcDbLine
 10
309.264599
 20
9.379143
 30
0.0
 11
312.432385
 21
9.379143
 31
0.0
  0
LINE
  5
218
100
AcDbEntity
  8
15
370
    30
  6
Continuous
 62
    96
100
AcDbLine
 10
327.905387
 20
13.228871
 30
0.0
 11
327.905387
 21
14.444572
 31
0.0
  0
LINE
  5
219
100
AcDbEntity
  8
15
370
    30
  6
Continuous
 62
    96
100
AcDbLine
 10
326.588381
 20
13.228871
 30
0.0
 11
327.905387
 21
13.228871
 31
0.0
  0
LINE
  5
21A
100
AcDbEntity
  8
15
370
    30
  6
Continuous
 62
    96
100
AcDbLine
 10
326.588381
 20
9.379143
 30
0.0
 11
326.588381
 21
13.228871
 31
0.0
  0
LINE
  5
21B
100
AcDbEntity
  8
15
370
    30
  6
Continuous
 62
    96
100
AcDbLine
 10
325.170059
 20
9.379143
 30
0.0
 11
326.588381
 21
9.379143
 31
0.0
  0
LINE
  5
21C
100
AcDbEntity
  8
15
370
    30
  6
Continuous
 62
    96
100
AcDbLine
 10
324.317758
 20
9.379143
 30
0.0
 11
322.536035
 21
9.379143
 31
0.0
  0
LINE
  5
21D
100
AcDbEntity
  8
15
370
    30
  6
Continuous
 62
    96
100
AcDbLine
 10
315.140504
 20
9.379143
 30
0.0
 11
319.496771
 21
9.379143
 31
0.0
  0
LINE
  5
21E
100
AcDbEntity
  8
15
370
    30
  6
Continuous
 62
    96
100
AcDbLine
 10
315.140504
 20
11.506623
 30
0.0
 11
315.140504
 21
9.379143
 31
0.0
  0
LINE
  5
21F
100
AcDbEntity
  8
15
370
    30
  6
Continuous
 62
    96
100
AcDbLine
 10
312.432385
 20
9.379143
 30
0.0
 11
317.369294
 21
14.267171
 31
0.0
  0
LINE
  5
220
100
AcDbEntity
  8
15
370
    30
  6
Continuous
 62
    96
100
AcDbLine
 10
317.369294
 20
14.267171
 30
0.0
 11
317.369294
 21
11.506623
 31
0.0
  0
LINE
  5
221
100
AcDbEntity
  8
15
370
    30
  6
Continuous
 62
    96
100
AcDbLine
 10
317.369294
 20
11.506623
 30
0.0
 11
315.140504
 21
11.506623
 31
0.0
  0
LINE
  5
222
100
AcDbEntity
  8
15
370
    30
  6
Continuous
 62
    96
100
AcDbLine
 10
319.496771
 20
12.215783
 30
0.0
 11
322.536035
 21
9.379143
 31
0.0
  0
ARC
  5
223
100
AcDbEntity
  8
15
370
    30
  6
Continuous
 62
    96
100
AcDbCircle
 10
321.928181
 20
12.722327
 30
0.0
 40
0.506544
100
AcDbArc
 50
-90.0
 51
90.0
  0
LINE
  5
224
100
AcDbEntity
  8
15
370
    30
  6
Continuous
 62
    96
100
AcDbLine
 10
319.496771
 20
12.215783
 30
0.0
 11
321.928181
 21
12.215783
 31
0.0
  0
LINE
  5
225
100
AcDbEntity
  8
15
370
    30
  6
Continuous
 62
    96
100
AcDbLine
 10
319.902008
 20
13.228871
 30
0.0
 11
321.928181
 21
13.228871
 31
0.0
  0
LINE
  5
226
100
AcDbEntity
  8
15
370
    30
  6
Continuous
 62
    96
100
AcDbLine
 10
319.902008
 20
14.444572
 30
0.0
 11
319.902008
 21
13.228871
 31
0.0
  0
LINE
  5
227
100
AcDbEntity
  8
15
370
    30
  6
Continuous
 62
    96
100
AcDbLine
 10
319.902008
 20
14.444572
 30
0.0
 11
322.312089
 21
14.444572
 31
0.0
  0
ARC
  5
228
100
AcDbEntity
  8
15
370
    30
  6
Continuous
 62
    96
100
AcDbCircle
 10
322.120133
 20
12.722327
 30
0.0
 40
1.73291
100
AcDbArc
 50
-76.055153
 51
83.640296
  0
LINE
  5
229
100
AcDbEntity
  8
15
370
    30
  6
Continuous
 62
    96
100
AcDbLine
 10
322.536035
 20
11.042086
 30
0.0
 11
324.317758
 21
9.379143
 31
0.0
  0
LINE
  5
22A
100
AcDbEntity
  8
15
370
    30
  6
Continuous
 62
    96
100
AcDbLine
 10
327.905387
 20
14.444572
 30
0.0
 11
323.853043
 21
14.444572
 31
0.0
  0
LINE
  5
22B
100
AcDbEntity
  8
15
370
    30
  6
Continuous
 62
    96
100
AcDbLine
 10
323.853043
 20
14.444572
 30
0.0
 11
323.853043
 21
13.228871
 31
0.0
  0
LINE
  5
22C
100
AcDbEntity
  8
15
370
    30
  6
Continuous
 62
    96
100
AcDbLine
 10
323.853043
 20
13.228871
 30
0.0
 11
325.170059
 21
13.228871
 31
0.0
  0
LINE
  5
22D
100
AcDbEntity
  8
15
370
    30
  6
Continuous
 62
    96
100
AcDbLine
 10
325.170059
 20
13.228871
 30
0.0
 11
325.170059
 21
9.379143
 31
0.0
  0
LINE
  5
22E
100
AcDbEntity
  8
15
370
     9
  6
Continuous
 62
    96
100
AcDbLine
 10
304.973199
 20
44.510946
 30
0.0
 11
394.999741
 21
44.510946
 31
0.0
  0
LINE
  5
22F
100
AcDbEntity
  8
15
370
     9
  6
Continuous
 62
    96
100
AcDbLine
 10
304.973199
 20
44.51094
 30
0.0
 11
394.999741
 21
44.510946
 31
0.0
  0
LINE
  5
230
100
AcDbEntity
  8
15
370
     9
  6
Continuous
 62
    96
100
AcDbLine
 10
394.999741
 20
20.503869
 30
0.0
 11
304.973199
 21
20.503862
 31
0.0
  0
LINE
  5
231
100
AcDbEntity
  8
15
370
     9
  6
Continuous
 62
    96
100
AcDbLine
 10
319.977622
 20
26.505632
 30
0.0
 11
319.977622
 21
20.503863
 31
0.0
  0
LINE
  5
232
100
AcDbEntity
  8
15
370
     9
  6
Continuous
 62
    96
100
AcDbLine
 10
319.496771
 20
9.379143
 30
0.0
 11
319.496771
 21
19.510004
 31
0.0
  0
LINE
  5
233
100
AcDbEntity
  8
15
370
     9
  6
Continuous
 62
    96
100
AcDbLine
 10
319.496771
 20
19.510004
 30
0.0
 11
309.264599
 21
9.379143
 31
0.0
  0
INSERT
  5
238
100
AcDbEntity
  8
0
370
     9
  6
Continuous
 62
    96
100
AcDbBlockReference
  2
*G6
 10
0.0
 20
0.0
 30
0.0
  0
TEXT
  5
239
100
AcDbEntity
  8
15
370
     9
  6
Continuous
 62
    96
100
AcDbText
 10
361.498683
 20
8.887315
 30
0.0
 40
10.002949
  1
アート
 41
0.834167
 11
361.498683
 21
8.887315
 31
0.0
100
AcDbText
 73
     1
  0
LINE
  5
23A
100
AcDbEntity
  8
15
370
     9
  6
Continuous
 62
    96
100
AcDbLine
 10
319.977622
 20
35.508285
 30
0.0
 11
319.977622
 21
26.505632
 31
0.0
  0
LINE
  5
23B
100
AcDbEntity
  8
15
370
     9
  6
Continuous
 62
    96
100
AcDbLine
 10
344.984995
 20
35.508285
 30
0.0
 11
344.984995
 21
26.505634
 31
0.0
  0
LINE
  5
23C
100
AcDbEntity
  8
15
370
     9
  6
Continuous
 62
    96
100
AcDbLine
 10
369.992368
 20
35.508285
 30
0.0
 11
369.992368
 21
26.505636
 31
0.0
  0
LINE
  5
23D
100
AcDbEntity
  8
15
370
     9
  6
Continuous
 62
    96
100
AcDbLine
 10
304.972678
 20
53.013446
 30
0.0
 11
394.99922
 21
53.013446
 31
0.0
  0
LINE
  5
23E
100
AcDbEntity
  8
15
370
    30
  6
Continuous
 62
    96
100
AcDbLine
 10
304.972678
 20
58.515068
 30
0.0
 11
394.99922
 21
58.515068
 31
0.0
  0
LINE
  5
23F
100
AcDbEntity
  8
15
370
    30
  6
Continuous
 62
    96
100
AcDbLine
 10
304.972678
 20
53.013446
 30
0.0
 11
394.99922
 21
53.013446
 31
0.0
  0
LINE
  5
240
100
AcDbEntity
  8
15
370
     9
  6
Continuous
 62
    96
100
AcDbLine
 10
329.98005
 20
58.515068
 30
0.0
 11
329.98005
 21
53.013446
 31
0.0
  0
LINE
  5
241
100
AcDbEntity
  8
15
370
    30
  6
Continuous
 62
    96
100
AcDbLine
 10
304.972678
 20
53.013446
 30
0.0
 11
394.99922
 21
53.013446
 31
0.0
  0
LINE
  5
242
100
AcDbEntity
  8
15
370
     9
  6
Continuous
 62
    96
100
AcDbLine
 10
350.006701
 20
26.503865
 30
0.0
 11
350.006701
 21
20.503865
 31
0.0
  0
LINE
  5
243
100
AcDbEntity
  8
15
370
     9
  6
Continuous
 62
    96
100
AcDbLine
 10
357.006701
 20
26.50387
 30
0.0
 11
357.006701
 21
20.50387
 31
0.0
  0
LINE
  5
244
100
AcDbEntity
  8
15
370
     9
  6
Continuous
 62
    96
100
AcDbLine
 10
382.999741
 20
26.503868
 30
0.0
 11
382.999741
 21
20.503868
 31
0.0
  0
LINE
  5
245
100
AcDbEntity
  8
15
370
     9
  6
Continuous
 62
    96
100
AcDbLine
 10
386.05043
 20
25.743868
 30
0.0
 11
386.05043
 21
21.263868
 31
0.0
  0
CIRCLE
  5
246
100
AcDbEntity
  8
15
370
     9
  6
Continuous
 62
    96
100
AcDbCircle
 10
386.05043
 20
23.503868
 30
0.0
 40
0.96
  0
CIRCLE
  5
247
100
AcDbEntity
  8
15
370
     9
  6
Continuous
 62
    96
100
AcDbCircle
 10
386.05043
 20
23.503868
 30
0.0
 40
1.6
  0
LINE
  5
248
100
AcDbEntity
  8
15
370
     9
  6
Continuous
 62
    96
100
AcDbLine
 10
388.689701
 20
24.463868
 30
0.0
 11
388.689701
 21
22.543868
 31
0.0
  0
LINE
  5
249
100
AcDbEntity
  8
15
370
     9
  6
Continuous
 62
    96
100
AcDbLine
 10
393.809701
 20
25.103868
 30
0.0
 11
393.809701
 21
21.903868
 31
0.0
  0
LINE
  5
24A
100
AcDbEntity
  8
15
370
     9
  6
Continuous
 62
    96
100
AcDbLine
 10
388.689701
 20
24.463868
 30
0.0
 11
393.809701
 21
25.103868
 31
0.0
  0
LINE
  5
24B
100
AcDbEntity
  8
15
370
     9
  6
Continuous
 62
    96
100
AcDbLine
 10
388.689701
 20
22.543868
 30
0.0
 11
393.809701
 21
21.903868
 31
0.0
  0
LINE
  5
24C
100
AcDbEntity
  8
15
370
     9
  6
Continuous
 62
    96
100
AcDbLine
 10
383.81043
 20
23.503868
 30
0.0
 11
394.355701
 21
23.503868
 31
0.0
  0
LINE
  5
24D
100
AcDbEntity
  8
15
370
     9
  6
Continuous
 62
    96
100
AcDbLine
 10
395.0
 20
26.505638
 30
0.0
 11
304.973199
 21
26.505631
 31
0.0
  0
LINE
  5
24E
100
AcDbEntity
  8
15
370
     9
  6
Continuous
 62
    96
100
AcDbLine
 10
304.973199
 20
35.508285
 30
0.0
 11
395.0
 21
35.508285
 31
0.0
  0
TEXT
  5
24F
100
AcDbEntity
  8
15
370
    30
  6
Continuous
 62
    96
100
AcDbText
 10
305.575052
 20
41.422017
 30
0.0
 40
2.5
  1
製品名
 41
0.855562
 11
305.575052
 21
41.422017
 31
0.0
100
AcDbText
 73
     1
  0
TEXT
  5
250
100
AcDbEntity
  8
15
370
    30
  6
Continuous
 62
    96
100
AcDbText
 10
305.489181
 20
49.971721
 30
0.0
 40
2.5
  1
型　式
 41
0.877778
 11
305.489181
 21
49.971721
 31
0.0
100
AcDbText
 73
     1
  0
TEXT
  5
251
100
AcDbEntity
  8
15
370
     9
  6
Continuous
 62
    96
100
AcDbText
 10
311.176364
 20
54.264257
 30
0.0
 40
3.0
  1
図面履歴
 41
0.875
 11
311.176364
 21
54.264257
 31
0.0
100
AcDbText
 73
     1
  0
TEXT
  5
252
100
AcDbEntity
  8
15
370
     9
  6
Continuous
 62
    96
100
AcDbText
 10
306.471347
 20
21.981656
 30
0.0
 40
3.0
  1
図面番号
 41
0.875
 11
306.471347
 21
21.981656
 31
0.0
100
AcDbText
 73
     1
  0
TEXT
  5
253
100
AcDbEntity
  8
15
370
     9
  6
Continuous
 62
    96
100
AcDbText
 10
350.299867
 20
21.972402
 30
0.0
 40
3.0
  1
日付
 41
0.861111
 11
350.299867
 21
21.972402
 31
0.0
100
AcDbText
 73
     1
  0
TEXT
  5
254
100
AcDbEntity
  8
15
370
     9
  6
Continuous
 62
    96
100
AcDbText
 10
371.04632
 20
32.356193
 30
0.0
 40
2.5
  1
作図
 41
0.866667
 11
371.04632
 21
32.356193
 31
0.0
100
AcDbText
 73
     1
  0
TEXT
  5
255
100
AcDbEntity
  8
15
370
     9
  6
Continuous
 62
    96
100
AcDbText
 10
345.705654
 20
32.365541
 30
0.0
 40
2.5
  1
検図
 41
0.866667
 11
345.705654
 21
32.365541
 31
0.0
100
AcDbText
 73
     1
  0
TEXT
  5
256
100
AcDbEntity
  8
15
370
     9
  6
Continuous
 62
    96
100
AcDbText
 10
320.688782
 20
32.213841
 30
0.0
 40
2.5
  1
承認
 41
0.866667
 11
320.688782
 21
32.213841
 31
0.0
100
AcDbText
 73
     1
  0
TEXT
  5
257
100
AcDbEntity
  8
15
370
     9
  6
Continuous
 62
    96
100
AcDbText
 10
305.71919
 20
32.248998
 30
0.0
 40
2.5
  1
縮尺（Ａ３）
 41
0.833333
 11
305.71919
 21
32.248998
 31
0.0
100
AcDbText
 73
     1
  0
TEXT
  5
258
100
AcDbEntity
  8
15
370
     9
  6
Continuous
 62
    96
100
AcDbText
 10
307.808064
 20
28.015531
 30
0.0
 40
3.0
  1
１：１
 41
0.87037
 11
307.808064
 21
28.015531
 31
0.0
100
AcDbText
 73
     1
  0
TEXT
  5
259
100
AcDbEntity
  8
15
370
     9
  6
Continuous
 62
    96
100
AcDbText
 10
187.956265
 20
12.434851
 30
0.0
 40
3.0
  1
＊　その他記載されている会社名、製品名は、各社の登録商標または商標です。
 41
0.887346
 11
187.956265
 21
12.434851
 31
0.0
100
AcDbText
 73
     1
  0
TEXT
  5
25A
100
AcDbEntity
  8
15
370
     9
  6
Continuous
 62
    96
100
AcDbText
 10
378.721753
 20
28.070933
 30
0.0
 40
5.0
  1
宮村
 41
0.85
 11
378.721753
 21
28.070933
 31
0.0
100
AcDbText
 73
     1
  0
TEXT
  5
25B
100
AcDbEntity
  8
15
370
     9
  6
Continuous
 62
    96
100
AcDbText
 10
328.707007
 20
28.070933
 30
0.0
 40
5.0
  1
加川
 41
0.85
 11
328.707007
 21
28.070933
 31
0.0
100
AcDbText
 73
     1
  0
TEXT
  5
25C
100
AcDbEntity
  8
15
370
     9
  6
Continuous
 62
    96
100
AcDbText
 10
359.163672
 20
22.00748
 30
0.0
 40
3.0
  1
2019年02月12日
 41
0.66092
 11
359.163672
 21
22.00748
 31
0.0
100
AcDbText
 73
     1
  0
TEXT
  5
25D
100
AcDbEntity
  8
15
370
     9
  6
Continuous
 62
    96
100
AcDbText
 10
356.192128
 20
28.15086
 30
0.0
 40
5.0
  1
辻
 41
0.833333
 11
356.192128
 21
28.15086
 31
0.0
100
AcDbText
 73
     1
  0
TEXT
  5
25E
100
AcDbEntity
  8
15
370
     9
  6
Continuous
 62
    96
100
AcDbText
 10
307.297115
 20
199.539964
 30
0.0
 40
3.0
  1
※運用環境、読取機器によりカード感知距離は変化します。
 41
0.886831
 11
307.297115
 21
199.539964
 31
0.0
100
AcDbText
 73
     1
  0
TEXT
  5
25F
100
AcDbEntity
  8
15
370
     9
  6
Continuous
 62
    96
100
AcDbText
 10
358.279729
 20
54.271164
 30
0.0
 40
3.0
  1
-----
 41
0.553333
 11
358.279729
 21
54.271164
 31
0.0
100
AcDbText
 73
     1
  0
TEXT
  5
260
100
AcDbEntity
  8
15
370
     9
  6
Continuous
 62
    96
100
AcDbText
 10
334.072642
 20
37.284816
 30
0.0
 40
5.0
  1
ＸＳⅢ標準カード
 41
0.833333
 11
334.072642
 21
37.284816
 31
0.0
100
AcDbText
 73
     1
  0
TEXT
  5
261
100
AcDbEntity
  8
15
370
     9
  6
Continuous
 62
    96
100
AcDbText
 10
335.562606
 20
46.331829
 30
0.0
 40
5.0
  1
Ｘ３－１０１０
 41
0.861905
 11
335.562606
 21
46.331829
 31
0.0
100
AcDbText
 73
     1
  0
TEXT
  5
262
100
AcDbEntity
  8
15
370
     9
  6
Continuous
 62
    96
100
AcDbText
 10
321.978491
 20
21.763653
 30
0.0
 40
3.5
  1
G81004-01-19212
 41
0.5
 11
321.978491
 21
21.763653
 31
0.0
100
AcDbText
 73
     1
  0
DIMENSION
  5
26E
100
AcDbEntity
  8
1
370
     9
  6
Continuous
 62
     7
100
AcDbDimension
  2
*D7
 10
208.960002
 20
221.052001
 30
0.0
 11
216.8912
 21
221.552001
 31
0.0
 71
     5
 72
     1
 41
1.0
 42
0.0
  1
(0.8)
100
AcDbAlignedDimension
 13
208.960002
 23
212.953
 33
0.0
 14
209.760002
 24
212.953
 34
0.0
100
AcDbRotatedDimension
  0
ENDSEC
  0
SECTION
  2
OBJECTS
  0
DICTIONARY
  5
19
100
AcDbDictionary
280
     0
281
     1
  3
ACAD_GROUP
350
1A
  3
ACAD_MLINESTYLE
350
1B
  3
ACAD_LAYOUT
350
1E
  3
ACAD_PLOTSETTINGS
350
22
  3
ACAD_PLOTSTYLENAME
350
1F
  3
ACAD_WIPEOUT_VARS
350
23
  0
DICTIONARY
  5
1A
102
{ACAD_REACTORS
330
19
102
}
100
AcDbDictionary
280
     0
281
     1
  0
DICTIONARY
  5
1B
102
{ACAD_REACTORS
330
19
102
}
100
AcDbDictionary
280
     0
281
     1
  3
Standard
350
1C
  0
MLINESTYLE
  5
1C
102
{ACAD_REACTORS
330
1B
102
}
100
AcDbMlineStyle
  2
Standard
 70
     0
  3

 62
     0
 51
90.0
 52
90.0
 71
     2
 49
0.5
 62
   256
  6
ByLayer
 49
-0.5
 62
   256
  6
ByLayer
  0
ACDBDICTIONARYWDFLT
  5
1F
102
{ACAD_REACTORS
330
19
102
}
100
AcDbDictionary
281
     1
  3
Normal
350
1D
100
AcDbDictionaryWithDefault
340
1D
  0
ACDBPLACEHOLDER
  5
1D
102
{ACAD_REACTORS
330
1F
102
}
  0
LAYOUT
  5
20
102
{ACAD_REACTORS
330
1E
102
}
100
AcDbPlotSettings
  1

  2

  4

  6

 40
0.0
 41
0.0
 42
0.0
 43
0.0
 44
0.0
 45
0.0
 46
0.0
 47
0.0
 48
0.0
 49
0.0
140
0.0
141
0.0
142
1.0
143
1.0
 70
  1024
 72
     0
 73
     0
 74
     0
  7

 75
     0
147
1.0
148
0.0
149
0.0
100
AcDbLayout
  1
Model
 70
     0
 71
     0
 10
0.0
 20
0.0
 11
0.0
 21
0.0
 12
0.0
 22
0.0
 32
0.0
 14
0.0
 24
0.0
 34
0.0
 15
0.0
 25
0.0
 35
0.0
146
0.0
 13
0.0
 23
0.0
 33
0.0
 16
0.0
 26
0.0
 36
0.0
 17
0.0
 27
0.0
 37
0.0
 76
     0
330
A
331
0
345
0
346
0
  0
LAYOUT
  5
21
102
{ACAD_REACTORS
330
1E
102
}
100
AcDbPlotSettings
  1

  2

  4

  6

 40
0.0
 41
0.0
 42
0.0
 43
0.0
 44
0.0
 45
0.0
 46
0.0
 47
0.0
 48
0.0
 49
0.0
140
0.0
141
0.0
142
1.0
143
1.0
 70
     0
 72
     0
 73
     0
 74
     0
  7

 75
     0
147
1.0
148
0.0
149
0.0
100
AcDbLayout
  1
Layout1
 70
     0
 71
     0
 10
0.0
 20
0.0
 11
0.0
 21
0.0
 12
0.0
 22
0.0
 32
0.0
 14
0.0
 24
0.0
 34
0.0
 15
0.0
 25
0.0
 35
0.0
146
0.0
 13
0.0
 23
0.0
 33
0.0
 16
0.0
 26
0.0
 36
0.0
 17
0.0
 27
0.0
 37
0.0
 76
     0
330
B
331
0
345
0
346
0
  0
DICTIONARY
  5
1E
102
{ACAD_REACTORS
330
19
102
}
100
AcDbDictionary
280
     0
281
     1
  3
Layout1
350
21
  3
Model
350
20
  0
DICTIONARY
  5
22
102
{ACAD_REACTORS
330
19
102
}
100
AcDbDictionary
280
     0
281
     1
  0
WIPEOUTVARIABLES
  5
23
100
AcDbWipeoutVariables
 70
     1
  0
ENDSEC
  0
EOF
