  0
SECTION
  2
HEADER
  9
$ACADVER
  1
AC1015
  9
$ACADMAINTVER
 70
     6
  9
$DWGCODEPAGE
  3
DOS932
  9
$INSBASE
 10
0.0
 20
0.0
 30
0.0
  9
$EXTMIN
 10
0.0
 20
0.0
 30
0.0
  9
$EXTMAX
 10
420.0
 20
297.0
 30
0.0
  9
$LIMMIN
 10
0.0
 20
0.0
  9
$LIMMAX
 10
420.0
 20
297.0
  9
$ORTHOMODE
 70
     0
  9
$REGENMODE
 70
     1
  9
$FILLMODE
 70
     1
  9
$QTEXTMODE
 70
     0
  9
$MIRRTEXT
 70
     1
  9
$LTSCALE
 40
0.25
  9
$ATTMODE
 70
     1
  9
$TEXTSIZE
 40
5.0
  9
$TRACEWID
 40
0.05
  9
$TEXTSTYLE
  7
Standard
  9
$CLAYER
  8
0
  9
$CELTYPE
  6
Continuous
  9
$CECOLOR
 62
   256
  9
$CELTSCALE
 40
1.0
  9
$DISPSILH
 70
     0
  9
$DIMSCALE
 40
1.0
  9
$DIMASZ
 40
4.0
  9
$DIMEXO
 40
2.0
  9
$DIMDLI
 40
10.0
  9
$DIMRND
 40
0.0
  9
$DIMDLE
 40
0.0
  9
$DIMEXE
 40
2.0
  9
$DIMTP
 40
0.0
  9
$DIMTM
 40
0.0
  9
$DIMTXT
 40
4.0
  9
$DIMCEN
 40
0.09
  9
$DIMTSZ
 40
0.0
  9
$DIMTOL
 70
     0
  9
$DIMLIM
 70
     0
  9
$DIMTIH
 70
     0
  9
$DIMTOH
 70
     0
  9
$DIMSE1
 70
     0
  9
$DIMSE2
 70
     0
  9
$DIMTAD
 70
     3
  9
$DIMZIN
 70
     0
  9
$DIMBLK
  1

  9
$DIMASO
 70
     1
  9
$DIMSHO
 70
     1
  9
$DIMPOST
  1

  9
$DIMAPOST
  1

  9
$DIMALT
 70
     0
  9
$DIMALTD
 70
     2
  9
$DIMALTF
 40
25.4
  9
$DIMLFAC
 40
1.0
  9
$DIMTOFL
 70
     1
  9
$DIMTVP
 40
0.7
  9
$DIMTIX
 70
     0
  9
$DIMSOXD
 70
     0
  9
$DIMSAH
 70
     0
  9
$DIMBLK1
  1

  9
$DIMBLK2
  1

  9
$DIMSTYLE
  2
Standard
  9
$DIMCLRD
 70
     0
  9
$DIMCLRE
 70
     0
  9
$DIMCLRT
 70
     0
  9
$DIMTFAC
 40
0.5
  9
$DIMGAP
 40
0.0
  9
$DIMJUST
 70
     0
  9
$DIMSD1
 70
     0
  9
$DIMSD2
 70
     0
  9
$DIMTOLJ
 70
     1
  9
$DIMTZIN
 70
     0
  9
$DIMALTZ
 70
     0
  9
$DIMALTTZ
 70
     0
  9
$DIMUPT
 70
     0
  9
$DIMDEC
 70
     2
  9
$DIMTDEC
 70
     4
  9
$DIMALTU
 70
     2
  9
$DIMALTTD
 70
     2
  9
$DIMTXSTY
  7
Standard
  9
$DIMAUNIT
 70
     0
  9
$DIMADEC
 70
     0
  9
$DIMALTRND
 40
0.0
  9
$DIMAZIN
 70
     0
  9
$DIMDSEP
 70
     0
  9
$DIMATFIT
 70
     3
  9
$DIMFRAC
 70
     0
  9
$DIMLDRBLK
  1

  9
$DIMLUNIT
 70
     2
  9
$DIMLWD
 70
     0
  9
$DIMLWE
 70
     0
  9
$DIMTMOVE
 70
     0
  9
$LUNITS
 70
     2
  9
$LUPREC
 70
     4
  9
$SKETCHINC
 40
0.1
  9
$FILLETRAD
 40
0.0
  9
$AUNITS
 70
     0
  9
$AUPREC
 70
     0
  9
$MENU
  1
acad
  9
$ELEVATION
 40
0.0
  9
$PELEVATION
 40
0.0
  9
$THICKNESS
 40
0.0
  9
$LIMCHECK
 70
     0
  9
$CHAMFERA
 40
0.0
  9
$CHAMFERB
 40
0.0
  9
$CHAMFERC
 40
0.0
  9
$CHAMFERD
 40
0.0
  9
$SKPOLY
 70
     0
  9
$TDCREATE
 40
2458788.674571759
  9
$TDUCREATE
 40
0.000000000
  9
$TDUPDATE
 40
2458788.674571759
  9
$TDUUPDATE
 40
0.000000000
  9
$TDINDWG
 40
0.0000000000
  9
$TDUSRTIMER
 40
0.0000000000
  9
$USRTIMER
 70
     1
  9
$ANGBASE
 50
0.0
  9
$ANGDIR
 70
     0
  9
$PDMODE
 70
     0
  9
$PDSIZE
 40
0.0
  9
$PLINEWID
 40
0.0
  9
$SPLFRAME
 70
     0
  9
$SPLINETYPE
 70
     6
  9
$SPLINESEGS
 70
     8
  9
$HANDSEED
  5
1BB
  9
$SURFTAB1
 70
     6
  9
$SURFTAB2
 70
     6
  9
$SURFTYPE
 70
     6
  9
$SURFU
 70
     6
  9
$SURFV
 70
     6
  9
$UCSBASE
  2

  9
$UCSNAME
  2

  9
$UCSORG
 10
0.0
 20
0.0
 30
0.0
  9
$UCSXDIR
 10
1.0
 20
0.0
 30
0.0
  9
$UCSYDIR
 10
0.0
 20
1.0
 30
0.0
  9
$UCSORTHOREF
  2

  9
$UCSORTHOVIEW
 70
     0
  9
$UCSORGTOP
 10
0.0
 20
0.0
 30
0.0
  9
$UCSORGBOTTOM
 10
0.0
 20
0.0
 30
0.0
  9
$UCSORGLEFT
 10
0.0
 20
0.0
 30
0.0
  9
$UCSORGRIGHT
 10
0.0
 20
0.0
 30
0.0
  9
$UCSORGFRONT
 10
0.0
 20
0.0
 30
0.0
  9
$UCSORGBACK
 10
0.0
 20
0.0
 30
0.0
  9
$PUCSBASE
  2

  9
$PUCSNAME
  2

  9
$PUCSORG
 10
0.0
 20
0.0
 30
0.0
  9
$PUCSXDIR
 10
1.0
 20
0.0
 30
0.0
  9
$PUCSYDIR
 10
0.0
 20
1.0
 30
0.0
  9
$PUCSORTHOREF
  2

  9
$PUCSORTHOVIEW
 70
     0
  9
$PUCSORGTOP
 10
0.0
 20
0.0
 30
0.0
  9
$PUCSORGBOTTOM
 10
0.0
 20
0.0
 30
0.0
  9
$PUCSORGLEFT
 10
0.0
 20
0.0
 30
0.0
  9
$PUCSORGRIGHT
 10
0.0
 20
0.0
 30
0.0
  9
$PUCSORGFRONT
 10
0.0
 20
0.0
 30
0.0
  9
$PUCSORGBACK
 10
0.0
 20
0.0
 30
0.0
  9
$USERI1
 70
     0
  9
$USERI2
 70
     0
  9
$USERI3
 70
     0
  9
$USERI4
 70
     0
  9
$USERI5
 70
     0
  9
$USERR1
 40
0.0
  9
$USERR2
 40
0.0
  9
$USERR3
 40
0.0
  9
$USERR4
 40
0.0
  9
$USERR5
 40
0.0
  9
$WORLDVIEW
 70
     1
  9
$SHADEDGE
 70
     3
  9
$SHADEDIF
 70
    70
  9
$TILEMODE
 70
     1
  9
$MAXACTVP
 70
    16
  9
$PINSBASE
 10
0.0
 20
0.0
 30
0.0
  9
$PLIMCHECK
 70
     0
  9
$PEXTMIN
 10
0.0
 20
0.0
 30
0.0
  9
$PEXTMAX
 10
420.0
 20
297.0
 30
0.0
  9
$PLIMMIN
 10
0.0
 20
0.0
  9
$PLIMMAX
 10
420.0
 20
297.0
  9
$UNITMODE
 70
     0
  9
$VISRETAIN
 70
     0
  9
$PLINEGEN
 70
     1
  9
$PSLTSCALE
 70
     0
  9
$TREEDEPTH
 70
  3020
  9
$CMLSTYLE
  2
Standard
  9
$CMLJUST
 70
     0
  9
$CMLSCALE
 40
1.0
  9
$PROXYGRAPHICS
 70
     0
  9
$MEASUREMENT
 70
     0
  9
$CELWEIGHT
370
     0
  9
$ENDCAPS
280
     0
  9
$JOINSTYLE
280
     0
  9
$LWDISPLAY
290
     0
  9
$INSUNITS
 70
     0
  9
$HYPERLINKBASE
  1

  9
$STYLESHEET
  1

  9
$XEDIT
290
     1
  9
$CEPSNTYPE
380
     0
  9
$PSTYLEMODE
290
     1
  9
$FINGERPRINTGUID
  2

  9
$VERSIONGUID
  2

  9
$EXTNAMES
290
     1
  9
$PSVPSCALE
 40
0.0
  0
ENDSEC
  0
SECTION
  2
CLASSES
  0
CLASS
  1
LWPOLYLINE
  2
AcDbPolyline
  3
AutoCAD 2000
 90
    32768
280
     0
281
     1
  0
CLASS
  1
IMAGE
  2
AcDbRasterImage
  3
ISM
 90
    32895
280
     0
281
     1
  0
CLASS
  1
OLE2FRAME
  2
AcDbOle2Frame
  3
AutoCAD 2000
 90
    32768
280
     0
281
     1
  0
CLASS
  1
HATCH
  2
AcDbHatch
  3
AutoCAD 2000
 90
    32768
280
     0
281
     1
  0
CLASS
  1
DICTIONARYVAR
  2
AcDbDictionaryVar
  3
AutoCAD 2000
 90
    32768
280
     0
281
     0
  0
CLASS
  1
RASTERVARIABLES
  2
AcDbRasterVariables
  3
ISM
 90
    32768
280
     0
281
     0
  0
CLASS
  1
IMAGEDEF
  2
AcDbRasterImageDef
  3
ISM
 90
    32768
280
     0
281
     0
  0
CLASS
  1
IMAGEDEF_REACTOR
  2
AcDbRasterImageDefReactor
  3
ISM
 90
    32769
280
     0
281
     0
  0
CLASS
  1
IDBUFFER
  2
AcDbIdBuffer
  3
AutoCAD 2000
 90
    32768
280
     0
281
     0
  0
CLASS
  1
SPATIAL_FILTER
  2
AcDbSpatialFilter
  3
AutoCAD 2000
 90
    32768
280
     0
281
     0
  0
CLASS
  1
XRECORD
  2
AcDbXrecord
  3
AutoCAD 2000
 90
    32768
280
     0
281
     0
  0
CLASS
  1
SORTENTSTABLE
  2
AcDbSortentsTable
  3
AutoCAD 2000
 90
    32768
280
     0
281
     0
  0
CLASS
  1
LAYER_INDEX
  2
AcDbLayerIndex
  3
AutoCAD 2000
 90
    32768
280
     0
281
     0
  0
CLASS
  1
SPATIAL_INDEX
  2
AcDbSpatialIndex
  3
AutoCAD 2000
 90
    32768
280
     0
281
     0
  0
CLASS
  1
OBJECT_PTR
  2
CAseDLPNTableRecord
  3
"ASE-LPNTableRecord"
 90
    32769
280
     0
281
     0
  0
CLASS
  1
LAYOUT
  2
AcDbLayout
  3
AutoCAD 2000
 90
        0
280
     0
281
     0
  0
CLASS
  1
PLOTSETTINGS
  2
AcDbPlotSettings
  3
AutoCAD 2000
 90
    32768
280
     0
281
     0
  0
CLASS
  1
ACDBDICTIONARYWDFLT
  2
AcDbDictionaryWithDefault
  3
AutoCAD 2000
 90
        0
280
     0
281
     0
  0
CLASS
  1
ACDBPLACEHOLDER
  2
AcDbPlaceHolder
  3
AutoCAD 2000
 90
        0
280
     0
281
     0
  0
CLASS
  1
VBA_PROJECT
  2
AcDbVbaProject
  3
acadvba
 90
    32768
280
     0
281
     0
  0
CLASS
  1
WIPEOUT
  2
AcDbWipeout
  3
WipeOut|AutoCAD Express Tool|expresstools@autodesk.com
 90
    32895
280
     0
281
     1
  0
CLASS
  1
WIPEOUTVARIABLES
  2
AcDbWipeoutVariables
  3
WipeOut|AutoCAD Express Tool|expresstools@autodesk.com
 90
        0
280
     0
281
     0
  0
CLASS
  1
RTEXT
  2
RText
  3
RText|AutoCAD Express Tool|expresstools@autodesk.com
 90
    32768
280
     0
281
     1
  0
CLASS
  1
ARCALIGNEDTEXT
  2
AcDbArcAlignedText
  3
ATEXT|AutoCAD Express Tool|expresstools@autodesk.com
 90
    32768
280
     0
281
     1
  0
ENDSEC
  0
SECTION
  2
TABLES
  0
TABLE
  2
VPORT
  5
7
100
AcDbSymbolTable
 70
     1
  0
VPORT
  5
15
100
AcDbSymbolTableRecord
100
AcDbViewportTableRecord
  2
*ACTIVE
 70
     0
 10
0.0
 20
0.0
 11
1.0
 21
1.0
 12
6.591288
 22
4.579184
 13
0.0
 23
0.0
 14
1.0
 24
1.0
 15
0.0
 25
0.0
 16
0.0
 26
0.0
 36
1.0
 17
0.0
 27
0.0
 37
0.0
 40
9.158369
 41
0.688564
 42
50.0
 43
0.0
 44
0.0
 50
0.0
 51
0.0
 71
     0
 72
   100
 73
     1
 74
     1
 75
     0
 76
     0
 77
     0
 78
     0
281
     0
 65
     0
110
0.0
120
0.0
130
0.0
111
1.0
121
0.0
131
0.0
112
0.0
122
1.0
132
0.0
345
0
346
0
 79
     0
146
0.0
  0
ENDTAB
  0
TABLE
  2
LTYPE
  5
4
100
AcDbSymbolTable
 70
     9
  0
LTYPE
  5
11
100
AcDbSymbolTableRecord
100
AcDbLinetypeTableRecord
  2
ByBlock
 70
    64
  3

 72
    65
 73
     0
 40
0.0
  0
LTYPE
  5
12
100
AcDbSymbolTableRecord
100
AcDbLinetypeTableRecord
  2
ByLayer
 70
    64
  3

 72
    65
 73
     0
 40
0.0
  0
LTYPE
  5
13
100
AcDbSymbolTableRecord
100
AcDbLinetypeTableRecord
  2
Continuous
 70
    64
  3
Solid line
 72
    65
 73
     0
 40
0.0
  0
LTYPE
  5
25
100
AcDbSymbolTableRecord
100
AcDbLinetypeTableRecord
  2
HIDDEN
 70
    64
  3
- - - - - - - - 
 72
    65
 73
     2
 40
12.6
 49
8.4
 74
     0
 49
-4.2
 74
     0
  0
LTYPE
  5
26
100
AcDbSymbolTableRecord
100
AcDbLinetypeTableRecord
  2
DOT
 70
    64
  3
･ ･ ･ ･ ･ ･ ･ ･ 
 72
    65
 73
     2
 40
8.0
 49
6.0
 74
     0
 49
-2.0
 74
     0
  0
LTYPE
  5
27
100
AcDbSymbolTableRecord
100
AcDbLinetypeTableRecord
  2
CENTER
 70
    64
  3
- ･ - ･ - ･ - ･ 
 72
    65
 73
     4
 40
50.5
 49
30.0
 74
     0
 49
-9.0
 74
     0
 49
2.5
 74
     0
 49
-9.0
 74
     0
  0
LTYPE
  5
28
100
AcDbSymbolTableRecord
100
AcDbLinetypeTableRecord
  2
PHANTOM
 70
    64
  3
- ･･ - ･･ - ･･ - ･･ 
 72
    65
 73
     6
 40
58.0
 49
30.0
 74
     0
 49
-9.0
 74
     0
 49
2.5
 74
     0
 49
-5.0
 74
     0
 49
2.5
 74
     0
 49
-9.0
 74
     0
  0
LTYPE
  5
29
100
AcDbSymbolTableRecord
100
AcDbLinetypeTableRecord
  2
ACAD_ISO06W100
 70
    64
  3
____ ... ____ ... ____
 72
    65
 73
     8
 40
37.5
 49
24.0
 74
     0
 49
-3.0
 74
     0
 49
0.5
 74
     0
 49
-3.0
 74
     0
 49
0.5
 74
     0
 49
-3.0
 74
     0
 49
0.5
 74
     0
 49
-3.0
 74
     0
  0
LTYPE
  5
2A
100
AcDbSymbolTableRecord
100
AcDbLinetypeTableRecord
  2
ACAD_ISO14W100
 70
    64
  3
__ . . . __ . . . __ . . . 
 72
    65
 73
     8
 40
25.5
 49
12.0
 74
     0
 49
-3.0
 74
     0
 49
0.5
 74
     0
 49
-3.0
 74
     0
 49
0.5
 74
     0
 49
-3.0
 74
     0
 49
0.5
 74
     0
 49
-3.0
 74
     0
  0
ENDTAB
  0
TABLE
  2
LAYER
  5
2
100
AcDbSymbolTable
 70
    73
  0
LAYER
  5
14
100
AcDbSymbolTableRecord
100
AcDbLayerTableRecord
  2
0
 70
     0
 62
     7
  6
Continuous
290
     1
370
    -3
390
1D
  0
LAYER
  5
2B
100
AcDbSymbolTableRecord
100
AcDbLayerTableRecord
  2
1
 70
     0
 62
     7
  6
Continuous
290
     1
370
    -3
390
1D
  0
LAYER
  5
2C
100
AcDbSymbolTableRecord
100
AcDbLayerTableRecord
  2
2
 70
     0
 62
   134
  6
Continuous
290
     1
370
    -3
390
1D
  0
LAYER
  5
2D
100
AcDbSymbolTableRecord
100
AcDbLayerTableRecord
  2
3
 70
     0
 62
   214
  6
Continuous
290
     1
370
    -3
390
1D
  0
LAYER
  5
2E
100
AcDbSymbolTableRecord
100
AcDbLayerTableRecord
  2
4
 70
     0
 62
    54
  6
Continuous
290
     1
370
    -3
390
1D
  0
LAYER
  5
2F
100
AcDbSymbolTableRecord
100
AcDbLayerTableRecord
  2
5
 70
     0
 62
    94
  6
Continuous
290
     1
370
    -3
390
1D
  0
LAYER
  5
30
100
AcDbSymbolTableRecord
100
AcDbLayerTableRecord
  2
6
 70
     0
 62
    14
  6
Continuous
290
     1
370
    -3
390
1D
  0
LAYER
  5
31
100
AcDbSymbolTableRecord
100
AcDbLayerTableRecord
  2
7
 70
     0
 62
     4
  6
Continuous
290
     1
370
    -3
390
1D
  0
LAYER
  5
32
100
AcDbSymbolTableRecord
100
AcDbLayerTableRecord
  2
8
 70
     0
 62
     6
  6
Continuous
290
     1
370
    -3
390
1D
  0
LAYER
  5
33
100
AcDbSymbolTableRecord
100
AcDbLayerTableRecord
  2
9
 70
     0
 62
     2
  6
Continuous
290
     1
370
    -3
390
1D
  0
LAYER
  5
34
100
AcDbSymbolTableRecord
100
AcDbLayerTableRecord
  2
10
 70
     0
 62
     3
  6
Continuous
290
     1
370
    -3
390
1D
  0
LAYER
  5
35
100
AcDbSymbolTableRecord
100
AcDbLayerTableRecord
  2
11
 70
     0
 62
   251
  6
Continuous
290
     1
370
    -3
390
1D
  0
LAYER
  5
36
100
AcDbSymbolTableRecord
100
AcDbLayerTableRecord
  2
12
 70
     0
 62
   136
  6
Continuous
290
     1
370
    -3
390
1D
  0
LAYER
  5
37
100
AcDbSymbolTableRecord
100
AcDbLayerTableRecord
  2
13
 70
     0
 62
   216
  6
Continuous
290
     1
370
    -3
390
1D
  0
LAYER
  5
38
100
AcDbSymbolTableRecord
100
AcDbLayerTableRecord
  2
14
 70
     0
 62
    56
  6
Continuous
290
     1
370
    -3
390
1D
  0
LAYER
  5
39
100
AcDbSymbolTableRecord
100
AcDbLayerTableRecord
  2
15
 70
     0
 62
    96
  6
Continuous
290
     1
370
    -3
390
1D
  0
LAYER
  5
3A
100
AcDbSymbolTableRecord
100
AcDbLayerTableRecord
  2
16
 70
     0
 62
    16
  6
Continuous
290
     1
370
    -3
390
1D
  0
LAYER
  5
3B
100
AcDbSymbolTableRecord
100
AcDbLayerTableRecord
  2
17
 70
     0
 62
   132
  6
Continuous
290
     1
370
    -3
390
1D
  0
LAYER
  5
3C
100
AcDbSymbolTableRecord
100
AcDbLayerTableRecord
  2
18
 70
     0
 62
   212
  6
Continuous
290
     1
370
    -3
390
1D
  0
LAYER
  5
3D
100
AcDbSymbolTableRecord
100
AcDbLayerTableRecord
  2
19
 70
     0
 62
    52
  6
Continuous
290
     1
370
    -3
390
1D
  0
LAYER
  5
3E
100
AcDbSymbolTableRecord
100
AcDbLayerTableRecord
  2
20
 70
     0
 62
     6
  6
Continuous
290
     1
370
    -3
390
1D
  0
LAYER
  5
3F
100
AcDbSymbolTableRecord
100
AcDbLayerTableRecord
  2
21
 70
     0
 62
     3
  6
Continuous
290
     1
370
    -3
390
1D
  0
LAYER
  5
40
100
AcDbSymbolTableRecord
100
AcDbLayerTableRecord
  2
22
 70
     0
 62
     7
  6
Continuous
290
     1
370
    -3
390
1D
  0
LAYER
  5
41
100
AcDbSymbolTableRecord
100
AcDbLayerTableRecord
  2
23
 70
     0
 62
    21
  6
Continuous
290
     1
370
    -3
390
1D
  0
LAYER
  5
42
100
AcDbSymbolTableRecord
100
AcDbLayerTableRecord
  2
24
 70
     0
 62
   214
  6
Continuous
290
     1
370
    -3
390
1D
  0
LAYER
  5
43
100
AcDbSymbolTableRecord
100
AcDbLayerTableRecord
  2
25
 70
     0
 62
   251
  6
Continuous
290
     1
370
    -3
390
1D
  0
LAYER
  5
44
100
AcDbSymbolTableRecord
100
AcDbLayerTableRecord
  2
26
 70
     0
 62
     3
  6
Continuous
290
     1
370
    -3
390
1D
  0
LAYER
  5
45
100
AcDbSymbolTableRecord
100
AcDbLayerTableRecord
  2
27
 70
     0
 62
     3
  6
Continuous
290
     1
370
    -3
390
1D
  0
LAYER
  5
46
100
AcDbSymbolTableRecord
100
AcDbLayerTableRecord
  2
28
 70
     0
 62
     1
  6
Continuous
290
     1
370
    -3
390
1D
  0
LAYER
  5
47
100
AcDbSymbolTableRecord
100
AcDbLayerTableRecord
  2
29
 70
     0
 62
     4
  6
Continuous
290
     1
370
    -3
390
1D
  0
LAYER
  5
48
100
AcDbSymbolTableRecord
100
AcDbLayerTableRecord
  2
30
 70
     0
 62
     6
  6
Continuous
290
     1
370
    -3
390
1D
  0
LAYER
  5
49
100
AcDbSymbolTableRecord
100
AcDbLayerTableRecord
  2
31
 70
     0
 62
     2
  6
Continuous
290
     1
370
    -3
390
1D
  0
LAYER
  5
4A
100
AcDbSymbolTableRecord
100
AcDbLayerTableRecord
  2
32
 70
     0
 62
     7
  6
Continuous
290
     1
370
    -3
390
1D
  0
LAYER
  5
4B
100
AcDbSymbolTableRecord
100
AcDbLayerTableRecord
  2
33
 70
     0
 62
     7
  6
Continuous
290
     1
370
    -3
390
1D
  0
LAYER
  5
4C
100
AcDbSymbolTableRecord
100
AcDbLayerTableRecord
  2
34
 70
     0
 62
   253
  6
Continuous
290
     1
370
    -3
390
1D
  0
LAYER
  5
4D
100
AcDbSymbolTableRecord
100
AcDbLayerTableRecord
  2
35
 70
     0
 62
     7
  6
Continuous
290
     1
370
    -3
390
1D
  0
LAYER
  5
4E
100
AcDbSymbolTableRecord
100
AcDbLayerTableRecord
  2
36
 70
     0
 62
    94
  6
Continuous
290
     1
370
    -3
390
1D
  0
LAYER
  5
4F
100
AcDbSymbolTableRecord
100
AcDbLayerTableRecord
  2
37
 70
     0
 62
    14
  6
Continuous
290
     1
370
    -3
390
1D
  0
LAYER
  5
50
100
AcDbSymbolTableRecord
100
AcDbLayerTableRecord
  2
38
 70
     0
 62
   134
  6
Continuous
290
     1
370
    -3
390
1D
  0
LAYER
  5
51
100
AcDbSymbolTableRecord
100
AcDbLayerTableRecord
  2
39
 70
     0
 62
    54
  6
Continuous
290
     1
370
    -3
390
1D
  0
LAYER
  5
52
100
AcDbSymbolTableRecord
100
AcDbLayerTableRecord
  2
40
 70
     0
 62
   214
  6
Continuous
290
     1
370
    -3
390
1D
  0
LAYER
  5
53
100
AcDbSymbolTableRecord
100
AcDbLayerTableRecord
  2
41
 70
     0
 62
     7
  6
Continuous
290
     1
370
    -3
390
1D
  0
LAYER
  5
54
100
AcDbSymbolTableRecord
100
AcDbLayerTableRecord
  2
42
 70
     0
 62
     5
  6
Continuous
290
     1
370
    -3
390
1D
  0
LAYER
  5
55
100
AcDbSymbolTableRecord
100
AcDbLayerTableRecord
  2
43
 70
     0
 62
     3
  6
Continuous
290
     1
370
    -3
390
1D
  0
LAYER
  5
56
100
AcDbSymbolTableRecord
100
AcDbLayerTableRecord
  2
44
 70
     0
 62
     1
  6
Continuous
290
     1
370
    -3
390
1D
  0
LAYER
  5
57
100
AcDbSymbolTableRecord
100
AcDbLayerTableRecord
  2
45
 70
     0
 62
     3
  6
Continuous
290
     1
370
    -3
390
1D
  0
LAYER
  5
58
100
AcDbSymbolTableRecord
100
AcDbLayerTableRecord
  2
46
 70
     0
 62
     6
  6
Continuous
290
     1
370
    -3
390
1D
  0
LAYER
  5
59
100
AcDbSymbolTableRecord
100
AcDbLayerTableRecord
  2
47
 70
     0
 62
     2
  6
Continuous
290
     1
370
    -3
390
1D
  0
LAYER
  5
5A
100
AcDbSymbolTableRecord
100
AcDbLayerTableRecord
  2
48
 70
     0
 62
     7
  6
Continuous
290
     1
370
    -3
390
1D
  0
LAYER
  5
5B
100
AcDbSymbolTableRecord
100
AcDbLayerTableRecord
  2
49
 70
     0
 62
     7
  6
Continuous
290
     1
370
    -3
390
1D
  0
LAYER
  5
5C
100
AcDbSymbolTableRecord
100
AcDbLayerTableRecord
  2
50
 70
     0
 62
   253
  6
Continuous
290
     1
370
    -3
390
1D
  0
LAYER
  5
5D
100
AcDbSymbolTableRecord
100
AcDbLayerTableRecord
  2
51
 70
     0
 62
   174
  6
Continuous
290
     1
370
    -3
390
1D
  0
LAYER
  5
5E
100
AcDbSymbolTableRecord
100
AcDbLayerTableRecord
  2
52
 70
     0
 62
    94
  6
Continuous
290
     1
370
    -3
390
1D
  0
LAYER
  5
5F
100
AcDbSymbolTableRecord
100
AcDbLayerTableRecord
  2
53
 70
     0
 62
    14
  6
Continuous
290
     1
370
    -3
390
1D
  0
LAYER
  5
60
100
AcDbSymbolTableRecord
100
AcDbLayerTableRecord
  2
54
 70
     0
 62
     3
  6
Continuous
290
     1
370
    -3
390
1D
  0
LAYER
  5
61
100
AcDbSymbolTableRecord
100
AcDbLayerTableRecord
  2
55
 70
     0
 62
    54
  6
Continuous
290
     1
370
    -3
390
1D
  0
LAYER
  5
62
100
AcDbSymbolTableRecord
100
AcDbLayerTableRecord
  2
56
 70
     0
 62
   214
  6
Continuous
290
     1
370
    -3
390
1D
  0
LAYER
  5
63
100
AcDbSymbolTableRecord
100
AcDbLayerTableRecord
  2
57
 70
     0
 62
     3
  6
Continuous
290
     1
370
    -3
390
1D
  0
LAYER
  5
64
100
AcDbSymbolTableRecord
100
AcDbLayerTableRecord
  2
58
 70
     0
 62
     5
  6
Continuous
290
     1
370
    -3
390
1D
  0
LAYER
  5
65
100
AcDbSymbolTableRecord
100
AcDbLayerTableRecord
  2
59
 70
     0
 62
     3
  6
Continuous
290
     1
370
    -3
390
1D
  0
LAYER
  5
66
100
AcDbSymbolTableRecord
100
AcDbLayerTableRecord
  2
60
 70
     0
 62
     1
  6
Continuous
290
     1
370
    -3
390
1D
  0
LAYER
  5
67
100
AcDbSymbolTableRecord
100
AcDbLayerTableRecord
  2
61
 70
     0
 62
     4
  6
Continuous
290
     1
370
    -3
390
1D
  0
LAYER
  5
68
100
AcDbSymbolTableRecord
100
AcDbLayerTableRecord
  2
62
 70
     0
 62
     6
  6
Continuous
290
     1
370
    -3
390
1D
  0
LAYER
  5
69
100
AcDbSymbolTableRecord
100
AcDbLayerTableRecord
  2
63
 70
     0
 62
     2
  6
Continuous
290
     1
370
    -3
390
1D
  0
LAYER
  5
6A
100
AcDbSymbolTableRecord
100
AcDbLayerTableRecord
  2
64
 70
     0
 62
     7
  6
Continuous
290
     1
370
    -3
390
1D
  0
LAYER
  5
6B
100
AcDbSymbolTableRecord
100
AcDbLayerTableRecord
  2
103
 70
     0
 62
     3
  6
Continuous
290
     1
370
    -3
390
1D
  0
LAYER
  5
6C
100
AcDbSymbolTableRecord
100
AcDbLayerTableRecord
  2
128
 70
     0
 62
     7
  6
Continuous
290
     1
370
    -3
390
1D
  0
LAYER
  5
6D
100
AcDbSymbolTableRecord
100
AcDbLayerTableRecord
  2
145
 70
     0
 62
     3
  6
Continuous
290
     1
370
    -3
390
1D
  0
LAYER
  5
6E
100
AcDbSymbolTableRecord
100
AcDbLayerTableRecord
  2
242
 70
     0
 62
     3
  6
Continuous
290
     1
370
    -3
390
1D
  0
LAYER
  5
6F
100
AcDbSymbolTableRecord
100
AcDbLayerTableRecord
  2
244
 70
     0
 62
     3
  6
Continuous
290
     1
370
    -3
390
1D
  0
LAYER
  5
70
100
AcDbSymbolTableRecord
100
AcDbLayerTableRecord
  2
245
 70
     0
 62
     3
  6
Continuous
290
     1
370
    -3
390
1D
  0
LAYER
  5
71
100
AcDbSymbolTableRecord
100
AcDbLayerTableRecord
  2
255
 70
     0
 62
     3
  6
Continuous
290
     1
370
    -3
390
1D
  0
LAYER
  5
72
100
AcDbSymbolTableRecord
100
AcDbLayerTableRecord
  2
256
 70
     0
 62
     3
  6
Continuous
290
     1
370
    -3
390
1D
  0
ENDTAB
  0
TABLE
  2
STYLE
  5
3
100
AcDbSymbolTable
 70
     2
  0
STYLE
  5
17
100
AcDbSymbolTableRecord
100
AcDbTextStyleTableRecord
  2
Standard
 70
     0
 40
0.0
 41
1.0
 50
0.0
 71
     0
 42
0.0
  3
txt
  4
bigfont
  0
STYLE
  5
24
100
AcDbSymbolTableRecord
100
AcDbTextStyleTableRecord
  2
T_STANDARD
 70
    68
 40
10.0
 41
1.0
 50
0.0
 71
     0
 42
10.0
  3
txt
  4
bigfont
  0
ENDTAB
  0
TABLE
  2
VIEW
  5
5
100
AcDbSymbolTable
 70
     0
  0
ENDTAB
  0
TABLE
  2
UCS
  5
6
100
AcDbSymbolTable
 70
     0
  0
ENDTAB
  0
TABLE
  2
APPID
  5
8
100
AcDbSymbolTable
 70
     1
  0
APPID
  5
16
100
AcDbSymbolTableRecord
100
AcDbRegAppTableRecord
  2
ACAD
 70
     0
  0
ENDTAB
  0
TABLE
  2
DIMSTYLE
  5
9
100
AcDbSymbolTable
 70
     1
100
AcDbDimStyleTable
 71
     0
  0
DIMSTYLE
105
18
100
AcDbSymbolTableRecord
100
AcDbDimStyleTableRecord
  2
Standard
 70
     0
  3

  4

 40
1.0
 41
0.18
 42
0.0625
 43
0.38
 44
0.18
 45
0.0
 46
0.0
 47
0.0
 48
0.0
 71
     0
 72
     0
 73
     1
 74
     1
 75
     0
 76
     0
 77
     0
 78
     0
 79
     0
140
0.18
141
0.09
142
0.0
143
25.4
144
1.0
145
0.0
146
1.0
147
0.09
148
0.0
170
     0
171
     2
172
     0
173
     0
174
     0
175
     0
176
     0
177
     0
178
     0
179
     0
271
     4
272
     4
273
     2
274
     2
275
     0
276
     0
277
     2
278
    46
279
     0
280
     0
281
     0
282
     0
283
     1
284
     0
285
     0
286
     0
288
     0
340
17
341
0
342
0
343
0
344
0
371
    -2
372
    -2
  0
ENDTAB
  0
TABLE
  2
BLOCK_RECORD
  5
1
100
AcDbSymbolTable
 70
     7
  0
BLOCK_RECORD
  5
A
100
AcDbSymbolTableRecord
100
AcDbBlockTableRecord
  2
*MODEL_SPACE
340
20
  0
BLOCK_RECORD
  5
B
100
AcDbSymbolTableRecord
100
AcDbBlockTableRecord
  2
*PAPER_SPACE
340
21
  0
BLOCK_RECORD
  5
73
100
AcDbSymbolTableRecord
100
AcDbBlockTableRecord
  2
*G0
340
0
102
{BLKREFS
331
76
102
}
  0
BLOCK_RECORD
  5
10A
100
AcDbSymbolTableRecord
100
AcDbBlockTableRecord
  2
*G1
340
0
102
{BLKREFS
331
115
102
}
  0
BLOCK_RECORD
  5
140
100
AcDbSymbolTableRecord
100
AcDbBlockTableRecord
  2
*G2
340
0
102
{BLKREFS
331
147
102
}
  0
BLOCK_RECORD
  5
148
100
AcDbSymbolTableRecord
100
AcDbBlockTableRecord
  2
*D3
340
0
  0
BLOCK_RECORD
  5
154
100
AcDbSymbolTableRecord
100
AcDbBlockTableRecord
  2
*D4
340
0
  0
BLOCK_RECORD
  5
160
100
AcDbSymbolTableRecord
100
AcDbBlockTableRecord
  2
*D5
340
0
  0
BLOCK_RECORD
  5
1A6
100
AcDbSymbolTableRecord
100
AcDbBlockTableRecord
  2
*G6
340
0
102
{BLKREFS
331
1AA
102
}
  0
ENDTAB
  0
ENDSEC
  0
SECTION
  2
BLOCKS
  0
BLOCK
  5
D
100
AcDbEntity
  8
0
100
AcDbBlockBegin
  2
*MODEL_SPACE
 70
     0
 10
0.0
 20
0.0
 30
0.0
  3
*MODEL_SPACE
  1

  0
ENDBLK
  5
E
100
AcDbEntity
  8
0
100
AcDbBlockEnd
  0
BLOCK
  5
F
100
AcDbEntity
 67
     1
  8
0
100
AcDbBlockBegin
  2
*PAPER_SPACE
 70
     0
 10
0.0
 20
0.0
 30
0.0
  3
*PAPER_SPACE
  1

  0
ENDBLK
  5
10
100
AcDbEntity
 67
     1
  8
0
100
AcDbBlockEnd
  0
BLOCK
  5
74
100
AcDbEntity
  8
0
370
     9
  6
Continuous
 62
     7
100
AcDbBlockBegin
  2
*G0
 70
     0
 10
0.0
 20
0.0
 30
0.0
  3
*G0
  1

  0
ENDBLK
  5
75
100
AcDbEntity
  8
0
100
AcDbBlockEnd
  0
BLOCK
  5
10B
100
AcDbEntity
  8
0
370
     9
  6
Continuous
 62
     7
100
AcDbBlockBegin
  2
*G1
 70
     0
 10
0.0
 20
0.0
 30
0.0
  3
*G1
  1

  0
LINE
  5
10C
100
AcDbEntity
  8
1
370
     9
  6
Continuous
 62
     7
100
AcDbLine
 10
97.05
 20
62.954082
 30
0.0
 11
177.15
 21
62.954082
 31
0.0
  0
ARC
  5
10D
100
AcDbEntity
  8
1
370
     9
  6
Continuous
 62
     7
100
AcDbCircle
 10
97.05
 20
65.954082
 30
0.0
 40
3.0
100
AcDbArc
 50
180.0
 51
-90.0
  0
LINE
  5
10E
100
AcDbEntity
  8
1
370
     9
  6
Continuous
 62
     7
100
AcDbLine
 10
94.05
 20
65.954082
 30
0.0
 11
94.05
 21
113.954082
 31
0.0
  0
ARC
  5
10F
100
AcDbEntity
  8
1
370
     9
  6
Continuous
 62
     7
100
AcDbCircle
 10
97.05
 20
113.954082
 30
0.0
 40
3.0
100
AcDbArc
 50
90.0
 51
180.0
  0
LINE
  5
110
100
AcDbEntity
  8
1
370
     9
  6
Continuous
 62
     7
100
AcDbLine
 10
177.15
 20
116.954082
 30
0.0
 11
97.05
 21
116.954082
 31
0.0
  0
ARC
  5
111
100
AcDbEntity
  8
1
370
     9
  6
Continuous
 62
     7
100
AcDbCircle
 10
177.15
 20
65.954082
 30
0.0
 40
3.0
100
AcDbArc
 50
-90.0
 51
0.0
  0
LINE
  5
112
100
AcDbEntity
  8
1
370
     9
  6
Continuous
 62
     7
100
AcDbLine
 10
180.15
 20
113.954082
 30
0.0
 11
180.15
 21
65.954082
 31
0.0
  0
ARC
  5
113
100
AcDbEntity
  8
1
370
     9
  6
Continuous
 62
     7
100
AcDbCircle
 10
177.15
 20
113.954082
 30
0.0
 40
3.0
100
AcDbArc
 50
0.0
 51
90.0
  0
ENDBLK
  5
114
100
AcDbEntity
  8
0
100
AcDbBlockEnd
  0
BLOCK
  5
141
100
AcDbEntity
  8
0
370
     9
  6
Continuous
 62
     7
100
AcDbBlockBegin
  2
*G2
 70
     0
 10
0.0
 20
0.0
 30
0.0
  3
*G2
  1

  0
LINE
  5
142
100
AcDbEntity
  8
1
370
     9
  6
Continuous
 62
     7
100
AcDbLine
 10
208.960002
 20
210.953
 30
0.0
 11
209.760002
 21
210.953
 31
0.0
  0
LINE
  5
143
100
AcDbEntity
  8
1
370
     9
  6
Continuous
 62
     7
100
AcDbLine
 10
209.760002
 20
210.953
 30
0.0
 11
209.760002
 21
156.953
 31
0.0
  0
LINE
  5
144
100
AcDbEntity
  8
1
370
     9
  6
Continuous
 62
     7
100
AcDbLine
 10
209.760002
 20
156.953
 30
0.0
 11
208.960002
 21
156.953
 31
0.0
  0
LINE
  5
145
100
AcDbEntity
  8
1
370
     9
  6
Continuous
 62
     7
100
AcDbLine
 10
208.960002
 20
156.953
 30
0.0
 11
208.960002
 21
210.953
 31
0.0
  0
ENDBLK
  5
146
100
AcDbEntity
  8
0
100
AcDbBlockEnd
  0
BLOCK
  5
149
100
AcDbEntity
  8
1
370
     9
  6
Continuous
 62
     7
100
AcDbBlockBegin
  2
*D3
 70
     0
 10
0.0
 20
0.0
 30
0.0
  3
*D3
  1

  0
LINE
  5
14A
100
AcDbEntity
  8
1
370
     9
  6
Continuous
 62
     7
100
AcDbLine
 10
94.05
 20
221.052001
 30
0.0
 11
179.650001
 21
221.052001
 31
0.0
  0
LINE
  5
14B
100
AcDbEntity
  8
1
370
     9
  6
Continuous
 62
     7
100
AcDbLine
 10
94.05
 20
223.052001
 30
0.0
 11
94.05
 21
209.953
 31
0.0
  0
LINE
  5
14C
100
AcDbEntity
  8
1
370
     9
  6
Continuous
 62
     7
100
AcDbLine
 10
179.650001
 20
223.052001
 30
0.0
 11
179.650001
 21
209.953
 31
0.0
  0
LINE
  5
14D
100
AcDbEntity
  8
1
370
     9
  6
Continuous
 62
     7
100
AcDbLine
 10
94.05
 20
221.052001
 30
0.0
 11
96.368222
 21
221.673167
 31
0.0
  0
LINE
  5
14E
100
AcDbEntity
  8
1
370
     9
  6
Continuous
 62
     7
100
AcDbLine
 10
94.05
 20
221.052001
 30
0.0
 11
96.368222
 21
220.430835
 31
0.0
  0
LINE
  5
14F
100
AcDbEntity
  8
1
370
     9
  6
Continuous
 62
     7
100
AcDbLine
 10
179.650001
 20
221.052001
 30
0.0
 11
177.331779
 21
220.430835
 31
0.0
  0
LINE
  5
150
100
AcDbEntity
  8
1
370
     9
  6
Continuous
 62
     7
100
AcDbLine
 10
179.650001
 20
221.052001
 30
0.0
 11
177.331779
 21
221.673167
 31
0.0
  0
TEXT
  5
151
100
AcDbEntity
  8
1
370
     9
  6
Continuous
 62
     7
100
AcDbText
 10
133.550001
 20
221.552001
 30
0.0
 40
3.0
  1
85.6
 41
0.611111
 11
133.550001
 21
221.552001
 31
0.0
100
AcDbText
 73
     1
  0
ENDBLK
  5
152
100
AcDbEntity
  8
1
370
     9
  6
Continuous
 62
     7
100
AcDbBlockEnd
  0
BLOCK
  5
155
100
AcDbEntity
  8
1
370
     9
  6
Continuous
 62
     7
100
AcDbBlockBegin
  2
*D4
 70
     0
 10
0.0
 20
0.0
 30
0.0
  3
*D4
  1

  0
LINE
  5
156
100
AcDbEntity
  8
1
370
     9
  6
Continuous
 62
     7
100
AcDbLine
 10
192.618001
 20
156.953
 30
0.0
 11
192.618001
 21
210.953
 31
0.0
  0
LINE
  5
157
100
AcDbEntity
  8
1
370
     9
  6
Continuous
 62
     7
100
AcDbLine
 10
194.618001
 20
156.953
 30
0.0
 11
178.650001
 21
156.953
 31
0.0
  0
LINE
  5
158
100
AcDbEntity
  8
1
370
     9
  6
Continuous
 62
     7
100
AcDbLine
 10
194.618001
 20
210.953
 30
0.0
 11
178.650003
 21
210.953
 31
0.0
  0
LINE
  5
159
100
AcDbEntity
  8
1
370
     9
  6
Continuous
 62
     7
100
AcDbLine
 10
192.618001
 20
156.953
 30
0.0
 11
191.996835
 21
159.271222
 31
0.0
  0
LINE
  5
15A
100
AcDbEntity
  8
1
370
     9
  6
Continuous
 62
     7
100
AcDbLine
 10
192.618001
 20
156.953
 30
0.0
 11
193.239166
 21
159.271222
 31
0.0
  0
LINE
  5
15B
100
AcDbEntity
  8
1
370
     9
  6
Continuous
 62
     7
100
AcDbLine
 10
192.618001
 20
210.953
 30
0.0
 11
193.239166
 21
208.634778
 31
0.0
  0
LINE
  5
15C
100
AcDbEntity
  8
1
370
     9
  6
Continuous
 62
     7
100
AcDbLine
 10
192.618001
 20
210.953
 30
0.0
 11
191.996835
 21
208.634778
 31
0.0
  0
TEXT
  5
15D
100
AcDbEntity
  8
1
370
     9
  6
Continuous
 62
     7
100
AcDbText
 10
192.118001
 20
182.353
 30
0.0
 40
3.0
  1
54
 50
90.0
 41
0.533333
 11
192.118001
 21
182.353
 31
0.0
100
AcDbText
 73
     1
  0
ENDBLK
  5
15E
100
AcDbEntity
  8
1
370
     9
  6
Continuous
 62
     7
100
AcDbBlockEnd
  0
BLOCK
  5
161
100
AcDbEntity
  8
1
370
     9
  6
Continuous
 62
     7
100
AcDbBlockBegin
  2
*D5
 70
     0
 10
0.0
 20
0.0
 30
0.0
  3
*D5
  1

  0
LINE
  5
162
100
AcDbEntity
  8
1
370
     9
  6
Continuous
 62
     7
100
AcDbLine
 10
206.560002
 20
220.953
 30
0.0
 11
217.482495
 21
220.953
 31
0.0
  0
LINE
  5
163
100
AcDbEntity
  8
1
370
     9
  6
Continuous
 62
     7
100
AcDbLine
 10
208.960002
 20
222.953
 30
0.0
 11
208.960002
 21
212.953
 31
0.0
  0
LINE
  5
164
100
AcDbEntity
  8
1
370
     9
  6
Continuous
 62
     7
100
AcDbLine
 10
209.760002
 20
222.953
 30
0.0
 11
209.760002
 21
212.953
 31
0.0
  0
LINE
  5
165
100
AcDbEntity
  8
1
370
     9
  6
Continuous
 62
     7
100
AcDbLine
 10
208.960002
 20
220.953
 30
0.0
 11
206.64178
 21
220.331834
 31
0.0
  0
LINE
  5
166
100
AcDbEntity
  8
1
370
     9
  6
Continuous
 62
     7
100
AcDbLine
 10
208.960002
 20
220.953
 30
0.0
 11
206.64178
 21
221.574166
 31
0.0
  0
LINE
  5
167
100
AcDbEntity
  8
1
370
     9
  6
Continuous
 62
     7
100
AcDbLine
 10
209.760002
 20
220.953
 30
0.0
 11
212.078224
 21
221.574166
 31
0.0
  0
LINE
  5
168
100
AcDbEntity
  8
1
370
     9
  6
Continuous
 62
     7
100
AcDbLine
 10
209.760002
 20
220.953
 30
0.0
 11
212.078224
 21
220.331834
 31
0.0
  0
TEXT
  5
169
100
AcDbEntity
  8
1
370
     9
  6
Continuous
 62
     7
100
AcDbText
 10
212.582495
 20
221.453
 30
0.0
 40
3.0
  1
0.8
 41
0.628205
 11
212.582495
 21
221.453
 31
0.0
100
AcDbText
 73
     1
  0
ENDBLK
  5
16A
100
AcDbEntity
  8
1
370
     9
  6
Continuous
 62
     7
100
AcDbBlockEnd
  0
BLOCK
  5
1A7
100
AcDbEntity
  8
0
370
     9
  6
Continuous
 62
    96
100
AcDbBlockBegin
  2
*G6
 70
     0
 10
0.0
 20
0.0
 30
0.0
  3
*G6
  1

  0
LINE
  5
1A8
100
AcDbEntity
  8
15
370
     9
  6
Continuous
 62
    96
100
AcDbLine
 10
319.256917
 20
19.245666
 30
0.0
 11
319.523573
 21
19.245666
 31
0.0
  0
ENDBLK
  5
1A9
100
AcDbEntity
  8
0
100
AcDbBlockEnd
  0
ENDSEC
  0
SECTION
  2
ENTITIES
  0
INSERT
  5
76
100
AcDbEntity
  8
0
370
     9
  6
Continuous
 62
     7
100
AcDbBlockReference
  2
*G0
 10
0.0
 20
0.0
 30
0.0
  0
LINE
  5
77
100
AcDbEntity
  8
15
370
    50
  6
Continuous
 62
    96
100
AcDbLine
 10
10.0
 20
265.5
 30
0.0
 11
10.0
 21
8.5
 31
0.0
  0
LINE
  5
78
100
AcDbEntity
  8
15
370
    50
  6
Continuous
 62
    96
100
AcDbLine
 10
10.0
 20
265.5
 30
0.0
 11
395.0
 21
265.5
 31
0.0
  0
LINE
  5
79
100
AcDbEntity
  8
15
370
    50
  6
Continuous
 62
    96
100
AcDbLine
 10
395.0
 20
265.5
 30
0.0
 11
395.0
 21
8.5
 31
0.0
  0
TEXT
  5
7A
100
AcDbEntity
  8
15
370
    30
  6
Continuous
 62
    96
100
AcDbText
 10
305.431027
 20
50.615582
 30
0.0
 40
2.5
  1
型　式
 41
0.855556
 11
305.431027
 21
50.615582
 31
0.0
100
AcDbText
 73
     1
  0
TEXT
  5
7B
100
AcDbEntity
  8
15
370
    30
  6
Continuous
 62
    96
100
AcDbText
 10
305.431027
 20
41.454625
 30
0.0
 40
2.5
  1
製品名
 41
0.855556
 11
305.431027
 21
41.454625
 31
0.0
100
AcDbText
 73
     1
  0
LINE
  5
7C
100
AcDbEntity
  8
15
370
     9
  6
Continuous
 62
    96
100
AcDbLine
 10
305.0
 20
44.500007
 30
0.0
 11
395.0
 21
44.500007
 31
0.0
  0
LINE
  5
7D
100
AcDbEntity
  8
15
370
     9
  6
Continuous
 62
    96
100
AcDbLine
 10
305.0
 20
44.5
 30
0.0
 11
395.0
 21
44.500007
 31
0.0
  0
TEXT
  5
7E
100
AcDbEntity
  8
15
370
     9
  6
Continuous
 62
    96
100
AcDbText
 10
305.745772
 20
32.581424
 30
0.0
 40
2.5
  1
縮尺（Ａ３）
 41
0.861111
 11
305.745772
 21
32.581424
 31
0.0
100
AcDbText
 73
     1
  0
TEXT
  5
7F
100
AcDbEntity
  8
15
370
     9
  6
Continuous
 62
    96
100
AcDbText
 10
371.053642
 20
32.348836
 30
0.0
 40
2.5
  1
作図
 41
0.85
 11
371.053642
 21
32.348836
 31
0.0
100
AcDbText
 73
     1
  0
LINE
  5
80
100
AcDbEntity
  8
15
370
     9
  6
Continuous
 62
    96
100
AcDbLine
 10
320.0
 20
35.5
 30
0.0
 11
320.0
 21
26.500001
 31
0.0
  0
LINE
  5
81
100
AcDbEntity
  8
15
370
     9
  6
Continuous
 62
    96
100
AcDbLine
 10
345.0
 20
35.5
 30
0.0
 11
345.0
 21
26.500003
 31
0.0
  0
LINE
  5
82
100
AcDbEntity
  8
15
370
     9
  6
Continuous
 62
    96
100
AcDbLine
 10
370.0
 20
35.5
 30
0.0
 11
370.0
 21
26.500005
 31
0.0
  0
LINE
  5
83
100
AcDbEntity
  8
15
370
     9
  6
Continuous
 62
    96
100
AcDbLine
 10
330.0
 20
265.5
 30
0.0
 11
330.0
 21
260.0
 31
0.0
  0
LINE
  5
84
100
AcDbEntity
  8
15
370
    30
  6
Continuous
 62
    96
100
AcDbLine
 10
305.0
 20
260.0
 30
0.0
 11
395.0
 21
260.0
 31
0.0
  0
LINE
  5
85
100
AcDbEntity
  8
15
370
    30
  6
Continuous
 62
    96
100
AcDbLine
 10
305.0
 20
254.5
 30
0.0
 11
395.0
 21
254.5
 31
0.0
  0
LINE
  5
86
100
AcDbEntity
  8
15
370
    50
  6
Continuous
 62
    96
100
AcDbLine
 10
395.0
 20
106.500021
 30
0.0
 11
395.0
 21
93.700016
 31
0.0
  0
TEXT
  5
87
100
AcDbEntity
  8
15
370
     9
  6
Continuous
 62
    96
100
AcDbText
 10
307.83403
 20
28.009455
 30
0.0
 40
3.0
  1
１：１
 41
0.833333
 11
307.83403
 21
28.009455
 31
0.0
100
AcDbText
 73
     1
  0
TEXT
  5
88
100
AcDbEntity
  8
15
370
     9
  6
PHANTOM
 62
    96
100
AcDbText
 10
310.0
 20
261.25
 30
0.0
 40
3.0
  1
商品コード
 41
0.833333
 11
310.0
 21
261.25
 31
0.0
100
AcDbText
 73
     1
  0
TEXT
  5
89
100
AcDbEntity
  8
15
370
     9
  6
PHANTOM
 62
    96
100
AcDbText
 10
339.5
 20
255.75
 30
0.0
 40
3.0
  1
定　　　　　格
 41
0.833333
 11
339.5
 21
255.75
 31
0.0
100
AcDbText
 73
     1
  0
LINE
  5
8A
100
AcDbEntity
  8
15
370
     9
  6
Continuous
 62
    96
100
AcDbLine
 10
305.0
 20
243.5
 30
0.0
 11
395.0
 21
243.5
 31
0.0
  0
LINE
  5
8B
100
AcDbEntity
  8
15
370
     9
  6
Continuous
 62
    96
100
AcDbLine
 10
395.0
 20
238.0
 30
0.0
 11
305.0
 21
238.0
 31
0.0
  0
LINE
  5
8C
100
AcDbEntity
  8
15
370
     9
  6
Continuous
 62
    96
100
AcDbLine
 10
305.0
 20
232.5
 30
0.0
 11
395.0
 21
232.5
 31
0.0
  0
LINE
  5
8D
100
AcDbEntity
  8
15
370
     9
  6
Continuous
 62
    96
100
AcDbLine
 10
305.0
 20
227.0
 30
0.0
 11
395.0
 21
227.0
 31
0.0
  0
LINE
  5
8E
100
AcDbEntity
  8
15
370
     9
  6
Continuous
 62
    96
100
AcDbLine
 10
305.0
 20
249.0
 30
0.0
 11
395.0
 21
249.0
 31
0.0
  0
LINE
  5
8F
100
AcDbEntity
  8
1
370
     9
  6
Continuous
 62
     7
100
AcDbLine
 10
104.113587
 20
196.659522
 30
0.0
 11
98.35
 21
190.953
 31
0.0
  0
LINE
  5
90
100
AcDbEntity
  8
1
370
     9
  6
Continuous
 62
     7
100
AcDbLine
 10
100.134351
 20
190.953
 30
0.0
 11
102.915218
 21
193.706332
 31
0.0
  0
LINE
  5
91
100
AcDbEntity
  8
1
370
     9
  6
Continuous
 62
     7
100
AcDbLine
 10
102.915218
 20
193.706332
 30
0.0
 11
102.915218
 21
192.151369
 31
0.0
  0
LINE
  5
92
100
AcDbEntity
  8
1
370
     9
  6
Continuous
 62
     7
100
AcDbLine
 10
102.915218
 20
192.151369
 30
0.0
 11
101.659782
 21
192.151369
 31
0.0
  0
LINE
  5
93
100
AcDbEntity
  8
1
370
     9
  6
Continuous
 62
     7
100
AcDbLine
 10
101.659782
 20
192.151369
 30
0.0
 11
101.659782
 21
190.953
 31
0.0
  0
LINE
  5
94
100
AcDbEntity
  8
1
370
     9
  6
Continuous
 62
     7
100
AcDbLine
 10
101.659782
 20
190.953
 30
0.0
 11
104.113587
 21
190.953
 31
0.0
  0
LINE
  5
95
100
AcDbEntity
  8
1
370
     9
  6
Continuous
 62
     7
100
AcDbLine
 10
104.113587
 20
190.953
 30
0.0
 11
104.113587
 21
196.659522
 31
0.0
  0
LINE
  5
96
100
AcDbEntity
  8
1
370
     9
  6
Continuous
 62
     7
100
AcDbLine
 10
104.113587
 20
192.550826
 30
0.0
 11
105.825543
 21
190.953
 31
0.0
  0
ARC
  5
97
100
AcDbEntity
  8
1
370
     9
  6
Continuous
 62
     7
100
AcDbCircle
 10
105.483152
 20
192.836152
 30
0.0
 40
0.285326
100
AcDbArc
 50
-90.0
 51
90.0
  0
LINE
  5
98
100
AcDbEntity
  8
1
370
     9
  6
Continuous
 62
     7
100
AcDbLine
 10
104.113587
 20
192.550826
 30
0.0
 11
105.483152
 21
192.550826
 31
0.0
  0
LINE
  5
99
100
AcDbEntity
  8
1
370
     9
  6
Continuous
 62
     7
100
AcDbLine
 10
104.341848
 20
193.121478
 30
0.0
 11
105.483152
 21
193.121478
 31
0.0
  0
LINE
  5
9A
100
AcDbEntity
  8
1
370
     9
  6
Continuous
 62
     7
100
AcDbLine
 10
104.341848
 20
193.80626
 30
0.0
 11
104.341848
 21
193.121478
 31
0.0
  0
LINE
  5
9B
100
AcDbEntity
  8
1
370
     9
  6
Continuous
 62
     7
100
AcDbLine
 10
104.341848
 20
193.80626
 30
0.0
 11
105.6994
 21
193.80626
 31
0.0
  0
ARC
  5
9C
100
AcDbEntity
  8
1
370
     9
  6
Continuous
 62
     7
100
AcDbCircle
 10
105.591275
 20
192.836152
 30
0.0
 40
0.976116
100
AcDbArc
 50
-76.055153
 51
83.640296
  0
LINE
  5
9D
100
AcDbEntity
  8
1
370
     9
  6
Continuous
 62
     7
100
AcDbLine
 10
105.825543
 20
191.889704
 30
0.0
 11
106.829155
 21
190.953
 31
0.0
  0
LINE
  5
9E
100
AcDbEntity
  8
1
370
     9
  6
Continuous
 62
     7
100
AcDbLine
 10
106.829155
 20
190.953
 30
0.0
 11
105.825543
 21
190.953
 31
0.0
  0
LINE
  5
9F
100
AcDbEntity
  8
1
370
     9
  6
Continuous
 62
     7
100
AcDbLine
 10
108.849999
 20
193.80626
 30
0.0
 11
106.567391
 21
193.80626
 31
0.0
  0
LINE
  5
A0
100
AcDbEntity
  8
1
370
     9
  6
Continuous
 62
     7
100
AcDbLine
 10
106.567391
 20
193.80626
 30
0.0
 11
106.567391
 21
193.121478
 31
0.0
  0
LINE
  5
A1
100
AcDbEntity
  8
1
370
     9
  6
Continuous
 62
     7
100
AcDbLine
 10
106.567391
 20
193.121478
 30
0.0
 11
107.309239
 21
193.121478
 31
0.0
  0
LINE
  5
A2
100
AcDbEntity
  8
1
370
     9
  6
Continuous
 62
     7
100
AcDbLine
 10
107.309239
 20
193.121478
 30
0.0
 11
107.309239
 21
190.953
 31
0.0
  0
LINE
  5
A3
100
AcDbEntity
  8
1
370
     9
  6
Continuous
 62
     7
100
AcDbLine
 10
107.309239
 20
190.953
 30
0.0
 11
108.108152
 21
190.953
 31
0.0
  0
LINE
  5
A4
100
AcDbEntity
  8
1
370
     9
  6
Continuous
 62
     7
100
AcDbLine
 10
108.108152
 20
190.953
 30
0.0
 11
108.108152
 21
193.121478
 31
0.0
  0
LINE
  5
A5
100
AcDbEntity
  8
1
370
     9
  6
Continuous
 62
     7
100
AcDbLine
 10
108.108152
 20
193.121478
 30
0.0
 11
108.849999
 21
193.121478
 31
0.0
  0
LINE
  5
A6
100
AcDbEntity
  8
1
370
     9
  6
Continuous
 62
     7
100
AcDbLine
 10
108.849999
 20
193.121478
 30
0.0
 11
108.849999
 21
193.80626
 31
0.0
  0
LINE
  5
A7
100
AcDbEntity
  8
1
370
     9
  6
Continuous
 62
     7
100
AcDbLine
 10
98.35
 20
190.953
 30
0.0
 11
100.134351
 21
190.953
 31
0.0
  0
TEXT
  5
A8
100
AcDbEntity
  8
1
370
     9
  6
Continuous
 62
     7
100
AcDbText
 10
110.776002
 20
190.819999
 30
0.0
 40
3.3
  1
MTCard
 41
0.909091
 11
110.776002
 21
190.819999
 31
0.0
100
AcDbText
 73
     1
  0
LINE
  5
A9
100
AcDbEntity
  8
1
370
     9
  6
Continuous
 62
     7
100
AcDbLine
 10
110.350001
 20
206.853001
 30
0.0
 11
110.350001
 21
209.053
 31
0.0
  0
LINE
  5
AA
100
AcDbEntity
  8
1
370
     9
  6
Continuous
 62
     7
100
AcDbLine
 10
110.350001
 20
209.053
 30
0.0
 11
98.35
 21
207.953
 31
0.0
  0
LINE
  5
AB
100
AcDbEntity
  8
1
370
     9
  6
Continuous
 62
     7
100
AcDbLine
 10
98.35
 20
207.953
 30
0.0
 11
110.350001
 21
206.853001
 31
0.0
  0
LINE
  5
AC
100
AcDbEntity
  8
2
370
     9
  6
Continuous
 62
   134
100
AcDbLine
 10
130.350001
 20
169.188547
 30
0.0
 11
127.082103
 21
165.953
 31
0.0
  0
LINE
  5
AD
100
AcDbEntity
  8
2
370
     9
  6
Continuous
 62
   134
100
AcDbLine
 10
159.850001
 20
198.396519
 30
0.0
 11
132.132096
 21
170.953001
 31
0.0
  0
LINE
  5
AE
100
AcDbEntity
  8
2
370
     9
  6
Continuous
 62
   134
100
AcDbLine
 10
176.850001
 20
158.953
 30
0.0
 11
176.850001
 21
192.953001
 31
0.0
  0
LINE
  5
AF
100
AcDbEntity
  8
2
370
     9
  6
Continuous
 62
   134
100
AcDbLine
 10
159.850001
 20
192.953001
 30
0.0
 11
159.850001
 21
175.953001
 31
0.0
  0
LINE
  5
B0
100
AcDbEntity
  8
2
370
     9
  6
Continuous
 62
   134
100
AcDbLine
 10
142.850002
 20
166.453
 30
0.0
 11
142.850002
 21
158.953
 31
0.0
  0
LINE
  5
B1
100
AcDbEntity
  8
2
370
     9
  6
Continuous
 62
   134
100
AcDbLine
 10
142.850002
 20
175.953001
 30
0.0
 11
142.850002
 21
170.953001
 31
0.0
  0
TEXT
  5
B2
100
AcDbEntity
  8
2
370
     9
  6
Continuous
 62
   134
100
AcDbText
 10
129.447001
 20
166.453
 30
0.0
 40
4.5
  1
8888-000000
 41
0.844445
 11
129.447001
 21
166.453
 31
0.0
100
AcDbText
 73
     1
  0
LINE
  5
B3
100
AcDbEntity
  8
2
370
     9
  6
Continuous
 62
   134
100
AcDbLine
 10
142.850002
 20
158.953
 30
0.0
 11
176.850001
 21
158.953
 31
0.0
  0
LINE
  5
B4
100
AcDbEntity
  8
2
370
     9
  6
Continuous
 62
   134
100
AcDbLine
 10
159.850001
 20
175.953001
 30
0.0
 11
142.850002
 21
175.953001
 31
0.0
  0
LINE
  5
B5
100
AcDbEntity
  8
2
370
     9
  6
Continuous
 62
   134
100
AcDbLine
 10
128.497414
 20
191.453001
 30
0.0
 11
96.35
 21
159.583735
 31
0.0
  0
LINE
  5
B6
100
AcDbEntity
  8
2
370
     9
  6
Continuous
 62
   134
100
AcDbLine
 10
96.35
 20
191.453001
 30
0.0
 11
96.35
 21
159.583735
 31
0.0
  0
LINE
  5
B7
100
AcDbEntity
  8
2
370
     9
  6
Continuous
 62
   134
100
AcDbLine
 10
136.694826
 20
198.453001
 30
0.0
 11
103.911107
 21
165.953
 31
0.0
  0
LINE
  5
B8
100
AcDbEntity
  8
2
370
     9
  6
Continuous
 62
   134
100
AcDbLine
 10
98.350001
 20
190.953001
 30
0.0
 11
100.134352
 21
190.953001
 31
0.0
  0
LINE
  5
B9
100
AcDbEntity
  8
2
370
     9
  6
Continuous
 62
   134
100
AcDbLine
 10
107.309239
 20
190.953001
 30
0.0
 11
108.108152
 21
190.953001
 31
0.0
  0
LINE
  5
BA
100
AcDbEntity
  8
2
370
     9
  6
Continuous
 62
   134
100
AcDbLine
 10
101.659782
 20
190.953001
 30
0.0
 11
104.113587
 21
190.953001
 31
0.0
  0
LINE
  5
BB
100
AcDbEntity
  8
2
370
     9
  6
Continuous
 62
   134
100
AcDbLine
 10
105.825541
 20
190.953001
 30
0.0
 11
106.829154
 21
190.953001
 31
0.0
  0
LINE
  5
BC
100
AcDbEntity
  8
2
370
     9
  6
Continuous
 62
   134
100
AcDbLine
 10
98.602502
 20
191.203001
 30
0.0
 11
100.386853
 21
191.203001
 31
0.0
  0
LINE
  5
BD
100
AcDbEntity
  8
2
370
     9
  6
Continuous
 62
   134
100
AcDbLine
 10
107.309239
 20
191.203001
 30
0.0
 11
108.108152
 21
191.203001
 31
0.0
  0
LINE
  5
BE
100
AcDbEntity
  8
2
370
     9
  6
Continuous
 62
   134
100
AcDbLine
 10
101.659782
 20
191.203001
 30
0.0
 11
104.113587
 21
191.203001
 31
0.0
  0
LINE
  5
BF
100
AcDbEntity
  8
2
370
     9
  6
Continuous
 62
   134
100
AcDbLine
 10
105.557684
 20
191.203001
 30
0.0
 11
106.561297
 21
191.203001
 31
0.0
  0
LINE
  5
C0
100
AcDbEntity
  8
2
370
     9
  6
Continuous
 62
   134
100
AcDbLine
 10
98.855
 20
191.453001
 30
0.0
 11
100.639353
 21
191.453001
 31
0.0
  0
LINE
  5
C1
100
AcDbEntity
  8
2
370
     9
  6
Continuous
 62
   134
100
AcDbLine
 10
107.309239
 20
191.453001
 30
0.0
 11
108.108152
 21
191.453001
 31
0.0
  0
LINE
  5
C2
100
AcDbEntity
  8
2
370
     9
  6
Continuous
 62
   134
100
AcDbLine
 10
101.659782
 20
191.453001
 30
0.0
 11
104.113587
 21
191.453001
 31
0.0
  0
LINE
  5
C3
100
AcDbEntity
  8
2
370
     9
  6
Continuous
 62
   134
100
AcDbLine
 10
105.289827
 20
191.453001
 30
0.0
 11
106.29344
 21
191.453001
 31
0.0
  0
LINE
  5
C4
100
AcDbEntity
  8
2
370
     9
  6
Continuous
 62
   134
100
AcDbLine
 10
99.107501
 20
191.703001
 30
0.0
 11
100.891852
 21
191.703001
 31
0.0
  0
LINE
  5
C5
100
AcDbEntity
  8
2
370
     9
  6
Continuous
 62
   134
100
AcDbLine
 10
107.309239
 20
191.703001
 30
0.0
 11
108.108152
 21
191.703001
 31
0.0
  0
LINE
  5
C6
100
AcDbEntity
  8
2
370
     9
  6
Continuous
 62
   134
100
AcDbLine
 10
101.659782
 20
191.703001
 30
0.0
 11
104.113587
 21
191.703001
 31
0.0
  0
LINE
  5
C7
100
AcDbEntity
  8
2
370
     9
  6
Continuous
 62
   134
100
AcDbLine
 10
105.02197
 20
191.703001
 30
0.0
 11
106.025583
 21
191.703001
 31
0.0
  0
LINE
  5
C8
100
AcDbEntity
  8
2
370
     9
  6
Continuous
 62
   134
100
AcDbLine
 10
99.360001
 20
191.953001
 30
0.0
 11
101.144352
 21
191.953001
 31
0.0
  0
LINE
  5
C9
100
AcDbEntity
  8
2
370
     9
  6
Continuous
 62
   134
100
AcDbLine
 10
107.309239
 20
191.953001
 30
0.0
 11
108.108152
 21
191.953001
 31
0.0
  0
LINE
  5
CA
100
AcDbEntity
  8
2
370
     9
  6
Continuous
 62
   134
100
AcDbLine
 10
101.659782
 20
191.953001
 30
0.0
 11
104.113587
 21
191.953001
 31
0.0
  0
LINE
  5
CB
100
AcDbEntity
  8
2
370
     9
  6
Continuous
 62
   134
100
AcDbLine
 10
104.754113
 20
191.953001
 30
0.0
 11
106.007023
 21
191.953001
 31
0.0
  0
LINE
  5
CC
100
AcDbEntity
  8
2
370
     9
  6
Continuous
 62
   134
100
AcDbLine
 10
99.612501
 20
192.203001
 30
0.0
 11
101.396852
 21
192.203001
 31
0.0
  0
LINE
  5
CD
100
AcDbEntity
  8
2
370
     9
  6
Continuous
 62
   134
100
AcDbLine
 10
107.309239
 20
192.203001
 30
0.0
 11
108.108152
 21
192.203001
 31
0.0
  0
LINE
  5
CE
100
AcDbEntity
  8
2
370
     9
  6
Continuous
 62
   134
100
AcDbLine
 10
102.915218
 20
192.203001
 30
0.0
 11
104.113587
 21
192.203001
 31
0.0
  0
LINE
  5
CF
100
AcDbEntity
  8
2
370
     9
  6
Continuous
 62
   134
100
AcDbLine
 10
104.486256
 20
192.203001
 30
0.0
 11
106.334189
 21
192.203001
 31
0.0
  0
LINE
  5
D0
100
AcDbEntity
  8
2
370
     9
  6
Continuous
 62
   134
100
AcDbLine
 10
99.865001
 20
192.453001
 30
0.0
 11
101.649352
 21
192.453001
 31
0.0
  0
LINE
  5
D1
100
AcDbEntity
  8
2
370
     9
  6
Continuous
 62
   134
100
AcDbLine
 10
107.309239
 20
192.453001
 30
0.0
 11
108.108152
 21
192.453001
 31
0.0
  0
LINE
  5
D2
100
AcDbEntity
  8
2
370
     9
  6
Continuous
 62
   134
100
AcDbLine
 10
102.915218
 20
192.453001
 30
0.0
 11
104.113587
 21
192.453001
 31
0.0
  0
LINE
  5
D3
100
AcDbEntity
  8
2
370
     9
  6
Continuous
 62
   134
100
AcDbLine
 10
104.218399
 20
192.453001
 30
0.0
 11
106.489049
 21
192.453001
 31
0.0
  0
LINE
  5
D4
100
AcDbEntity
  8
2
370
     9
  6
Continuous
 62
   134
100
AcDbLine
 10
100.117502
 20
192.703001
 30
0.0
 11
101.901853
 21
192.703001
 31
0.0
  0
LINE
  5
D5
100
AcDbEntity
  8
2
370
     9
  6
Continuous
 62
   134
100
AcDbLine
 10
107.309239
 20
192.703001
 30
0.0
 11
108.108152
 21
192.703001
 31
0.0
  0
LINE
  5
D6
100
AcDbEntity
  8
2
370
     9
  6
Continuous
 62
   134
100
AcDbLine
 10
102.915218
 20
192.703001
 30
0.0
 11
104.113587
 21
192.703001
 31
0.0
  0
LINE
  5
D7
100
AcDbEntity
  8
2
370
     9
  6
Continuous
 62
   134
100
AcDbLine
 10
105.735503
 20
192.703001
 30
0.0
 11
106.558266
 21
192.703001
 31
0.0
  0
LINE
  5
D8
100
AcDbEntity
  8
2
370
     9
  6
Continuous
 62
   134
100
AcDbLine
 10
100.37
 20
192.953001
 30
0.0
 11
102.154353
 21
192.953001
 31
0.0
  0
LINE
  5
D9
100
AcDbEntity
  8
2
370
     9
  6
Continuous
 62
   134
100
AcDbLine
 10
107.309239
 20
192.953001
 30
0.0
 11
108.108152
 21
192.953001
 31
0.0
  0
LINE
  5
DA
100
AcDbEntity
  8
2
370
     9
  6
Continuous
 62
   134
100
AcDbLine
 10
102.915218
 20
192.953001
 30
0.0
 11
104.113587
 21
192.953001
 31
0.0
  0
LINE
  5
DB
100
AcDbEntity
  8
2
370
     9
  6
Continuous
 62
   134
100
AcDbLine
 10
105.743455
 20
192.953001
 30
0.0
 11
106.560372
 21
192.953001
 31
0.0
  0
LINE
  5
DC
100
AcDbEntity
  8
2
370
     9
  6
Continuous
 62
   134
100
AcDbLine
 10
100.6225
 20
193.203001
 30
0.0
 11
102.406853
 21
193.203001
 31
0.0
  0
LINE
  5
DD
100
AcDbEntity
  8
2
370
     9
  6
Continuous
 62
   134
100
AcDbLine
 10
106.567391
 20
193.203001
 30
0.0
 11
108.849999
 21
193.203001
 31
0.0
  0
LINE
  5
DE
100
AcDbEntity
  8
2
370
     9
  6
Continuous
 62
   134
100
AcDbLine
 10
102.915218
 20
193.203001
 30
0.0
 11
104.113587
 21
193.203001
 31
0.0
  0
LINE
  5
DF
100
AcDbEntity
  8
2
370
     9
  6
Continuous
 62
   134
100
AcDbLine
 10
104.341848
 20
193.203001
 30
0.0
 11
106.495833
 21
193.203001
 31
0.0
  0
LINE
  5
E0
100
AcDbEntity
  8
2
370
     9
  6
Continuous
 62
   134
100
AcDbLine
 10
100.875001
 20
193.453001
 30
0.0
 11
102.659353
 21
193.453001
 31
0.0
  0
LINE
  5
E1
100
AcDbEntity
  8
2
370
     9
  6
Continuous
 62
   134
100
AcDbLine
 10
106.567391
 20
193.453001
 30
0.0
 11
108.849999
 21
193.453001
 31
0.0
  0
LINE
  5
E2
100
AcDbEntity
  8
2
370
     9
  6
Continuous
 62
   134
100
AcDbLine
 10
102.915218
 20
193.453001
 30
0.0
 11
104.113587
 21
193.453001
 31
0.0
  0
LINE
  5
E3
100
AcDbEntity
  8
2
370
     9
  6
Continuous
 62
   134
100
AcDbLine
 10
104.341848
 20
193.453001
 30
0.0
 11
106.347781
 21
193.453001
 31
0.0
  0
LINE
  5
E4
100
AcDbEntity
  8
2
370
     9
  6
Continuous
 62
   134
100
AcDbLine
 10
101.127501
 20
193.703001
 30
0.0
 11
102.911854
 21
193.703001
 31
0.0
  0
LINE
  5
E5
100
AcDbEntity
  8
2
370
     9
  6
Continuous
 62
   134
100
AcDbLine
 10
106.567391
 20
193.703001
 30
0.0
 11
108.849999
 21
193.703001
 31
0.0
  0
LINE
  5
E6
100
AcDbEntity
  8
2
370
     9
  6
Continuous
 62
   134
100
AcDbLine
 10
102.915218
 20
193.703001
 30
0.0
 11
104.113587
 21
193.703001
 31
0.0
  0
LINE
  5
E7
100
AcDbEntity
  8
2
370
     9
  6
Continuous
 62
   134
100
AcDbLine
 10
104.341848
 20
193.703001
 30
0.0
 11
106.040024
 21
193.703001
 31
0.0
  0
LINE
  5
E8
100
AcDbEntity
  8
2
370
     9
  6
Continuous
 62
   134
100
AcDbLine
 10
101.380001
 20
193.953001
 30
0.0
 11
104.113587
 21
193.953001
 31
0.0
  0
LINE
  5
E9
100
AcDbEntity
  8
2
370
     9
  6
Continuous
 62
   134
100
AcDbLine
 10
101.632501
 20
194.203001
 30
0.0
 11
104.113587
 21
194.203001
 31
0.0
  0
LINE
  5
EA
100
AcDbEntity
  8
2
370
     9
  6
Continuous
 62
   134
100
AcDbLine
 10
101.885
 20
194.453001
 30
0.0
 11
104.113587
 21
194.453001
 31
0.0
  0
LINE
  5
EB
100
AcDbEntity
  8
2
370
     9
  6
Continuous
 62
   134
100
AcDbLine
 10
102.1375
 20
194.703001
 30
0.0
 11
104.113587
 21
194.703001
 31
0.0
  0
LINE
  5
EC
100
AcDbEntity
  8
2
370
     9
  6
Continuous
 62
   134
100
AcDbLine
 10
102.390001
 20
194.953001
 30
0.0
 11
104.113587
 21
194.953001
 31
0.0
  0
LINE
  5
ED
100
AcDbEntity
  8
2
370
     9
  6
Continuous
 62
   134
100
AcDbLine
 10
102.642501
 20
195.203001
 30
0.0
 11
104.113587
 21
195.203001
 31
0.0
  0
LINE
  5
EE
100
AcDbEntity
  8
2
370
     9
  6
Continuous
 62
   134
100
AcDbLine
 10
102.895001
 20
195.453001
 30
0.0
 11
104.113587
 21
195.453001
 31
0.0
  0
LINE
  5
EF
100
AcDbEntity
  8
2
370
     9
  6
Continuous
 62
   134
100
AcDbLine
 10
103.147501
 20
195.703001
 30
0.0
 11
104.113587
 21
195.703001
 31
0.0
  0
LINE
  5
F0
100
AcDbEntity
  8
2
370
     9
  6
Continuous
 62
   134
100
AcDbLine
 10
103.4
 20
195.953001
 30
0.0
 11
104.113587
 21
195.953001
 31
0.0
  0
LINE
  5
F1
100
AcDbEntity
  8
2
370
     9
  6
Continuous
 62
   134
100
AcDbLine
 10
103.6525
 20
196.203001
 30
0.0
 11
104.113587
 21
196.203001
 31
0.0
  0
LINE
  5
F2
100
AcDbEntity
  8
2
370
     9
  6
Continuous
 62
   134
100
AcDbLine
 10
103.905001
 20
196.453001
 30
0.0
 11
104.113587
 21
196.453001
 31
0.0
  0
LINE
  5
F3
100
AcDbEntity
  8
2
370
     9
  6
Continuous
 62
   134
100
AcDbLine
 10
109.25909
 20
206.953
 30
0.0
 11
110.350001
 21
206.953
 31
0.0
  0
LINE
  5
F4
100
AcDbEntity
  8
2
370
     9
  6
Continuous
 62
   134
100
AcDbLine
 10
106.531815
 20
207.203
 30
0.0
 11
110.350001
 21
207.203
 31
0.0
  0
LINE
  5
F5
100
AcDbEntity
  8
2
370
     9
  6
Continuous
 62
   134
100
AcDbLine
 10
103.804541
 20
207.453
 30
0.0
 11
110.350001
 21
207.453
 31
0.0
  0
LINE
  5
F6
100
AcDbEntity
  8
2
370
     9
  6
Continuous
 62
   134
100
AcDbLine
 10
101.077267
 20
207.703
 30
0.0
 11
110.350001
 21
207.703
 31
0.0
  0
LINE
  5
F7
100
AcDbEntity
  8
2
370
     9
  6
Continuous
 62
   134
100
AcDbLine
 10
98.350006
 20
207.953
 30
0.0
 11
110.350001
 21
207.953
 31
0.0
  0
LINE
  5
F8
100
AcDbEntity
  8
2
370
     9
  6
Continuous
 62
   134
100
AcDbLine
 10
101.07728
 20
208.203
 30
0.0
 11
110.350001
 21
208.203
 31
0.0
  0
LINE
  5
F9
100
AcDbEntity
  8
2
370
     9
  6
Continuous
 62
   134
100
AcDbLine
 10
103.804553
 20
208.453
 30
0.0
 11
110.350001
 21
208.453
 31
0.0
  0
LINE
  5
FA
100
AcDbEntity
  8
2
370
     9
  6
Continuous
 62
   134
100
AcDbLine
 10
106.531827
 20
208.703
 30
0.0
 11
110.350001
 21
208.703
 31
0.0
  0
LINE
  5
FB
100
AcDbEntity
  8
2
370
     9
  6
Continuous
 62
   134
100
AcDbLine
 10
109.259101
 20
208.953
 30
0.0
 11
110.350001
 21
208.953
 31
0.0
  0
ARC
  5
FC
100
AcDbEntity
  8
1
370
     9
  6
Continuous
 62
     7
100
AcDbCircle
 10
97.05
 20
207.953
 30
0.0
 40
3.0
100
AcDbArc
 50
90.0
 51
180.0
  0
ARC
  5
FD
100
AcDbEntity
  8
1
370
     9
  6
Continuous
 62
     7
100
AcDbCircle
 10
97.05
 20
159.953
 30
0.0
 40
3.0
100
AcDbArc
 50
180.0
 51
-90.0
  0
LINE
  5
FE
100
AcDbEntity
  8
1
370
     9
  6
Continuous
 62
     7
100
AcDbLine
 10
94.05
 20
207.953
 30
0.0
 11
94.05
 21
159.953
 31
0.0
  0
ARC
  5
FF
100
AcDbEntity
  8
1
370
     9
  6
Continuous
 62
     7
100
AcDbCircle
 10
176.650001
 20
159.953
 30
0.0
 40
3.0
100
AcDbArc
 50
-90.0
 51
0.0
  0
ARC
  5
100
100
AcDbEntity
  8
1
370
     9
  6
Continuous
 62
     7
100
AcDbCircle
 10
176.650001
 20
207.953
 30
0.0
 40
3.0
100
AcDbArc
 50
0.0
 51
90.0
  0
LINE
  5
101
100
AcDbEntity
  8
1
370
     9
  6
Continuous
 62
     7
100
AcDbLine
 10
179.650001
 20
159.953
 30
0.0
 11
179.650001
 21
207.953
 31
0.0
  0
CIRCLE
  5
102
100
AcDbEntity
  8
1
370
     9
  6
Continuous
 62
     7
100
AcDbCircle
 10
172.828125
 20
100.30625
 30
0.0
 40
0.5
  0
CIRCLE
  5
103
100
AcDbEntity
  8
1
370
     9
  6
Continuous
 62
     7
100
AcDbCircle
 10
172.828125
 20
100.30625
 30
0.0
 40
0.25
  0
POLYLINE
  5
104
100
AcDbEntity
  8
1
370
     9
  6
Continuous
 62
     7
100
AcDb2dPolyline
 66
     1
 10
0.0
 20
0.0
 30
0.0
  0
VERTEX
  5
105
100
AcDbEntity
  8
1
370
     9
  6
Continuous
 62
     7
100
AcDbVertex
100
AcDb2dVertex
 10
172.828125
 20
100.30625
 30
0.0
  0
VERTEX
  5
106
100
AcDbEntity
  8
1
370
     9
  6
Continuous
 62
     7
100
AcDbVertex
100
AcDb2dVertex
 10
190.191025
 20
110.330725
 30
0.0
  0
VERTEX
  5
107
100
AcDbEntity
  8
1
370
     9
  6
Continuous
 62
     7
100
AcDbVertex
100
AcDb2dVertex
 10
196.484375
 20
110.330725
 30
0.0
  0
SEQEND
  5
108
100
AcDbEntity
  8
1
370
     9
  6
Continuous
 62
     7
  0
TEXT
  5
109
100
AcDbEntity
  8
1
370
     9
  6
Continuous
 62
     7
100
AcDbText
 10
190.284375
 20
110.48125
 30
0.0
 40
3.0
  1
裏面
 41
0.861111
 11
190.284375
 21
110.48125
 31
0.0
100
AcDbText
 73
     1
  0
INSERT
  5
115
100
AcDbEntity
  8
0
370
     9
  6
Continuous
 62
     7
100
AcDbBlockReference
  2
*G1
 10
0.0
 20
0.0
 30
0.0
  0
LINE
  5
116
100
AcDbEntity
  8
1
370
     9
  6
Continuous
 62
     7
100
AcDbLine
 10
97.05
 20
156.953
 30
0.0
 11
176.650001
 21
156.953
 31
0.0
  0
LINE
  5
117
100
AcDbEntity
  8
1
370
     9
  6
Continuous
 62
     7
100
AcDbLine
 10
176.650001
 20
210.953
 30
0.0
 11
97.05
 21
210.953
 31
0.0
  0
LINE
  5
118
100
AcDbEntity
  8
1
370
     9
  6
Continuous
 62
     7
100
AcDbLine
 10
179.650001
 20
198.453001
 30
0.0
 11
94.05
 21
198.453001
 31
0.0
  0
LINE
  5
119
100
AcDbEntity
  8
1
370
     9
  6
Continuous
 62
     7
100
AcDbLine
 10
94.05
 20
204.953
 30
0.0
 11
179.650001
 21
204.953
 31
0.0
  0
LINE
  5
11A
100
AcDbEntity
  8
2
370
     9
  6
Continuous
 62
   134
100
AcDbLine
 10
94.05
 20
198.453001
 30
0.0
 11
179.650001
 21
198.453001
 31
0.0
  0
LINE
  5
11B
100
AcDbEntity
  8
2
370
     9
  6
Continuous
 62
   134
100
AcDbLine
 10
94.05
 20
198.703001
 30
0.0
 11
179.650001
 21
198.703001
 31
0.0
  0
LINE
  5
11C
100
AcDbEntity
  8
2
370
     9
  6
Continuous
 62
   134
100
AcDbLine
 10
94.05
 20
198.953001
 30
0.0
 11
179.650001
 21
198.953001
 31
0.0
  0
LINE
  5
11D
100
AcDbEntity
  8
2
370
     9
  6
Continuous
 62
   134
100
AcDbLine
 10
94.05
 20
199.203001
 30
0.0
 11
179.650001
 21
199.203001
 31
0.0
  0
LINE
  5
11E
100
AcDbEntity
  8
2
370
     9
  6
Continuous
 62
   134
100
AcDbLine
 10
94.05
 20
199.453001
 30
0.0
 11
179.650001
 21
199.453001
 31
0.0
  0
LINE
  5
11F
100
AcDbEntity
  8
2
370
     9
  6
Continuous
 62
   134
100
AcDbLine
 10
94.05
 20
201.703001
 30
0.0
 11
179.650001
 21
201.703001
 31
0.0
  0
LINE
  5
120
100
AcDbEntity
  8
2
370
     9
  6
Continuous
 62
   134
100
AcDbLine
 10
94.05
 20
201.953001
 30
0.0
 11
179.650001
 21
201.953001
 31
0.0
  0
LINE
  5
121
100
AcDbEntity
  8
2
370
     9
  6
Continuous
 62
   134
100
AcDbLine
 10
94.05
 20
202.203001
 30
0.0
 11
179.650001
 21
202.203001
 31
0.0
  0
LINE
  5
122
100
AcDbEntity
  8
2
370
     9
  6
Continuous
 62
   134
100
AcDbLine
 10
94.05
 20
202.453001
 30
0.0
 11
179.650001
 21
202.453001
 31
0.0
  0
LINE
  5
123
100
AcDbEntity
  8
2
370
     9
  6
Continuous
 62
   134
100
AcDbLine
 10
94.05
 20
202.703
 30
0.0
 11
179.650001
 21
202.703
 31
0.0
  0
LINE
  5
124
100
AcDbEntity
  8
2
370
     9
  6
Continuous
 62
   134
100
AcDbLine
 10
94.05
 20
202.953
 30
0.0
 11
179.650001
 21
202.953
 31
0.0
  0
LINE
  5
125
100
AcDbEntity
  8
2
370
     9
  6
Continuous
 62
   134
100
AcDbLine
 10
94.05
 20
203.203
 30
0.0
 11
179.650001
 21
203.203
 31
0.0
  0
LINE
  5
126
100
AcDbEntity
  8
2
370
     9
  6
Continuous
 62
   134
100
AcDbLine
 10
94.05
 20
203.453
 30
0.0
 11
179.650001
 21
203.453
 31
0.0
  0
LINE
  5
127
100
AcDbEntity
  8
2
370
     9
  6
Continuous
 62
   134
100
AcDbLine
 10
94.05
 20
203.703
 30
0.0
 11
179.650001
 21
203.703
 31
0.0
  0
LINE
  5
128
100
AcDbEntity
  8
2
370
     9
  6
Continuous
 62
   134
100
AcDbLine
 10
94.05
 20
203.953
 30
0.0
 11
179.650001
 21
203.953
 31
0.0
  0
LINE
  5
129
100
AcDbEntity
  8
2
370
     9
  6
Continuous
 62
   134
100
AcDbLine
 10
94.05
 20
204.203
 30
0.0
 11
179.650001
 21
204.203
 31
0.0
  0
LINE
  5
12A
100
AcDbEntity
  8
2
370
     9
  6
Continuous
 62
   134
100
AcDbLine
 10
94.05
 20
204.453
 30
0.0
 11
179.650001
 21
204.453
 31
0.0
  0
LINE
  5
12B
100
AcDbEntity
  8
2
370
     9
  6
Continuous
 62
   134
100
AcDbLine
 10
94.05
 20
204.703
 30
0.0
 11
179.650001
 21
204.703
 31
0.0
  0
LINE
  5
12C
100
AcDbEntity
  8
2
370
     9
  6
Continuous
 62
   134
100
AcDbLine
 10
94.05
 20
201.453001
 30
0.0
 11
179.650001
 21
201.453001
 31
0.0
  0
LINE
  5
12D
100
AcDbEntity
  8
2
370
     9
  6
Continuous
 62
   134
100
AcDbLine
 10
94.05
 20
201.203001
 30
0.0
 11
179.650001
 21
201.203001
 31
0.0
  0
LINE
  5
12E
100
AcDbEntity
  8
2
370
     9
  6
Continuous
 62
   134
100
AcDbLine
 10
94.05
 20
200.953001
 30
0.0
 11
179.650001
 21
200.953001
 31
0.0
  0
LINE
  5
12F
100
AcDbEntity
  8
2
370
     9
  6
Continuous
 62
   134
100
AcDbLine
 10
94.05
 20
200.703001
 30
0.0
 11
179.650001
 21
200.703001
 31
0.0
  0
LINE
  5
130
100
AcDbEntity
  8
2
370
     9
  6
Continuous
 62
   134
100
AcDbLine
 10
94.05
 20
200.453001
 30
0.0
 11
179.650001
 21
200.453001
 31
0.0
  0
LINE
  5
131
100
AcDbEntity
  8
2
370
     9
  6
Continuous
 62
   134
100
AcDbLine
 10
94.05
 20
200.203001
 30
0.0
 11
179.650001
 21
200.203001
 31
0.0
  0
LINE
  5
132
100
AcDbEntity
  8
2
370
     9
  6
Continuous
 62
   134
100
AcDbLine
 10
94.05
 20
199.953001
 30
0.0
 11
179.650001
 21
199.953001
 31
0.0
  0
LINE
  5
133
100
AcDbEntity
  8
2
370
     9
  6
Continuous
 62
   134
100
AcDbLine
 10
94.05
 20
199.703001
 30
0.0
 11
179.650001
 21
199.703001
 31
0.0
  0
TEXT
  5
134
100
AcDbEntity
  8
17
370
     9
  6
Continuous
 62
   132
100
AcDbText
 10
192.9085
 20
13.7551
 30
0.0
 40
3.0
  1
*　記載されている会社名、製品名は、各社の登録 商標または商標です。
 41
0.879018
 11
192.9085
 21
13.7551
 31
0.0
100
AcDbText
 73
     1
  0
LINE
  5
135
100
AcDbEntity
  8
15
370
     9
  6
Continuous
 62
    96
100
AcDbLine
 10
305.0
 20
35.5
 30
0.0
 11
395.0
 21
35.5
 31
0.0
  0
LINE
  5
136
100
AcDbEntity
  8
15
370
     9
  6
Continuous
 62
    96
100
AcDbLine
 10
395.0
 20
26.500007
 30
0.0
 11
305.0
 21
26.5
 31
0.0
  0
LINE
  5
137
100
AcDbEntity
  8
15
370
    30
  6
Continuous
 62
    96
100
AcDbLine
 10
305.0
 20
53.500007
 30
0.0
 11
395.0
 21
53.500007
 31
0.0
  0
LINE
  5
138
100
AcDbEntity
  8
15
370
    30
  6
Continuous
 62
    96
100
AcDbLine
 10
305.0
 20
59.000007
 30
0.0
 11
395.0
 21
59.000007
 31
0.0
  0
LINE
  5
139
100
AcDbEntity
  8
15
370
     9
  6
Continuous
 62
    96
100
AcDbLine
 10
330.0
 20
59.000007
 30
0.0
 11
330.0
 21
53.500007
 31
0.0
  0
TEXT
  5
13A
100
AcDbEntity
  8
15
370
     9
  6
Continuous
 62
    96
100
AcDbText
 10
311.2
 20
54.750007
 30
0.0
 40
3.0
  1
図面履歴
 41
0.875
 11
311.2
 21
54.750007
 31
0.0
100
AcDbText
 73
     1
  0
LINE
  5
13B
100
AcDbEntity
  8
15
370
    30
  6
Continuous
 62
    96
100
AcDbLine
 10
305.0
 20
265.5
 30
0.0
 11
305.0
 21
57.000007
 31
0.0
  0
LINE
  5
13C
100
AcDbEntity
  8
15
370
    30
  6
Continuous
 62
    96
100
AcDbLine
 10
305.0
 20
53.500007
 30
0.0
 11
305.0
 21
57.000007
 31
0.0
  0
LINE
  5
13D
100
AcDbEntity
  8
15
370
    30
  6
Continuous
 62
    96
100
AcDbLine
 10
395.0
 20
56.99321
 30
0.0
 11
395.0
 21
104.424646
 31
0.0
  0
LINE
  5
13E
100
AcDbEntity
  8
15
370
    30
  6
Continuous
 62
    96
100
AcDbLine
 10
395.0
 20
57.000007
 30
0.0
 11
395.0
 21
104.678469
 31
0.0
  0
TEXT
  5
13F
100
AcDbEntity
  8
15
370
     9
  6
Continuous
 62
    96
100
AcDbText
 10
352.0
 20
261.25
 30
0.0
 40
3.0
  1
３００１００５
 41
0.833333
 11
352.0
 21
261.25
 31
0.0
100
AcDbText
 73
     1
  0
INSERT
  5
147
100
AcDbEntity
  8
0
370
     9
  6
Continuous
 62
     7
100
AcDbBlockReference
  2
*G2
 10
0.0
 20
0.0
 30
0.0
  0
DIMENSION
  5
153
100
AcDbEntity
  8
1
370
     9
  6
Continuous
 62
     7
100
AcDbDimension
  2
*D3
 10
94.05
 20
221.052001
 30
0.0
 11
136.850001
 21
221.552001
 31
0.0
 71
     5
 72
     1
 41
1.0
 42
0.0
  1
85.6
100
AcDbAlignedDimension
 13
94.05
 23
209.953
 33
0.0
 14
179.650001
 24
209.953
 34
0.0
100
AcDbRotatedDimension
  0
DIMENSION
  5
15F
100
AcDbEntity
  8
1
370
     9
  6
Continuous
 62
     7
100
AcDbDimension
  2
*D4
 10
192.618001
 20
156.953
 30
0.0
 11
192.118001
 21
183.953
 31
0.0
 71
     5
 72
     1
 41
1.0
 42
0.0
  1
54
100
AcDbAlignedDimension
 13
178.650001
 23
156.953
 33
0.0
 14
178.650003
 24
210.953
 34
0.0
 50
90.0
100
AcDbRotatedDimension
  0
DIMENSION
  5
16B
100
AcDbEntity
  8
1
370
     9
  6
Continuous
 62
     7
100
AcDbDimension
  2
*D5
 10
208.960002
 20
220.953
 30
0.0
 11
215.032495
 21
221.453
 31
0.0
 71
     5
 72
     1
 41
1.0
 42
0.0
  1
0.8
100
AcDbAlignedDimension
 13
208.960002
 23
212.953
 33
0.0
 14
209.760002
 24
212.953
 34
0.0
100
AcDbRotatedDimension
  0
TEXT
  5
16C
100
AcDbEntity
  8
15
370
    50
  6
CENTER
 62
    96
100
AcDbText
 10
350.027977
 20
54.693101
 30
0.0
 40
3.0
  1
G80000-01-03716
 41
0.5
 11
350.027977
 21
54.693101
 31
0.0
100
AcDbText
 73
     1
  0
TEXT
  5
16D
100
AcDbEntity
  8
15
370
     9
  6
Continuous
 62
    96
100
AcDbText
 10
334.5
 20
46.500007
 30
0.0
 40
5.0
  1
Ｍ－９１０７
 41
0.861111
 11
334.5
 21
46.500007
 31
0.0
100
AcDbText
 73
     1
  0
TEXT
  5
16E
100
AcDbEntity
  8
15
370
     9
  6
Continuous
 62
    96
100
AcDbText
 10
320.882822
 20
32.563146
 30
0.0
 40
2.5
  1
承認
 41
0.85
 11
320.882822
 21
32.563146
 31
0.0
100
AcDbText
 73
     1
  0
TEXT
  5
16F
100
AcDbEntity
  8
15
370
     9
  6
Continuous
 62
    96
100
AcDbText
 10
345.71095
 20
32.675839
 30
0.0
 40
2.5
  1
検図
 41
0.85
 11
345.71095
 21
32.675839
 31
0.0
100
AcDbText
 73
     1
  0
TEXT
  5
170
100
AcDbEntity
  8
15
370
     9
  6
Continuous
 62
    96
100
AcDbText
 10
378.726811
 20
28.06484
 30
0.0
 40
5.0
  1
宮村
 41
0.85
 11
378.726811
 21
28.06484
 31
0.0
100
AcDbText
 73
     1
  0
TEXT
  5
171
100
AcDbEntity
  8
15
370
     9
  6
Continuous
 62
    96
100
AcDbText
 10
354.993478
 20
28.06484
 30
0.0
 40
5.0
  1
辻
 41
0.833333
 11
354.993478
 21
28.06484
 31
0.0
100
AcDbText
 73
     1
  0
TEXT
  5
172
100
AcDbEntity
  8
15
370
     9
  6
Continuous
 62
    96
100
AcDbText
 10
327.56535
 20
27.952147
 30
0.0
 40
5.0
  1
加川
 41
0.85
 11
327.56535
 21
27.952147
 31
0.0
100
AcDbText
 73
     1
  0
TEXT
  5
173
100
AcDbEntity
  8
15
370
     9
  6
Continuous
 62
    96
100
AcDbText
 10
316.4
 20
38.5
 30
0.0
 40
3.0
  1
アート磁気標準デザインカード Ｈｉｃｏ Ｅ含
 41
0.888889
 11
316.4
 21
38.5
 31
0.0
100
AcDbText
 73
     1
  0
TEXT
  5
174
100
AcDbEntity
  8
15
370
     9
  6
PHANTOM
 62
    96
100
AcDbText
 10
312.973688
 20
244.771029
 30
0.0
 40
3.0
  1
規　格
 41
0.833333
 11
312.973688
 21
244.771029
 31
0.0
100
AcDbText
 73
     1
  0
TEXT
  5
175
100
AcDbEntity
  8
15
370
     9
  6
PHANTOM
 62
    96
100
AcDbText
 10
312.973688
 20
239.271029
 30
0.0
 40
3.0
  1
構　造
 41
0.833333
 11
312.973688
 21
239.271029
 31
0.0
100
AcDbText
 73
     1
  0
TEXT
  5
176
100
AcDbEntity
  8
15
370
     9
  6
PHANTOM
 62
    96
100
AcDbText
 10
311.473688
 20
233.771029
 30
0.0
 40
3.0
  1
記憶方式
 41
0.833333
 11
311.473688
 21
233.771029
 31
0.0
100
AcDbText
 73
     1
  0
TEXT
  5
177
100
AcDbEntity
  8
15
370
     9
  6
PHANTOM
 62
    96
100
AcDbText
 10
347.473688
 20
239.271029
 30
0.0
 40
3.0
  1
磁気テープ貼付・塗付
 41
0.833333
 11
347.473688
 21
239.271029
 31
0.0
100
AcDbText
 73
     1
  0
TEXT
  5
178
100
AcDbEntity
  8
15
370
     9
  6
PHANTOM
 62
    96
100
AcDbText
 10
306.973688
 20
228.271029
 30
0.0
 40
3.0
  1
カード走行速度
 41
0.833333
 11
306.973688
 21
228.271029
 31
0.0
100
AcDbText
 73
     1
  0
TEXT
  5
179
100
AcDbEntity
  8
15
370
     9
  6
PHANTOM
 62
    96
100
AcDbText
 10
306.973688
 20
222.771029
 30
0.0
 40
3.0
  1
カード駆動方式
 41
0.833333
 11
306.973688
 21
222.771029
 31
0.0
100
AcDbText
 73
     1
  0
TEXT
  5
17A
100
AcDbEntity
  8
15
370
     9
  6
PHANTOM
 62
    96
100
AcDbText
 10
353.473688
 20
222.771029
 30
0.0
 40
3.0
  1
スライド方式
 41
0.833333
 11
353.473688
 21
222.771029
 31
0.0
100
AcDbText
 73
     1
  0
TEXT
  5
17B
100
AcDbEntity
  8
15
370
     9
  6
PHANTOM
 62
    96
100
AcDbText
 10
357.973688
 20
233.771029
 30
0.0
 40
3.0
  1
磁　気
 41
0.833333
 11
357.973688
 21
233.771029
 31
0.0
100
AcDbText
 73
     1
  0
LINE
  5
17C
100
AcDbEntity
  8
15
370
     9
  6
Continuous
 62
    96
100
AcDbLine
 10
305.083436
 20
221.5
 30
0.0
 11
395.083436
 21
221.5
 31
0.0
  0
LINE
  5
17D
100
AcDbEntity
  8
15
370
     9
  6
Continuous
 62
    96
100
AcDbLine
 10
305.083436
 20
216.0
 30
0.0
 11
395.083436
 21
216.0
 31
0.0
  0
TEXT
  5
17E
100
AcDbEntity
  8
15
370
     9
  6
PHANTOM
 62
    96
100
AcDbText
 10
313.083436
 20
217.25
 30
0.0
 40
3.0
  1
寿　命
 41
0.833333
 11
313.083436
 21
217.25
 31
0.0
100
AcDbText
 73
     1
  0
LINE
  5
17F
100
AcDbEntity
  8
15
370
    30
  6
Continuous
 62
    96
100
AcDbLine
 10
305.035446
 20
216.0
 30
0.0
 11
395.035446
 21
216.0
 31
0.0
  0
LINE
  5
180
100
AcDbEntity
  8
15
370
     9
  6
Continuous
 62
    96
100
AcDbLine
 10
330.0
 20
254.5
 30
0.0
 11
330.0
 21
216.0
 31
0.0
  0
TEXT
  5
181
100
AcDbEntity
  8
15
370
     9
  6
PHANTOM
 62
    96
100
AcDbText
 10
312.990176
 20
249.98951
 30
0.0
 40
3.0
  1
材　質
 41
0.833333
 11
312.990176
 21
249.98951
 31
0.0
100
AcDbText
 73
     1
  0
TEXT
  5
182
100
AcDbEntity
  8
15
370
     9
  6
PHANTOM
 62
    96
100
AcDbText
 10
359.840707
 20
249.884867
 30
0.0
 40
3.0
  1
PVC
 41
0.5
 11
359.840707
 21
249.884867
 31
0.0
100
AcDbText
 73
     1
  0
TEXT
  5
183
100
AcDbEntity
  8
15
370
     9
  6
PHANTOM
 62
    96
100
AcDbText
 10
341.473688
 20
244.771029
 30
0.0
 40
3.0
  1
JISX6301（表ストライプ）準拠
 41
0.7
 11
341.473688
 21
244.771029
 31
0.0
100
AcDbText
 73
     1
  0
TEXT
  5
184
100
AcDbEntity
  8
15
370
     9
  6
PHANTOM
 62
    96
100
AcDbText
 10
345.223688
 20
228.271029
 30
0.0
 40
3.0
  1
10cm/sec．～150cm/sec．
 41
0.558252
 11
345.223688
 21
228.271029
 31
0.0
100
AcDbText
 73
     1
  0
TEXT
  5
185
100
AcDbEntity
  8
15
370
     9
  6
PHANTOM
 62
    96
100
AcDbText
 10
351.333436
 20
217.25
 30
0.0
 40
3.0
  1
保証 2000回パス
 41
0.707547
 11
351.333436
 21
217.25
 31
0.0
100
AcDbText
 73
     1
  0
LINE
  5
186
100
AcDbEntity
  8
15
370
    50
  6
Continuous
 62
    96
100
AcDbLine
 10
9.913001
 20
8.5
 30
0.0
 11
395.026542
 21
8.5
 31
0.0
  0
LINE
  5
187
100
AcDbEntity
  8
15
370
     9
  6
Continuous
 62
    96
100
AcDbLine
 10
359.352506
 20
14.201777
 30
0.0
 11
346.886167
 21
14.201777
 31
0.0
  0
TEXT
  5
188
100
AcDbEntity
  8
15
370
     9
  6
Continuous
 62
    96
100
AcDbText
 10
329.117686
 20
13.191141
 30
0.0
 40
1.800531
  1
出入管理システム
 41
1.018519
 11
329.117686
 21
13.191141
 31
0.0
100
AcDbText
 73
     1
  0
TEXT
  5
189
100
AcDbEntity
  8
15
370
     9
  6
Continuous
 62
    96
100
AcDbText
 10
329.188265
 20
9.309317
 30
0.0
 40
3.601062
  1
株式会社
 41
1.753472
 11
329.188265
 21
9.309317
 31
0.0
100
AcDbText
 73
     1
  0
LINE
  5
18A
100
AcDbEntity
  8
15
370
    30
  6
Continuous
 62
    96
100
AcDbLine
 10
309.2914
 20
9.37882
 30
0.0
 11
312.459186
 21
9.37882
 31
0.0
  0
LINE
  5
18B
100
AcDbEntity
  8
15
370
    30
  6
Continuous
 62
    96
100
AcDbLine
 10
327.932189
 20
13.228548
 30
0.0
 11
327.932189
 21
14.44425
 31
0.0
  0
LINE
  5
18C
100
AcDbEntity
  8
15
370
    30
  6
Continuous
 62
    96
100
AcDbLine
 10
326.615182
 20
13.228548
 30
0.0
 11
327.932189
 21
13.228548
 31
0.0
  0
LINE
  5
18D
100
AcDbEntity
  8
15
370
    30
  6
Continuous
 62
    96
100
AcDbLine
 10
326.615182
 20
9.37882
 30
0.0
 11
326.615182
 21
13.228548
 31
0.0
  0
LINE
  5
18E
100
AcDbEntity
  8
15
370
    30
  6
Continuous
 62
    96
100
AcDbLine
 10
325.19686
 20
9.37882
 30
0.0
 11
326.615182
 21
9.37882
 31
0.0
  0
LINE
  5
18F
100
AcDbEntity
  8
15
370
    30
  6
Continuous
 62
    96
100
AcDbLine
 10
324.344559
 20
9.37882
 30
0.0
 11
322.562836
 21
9.37882
 31
0.0
  0
LINE
  5
190
100
AcDbEntity
  8
15
370
    30
  6
Continuous
 62
    96
100
AcDbLine
 10
315.167305
 20
9.37882
 30
0.0
 11
319.523573
 21
9.37882
 31
0.0
  0
LINE
  5
191
100
AcDbEntity
  8
15
370
    30
  6
Continuous
 62
    96
100
AcDbLine
 10
315.167305
 20
11.5063
 30
0.0
 11
315.167305
 21
9.37882
 31
0.0
  0
LINE
  5
192
100
AcDbEntity
  8
15
370
    30
  6
Continuous
 62
    96
100
AcDbLine
 10
312.459186
 20
9.37882
 30
0.0
 11
317.396095
 21
14.266848
 31
0.0
  0
LINE
  5
193
100
AcDbEntity
  8
15
370
    30
  6
Continuous
 62
    96
100
AcDbLine
 10
317.396095
 20
14.266848
 30
0.0
 11
317.396095
 21
11.5063
 31
0.0
  0
LINE
  5
194
100
AcDbEntity
  8
15
370
    30
  6
Continuous
 62
    96
100
AcDbLine
 10
317.396095
 20
11.5063
 30
0.0
 11
315.167305
 21
11.5063
 31
0.0
  0
LINE
  5
195
100
AcDbEntity
  8
15
370
    30
  6
Continuous
 62
    96
100
AcDbLine
 10
319.523573
 20
12.21546
 30
0.0
 11
322.562836
 21
9.37882
 31
0.0
  0
ARC
  5
196
100
AcDbEntity
  8
15
370
    30
  6
Continuous
 62
    96
100
AcDbCircle
 10
321.954983
 20
12.722004
 30
0.0
 40
0.506544
100
AcDbArc
 50
-90.0
 51
90.0
  0
LINE
  5
197
100
AcDbEntity
  8
15
370
    30
  6
Continuous
 62
    96
100
AcDbLine
 10
319.523573
 20
12.21546
 30
0.0
 11
321.954983
 21
12.21546
 31
0.0
  0
LINE
  5
198
100
AcDbEntity
  8
15
370
    30
  6
Continuous
 62
    96
100
AcDbLine
 10
319.92881
 20
13.228548
 30
0.0
 11
321.954983
 21
13.228548
 31
0.0
  0
LINE
  5
199
100
AcDbEntity
  8
15
370
    30
  6
Continuous
 62
    96
100
AcDbLine
 10
319.92881
 20
14.44425
 30
0.0
 11
319.92881
 21
13.228548
 31
0.0
  0
LINE
  5
19A
100
AcDbEntity
  8
15
370
    30
  6
Continuous
 62
    96
100
AcDbLine
 10
319.92881
 20
14.44425
 30
0.0
 11
322.33889
 21
14.44425
 31
0.0
  0
ARC
  5
19B
100
AcDbEntity
  8
15
370
    30
  6
Continuous
 62
    96
100
AcDbCircle
 10
322.146934
 20
12.722004
 30
0.0
 40
1.73291
100
AcDbArc
 50
-76.055153
 51
83.640296
  0
LINE
  5
19C
100
AcDbEntity
  8
15
370
    30
  6
Continuous
 62
    96
100
AcDbLine
 10
322.562836
 20
11.041763
 30
0.0
 11
324.344559
 21
9.37882
 31
0.0
  0
LINE
  5
19D
100
AcDbEntity
  8
15
370
    30
  6
Continuous
 62
    96
100
AcDbLine
 10
327.932189
 20
14.44425
 30
0.0
 11
323.879845
 21
14.44425
 31
0.0
  0
LINE
  5
19E
100
AcDbEntity
  8
15
370
    30
  6
Continuous
 62
    96
100
AcDbLine
 10
323.879845
 20
14.44425
 30
0.0
 11
323.879845
 21
13.228548
 31
0.0
  0
LINE
  5
19F
100
AcDbEntity
  8
15
370
    30
  6
Continuous
 62
    96
100
AcDbLine
 10
323.879845
 20
13.228548
 30
0.0
 11
325.19686
 21
13.228548
 31
0.0
  0
LINE
  5
1A0
100
AcDbEntity
  8
15
370
    30
  6
Continuous
 62
    96
100
AcDbLine
 10
325.19686
 20
13.228548
 30
0.0
 11
325.19686
 21
9.37882
 31
0.0
  0
LINE
  5
1A1
100
AcDbEntity
  8
15
370
    30
  6
Continuous
 62
    96
100
AcDbLine
 10
305.0
 20
8.5
 30
0.0
 11
305.0
 21
53.513278
 31
0.0
  0
LINE
  5
1A2
100
AcDbEntity
  8
15
370
     9
  6
Continuous
 62
    96
100
AcDbLine
 10
395.026542
 20
20.503546
 30
0.0
 11
305.0
 21
20.503539
 31
0.0
  0
LINE
  5
1A3
100
AcDbEntity
  8
15
370
     9
  6
Continuous
 62
    96
100
AcDbLine
 10
320.004424
 20
26.50531
 30
0.0
 11
320.004424
 21
20.50354
 31
0.0
  0
LINE
  5
1A4
100
AcDbEntity
  8
15
370
     9
  6
Continuous
 62
    96
100
AcDbLine
 10
319.523573
 20
9.37882
 30
0.0
 11
319.523573
 21
19.509681
 31
0.0
  0
LINE
  5
1A5
100
AcDbEntity
  8
15
370
     9
  6
Continuous
 62
    96
100
AcDbLine
 10
319.523573
 20
19.509681
 30
0.0
 11
309.2914
 21
9.37882
 31
0.0
  0
INSERT
  5
1AA
100
AcDbEntity
  8
0
370
     9
  6
Continuous
 62
    96
100
AcDbBlockReference
  2
*G6
 10
0.0
 20
0.0
 30
0.0
  0
TEXT
  5
1AB
100
AcDbEntity
  8
15
370
     9
  6
Continuous
 62
    96
100
AcDbText
 10
361.525484
 20
8.886992
 30
0.0
 40
10.002949
  1
アート
 41
0.834167
 11
361.525484
 21
8.886992
 31
0.0
100
AcDbText
 73
     1
  0
LINE
  5
1AC
100
AcDbEntity
  8
15
370
     9
  6
Continuous
 62
    96
100
AcDbLine
 10
350.033503
 20
26.503542
 30
0.0
 11
350.033503
 21
20.503542
 31
0.0
  0
LINE
  5
1AD
100
AcDbEntity
  8
15
370
     9
  6
Continuous
 62
    96
100
AcDbLine
 10
357.033503
 20
26.503547
 30
0.0
 11
357.033503
 21
20.503547
 31
0.0
  0
LINE
  5
1AE
100
AcDbEntity
  8
15
370
     9
  6
Continuous
 62
    96
100
AcDbLine
 10
383.026542
 20
26.503545
 30
0.0
 11
383.026542
 21
20.503545
 31
0.0
  0
LINE
  5
1AF
100
AcDbEntity
  8
15
370
     9
  6
Continuous
 62
    96
100
AcDbLine
 10
386.077231
 20
25.743545
 30
0.0
 11
386.077231
 21
21.263545
 31
0.0
  0
CIRCLE
  5
1B0
100
AcDbEntity
  8
15
370
     9
  6
Continuous
 62
    96
100
AcDbCircle
 10
386.077231
 20
23.503545
 30
0.0
 40
0.96
  0
CIRCLE
  5
1B1
100
AcDbEntity
  8
15
370
     9
  6
Continuous
 62
    96
100
AcDbCircle
 10
386.077231
 20
23.503545
 30
0.0
 40
1.6
  0
LINE
  5
1B2
100
AcDbEntity
  8
15
370
     9
  6
Continuous
 62
    96
100
AcDbLine
 10
388.716503
 20
24.463545
 30
0.0
 11
388.716503
 21
22.543545
 31
0.0
  0
LINE
  5
1B3
100
AcDbEntity
  8
15
370
     9
  6
Continuous
 62
    96
100
AcDbLine
 10
393.836503
 20
25.103545
 30
0.0
 11
393.836503
 21
21.903545
 31
0.0
  0
LINE
  5
1B4
100
AcDbEntity
  8
15
370
     9
  6
Continuous
 62
    96
100
AcDbLine
 10
388.716503
 20
24.463545
 30
0.0
 11
393.836503
 21
25.103545
 31
0.0
  0
LINE
  5
1B5
100
AcDbEntity
  8
15
370
     9
  6
Continuous
 62
    96
100
AcDbLine
 10
388.716503
 20
22.543545
 30
0.0
 11
393.836503
 21
21.903545
 31
0.0
  0
LINE
  5
1B6
100
AcDbEntity
  8
15
370
     9
  6
Continuous
 62
    96
100
AcDbLine
 10
383.837231
 20
23.503545
 30
0.0
 11
394.382503
 21
23.503545
 31
0.0
  0
TEXT
  5
1B7
100
AcDbEntity
  8
15
370
     9
  6
Continuous
 62
    96
100
AcDbText
 10
306.498149
 20
21.981333
 30
0.0
 40
3.0
  1
図面番号
 41
0.875
 11
306.498149
 21
21.981333
 31
0.0
100
AcDbText
 73
     1
  0
TEXT
  5
1B8
100
AcDbEntity
  8
15
370
     9
  6
Continuous
 62
    96
100
AcDbText
 10
350.326669
 20
21.97208
 30
0.0
 40
3.0
  1
日付
 41
0.861111
 11
350.326669
 21
21.97208
 31
0.0
100
AcDbText
 73
     1
  0
TEXT
  5
1B9
100
AcDbEntity
  8
15
370
     9
  6
Continuous
 62
    96
100
AcDbText
 10
322.005292
 20
21.76333
 30
0.0
 40
3.5
  1
G80001-01-19207
 41
0.5
 11
322.005292
 21
21.76333
 31
0.0
100
AcDbText
 73
     1
  0
TEXT
  5
1BA
100
AcDbEntity
  8
15
370
     9
  6
Continuous
 62
    96
100
AcDbText
 10
359.190474
 20
22.007157
 30
0.0
 40
3.0
  1
2019年02月07日
 41
0.66092
 11
359.190474
 21
22.007157
 31
0.0
100
AcDbText
 73
     1
  0
ENDSEC
  0
SECTION
  2
OBJECTS
  0
DICTIONARY
  5
19
100
AcDbDictionary
280
     0
281
     1
  3
ACAD_GROUP
350
1A
  3
ACAD_MLINESTYLE
350
1B
  3
ACAD_LAYOUT
350
1E
  3
ACAD_PLOTSETTINGS
350
22
  3
ACAD_PLOTSTYLENAME
350
1F
  3
ACAD_WIPEOUT_VARS
350
23
  0
DICTIONARY
  5
1A
102
{ACAD_REACTORS
330
19
102
}
100
AcDbDictionary
280
     0
281
     1
  0
DICTIONARY
  5
1B
102
{ACAD_REACTORS
330
19
102
}
100
AcDbDictionary
280
     0
281
     1
  3
Standard
350
1C
  0
MLINESTYLE
  5
1C
102
{ACAD_REACTORS
330
1B
102
}
100
AcDbMlineStyle
  2
Standard
 70
     0
  3

 62
     0
 51
90.0
 52
90.0
 71
     2
 49
0.5
 62
   256
  6
ByLayer
 49
-0.5
 62
   256
  6
ByLayer
  0
ACDBDICTIONARYWDFLT
  5
1F
102
{ACAD_REACTORS
330
19
102
}
100
AcDbDictionary
281
     1
  3
Normal
350
1D
100
AcDbDictionaryWithDefault
340
1D
  0
ACDBPLACEHOLDER
  5
1D
102
{ACAD_REACTORS
330
1F
102
}
  0
LAYOUT
  5
20
102
{ACAD_REACTORS
330
1E
102
}
100
AcDbPlotSettings
  1

  2

  4

  6

 40
0.0
 41
0.0
 42
0.0
 43
0.0
 44
0.0
 45
0.0
 46
0.0
 47
0.0
 48
0.0
 49
0.0
140
0.0
141
0.0
142
1.0
143
1.0
 70
  1024
 72
     0
 73
     0
 74
     0
  7

 75
     0
147
1.0
148
0.0
149
0.0
100
AcDbLayout
  1
Model
 70
     0
 71
     0
 10
0.0
 20
0.0
 11
0.0
 21
0.0
 12
0.0
 22
0.0
 32
0.0
 14
0.0
 24
0.0
 34
0.0
 15
0.0
 25
0.0
 35
0.0
146
0.0
 13
0.0
 23
0.0
 33
0.0
 16
0.0
 26
0.0
 36
0.0
 17
0.0
 27
0.0
 37
0.0
 76
     0
330
A
331
0
345
0
346
0
  0
LAYOUT
  5
21
102
{ACAD_REACTORS
330
1E
102
}
100
AcDbPlotSettings
  1

  2

  4

  6

 40
0.0
 41
0.0
 42
0.0
 43
0.0
 44
0.0
 45
0.0
 46
0.0
 47
0.0
 48
0.0
 49
0.0
140
0.0
141
0.0
142
1.0
143
1.0
 70
     0
 72
     0
 73
     0
 74
     0
  7

 75
     0
147
1.0
148
0.0
149
0.0
100
AcDbLayout
  1
Layout1
 70
     0
 71
     0
 10
0.0
 20
0.0
 11
0.0
 21
0.0
 12
0.0
 22
0.0
 32
0.0
 14
0.0
 24
0.0
 34
0.0
 15
0.0
 25
0.0
 35
0.0
146
0.0
 13
0.0
 23
0.0
 33
0.0
 16
0.0
 26
0.0
 36
0.0
 17
0.0
 27
0.0
 37
0.0
 76
     0
330
B
331
0
345
0
346
0
  0
DICTIONARY
  5
1E
102
{ACAD_REACTORS
330
19
102
}
100
AcDbDictionary
280
     0
281
     1
  3
Layout1
350
21
  3
Model
350
20
  0
DICTIONARY
  5
22
102
{ACAD_REACTORS
330
19
102
}
100
AcDbDictionary
280
     0
281
     1
  0
WIPEOUTVARIABLES
  5
23
100
AcDbWipeoutVariables
 70
     1
  0
ENDSEC
  0
EOF
