  0
SECTION
  2
HEADER
  9
$ACADVER
  1
AC1015
  9
$ACADMAINTVER
 70
     6
  9
$DWGCODEPAGE
  3
DOS932
  9
$INSBASE
 10
0.0
 20
0.0
 30
0.0
  9
$EXTMIN
 10
0.0
 20
0.0
 30
0.0
  9
$EXTMAX
 10
420.0
 20
297.0
 30
0.0
  9
$LIMMIN
 10
0.0
 20
0.0
  9
$LIMMAX
 10
420.0
 20
297.0
  9
$ORTHOMODE
 70
     0
  9
$REGENMODE
 70
     1
  9
$FILLMODE
 70
     1
  9
$QTEXTMODE
 70
     0
  9
$MIRRTEXT
 70
     1
  9
$LTSCALE
 40
0.25
  9
$ATTMODE
 70
     1
  9
$TEXTSIZE
 40
5.0
  9
$TRACEWID
 40
0.05
  9
$TEXTSTYLE
  7
Standard
  9
$CLAYER
  8
0
  9
$CELTYPE
  6
Continuous
  9
$CECOLOR
 62
   256
  9
$CELTSCALE
 40
1.0
  9
$DISPSILH
 70
     0
  9
$DIMSCALE
 40
1.0
  9
$DIMASZ
 40
4.0
  9
$DIMEXO
 40
2.0
  9
$DIMDLI
 40
10.0
  9
$DIMRND
 40
0.0
  9
$DIMDLE
 40
0.0
  9
$DIMEXE
 40
2.0
  9
$DIMTP
 40
0.0
  9
$DIMTM
 40
0.0
  9
$DIMTXT
 40
4.0
  9
$DIMCEN
 40
0.09
  9
$DIMTSZ
 40
0.0
  9
$DIMTOL
 70
     0
  9
$DIMLIM
 70
     0
  9
$DIMTIH
 70
     0
  9
$DIMTOH
 70
     0
  9
$DIMSE1
 70
     0
  9
$DIMSE2
 70
     0
  9
$DIMTAD
 70
     3
  9
$DIMZIN
 70
     0
  9
$DIMBLK
  1

  9
$DIMASO
 70
     1
  9
$DIMSHO
 70
     1
  9
$DIMPOST
  1

  9
$DIMAPOST
  1

  9
$DIMALT
 70
     0
  9
$DIMALTD
 70
     2
  9
$DIMALTF
 40
25.4
  9
$DIMLFAC
 40
1.0
  9
$DIMTOFL
 70
     1
  9
$DIMTVP
 40
0.7
  9
$DIMTIX
 70
     0
  9
$DIMSOXD
 70
     0
  9
$DIMSAH
 70
     0
  9
$DIMBLK1
  1

  9
$DIMBLK2
  1

  9
$DIMSTYLE
  2
Standard
  9
$DIMCLRD
 70
     0
  9
$DIMCLRE
 70
     0
  9
$DIMCLRT
 70
     0
  9
$DIMTFAC
 40
0.5
  9
$DIMGAP
 40
0.0
  9
$DIMJUST
 70
     0
  9
$DIMSD1
 70
     0
  9
$DIMSD2
 70
     0
  9
$DIMTOLJ
 70
     1
  9
$DIMTZIN
 70
     0
  9
$DIMALTZ
 70
     0
  9
$DIMALTTZ
 70
     0
  9
$DIMUPT
 70
     0
  9
$DIMDEC
 70
     2
  9
$DIMTDEC
 70
     4
  9
$DIMALTU
 70
     2
  9
$DIMALTTD
 70
     2
  9
$DIMTXSTY
  7
Standard
  9
$DIMAUNIT
 70
     0
  9
$DIMADEC
 70
     0
  9
$DIMALTRND
 40
0.0
  9
$DIMAZIN
 70
     0
  9
$DIMDSEP
 70
     0
  9
$DIMATFIT
 70
     3
  9
$DIMFRAC
 70
     0
  9
$DIMLDRBLK
  1

  9
$DIMLUNIT
 70
     2
  9
$DIMLWD
 70
     0
  9
$DIMLWE
 70
     0
  9
$DIMTMOVE
 70
     0
  9
$LUNITS
 70
     2
  9
$LUPREC
 70
     4
  9
$SKETCHINC
 40
0.1
  9
$FILLETRAD
 40
0.0
  9
$AUNITS
 70
     0
  9
$AUPREC
 70
     0
  9
$MENU
  1
acad
  9
$ELEVATION
 40
0.0
  9
$PELEVATION
 40
0.0
  9
$THICKNESS
 40
0.0
  9
$LIMCHECK
 70
     0
  9
$CHAMFERA
 40
0.0
  9
$CHAMFERB
 40
0.0
  9
$CHAMFERC
 40
0.0
  9
$CHAMFERD
 40
0.0
  9
$SKPOLY
 70
     0
  9
$TDCREATE
 40
2458788.674189815
  9
$TDUCREATE
 40
0.000000000
  9
$TDUPDATE
 40
2458788.674189815
  9
$TDUUPDATE
 40
0.000000000
  9
$TDINDWG
 40
0.0000000000
  9
$TDUSRTIMER
 40
0.0000000000
  9
$USRTIMER
 70
     1
  9
$ANGBASE
 50
0.0
  9
$ANGDIR
 70
     0
  9
$PDMODE
 70
     0
  9
$PDSIZE
 40
0.0
  9
$PLINEWID
 40
0.0
  9
$SPLFRAME
 70
     0
  9
$SPLINETYPE
 70
     6
  9
$SPLINESEGS
 70
     8
  9
$HANDSEED
  5
2D1
  9
$SURFTAB1
 70
     6
  9
$SURFTAB2
 70
     6
  9
$SURFTYPE
 70
     6
  9
$SURFU
 70
     6
  9
$SURFV
 70
     6
  9
$UCSBASE
  2

  9
$UCSNAME
  2

  9
$UCSORG
 10
0.0
 20
0.0
 30
0.0
  9
$UCSXDIR
 10
1.0
 20
0.0
 30
0.0
  9
$UCSYDIR
 10
0.0
 20
1.0
 30
0.0
  9
$UCSORTHOREF
  2

  9
$UCSORTHOVIEW
 70
     0
  9
$UCSORGTOP
 10
0.0
 20
0.0
 30
0.0
  9
$UCSORGBOTTOM
 10
0.0
 20
0.0
 30
0.0
  9
$UCSORGLEFT
 10
0.0
 20
0.0
 30
0.0
  9
$UCSORGRIGHT
 10
0.0
 20
0.0
 30
0.0
  9
$UCSORGFRONT
 10
0.0
 20
0.0
 30
0.0
  9
$UCSORGBACK
 10
0.0
 20
0.0
 30
0.0
  9
$PUCSBASE
  2

  9
$PUCSNAME
  2

  9
$PUCSORG
 10
0.0
 20
0.0
 30
0.0
  9
$PUCSXDIR
 10
1.0
 20
0.0
 30
0.0
  9
$PUCSYDIR
 10
0.0
 20
1.0
 30
0.0
  9
$PUCSORTHOREF
  2

  9
$PUCSORTHOVIEW
 70
     0
  9
$PUCSORGTOP
 10
0.0
 20
0.0
 30
0.0
  9
$PUCSORGBOTTOM
 10
0.0
 20
0.0
 30
0.0
  9
$PUCSORGLEFT
 10
0.0
 20
0.0
 30
0.0
  9
$PUCSORGRIGHT
 10
0.0
 20
0.0
 30
0.0
  9
$PUCSORGFRONT
 10
0.0
 20
0.0
 30
0.0
  9
$PUCSORGBACK
 10
0.0
 20
0.0
 30
0.0
  9
$USERI1
 70
     0
  9
$USERI2
 70
     0
  9
$USERI3
 70
     0
  9
$USERI4
 70
     0
  9
$USERI5
 70
     0
  9
$USERR1
 40
0.0
  9
$USERR2
 40
0.0
  9
$USERR3
 40
0.0
  9
$USERR4
 40
0.0
  9
$USERR5
 40
0.0
  9
$WORLDVIEW
 70
     1
  9
$SHADEDGE
 70
     3
  9
$SHADEDIF
 70
    70
  9
$TILEMODE
 70
     1
  9
$MAXACTVP
 70
    16
  9
$PINSBASE
 10
0.0
 20
0.0
 30
0.0
  9
$PLIMCHECK
 70
     0
  9
$PEXTMIN
 10
0.0
 20
0.0
 30
0.0
  9
$PEXTMAX
 10
420.0
 20
297.0
 30
0.0
  9
$PLIMMIN
 10
0.0
 20
0.0
  9
$PLIMMAX
 10
420.0
 20
297.0
  9
$UNITMODE
 70
     0
  9
$VISRETAIN
 70
     0
  9
$PLINEGEN
 70
     1
  9
$PSLTSCALE
 70
     0
  9
$TREEDEPTH
 70
  3020
  9
$CMLSTYLE
  2
Standard
  9
$CMLJUST
 70
     0
  9
$CMLSCALE
 40
1.0
  9
$PROXYGRAPHICS
 70
     0
  9
$MEASUREMENT
 70
     0
  9
$CELWEIGHT
370
     0
  9
$ENDCAPS
280
     0
  9
$JOINSTYLE
280
     0
  9
$LWDISPLAY
290
     0
  9
$INSUNITS
 70
     0
  9
$HYPERLINKBASE
  1

  9
$STYLESHEET
  1

  9
$XEDIT
290
     1
  9
$CEPSNTYPE
380
     0
  9
$PSTYLEMODE
290
     1
  9
$FINGERPRINTGUID
  2

  9
$VERSIONGUID
  2

  9
$EXTNAMES
290
     1
  9
$PSVPSCALE
 40
0.0
  0
ENDSEC
  0
SECTION
  2
CLASSES
  0
CLASS
  1
LWPOLYLINE
  2
AcDbPolyline
  3
AutoCAD 2000
 90
    32768
280
     0
281
     1
  0
CLASS
  1
IMAGE
  2
AcDbRasterImage
  3
ISM
 90
    32895
280
     0
281
     1
  0
CLASS
  1
OLE2FRAME
  2
AcDbOle2Frame
  3
AutoCAD 2000
 90
    32768
280
     0
281
     1
  0
CLASS
  1
HATCH
  2
AcDbHatch
  3
AutoCAD 2000
 90
    32768
280
     0
281
     1
  0
CLASS
  1
DICTIONARYVAR
  2
AcDbDictionaryVar
  3
AutoCAD 2000
 90
    32768
280
     0
281
     0
  0
CLASS
  1
RASTERVARIABLES
  2
AcDbRasterVariables
  3
ISM
 90
    32768
280
     0
281
     0
  0
CLASS
  1
IMAGEDEF
  2
AcDbRasterImageDef
  3
ISM
 90
    32768
280
     0
281
     0
  0
CLASS
  1
IMAGEDEF_REACTOR
  2
AcDbRasterImageDefReactor
  3
ISM
 90
    32769
280
     0
281
     0
  0
CLASS
  1
IDBUFFER
  2
AcDbIdBuffer
  3
AutoCAD 2000
 90
    32768
280
     0
281
     0
  0
CLASS
  1
SPATIAL_FILTER
  2
AcDbSpatialFilter
  3
AutoCAD 2000
 90
    32768
280
     0
281
     0
  0
CLASS
  1
XRECORD
  2
AcDbXrecord
  3
AutoCAD 2000
 90
    32768
280
     0
281
     0
  0
CLASS
  1
SORTENTSTABLE
  2
AcDbSortentsTable
  3
AutoCAD 2000
 90
    32768
280
     0
281
     0
  0
CLASS
  1
LAYER_INDEX
  2
AcDbLayerIndex
  3
AutoCAD 2000
 90
    32768
280
     0
281
     0
  0
CLASS
  1
SPATIAL_INDEX
  2
AcDbSpatialIndex
  3
AutoCAD 2000
 90
    32768
280
     0
281
     0
  0
CLASS
  1
OBJECT_PTR
  2
CAseDLPNTableRecord
  3
"ASE-LPNTableRecord"
 90
    32769
280
     0
281
     0
  0
CLASS
  1
LAYOUT
  2
AcDbLayout
  3
AutoCAD 2000
 90
        0
280
     0
281
     0
  0
CLASS
  1
PLOTSETTINGS
  2
AcDbPlotSettings
  3
AutoCAD 2000
 90
    32768
280
     0
281
     0
  0
CLASS
  1
ACDBDICTIONARYWDFLT
  2
AcDbDictionaryWithDefault
  3
AutoCAD 2000
 90
        0
280
     0
281
     0
  0
CLASS
  1
ACDBPLACEHOLDER
  2
AcDbPlaceHolder
  3
AutoCAD 2000
 90
        0
280
     0
281
     0
  0
CLASS
  1
VBA_PROJECT
  2
AcDbVbaProject
  3
acadvba
 90
    32768
280
     0
281
     0
  0
CLASS
  1
WIPEOUT
  2
AcDbWipeout
  3
WipeOut|AutoCAD Express Tool|expresstools@autodesk.com
 90
    32895
280
     0
281
     1
  0
CLASS
  1
WIPEOUTVARIABLES
  2
AcDbWipeoutVariables
  3
WipeOut|AutoCAD Express Tool|expresstools@autodesk.com
 90
        0
280
     0
281
     0
  0
CLASS
  1
RTEXT
  2
RText
  3
RText|AutoCAD Express Tool|expresstools@autodesk.com
 90
    32768
280
     0
281
     1
  0
CLASS
  1
ARCALIGNEDTEXT
  2
AcDbArcAlignedText
  3
ATEXT|AutoCAD Express Tool|expresstools@autodesk.com
 90
    32768
280
     0
281
     1
  0
ENDSEC
  0
SECTION
  2
TABLES
  0
TABLE
  2
VPORT
  5
7
100
AcDbSymbolTable
 70
     1
  0
VPORT
  5
15
100
AcDbSymbolTableRecord
100
AcDbViewportTableRecord
  2
*ACTIVE
 70
     0
 10
0.0
 20
0.0
 11
1.0
 21
1.0
 12
6.591288
 22
4.579184
 13
0.0
 23
0.0
 14
1.0
 24
1.0
 15
0.0
 25
0.0
 16
0.0
 26
0.0
 36
1.0
 17
0.0
 27
0.0
 37
0.0
 40
9.158369
 41
0.688564
 42
50.0
 43
0.0
 44
0.0
 50
0.0
 51
0.0
 71
     0
 72
   100
 73
     1
 74
     1
 75
     0
 76
     0
 77
     0
 78
     0
281
     0
 65
     0
110
0.0
120
0.0
130
0.0
111
1.0
121
0.0
131
0.0
112
0.0
122
1.0
132
0.0
345
0
346
0
 79
     0
146
0.0
  0
ENDTAB
  0
TABLE
  2
LTYPE
  5
4
100
AcDbSymbolTable
 70
     9
  0
LTYPE
  5
11
100
AcDbSymbolTableRecord
100
AcDbLinetypeTableRecord
  2
ByBlock
 70
    64
  3

 72
    65
 73
     0
 40
0.0
  0
LTYPE
  5
12
100
AcDbSymbolTableRecord
100
AcDbLinetypeTableRecord
  2
ByLayer
 70
    64
  3

 72
    65
 73
     0
 40
0.0
  0
LTYPE
  5
13
100
AcDbSymbolTableRecord
100
AcDbLinetypeTableRecord
  2
Continuous
 70
    64
  3
Solid line
 72
    65
 73
     0
 40
0.0
  0
LTYPE
  5
25
100
AcDbSymbolTableRecord
100
AcDbLinetypeTableRecord
  2
HIDDEN
 70
    64
  3
- - - - - - - - 
 72
    65
 73
     2
 40
12.6
 49
8.4
 74
     0
 49
-4.2
 74
     0
  0
LTYPE
  5
26
100
AcDbSymbolTableRecord
100
AcDbLinetypeTableRecord
  2
DOT
 70
    64
  3
･ ･ ･ ･ ･ ･ ･ ･ 
 72
    65
 73
     2
 40
8.0
 49
6.0
 74
     0
 49
-2.0
 74
     0
  0
LTYPE
  5
27
100
AcDbSymbolTableRecord
100
AcDbLinetypeTableRecord
  2
CENTER
 70
    64
  3
- ･ - ･ - ･ - ･ 
 72
    65
 73
     4
 40
50.5
 49
30.0
 74
     0
 49
-9.0
 74
     0
 49
2.5
 74
     0
 49
-9.0
 74
     0
  0
LTYPE
  5
28
100
AcDbSymbolTableRecord
100
AcDbLinetypeTableRecord
  2
PHANTOM
 70
    64
  3
- ･･ - ･･ - ･･ - ･･ 
 72
    65
 73
     6
 40
58.0
 49
30.0
 74
     0
 49
-9.0
 74
     0
 49
2.5
 74
     0
 49
-5.0
 74
     0
 49
2.5
 74
     0
 49
-9.0
 74
     0
  0
LTYPE
  5
29
100
AcDbSymbolTableRecord
100
AcDbLinetypeTableRecord
  2
ACAD_ISO06W100
 70
    64
  3
____ ... ____ ... ____
 72
    65
 73
     8
 40
37.5
 49
24.0
 74
     0
 49
-3.0
 74
     0
 49
0.5
 74
     0
 49
-3.0
 74
     0
 49
0.5
 74
     0
 49
-3.0
 74
     0
 49
0.5
 74
     0
 49
-3.0
 74
     0
  0
LTYPE
  5
2A
100
AcDbSymbolTableRecord
100
AcDbLinetypeTableRecord
  2
ACAD_ISO14W100
 70
    64
  3
__ . . . __ . . . __ . . . 
 72
    65
 73
     8
 40
25.5
 49
12.0
 74
     0
 49
-3.0
 74
     0
 49
0.5
 74
     0
 49
-3.0
 74
     0
 49
0.5
 74
     0
 49
-3.0
 74
     0
 49
0.5
 74
     0
 49
-3.0
 74
     0
  0
ENDTAB
  0
TABLE
  2
LAYER
  5
2
100
AcDbSymbolTable
 70
    73
  0
LAYER
  5
14
100
AcDbSymbolTableRecord
100
AcDbLayerTableRecord
  2
0
 70
     0
 62
     7
  6
Continuous
290
     1
370
    -3
390
1D
  0
LAYER
  5
2B
100
AcDbSymbolTableRecord
100
AcDbLayerTableRecord
  2
1
 70
     0
 62
     7
  6
Continuous
290
     1
370
    -3
390
1D
  0
LAYER
  5
2C
100
AcDbSymbolTableRecord
100
AcDbLayerTableRecord
  2
2
 70
     0
 62
   134
  6
Continuous
290
     1
370
    -3
390
1D
  0
LAYER
  5
2D
100
AcDbSymbolTableRecord
100
AcDbLayerTableRecord
  2
3
 70
     0
 62
   214
  6
Continuous
290
     1
370
    -3
390
1D
  0
LAYER
  5
2E
100
AcDbSymbolTableRecord
100
AcDbLayerTableRecord
  2
4
 70
     0
 62
    54
  6
Continuous
290
     1
370
    -3
390
1D
  0
LAYER
  5
2F
100
AcDbSymbolTableRecord
100
AcDbLayerTableRecord
  2
5
 70
     0
 62
     7
  6
Continuous
290
     1
370
    -3
390
1D
  0
LAYER
  5
30
100
AcDbSymbolTableRecord
100
AcDbLayerTableRecord
  2
6
 70
     0
 62
     7
  6
Continuous
290
     1
370
    -3
390
1D
  0
LAYER
  5
31
100
AcDbSymbolTableRecord
100
AcDbLayerTableRecord
  2
7
 70
     0
 62
     7
  6
Continuous
290
     1
370
    -3
390
1D
  0
LAYER
  5
32
100
AcDbSymbolTableRecord
100
AcDbLayerTableRecord
  2
8
 70
     0
 62
     5
  6
Continuous
290
     1
370
    -3
390
1D
  0
LAYER
  5
33
100
AcDbSymbolTableRecord
100
AcDbLayerTableRecord
  2
9
 70
     0
 62
    91
  6
Continuous
290
     1
370
    -3
390
1D
  0
LAYER
  5
34
100
AcDbSymbolTableRecord
100
AcDbLayerTableRecord
  2
10
 70
     0
 62
     3
  6
Continuous
290
     1
370
    -3
390
1D
  0
LAYER
  5
35
100
AcDbSymbolTableRecord
100
AcDbLayerTableRecord
  2
11
 70
     0
 62
   251
  6
Continuous
290
     1
370
    -3
390
1D
  0
LAYER
  5
36
100
AcDbSymbolTableRecord
100
AcDbLayerTableRecord
  2
12
 70
     0
 62
   136
  6
Continuous
290
     1
370
    -3
390
1D
  0
LAYER
  5
37
100
AcDbSymbolTableRecord
100
AcDbLayerTableRecord
  2
13
 70
     0
 62
   216
  6
Continuous
290
     1
370
    -3
390
1D
  0
LAYER
  5
38
100
AcDbSymbolTableRecord
100
AcDbLayerTableRecord
  2
14
 70
     0
 62
    56
  6
Continuous
290
     1
370
    -3
390
1D
  0
LAYER
  5
39
100
AcDbSymbolTableRecord
100
AcDbLayerTableRecord
  2
15
 70
     0
 62
    96
  6
Continuous
290
     1
370
    -3
390
1D
  0
LAYER
  5
3A
100
AcDbSymbolTableRecord
100
AcDbLayerTableRecord
  2
16
 70
     0
 62
    16
  6
Continuous
290
     1
370
    -3
390
1D
  0
LAYER
  5
3B
100
AcDbSymbolTableRecord
100
AcDbLayerTableRecord
  2
17
 70
     0
 62
   132
  6
Continuous
290
     1
370
    -3
390
1D
  0
LAYER
  5
3C
100
AcDbSymbolTableRecord
100
AcDbLayerTableRecord
  2
18
 70
     0
 62
   212
  6
Continuous
290
     1
370
    -3
390
1D
  0
LAYER
  5
3D
100
AcDbSymbolTableRecord
100
AcDbLayerTableRecord
  2
19
 70
     0
 62
    52
  6
Continuous
290
     1
370
    -3
390
1D
  0
LAYER
  5
3E
100
AcDbSymbolTableRecord
100
AcDbLayerTableRecord
  2
20
 70
     0
 62
     6
  6
Continuous
290
     1
370
    -3
390
1D
  0
LAYER
  5
3F
100
AcDbSymbolTableRecord
100
AcDbLayerTableRecord
  2
21
 70
     0
 62
     3
  6
Continuous
290
     1
370
    -3
390
1D
  0
LAYER
  5
40
100
AcDbSymbolTableRecord
100
AcDbLayerTableRecord
  2
22
 70
     0
 62
     7
  6
Continuous
290
     1
370
    -3
390
1D
  0
LAYER
  5
41
100
AcDbSymbolTableRecord
100
AcDbLayerTableRecord
  2
23
 70
     0
 62
    21
  6
Continuous
290
     1
370
    -3
390
1D
  0
LAYER
  5
42
100
AcDbSymbolTableRecord
100
AcDbLayerTableRecord
  2
24
 70
     0
 62
   214
  6
Continuous
290
     1
370
    -3
390
1D
  0
LAYER
  5
43
100
AcDbSymbolTableRecord
100
AcDbLayerTableRecord
  2
25
 70
     0
 62
   251
  6
Continuous
290
     1
370
    -3
390
1D
  0
LAYER
  5
44
100
AcDbSymbolTableRecord
100
AcDbLayerTableRecord
  2
26
 70
     0
 62
     3
  6
Continuous
290
     1
370
    -3
390
1D
  0
LAYER
  5
45
100
AcDbSymbolTableRecord
100
AcDbLayerTableRecord
  2
27
 70
     0
 62
     3
  6
Continuous
290
     1
370
    -3
390
1D
  0
LAYER
  5
46
100
AcDbSymbolTableRecord
100
AcDbLayerTableRecord
  2
28
 70
     0
 62
     1
  6
Continuous
290
     1
370
    -3
390
1D
  0
LAYER
  5
47
100
AcDbSymbolTableRecord
100
AcDbLayerTableRecord
  2
29
 70
     0
 62
     4
  6
Continuous
290
     1
370
    -3
390
1D
  0
LAYER
  5
48
100
AcDbSymbolTableRecord
100
AcDbLayerTableRecord
  2
30
 70
     0
 62
     6
  6
Continuous
290
     1
370
    -3
390
1D
  0
LAYER
  5
49
100
AcDbSymbolTableRecord
100
AcDbLayerTableRecord
  2
31
 70
     0
 62
     2
  6
Continuous
290
     1
370
    -3
390
1D
  0
LAYER
  5
4A
100
AcDbSymbolTableRecord
100
AcDbLayerTableRecord
  2
32
 70
     0
 62
     7
  6
Continuous
290
     1
370
    -3
390
1D
  0
LAYER
  5
4B
100
AcDbSymbolTableRecord
100
AcDbLayerTableRecord
  2
33
 70
     0
 62
     7
  6
Continuous
290
     1
370
    -3
390
1D
  0
LAYER
  5
4C
100
AcDbSymbolTableRecord
100
AcDbLayerTableRecord
  2
34
 70
     0
 62
   253
  6
Continuous
290
     1
370
    -3
390
1D
  0
LAYER
  5
4D
100
AcDbSymbolTableRecord
100
AcDbLayerTableRecord
  2
35
 70
     0
 62
     7
  6
Continuous
290
     1
370
    -3
390
1D
  0
LAYER
  5
4E
100
AcDbSymbolTableRecord
100
AcDbLayerTableRecord
  2
36
 70
     0
 62
    94
  6
Continuous
290
     1
370
    -3
390
1D
  0
LAYER
  5
4F
100
AcDbSymbolTableRecord
100
AcDbLayerTableRecord
  2
37
 70
     0
 62
    14
  6
Continuous
290
     1
370
    -3
390
1D
  0
LAYER
  5
50
100
AcDbSymbolTableRecord
100
AcDbLayerTableRecord
  2
38
 70
     0
 62
   134
  6
Continuous
290
     1
370
    -3
390
1D
  0
LAYER
  5
51
100
AcDbSymbolTableRecord
100
AcDbLayerTableRecord
  2
39
 70
     0
 62
    54
  6
Continuous
290
     1
370
    -3
390
1D
  0
LAYER
  5
52
100
AcDbSymbolTableRecord
100
AcDbLayerTableRecord
  2
40
 70
     0
 62
   214
  6
Continuous
290
     1
370
    -3
390
1D
  0
LAYER
  5
53
100
AcDbSymbolTableRecord
100
AcDbLayerTableRecord
  2
41
 70
     0
 62
     7
  6
Continuous
290
     1
370
    -3
390
1D
  0
LAYER
  5
54
100
AcDbSymbolTableRecord
100
AcDbLayerTableRecord
  2
42
 70
     0
 62
     5
  6
Continuous
290
     1
370
    -3
390
1D
  0
LAYER
  5
55
100
AcDbSymbolTableRecord
100
AcDbLayerTableRecord
  2
43
 70
     0
 62
     3
  6
Continuous
290
     1
370
    -3
390
1D
  0
LAYER
  5
56
100
AcDbSymbolTableRecord
100
AcDbLayerTableRecord
  2
44
 70
     0
 62
     1
  6
Continuous
290
     1
370
    -3
390
1D
  0
LAYER
  5
57
100
AcDbSymbolTableRecord
100
AcDbLayerTableRecord
  2
45
 70
     0
 62
     3
  6
Continuous
290
     1
370
    -3
390
1D
  0
LAYER
  5
58
100
AcDbSymbolTableRecord
100
AcDbLayerTableRecord
  2
46
 70
     0
 62
     6
  6
Continuous
290
     1
370
    -3
390
1D
  0
LAYER
  5
59
100
AcDbSymbolTableRecord
100
AcDbLayerTableRecord
  2
47
 70
     0
 62
     2
  6
Continuous
290
     1
370
    -3
390
1D
  0
LAYER
  5
5A
100
AcDbSymbolTableRecord
100
AcDbLayerTableRecord
  2
48
 70
     0
 62
     7
  6
Continuous
290
     1
370
    -3
390
1D
  0
LAYER
  5
5B
100
AcDbSymbolTableRecord
100
AcDbLayerTableRecord
  2
49
 70
     0
 62
     7
  6
Continuous
290
     1
370
    -3
390
1D
  0
LAYER
  5
5C
100
AcDbSymbolTableRecord
100
AcDbLayerTableRecord
  2
50
 70
     0
 62
   253
  6
Continuous
290
     1
370
    -3
390
1D
  0
LAYER
  5
5D
100
AcDbSymbolTableRecord
100
AcDbLayerTableRecord
  2
51
 70
     0
 62
   174
  6
Continuous
290
     1
370
    -3
390
1D
  0
LAYER
  5
5E
100
AcDbSymbolTableRecord
100
AcDbLayerTableRecord
  2
52
 70
     0
 62
    94
  6
Continuous
290
     1
370
    -3
390
1D
  0
LAYER
  5
5F
100
AcDbSymbolTableRecord
100
AcDbLayerTableRecord
  2
53
 70
     0
 62
    14
  6
Continuous
290
     1
370
    -3
390
1D
  0
LAYER
  5
60
100
AcDbSymbolTableRecord
100
AcDbLayerTableRecord
  2
54
 70
     0
 62
     3
  6
Continuous
290
     1
370
    -3
390
1D
  0
LAYER
  5
61
100
AcDbSymbolTableRecord
100
AcDbLayerTableRecord
  2
55
 70
     0
 62
    54
  6
Continuous
290
     1
370
    -3
390
1D
  0
LAYER
  5
62
100
AcDbSymbolTableRecord
100
AcDbLayerTableRecord
  2
56
 70
     0
 62
   214
  6
Continuous
290
     1
370
    -3
390
1D
  0
LAYER
  5
63
100
AcDbSymbolTableRecord
100
AcDbLayerTableRecord
  2
57
 70
     0
 62
     3
  6
Continuous
290
     1
370
    -3
390
1D
  0
LAYER
  5
64
100
AcDbSymbolTableRecord
100
AcDbLayerTableRecord
  2
58
 70
     0
 62
     5
  6
Continuous
290
     1
370
    -3
390
1D
  0
LAYER
  5
65
100
AcDbSymbolTableRecord
100
AcDbLayerTableRecord
  2
59
 70
     0
 62
     3
  6
Continuous
290
     1
370
    -3
390
1D
  0
LAYER
  5
66
100
AcDbSymbolTableRecord
100
AcDbLayerTableRecord
  2
60
 70
     0
 62
     1
  6
Continuous
290
     1
370
    -3
390
1D
  0
LAYER
  5
67
100
AcDbSymbolTableRecord
100
AcDbLayerTableRecord
  2
61
 70
     0
 62
     4
  6
Continuous
290
     1
370
    -3
390
1D
  0
LAYER
  5
68
100
AcDbSymbolTableRecord
100
AcDbLayerTableRecord
  2
62
 70
     0
 62
     6
  6
Continuous
290
     1
370
    -3
390
1D
  0
LAYER
  5
69
100
AcDbSymbolTableRecord
100
AcDbLayerTableRecord
  2
63
 70
     0
 62
     2
  6
Continuous
290
     1
370
    -3
390
1D
  0
LAYER
  5
6A
100
AcDbSymbolTableRecord
100
AcDbLayerTableRecord
  2
64
 70
     0
 62
     7
  6
Continuous
290
     1
370
    -3
390
1D
  0
LAYER
  5
6B
100
AcDbSymbolTableRecord
100
AcDbLayerTableRecord
  2
103
 70
     0
 62
     3
  6
Continuous
290
     1
370
    -3
390
1D
  0
LAYER
  5
6C
100
AcDbSymbolTableRecord
100
AcDbLayerTableRecord
  2
128
 70
     0
 62
     7
  6
Continuous
290
     1
370
    -3
390
1D
  0
LAYER
  5
6D
100
AcDbSymbolTableRecord
100
AcDbLayerTableRecord
  2
145
 70
     0
 62
     3
  6
Continuous
290
     1
370
    -3
390
1D
  0
LAYER
  5
6E
100
AcDbSymbolTableRecord
100
AcDbLayerTableRecord
  2
242
 70
     0
 62
     3
  6
Continuous
290
     1
370
    -3
390
1D
  0
LAYER
  5
6F
100
AcDbSymbolTableRecord
100
AcDbLayerTableRecord
  2
244
 70
     0
 62
     3
  6
Continuous
290
     1
370
    -3
390
1D
  0
LAYER
  5
70
100
AcDbSymbolTableRecord
100
AcDbLayerTableRecord
  2
245
 70
     0
 62
     3
  6
Continuous
290
     1
370
    -3
390
1D
  0
LAYER
  5
71
100
AcDbSymbolTableRecord
100
AcDbLayerTableRecord
  2
255
 70
     0
 62
     3
  6
Continuous
290
     1
370
    -3
390
1D
  0
LAYER
  5
72
100
AcDbSymbolTableRecord
100
AcDbLayerTableRecord
  2
256
 70
     0
 62
     3
  6
Continuous
290
     1
370
    -3
390
1D
  0
ENDTAB
  0
TABLE
  2
STYLE
  5
3
100
AcDbSymbolTable
 70
     2
  0
STYLE
  5
17
100
AcDbSymbolTableRecord
100
AcDbTextStyleTableRecord
  2
Standard
 70
     0
 40
0.0
 41
1.0
 50
0.0
 71
     0
 42
0.0
  3
txt
  4
bigfont
  0
STYLE
  5
24
100
AcDbSymbolTableRecord
100
AcDbTextStyleTableRecord
  2
T_STANDARD
 70
    68
 40
10.0
 41
1.0
 50
0.0
 71
     0
 42
10.0
  3
txt
  4
bigfont
  0
ENDTAB
  0
TABLE
  2
VIEW
  5
5
100
AcDbSymbolTable
 70
     0
  0
ENDTAB
  0
TABLE
  2
UCS
  5
6
100
AcDbSymbolTable
 70
     0
  0
ENDTAB
  0
TABLE
  2
APPID
  5
8
100
AcDbSymbolTable
 70
     1
  0
APPID
  5
16
100
AcDbSymbolTableRecord
100
AcDbRegAppTableRecord
  2
ACAD
 70
     0
  0
ENDTAB
  0
TABLE
  2
DIMSTYLE
  5
9
100
AcDbSymbolTable
 70
     1
100
AcDbDimStyleTable
 71
     0
  0
DIMSTYLE
105
18
100
AcDbSymbolTableRecord
100
AcDbDimStyleTableRecord
  2
Standard
 70
     0
  3

  4

 40
1.0
 41
0.18
 42
0.0625
 43
0.38
 44
0.18
 45
0.0
 46
0.0
 47
0.0
 48
0.0
 71
     0
 72
     0
 73
     1
 74
     1
 75
     0
 76
     0
 77
     0
 78
     0
 79
     0
140
0.18
141
0.09
142
0.0
143
25.4
144
1.0
145
0.0
146
1.0
147
0.09
148
0.0
170
     0
171
     2
172
     0
173
     0
174
     0
175
     0
176
     0
177
     0
178
     0
179
     0
271
     4
272
     4
273
     2
274
     2
275
     0
276
     0
277
     2
278
    46
279
     0
280
     0
281
     0
282
     0
283
     1
284
     0
285
     0
286
     0
288
     0
340
17
341
0
342
0
343
0
344
0
371
    -2
372
    -2
  0
ENDTAB
  0
TABLE
  2
BLOCK_RECORD
  5
1
100
AcDbSymbolTable
 70
    20
  0
BLOCK_RECORD
  5
A
100
AcDbSymbolTableRecord
100
AcDbBlockTableRecord
  2
*MODEL_SPACE
340
20
  0
BLOCK_RECORD
  5
B
100
AcDbSymbolTableRecord
100
AcDbBlockTableRecord
  2
*PAPER_SPACE
340
21
  0
BLOCK_RECORD
  5
73
100
AcDbSymbolTableRecord
100
AcDbBlockTableRecord
  2
*G0
340
0
102
{BLKREFS
331
76
102
}
  0
BLOCK_RECORD
  5
98
100
AcDbSymbolTableRecord
100
AcDbBlockTableRecord
  2
*G1
340
0
102
{BLKREFS
331
A3
102
}
  0
BLOCK_RECORD
  5
B1
100
AcDbSymbolTableRecord
100
AcDbBlockTableRecord
  2
*G2
340
0
102
{BLKREFS
331
B8
102
}
  0
BLOCK_RECORD
  5
B9
100
AcDbSymbolTableRecord
100
AcDbBlockTableRecord
  2
*D3
340
0
  0
BLOCK_RECORD
  5
C5
100
AcDbSymbolTableRecord
100
AcDbBlockTableRecord
  2
*D4
340
0
  0
BLOCK_RECORD
  5
D1
100
AcDbSymbolTableRecord
100
AcDbBlockTableRecord
  2
*D5
340
0
  0
BLOCK_RECORD
  5
E9
100
AcDbSymbolTableRecord
100
AcDbBlockTableRecord
  2
*G6
340
0
102
{BLKREFS
331
F0
102
}
  0
BLOCK_RECORD
  5
F1
100
AcDbSymbolTableRecord
100
AcDbBlockTableRecord
  2
*G7
340
0
102
{BLKREFS
331
F8
102
}
  0
BLOCK_RECORD
  5
F9
100
AcDbSymbolTableRecord
100
AcDbBlockTableRecord
  2
*G8
340
0
102
{BLKREFS
331
100
102
}
  0
BLOCK_RECORD
  5
1CA
100
AcDbSymbolTableRecord
100
AcDbBlockTableRecord
  2
*G9
340
0
102
{BLKREFS
331
1D1
102
}
  0
BLOCK_RECORD
  5
1D2
100
AcDbSymbolTableRecord
100
AcDbBlockTableRecord
  2
*G10
340
0
102
{BLKREFS
331
1D9
102
}
  0
BLOCK_RECORD
  5
1DA
100
AcDbSymbolTableRecord
100
AcDbBlockTableRecord
  2
*G11
340
0
102
{BLKREFS
331
1E1
102
}
  0
BLOCK_RECORD
  5
1E2
100
AcDbSymbolTableRecord
100
AcDbBlockTableRecord
  2
*G12
340
0
102
{BLKREFS
331
1E9
102
}
  0
BLOCK_RECORD
  5
1EA
100
AcDbSymbolTableRecord
100
AcDbBlockTableRecord
  2
*G13
340
0
102
{BLKREFS
331
1F1
102
}
  0
BLOCK_RECORD
  5
1F2
100
AcDbSymbolTableRecord
100
AcDbBlockTableRecord
  2
*G14
340
0
102
{BLKREFS
331
1F9
102
}
  0
BLOCK_RECORD
  5
1FA
100
AcDbSymbolTableRecord
100
AcDbBlockTableRecord
  2
*G15
340
0
102
{BLKREFS
331
201
102
}
  0
BLOCK_RECORD
  5
202
100
AcDbSymbolTableRecord
100
AcDbBlockTableRecord
  2
*G16
340
0
102
{BLKREFS
331
209
102
}
  0
BLOCK_RECORD
  5
20A
100
AcDbSymbolTableRecord
100
AcDbBlockTableRecord
  2
*G17
340
0
102
{BLKREFS
331
211
102
}
  0
BLOCK_RECORD
  5
256
100
AcDbSymbolTableRecord
100
AcDbBlockTableRecord
  2
*G18
340
0
102
{BLKREFS
331
25A
102
}
  0
BLOCK_RECORD
  5
2BC
100
AcDbSymbolTableRecord
100
AcDbBlockTableRecord
  2
*G19
340
0
102
{BLKREFS
331
2C0
102
}
  0
ENDTAB
  0
ENDSEC
  0
SECTION
  2
BLOCKS
  0
BLOCK
  5
D
100
AcDbEntity
  8
0
100
AcDbBlockBegin
  2
*MODEL_SPACE
 70
     0
 10
0.0
 20
0.0
 30
0.0
  3
*MODEL_SPACE
  1

  0
ENDBLK
  5
E
100
AcDbEntity
  8
0
100
AcDbBlockEnd
  0
BLOCK
  5
F
100
AcDbEntity
 67
     1
  8
0
100
AcDbBlockBegin
  2
*PAPER_SPACE
 70
     0
 10
0.0
 20
0.0
 30
0.0
  3
*PAPER_SPACE
  1

  0
ENDBLK
  5
10
100
AcDbEntity
 67
     1
  8
0
100
AcDbBlockEnd
  0
BLOCK
  5
74
100
AcDbEntity
  8
0
370
     9
  6
Continuous
 62
     7
100
AcDbBlockBegin
  2
*G0
 70
     0
 10
0.0
 20
0.0
 30
0.0
  3
*G0
  1

  0
ENDBLK
  5
75
100
AcDbEntity
  8
0
100
AcDbBlockEnd
  0
BLOCK
  5
99
100
AcDbEntity
  8
0
370
     9
  6
Continuous
 62
     7
100
AcDbBlockBegin
  2
*G1
 70
     0
 10
0.0
 20
0.0
 30
0.0
  3
*G1
  1

  0
LINE
  5
9A
100
AcDbEntity
  8
1
370
     9
  6
Continuous
 62
     7
100
AcDbLine
 10
97.05
 20
62.954082
 30
0.0
 11
177.15
 21
62.954082
 31
0.0
  0
ARC
  5
9B
100
AcDbEntity
  8
1
370
     9
  6
Continuous
 62
     7
100
AcDbCircle
 10
97.05
 20
65.954082
 30
0.0
 40
3.0
100
AcDbArc
 50
180.0
 51
-90.0
  0
LINE
  5
9C
100
AcDbEntity
  8
1
370
     9
  6
Continuous
 62
     7
100
AcDbLine
 10
94.05
 20
65.954082
 30
0.0
 11
94.05
 21
113.954082
 31
0.0
  0
ARC
  5
9D
100
AcDbEntity
  8
1
370
     9
  6
Continuous
 62
     7
100
AcDbCircle
 10
97.05
 20
113.954082
 30
0.0
 40
3.0
100
AcDbArc
 50
90.0
 51
180.0
  0
LINE
  5
9E
100
AcDbEntity
  8
1
370
     9
  6
Continuous
 62
     7
100
AcDbLine
 10
177.15
 20
116.954082
 30
0.0
 11
97.05
 21
116.954082
 31
0.0
  0
ARC
  5
9F
100
AcDbEntity
  8
1
370
     9
  6
Continuous
 62
     7
100
AcDbCircle
 10
177.15
 20
65.954082
 30
0.0
 40
3.0
100
AcDbArc
 50
-90.0
 51
0.0
  0
LINE
  5
A0
100
AcDbEntity
  8
1
370
     9
  6
Continuous
 62
     7
100
AcDbLine
 10
180.15
 20
113.954082
 30
0.0
 11
180.15
 21
65.954082
 31
0.0
  0
ARC
  5
A1
100
AcDbEntity
  8
1
370
     9
  6
Continuous
 62
     7
100
AcDbCircle
 10
177.15
 20
113.954082
 30
0.0
 40
3.0
100
AcDbArc
 50
0.0
 51
90.0
  0
ENDBLK
  5
A2
100
AcDbEntity
  8
0
100
AcDbBlockEnd
  0
BLOCK
  5
B2
100
AcDbEntity
  8
0
370
     9
  6
Continuous
 62
     7
100
AcDbBlockBegin
  2
*G2
 70
     0
 10
0.0
 20
0.0
 30
0.0
  3
*G2
  1

  0
LINE
  5
B3
100
AcDbEntity
  8
1
370
     9
  6
Continuous
 62
     7
100
AcDbLine
 10
208.960002
 20
210.953
 30
0.0
 11
209.760002
 21
210.953
 31
0.0
  0
LINE
  5
B4
100
AcDbEntity
  8
1
370
     9
  6
Continuous
 62
     7
100
AcDbLine
 10
209.760002
 20
210.953
 30
0.0
 11
209.760002
 21
156.953
 31
0.0
  0
LINE
  5
B5
100
AcDbEntity
  8
1
370
     9
  6
Continuous
 62
     7
100
AcDbLine
 10
209.760002
 20
156.953
 30
0.0
 11
208.960002
 21
156.953
 31
0.0
  0
LINE
  5
B6
100
AcDbEntity
  8
1
370
     9
  6
Continuous
 62
     7
100
AcDbLine
 10
208.960002
 20
156.953
 30
0.0
 11
208.960002
 21
210.953
 31
0.0
  0
ENDBLK
  5
B7
100
AcDbEntity
  8
0
100
AcDbBlockEnd
  0
BLOCK
  5
BA
100
AcDbEntity
  8
1
370
     9
  6
Continuous
 62
     7
100
AcDbBlockBegin
  2
*D3
 70
     0
 10
0.0
 20
0.0
 30
0.0
  3
*D3
  1

  0
LINE
  5
BB
100
AcDbEntity
  8
1
370
     9
  6
Continuous
 62
     7
100
AcDbLine
 10
206.560002
 20
220.953
 30
0.0
 11
216.117559
 21
220.953
 31
0.0
  0
LINE
  5
BC
100
AcDbEntity
  8
1
370
     9
  6
Continuous
 62
     7
100
AcDbLine
 10
208.960002
 20
222.953
 30
0.0
 11
208.960002
 21
212.953
 31
0.0
  0
LINE
  5
BD
100
AcDbEntity
  8
1
370
     9
  6
Continuous
 62
     7
100
AcDbLine
 10
209.760002
 20
222.953
 30
0.0
 11
209.760002
 21
212.953
 31
0.0
  0
LINE
  5
BE
100
AcDbEntity
  8
1
370
     9
  6
Continuous
 62
     7
100
AcDbLine
 10
208.960002
 20
220.953
 30
0.0
 11
206.64178
 21
220.331834
 31
0.0
  0
LINE
  5
BF
100
AcDbEntity
  8
1
370
     9
  6
Continuous
 62
     7
100
AcDbLine
 10
208.960002
 20
220.953
 30
0.0
 11
206.64178
 21
221.574166
 31
0.0
  0
LINE
  5
C0
100
AcDbEntity
  8
1
370
     9
  6
Continuous
 62
     7
100
AcDbLine
 10
209.760002
 20
220.953
 30
0.0
 11
212.078224
 21
221.574166
 31
0.0
  0
LINE
  5
C1
100
AcDbEntity
  8
1
370
     9
  6
Continuous
 62
     7
100
AcDbLine
 10
209.760002
 20
220.953
 30
0.0
 11
212.078224
 21
220.331834
 31
0.0
  0
TEXT
  5
C2
100
AcDbEntity
  8
1
370
     9
  6
Continuous
 62
     7
100
AcDbText
 10
211.217559
 20
221.453
 30
0.0
 40
3.0
  1
0.8
 41
0.628205
 11
211.217559
 21
221.453
 31
0.0
100
AcDbText
 73
     1
  0
ENDBLK
  5
C3
100
AcDbEntity
  8
1
370
     9
  6
Continuous
 62
     7
100
AcDbBlockEnd
  0
BLOCK
  5
C6
100
AcDbEntity
  8
1
370
     9
  6
Continuous
 62
     7
100
AcDbBlockBegin
  2
*D4
 70
     0
 10
0.0
 20
0.0
 30
0.0
  3
*D4
  1

  0
LINE
  5
C7
100
AcDbEntity
  8
1
370
     9
  6
Continuous
 62
     7
100
AcDbLine
 10
94.05
 20
221.052001
 30
0.0
 11
179.650001
 21
221.052001
 31
0.0
  0
LINE
  5
C8
100
AcDbEntity
  8
1
370
     9
  6
Continuous
 62
     7
100
AcDbLine
 10
94.05
 20
223.052001
 30
0.0
 11
94.05
 21
209.953
 31
0.0
  0
LINE
  5
C9
100
AcDbEntity
  8
1
370
     9
  6
Continuous
 62
     7
100
AcDbLine
 10
179.650001
 20
223.052001
 30
0.0
 11
179.650001
 21
209.953
 31
0.0
  0
LINE
  5
CA
100
AcDbEntity
  8
1
370
     9
  6
Continuous
 62
     7
100
AcDbLine
 10
94.05
 20
221.052001
 30
0.0
 11
96.368222
 21
221.673167
 31
0.0
  0
LINE
  5
CB
100
AcDbEntity
  8
1
370
     9
  6
Continuous
 62
     7
100
AcDbLine
 10
94.05
 20
221.052001
 30
0.0
 11
96.368222
 21
220.430835
 31
0.0
  0
LINE
  5
CC
100
AcDbEntity
  8
1
370
     9
  6
Continuous
 62
     7
100
AcDbLine
 10
179.650001
 20
221.052001
 30
0.0
 11
177.331779
 21
220.430835
 31
0.0
  0
LINE
  5
CD
100
AcDbEntity
  8
1
370
     9
  6
Continuous
 62
     7
100
AcDbLine
 10
179.650001
 20
221.052001
 30
0.0
 11
177.331779
 21
221.673167
 31
0.0
  0
TEXT
  5
CE
100
AcDbEntity
  8
1
370
     9
  6
Continuous
 62
     7
100
AcDbText
 10
133.550001
 20
221.552001
 30
0.0
 40
3.0
  1
85.6
 41
0.611111
 11
133.550001
 21
221.552001
 31
0.0
100
AcDbText
 73
     1
  0
ENDBLK
  5
CF
100
AcDbEntity
  8
1
370
     9
  6
Continuous
 62
     7
100
AcDbBlockEnd
  0
BLOCK
  5
D2
100
AcDbEntity
  8
1
370
     9
  6
Continuous
 62
     7
100
AcDbBlockBegin
  2
*D5
 70
     0
 10
0.0
 20
0.0
 30
0.0
  3
*D5
  1

  0
LINE
  5
D3
100
AcDbEntity
  8
1
370
     9
  6
Continuous
 62
     7
100
AcDbLine
 10
192.618001
 20
156.953
 30
0.0
 11
192.618001
 21
210.953
 31
0.0
  0
LINE
  5
D4
100
AcDbEntity
  8
1
370
     9
  6
Continuous
 62
     7
100
AcDbLine
 10
194.618001
 20
156.953
 30
0.0
 11
178.650001
 21
156.953
 31
0.0
  0
LINE
  5
D5
100
AcDbEntity
  8
1
370
     9
  6
Continuous
 62
     7
100
AcDbLine
 10
194.618001
 20
210.953
 30
0.0
 11
178.650003
 21
210.953
 31
0.0
  0
LINE
  5
D6
100
AcDbEntity
  8
1
370
     9
  6
Continuous
 62
     7
100
AcDbLine
 10
192.618001
 20
156.953
 30
0.0
 11
191.996835
 21
159.271222
 31
0.0
  0
LINE
  5
D7
100
AcDbEntity
  8
1
370
     9
  6
Continuous
 62
     7
100
AcDbLine
 10
192.618001
 20
156.953
 30
0.0
 11
193.239166
 21
159.271222
 31
0.0
  0
LINE
  5
D8
100
AcDbEntity
  8
1
370
     9
  6
Continuous
 62
     7
100
AcDbLine
 10
192.618001
 20
210.953
 30
0.0
 11
193.239166
 21
208.634778
 31
0.0
  0
LINE
  5
D9
100
AcDbEntity
  8
1
370
     9
  6
Continuous
 62
     7
100
AcDbLine
 10
192.618001
 20
210.953
 30
0.0
 11
191.996835
 21
208.634778
 31
0.0
  0
TEXT
  5
DA
100
AcDbEntity
  8
1
370
     9
  6
Continuous
 62
     7
100
AcDbText
 10
192.118001
 20
182.353
 30
0.0
 40
3.0
  1
54
 50
90.0
 41
0.533333
 11
192.118001
 21
182.353
 31
0.0
100
AcDbText
 73
     1
  0
ENDBLK
  5
DB
100
AcDbEntity
  8
1
370
     9
  6
Continuous
 62
     7
100
AcDbBlockEnd
  0
BLOCK
  5
EA
100
AcDbEntity
  8
0
370
     9
  6
Continuous
 62
     6
100
AcDbBlockBegin
  2
*G6
 70
     0
 10
0.0
 20
0.0
 30
0.0
  3
*G6
  1

  0
LINE
  5
EB
100
AcDbEntity
  8
20
370
     9
  6
Continuous
 62
     6
100
AcDbLine
 10
157.590005
 20
162.953
 30
0.0
 11
175.650001
 21
162.953
 31
0.0
  0
LINE
  5
EC
100
AcDbEntity
  8
20
370
     9
  6
Continuous
 62
     6
100
AcDbLine
 10
175.650001
 20
162.953
 30
0.0
 11
175.650001
 21
163.919
 31
0.0
  0
LINE
  5
ED
100
AcDbEntity
  8
20
370
     9
  6
Continuous
 62
     6
100
AcDbLine
 10
175.650001
 20
163.919
 30
0.0
 11
157.590005
 21
163.919
 31
0.0
  0
LINE
  5
EE
100
AcDbEntity
  8
20
370
     9
  6
Continuous
 62
     6
100
AcDbLine
 10
157.590005
 20
163.919
 30
0.0
 11
157.590005
 21
162.953
 31
0.0
  0
ENDBLK
  5
EF
100
AcDbEntity
  8
0
100
AcDbBlockEnd
  0
BLOCK
  5
F2
100
AcDbEntity
  8
0
370
     9
  6
Continuous
 62
     6
100
AcDbBlockBegin
  2
*G7
 70
     0
 10
0.0
 20
0.0
 30
0.0
  3
*G7
  1

  0
LINE
  5
F3
100
AcDbEntity
  8
20
370
     9
  6
Continuous
 62
     6
100
AcDbLine
 10
175.650001
 20
165.873
 30
0.0
 11
157.590005
 21
165.873
 31
0.0
  0
LINE
  5
F4
100
AcDbEntity
  8
20
370
     9
  6
Continuous
 62
     6
100
AcDbLine
 10
157.590005
 20
165.873
 30
0.0
 11
157.590005
 21
164.896
 31
0.0
  0
LINE
  5
F5
100
AcDbEntity
  8
20
370
     9
  6
Continuous
 62
     6
100
AcDbLine
 10
157.590005
 20
164.896
 30
0.0
 11
175.650001
 21
164.896
 31
0.0
  0
LINE
  5
F6
100
AcDbEntity
  8
20
370
     9
  6
Continuous
 62
     6
100
AcDbLine
 10
175.650001
 20
164.896
 30
0.0
 11
175.650001
 21
165.873
 31
0.0
  0
ENDBLK
  5
F7
100
AcDbEntity
  8
0
100
AcDbBlockEnd
  0
BLOCK
  5
FA
100
AcDbEntity
  8
0
370
     9
  6
Continuous
 62
     6
100
AcDbBlockBegin
  2
*G8
 70
     0
 10
0.0
 20
0.0
 30
0.0
  3
*G8
  1

  0
LINE
  5
FB
100
AcDbEntity
  8
20
370
     9
  6
Continuous
 62
     6
100
AcDbLine
 10
157.590005
 20
167.827
 30
0.0
 11
175.650001
 21
167.827
 31
0.0
  0
LINE
  5
FC
100
AcDbEntity
  8
20
370
     9
  6
Continuous
 62
     6
100
AcDbLine
 10
175.650001
 20
167.827
 30
0.0
 11
175.650001
 21
166.85
 31
0.0
  0
LINE
  5
FD
100
AcDbEntity
  8
20
370
     9
  6
Continuous
 62
     6
100
AcDbLine
 10
175.650001
 20
166.85
 30
0.0
 11
157.590005
 21
166.85
 31
0.0
  0
LINE
  5
FE
100
AcDbEntity
  8
20
370
     9
  6
Continuous
 62
     6
100
AcDbLine
 10
157.590005
 20
166.85
 30
0.0
 11
157.590005
 21
167.827
 31
0.0
  0
ENDBLK
  5
FF
100
AcDbEntity
  8
0
100
AcDbBlockEnd
  0
BLOCK
  5
1CB
100
AcDbEntity
  8
0
370
     9
  6
Continuous
 62
     3
100
AcDbBlockBegin
  2
*G9
 70
     0
 10
0.0
 20
0.0
 30
0.0
  3
*G9
  1

  0
LINE
  5
1CC
100
AcDbEntity
  8
10
370
     9
  6
Continuous
 62
     3
100
AcDbLine
 10
166.935875
 20
181.593835
 30
0.0
 11
176.060683
 21
181.593835
 31
0.0
  0
LINE
  5
1CD
100
AcDbEntity
  8
10
370
     9
  6
Continuous
 62
     3
100
AcDbLine
 10
176.060683
 20
181.593835
 30
0.0
 11
176.060683
 21
180.297808
 31
0.0
  0
LINE
  5
1CE
100
AcDbEntity
  8
10
370
     9
  6
Continuous
 62
     3
100
AcDbLine
 10
176.060683
 20
180.297808
 30
0.0
 11
166.935875
 21
180.297808
 31
0.0
  0
LINE
  5
1CF
100
AcDbEntity
  8
10
370
     9
  6
Continuous
 62
     3
100
AcDbLine
 10
166.935875
 20
180.297808
 30
0.0
 11
166.935875
 21
181.593835
 31
0.0
  0
ENDBLK
  5
1D0
100
AcDbEntity
  8
0
100
AcDbBlockEnd
  0
BLOCK
  5
1D3
100
AcDbEntity
  8
0
370
     9
  6
Continuous
 62
     3
100
AcDbBlockBegin
  2
*G10
 70
     0
 10
0.0
 20
0.0
 30
0.0
  3
*G10
  1

  0
LINE
  5
1D4
100
AcDbEntity
  8
10
370
     9
  6
Continuous
 62
     3
100
AcDbLine
 10
176.060677
 20
179.586016
 30
0.0
 11
166.935875
 21
179.586016
 31
0.0
  0
LINE
  5
1D5
100
AcDbEntity
  8
10
370
     9
  6
Continuous
 62
     3
100
AcDbLine
 10
166.935875
 20
179.586016
 30
0.0
 11
166.935875
 21
178.28999
 31
0.0
  0
LINE
  5
1D6
100
AcDbEntity
  8
10
370
     9
  6
Continuous
 62
     3
100
AcDbLine
 10
166.935875
 20
178.28999
 30
0.0
 11
176.060677
 21
178.28999
 31
0.0
  0
LINE
  5
1D7
100
AcDbEntity
  8
10
370
     9
  6
Continuous
 62
     3
100
AcDbLine
 10
176.060677
 20
178.28999
 30
0.0
 11
176.060677
 21
179.586016
 31
0.0
  0
ENDBLK
  5
1D8
100
AcDbEntity
  8
0
100
AcDbBlockEnd
  0
BLOCK
  5
1DB
100
AcDbEntity
  8
0
370
     9
  6
Continuous
 62
     3
100
AcDbBlockBegin
  2
*G11
 70
     0
 10
0.0
 20
0.0
 30
0.0
  3
*G11
  1

  0
LINE
  5
1DC
100
AcDbEntity
  8
10
370
     9
  6
Continuous
 62
     3
100
AcDbLine
 10
166.935875
 20
177.578197
 30
0.0
 11
176.060683
 21
177.578197
 31
0.0
  0
LINE
  5
1DD
100
AcDbEntity
  8
10
370
     9
  6
Continuous
 62
     3
100
AcDbLine
 10
176.060683
 20
177.578197
 30
0.0
 11
176.060683
 21
176.282171
 31
0.0
  0
LINE
  5
1DE
100
AcDbEntity
  8
10
370
     9
  6
Continuous
 62
     3
100
AcDbLine
 10
176.060683
 20
176.282171
 30
0.0
 11
166.935875
 21
176.282171
 31
0.0
  0
LINE
  5
1DF
100
AcDbEntity
  8
10
370
     9
  6
Continuous
 62
     3
100
AcDbLine
 10
166.935875
 20
176.282171
 30
0.0
 11
166.935875
 21
177.578197
 31
0.0
  0
ENDBLK
  5
1E0
100
AcDbEntity
  8
0
100
AcDbBlockEnd
  0
BLOCK
  5
1E3
100
AcDbEntity
  8
0
370
     9
  6
Continuous
 62
     3
100
AcDbBlockBegin
  2
*G12
 70
     0
 10
0.0
 20
0.0
 30
0.0
  3
*G12
  1

  0
LINE
  5
1E4
100
AcDbEntity
  8
10
370
     9
  6
Continuous
 62
     3
100
AcDbLine
 10
176.060677
 20
175.570379
 30
0.0
 11
166.935875
 21
175.570379
 31
0.0
  0
LINE
  5
1E5
100
AcDbEntity
  8
10
370
     9
  6
Continuous
 62
     3
100
AcDbLine
 10
166.935875
 20
175.570379
 30
0.0
 11
166.935875
 21
174.274352
 31
0.0
  0
LINE
  5
1E6
100
AcDbEntity
  8
10
370
     9
  6
Continuous
 62
     3
100
AcDbLine
 10
166.935875
 20
174.274352
 30
0.0
 11
176.060677
 21
174.274352
 31
0.0
  0
LINE
  5
1E7
100
AcDbEntity
  8
10
370
     9
  6
Continuous
 62
     3
100
AcDbLine
 10
176.060677
 20
174.274352
 30
0.0
 11
176.060677
 21
175.570379
 31
0.0
  0
ENDBLK
  5
1E8
100
AcDbEntity
  8
0
100
AcDbBlockEnd
  0
BLOCK
  5
1EB
100
AcDbEntity
  8
0
370
     9
  6
Continuous
 62
     3
100
AcDbBlockBegin
  2
*G13
 70
     0
 10
0.0
 20
0.0
 30
0.0
  3
*G13
  1

  0
LINE
  5
1EC
100
AcDbEntity
  8
10
370
     9
  6
Continuous
 62
     3
100
AcDbLine
 10
166.935875
 20
173.56256
 30
0.0
 11
176.060683
 21
173.56256
 31
0.0
  0
LINE
  5
1ED
100
AcDbEntity
  8
10
370
     9
  6
Continuous
 62
     3
100
AcDbLine
 10
176.060683
 20
173.56256
 30
0.0
 11
176.060683
 21
172.266533
 31
0.0
  0
LINE
  5
1EE
100
AcDbEntity
  8
10
370
     9
  6
Continuous
 62
     3
100
AcDbLine
 10
176.060683
 20
172.266533
 30
0.0
 11
166.935875
 21
172.266533
 31
0.0
  0
LINE
  5
1EF
100
AcDbEntity
  8
10
370
     9
  6
Continuous
 62
     3
100
AcDbLine
 10
166.935875
 20
172.266533
 30
0.0
 11
166.935875
 21
173.56256
 31
0.0
  0
ENDBLK
  5
1F0
100
AcDbEntity
  8
0
100
AcDbBlockEnd
  0
BLOCK
  5
1F3
100
AcDbEntity
  8
0
370
     9
  6
Continuous
 62
     3
100
AcDbBlockBegin
  2
*G14
 70
     0
 10
0.0
 20
0.0
 30
0.0
  3
*G14
  1

  0
LINE
  5
1F4
100
AcDbEntity
  8
10
370
     9
  6
Continuous
 62
     3
100
AcDbLine
 10
176.060683
 20
169.546922
 30
0.0
 11
157.376546
 21
169.546922
 31
0.0
  0
LINE
  5
1F5
100
AcDbEntity
  8
10
370
     9
  6
Continuous
 62
     3
100
AcDbLine
 10
157.376546
 20
169.546922
 30
0.0
 11
157.376546
 21
168.250896
 31
0.0
  0
LINE
  5
1F6
100
AcDbEntity
  8
10
370
     9
  6
Continuous
 62
     3
100
AcDbLine
 10
157.376546
 20
168.250896
 30
0.0
 11
176.060683
 21
168.250896
 31
0.0
  0
LINE
  5
1F7
100
AcDbEntity
  8
10
370
     9
  6
Continuous
 62
     3
100
AcDbLine
 10
176.060683
 20
168.250896
 30
0.0
 11
176.060683
 21
169.546922
 31
0.0
  0
ENDBLK
  5
1F8
100
AcDbEntity
  8
0
100
AcDbBlockEnd
  0
BLOCK
  5
1FB
100
AcDbEntity
  8
0
370
     9
  6
Continuous
 62
     3
100
AcDbBlockBegin
  2
*G15
 70
     0
 10
0.0
 20
0.0
 30
0.0
  3
*G15
  1

  0
LINE
  5
1FC
100
AcDbEntity
  8
10
370
     9
  6
Continuous
 62
     3
100
AcDbLine
 10
157.376546
 20
167.539104
 30
0.0
 11
176.060677
 21
167.539104
 31
0.0
  0
LINE
  5
1FD
100
AcDbEntity
  8
10
370
     9
  6
Continuous
 62
     3
100
AcDbLine
 10
176.060677
 20
167.539104
 30
0.0
 11
176.060677
 21
166.243077
 31
0.0
  0
LINE
  5
1FE
100
AcDbEntity
  8
10
370
     9
  6
Continuous
 62
     3
100
AcDbLine
 10
176.060677
 20
166.243077
 30
0.0
 11
157.376546
 21
166.243077
 31
0.0
  0
LINE
  5
1FF
100
AcDbEntity
  8
10
370
     9
  6
Continuous
 62
     3
100
AcDbLine
 10
157.376546
 20
166.243077
 30
0.0
 11
157.376546
 21
167.539104
 31
0.0
  0
ENDBLK
  5
200
100
AcDbEntity
  8
0
100
AcDbBlockEnd
  0
BLOCK
  5
203
100
AcDbEntity
  8
0
370
     9
  6
Continuous
 62
     3
100
AcDbBlockBegin
  2
*G16
 70
     0
 10
0.0
 20
0.0
 30
0.0
  3
*G16
  1

  0
LINE
  5
204
100
AcDbEntity
  8
10
370
     9
  6
Continuous
 62
     3
100
AcDbLine
 10
176.060677
 20
165.531285
 30
0.0
 11
157.376546
 21
165.531285
 31
0.0
  0
LINE
  5
205
100
AcDbEntity
  8
10
370
     9
  6
Continuous
 62
     3
100
AcDbLine
 10
157.376546
 20
165.531285
 30
0.0
 11
157.376546
 21
164.235258
 31
0.0
  0
LINE
  5
206
100
AcDbEntity
  8
10
370
     9
  6
Continuous
 62
     3
100
AcDbLine
 10
157.376546
 20
164.235258
 30
0.0
 11
176.060677
 21
164.235258
 31
0.0
  0
LINE
  5
207
100
AcDbEntity
  8
10
370
     9
  6
Continuous
 62
     3
100
AcDbLine
 10
176.060677
 20
164.235258
 30
0.0
 11
176.060677
 21
165.531285
 31
0.0
  0
ENDBLK
  5
208
100
AcDbEntity
  8
0
100
AcDbBlockEnd
  0
BLOCK
  5
20B
100
AcDbEntity
  8
0
370
     9
  6
Continuous
 62
     3
100
AcDbBlockBegin
  2
*G17
 70
     0
 10
0.0
 20
0.0
 30
0.0
  3
*G17
  1

  0
LINE
  5
20C
100
AcDbEntity
  8
10
370
     9
  6
Continuous
 62
     3
100
AcDbLine
 10
157.376546
 20
163.523466
 30
0.0
 11
176.060677
 21
163.523466
 31
0.0
  0
LINE
  5
20D
100
AcDbEntity
  8
10
370
     9
  6
Continuous
 62
     3
100
AcDbLine
 10
176.060677
 20
163.523466
 30
0.0
 11
176.060677
 21
162.227438
 31
0.0
  0
LINE
  5
20E
100
AcDbEntity
  8
10
370
     9
  6
Continuous
 62
     3
100
AcDbLine
 10
176.060677
 20
162.227438
 30
0.0
 11
157.376546
 21
162.227438
 31
0.0
  0
LINE
  5
20F
100
AcDbEntity
  8
10
370
     9
  6
Continuous
 62
     3
100
AcDbLine
 10
157.376546
 20
162.227438
 30
0.0
 11
157.376546
 21
163.523466
 31
0.0
  0
ENDBLK
  5
210
100
AcDbEntity
  8
0
100
AcDbBlockEnd
  0
BLOCK
  5
257
100
AcDbEntity
  8
0
370
     9
  6
Continuous
 62
    96
100
AcDbBlockBegin
  2
*G18
 70
     0
 10
0.0
 20
0.0
 30
0.0
  3
*G18
  1

  0
LINE
  5
258
100
AcDbEntity
  8
11
370
     9
  6
Continuous
 62
   251
100
AcDbLine
 10
103.773853
 20
207.212408
 30
0.0
 11
103.925941
 21
207.212408
 31
0.0
  0
ENDBLK
  5
259
100
AcDbEntity
  8
0
100
AcDbBlockEnd
  0
BLOCK
  5
2BD
100
AcDbEntity
  8
0
370
     9
  6
Continuous
 62
    96
100
AcDbBlockBegin
  2
*G19
 70
     0
 10
0.0
 20
0.0
 30
0.0
  3
*G19
  1

  0
LINE
  5
2BE
100
AcDbEntity
  8
15
370
     9
  6
Continuous
 62
    96
100
AcDbLine
 10
319.256917
 20
19.245666
 30
0.0
 11
319.523573
 21
19.245666
 31
0.0
  0
ENDBLK
  5
2BF
100
AcDbEntity
  8
0
100
AcDbBlockEnd
  0
ENDSEC
  0
SECTION
  2
ENTITIES
  0
INSERT
  5
76
100
AcDbEntity
  8
0
370
     9
  6
Continuous
 62
     7
100
AcDbBlockReference
  2
*G0
 10
0.0
 20
0.0
 30
0.0
  0
LINE
  5
77
100
AcDbEntity
  8
15
370
    50
  6
Continuous
 62
    96
100
AcDbLine
 10
10.0
 20
265.5
 30
0.0
 11
10.0
 21
8.5
 31
0.0
  0
LINE
  5
78
100
AcDbEntity
  8
15
370
    50
  6
Continuous
 62
    96
100
AcDbLine
 10
10.0
 20
265.5
 30
0.0
 11
395.0
 21
265.5
 31
0.0
  0
LINE
  5
79
100
AcDbEntity
  8
15
370
    50
  6
Continuous
 62
    96
100
AcDbLine
 10
395.0
 20
265.5
 30
0.0
 11
395.0
 21
8.5
 31
0.0
  0
TEXT
  5
7A
100
AcDbEntity
  8
15
370
    30
  6
Continuous
 62
    96
100
AcDbText
 10
305.431027
 20
50.615582
 30
0.0
 40
2.5
  1
型　式
 41
0.855556
 11
305.431027
 21
50.615582
 31
0.0
100
AcDbText
 73
     1
  0
TEXT
  5
7B
100
AcDbEntity
  8
15
370
    30
  6
Continuous
 62
    96
100
AcDbText
 10
305.431027
 20
41.454625
 30
0.0
 40
2.5
  1
製品名
 41
0.855556
 11
305.431027
 21
41.454625
 31
0.0
100
AcDbText
 73
     1
  0
LINE
  5
7C
100
AcDbEntity
  8
15
370
     9
  6
Continuous
 62
    96
100
AcDbLine
 10
305.0
 20
44.500007
 30
0.0
 11
395.0
 21
44.500007
 31
0.0
  0
LINE
  5
7D
100
AcDbEntity
  8
15
370
     9
  6
Continuous
 62
    96
100
AcDbLine
 10
305.0
 20
44.5
 30
0.0
 11
395.0
 21
44.500007
 31
0.0
  0
TEXT
  5
7E
100
AcDbEntity
  8
15
370
     9
  6
Continuous
 62
    96
100
AcDbText
 10
305.745772
 20
32.581424
 30
0.0
 40
2.5
  1
縮尺（Ａ３）
 41
0.861111
 11
305.745772
 21
32.581424
 31
0.0
100
AcDbText
 73
     1
  0
TEXT
  5
7F
100
AcDbEntity
  8
15
370
     9
  6
Continuous
 62
    96
100
AcDbText
 10
371.053642
 20
32.348836
 30
0.0
 40
2.5
  1
作図
 41
0.85
 11
371.053642
 21
32.348836
 31
0.0
100
AcDbText
 73
     1
  0
LINE
  5
80
100
AcDbEntity
  8
15
370
     9
  6
Continuous
 62
    96
100
AcDbLine
 10
320.0
 20
35.5
 30
0.0
 11
320.0
 21
26.500001
 31
0.0
  0
LINE
  5
81
100
AcDbEntity
  8
15
370
     9
  6
Continuous
 62
    96
100
AcDbLine
 10
345.0
 20
35.5
 30
0.0
 11
345.0
 21
26.500003
 31
0.0
  0
LINE
  5
82
100
AcDbEntity
  8
15
370
     9
  6
Continuous
 62
    96
100
AcDbLine
 10
370.0
 20
35.5
 30
0.0
 11
370.0
 21
26.500005
 31
0.0
  0
LINE
  5
83
100
AcDbEntity
  8
15
370
     9
  6
Continuous
 62
    96
100
AcDbLine
 10
330.0
 20
265.5
 30
0.0
 11
330.0
 21
260.0
 31
0.0
  0
LINE
  5
84
100
AcDbEntity
  8
15
370
    30
  6
Continuous
 62
    96
100
AcDbLine
 10
305.0
 20
260.0
 30
0.0
 11
395.0
 21
260.0
 31
0.0
  0
LINE
  5
85
100
AcDbEntity
  8
15
370
    30
  6
Continuous
 62
    96
100
AcDbLine
 10
305.0
 20
254.5
 30
0.0
 11
395.0
 21
254.5
 31
0.0
  0
LINE
  5
86
100
AcDbEntity
  8
15
370
    50
  6
Continuous
 62
    96
100
AcDbLine
 10
395.0
 20
106.500021
 30
0.0
 11
395.0
 21
93.700016
 31
0.0
  0
TEXT
  5
87
100
AcDbEntity
  8
15
370
     9
  6
Continuous
 62
    96
100
AcDbText
 10
307.83403
 20
28.009455
 30
0.0
 40
3.0
  1
１：１
 41
0.833333
 11
307.83403
 21
28.009455
 31
0.0
100
AcDbText
 73
     1
  0
TEXT
  5
88
100
AcDbEntity
  8
15
370
     9
  6
PHANTOM
 62
    96
100
AcDbText
 10
310.0
 20
261.25
 30
0.0
 40
3.0
  1
商品コード
 41
0.833333
 11
310.0
 21
261.25
 31
0.0
100
AcDbText
 73
     1
  0
TEXT
  5
89
100
AcDbEntity
  8
15
370
     9
  6
PHANTOM
 62
    96
100
AcDbText
 10
339.5
 20
255.75
 30
0.0
 40
3.0
  1
定　　　　　格
 41
0.833333
 11
339.5
 21
255.75
 31
0.0
100
AcDbText
 73
     1
  0
ARC
  5
8A
100
AcDbEntity
  8
1
370
     9
  6
Continuous
 62
     7
100
AcDbCircle
 10
97.05
 20
207.953
 30
0.0
 40
3.0
100
AcDbArc
 50
90.0
 51
180.0
  0
ARC
  5
8B
100
AcDbEntity
  8
1
370
     9
  6
Continuous
 62
     7
100
AcDbCircle
 10
97.05
 20
159.953
 30
0.0
 40
3.0
100
AcDbArc
 50
180.0
 51
-90.0
  0
LINE
  5
8C
100
AcDbEntity
  8
1
370
     9
  6
Continuous
 62
     7
100
AcDbLine
 10
94.05
 20
207.953
 30
0.0
 11
94.05
 21
159.953
 31
0.0
  0
ARC
  5
8D
100
AcDbEntity
  8
1
370
     9
  6
Continuous
 62
     7
100
AcDbCircle
 10
176.650001
 20
159.953
 30
0.0
 40
3.0
100
AcDbArc
 50
-90.0
 51
0.0
  0
ARC
  5
8E
100
AcDbEntity
  8
1
370
     9
  6
Continuous
 62
     7
100
AcDbCircle
 10
176.650001
 20
207.953
 30
0.0
 40
3.0
100
AcDbArc
 50
0.0
 51
90.0
  0
LINE
  5
8F
100
AcDbEntity
  8
1
370
     9
  6
Continuous
 62
     7
100
AcDbLine
 10
179.650001
 20
159.953
 30
0.0
 11
179.650001
 21
207.953
 31
0.0
  0
CIRCLE
  5
90
100
AcDbEntity
  8
1
370
     9
  6
Continuous
 62
     7
100
AcDbCircle
 10
172.828125
 20
100.30625
 30
0.0
 40
0.5
  0
CIRCLE
  5
91
100
AcDbEntity
  8
1
370
     9
  6
Continuous
 62
     7
100
AcDbCircle
 10
172.828125
 20
100.30625
 30
0.0
 40
0.25
  0
POLYLINE
  5
92
100
AcDbEntity
  8
1
370
     9
  6
Continuous
 62
     7
100
AcDb2dPolyline
 66
     1
 10
0.0
 20
0.0
 30
0.0
  0
VERTEX
  5
93
100
AcDbEntity
  8
1
370
     9
  6
Continuous
 62
     7
100
AcDbVertex
100
AcDb2dVertex
 10
172.828125
 20
100.30625
 30
0.0
  0
VERTEX
  5
94
100
AcDbEntity
  8
1
370
     9
  6
Continuous
 62
     7
100
AcDbVertex
100
AcDb2dVertex
 10
190.191025
 20
110.330725
 30
0.0
  0
VERTEX
  5
95
100
AcDbEntity
  8
1
370
     9
  6
Continuous
 62
     7
100
AcDbVertex
100
AcDb2dVertex
 10
196.484375
 20
110.330725
 30
0.0
  0
SEQEND
  5
96
100
AcDbEntity
  8
1
370
     9
  6
Continuous
 62
     7
  0
TEXT
  5
97
100
AcDbEntity
  8
1
370
     9
  6
Continuous
 62
     7
100
AcDbText
 10
190.284375
 20
110.48125
 30
0.0
 40
3.0
  1
裏面
 41
0.861111
 11
190.284375
 21
110.48125
 31
0.0
100
AcDbText
 73
     1
  0
INSERT
  5
A3
100
AcDbEntity
  8
0
370
     9
  6
Continuous
 62
     7
100
AcDbBlockReference
  2
*G1
 10
0.0
 20
0.0
 30
0.0
  0
LINE
  5
A4
100
AcDbEntity
  8
1
370
     9
  6
Continuous
 62
     7
100
AcDbLine
 10
97.05
 20
156.953
 30
0.0
 11
176.650001
 21
156.953
 31
0.0
  0
LINE
  5
A5
100
AcDbEntity
  8
1
370
     9
  6
Continuous
 62
     7
100
AcDbLine
 10
176.650001
 20
210.953
 30
0.0
 11
97.05
 21
210.953
 31
0.0
  0
TEXT
  5
A6
100
AcDbEntity
  8
17
370
     9
  6
Continuous
 62
   132
100
AcDbText
 10
192.9085
 20
13.7551
 30
0.0
 40
3.0
  1
*　記載されている会社名、製品名は、各社の登録 商標または商標です。
 41
0.879018
 11
192.9085
 21
13.7551
 31
0.0
100
AcDbText
 73
     1
  0
LINE
  5
A7
100
AcDbEntity
  8
15
370
     9
  6
Continuous
 62
    96
100
AcDbLine
 10
305.0
 20
35.5
 30
0.0
 11
395.0
 21
35.5
 31
0.0
  0
LINE
  5
A8
100
AcDbEntity
  8
15
370
     9
  6
Continuous
 62
    96
100
AcDbLine
 10
395.0
 20
26.500007
 30
0.0
 11
305.0
 21
26.5
 31
0.0
  0
LINE
  5
A9
100
AcDbEntity
  8
15
370
    30
  6
Continuous
 62
    96
100
AcDbLine
 10
305.0
 20
53.500007
 30
0.0
 11
395.0
 21
53.500007
 31
0.0
  0
LINE
  5
AA
100
AcDbEntity
  8
15
370
    30
  6
Continuous
 62
    96
100
AcDbLine
 10
305.0
 20
59.000007
 30
0.0
 11
395.0
 21
59.000007
 31
0.0
  0
LINE
  5
AB
100
AcDbEntity
  8
15
370
     9
  6
Continuous
 62
    96
100
AcDbLine
 10
330.0
 20
59.000007
 30
0.0
 11
330.0
 21
53.500007
 31
0.0
  0
TEXT
  5
AC
100
AcDbEntity
  8
15
370
     9
  6
Continuous
 62
    96
100
AcDbText
 10
311.2
 20
54.750007
 30
0.0
 40
3.0
  1
図面履歴
 41
0.875
 11
311.2
 21
54.750007
 31
0.0
100
AcDbText
 73
     1
  0
LINE
  5
AD
100
AcDbEntity
  8
15
370
    30
  6
Continuous
 62
    96
100
AcDbLine
 10
305.0
 20
265.5
 30
0.0
 11
305.0
 21
57.000007
 31
0.0
  0
LINE
  5
AE
100
AcDbEntity
  8
15
370
    30
  6
Continuous
 62
    96
100
AcDbLine
 10
305.0
 20
53.500007
 30
0.0
 11
305.0
 21
57.000007
 31
0.0
  0
LINE
  5
AF
100
AcDbEntity
  8
15
370
    30
  6
Continuous
 62
    96
100
AcDbLine
 10
395.0
 20
56.99321
 30
0.0
 11
395.0
 21
104.424646
 31
0.0
  0
LINE
  5
B0
100
AcDbEntity
  8
15
370
    30
  6
Continuous
 62
    96
100
AcDbLine
 10
395.0
 20
57.000007
 30
0.0
 11
395.0
 21
104.678469
 31
0.0
  0
INSERT
  5
B8
100
AcDbEntity
  8
0
370
     9
  6
Continuous
 62
     7
100
AcDbBlockReference
  2
*G2
 10
0.0
 20
0.0
 30
0.0
  0
DIMENSION
  5
C4
100
AcDbEntity
  8
1
370
     9
  6
Continuous
 62
     7
100
AcDbDimension
  2
*D3
 10
208.960002
 20
220.953
 30
0.0
 11
213.667559
 21
221.453
 31
0.0
 71
     5
 72
     1
 41
1.0
 42
0.0
  1
0.8
100
AcDbAlignedDimension
 13
208.960002
 23
212.953
 33
0.0
 14
209.760002
 24
212.953
 34
0.0
100
AcDbRotatedDimension
  0
DIMENSION
  5
D0
100
AcDbEntity
  8
1
370
     9
  6
Continuous
 62
     7
100
AcDbDimension
  2
*D4
 10
94.05
 20
221.052001
 30
0.0
 11
136.850001
 21
221.552001
 31
0.0
 71
     5
 72
     1
 41
1.0
 42
0.0
  1
85.6
100
AcDbAlignedDimension
 13
94.05
 23
209.953
 33
0.0
 14
179.650001
 24
209.953
 34
0.0
100
AcDbRotatedDimension
  0
DIMENSION
  5
DC
100
AcDbEntity
  8
1
370
     9
  6
Continuous
 62
     7
100
AcDbDimension
  2
*D5
 10
192.618001
 20
156.953
 30
0.0
 11
192.118001
 21
183.953
 31
0.0
 71
     5
 72
     1
 41
1.0
 42
0.0
  1
54
100
AcDbAlignedDimension
 13
178.650001
 23
156.953
 33
0.0
 14
178.650003
 24
210.953
 34
0.0
 50
90.0
100
AcDbRotatedDimension
  0
TEXT
  5
DD
100
AcDbEntity
  8
15
370
    50
  6
CENTER
 62
    96
100
AcDbText
 10
360.527977
 20
54.693101
 30
0.0
 40
3.0
  1
-
 41
0.5
 11
360.527977
 21
54.693101
 31
0.0
100
AcDbText
 73
     1
  0
TEXT
  5
DE
100
AcDbEntity
  8
1
370
     9
  6
Continuous
 62
     7
100
AcDbText
 10
165.295183
 20
67.744763
 30
0.0
 40
3.0
  1
000000
 41
0.611111
 11
165.295183
 21
67.744763
 31
0.0
100
AcDbText
 73
     1
  0
LINE
  5
DF
100
AcDbEntity
  8
15
370
     9
  6
Continuous
 62
    96
100
AcDbLine
 10
176.134353
 20
71.281926
 30
0.0
 11
177.740493
 21
73.06527
 31
0.0
  0
LINE
  5
E0
100
AcDbEntity
  8
15
370
     9
  6
Continuous
 62
    96
100
AcDbLine
 10
176.134353
 20
71.281926
 30
0.0
 11
178.416983
 21
72.023277
 31
0.0
  0
POLYLINE
  5
E1
100
AcDbEntity
  8
15
370
     9
  6
Continuous
 62
    96
100
AcDb2dPolyline
 66
     1
 10
0.0
 20
0.0
 30
0.0
  0
VERTEX
  5
E2
100
AcDbEntity
  8
15
370
     9
  6
Continuous
 62
    96
100
AcDbVertex
100
AcDb2dVertex
 10
176.134353
 20
71.281926
 30
0.0
  0
VERTEX
  5
E3
100
AcDbEntity
  8
15
370
     9
  6
Continuous
 62
    96
100
AcDbVertex
100
AcDb2dVertex
 10
190.343334
 20
80.506781
 30
0.0
  0
VERTEX
  5
E4
100
AcDbEntity
  8
15
370
     9
  6
Continuous
 62
    96
100
AcDbVertex
100
AcDb2dVertex
 10
208.043334
 20
80.506781
 30
0.0
  0
SEQEND
  5
E5
100
AcDbEntity
  8
15
370
     9
  6
Continuous
 62
    96
  0
TEXT
  5
E6
100
AcDbEntity
  8
15
370
     9
  6
Continuous
 62
    96
100
AcDbText
 10
190.343334
 20
81.006781
 30
0.0
 40
3.0
  1
シリアルNo.
 41
0.797297
 11
190.343334
 21
81.006781
 31
0.0
100
AcDbText
 73
     1
  0
TEXT
  5
E7
100
AcDbEntity
  8
15
370
     9
  6
Continuous
 62
    96
100
AcDbText
 10
352.0
 20
261.25
 30
0.0
 40
3.0
  1
３００３０１７
 41
0.833333
 11
352.0
 21
261.25
 31
0.0
100
AcDbText
 73
     1
  0
TEXT
  5
E8
100
AcDbEntity
  8
15
370
     9
  6
Continuous
 62
    96
100
AcDbText
 10
314.05
 20
38.5
 30
0.0
 40
3.0
  1
アートマイフェア標準デザイン／生カード（１Ｋ)
 41
0.874696
 11
314.05
 21
38.5
 31
0.0
100
AcDbText
 73
     1
  0
INSERT
  5
F0
100
AcDbEntity
  8
0
370
     9
  6
Continuous
 62
     6
100
AcDbBlockReference
  2
*G6
 10
0.0
 20
0.0
 30
0.0
  0
INSERT
  5
F8
100
AcDbEntity
  8
0
370
     9
  6
Continuous
 62
     6
100
AcDbBlockReference
  2
*G7
 10
0.0
 20
0.0
 30
0.0
  0
INSERT
  5
100
100
AcDbEntity
  8
0
370
     9
  6
Continuous
 62
     6
100
AcDbBlockReference
  2
*G8
 10
0.0
 20
0.0
 30
0.0
  0
LINE
  5
101
100
AcDbEntity
  8
20
370
     9
  6
Continuous
 62
     6
100
AcDbLine
 10
175.649995
 20
169.781
 30
0.0
 11
157.590005
 21
169.781
 31
0.0
  0
LINE
  5
102
100
AcDbEntity
  8
20
370
     9
  6
Continuous
 62
     6
100
AcDbLine
 10
175.649995
 20
168.804
 30
0.0
 11
175.650001
 21
169.781
 31
0.0
  0
LINE
  5
103
100
AcDbEntity
  8
20
370
     9
  6
Continuous
 62
     6
100
AcDbLine
 10
157.590005
 20
168.804
 30
0.0
 11
175.650001
 21
168.804
 31
0.0
  0
LINE
  5
104
100
AcDbEntity
  8
20
370
     9
  6
Continuous
 62
     6
100
AcDbLine
 10
157.590005
 20
169.781
 30
0.0
 11
157.590005
 21
168.804
 31
0.0
  0
LINE
  5
105
100
AcDbEntity
  8
20
370
     9
  6
Continuous
 62
     6
100
AcDbLine
 10
157.590005
 20
171.735
 30
0.0
 11
175.649995
 21
171.735
 31
0.0
  0
LINE
  5
106
100
AcDbEntity
  8
20
370
     9
  6
Continuous
 62
     6
100
AcDbLine
 10
157.590005
 20
170.758
 30
0.0
 11
157.590005
 21
171.735
 31
0.0
  0
LINE
  5
107
100
AcDbEntity
  8
20
370
     9
  6
Continuous
 62
     6
100
AcDbLine
 10
175.650001
 20
170.758
 30
0.0
 11
157.590005
 21
170.758
 31
0.0
  0
LINE
  5
108
100
AcDbEntity
  8
20
370
     9
  6
Continuous
 62
     6
100
AcDbLine
 10
175.650001
 20
171.735
 30
0.0
 11
175.650001
 21
170.758
 31
0.0
  0
LINE
  5
109
100
AcDbEntity
  8
20
370
     9
  6
Continuous
 62
     6
100
AcDbLine
 10
166.830006
 20
173.689
 30
0.0
 11
175.649995
 21
173.689
 31
0.0
  0
LINE
  5
10A
100
AcDbEntity
  8
20
370
     9
  6
Continuous
 62
     6
100
AcDbLine
 10
166.830006
 20
172.712
 30
0.0
 11
166.830006
 21
173.689
 31
0.0
  0
LINE
  5
10B
100
AcDbEntity
  8
20
370
     9
  6
Continuous
 62
     6
100
AcDbLine
 10
175.649995
 20
172.712
 30
0.0
 11
166.830006
 21
172.712
 31
0.0
  0
LINE
  5
10C
100
AcDbEntity
  8
20
370
     9
  6
Continuous
 62
     6
100
AcDbLine
 10
175.649995
 20
173.689
 30
0.0
 11
175.650001
 21
172.712
 31
0.0
  0
LINE
  5
10D
100
AcDbEntity
  8
20
370
     9
  6
Continuous
 62
     6
100
AcDbLine
 10
175.649995
 20
174.666
 30
0.0
 11
175.650001
 21
175.643
 31
0.0
  0
LINE
  5
10E
100
AcDbEntity
  8
20
370
     9
  6
Continuous
 62
     6
100
AcDbLine
 10
166.830006
 20
174.666
 30
0.0
 11
175.649995
 21
174.666
 31
0.0
  0
LINE
  5
10F
100
AcDbEntity
  8
20
370
     9
  6
Continuous
 62
     6
100
AcDbLine
 10
166.830006
 20
175.643
 30
0.0
 11
166.830006
 21
174.666
 31
0.0
  0
LINE
  5
110
100
AcDbEntity
  8
20
370
     9
  6
Continuous
 62
     6
100
AcDbLine
 10
175.649995
 20
175.643
 30
0.0
 11
166.830006
 21
175.643
 31
0.0
  0
LINE
  5
111
100
AcDbEntity
  8
10
370
     9
  6
Continuous
 62
     3
100
AcDbLine
 10
130.185158
 20
163.230974
 30
0.0
 11
130.185158
 21
162.227081
 31
0.0
  0
LINE
  5
112
100
AcDbEntity
  8
10
370
     9
  6
Continuous
 62
     3
100
AcDbLine
 10
130.185148
 20
162.227063
 30
0.0
 11
143.771865
 21
162.227073
 31
0.0
  0
LINE
  5
113
100
AcDbEntity
  8
10
370
     9
  6
Continuous
 62
     3
100
AcDbLine
 10
131.199098
 20
163.230974
 30
0.0
 11
130.185158
 21
163.230974
 31
0.0
  0
LINE
  5
114
100
AcDbEntity
  8
10
370
     9
  6
Continuous
 62
     3
100
AcDbLine
 10
130.185158
 20
165.238793
 30
0.0
 11
130.185158
 21
164.234883
 31
0.0
  0
LINE
  5
115
100
AcDbEntity
  8
10
370
     9
  6
Continuous
 62
     3
100
AcDbLine
 10
130.185158
 20
164.234892
 30
0.0
 11
145.799754
 21
164.234883
 31
0.0
  0
LINE
  5
116
100
AcDbEntity
  8
10
370
     9
  6
Continuous
 62
     3
100
AcDbLine
 10
133.226996
 20
165.238793
 30
0.0
 11
130.185158
 21
165.238793
 31
0.0
  0
LINE
  5
117
100
AcDbEntity
  8
10
370
     9
  6
Continuous
 62
     3
100
AcDbLine
 10
130.185158
 20
166.242702
 30
0.0
 11
147.827651
 21
166.242702
 31
0.0
  0
LINE
  5
118
100
AcDbEntity
  8
10
370
     9
  6
Continuous
 62
     3
100
AcDbLine
 10
135.254893
 20
167.246611
 30
0.0
 11
130.185158
 21
167.246611
 31
0.0
  0
LINE
  5
119
100
AcDbEntity
  8
10
370
     9
  6
Continuous
 62
     3
100
AcDbLine
 10
130.185158
 20
167.246611
 30
0.0
 11
130.185158
 21
166.242711
 31
0.0
  0
LINE
  5
11A
100
AcDbEntity
  8
10
370
     9
  6
Continuous
 62
     3
100
AcDbLine
 10
130.185158
 20
169.254439
 30
0.0
 11
130.185158
 21
168.250529
 31
0.0
  0
LINE
  5
11B
100
AcDbEntity
  8
10
370
     9
  6
Continuous
 62
     3
100
AcDbLine
 10
130.185158
 20
168.250529
 30
0.0
 11
149.855548
 21
168.250521
 31
0.0
  0
LINE
  5
11C
100
AcDbEntity
  8
10
370
     9
  6
Continuous
 62
     3
100
AcDbLine
 10
137.282791
 20
169.25443
 30
0.0
 11
130.185158
 21
169.254439
 31
0.0
  0
LINE
  5
11D
100
AcDbEntity
  8
10
370
     9
  6
Continuous
 62
     3
100
AcDbLine
 10
137.028951
 20
171.262249
 30
0.0
 11
137.028951
 21
170.258348
 31
0.0
  0
LINE
  5
11E
100
AcDbEntity
  8
10
370
     9
  6
Continuous
 62
     3
100
AcDbLine
 10
137.028951
 20
170.258348
 30
0.0
 11
151.883446
 21
170.25834
 31
0.0
  0
LINE
  5
11F
100
AcDbEntity
  8
10
370
     9
  6
Continuous
 62
     3
100
AcDbLine
 10
139.310688
 20
171.262249
 30
0.0
 11
137.028951
 21
171.262249
 31
0.0
  0
LINE
  5
120
100
AcDbEntity
  8
10
370
     9
  6
Continuous
 62
     3
100
AcDbLine
 10
137.028951
 20
173.270068
 30
0.0
 11
137.028951
 21
172.266167
 31
0.0
  0
LINE
  5
121
100
AcDbEntity
  8
10
370
     9
  6
Continuous
 62
     3
100
AcDbLine
 10
137.028951
 20
172.266167
 30
0.0
 11
153.911343
 21
172.266158
 31
0.0
  0
LINE
  5
122
100
AcDbEntity
  8
10
370
     9
  6
Continuous
 62
     3
100
AcDbLine
 10
141.338586
 20
173.270068
 30
0.0
 11
137.028951
 21
173.270068
 31
0.0
  0
LINE
  5
123
100
AcDbEntity
  8
10
370
     9
  6
Continuous
 62
     3
100
AcDbLine
 10
137.028951
 20
175.277895
 30
0.0
 11
137.028951
 21
174.273986
 31
0.0
  0
LINE
  5
124
100
AcDbEntity
  8
10
370
     9
  6
Continuous
 62
     3
100
AcDbLine
 10
143.366492
 20
175.277895
 30
0.0
 11
137.028951
 21
175.277895
 31
0.0
  0
LINE
  5
125
100
AcDbEntity
  8
10
370
     9
  6
Continuous
 62
     3
100
AcDbLine
 10
110.791844
 20
162.859994
 30
0.0
 11
110.791768
 21
162.22709
 31
0.0
  0
LINE
  5
126
100
AcDbEntity
  8
10
370
     9
  6
Continuous
 62
     3
100
AcDbLine
 10
110.791768
 20
162.22709
 30
0.0
 11
121.86949
 21
162.22709
 31
0.0
  0
LINE
  5
127
100
AcDbEntity
  8
10
370
     9
  6
Continuous
 62
     3
100
AcDbLine
 10
121.86949
 20
162.22709
 30
0.0
 11
122.883477
 21
163.230982
 31
0.0
  0
LINE
  5
128
100
AcDbEntity
  8
10
370
     9
  6
Continuous
 62
     3
100
AcDbLine
 10
122.883477
 20
163.230982
 30
0.0
 11
113.156371
 21
163.230982
 31
0.0
  0
LINE
  5
129
100
AcDbEntity
  8
10
370
     9
  6
Continuous
 62
     3
100
AcDbLine
 10
113.156371
 20
163.230982
 30
0.0
 11
112.781672
 21
162.859994
 31
0.0
  0
LINE
  5
12A
100
AcDbEntity
  8
10
370
     9
  6
Continuous
 62
     3
100
AcDbLine
 10
112.781672
 20
162.859994
 30
0.0
 11
110.791844
 21
162.859994
 31
0.0
  0
LINE
  5
12B
100
AcDbEntity
  8
10
370
     9
  6
Continuous
 62
     3
100
AcDbLine
 10
110.791768
 20
164.867804
 30
0.0
 11
110.791768
 21
164.32774
 31
0.0
  0
LINE
  5
12C
100
AcDbEntity
  8
10
370
     9
  6
Continuous
 62
     3
100
AcDbLine
 10
110.791844
 20
164.234883
 30
0.0
 11
123.897426
 21
164.234892
 31
0.0
  0
LINE
  5
12D
100
AcDbEntity
  8
10
370
     9
  6
Continuous
 62
     3
100
AcDbLine
 10
123.897426
 20
164.234892
 30
0.0
 11
124.911374
 21
165.238801
 31
0.0
  0
LINE
  5
12E
100
AcDbEntity
  8
10
370
     9
  6
Continuous
 62
     3
100
AcDbLine
 10
124.911374
 20
165.238801
 30
0.0
 11
115.184269
 21
165.238801
 31
0.0
  0
LINE
  5
12F
100
AcDbEntity
  8
10
370
     9
  6
Continuous
 62
     3
100
AcDbLine
 10
115.184269
 20
165.238801
 30
0.0
 11
114.809561
 21
164.867804
 31
0.0
  0
LINE
  5
130
100
AcDbEntity
  8
10
370
     9
  6
Continuous
 62
     3
100
AcDbLine
 10
114.809561
 20
164.867804
 30
0.0
 11
110.791768
 21
164.867804
 31
0.0
  0
LINE
  5
131
100
AcDbEntity
  8
10
370
     9
  6
Continuous
 62
     3
100
AcDbLine
 10
110.791768
 20
166.875623
 30
0.0
 11
110.809077
 21
166.242702
 31
0.0
  0
LINE
  5
132
100
AcDbEntity
  8
10
370
     9
  6
Continuous
 62
     3
100
AcDbLine
 10
110.809077
 20
166.242702
 30
0.0
 11
120.542839
 21
166.242702
 31
0.0
  0
LINE
  5
133
100
AcDbEntity
  8
10
370
     9
  6
Continuous
 62
     3
100
AcDbLine
 10
120.542839
 20
166.242702
 30
0.0
 11
125.925323
 21
166.242711
 31
0.0
  0
LINE
  5
134
100
AcDbEntity
  8
10
370
     9
  6
Continuous
 62
     3
100
AcDbLine
 10
125.925323
 20
166.242711
 30
0.0
 11
126.939272
 21
167.24662
 31
0.0
  0
LINE
  5
135
100
AcDbEntity
  8
10
370
     9
  6
Continuous
 62
     3
100
AcDbLine
 10
126.939272
 20
167.24662
 30
0.0
 11
117.212166
 21
167.24662
 31
0.0
  0
LINE
  5
136
100
AcDbEntity
  8
10
370
     9
  6
Continuous
 62
     3
100
AcDbLine
 10
117.212166
 20
167.24662
 30
0.0
 11
116.837459
 21
166.875623
 31
0.0
  0
LINE
  5
137
100
AcDbEntity
  8
10
370
     9
  6
Continuous
 62
     3
100
AcDbLine
 10
116.837459
 20
166.875623
 30
0.0
 11
110.791844
 21
166.872845
 31
0.0
  0
LINE
  5
138
100
AcDbEntity
  8
10
370
     9
  6
Continuous
 62
     3
100
AcDbLine
 10
115.780729
 20
168.883441
 30
0.0
 11
115.780729
 21
168.250521
 31
0.0
  0
LINE
  5
139
100
AcDbEntity
  8
10
370
     9
  6
Continuous
 62
     3
100
AcDbLine
 10
115.780729
 20
168.250521
 30
0.0
 11
127.95322
 21
168.250529
 31
0.0
  0
LINE
  5
13A
100
AcDbEntity
  8
10
370
     9
  6
Continuous
 62
     3
100
AcDbLine
 10
127.95322
 20
168.250529
 30
0.0
 11
128.967169
 21
169.254439
 31
0.0
  0
LINE
  5
13B
100
AcDbEntity
  8
10
370
     9
  6
Continuous
 62
     3
100
AcDbLine
 10
128.967169
 20
169.254439
 30
0.0
 11
119.240064
 21
169.254439
 31
0.0
  0
LINE
  5
13C
100
AcDbEntity
  8
10
370
     9
  6
Continuous
 62
     3
100
AcDbLine
 10
119.240064
 20
169.254439
 30
0.0
 11
118.865356
 21
168.883441
 31
0.0
  0
LINE
  5
13D
100
AcDbEntity
  8
10
370
     9
  6
Continuous
 62
     3
100
AcDbLine
 10
118.865356
 20
168.883441
 30
0.0
 11
115.780729
 21
168.883441
 31
0.0
  0
LINE
  5
13E
100
AcDbEntity
  8
10
370
     9
  6
Continuous
 62
     3
100
AcDbLine
 10
115.780729
 20
170.89126
 30
0.0
 11
115.762259
 21
170.25834
 31
0.0
  0
LINE
  5
13F
100
AcDbEntity
  8
10
370
     9
  6
Continuous
 62
     3
100
AcDbLine
 10
115.762259
 20
170.25834
 30
0.0
 11
129.981117
 21
170.258348
 31
0.0
  0
LINE
  5
140
100
AcDbEntity
  8
10
370
     9
  6
Continuous
 62
     3
100
AcDbLine
 10
129.981117
 20
170.258348
 30
0.0
 11
130.995066
 21
171.262257
 31
0.0
  0
LINE
  5
141
100
AcDbEntity
  8
10
370
     9
  6
Continuous
 62
     3
100
AcDbLine
 10
130.995066
 20
171.262257
 30
0.0
 11
121.246673
 21
171.24118
 31
0.0
  0
LINE
  5
142
100
AcDbEntity
  8
10
370
     9
  6
Continuous
 62
     3
100
AcDbLine
 10
121.246673
 20
171.24118
 30
0.0
 11
120.893254
 21
170.89126
 31
0.0
  0
LINE
  5
143
100
AcDbEntity
  8
10
370
     9
  6
Continuous
 62
     3
100
AcDbLine
 10
120.893254
 20
170.89126
 30
0.0
 11
115.780729
 21
170.89126
 31
0.0
  0
LINE
  5
144
100
AcDbEntity
  8
10
370
     9
  6
Continuous
 62
     3
100
AcDbLine
 10
115.780729
 20
172.899079
 30
0.0
 11
115.780729
 21
172.266158
 31
0.0
  0
LINE
  5
145
100
AcDbEntity
  8
10
370
     9
  6
Continuous
 62
     3
100
AcDbLine
 10
115.780729
 20
172.266158
 30
0.0
 11
120.542839
 21
172.266158
 31
0.0
  0
LINE
  5
146
100
AcDbEntity
  8
10
370
     9
  6
Continuous
 62
     3
100
AcDbLine
 10
120.542839
 20
172.266158
 30
0.0
 11
120.542839
 21
172.899079
 31
0.0
  0
LINE
  5
147
100
AcDbEntity
  8
10
370
     9
  6
Continuous
 62
     3
100
AcDbLine
 10
115.780729
 20
172.899079
 30
0.0
 11
120.542839
 21
172.899079
 31
0.0
  0
LINE
  5
148
100
AcDbEntity
  8
10
370
     9
  6
Continuous
 62
     3
100
AcDbLine
 10
104.730036
 20
162.227202
 30
0.0
 11
105.369155
 21
162.859994
 31
0.0
  0
LINE
  5
149
100
AcDbEntity
  8
10
370
     9
  6
Continuous
 62
     3
100
AcDbLine
 10
105.369155
 20
162.859994
 30
0.0
 11
98.278436
 21
162.859994
 31
0.0
  0
LINE
  5
14A
100
AcDbEntity
  8
10
370
     9
  6
Continuous
 62
     3
100
AcDbLine
 10
98.278436
 20
162.859994
 30
0.0
 11
97.639317
 21
162.227202
 31
0.0
  0
LINE
  5
14B
100
AcDbEntity
  8
10
370
     9
  6
Continuous
 62
     3
100
AcDbLine
 10
97.639317
 20
162.227202
 30
0.0
 11
104.730036
 21
162.227202
 31
0.0
  0
LINE
  5
14C
100
AcDbEntity
  8
10
370
     9
  6
Continuous
 62
     3
100
AcDbLine
 10
100.306325
 20
164.867804
 30
0.0
 11
99.667075
 21
164.234883
 31
0.0
  0
LINE
  5
14D
100
AcDbEntity
  8
10
370
     9
  6
Continuous
 62
     3
100
AcDbLine
 10
99.667075
 20
164.234883
 30
0.0
 11
106.757793
 21
164.234883
 31
0.0
  0
LINE
  5
14E
100
AcDbEntity
  8
10
370
     9
  6
Continuous
 62
     3
100
AcDbLine
 10
106.757793
 20
164.234883
 30
0.0
 11
107.397043
 21
164.867804
 31
0.0
  0
LINE
  5
14F
100
AcDbEntity
  8
10
370
     9
  6
Continuous
 62
     3
100
AcDbLine
 10
107.397043
 20
164.867804
 30
0.0
 11
100.306325
 21
164.867804
 31
0.0
  0
LINE
  5
150
100
AcDbEntity
  8
10
370
     9
  6
Continuous
 62
     3
100
AcDbLine
 10
102.334223
 20
166.875623
 30
0.0
 11
101.694973
 21
166.242702
 31
0.0
  0
LINE
  5
151
100
AcDbEntity
  8
10
370
     9
  6
Continuous
 62
     3
100
AcDbLine
 10
108.785691
 20
166.242702
 30
0.0
 11
101.694973
 21
166.242702
 31
0.0
  0
LINE
  5
152
100
AcDbEntity
  8
10
370
     9
  6
Continuous
 62
     3
100
AcDbLine
 10
108.785691
 20
166.242702
 30
0.0
 11
109.42494
 21
166.875623
 31
0.0
  0
LINE
  5
153
100
AcDbEntity
  8
10
370
     9
  6
Continuous
 62
     3
100
AcDbLine
 10
109.42494
 20
166.875623
 30
0.0
 11
102.334223
 21
166.875623
 31
0.0
  0
LINE
  5
154
100
AcDbEntity
  8
10
370
     9
  6
Continuous
 62
     3
100
AcDbLine
 10
111.452838
 20
168.883441
 30
0.0
 11
110.813588
 21
168.250521
 31
0.0
  0
LINE
  5
155
100
AcDbEntity
  8
10
370
     9
  6
Continuous
 62
     3
100
AcDbLine
 10
110.813588
 20
168.250521
 30
0.0
 11
103.72287
 21
168.250521
 31
0.0
  0
LINE
  5
156
100
AcDbEntity
  8
10
370
     9
  6
Continuous
 62
     3
100
AcDbLine
 10
103.72287
 20
168.250521
 30
0.0
 11
104.36212
 21
168.883441
 31
0.0
  0
LINE
  5
157
100
AcDbEntity
  8
10
370
     9
  6
Continuous
 62
     3
100
AcDbLine
 10
104.36212
 20
168.883441
 30
0.0
 11
111.452838
 21
168.883441
 31
0.0
  0
LINE
  5
158
100
AcDbEntity
  8
10
370
     9
  6
Continuous
 62
     3
100
AcDbLine
 10
106.390018
 20
170.89126
 30
0.0
 11
105.750768
 21
170.25834
 31
0.0
  0
LINE
  5
159
100
AcDbEntity
  8
10
370
     9
  6
Continuous
 62
     3
100
AcDbLine
 10
105.750768
 20
170.25834
 30
0.0
 11
112.841485
 21
170.25834
 31
0.0
  0
LINE
  5
15A
100
AcDbEntity
  8
10
370
     9
  6
Continuous
 62
     3
100
AcDbLine
 10
112.841485
 20
170.25834
 30
0.0
 11
113.480735
 21
170.89126
 31
0.0
  0
LINE
  5
15B
100
AcDbEntity
  8
10
370
     9
  6
Continuous
 62
     3
100
AcDbLine
 10
113.480735
 20
170.89126
 30
0.0
 11
106.390018
 21
170.89126
 31
0.0
  0
LINE
  5
15C
100
AcDbEntity
  8
10
370
     9
  6
Continuous
 62
     3
100
AcDbLine
 10
115.508632
 20
172.899079
 30
0.0
 11
114.869382
 21
172.266158
 31
0.0
  0
LINE
  5
15D
100
AcDbEntity
  8
10
370
     9
  6
Continuous
 62
     3
100
AcDbLine
 10
114.869382
 20
172.266158
 30
0.0
 11
107.778665
 21
172.266158
 31
0.0
  0
LINE
  5
15E
100
AcDbEntity
  8
10
370
     9
  6
Continuous
 62
     3
100
AcDbLine
 10
107.778665
 20
172.266158
 30
0.0
 11
108.417915
 21
172.899079
 31
0.0
  0
LINE
  5
15F
100
AcDbEntity
  8
10
370
     9
  6
Continuous
 62
     3
100
AcDbLine
 10
108.417915
 20
172.899079
 30
0.0
 11
115.508632
 21
172.899079
 31
0.0
  0
LINE
  5
160
100
AcDbEntity
  8
10
370
     9
  6
Continuous
 62
     3
100
AcDbLine
 10
110.445813
 20
174.906898
 30
0.0
 11
109.806563
 21
174.273977
 31
0.0
  0
LINE
  5
161
100
AcDbEntity
  8
10
370
     9
  6
Continuous
 62
     3
100
AcDbLine
 10
109.806563
 20
174.273977
 30
0.0
 11
120.542839
 21
174.273977
 31
0.0
  0
LINE
  5
162
100
AcDbEntity
  8
10
370
     9
  6
Continuous
 62
     3
100
AcDbLine
 10
120.542839
 20
174.273977
 30
0.0
 11
120.542839
 21
174.906898
 31
0.0
  0
LINE
  5
163
100
AcDbEntity
  8
10
370
     9
  6
Continuous
 62
     3
100
AcDbLine
 10
120.542839
 20
174.906898
 30
0.0
 11
110.445813
 21
174.906898
 31
0.0
  0
LINE
  5
164
100
AcDbEntity
  8
10
370
     9
  6
Continuous
 62
     3
100
AcDbLine
 10
112.47371
 20
176.914716
 30
0.0
 11
111.83446
 21
176.281796
 31
0.0
  0
LINE
  5
165
100
AcDbEntity
  8
10
370
     9
  6
Continuous
 62
     3
100
AcDbLine
 10
111.83446
 20
176.281796
 30
0.0
 11
120.542839
 21
176.281796
 31
0.0
  0
LINE
  5
166
100
AcDbEntity
  8
10
370
     9
  6
Continuous
 62
     3
100
AcDbLine
 10
120.542839
 20
176.281796
 30
0.0
 11
120.542839
 21
176.914716
 31
0.0
  0
LINE
  5
167
100
AcDbEntity
  8
10
370
     9
  6
Continuous
 62
     3
100
AcDbLine
 10
120.542839
 20
176.914716
 30
0.0
 11
112.47371
 21
176.914716
 31
0.0
  0
LINE
  5
168
100
AcDbEntity
  8
10
370
     9
  6
Continuous
 62
     3
100
AcDbLine
 10
114.501608
 20
178.922535
 30
0.0
 11
113.862358
 21
178.289615
 31
0.0
  0
LINE
  5
169
100
AcDbEntity
  8
10
370
     9
  6
Continuous
 62
     3
100
AcDbLine
 10
113.862358
 20
178.289615
 30
0.0
 11
120.542839
 21
178.289615
 31
0.0
  0
LINE
  5
16A
100
AcDbEntity
  8
10
370
     9
  6
Continuous
 62
     3
100
AcDbLine
 10
120.542839
 20
178.289615
 30
0.0
 11
120.542839
 21
178.922535
 31
0.0
  0
LINE
  5
16B
100
AcDbEntity
  8
10
370
     9
  6
Continuous
 62
     3
100
AcDbLine
 10
120.542839
 20
178.922535
 30
0.0
 11
114.501608
 21
178.922535
 31
0.0
  0
LINE
  5
16C
100
AcDbEntity
  8
10
370
     9
  6
Continuous
 62
     3
100
AcDbLine
 10
116.529505
 20
180.930354
 30
0.0
 11
115.890255
 21
180.297433
 31
0.0
  0
LINE
  5
16D
100
AcDbEntity
  8
10
370
     9
  6
Continuous
 62
     3
100
AcDbLine
 10
115.890255
 20
180.297433
 30
0.0
 11
120.542839
 21
180.297433
 31
0.0
  0
LINE
  5
16E
100
AcDbEntity
  8
10
370
     9
  6
Continuous
 62
     3
100
AcDbLine
 10
120.542839
 20
180.297433
 30
0.0
 11
120.542839
 21
180.930354
 31
0.0
  0
LINE
  5
16F
100
AcDbEntity
  8
10
370
     9
  6
Continuous
 62
     3
100
AcDbLine
 10
120.542839
 20
180.930354
 30
0.0
 11
116.529505
 21
180.930354
 31
0.0
  0
LINE
  5
170
100
AcDbEntity
  8
10
370
     9
  6
Continuous
 62
     3
100
AcDbLine
 10
118.557403
 20
182.938173
 30
0.0
 11
117.918153
 21
182.305252
 31
0.0
  0
LINE
  5
171
100
AcDbEntity
  8
10
370
     9
  6
Continuous
 62
     3
100
AcDbLine
 10
117.918153
 20
182.305252
 30
0.0
 11
120.542839
 21
182.305252
 31
0.0
  0
LINE
  5
172
100
AcDbEntity
  8
10
370
     9
  6
Continuous
 62
     3
100
AcDbLine
 10
120.542839
 20
182.305252
 30
0.0
 11
120.542839
 21
182.938173
 31
0.0
  0
LINE
  5
173
100
AcDbEntity
  8
10
370
     9
  6
Continuous
 62
     3
100
AcDbLine
 10
120.542839
 20
182.938173
 30
0.0
 11
118.557403
 21
182.938173
 31
0.0
  0
LINE
  5
174
100
AcDbEntity
  8
10
370
     9
  6
Continuous
 62
     3
100
AcDbLine
 10
120.542839
 20
184.903951
 30
0.0
 11
120.542839
 21
184.313071
 31
0.0
  0
LINE
  5
175
100
AcDbEntity
  8
10
370
     9
  6
Continuous
 62
     3
100
AcDbLine
 10
120.542839
 20
184.313071
 30
0.0
 11
119.94605
 21
184.313071
 31
0.0
  0
LINE
  5
176
100
AcDbEntity
  8
10
370
     9
  6
Continuous
 62
     3
100
AcDbLine
 10
119.94605
 20
184.313071
 30
0.0
 11
120.542839
 21
184.903951
 31
0.0
  0
LINE
  5
177
100
AcDbEntity
  8
10
370
     9
  6
Continuous
 62
     3
100
AcDbLine
 10
145.761368
 20
162.227448
 30
0.0
 11
147.070347
 21
163.523466
 31
0.0
  0
LINE
  5
178
100
AcDbEntity
  8
10
370
     9
  6
Continuous
 62
     3
100
AcDbLine
 10
147.070347
 20
163.523466
 30
0.0
 11
133.48364
 21
163.523466
 31
0.0
  0
LINE
  5
179
100
AcDbEntity
  8
10
370
     9
  6
Continuous
 62
     3
100
AcDbLine
 10
133.48364
 20
163.523466
 30
0.0
 11
133.188601
 21
163.231349
 31
0.0
  0
LINE
  5
17A
100
AcDbEntity
  8
10
370
     9
  6
Continuous
 62
     3
100
AcDbLine
 10
147.789257
 20
164.235258
 30
0.0
 11
149.098244
 21
165.531285
 31
0.0
  0
LINE
  5
17B
100
AcDbEntity
  8
10
370
     9
  6
Continuous
 62
     3
100
AcDbLine
 10
149.098244
 20
165.531285
 30
0.0
 11
135.511537
 21
165.531285
 31
0.0
  0
LINE
  5
17C
100
AcDbEntity
  8
10
370
     9
  6
Continuous
 62
     3
100
AcDbLine
 10
135.511537
 20
165.531285
 30
0.0
 11
135.216499
 21
165.239168
 31
0.0
  0
LINE
  5
17D
100
AcDbEntity
  8
10
370
     9
  6
Continuous
 62
     3
100
AcDbLine
 10
149.817154
 20
166.243077
 30
0.0
 11
151.126141
 21
167.539104
 31
0.0
  0
LINE
  5
17E
100
AcDbEntity
  8
10
370
     9
  6
Continuous
 62
     3
100
AcDbLine
 10
151.126141
 20
167.539104
 30
0.0
 11
137.539435
 21
167.539104
 31
0.0
  0
LINE
  5
17F
100
AcDbEntity
  8
10
370
     9
  6
Continuous
 62
     3
100
AcDbLine
 10
137.539435
 20
167.539104
 30
0.0
 11
137.244396
 21
167.246986
 31
0.0
  0
LINE
  5
180
100
AcDbEntity
  8
10
370
     9
  6
Continuous
 62
     3
100
AcDbLine
 10
151.845051
 20
168.250896
 30
0.0
 11
153.154038
 21
169.546922
 31
0.0
  0
LINE
  5
181
100
AcDbEntity
  8
10
370
     9
  6
Continuous
 62
     3
100
AcDbLine
 10
153.154038
 20
169.546922
 30
0.0
 11
139.567332
 21
169.546922
 31
0.0
  0
LINE
  5
182
100
AcDbEntity
  8
10
370
     9
  6
Continuous
 62
     3
100
AcDbLine
 10
139.567332
 20
169.546922
 30
0.0
 11
139.272294
 21
169.254805
 31
0.0
  0
LINE
  5
183
100
AcDbEntity
  8
10
370
     9
  6
Continuous
 62
     3
100
AcDbLine
 10
153.872949
 20
170.258715
 30
0.0
 11
155.181936
 21
171.554741
 31
0.0
  0
LINE
  5
184
100
AcDbEntity
  8
10
370
     9
  6
Continuous
 62
     3
100
AcDbLine
 10
155.181936
 20
171.554741
 30
0.0
 11
141.59523
 21
171.554741
 31
0.0
  0
LINE
  5
185
100
AcDbEntity
  8
10
370
     9
  6
Continuous
 62
     3
100
AcDbLine
 10
141.59523
 20
171.554741
 30
0.0
 11
141.300191
 21
171.262624
 31
0.0
  0
LINE
  5
186
100
AcDbEntity
  8
10
370
     9
  6
Continuous
 62
     3
100
AcDbLine
 10
155.900846
 20
172.266533
 30
0.0
 11
157.209833
 21
173.56256
 31
0.0
  0
LINE
  5
187
100
AcDbEntity
  8
10
370
     9
  6
Continuous
 62
     3
100
AcDbLine
 10
157.209833
 20
173.56256
 30
0.0
 11
143.623127
 21
173.56256
 31
0.0
  0
LINE
  5
188
100
AcDbEntity
  8
10
370
     9
  6
Continuous
 62
     3
100
AcDbLine
 10
143.623127
 20
173.56256
 30
0.0
 11
143.328089
 21
173.270443
 31
0.0
  0
LINE
  5
189
100
AcDbEntity
  8
10
370
     9
  6
Continuous
 62
     3
100
AcDbLine
 10
157.928743
 20
174.274352
 30
0.0
 11
159.202325
 21
175.535324
 31
0.0
  0
LINE
  5
18A
100
AcDbEntity
  8
10
370
     9
  6
Continuous
 62
     3
100
AcDbLine
 10
159.23773
 20
175.570379
 30
0.0
 11
145.651025
 21
175.570379
 31
0.0
  0
LINE
  5
18B
100
AcDbEntity
  8
10
370
     9
  6
Continuous
 62
     3
100
AcDbLine
 10
145.651025
 20
175.570379
 30
0.0
 11
145.355995
 21
175.27827
 31
0.0
  0
LINE
  5
18C
100
AcDbEntity
  8
10
370
     9
  6
Continuous
 62
     3
100
AcDbLine
 10
146.369935
 20
176.282171
 30
0.0
 11
159.95664
 21
176.282171
 31
0.0
  0
LINE
  5
18D
100
AcDbEntity
  8
10
370
     9
  6
Continuous
 62
     3
100
AcDbLine
 10
159.95664
 20
176.282171
 30
0.0
 11
161.265627
 21
177.578197
 31
0.0
  0
LINE
  5
18E
100
AcDbEntity
  8
10
370
     9
  6
Continuous
 62
     3
100
AcDbLine
 10
161.265627
 20
177.578197
 30
0.0
 11
147.678922
 21
177.578197
 31
0.0
  0
LINE
  5
18F
100
AcDbEntity
  8
10
370
     9
  6
Continuous
 62
     3
100
AcDbLine
 10
147.678922
 20
177.578197
 30
0.0
 11
146.369935
 21
176.282171
 31
0.0
  0
LINE
  5
190
100
AcDbEntity
  8
10
370
     9
  6
Continuous
 62
     3
100
AcDbLine
 10
148.397833
 20
178.28999
 30
0.0
 11
149.70682
 21
179.586016
 31
0.0
  0
LINE
  5
191
100
AcDbEntity
  8
10
370
     9
  6
Continuous
 62
     3
100
AcDbLine
 10
149.70682
 20
179.586016
 30
0.0
 11
163.293525
 21
179.586016
 31
0.0
  0
LINE
  5
192
100
AcDbEntity
  8
10
370
     9
  6
Continuous
 62
     3
100
AcDbLine
 10
163.293525
 20
179.586016
 30
0.0
 11
161.984538
 21
178.28999
 31
0.0
  0
LINE
  5
193
100
AcDbEntity
  8
10
370
     9
  6
Continuous
 62
     3
100
AcDbLine
 10
161.984538
 20
178.28999
 30
0.0
 11
148.397833
 21
178.28999
 31
0.0
  0
LINE
  5
194
100
AcDbEntity
  8
10
370
     9
  6
Continuous
 62
     3
100
AcDbLine
 10
151.734717
 20
181.593835
 30
0.0
 11
150.42573
 21
180.297808
 31
0.0
  0
LINE
  5
195
100
AcDbEntity
  8
10
370
     9
  6
Continuous
 62
     3
100
AcDbLine
 10
150.42573
 20
180.297808
 30
0.0
 11
164.012435
 21
180.297808
 31
0.0
  0
LINE
  5
196
100
AcDbEntity
  8
10
370
     9
  6
Continuous
 62
     3
100
AcDbLine
 10
164.012435
 20
180.297808
 30
0.0
 11
165.321422
 21
181.593835
 31
0.0
  0
LINE
  5
197
100
AcDbEntity
  8
10
370
     9
  6
Continuous
 62
     3
100
AcDbLine
 10
165.321422
 20
181.593835
 30
0.0
 11
151.734717
 21
181.593835
 31
0.0
  0
LINE
  5
198
100
AcDbEntity
  8
10
370
     9
  6
Continuous
 62
     3
100
AcDbLine
 10
152.453628
 20
182.305627
 30
0.0
 11
166.040332
 21
182.305627
 31
0.0
  0
LINE
  5
199
100
AcDbEntity
  8
10
370
     9
  6
Continuous
 62
     3
100
AcDbLine
 10
166.040332
 20
182.305627
 30
0.0
 11
166.935875
 21
183.192303
 31
0.0
  0
LINE
  5
19A
100
AcDbEntity
  8
10
370
     9
  6
Continuous
 62
     3
100
AcDbLine
 10
166.935875
 20
183.192303
 30
0.0
 11
166.935875
 21
182.305627
 31
0.0
  0
LINE
  5
19B
100
AcDbEntity
  8
10
370
     9
  6
Continuous
 62
     3
100
AcDbLine
 10
152.453628
 20
182.305627
 30
0.0
 11
153.762615
 21
183.601654
 31
0.0
  0
LINE
  5
19C
100
AcDbEntity
  8
10
370
     9
  6
Continuous
 62
     3
100
AcDbLine
 10
153.762615
 20
183.601654
 30
0.0
 11
176.060677
 21
183.601654
 31
0.0
  0
LINE
  5
19D
100
AcDbEntity
  8
10
370
     9
  6
Continuous
 62
     3
100
AcDbLine
 10
176.060683
 20
183.601654
 30
0.0
 11
176.060683
 21
182.305627
 31
0.0
  0
LINE
  5
19E
100
AcDbEntity
  8
10
370
     9
  6
Continuous
 62
     3
100
AcDbLine
 10
176.060677
 20
182.305627
 30
0.0
 11
166.935875
 21
182.305627
 31
0.0
  0
LINE
  5
19F
100
AcDbEntity
  8
10
370
     9
  6
Continuous
 62
     3
100
AcDbLine
 10
154.481525
 20
184.313446
 30
0.0
 11
155.790512
 21
185.609473
 31
0.0
  0
LINE
  5
1A0
100
AcDbEntity
  8
10
370
     9
  6
Continuous
 62
     3
100
AcDbLine
 10
155.790512
 20
185.609473
 30
0.0
 11
176.060683
 21
185.609473
 31
0.0
  0
LINE
  5
1A1
100
AcDbEntity
  8
10
370
     9
  6
Continuous
 62
     3
100
AcDbLine
 10
176.060683
 20
185.609473
 30
0.0
 11
176.060677
 21
184.313446
 31
0.0
  0
LINE
  5
1A2
100
AcDbEntity
  8
10
370
     9
  6
Continuous
 62
     3
100
AcDbLine
 10
176.060683
 20
184.313446
 30
0.0
 11
154.481525
 21
184.313446
 31
0.0
  0
LINE
  5
1A3
100
AcDbEntity
  8
10
370
     9
  6
Continuous
 62
     3
100
AcDbLine
 10
156.509423
 20
186.321265
 30
0.0
 11
176.060683
 21
186.321265
 31
0.0
  0
LINE
  5
1A4
100
AcDbEntity
  8
10
370
     9
  6
Continuous
 62
     3
100
AcDbLine
 10
176.060683
 20
186.321265
 30
0.0
 11
176.060677
 21
187.617291
 31
0.0
  0
LINE
  5
1A5
100
AcDbEntity
  8
10
370
     9
  6
Continuous
 62
     3
100
AcDbLine
 10
176.060683
 20
187.617291
 30
0.0
 11
157.81841
 21
187.617291
 31
0.0
  0
LINE
  5
1A6
100
AcDbEntity
  8
10
370
     9
  6
Continuous
 62
     3
100
AcDbLine
 10
157.81841
 20
187.617291
 30
0.0
 11
156.509423
 21
186.321265
 31
0.0
  0
LINE
  5
1A7
100
AcDbEntity
  8
10
370
     9
  6
Continuous
 62
     3
100
AcDbLine
 10
158.53732
 20
188.329083
 30
0.0
 11
176.060677
 21
188.329083
 31
0.0
  0
LINE
  5
1A8
100
AcDbEntity
  8
10
370
     9
  6
Continuous
 62
     3
100
AcDbLine
 10
176.060683
 20
188.329083
 30
0.0
 11
176.060683
 21
189.62511
 31
0.0
  0
LINE
  5
1A9
100
AcDbEntity
  8
10
370
     9
  6
Continuous
 62
     3
100
AcDbLine
 10
176.060683
 20
189.62511
 30
0.0
 11
159.846307
 21
189.62511
 31
0.0
  0
LINE
  5
1AA
100
AcDbEntity
  8
10
370
     9
  6
Continuous
 62
     3
100
AcDbLine
 10
159.846307
 20
189.62511
 30
0.0
 11
158.53732
 21
188.329083
 31
0.0
  0
LINE
  5
1AB
100
AcDbEntity
  8
10
370
     9
  6
Continuous
 62
     3
100
AcDbLine
 10
160.565218
 20
190.336902
 30
0.0
 11
176.060683
 21
190.336902
 31
0.0
  0
LINE
  5
1AC
100
AcDbEntity
  8
10
370
     9
  6
Continuous
 62
     3
100
AcDbLine
 10
176.060683
 20
190.336902
 30
0.0
 11
176.060677
 21
191.632929
 31
0.0
  0
LINE
  5
1AD
100
AcDbEntity
  8
10
370
     9
  6
Continuous
 62
     3
100
AcDbLine
 10
176.060683
 20
191.632929
 30
0.0
 11
161.874205
 21
191.632929
 31
0.0
  0
LINE
  5
1AE
100
AcDbEntity
  8
10
370
     9
  6
Continuous
 62
     3
100
AcDbLine
 10
161.874205
 20
191.632929
 30
0.0
 11
160.565218
 21
190.336902
 31
0.0
  0
LINE
  5
1AF
100
AcDbEntity
  8
10
370
     9
  6
Continuous
 62
     3
100
AcDbLine
 10
163.902102
 20
193.640748
 30
0.0
 11
162.593115
 21
192.344721
 31
0.0
  0
LINE
  5
1B0
100
AcDbEntity
  8
10
370
     9
  6
Continuous
 62
     3
100
AcDbLine
 10
162.593115
 20
192.344721
 30
0.0
 11
176.060683
 21
192.344721
 31
0.0
  0
LINE
  5
1B1
100
AcDbEntity
  8
10
370
     9
  6
Continuous
 62
     3
100
AcDbLine
 10
176.060677
 20
192.344721
 30
0.0
 11
176.060683
 21
193.640748
 31
0.0
  0
LINE
  5
1B2
100
AcDbEntity
  8
10
370
     9
  6
Continuous
 62
     3
100
AcDbLine
 10
176.060683
 20
193.640748
 30
0.0
 11
163.902102
 21
193.640748
 31
0.0
  0
LINE
  5
1B3
100
AcDbEntity
  8
10
370
     9
  6
Continuous
 62
     3
100
AcDbLine
 10
165.93
 20
195.648566
 30
0.0
 11
164.621013
 21
194.35254
 31
0.0
  0
LINE
  5
1B4
100
AcDbEntity
  8
10
370
     9
  6
Continuous
 62
     3
100
AcDbLine
 10
164.621013
 20
194.35254
 30
0.0
 11
176.060683
 21
194.35254
 31
0.0
  0
LINE
  5
1B5
100
AcDbEntity
  8
10
370
     9
  6
Continuous
 62
     3
100
AcDbLine
 10
176.060677
 20
194.35254
 30
0.0
 11
176.060677
 21
195.648566
 31
0.0
  0
LINE
  5
1B6
100
AcDbEntity
  8
10
370
     9
  6
Continuous
 62
     3
100
AcDbLine
 10
176.060677
 20
195.648566
 30
0.0
 11
165.93
 21
195.648566
 31
0.0
  0
LINE
  5
1B7
100
AcDbEntity
  8
10
370
     9
  6
Continuous
 62
     3
100
AcDbLine
 10
167.957898
 20
197.656385
 30
0.0
 11
166.64891
 21
196.360359
 31
0.0
  0
LINE
  5
1B8
100
AcDbEntity
  8
10
370
     9
  6
Continuous
 62
     3
100
AcDbLine
 10
166.64891
 20
196.360359
 30
0.0
 11
176.060683
 21
196.360359
 31
0.0
  0
LINE
  5
1B9
100
AcDbEntity
  8
10
370
     9
  6
Continuous
 62
     3
100
AcDbLine
 10
176.060683
 20
196.360359
 30
0.0
 11
176.060683
 21
197.656385
 31
0.0
  0
LINE
  5
1BA
100
AcDbEntity
  8
10
370
     9
  6
Continuous
 62
     3
100
AcDbLine
 10
176.060683
 20
197.656385
 30
0.0
 11
167.957898
 21
197.656385
 31
0.0
  0
LINE
  5
1BB
100
AcDbEntity
  8
10
370
     9
  6
Continuous
 62
     3
100
AcDbLine
 10
169.985795
 20
199.664204
 30
0.0
 11
168.676808
 21
198.368177
 31
0.0
  0
LINE
  5
1BC
100
AcDbEntity
  8
10
370
     9
  6
Continuous
 62
     3
100
AcDbLine
 10
168.676808
 20
198.368177
 30
0.0
 11
176.060683
 21
198.368177
 31
0.0
  0
LINE
  5
1BD
100
AcDbEntity
  8
10
370
     9
  6
Continuous
 62
     3
100
AcDbLine
 10
176.060677
 20
198.368177
 30
0.0
 11
176.060677
 21
199.664204
 31
0.0
  0
LINE
  5
1BE
100
AcDbEntity
  8
10
370
     9
  6
Continuous
 62
     3
100
AcDbLine
 10
176.060677
 20
199.664204
 30
0.0
 11
169.985795
 21
199.664204
 31
0.0
  0
LINE
  5
1BF
100
AcDbEntity
  8
10
370
     9
  6
Continuous
 62
     3
100
AcDbLine
 10
170.704705
 20
200.375996
 30
0.0
 11
176.060677
 21
200.375996
 31
0.0
  0
LINE
  5
1C0
100
AcDbEntity
  8
10
370
     9
  6
Continuous
 62
     3
100
AcDbLine
 10
176.060677
 20
200.375996
 30
0.0
 11
176.060677
 21
201.672023
 31
0.0
  0
LINE
  5
1C1
100
AcDbEntity
  8
10
370
     9
  6
Continuous
 62
     3
100
AcDbLine
 10
176.060677
 20
201.672023
 30
0.0
 11
172.013693
 21
201.672023
 31
0.0
  0
LINE
  5
1C2
100
AcDbEntity
  8
10
370
     9
  6
Continuous
 62
     3
100
AcDbLine
 10
172.013693
 20
201.672023
 30
0.0
 11
170.704705
 21
200.375996
 31
0.0
  0
LINE
  5
1C3
100
AcDbEntity
  8
10
370
     9
  6
Continuous
 62
     3
100
AcDbLine
 10
172.732603
 20
202.383815
 30
0.0
 11
176.060677
 21
202.383815
 31
0.0
  0
LINE
  5
1C4
100
AcDbEntity
  8
10
370
     9
  6
Continuous
 62
     3
100
AcDbLine
 10
176.060683
 20
202.383815
 30
0.0
 11
176.060683
 21
203.679841
 31
0.0
  0
LINE
  5
1C5
100
AcDbEntity
  8
10
370
     9
  6
Continuous
 62
     3
100
AcDbLine
 10
176.060683
 20
203.679841
 30
0.0
 11
174.04159
 21
203.679841
 31
0.0
  0
LINE
  5
1C6
100
AcDbEntity
  8
10
370
     9
  6
Continuous
 62
     3
100
AcDbLine
 10
174.04159
 20
203.679841
 30
0.0
 11
172.732603
 21
202.383815
 31
0.0
  0
LINE
  5
1C7
100
AcDbEntity
  8
10
370
     9
  6
Continuous
 62
     3
100
AcDbLine
 10
176.060677
 20
205.678937
 30
0.0
 11
174.7605
 21
204.391634
 31
0.0
  0
LINE
  5
1C8
100
AcDbEntity
  8
10
370
     9
  6
Continuous
 62
     3
100
AcDbLine
 10
174.7605
 20
204.391634
 30
0.0
 11
176.060677
 21
204.391634
 31
0.0
  0
LINE
  5
1C9
100
AcDbEntity
  8
10
370
     9
  6
Continuous
 62
     3
100
AcDbLine
 10
176.060683
 20
204.391634
 30
0.0
 11
176.060677
 21
205.678937
 31
0.0
  0
INSERT
  5
1D1
100
AcDbEntity
  8
0
370
     9
  6
Continuous
 62
     3
100
AcDbBlockReference
  2
*G9
 10
0.0
 20
0.0
 30
0.0
  0
INSERT
  5
1D9
100
AcDbEntity
  8
0
370
     9
  6
Continuous
 62
     3
100
AcDbBlockReference
  2
*G10
 10
0.0
 20
0.0
 30
0.0
  0
INSERT
  5
1E1
100
AcDbEntity
  8
0
370
     9
  6
Continuous
 62
     3
100
AcDbBlockReference
  2
*G11
 10
0.0
 20
0.0
 30
0.0
  0
INSERT
  5
1E9
100
AcDbEntity
  8
0
370
     9
  6
Continuous
 62
     3
100
AcDbBlockReference
  2
*G12
 10
0.0
 20
0.0
 30
0.0
  0
INSERT
  5
1F1
100
AcDbEntity
  8
0
370
     9
  6
Continuous
 62
     3
100
AcDbBlockReference
  2
*G13
 10
0.0
 20
0.0
 30
0.0
  0
INSERT
  5
1F9
100
AcDbEntity
  8
0
370
     9
  6
Continuous
 62
     3
100
AcDbBlockReference
  2
*G14
 10
0.0
 20
0.0
 30
0.0
  0
INSERT
  5
201
100
AcDbEntity
  8
0
370
     9
  6
Continuous
 62
     3
100
AcDbBlockReference
  2
*G15
 10
0.0
 20
0.0
 30
0.0
  0
INSERT
  5
209
100
AcDbEntity
  8
0
370
     9
  6
Continuous
 62
     3
100
AcDbBlockReference
  2
*G16
 10
0.0
 20
0.0
 30
0.0
  0
INSERT
  5
211
100
AcDbEntity
  8
0
370
     9
  6
Continuous
 62
     3
100
AcDbBlockReference
  2
*G17
 10
0.0
 20
0.0
 30
0.0
  0
LINE
  5
212
100
AcDbEntity
  8
10
370
     9
  6
Continuous
 62
     3
100
AcDbLine
 10
157.376546
 20
171.35225
 30
0.0
 11
157.376546
 21
170.258715
 31
0.0
  0
LINE
  5
213
100
AcDbEntity
  8
10
370
     9
  6
Continuous
 62
     3
100
AcDbLine
 10
157.376546
 20
170.258715
 30
0.0
 11
176.060677
 21
170.258715
 31
0.0
  0
LINE
  5
214
100
AcDbEntity
  8
10
370
     9
  6
Continuous
 62
     3
100
AcDbLine
 10
176.060683
 20
170.258715
 30
0.0
 11
176.060677
 21
171.554741
 31
0.0
  0
LINE
  5
215
100
AcDbEntity
  8
10
370
     9
  6
Continuous
 62
     3
100
AcDbLine
 10
176.060677
 20
171.554741
 30
0.0
 11
166.935875
 21
171.554741
 31
0.0
  0
LINE
  5
216
100
AcDbEntity
  8
10
370
     9
  6
Continuous
 62
     3
100
AcDbLine
 10
166.935875
 20
171.554741
 30
0.0
 11
166.935875
 21
171.35225
 31
0.0
  0
LINE
  5
217
100
AcDbEntity
  8
10
370
     9
  6
Continuous
 62
     3
100
AcDbLine
 10
166.935875
 20
171.35225
 30
0.0
 11
157.376546
 21
171.35225
 31
0.0
  0
LINE
  5
218
100
AcDbEntity
  8
10
370
     9
  6
Continuous
 62
     3
100
AcDbLine
 10
130.185158
 20
163.230974
 30
0.0
 11
133.188213
 21
163.230974
 31
0.0
  0
LINE
  5
219
100
AcDbEntity
  8
10
370
     9
  6
Continuous
 62
     3
100
AcDbLine
 10
130.185158
 20
165.238793
 30
0.0
 11
135.21611
 21
165.238793
 31
0.0
  0
LINE
  5
21A
100
AcDbEntity
  8
10
370
     9
  6
Continuous
 62
     3
100
AcDbLine
 10
130.185158
 20
167.246611
 30
0.0
 11
137.244008
 21
167.246611
 31
0.0
  0
LINE
  5
21B
100
AcDbEntity
  8
10
370
     9
  6
Continuous
 62
     3
100
AcDbLine
 10
130.185158
 20
169.254439
 30
0.0
 11
139.271906
 21
169.254431
 31
0.0
  0
LINE
  5
21C
100
AcDbEntity
  8
10
370
     9
  6
Continuous
 62
     3
100
AcDbLine
 10
137.028951
 20
171.262249
 30
0.0
 11
141.299803
 21
171.262249
 31
0.0
  0
LINE
  5
21D
100
AcDbEntity
  8
10
370
     9
  6
Continuous
 62
     3
100
AcDbLine
 10
137.028951
 20
173.270068
 30
0.0
 11
143.3277
 21
173.270068
 31
0.0
  0
LINE
  5
21E
100
AcDbEntity
  8
10
370
     9
  6
Continuous
 62
     3
100
AcDbLine
 10
147.788869
 20
164.234883
 30
0.0
 11
145.36286
 21
164.234883
 31
0.0
  0
LINE
  5
21F
100
AcDbEntity
  8
10
370
     9
  6
Continuous
 62
     3
100
AcDbLine
 10
145.761359
 20
162.227448
 30
0.0
 11
131.38434
 21
162.227073
 31
0.0
  0
LINE
  5
220
100
AcDbEntity
  8
10
370
     9
  6
Continuous
 62
     3
100
AcDbLine
 10
149.816766
 20
166.242702
 30
0.0
 11
146.617711
 21
166.242702
 31
0.0
  0
LINE
  5
221
100
AcDbEntity
  8
10
370
     9
  6
Continuous
 62
     3
100
AcDbLine
 10
151.844663
 20
168.250521
 30
0.0
 11
149.026805
 21
168.250521
 31
0.0
  0
LINE
  5
222
100
AcDbEntity
  8
10
370
     9
  6
Continuous
 62
     3
100
AcDbLine
 10
153.87256
 20
170.25834
 30
0.0
 11
151.494743
 21
170.25834
 31
0.0
  0
LINE
  5
223
100
AcDbEntity
  8
10
370
     9
  6
Continuous
 62
     3
100
AcDbLine
 10
155.900457
 20
172.266158
 30
0.0
 11
152.851589
 21
172.266159
 31
0.0
  0
LINE
  5
224
100
AcDbEntity
  8
10
370
     9
  6
Continuous
 62
     3
100
AcDbLine
 10
157.928355
 20
174.273977
 30
0.0
 11
155.786808
 21
174.273977
 31
0.0
  0
LINE
  5
225
100
AcDbEntity
  8
10
370
     9
  6
Continuous
 62
     3
100
AcDbLine
 10
123.295859
 20
173.270076
 30
0.0
 11
133.022963
 21
173.270076
 31
0.0
  0
LINE
  5
226
100
AcDbEntity
  8
10
370
     9
  6
Continuous
 62
     3
100
AcDbLine
 10
122.28191
 20
172.266167
 30
0.0
 11
123.295859
 21
173.270076
 31
0.0
  0
LINE
  5
227
100
AcDbEntity
  8
10
370
     9
  6
Continuous
 62
     3
100
AcDbLine
 10
132.009015
 20
172.266167
 30
0.0
 11
122.28191
 21
172.266167
 31
0.0
  0
LINE
  5
228
100
AcDbEntity
  8
10
370
     9
  6
Continuous
 62
     3
100
AcDbLine
 10
133.022963
 20
173.270076
 30
0.0
 11
132.009015
 21
172.266167
 31
0.0
  0
LINE
  5
229
100
AcDbEntity
  8
10
370
     9
  6
Continuous
 62
     3
100
AcDbLine
 10
125.323756
 20
175.277895
 30
0.0
 11
135.050861
 21
175.277895
 31
0.0
  0
LINE
  5
22A
100
AcDbEntity
  8
10
370
     9
  6
Continuous
 62
     3
100
AcDbLine
 10
124.309808
 20
174.273986
 30
0.0
 11
125.323756
 21
175.277895
 31
0.0
  0
LINE
  5
22B
100
AcDbEntity
  8
10
370
     9
  6
Continuous
 62
     3
100
AcDbLine
 10
134.036912
 20
174.273986
 30
0.0
 11
124.309808
 21
174.273986
 31
0.0
  0
LINE
  5
22C
100
AcDbEntity
  8
10
370
     9
  6
Continuous
 62
     3
100
AcDbLine
 10
135.050861
 20
175.277895
 30
0.0
 11
134.036912
 21
174.273986
 31
0.0
  0
LINE
  5
22D
100
AcDbEntity
  8
10
370
     9
  6
Continuous
 62
     3
100
AcDbLine
 10
142.560885
 20
192.344355
 30
0.0
 11
143.561641
 21
193.335202
 31
0.0
  0
LINE
  5
22E
100
AcDbEntity
  8
10
370
     9
  6
Continuous
 62
     3
100
AcDbLine
 10
143.561641
 20
192.344355
 30
0.0
 11
142.560885
 21
192.344355
 31
0.0
  0
LINE
  5
22F
100
AcDbEntity
  8
10
370
     9
  6
Continuous
 62
     3
100
AcDbLine
 10
143.561641
 20
193.335202
 30
0.0
 11
143.561641
 21
192.344355
 31
0.0
  0
LINE
  5
230
100
AcDbEntity
  8
10
370
     9
  6
Continuous
 62
     3
100
AcDbLine
 10
140.532988
 20
190.336536
 30
0.0
 11
143.561653
 21
190.336536
 31
0.0
  0
LINE
  5
231
100
AcDbEntity
  8
10
370
     9
  6
Continuous
 62
     3
100
AcDbLine
 10
141.546937
 20
191.340445
 30
0.0
 11
140.532988
 21
190.336536
 31
0.0
  0
LINE
  5
232
100
AcDbEntity
  8
10
370
     9
  6
Continuous
 62
     3
100
AcDbLine
 10
143.561641
 20
191.340445
 30
0.0
 11
141.546937
 21
191.340445
 31
0.0
  0
LINE
  5
233
100
AcDbEntity
  8
10
370
     9
  6
Continuous
 62
     3
100
AcDbLine
 10
143.561653
 20
190.336536
 30
0.0
 11
143.561641
 21
191.340445
 31
0.0
  0
LINE
  5
234
100
AcDbEntity
  8
10
370
     9
  6
Continuous
 62
     3
100
AcDbLine
 10
138.50509
 20
188.328717
 30
0.0
 11
143.561641
 21
188.328717
 31
0.0
  0
LINE
  5
235
100
AcDbEntity
  8
10
370
     9
  6
Continuous
 62
     3
100
AcDbLine
 10
139.519039
 20
189.332626
 30
0.0
 11
138.50509
 21
188.328717
 31
0.0
  0
LINE
  5
236
100
AcDbEntity
  8
10
370
     9
  6
Continuous
 62
     3
100
AcDbLine
 10
143.561641
 20
189.332626
 30
0.0
 11
139.519039
 21
189.332626
 31
0.0
  0
LINE
  5
237
100
AcDbEntity
  8
10
370
     9
  6
Continuous
 62
     3
100
AcDbLine
 10
143.561653
 20
188.328717
 30
0.0
 11
143.561641
 21
189.332626
 31
0.0
  0
LINE
  5
238
100
AcDbEntity
  8
10
370
     9
  6
Continuous
 62
     3
100
AcDbLine
 10
136.477193
 20
186.320898
 30
0.0
 11
143.561653
 21
186.320898
 31
0.0
  0
LINE
  5
239
100
AcDbEntity
  8
10
370
     9
  6
Continuous
 62
     3
100
AcDbLine
 10
137.491142
 20
187.324808
 30
0.0
 11
136.477193
 21
186.320898
 31
0.0
  0
LINE
  5
23A
100
AcDbEntity
  8
10
370
     9
  6
Continuous
 62
     3
100
AcDbLine
 10
143.561641
 20
187.324808
 30
0.0
 11
137.491142
 21
187.324808
 31
0.0
  0
LINE
  5
23B
100
AcDbEntity
  8
10
370
     9
  6
Continuous
 62
     3
100
AcDbLine
 10
143.561641
 20
186.320898
 30
0.0
 11
143.561641
 21
187.324808
 31
0.0
  0
LINE
  5
23C
100
AcDbEntity
  8
10
370
     9
  6
Continuous
 62
     3
100
AcDbLine
 10
134.449295
 20
184.313079
 30
0.0
 11
143.561653
 21
184.313079
 31
0.0
  0
LINE
  5
23D
100
AcDbEntity
  8
10
370
     9
  6
Continuous
 62
     3
100
AcDbLine
 10
135.463244
 20
185.316989
 30
0.0
 11
134.449295
 21
184.313079
 31
0.0
  0
LINE
  5
23E
100
AcDbEntity
  8
10
370
     9
  6
Continuous
 62
     3
100
AcDbLine
 10
143.561641
 20
185.316989
 30
0.0
 11
135.463244
 21
185.316989
 31
0.0
  0
LINE
  5
23F
100
AcDbEntity
  8
10
370
     9
  6
Continuous
 62
     3
100
AcDbLine
 10
143.561641
 20
184.313079
 30
0.0
 11
143.561641
 21
185.316989
 31
0.0
  0
LINE
  5
240
100
AcDbEntity
  8
10
370
     9
  6
Continuous
 62
     3
100
AcDbLine
 10
132.421398
 20
182.305261
 30
0.0
 11
143.561641
 21
182.305261
 31
0.0
  0
LINE
  5
241
100
AcDbEntity
  8
10
370
     9
  6
Continuous
 62
     3
100
AcDbLine
 10
133.435346
 20
183.30917
 30
0.0
 11
132.421398
 21
182.305261
 31
0.0
  0
LINE
  5
242
100
AcDbEntity
  8
10
370
     9
  6
Continuous
 62
     3
100
AcDbLine
 10
143.561641
 20
183.30917
 30
0.0
 11
133.435346
 21
183.30917
 31
0.0
  0
LINE
  5
243
100
AcDbEntity
  8
10
370
     9
  6
Continuous
 62
     3
100
AcDbLine
 10
143.561641
 20
182.305261
 30
0.0
 11
143.561641
 21
183.30917
 31
0.0
  0
LINE
  5
244
100
AcDbEntity
  8
10
370
     9
  6
Continuous
 62
     3
100
AcDbLine
 10
143.561641
 20
181.301351
 30
0.0
 11
143.561641
 21
180.297442
 31
0.0
  0
LINE
  5
245
100
AcDbEntity
  8
10
370
     9
  6
Continuous
 62
     3
100
AcDbLine
 10
131.407449
 20
181.301351
 30
0.0
 11
143.561641
 21
181.301351
 31
0.0
  0
LINE
  5
246
100
AcDbEntity
  8
10
370
     9
  6
Continuous
 62
     3
100
AcDbLine
 10
130.3935
 20
180.297442
 30
0.0
 11
131.407449
 21
181.301351
 31
0.0
  0
LINE
  5
247
100
AcDbEntity
  8
10
370
     9
  6
Continuous
 62
     3
100
AcDbLine
 10
143.561641
 20
180.297442
 30
0.0
 11
130.3935
 21
180.297442
 31
0.0
  0
LINE
  5
248
100
AcDbEntity
  8
10
370
     9
  6
Continuous
 62
     3
100
AcDbLine
 10
128.365603
 20
178.289623
 30
0.0
 11
143.561641
 21
178.289623
 31
0.0
  0
LINE
  5
249
100
AcDbEntity
  8
10
370
     9
  6
Continuous
 62
     3
100
AcDbLine
 10
129.379551
 20
179.293533
 30
0.0
 11
128.365603
 21
178.289623
 31
0.0
  0
LINE
  5
24A
100
AcDbEntity
  8
10
370
     9
  6
Continuous
 62
     3
100
AcDbLine
 10
143.561641
 20
179.293533
 30
0.0
 11
129.379551
 21
179.293533
 31
0.0
  0
LINE
  5
24B
100
AcDbEntity
  8
10
370
     9
  6
Continuous
 62
     3
100
AcDbLine
 10
143.561641
 20
178.289623
 30
0.0
 11
143.561641
 21
179.293533
 31
0.0
  0
LINE
  5
24C
100
AcDbEntity
  8
10
370
     9
  6
Continuous
 62
     3
100
AcDbLine
 10
137.028951
 20
177.2364
 30
0.0
 11
137.028951
 21
176.281804
 31
0.0
  0
LINE
  5
24D
100
AcDbEntity
  8
10
370
     9
  6
Continuous
 62
     3
100
AcDbLine
 10
136.064809
 20
176.281804
 30
0.0
 11
137.028951
 21
177.2364
 31
0.0
  0
LINE
  5
24E
100
AcDbEntity
  8
10
370
     9
  6
Continuous
 62
     3
100
AcDbLine
 10
126.337705
 20
176.281804
 30
0.0
 11
136.064809
 21
176.281804
 31
0.0
  0
LINE
  5
24F
100
AcDbEntity
  8
10
370
     9
  6
Continuous
 62
     3
100
AcDbLine
 10
127.351654
 20
177.285714
 30
0.0
 11
126.337705
 21
176.281804
 31
0.0
  0
LINE
  5
250
100
AcDbEntity
  8
10
370
     9
  6
Continuous
 62
     3
100
AcDbLine
 10
143.561641
 20
177.285714
 30
0.0
 11
127.351654
 21
177.285714
 31
0.0
  0
LINE
  5
251
100
AcDbEntity
  8
10
370
     9
  6
Continuous
 62
     3
100
AcDbLine
 10
143.561641
 20
176.281804
 30
0.0
 11
143.561641
 21
177.285714
 31
0.0
  0
LINE
  5
252
100
AcDbEntity
  8
10
370
     9
  6
Continuous
 62
     3
100
AcDbLine
 10
137.028951
 20
176.281804
 30
0.0
 11
143.561641
 21
176.281804
 31
0.0
  0
TEXT
  5
253
100
AcDbEntity
  8
11
370
   100
  6
Continuous
 62
   251
100
AcDbText
 10
97.945583
 20
196.674973
 30
0.0
 40
3.878969
  1
CONTACTLESS
 41
0.723766
 11
97.945583
 21
196.674973
 31
0.0
100
AcDbText
 73
     1
  0
TEXT
  5
254
100
AcDbEntity
  8
11
370
   100
  6
Continuous
 62
   251
100
AcDbText
 10
104.616942
 20
193.172161
 30
0.0
 40
3.878969
  1
Card
 41
0.606036
 11
104.616942
 21
193.172161
 31
0.0
100
AcDbText
 73
     1
  0
TEXT
  5
255
100
AcDbEntity
  8
11
370
   100
  6
Continuous
 62
   251
100
AcDbText
 10
98.519467
 20
193.172161
 30
0.0
 40
3.878969
  1
IC
 41
0.542857
 11
98.519467
 21
193.172161
 31
0.0
100
AcDbText
 73
     1
  0
INSERT
  5
25A
100
AcDbEntity
  8
0
370
     9
  6
Continuous
 62
    96
100
AcDbBlockReference
  2
*G18
 10
0.0
 20
0.0
 30
0.0
  0
LINE
  5
25B
100
AcDbEntity
  8
11
370
     9
  6
Continuous
 62
   251
100
AcDbLine
 10
103.925941
 20
207.362991
 30
0.0
 11
98.089967
 21
201.5848
 31
0.0
  0
LINE
  5
25C
100
AcDbEntity
  8
11
370
     9
  6
Continuous
 62
   251
100
AcDbLine
 10
103.925941
 20
201.5848
 30
0.0
 11
103.925941
 21
207.362991
 31
0.0
  0
LINE
  5
25D
100
AcDbEntity
  8
11
370
    30
  6
Continuous
 62
   251
100
AcDbLine
 10
107.16173
 20
203.780513
 30
0.0
 11
107.16173
 21
201.5848
 31
0.0
  0
LINE
  5
25E
100
AcDbEntity
  8
11
370
    30
  6
Continuous
 62
   251
100
AcDbLine
 10
106.410564
 20
203.780513
 30
0.0
 11
107.16173
 21
203.780513
 31
0.0
  0
LINE
  5
25F
100
AcDbEntity
  8
11
370
    30
  6
Continuous
 62
   251
100
AcDbLine
 10
106.410564
 20
204.473895
 30
0.0
 11
106.410564
 21
203.780513
 31
0.0
  0
LINE
  5
260
100
AcDbEntity
  8
11
370
    30
  6
Continuous
 62
   251
100
AcDbLine
 10
108.721839
 20
204.473895
 30
0.0
 11
106.410564
 21
204.473895
 31
0.0
  0
LINE
  5
261
100
AcDbEntity
  8
11
370
    30
  6
Continuous
 62
   251
100
AcDbLine
 10
105.659401
 20
202.533269
 30
0.0
 11
106.675616
 21
201.5848
 31
0.0
  0
ARC
  5
262
100
AcDbEntity
  8
11
370
    30
  6
Continuous
 62
   251
100
AcDbCircle
 10
105.422189
 20
203.491603
 30
0.0
 40
0.988374
100
AcDbArc
 50
-76.055153
 51
83.640296
  0
LINE
  5
263
100
AcDbEntity
  8
11
370
    30
  6
Continuous
 62
   251
100
AcDbLine
 10
104.15707
 20
204.473895
 30
0.0
 11
105.531672
 21
204.473895
 31
0.0
  0
LINE
  5
264
100
AcDbEntity
  8
11
370
    30
  6
Continuous
 62
   251
100
AcDbLine
 10
104.15707
 20
204.473895
 30
0.0
 11
104.15707
 21
203.780513
 31
0.0
  0
LINE
  5
265
100
AcDbEntity
  8
11
370
    30
  6
Continuous
 62
   251
100
AcDbLine
 10
104.15707
 20
203.780513
 30
0.0
 11
105.312709
 21
203.780513
 31
0.0
  0
LINE
  5
266
100
AcDbEntity
  8
11
370
    30
  6
Continuous
 62
   251
100
AcDbLine
 10
103.925941
 20
203.202693
 30
0.0
 11
105.312709
 21
203.202693
 31
0.0
  0
ARC
  5
267
100
AcDbEntity
  8
11
370
    30
  6
Continuous
 62
   251
100
AcDbCircle
 10
105.312709
 20
203.491603
 30
0.0
 40
0.28891
100
AcDbArc
 50
-90.0
 51
90.0
  0
LINE
  5
268
100
AcDbEntity
  8
11
370
    30
  6
Continuous
 62
   251
100
AcDbLine
 10
103.925941
 20
203.202693
 30
0.0
 11
105.659401
 21
201.5848
 31
0.0
  0
LINE
  5
269
100
AcDbEntity
  8
11
370
    30
  6
Continuous
 62
   251
100
AcDbLine
 10
102.712523
 20
202.79822
 30
0.0
 11
101.441321
 21
202.79822
 31
0.0
  0
LINE
  5
26A
100
AcDbEntity
  8
11
370
    30
  6
Continuous
 62
   251
100
AcDbLine
 10
102.712523
 20
204.372713
 30
0.0
 11
102.712523
 21
202.79822
 31
0.0
  0
LINE
  5
26B
100
AcDbEntity
  8
11
370
    30
  6
Continuous
 62
   251
100
AcDbLine
 10
99.896731
 20
201.5848
 30
0.0
 11
102.712523
 21
204.372713
 31
0.0
  0
LINE
  5
26C
100
AcDbEntity
  8
11
370
    30
  6
Continuous
 62
   251
100
AcDbLine
 10
101.441321
 20
202.79822
 30
0.0
 11
101.441321
 21
201.5848
 31
0.0
  0
LINE
  5
26D
100
AcDbEntity
  8
11
370
    30
  6
Continuous
 62
   251
100
AcDbLine
 10
101.441321
 20
201.5848
 30
0.0
 11
103.925941
 21
201.5848
 31
0.0
  0
LINE
  5
26E
100
AcDbEntity
  8
11
370
    30
  6
Continuous
 62
   251
100
AcDbLine
 10
106.675616
 20
201.5848
 30
0.0
 11
105.659401
 21
201.5848
 31
0.0
  0
LINE
  5
26F
100
AcDbEntity
  8
11
370
    30
  6
Continuous
 62
   251
100
AcDbLine
 10
107.16173
 20
201.5848
 30
0.0
 11
107.970678
 21
201.5848
 31
0.0
  0
LINE
  5
270
100
AcDbEntity
  8
11
370
    30
  6
Continuous
 62
   251
100
AcDbLine
 10
107.970678
 20
201.5848
 30
0.0
 11
107.970678
 21
203.780513
 31
0.0
  0
LINE
  5
271
100
AcDbEntity
  8
11
370
    30
  6
Continuous
 62
   251
100
AcDbLine
 10
107.970678
 20
203.780513
 30
0.0
 11
108.721839
 21
203.780513
 31
0.0
  0
LINE
  5
272
100
AcDbEntity
  8
11
370
    30
  6
Continuous
 62
   251
100
AcDbLine
 10
108.721839
 20
203.780513
 30
0.0
 11
108.721839
 21
204.473895
 31
0.0
  0
LINE
  5
273
100
AcDbEntity
  8
11
370
    30
  6
Continuous
 62
   251
100
AcDbLine
 10
98.089967
 20
201.5848
 30
0.0
 11
99.896731
 21
201.5848
 31
0.0
  0
LINE
  5
274
100
AcDbEntity
  8
15
370
     9
  6
Continuous
 62
    96
100
AcDbLine
 10
305.0
 20
249.0
 30
0.0
 11
395.0
 21
249.0
 31
0.0
  0
LINE
  5
275
100
AcDbEntity
  8
15
370
     9
  6
Continuous
 62
    96
100
AcDbLine
 10
394.95455
 20
238.0
 30
0.0
 11
304.95455
 21
238.0
 31
0.0
  0
LINE
  5
276
100
AcDbEntity
  8
15
370
     9
  6
Continuous
 62
    96
100
AcDbLine
 10
304.95455
 20
232.5
 30
0.0
 11
394.95455
 21
232.5
 31
0.0
  0
LINE
  5
277
100
AcDbEntity
  8
15
370
     9
  6
Continuous
 62
    96
100
AcDbLine
 10
304.95455
 20
227.0
 30
0.0
 11
394.95455
 21
227.0
 31
0.0
  0
TEXT
  5
278
100
AcDbEntity
  8
15
370
     9
  6
PHANTOM
 62
    96
100
AcDbText
 10
311.45455
 20
239.25
 30
0.0
 40
3.0
  1
記憶方式
 41
0.833333
 11
311.45455
 21
239.25
 31
0.0
100
AcDbText
 73
     1
  0
LINE
  5
279
100
AcDbEntity
  8
15
370
     9
  6
Continuous
 62
    96
100
AcDbLine
 10
305.000659
 20
243.272466
 30
0.0
 11
395.000659
 21
243.272466
 31
0.0
  0
TEXT
  5
27A
100
AcDbEntity
  8
15
370
     9
  6
PHANTOM
 62
    96
100
AcDbText
 10
306.95455
 20
233.75
 30
0.0
 40
3.0
  1
キャリア周波数
 41
0.833333
 11
306.95455
 21
233.75
 31
0.0
100
AcDbText
 73
     1
  0
TEXT
  5
27B
100
AcDbEntity
  8
15
370
     9
  6
PHANTOM
 62
    96
100
AcDbText
 10
311.45455
 20
228.25
 30
0.0
 40
3.0
  1
変調方式
 41
0.833333
 11
311.45455
 21
228.25
 31
0.0
100
AcDbText
 73
     1
  0
TEXT
  5
27C
100
AcDbEntity
  8
15
370
     9
  6
PHANTOM
 62
    96
100
AcDbText
 10
311.45455
 20
222.75
 30
0.0
 40
3.0
  1
通信速度
 41
0.833333
 11
311.45455
 21
222.75
 31
0.0
100
AcDbText
 73
     1
  0
LINE
  5
27D
100
AcDbEntity
  8
15
370
     9
  6
Continuous
 62
    96
100
AcDbLine
 10
305.0
 20
221.5
 30
0.0
 11
395.0
 21
221.5
 31
0.0
  0
LINE
  5
27E
100
AcDbEntity
  8
15
370
     9
  6
Continuous
 62
    96
100
AcDbLine
 10
305.0
 20
216.0
 30
0.0
 11
395.0
 21
216.0
 31
0.0
  0
TEXT
  5
27F
100
AcDbEntity
  8
15
370
     9
  6
Continuous
 62
    96
100
AcDbText
 10
306.560049
 20
217.062347
 30
0.0
 40
3.0
  1
カード感知距離
 41
0.880952
 11
306.560049
 21
217.062347
 31
0.0
100
AcDbText
 73
     1
  0
TEXT
  5
280
100
AcDbEntity
  8
15
370
     9
  6
Continuous
 62
    96
100
AcDbText
 10
307.60778
 20
211.539665
 30
0.0
 40
3.0
  1
カードチップ
 41
0.87963
 11
307.60778
 21
211.539665
 31
0.0
100
AcDbText
 73
     1
  0
TEXT
  5
281
100
AcDbEntity
  8
15
370
     9
  6
Continuous
 62
    96
100
AcDbText
 10
349.693776
 20
211.723754
 30
0.0
 40
3.0
  1
フィリップス社製
 41
0.881944
 11
349.693776
 21
211.723754
 31
0.0
100
AcDbText
 73
     1
  0
LINE
  5
282
100
AcDbEntity
  8
10
370
     9
  6
Continuous
 62
     3
100
AcDbLine
 10
143.561641
 20
175.277895
 30
0.0
 11
143.561641
 21
174.273983
 31
0.0
  0
LINE
  5
283
100
AcDbEntity
  8
10
370
     9
  6
Continuous
 62
     3
100
AcDbLine
 10
144.341664
 20
174.273982
 30
0.0
 11
145.651025
 21
175.570379
 31
0.0
  0
LINE
  5
284
100
AcDbEntity
  8
10
370
     9
  6
Continuous
 62
     3
100
AcDbLine
 10
143.561641
 20
175.277895
 30
0.0
 11
137.028951
 21
175.277895
 31
0.0
  0
LINE
  5
285
100
AcDbEntity
  8
10
370
     9
  6
Continuous
 62
     3
100
AcDbLine
 10
143.561641
 20
174.273983
 30
0.0
 11
137.028951
 21
174.273986
 31
0.0
  0
LINE
  5
286
100
AcDbEntity
  8
10
370
     9
  6
Continuous
 62
     3
100
AcDbLine
 10
144.341664
 20
174.273982
 30
0.0
 11
157.928355
 21
174.273977
 31
0.0
  0
TEXT
  5
287
100
AcDbEntity
  8
15
370
     9
  6
Continuous
 62
    96
100
AcDbText
 10
340.5
 20
47.500007
 30
0.0
 40
3.0
  1
Ｍ－８４０１
 41
0.87963
 11
340.5
 21
47.500007
 31
0.0
100
AcDbText
 73
     1
  0
TEXT
  5
288
100
AcDbEntity
  8
15
370
     9
  6
Continuous
 62
    96
100
AcDbText
 10
320.864826
 20
32.596138
 30
0.0
 40
2.5
  1
承認
 41
0.85
 11
320.864826
 21
32.596138
 31
0.0
100
AcDbText
 73
     1
  0
TEXT
  5
289
100
AcDbEntity
  8
15
370
     9
  6
Continuous
 62
    96
100
AcDbText
 10
327.547354
 20
27.98514
 30
0.0
 40
5.0
  1
加川
 41
0.85
 11
327.547354
 21
27.98514
 31
0.0
100
AcDbText
 73
     1
  0
TEXT
  5
28A
100
AcDbEntity
  8
15
370
     9
  6
Continuous
 62
    96
100
AcDbText
 10
345.71095
 20
32.675839
 30
0.0
 40
2.5
  1
検図
 41
0.85
 11
345.71095
 21
32.675839
 31
0.0
100
AcDbText
 73
     1
  0
TEXT
  5
28B
100
AcDbEntity
  8
15
370
     9
  6
Continuous
 62
    96
100
AcDbText
 10
354.993478
 20
28.06484
 30
0.0
 40
5.0
  1
辻
 41
0.833333
 11
354.993478
 21
28.06484
 31
0.0
100
AcDbText
 73
     1
  0
TEXT
  5
28C
100
AcDbEntity
  8
15
370
     9
  6
Continuous
 62
    96
100
AcDbText
 10
378.726811
 20
28.06484
 30
0.0
 40
5.0
  1
宮村
 41
0.85
 11
378.726811
 21
28.06484
 31
0.0
100
AcDbText
 73
     1
  0
TEXT
  5
28D
100
AcDbEntity
  8
15
370
     9
  6
PHANTOM
 62
    96
100
AcDbText
 10
313.016345
 20
244.35529
 30
0.0
 40
3.0
  1
規　格
 41
0.833333
 11
313.016345
 21
244.35529
 31
0.0
100
AcDbText
 73
     1
  0
LINE
  5
28E
100
AcDbEntity
  8
15
370
    30
  6
Continuous
 62
    96
100
AcDbLine
 10
305.072
 20
205.0
 30
0.0
 11
395.072
 21
205.0
 31
0.0
  0
LINE
  5
28F
100
AcDbEntity
  8
15
370
     9
  6
Continuous
 62
    96
100
AcDbLine
 10
305.000013
 20
210.5
 30
0.0
 11
395.000013
 21
210.5
 31
0.0
  0
TEXT
  5
290
100
AcDbEntity
  8
15
370
     9
  6
PHANTOM
 62
    96
100
AcDbText
 10
313.000013
 20
206.25
 30
0.0
 40
3.0
  1
寿　命
 41
0.833333
 11
313.000013
 21
206.25
 31
0.0
100
AcDbText
 73
     1
  0
TEXT
  5
291
100
AcDbEntity
  8
15
370
     9
  6
PHANTOM
 62
    96
100
AcDbText
 10
356.500013
 20
206.25
 30
0.0
 40
3.0
  1
半永久的
 41
0.833333
 11
356.500013
 21
206.25
 31
0.0
100
AcDbText
 73
     1
  0
TEXT
  5
292
100
AcDbEntity
  8
15
370
     9
  6
Continuous
 62
    96
100
AcDbText
 10
312.719747
 20
249.813661
 30
0.0
 40
3.0
  1
材　質
 41
0.87037
 11
312.719747
 21
249.813661
 31
0.0
100
AcDbText
 73
     1
  0
TEXT
  5
293
100
AcDbEntity
  8
15
370
     9
  6
Continuous
 62
    96
100
AcDbText
 10
359.165104
 20
249.923402
 30
0.0
 40
3.0
  1
PVC
 41
0.544444
 11
359.165104
 21
249.923402
 31
0.0
100
AcDbText
 73
     1
  0
TEXT
  5
294
100
AcDbEntity
  8
15
370
     9
  6
PHANTOM
 62
    96
100
AcDbText
 10
349.766345
 20
244.35529
 30
0.0
 40
3.0
  1
ISO14443TypeA準拠
 41
0.551948
 11
349.766345
 21
244.35529
 31
0.0
100
AcDbText
 73
     1
  0
TEXT
  5
295
100
AcDbEntity
  8
15
370
     9
  6
PHANTOM
 62
    96
100
AcDbText
 10
357.95455
 20
239.25
 30
0.0
 40
3.0
  1
EEPROM
 41
0.5
 11
357.95455
 21
239.25
 31
0.0
100
AcDbText
 73
     1
  0
TEXT
  5
296
100
AcDbEntity
  8
15
370
     9
  6
PHANTOM
 62
    96
100
AcDbText
 10
356.45455
 20
233.75
 30
0.0
 40
3.0
  1
13.56MHz
 41
0.526316
 11
356.45455
 21
233.75
 31
0.0
100
AcDbText
 73
     1
  0
TEXT
  5
297
100
AcDbEntity
  8
15
370
     9
  6
PHANTOM
 62
    96
100
AcDbText
 10
356.45455
 20
228.25
 30
0.0
 40
3.0
  1
ASK100％
 41
0.555556
 11
356.45455
 21
228.25
 31
0.0
100
AcDbText
 73
     1
  0
TEXT
  5
298
100
AcDbEntity
  8
15
370
     9
  6
PHANTOM
 62
    96
100
AcDbText
 10
357.20455
 20
222.75
 30
0.0
 40
3.0
  1
106kbps
 41
0.5
 11
357.20455
 21
222.75
 31
0.0
100
AcDbText
 73
     1
  0
TEXT
  5
299
100
AcDbEntity
  8
15
370
     9
  6
Continuous
 62
    96
100
AcDbText
 10
354.577866
 20
217.246436
 30
0.0
 40
3.0
  1
約３cm　※
 41
0.784314
 11
354.577866
 21
217.246436
 31
0.0
100
AcDbText
 73
     1
  0
TEXT
  5
29A
100
AcDbEntity
  8
15
370
     9
  6
Continuous
 62
    96
100
AcDbText
 10
310.460058
 20
199.5
 30
0.0
 40
3.0
  1
※　使用環境によりカード感知距離は変化します。
 41
0.886473
 11
310.460058
 21
199.5
 31
0.0
100
AcDbText
 73
     1
  0
LINE
  5
29B
100
AcDbEntity
  8
15
370
     9
  6
Continuous
 62
    96
100
AcDbLine
 10
330.0
 20
254.5
 30
0.0
 11
329.994039
 21
205.0
 31
0.0
  0
LINE
  5
29C
100
AcDbEntity
  8
15
370
    50
  6
Continuous
 62
    96
100
AcDbLine
 10
9.913001
 20
8.5
 30
0.0
 11
395.026542
 21
8.5
 31
0.0
  0
LINE
  5
29D
100
AcDbEntity
  8
15
370
     9
  6
Continuous
 62
    96
100
AcDbLine
 10
359.352506
 20
14.201777
 30
0.0
 11
346.886167
 21
14.201777
 31
0.0
  0
TEXT
  5
29E
100
AcDbEntity
  8
15
370
     9
  6
Continuous
 62
    96
100
AcDbText
 10
329.117686
 20
13.191141
 30
0.0
 40
1.800531
  1
出入管理システム
 41
1.018519
 11
329.117686
 21
13.191141
 31
0.0
100
AcDbText
 73
     1
  0
TEXT
  5
29F
100
AcDbEntity
  8
15
370
     9
  6
Continuous
 62
    96
100
AcDbText
 10
329.188265
 20
9.309317
 30
0.0
 40
3.601062
  1
株式会社
 41
1.753472
 11
329.188265
 21
9.309317
 31
0.0
100
AcDbText
 73
     1
  0
LINE
  5
2A0
100
AcDbEntity
  8
15
370
    30
  6
Continuous
 62
    96
100
AcDbLine
 10
309.2914
 20
9.37882
 30
0.0
 11
312.459186
 21
9.37882
 31
0.0
  0
LINE
  5
2A1
100
AcDbEntity
  8
15
370
    30
  6
Continuous
 62
    96
100
AcDbLine
 10
327.932189
 20
13.228548
 30
0.0
 11
327.932189
 21
14.44425
 31
0.0
  0
LINE
  5
2A2
100
AcDbEntity
  8
15
370
    30
  6
Continuous
 62
    96
100
AcDbLine
 10
326.615182
 20
13.228548
 30
0.0
 11
327.932189
 21
13.228548
 31
0.0
  0
LINE
  5
2A3
100
AcDbEntity
  8
15
370
    30
  6
Continuous
 62
    96
100
AcDbLine
 10
326.615182
 20
9.37882
 30
0.0
 11
326.615182
 21
13.228548
 31
0.0
  0
LINE
  5
2A4
100
AcDbEntity
  8
15
370
    30
  6
Continuous
 62
    96
100
AcDbLine
 10
325.19686
 20
9.37882
 30
0.0
 11
326.615182
 21
9.37882
 31
0.0
  0
LINE
  5
2A5
100
AcDbEntity
  8
15
370
    30
  6
Continuous
 62
    96
100
AcDbLine
 10
324.344559
 20
9.37882
 30
0.0
 11
322.562836
 21
9.37882
 31
0.0
  0
LINE
  5
2A6
100
AcDbEntity
  8
15
370
    30
  6
Continuous
 62
    96
100
AcDbLine
 10
315.167305
 20
9.37882
 30
0.0
 11
319.523573
 21
9.37882
 31
0.0
  0
LINE
  5
2A7
100
AcDbEntity
  8
15
370
    30
  6
Continuous
 62
    96
100
AcDbLine
 10
315.167305
 20
11.5063
 30
0.0
 11
315.167305
 21
9.37882
 31
0.0
  0
LINE
  5
2A8
100
AcDbEntity
  8
15
370
    30
  6
Continuous
 62
    96
100
AcDbLine
 10
312.459186
 20
9.37882
 30
0.0
 11
317.396095
 21
14.266848
 31
0.0
  0
LINE
  5
2A9
100
AcDbEntity
  8
15
370
    30
  6
Continuous
 62
    96
100
AcDbLine
 10
317.396095
 20
14.266848
 30
0.0
 11
317.396095
 21
11.5063
 31
0.0
  0
LINE
  5
2AA
100
AcDbEntity
  8
15
370
    30
  6
Continuous
 62
    96
100
AcDbLine
 10
317.396095
 20
11.5063
 30
0.0
 11
315.167305
 21
11.5063
 31
0.0
  0
LINE
  5
2AB
100
AcDbEntity
  8
15
370
    30
  6
Continuous
 62
    96
100
AcDbLine
 10
319.523573
 20
12.21546
 30
0.0
 11
322.562836
 21
9.37882
 31
0.0
  0
ARC
  5
2AC
100
AcDbEntity
  8
15
370
    30
  6
Continuous
 62
    96
100
AcDbCircle
 10
321.954983
 20
12.722004
 30
0.0
 40
0.506544
100
AcDbArc
 50
-90.0
 51
90.0
  0
LINE
  5
2AD
100
AcDbEntity
  8
15
370
    30
  6
Continuous
 62
    96
100
AcDbLine
 10
319.523573
 20
12.21546
 30
0.0
 11
321.954983
 21
12.21546
 31
0.0
  0
LINE
  5
2AE
100
AcDbEntity
  8
15
370
    30
  6
Continuous
 62
    96
100
AcDbLine
 10
319.92881
 20
13.228548
 30
0.0
 11
321.954983
 21
13.228548
 31
0.0
  0
LINE
  5
2AF
100
AcDbEntity
  8
15
370
    30
  6
Continuous
 62
    96
100
AcDbLine
 10
319.92881
 20
14.44425
 30
0.0
 11
319.92881
 21
13.228548
 31
0.0
  0
LINE
  5
2B0
100
AcDbEntity
  8
15
370
    30
  6
Continuous
 62
    96
100
AcDbLine
 10
319.92881
 20
14.44425
 30
0.0
 11
322.33889
 21
14.44425
 31
0.0
  0
ARC
  5
2B1
100
AcDbEntity
  8
15
370
    30
  6
Continuous
 62
    96
100
AcDbCircle
 10
322.146934
 20
12.722004
 30
0.0
 40
1.73291
100
AcDbArc
 50
-76.055153
 51
83.640296
  0
LINE
  5
2B2
100
AcDbEntity
  8
15
370
    30
  6
Continuous
 62
    96
100
AcDbLine
 10
322.562836
 20
11.041763
 30
0.0
 11
324.344559
 21
9.37882
 31
0.0
  0
LINE
  5
2B3
100
AcDbEntity
  8
15
370
    30
  6
Continuous
 62
    96
100
AcDbLine
 10
327.932189
 20
14.44425
 30
0.0
 11
323.879845
 21
14.44425
 31
0.0
  0
LINE
  5
2B4
100
AcDbEntity
  8
15
370
    30
  6
Continuous
 62
    96
100
AcDbLine
 10
323.879845
 20
14.44425
 30
0.0
 11
323.879845
 21
13.228548
 31
0.0
  0
LINE
  5
2B5
100
AcDbEntity
  8
15
370
    30
  6
Continuous
 62
    96
100
AcDbLine
 10
323.879845
 20
13.228548
 30
0.0
 11
325.19686
 21
13.228548
 31
0.0
  0
LINE
  5
2B6
100
AcDbEntity
  8
15
370
    30
  6
Continuous
 62
    96
100
AcDbLine
 10
325.19686
 20
13.228548
 30
0.0
 11
325.19686
 21
9.37882
 31
0.0
  0
LINE
  5
2B7
100
AcDbEntity
  8
15
370
    30
  6
Continuous
 62
    96
100
AcDbLine
 10
305.0
 20
8.5
 30
0.0
 11
305.0
 21
53.513278
 31
0.0
  0
LINE
  5
2B8
100
AcDbEntity
  8
15
370
     9
  6
Continuous
 62
    96
100
AcDbLine
 10
395.026542
 20
20.503546
 30
0.0
 11
305.0
 21
20.503539
 31
0.0
  0
LINE
  5
2B9
100
AcDbEntity
  8
15
370
     9
  6
Continuous
 62
    96
100
AcDbLine
 10
320.004424
 20
26.50531
 30
0.0
 11
320.004424
 21
20.50354
 31
0.0
  0
LINE
  5
2BA
100
AcDbEntity
  8
15
370
     9
  6
Continuous
 62
    96
100
AcDbLine
 10
319.523573
 20
9.37882
 30
0.0
 11
319.523573
 21
19.509681
 31
0.0
  0
LINE
  5
2BB
100
AcDbEntity
  8
15
370
     9
  6
Continuous
 62
    96
100
AcDbLine
 10
319.523573
 20
19.509681
 30
0.0
 11
309.2914
 21
9.37882
 31
0.0
  0
INSERT
  5
2C0
100
AcDbEntity
  8
0
370
     9
  6
Continuous
 62
    96
100
AcDbBlockReference
  2
*G19
 10
0.0
 20
0.0
 30
0.0
  0
TEXT
  5
2C1
100
AcDbEntity
  8
15
370
     9
  6
Continuous
 62
    96
100
AcDbText
 10
361.525484
 20
8.886992
 30
0.0
 40
10.002949
  1
アート
 41
0.834167
 11
361.525484
 21
8.886992
 31
0.0
100
AcDbText
 73
     1
  0
LINE
  5
2C2
100
AcDbEntity
  8
15
370
     9
  6
Continuous
 62
    96
100
AcDbLine
 10
350.033503
 20
26.503542
 30
0.0
 11
350.033503
 21
20.503542
 31
0.0
  0
LINE
  5
2C3
100
AcDbEntity
  8
15
370
     9
  6
Continuous
 62
    96
100
AcDbLine
 10
357.033503
 20
26.503547
 30
0.0
 11
357.033503
 21
20.503547
 31
0.0
  0
LINE
  5
2C4
100
AcDbEntity
  8
15
370
     9
  6
Continuous
 62
    96
100
AcDbLine
 10
383.026542
 20
26.503545
 30
0.0
 11
383.026542
 21
20.503545
 31
0.0
  0
LINE
  5
2C5
100
AcDbEntity
  8
15
370
     9
  6
Continuous
 62
    96
100
AcDbLine
 10
386.077231
 20
25.743545
 30
0.0
 11
386.077231
 21
21.263545
 31
0.0
  0
CIRCLE
  5
2C6
100
AcDbEntity
  8
15
370
     9
  6
Continuous
 62
    96
100
AcDbCircle
 10
386.077231
 20
23.503545
 30
0.0
 40
0.96
  0
CIRCLE
  5
2C7
100
AcDbEntity
  8
15
370
     9
  6
Continuous
 62
    96
100
AcDbCircle
 10
386.077231
 20
23.503545
 30
0.0
 40
1.6
  0
LINE
  5
2C8
100
AcDbEntity
  8
15
370
     9
  6
Continuous
 62
    96
100
AcDbLine
 10
388.716503
 20
24.463545
 30
0.0
 11
388.716503
 21
22.543545
 31
0.0
  0
LINE
  5
2C9
100
AcDbEntity
  8
15
370
     9
  6
Continuous
 62
    96
100
AcDbLine
 10
393.836503
 20
25.103545
 30
0.0
 11
393.836503
 21
21.903545
 31
0.0
  0
LINE
  5
2CA
100
AcDbEntity
  8
15
370
     9
  6
Continuous
 62
    96
100
AcDbLine
 10
388.716503
 20
24.463545
 30
0.0
 11
393.836503
 21
25.103545
 31
0.0
  0
LINE
  5
2CB
100
AcDbEntity
  8
15
370
     9
  6
Continuous
 62
    96
100
AcDbLine
 10
388.716503
 20
22.543545
 30
0.0
 11
393.836503
 21
21.903545
 31
0.0
  0
LINE
  5
2CC
100
AcDbEntity
  8
15
370
     9
  6
Continuous
 62
    96
100
AcDbLine
 10
383.837231
 20
23.503545
 30
0.0
 11
394.382503
 21
23.503545
 31
0.0
  0
TEXT
  5
2CD
100
AcDbEntity
  8
15
370
     9
  6
Continuous
 62
    96
100
AcDbText
 10
306.498149
 20
21.981333
 30
0.0
 40
3.0
  1
図面番号
 41
0.875
 11
306.498149
 21
21.981333
 31
0.0
100
AcDbText
 73
     1
  0
TEXT
  5
2CE
100
AcDbEntity
  8
15
370
     9
  6
Continuous
 62
    96
100
AcDbText
 10
350.326669
 20
21.97208
 30
0.0
 40
3.0
  1
日付
 41
0.861111
 11
350.326669
 21
21.97208
 31
0.0
100
AcDbText
 73
     1
  0
TEXT
  5
2CF
100
AcDbEntity
  8
15
370
     9
  6
Continuous
 62
    96
100
AcDbText
 10
322.005292
 20
21.76333
 30
0.0
 40
3.5
  1
G82012-01-19207
 41
0.5
 11
322.005292
 21
21.76333
 31
0.0
100
AcDbText
 73
     1
  0
TEXT
  5
2D0
100
AcDbEntity
  8
15
370
     9
  6
Continuous
 62
    96
100
AcDbText
 10
359.190474
 20
22.007157
 30
0.0
 40
3.0
  1
2019年02月07日
 41
0.66092
 11
359.190474
 21
22.007157
 31
0.0
100
AcDbText
 73
     1
  0
ENDSEC
  0
SECTION
  2
OBJECTS
  0
DICTIONARY
  5
19
100
AcDbDictionary
280
     0
281
     1
  3
ACAD_GROUP
350
1A
  3
ACAD_MLINESTYLE
350
1B
  3
ACAD_LAYOUT
350
1E
  3
ACAD_PLOTSETTINGS
350
22
  3
ACAD_PLOTSTYLENAME
350
1F
  3
ACAD_WIPEOUT_VARS
350
23
  0
DICTIONARY
  5
1A
102
{ACAD_REACTORS
330
19
102
}
100
AcDbDictionary
280
     0
281
     1
  0
DICTIONARY
  5
1B
102
{ACAD_REACTORS
330
19
102
}
100
AcDbDictionary
280
     0
281
     1
  3
Standard
350
1C
  0
MLINESTYLE
  5
1C
102
{ACAD_REACTORS
330
1B
102
}
100
AcDbMlineStyle
  2
Standard
 70
     0
  3

 62
     0
 51
90.0
 52
90.0
 71
     2
 49
0.5
 62
   256
  6
ByLayer
 49
-0.5
 62
   256
  6
ByLayer
  0
ACDBDICTIONARYWDFLT
  5
1F
102
{ACAD_REACTORS
330
19
102
}
100
AcDbDictionary
281
     1
  3
Normal
350
1D
100
AcDbDictionaryWithDefault
340
1D
  0
ACDBPLACEHOLDER
  5
1D
102
{ACAD_REACTORS
330
1F
102
}
  0
LAYOUT
  5
20
102
{ACAD_REACTORS
330
1E
102
}
100
AcDbPlotSettings
  1

  2

  4

  6

 40
0.0
 41
0.0
 42
0.0
 43
0.0
 44
0.0
 45
0.0
 46
0.0
 47
0.0
 48
0.0
 49
0.0
140
0.0
141
0.0
142
1.0
143
1.0
 70
  1024
 72
     0
 73
     0
 74
     0
  7

 75
     0
147
1.0
148
0.0
149
0.0
100
AcDbLayout
  1
Model
 70
     0
 71
     0
 10
0.0
 20
0.0
 11
0.0
 21
0.0
 12
0.0
 22
0.0
 32
0.0
 14
0.0
 24
0.0
 34
0.0
 15
0.0
 25
0.0
 35
0.0
146
0.0
 13
0.0
 23
0.0
 33
0.0
 16
0.0
 26
0.0
 36
0.0
 17
0.0
 27
0.0
 37
0.0
 76
     0
330
A
331
0
345
0
346
0
  0
LAYOUT
  5
21
102
{ACAD_REACTORS
330
1E
102
}
100
AcDbPlotSettings
  1

  2

  4

  6

 40
0.0
 41
0.0
 42
0.0
 43
0.0
 44
0.0
 45
0.0
 46
0.0
 47
0.0
 48
0.0
 49
0.0
140
0.0
141
0.0
142
1.0
143
1.0
 70
     0
 72
     0
 73
     0
 74
     0
  7

 75
     0
147
1.0
148
0.0
149
0.0
100
AcDbLayout
  1
Layout1
 70
     0
 71
     0
 10
0.0
 20
0.0
 11
0.0
 21
0.0
 12
0.0
 22
0.0
 32
0.0
 14
0.0
 24
0.0
 34
0.0
 15
0.0
 25
0.0
 35
0.0
146
0.0
 13
0.0
 23
0.0
 33
0.0
 16
0.0
 26
0.0
 36
0.0
 17
0.0
 27
0.0
 37
0.0
 76
     0
330
B
331
0
345
0
346
0
  0
DICTIONARY
  5
1E
102
{ACAD_REACTORS
330
19
102
}
100
AcDbDictionary
280
     0
281
     1
  3
Layout1
350
21
  3
Model
350
20
  0
DICTIONARY
  5
22
102
{ACAD_REACTORS
330
19
102
}
100
AcDbDictionary
280
     0
281
     1
  0
WIPEOUTVARIABLES
  5
23
100
AcDbWipeoutVariables
 70
     1
  0
ENDSEC
  0
EOF
