  0
SECTION
  2
HEADER
  9
$ACADVER
  1
AC1015
  9
$ACADMAINTVER
 70
     6
  9
$DWGCODEPAGE
  3
DOS932
  9
$INSBASE
 10
0.0
 20
0.0
 30
0.0
  9
$EXTMIN
 10
0.0
 20
0.0
 30
0.0
  9
$EXTMAX
 10
420.0
 20
297.0
 30
0.0
  9
$LIMMIN
 10
0.0
 20
0.0
  9
$LIMMAX
 10
420.0
 20
297.0
  9
$ORTHOMODE
 70
     0
  9
$REGENMODE
 70
     1
  9
$FILLMODE
 70
     1
  9
$QTEXTMODE
 70
     0
  9
$MIRRTEXT
 70
     1
  9
$LTSCALE
 40
0.25
  9
$ATTMODE
 70
     1
  9
$TEXTSIZE
 40
3.0
  9
$TRACEWID
 40
0.05
  9
$TEXTSTYLE
  7
Standard
  9
$CLAYER
  8
0
  9
$CELTYPE
  6
Continuous
  9
$CECOLOR
 62
   256
  9
$CELTSCALE
 40
1.0
  9
$DISPSILH
 70
     0
  9
$DIMSCALE
 40
1.0
  9
$DIMASZ
 40
2.4
  9
$DIMEXO
 40
2.0
  9
$DIMDLI
 40
10.0
  9
$DIMRND
 40
0.0
  9
$DIMDLE
 40
0.0
  9
$DIMEXE
 40
2.0
  9
$DIMTP
 40
0.0
  9
$DIMTM
 40
0.0
  9
$DIMTXT
 40
3.0
  9
$DIMCEN
 40
0.09
  9
$DIMTSZ
 40
0.0
  9
$DIMTOL
 70
     0
  9
$DIMLIM
 70
     0
  9
$DIMTIH
 70
     0
  9
$DIMTOH
 70
     0
  9
$DIMSE1
 70
     0
  9
$DIMSE2
 70
     0
  9
$DIMTAD
 70
     3
  9
$DIMZIN
 70
     0
  9
$DIMBLK
  1

  9
$DIMASO
 70
     1
  9
$DIMSHO
 70
     1
  9
$DIMPOST
  1

  9
$DIMAPOST
  1

  9
$DIMALT
 70
     0
  9
$DIMALTD
 70
     2
  9
$DIMALTF
 40
25.4
  9
$DIMLFAC
 40
1.0
  9
$DIMTOFL
 70
     1
  9
$DIMTVP
 40
0.7
  9
$DIMTIX
 70
     0
  9
$DIMSOXD
 70
     0
  9
$DIMSAH
 70
     0
  9
$DIMBLK1
  1

  9
$DIMBLK2
  1

  9
$DIMSTYLE
  2
Standard
  9
$DIMCLRD
 70
     0
  9
$DIMCLRE
 70
     0
  9
$DIMCLRT
 70
     0
  9
$DIMTFAC
 40
0.5
  9
$DIMGAP
 40
0.5
  9
$DIMJUST
 70
     0
  9
$DIMSD1
 70
     0
  9
$DIMSD2
 70
     0
  9
$DIMTOLJ
 70
     1
  9
$DIMTZIN
 70
     0
  9
$DIMALTZ
 70
     0
  9
$DIMALTTZ
 70
     0
  9
$DIMUPT
 70
     0
  9
$DIMDEC
 70
     2
  9
$DIMTDEC
 70
     4
  9
$DIMALTU
 70
     2
  9
$DIMALTTD
 70
     2
  9
$DIMTXSTY
  7
Standard
  9
$DIMAUNIT
 70
     0
  9
$DIMADEC
 70
     0
  9
$DIMALTRND
 40
0.0
  9
$DIMAZIN
 70
     0
  9
$DIMDSEP
 70
     0
  9
$DIMATFIT
 70
     3
  9
$DIMFRAC
 70
     0
  9
$DIMLDRBLK
  1

  9
$DIMLUNIT
 70
     2
  9
$DIMLWD
 70
     0
  9
$DIMLWE
 70
     0
  9
$DIMTMOVE
 70
     0
  9
$LUNITS
 70
     2
  9
$LUPREC
 70
     4
  9
$SKETCHINC
 40
0.1
  9
$FILLETRAD
 40
0.0
  9
$AUNITS
 70
     0
  9
$AUPREC
 70
     0
  9
$MENU
  1
acad
  9
$ELEVATION
 40
0.0
  9
$PELEVATION
 40
0.0
  9
$THICKNESS
 40
0.0
  9
$LIMCHECK
 70
     0
  9
$CHAMFERA
 40
0.0
  9
$CHAMFERB
 40
0.0
  9
$CHAMFERC
 40
0.0
  9
$CHAMFERD
 40
0.0
  9
$SKPOLY
 70
     0
  9
$TDCREATE
 40
2457743.512256945
  9
$TDUCREATE
 40
0.000000000
  9
$TDUPDATE
 40
2457743.512256945
  9
$TDUUPDATE
 40
0.000000000
  9
$TDINDWG
 40
0.0000000000
  9
$TDUSRTIMER
 40
0.0000000000
  9
$USRTIMER
 70
     1
  9
$ANGBASE
 50
0.0
  9
$ANGDIR
 70
     0
  9
$PDMODE
 70
     0
  9
$PDSIZE
 40
0.0
  9
$PLINEWID
 40
0.0
  9
$SPLFRAME
 70
     0
  9
$SPLINETYPE
 70
     6
  9
$SPLINESEGS
 70
     8
  9
$HANDSEED
  5
337
  9
$SURFTAB1
 70
     6
  9
$SURFTAB2
 70
     6
  9
$SURFTYPE
 70
     6
  9
$SURFU
 70
     6
  9
$SURFV
 70
     6
  9
$UCSBASE
  2

  9
$UCSNAME
  2

  9
$UCSORG
 10
0.0
 20
0.0
 30
0.0
  9
$UCSXDIR
 10
1.0
 20
0.0
 30
0.0
  9
$UCSYDIR
 10
0.0
 20
1.0
 30
0.0
  9
$UCSORTHOREF
  2

  9
$UCSORTHOVIEW
 70
     0
  9
$UCSORGTOP
 10
0.0
 20
0.0
 30
0.0
  9
$UCSORGBOTTOM
 10
0.0
 20
0.0
 30
0.0
  9
$UCSORGLEFT
 10
0.0
 20
0.0
 30
0.0
  9
$UCSORGRIGHT
 10
0.0
 20
0.0
 30
0.0
  9
$UCSORGFRONT
 10
0.0
 20
0.0
 30
0.0
  9
$UCSORGBACK
 10
0.0
 20
0.0
 30
0.0
  9
$PUCSBASE
  2

  9
$PUCSNAME
  2

  9
$PUCSORG
 10
0.0
 20
0.0
 30
0.0
  9
$PUCSXDIR
 10
1.0
 20
0.0
 30
0.0
  9
$PUCSYDIR
 10
0.0
 20
1.0
 30
0.0
  9
$PUCSORTHOREF
  2

  9
$PUCSORTHOVIEW
 70
     0
  9
$PUCSORGTOP
 10
0.0
 20
0.0
 30
0.0
  9
$PUCSORGBOTTOM
 10
0.0
 20
0.0
 30
0.0
  9
$PUCSORGLEFT
 10
0.0
 20
0.0
 30
0.0
  9
$PUCSORGRIGHT
 10
0.0
 20
0.0
 30
0.0
  9
$PUCSORGFRONT
 10
0.0
 20
0.0
 30
0.0
  9
$PUCSORGBACK
 10
0.0
 20
0.0
 30
0.0
  9
$USERI1
 70
     0
  9
$USERI2
 70
     0
  9
$USERI3
 70
     0
  9
$USERI4
 70
     0
  9
$USERI5
 70
     0
  9
$USERR1
 40
0.0
  9
$USERR2
 40
0.0
  9
$USERR3
 40
0.0
  9
$USERR4
 40
0.0
  9
$USERR5
 40
0.0
  9
$WORLDVIEW
 70
     1
  9
$SHADEDGE
 70
     3
  9
$SHADEDIF
 70
    70
  9
$TILEMODE
 70
     1
  9
$MAXACTVP
 70
    16
  9
$PINSBASE
 10
0.0
 20
0.0
 30
0.0
  9
$PLIMCHECK
 70
     0
  9
$PEXTMIN
 10
0.0
 20
0.0
 30
0.0
  9
$PEXTMAX
 10
420.0
 20
297.0
 30
0.0
  9
$PLIMMIN
 10
0.0
 20
0.0
  9
$PLIMMAX
 10
420.0
 20
297.0
  9
$UNITMODE
 70
     0
  9
$VISRETAIN
 70
     0
  9
$PLINEGEN
 70
     1
  9
$PSLTSCALE
 70
     0
  9
$TREEDEPTH
 70
  3020
  9
$CMLSTYLE
  2
Standard
  9
$CMLJUST
 70
     0
  9
$CMLSCALE
 40
1.0
  9
$PROXYGRAPHICS
 70
     0
  9
$MEASUREMENT
 70
     0
  9
$CELWEIGHT
370
     0
  9
$ENDCAPS
280
     0
  9
$JOINSTYLE
280
     0
  9
$LWDISPLAY
290
     0
  9
$INSUNITS
 70
     0
  9
$HYPERLINKBASE
  1

  9
$STYLESHEET
  1

  9
$XEDIT
290
     1
  9
$CEPSNTYPE
380
     0
  9
$PSTYLEMODE
290
     1
  9
$FINGERPRINTGUID
  2

  9
$VERSIONGUID
  2

  9
$EXTNAMES
290
     1
  9
$PSVPSCALE
 40
0.0
  0
ENDSEC
  0
SECTION
  2
CLASSES
  0
CLASS
  1
LWPOLYLINE
  2
AcDbPolyline
  3
AutoCAD 2000
 90
    32768
280
     0
281
     1
  0
CLASS
  1
IMAGE
  2
AcDbRasterImage
  3
ISM
 90
    32895
280
     0
281
     1
  0
CLASS
  1
OLE2FRAME
  2
AcDbOle2Frame
  3
AutoCAD 2000
 90
    32768
280
     0
281
     1
  0
CLASS
  1
HATCH
  2
AcDbHatch
  3
AutoCAD 2000
 90
    32768
280
     0
281
     1
  0
CLASS
  1
DICTIONARYVAR
  2
AcDbDictionaryVar
  3
AutoCAD 2000
 90
    32768
280
     0
281
     0
  0
CLASS
  1
RASTERVARIABLES
  2
AcDbRasterVariables
  3
ISM
 90
    32768
280
     0
281
     0
  0
CLASS
  1
IMAGEDEF
  2
AcDbRasterImageDef
  3
ISM
 90
    32768
280
     0
281
     0
  0
CLASS
  1
IMAGEDEF_REACTOR
  2
AcDbRasterImageDefReactor
  3
ISM
 90
    32769
280
     0
281
     0
  0
CLASS
  1
IDBUFFER
  2
AcDbIdBuffer
  3
AutoCAD 2000
 90
    32768
280
     0
281
     0
  0
CLASS
  1
SPATIAL_FILTER
  2
AcDbSpatialFilter
  3
AutoCAD 2000
 90
    32768
280
     0
281
     0
  0
CLASS
  1
XRECORD
  2
AcDbXrecord
  3
AutoCAD 2000
 90
    32768
280
     0
281
     0
  0
CLASS
  1
SORTENTSTABLE
  2
AcDbSortentsTable
  3
AutoCAD 2000
 90
    32768
280
     0
281
     0
  0
CLASS
  1
LAYER_INDEX
  2
AcDbLayerIndex
  3
AutoCAD 2000
 90
    32768
280
     0
281
     0
  0
CLASS
  1
SPATIAL_INDEX
  2
AcDbSpatialIndex
  3
AutoCAD 2000
 90
    32768
280
     0
281
     0
  0
CLASS
  1
OBJECT_PTR
  2
CAseDLPNTableRecord
  3
"ASE-LPNTableRecord"
 90
    32769
280
     0
281
     0
  0
CLASS
  1
LAYOUT
  2
AcDbLayout
  3
AutoCAD 2000
 90
        0
280
     0
281
     0
  0
CLASS
  1
PLOTSETTINGS
  2
AcDbPlotSettings
  3
AutoCAD 2000
 90
    32768
280
     0
281
     0
  0
CLASS
  1
ACDBDICTIONARYWDFLT
  2
AcDbDictionaryWithDefault
  3
AutoCAD 2000
 90
        0
280
     0
281
     0
  0
CLASS
  1
ACDBPLACEHOLDER
  2
AcDbPlaceHolder
  3
AutoCAD 2000
 90
        0
280
     0
281
     0
  0
CLASS
  1
VBA_PROJECT
  2
AcDbVbaProject
  3
acadvba
 90
    32768
280
     0
281
     0
  0
CLASS
  1
WIPEOUT
  2
AcDbWipeout
  3
WipeOut|AutoCAD Express Tool|expresstools@autodesk.com
 90
    32895
280
     0
281
     1
  0
CLASS
  1
WIPEOUTVARIABLES
  2
AcDbWipeoutVariables
  3
WipeOut|AutoCAD Express Tool|expresstools@autodesk.com
 90
        0
280
     0
281
     0
  0
CLASS
  1
RTEXT
  2
RText
  3
RText|AutoCAD Express Tool|expresstools@autodesk.com
 90
    32768
280
     0
281
     1
  0
CLASS
  1
ARCALIGNEDTEXT
  2
AcDbArcAlignedText
  3
ATEXT|AutoCAD Express Tool|expresstools@autodesk.com
 90
    32768
280
     0
281
     1
  0
ENDSEC
  0
SECTION
  2
TABLES
  0
TABLE
  2
VPORT
  5
7
100
AcDbSymbolTable
 70
     1
  0
VPORT
  5
15
100
AcDbSymbolTableRecord
100
AcDbViewportTableRecord
  2
*ACTIVE
 70
     0
 10
0.0
 20
0.0
 11
1.0
 21
1.0
 12
6.591288
 22
4.579184
 13
0.0
 23
0.0
 14
1.0
 24
1.0
 15
0.0
 25
0.0
 16
0.0
 26
0.0
 36
1.0
 17
0.0
 27
0.0
 37
0.0
 40
9.158369
 41
0.688564
 42
50.0
 43
0.0
 44
0.0
 50
0.0
 51
0.0
 71
     0
 72
   100
 73
     1
 74
     1
 75
     0
 76
     0
 77
     0
 78
     0
281
     0
 65
     0
110
0.0
120
0.0
130
0.0
111
1.0
121
0.0
131
0.0
112
0.0
122
1.0
132
0.0
345
0
346
0
 79
     0
146
0.0
  0
ENDTAB
  0
TABLE
  2
LTYPE
  5
4
100
AcDbSymbolTable
 70
     9
  0
LTYPE
  5
11
100
AcDbSymbolTableRecord
100
AcDbLinetypeTableRecord
  2
ByBlock
 70
    64
  3

 72
    65
 73
     0
 40
0.0
  0
LTYPE
  5
12
100
AcDbSymbolTableRecord
100
AcDbLinetypeTableRecord
  2
ByLayer
 70
    64
  3

 72
    65
 73
     0
 40
0.0
  0
LTYPE
  5
13
100
AcDbSymbolTableRecord
100
AcDbLinetypeTableRecord
  2
Continuous
 70
    64
  3
Solid line
 72
    65
 73
     0
 40
0.0
  0
LTYPE
  5
25
100
AcDbSymbolTableRecord
100
AcDbLinetypeTableRecord
  2
HIDDEN
 70
    64
  3
- - - - - - - - 
 72
    65
 73
     2
 40
12.6
 49
8.4
 74
     0
 49
-4.2
 74
     0
  0
LTYPE
  5
26
100
AcDbSymbolTableRecord
100
AcDbLinetypeTableRecord
  2
DOT
 70
    64
  3
･ ･ ･ ･ ･ ･ ･ ･ 
 72
    65
 73
     2
 40
8.0
 49
6.0
 74
     0
 49
-2.0
 74
     0
  0
LTYPE
  5
27
100
AcDbSymbolTableRecord
100
AcDbLinetypeTableRecord
  2
CENTER
 70
    64
  3
- ･ - ･ - ･ - ･ 
 72
    65
 73
     4
 40
50.5
 49
30.0
 74
     0
 49
-9.0
 74
     0
 49
2.5
 74
     0
 49
-9.0
 74
     0
  0
LTYPE
  5
28
100
AcDbSymbolTableRecord
100
AcDbLinetypeTableRecord
  2
PHANTOM
 70
    64
  3
- ･･ - ･･ - ･･ - ･･ 
 72
    65
 73
     6
 40
58.0
 49
30.0
 74
     0
 49
-9.0
 74
     0
 49
2.5
 74
     0
 49
-5.0
 74
     0
 49
2.5
 74
     0
 49
-9.0
 74
     0
  0
LTYPE
  5
29
100
AcDbSymbolTableRecord
100
AcDbLinetypeTableRecord
  2
ACAD_ISO06W100
 70
    64
  3
____ ... ____ ... ____
 72
    65
 73
     8
 40
37.5
 49
24.0
 74
     0
 49
-3.0
 74
     0
 49
0.5
 74
     0
 49
-3.0
 74
     0
 49
0.5
 74
     0
 49
-3.0
 74
     0
 49
0.5
 74
     0
 49
-3.0
 74
     0
  0
LTYPE
  5
2A
100
AcDbSymbolTableRecord
100
AcDbLinetypeTableRecord
  2
ACAD_ISO14W100
 70
    64
  3
__ . . . __ . . . __ . . . 
 72
    65
 73
     8
 40
25.5
 49
12.0
 74
     0
 49
-3.0
 74
     0
 49
0.5
 74
     0
 49
-3.0
 74
     0
 49
0.5
 74
     0
 49
-3.0
 74
     0
 49
0.5
 74
     0
 49
-3.0
 74
     0
  0
ENDTAB
  0
TABLE
  2
LAYER
  5
2
100
AcDbSymbolTable
 70
    77
  0
LAYER
  5
14
100
AcDbSymbolTableRecord
100
AcDbLayerTableRecord
  2
0
 70
     0
 62
     7
  6
Continuous
290
     1
370
    -3
390
1D
  0
LAYER
  5
2B
100
AcDbSymbolTableRecord
100
AcDbLayerTableRecord
  2
1
 70
     0
 62
     7
  6
Continuous
290
     1
370
    -3
390
1D
  0
LAYER
  5
2C
100
AcDbSymbolTableRecord
100
AcDbLayerTableRecord
  2
2
 70
     0
 62
   134
  6
Continuous
290
     1
370
    -3
390
1D
  0
LAYER
  5
2D
100
AcDbSymbolTableRecord
100
AcDbLayerTableRecord
  2
3
 70
     0
 62
   134
  6
Continuous
290
     1
370
    -3
390
1D
  0
LAYER
  5
2E
100
AcDbSymbolTableRecord
100
AcDbLayerTableRecord
  2
4
 70
     0
 62
     7
  6
Continuous
290
     1
370
    -3
390
1D
  0
LAYER
  5
2F
100
AcDbSymbolTableRecord
100
AcDbLayerTableRecord
  2
5
 70
     0
 62
    94
  6
Continuous
290
     1
370
    -3
390
1D
  0
LAYER
  5
30
100
AcDbSymbolTableRecord
100
AcDbLayerTableRecord
  2
6
 70
     0
 62
    14
  6
Continuous
290
     1
370
    -3
390
1D
  0
LAYER
  5
31
100
AcDbSymbolTableRecord
100
AcDbLayerTableRecord
  2
7
 70
     0
 62
     4
  6
Continuous
290
     1
370
    -3
390
1D
  0
LAYER
  5
32
100
AcDbSymbolTableRecord
100
AcDbLayerTableRecord
  2
8
 70
     0
 62
     6
  6
Continuous
290
     1
370
    -3
390
1D
  0
LAYER
  5
33
100
AcDbSymbolTableRecord
100
AcDbLayerTableRecord
  2
9
 70
     0
 62
     2
  6
Continuous
290
     1
370
    -3
390
1D
  0
LAYER
  5
34
100
AcDbSymbolTableRecord
100
AcDbLayerTableRecord
  2
10
 70
     0
 62
     3
  6
Continuous
290
     1
370
    -3
390
1D
  0
LAYER
  5
35
100
AcDbSymbolTableRecord
100
AcDbLayerTableRecord
  2
11
 70
     0
 62
   251
  6
Continuous
290
     1
370
    -3
390
1D
  0
LAYER
  5
36
100
AcDbSymbolTableRecord
100
AcDbLayerTableRecord
  2
12
 70
     0
 62
   136
  6
Continuous
290
     1
370
    -3
390
1D
  0
LAYER
  5
37
100
AcDbSymbolTableRecord
100
AcDbLayerTableRecord
  2
13
 70
     0
 62
   216
  6
Continuous
290
     1
370
    -3
390
1D
  0
LAYER
  5
38
100
AcDbSymbolTableRecord
100
AcDbLayerTableRecord
  2
14
 70
     0
 62
    56
  6
Continuous
290
     1
370
    -3
390
1D
  0
LAYER
  5
39
100
AcDbSymbolTableRecord
100
AcDbLayerTableRecord
  2
15
 70
     0
 62
    96
  6
Continuous
290
     1
370
    -3
390
1D
  0
LAYER
  5
3A
100
AcDbSymbolTableRecord
100
AcDbLayerTableRecord
  2
16
 70
     0
 62
    16
  6
Continuous
290
     1
370
    -3
390
1D
  0
LAYER
  5
3B
100
AcDbSymbolTableRecord
100
AcDbLayerTableRecord
  2
17
 70
     0
 62
   132
  6
Continuous
290
     1
370
    -3
390
1D
  0
LAYER
  5
3C
100
AcDbSymbolTableRecord
100
AcDbLayerTableRecord
  2
18
 70
     0
 62
   212
  6
Continuous
290
     1
370
    -3
390
1D
  0
LAYER
  5
3D
100
AcDbSymbolTableRecord
100
AcDbLayerTableRecord
  2
19
 70
     0
 62
    52
  6
Continuous
290
     1
370
    -3
390
1D
  0
LAYER
  5
3E
100
AcDbSymbolTableRecord
100
AcDbLayerTableRecord
  2
20
 70
     0
 62
   250
  6
Continuous
290
     1
370
    -3
390
1D
  0
LAYER
  5
3F
100
AcDbSymbolTableRecord
100
AcDbLayerTableRecord
  2
21
 70
     0
 62
     3
  6
Continuous
290
     1
370
    -3
390
1D
  0
LAYER
  5
40
100
AcDbSymbolTableRecord
100
AcDbLayerTableRecord
  2
22
 70
     0
 62
     7
  6
Continuous
290
     1
370
    -3
390
1D
  0
LAYER
  5
41
100
AcDbSymbolTableRecord
100
AcDbLayerTableRecord
  2
23
 70
     0
 62
    21
  6
Continuous
290
     1
370
    -3
390
1D
  0
LAYER
  5
42
100
AcDbSymbolTableRecord
100
AcDbLayerTableRecord
  2
24
 70
     0
 62
   214
  6
Continuous
290
     1
370
    -3
390
1D
  0
LAYER
  5
43
100
AcDbSymbolTableRecord
100
AcDbLayerTableRecord
  2
25
 70
     0
 62
   251
  6
Continuous
290
     1
370
    -3
390
1D
  0
LAYER
  5
44
100
AcDbSymbolTableRecord
100
AcDbLayerTableRecord
  2
26
 70
     0
 62
     5
  6
Continuous
290
     1
370
    -3
390
1D
  0
LAYER
  5
45
100
AcDbSymbolTableRecord
100
AcDbLayerTableRecord
  2
27
 70
     0
 62
     3
  6
Continuous
290
     1
370
    -3
390
1D
  0
LAYER
  5
46
100
AcDbSymbolTableRecord
100
AcDbLayerTableRecord
  2
28
 70
     0
 62
     1
  6
Continuous
290
     1
370
    -3
390
1D
  0
LAYER
  5
47
100
AcDbSymbolTableRecord
100
AcDbLayerTableRecord
  2
29
 70
     0
 62
     4
  6
Continuous
290
     1
370
    -3
390
1D
  0
LAYER
  5
48
100
AcDbSymbolTableRecord
100
AcDbLayerTableRecord
  2
30
 70
     0
 62
     6
  6
Continuous
290
     1
370
    -3
390
1D
  0
LAYER
  5
49
100
AcDbSymbolTableRecord
100
AcDbLayerTableRecord
  2
31
 70
     0
 62
     2
  6
Continuous
290
     1
370
    -3
390
1D
  0
LAYER
  5
4A
100
AcDbSymbolTableRecord
100
AcDbLayerTableRecord
  2
32
 70
     0
 62
     7
  6
Continuous
290
     1
370
    -3
390
1D
  0
LAYER
  5
4B
100
AcDbSymbolTableRecord
100
AcDbLayerTableRecord
  2
33
 70
     0
 62
     7
  6
Continuous
290
     1
370
    -3
390
1D
  0
LAYER
  5
4C
100
AcDbSymbolTableRecord
100
AcDbLayerTableRecord
  2
34
 70
     0
 62
   253
  6
Continuous
290
     1
370
    -3
390
1D
  0
LAYER
  5
4D
100
AcDbSymbolTableRecord
100
AcDbLayerTableRecord
  2
35
 70
     0
 62
     7
  6
Continuous
290
     1
370
    -3
390
1D
  0
LAYER
  5
4E
100
AcDbSymbolTableRecord
100
AcDbLayerTableRecord
  2
36
 70
     0
 62
    94
  6
Continuous
290
     1
370
    -3
390
1D
  0
LAYER
  5
4F
100
AcDbSymbolTableRecord
100
AcDbLayerTableRecord
  2
37
 70
     0
 62
    14
  6
Continuous
290
     1
370
    -3
390
1D
  0
LAYER
  5
50
100
AcDbSymbolTableRecord
100
AcDbLayerTableRecord
  2
38
 70
     0
 62
   134
  6
Continuous
290
     1
370
    -3
390
1D
  0
LAYER
  5
51
100
AcDbSymbolTableRecord
100
AcDbLayerTableRecord
  2
39
 70
     0
 62
    54
  6
Continuous
290
     1
370
    -3
390
1D
  0
LAYER
  5
52
100
AcDbSymbolTableRecord
100
AcDbLayerTableRecord
  2
40
 70
     0
 62
   214
  6
Continuous
290
     1
370
    -3
390
1D
  0
LAYER
  5
53
100
AcDbSymbolTableRecord
100
AcDbLayerTableRecord
  2
41
 70
     0
 62
     7
  6
Continuous
290
     1
370
    -3
390
1D
  0
LAYER
  5
54
100
AcDbSymbolTableRecord
100
AcDbLayerTableRecord
  2
42
 70
     0
 62
     5
  6
Continuous
290
     1
370
    -3
390
1D
  0
LAYER
  5
55
100
AcDbSymbolTableRecord
100
AcDbLayerTableRecord
  2
43
 70
     0
 62
     3
  6
Continuous
290
     1
370
    -3
390
1D
  0
LAYER
  5
56
100
AcDbSymbolTableRecord
100
AcDbLayerTableRecord
  2
44
 70
     0
 62
     1
  6
Continuous
290
     1
370
    -3
390
1D
  0
LAYER
  5
57
100
AcDbSymbolTableRecord
100
AcDbLayerTableRecord
  2
45
 70
     0
 62
     4
  6
Continuous
290
     1
370
    -3
390
1D
  0
LAYER
  5
58
100
AcDbSymbolTableRecord
100
AcDbLayerTableRecord
  2
46
 70
     0
 62
     6
  6
Continuous
290
     1
370
    -3
390
1D
  0
LAYER
  5
59
100
AcDbSymbolTableRecord
100
AcDbLayerTableRecord
  2
47
 70
     0
 62
     2
  6
Continuous
290
     1
370
    -3
390
1D
  0
LAYER
  5
5A
100
AcDbSymbolTableRecord
100
AcDbLayerTableRecord
  2
48
 70
     0
 62
     7
  6
Continuous
290
     1
370
    -3
390
1D
  0
LAYER
  5
5B
100
AcDbSymbolTableRecord
100
AcDbLayerTableRecord
  2
49
 70
     0
 62
     7
  6
Continuous
290
     1
370
    -3
390
1D
  0
LAYER
  5
5C
100
AcDbSymbolTableRecord
100
AcDbLayerTableRecord
  2
50
 70
     0
 62
   253
  6
Continuous
290
     1
370
    -3
390
1D
  0
LAYER
  5
5D
100
AcDbSymbolTableRecord
100
AcDbLayerTableRecord
  2
51
 70
     0
 62
   174
  6
Continuous
290
     1
370
    -3
390
1D
  0
LAYER
  5
5E
100
AcDbSymbolTableRecord
100
AcDbLayerTableRecord
  2
52
 70
     0
 62
    94
  6
Continuous
290
     1
370
    -3
390
1D
  0
LAYER
  5
5F
100
AcDbSymbolTableRecord
100
AcDbLayerTableRecord
  2
53
 70
     0
 62
    14
  6
Continuous
290
     1
370
    -3
390
1D
  0
LAYER
  5
60
100
AcDbSymbolTableRecord
100
AcDbLayerTableRecord
  2
54
 70
     0
 62
   134
  6
Continuous
290
     1
370
    -3
390
1D
  0
LAYER
  5
61
100
AcDbSymbolTableRecord
100
AcDbLayerTableRecord
  2
55
 70
     0
 62
    54
  6
Continuous
290
     1
370
    -3
390
1D
  0
LAYER
  5
62
100
AcDbSymbolTableRecord
100
AcDbLayerTableRecord
  2
56
 70
     0
 62
   214
  6
Continuous
290
     1
370
    -3
390
1D
  0
LAYER
  5
63
100
AcDbSymbolTableRecord
100
AcDbLayerTableRecord
  2
57
 70
     0
 62
   251
  6
Continuous
290
     1
370
    -3
390
1D
  0
LAYER
  5
64
100
AcDbSymbolTableRecord
100
AcDbLayerTableRecord
  2
58
 70
     0
 62
     5
  6
Continuous
290
     1
370
    -3
390
1D
  0
LAYER
  5
65
100
AcDbSymbolTableRecord
100
AcDbLayerTableRecord
  2
59
 70
     0
 62
     3
  6
Continuous
290
     1
370
    -3
390
1D
  0
LAYER
  5
66
100
AcDbSymbolTableRecord
100
AcDbLayerTableRecord
  2
60
 70
     0
 62
     1
  6
Continuous
290
     1
370
    -3
390
1D
  0
LAYER
  5
67
100
AcDbSymbolTableRecord
100
AcDbLayerTableRecord
  2
61
 70
     0
 62
     4
  6
Continuous
290
     1
370
    -3
390
1D
  0
LAYER
  5
68
100
AcDbSymbolTableRecord
100
AcDbLayerTableRecord
  2
62
 70
     0
 62
     6
  6
Continuous
290
     1
370
    -3
390
1D
  0
LAYER
  5
69
100
AcDbSymbolTableRecord
100
AcDbLayerTableRecord
  2
63
 70
     0
 62
     2
  6
Continuous
290
     1
370
    -3
390
1D
  0
LAYER
  5
6A
100
AcDbSymbolTableRecord
100
AcDbLayerTableRecord
  2
64
 70
     0
 62
     7
  6
Continuous
290
     1
370
    -3
390
1D
  0
LAYER
  5
6B
100
AcDbSymbolTableRecord
100
AcDbLayerTableRecord
  2
100
 70
     0
 62
     7
  6
Continuous
290
     1
370
    -3
390
1D
  0
LAYER
  5
6C
100
AcDbSymbolTableRecord
100
AcDbLayerTableRecord
  2
101
 70
     0
 62
   216
  6
Continuous
290
     1
370
    -3
390
1D
  0
LAYER
  5
6D
100
AcDbSymbolTableRecord
100
AcDbLayerTableRecord
  2
102
 70
     0
 62
     7
  6
Continuous
290
     1
370
    -3
390
1D
  0
LAYER
  5
6E
100
AcDbSymbolTableRecord
100
AcDbLayerTableRecord
  2
103
 70
     0
 62
     7
  6
Continuous
290
     1
370
    -3
390
1D
  0
LAYER
  5
6F
100
AcDbSymbolTableRecord
100
AcDbLayerTableRecord
  2
104
 70
     0
 62
     7
  6
Continuous
290
     1
370
    -3
390
1D
  0
LAYER
  5
70
100
AcDbSymbolTableRecord
100
AcDbLayerTableRecord
  2
105
 70
     0
 62
     7
  6
Continuous
290
     1
370
    -3
390
1D
  0
LAYER
  5
71
100
AcDbSymbolTableRecord
100
AcDbLayerTableRecord
  2
106
 70
     0
 62
     7
  6
Continuous
290
     1
370
    -3
390
1D
  0
LAYER
  5
72
100
AcDbSymbolTableRecord
100
AcDbLayerTableRecord
  2
128
 70
     0
 62
     7
  6
Continuous
290
     1
370
    -3
390
1D
  0
LAYER
  5
73
100
AcDbSymbolTableRecord
100
AcDbLayerTableRecord
  2
129
 70
     0
 62
     7
  6
Continuous
290
     1
370
    -3
390
1D
  0
LAYER
  5
74
100
AcDbSymbolTableRecord
100
AcDbLayerTableRecord
  2
200
 70
     0
 62
     7
  6
Continuous
290
     1
370
    -3
390
1D
  0
LAYER
  5
75
100
AcDbSymbolTableRecord
100
AcDbLayerTableRecord
  2
257
 70
     0
 62
     6
  6
Continuous
290
     1
370
    -3
390
1D
  0
LAYER
  5
76
100
AcDbSymbolTableRecord
100
AcDbLayerTableRecord
  2
400
 70
     0
 62
     7
  6
Continuous
290
     1
370
    -3
390
1D
  0
ENDTAB
  0
TABLE
  2
STYLE
  5
3
100
AcDbSymbolTable
 70
     2
  0
STYLE
  5
17
100
AcDbSymbolTableRecord
100
AcDbTextStyleTableRecord
  2
Standard
 70
     0
 40
0.0
 41
1.0
 50
0.0
 71
     0
 42
0.0
  3
txt
  4
bigfont
  0
STYLE
  5
24
100
AcDbSymbolTableRecord
100
AcDbTextStyleTableRecord
  2
T_STANDARD
 70
    68
 40
10.0
 41
1.0
 50
0.0
 71
     0
 42
10.0
  3
txt
  4
bigfont
  0
ENDTAB
  0
TABLE
  2
VIEW
  5
5
100
AcDbSymbolTable
 70
     0
  0
ENDTAB
  0
TABLE
  2
UCS
  5
6
100
AcDbSymbolTable
 70
     0
  0
ENDTAB
  0
TABLE
  2
APPID
  5
8
100
AcDbSymbolTable
 70
     1
  0
APPID
  5
16
100
AcDbSymbolTableRecord
100
AcDbRegAppTableRecord
  2
ACAD
 70
     0
  0
ENDTAB
  0
TABLE
  2
DIMSTYLE
  5
9
100
AcDbSymbolTable
 70
     1
100
AcDbDimStyleTable
 71
     0
  0
DIMSTYLE
105
18
100
AcDbSymbolTableRecord
100
AcDbDimStyleTableRecord
  2
Standard
 70
     0
  3

  4

 40
1.0
 41
0.18
 42
0.0625
 43
0.38
 44
0.18
 45
0.0
 46
0.0
 47
0.0
 48
0.0
 71
     0
 72
     0
 73
     1
 74
     1
 75
     0
 76
     0
 77
     0
 78
     0
 79
     0
140
0.18
141
0.09
142
0.0
143
25.4
144
1.0
145
0.0
146
1.0
147
0.09
148
0.0
170
     0
171
     2
172
     0
173
     0
174
     0
175
     0
176
     0
177
     0
178
     0
179
     0
271
     4
272
     4
273
     2
274
     2
275
     0
276
     0
277
     2
278
    46
279
     0
280
     0
281
     0
282
     0
283
     1
284
     0
285
     0
286
     0
288
     0
340
17
341
0
342
0
343
0
344
0
371
    -2
372
    -2
  0
ENDTAB
  0
TABLE
  2
BLOCK_RECORD
  5
1
100
AcDbSymbolTable
 70
     7
  0
BLOCK_RECORD
  5
A
100
AcDbSymbolTableRecord
100
AcDbBlockTableRecord
  2
*MODEL_SPACE
340
20
  0
BLOCK_RECORD
  5
B
100
AcDbSymbolTableRecord
100
AcDbBlockTableRecord
  2
*PAPER_SPACE
340
21
  0
BLOCK_RECORD
  5
77
100
AcDbSymbolTableRecord
100
AcDbBlockTableRecord
  2
*G0
340
0
102
{BLKREFS
331
7A
102
}
  0
BLOCK_RECORD
  5
BF
100
AcDbSymbolTableRecord
100
AcDbBlockTableRecord
  2
*G1
340
0
102
{BLKREFS
331
C3
102
}
  0
BLOCK_RECORD
  5
27F
100
AcDbSymbolTableRecord
100
AcDbBlockTableRecord
  2
*D2
340
0
  0
BLOCK_RECORD
  5
28D
100
AcDbSymbolTableRecord
100
AcDbBlockTableRecord
  2
*D3
340
0
  0
BLOCK_RECORD
  5
299
100
AcDbSymbolTableRecord
100
AcDbBlockTableRecord
  2
*D4
340
0
  0
BLOCK_RECORD
  5
2A5
100
AcDbSymbolTableRecord
100
AcDbBlockTableRecord
  2
*G5
340
0
102
{BLKREFS
331
2AE
102
}
  0
BLOCK_RECORD
  5
2BD
100
AcDbSymbolTableRecord
100
AcDbBlockTableRecord
  2
*D6
340
0
  0
ENDTAB
  0
ENDSEC
  0
SECTION
  2
BLOCKS
  0
BLOCK
  5
D
100
AcDbEntity
  8
0
100
AcDbBlockBegin
  2
*MODEL_SPACE
 70
     0
 10
0.0
 20
0.0
 30
0.0
  3
*MODEL_SPACE
  1

  0
ENDBLK
  5
E
100
AcDbEntity
  8
0
100
AcDbBlockEnd
  0
BLOCK
  5
F
100
AcDbEntity
 67
     1
  8
0
100
AcDbBlockBegin
  2
*PAPER_SPACE
 70
     0
 10
0.0
 20
0.0
 30
0.0
  3
*PAPER_SPACE
  1

  0
ENDBLK
  5
10
100
AcDbEntity
 67
     1
  8
0
100
AcDbBlockEnd
  0
BLOCK
  5
78
100
AcDbEntity
  8
0
370
     9
  6
Continuous
 62
     7
100
AcDbBlockBegin
  2
*G0
 70
     0
 10
0.0
 20
0.0
 30
0.0
  3
*G0
  1

  0
ENDBLK
  5
79
100
AcDbEntity
  8
0
100
AcDbBlockEnd
  0
BLOCK
  5
C0
100
AcDbEntity
  8
0
370
     9
  6
Continuous
 62
    96
100
AcDbBlockBegin
  2
*G1
 70
     0
 10
0.0
 20
0.0
 30
0.0
  3
*G1
  1

  0
LINE
  5
C1
100
AcDbEntity
  8
15
370
     9
  6
Continuous
 62
    96
100
AcDbLine
 10
324.252714
 20
25.742498
 30
0.0
 11
324.519291
 21
25.742498
 31
0.0
  0
ENDBLK
  5
C2
100
AcDbEntity
  8
0
100
AcDbBlockEnd
  0
BLOCK
  5
280
100
AcDbEntity
  8
1
370
     9
  6
Continuous
 62
     7
100
AcDbBlockBegin
  2
*D2
 70
     0
 10
0.0
 20
0.0
 30
0.0
  3
*D2
  1

  0
LINE
  5
281
100
AcDbEntity
  8
1
370
     9
  6
Continuous
 62
     7
100
AcDbLine
 10
301.535
 20
188.062872
 30
0.0
 11
301.535
 21
104.562872
 31
0.0
  0
LINE
  5
282
100
AcDbEntity
  8
1
370
     9
  6
Continuous
 62
     7
100
AcDbLine
 10
303.535
 20
188.062872
 30
0.0
 11
248.344223
 21
188.062872
 31
0.0
  0
LINE
  5
283
100
AcDbEntity
  8
1
370
     9
  6
Continuous
 62
     7
100
AcDbLine
 10
303.535
 20
104.562872
 30
0.0
 11
247.088
 21
104.562872
 31
0.0
  0
LINE
  5
284
100
AcDbEntity
  8
1
370
     9
  6
Continuous
 62
     7
100
AcDbLine
 10
301.535
 20
188.062872
 30
0.0
 11
302.156166
 21
185.74465
 31
0.0
  0
LINE
  5
285
100
AcDbEntity
  8
1
370
     9
  6
Continuous
 62
     7
100
AcDbLine
 10
301.535
 20
188.062872
 30
0.0
 11
300.913834
 21
185.74465
 31
0.0
  0
LINE
  5
286
100
AcDbEntity
  8
1
370
     9
  6
Continuous
 62
     7
100
AcDbLine
 10
301.535
 20
104.562872
 30
0.0
 11
300.913834
 21
106.881094
 31
0.0
  0
LINE
  5
287
100
AcDbEntity
  8
1
370
     9
  6
Continuous
 62
     7
100
AcDbLine
 10
301.535
 20
104.562872
 30
0.0
 11
302.156166
 21
106.881094
 31
0.0
  0
TEXT
  5
288
100
AcDbEntity
  8
1
370
     9
  6
Continuous
 62
     7
100
AcDbText
 10
301.035
 20
143.012872
 30
0.0
 40
3.0
  1
83.5
 50
90.0
 41
0.611111
 11
301.035
 21
143.012872
 31
0.0
100
AcDbText
 73
     1
  0
ENDBLK
  5
289
100
AcDbEntity
  8
1
370
     9
  6
Continuous
 62
     7
100
AcDbBlockEnd
  0
BLOCK
  5
28E
100
AcDbEntity
  8
1
370
     9
  6
Continuous
 62
     7
100
AcDbBlockBegin
  2
*D3
 70
     0
 10
0.0
 20
0.0
 30
0.0
  3
*D3
  1

  0
LINE
  5
28F
100
AcDbEntity
  8
1
370
     9
  6
Continuous
 62
     7
100
AcDbLine
 10
33.0
 20
241.812872
 30
0.0
 11
123.000007
 21
241.812872
 31
0.0
  0
LINE
  5
290
100
AcDbEntity
  8
1
370
     9
  6
Continuous
 62
     7
100
AcDbLine
 10
33.0
 20
243.812872
 30
0.0
 11
33.0
 21
222.207403
 31
0.0
  0
LINE
  5
291
100
AcDbEntity
  8
1
370
     9
  6
Continuous
 62
     7
100
AcDbLine
 10
123.000007
 20
243.812872
 30
0.0
 11
123.000007
 21
222.207557
 31
0.0
  0
LINE
  5
292
100
AcDbEntity
  8
1
370
     9
  6
Continuous
 62
     7
100
AcDbLine
 10
33.0
 20
241.812872
 30
0.0
 11
35.318222
 21
242.434038
 31
0.0
  0
LINE
  5
293
100
AcDbEntity
  8
1
370
     9
  6
Continuous
 62
     7
100
AcDbLine
 10
33.0
 20
241.812872
 30
0.0
 11
35.318222
 21
241.191706
 31
0.0
  0
LINE
  5
294
100
AcDbEntity
  8
1
370
     9
  6
Continuous
 62
     7
100
AcDbLine
 10
123.000007
 20
241.812872
 30
0.0
 11
120.681785
 21
241.191706
 31
0.0
  0
LINE
  5
295
100
AcDbEntity
  8
1
370
     9
  6
Continuous
 62
     7
100
AcDbLine
 10
123.000007
 20
241.812872
 30
0.0
 11
120.681785
 21
242.434038
 31
0.0
  0
TEXT
  5
296
100
AcDbEntity
  8
1
370
     9
  6
Continuous
 62
     7
100
AcDbText
 10
76.400004
 20
242.312872
 30
0.0
 40
3.0
  1
90
 41
0.533333
 11
76.400004
 21
242.312872
 31
0.0
100
AcDbText
 73
     1
  0
ENDBLK
  5
297
100
AcDbEntity
  8
1
370
     9
  6
Continuous
 62
     7
100
AcDbBlockEnd
  0
BLOCK
  5
29A
100
AcDbEntity
  8
1
370
     9
  6
Continuous
 62
     7
100
AcDbBlockBegin
  2
*D4
 70
     0
 10
0.0
 20
0.0
 30
0.0
  3
*D4
  1

  0
LINE
  5
29B
100
AcDbEntity
  8
1
370
     9
  6
Continuous
 62
     7
100
AcDbLine
 10
138.0
 20
226.812819
 30
0.0
 11
138.0
 21
66.812872
 31
0.0
  0
LINE
  5
29C
100
AcDbEntity
  8
1
370
     9
  6
Continuous
 62
     7
100
AcDbLine
 10
140.0
 20
226.812819
 30
0.0
 11
79.851994
 21
226.812819
 31
0.0
  0
LINE
  5
29D
100
AcDbEntity
  8
1
370
     9
  6
Continuous
 62
     7
100
AcDbLine
 10
140.0
 20
66.812872
 30
0.0
 11
123.0
 21
66.812872
 31
0.0
  0
LINE
  5
29E
100
AcDbEntity
  8
1
370
     9
  6
Continuous
 62
     7
100
AcDbLine
 10
138.0
 20
226.812819
 30
0.0
 11
138.621166
 21
224.494597
 31
0.0
  0
LINE
  5
29F
100
AcDbEntity
  8
1
370
     9
  6
Continuous
 62
     7
100
AcDbLine
 10
138.0
 20
226.812819
 30
0.0
 11
137.378834
 21
224.494597
 31
0.0
  0
LINE
  5
2A0
100
AcDbEntity
  8
1
370
     9
  6
Continuous
 62
     7
100
AcDbLine
 10
138.0
 20
66.812872
 30
0.0
 11
137.378834
 21
69.131094
 31
0.0
  0
LINE
  5
2A1
100
AcDbEntity
  8
1
370
     9
  6
Continuous
 62
     7
100
AcDbLine
 10
138.0
 20
66.812872
 30
0.0
 11
138.621166
 21
69.131094
 31
0.0
  0
TEXT
  5
2A2
100
AcDbEntity
  8
1
370
     9
  6
Continuous
 62
     7
100
AcDbText
 10
137.5
 20
144.362845
 30
0.0
 40
3.0
  1
160
 50
90.0
 41
0.544444
 11
137.5
 21
144.362845
 31
0.0
100
AcDbText
 73
     1
  0
ENDBLK
  5
2A3
100
AcDbEntity
  8
1
370
     9
  6
Continuous
 62
     7
100
AcDbBlockEnd
  0
BLOCK
  5
2A6
100
AcDbEntity
  8
0
370
     9
  6
Continuous
 62
     7
100
AcDbBlockBegin
  2
*G5
 70
     0
 10
0.0
 20
0.0
 30
0.0
  3
*G5
  1

  0
ELLIPSE
  5
2A7
100
AcDbEntity
  8
1
370
     9
  6
Continuous
 62
     7
100
AcDbEllipse
 10
77.991646
 20
121.335647
 30
0.0
 11
2.4985555013020857
 21
1.4427198621961848
 31
0.0
210
0.0
220
0.0
230
1.0
 40
0.41877
 41
0.0
 42
6.2831853071795862
  0
ELLIPSE
  5
2A8
100
AcDbEntity
  8
1
370
     9
  6
Continuous
 62
     7
100
AcDbEllipse
 10
80.933843
 20
125.328427
 30
0.0
 11
2.4982971191406236
 21
1.4421169704861112
 31
0.0
210
0.0
220
0.0
230
1.0
 40
0.418621
 41
0.0
 42
6.2831853071795862
  0
ELLIPSE
  5
2A9
100
AcDbEntity
  8
1
370
     9
  6
Continuous
 62
     7
100
AcDbEllipse
 10
75.024988
 20
125.328427
 30
0.0
 11
2.4984693739149293
 21
1.4421169704861114
 31
0.0
210
0.0
220
0.0
230
1.0
 40
0.418659
 41
0.0
 42
6.2831853071795862
  0
ELLIPSE
  5
2AA
100
AcDbEntity
  8
1
370
     9
  6
Continuous
 62
     7
100
AcDbEllipse
 10
83.900157
 20
129.309407
 30
0.0
 11
2.4983832465277729
 21
1.4428059895833345
 31
0.0
210
0.0
220
0.0
230
1.0
 40
0.418656
 41
0.0
 42
6.2831853071795862
  0
ELLIPSE
  5
2AB
100
AcDbEntity
  8
1
370
     9
  6
Continuous
 62
     7
100
AcDbEllipse
 10
77.991646
 20
129.309407
 30
0.0
 11
2.4985555013020861
 21
1.4428059895833343
 31
0.0
210
0.0
220
0.0
230
1.0
 40
0.418635
 41
0.0
 42
6.2831853071795862
  0
ELLIPSE
  5
2AC
100
AcDbEntity
  8
1
370
     9
  6
Continuous
 62
     7
100
AcDbEllipse
 10
72.127576
 20
129.309407
 30
0.0
 11
2.4985555013020821
 21
1.4428059895833345
 31
0.0
210
0.0
220
0.0
230
1.0
 40
0.418635
 41
0.0
 42
6.2831853071795862
  0
ENDBLK
  5
2AD
100
AcDbEntity
  8
0
100
AcDbBlockEnd
  0
BLOCK
  5
2BE
100
AcDbEntity
  8
1
370
     9
  6
Continuous
 62
     7
100
AcDbBlockBegin
  2
*D6
 70
     0
 10
0.0
 20
0.0
 30
0.0
  3
*D6
  1

  0
LINE
  5
2BF
100
AcDbEntity
  8
1
370
     9
  6
Continuous
 62
     7
100
AcDbLine
 10
149.500001
 20
241.812872
 30
0.0
 11
175.000001
 21
241.812872
 31
0.0
  0
LINE
  5
2C0
100
AcDbEntity
  8
1
370
     9
  6
Continuous
 62
     7
100
AcDbLine
 10
149.500001
 20
243.812872
 30
0.0
 11
149.500001
 21
226.532287
 31
0.0
  0
LINE
  5
2C1
100
AcDbEntity
  8
1
370
     9
  6
Continuous
 62
     7
100
AcDbLine
 10
175.000001
 20
243.812872
 30
0.0
 11
175.000001
 21
227.981894
 31
0.0
  0
LINE
  5
2C2
100
AcDbEntity
  8
1
370
     9
  6
Continuous
 62
     7
100
AcDbLine
 10
149.500001
 20
241.812872
 30
0.0
 11
151.818223
 21
242.434038
 31
0.0
  0
LINE
  5
2C3
100
AcDbEntity
  8
1
370
     9
  6
Continuous
 62
     7
100
AcDbLine
 10
149.500001
 20
241.812872
 30
0.0
 11
151.818223
 21
241.191706
 31
0.0
  0
LINE
  5
2C4
100
AcDbEntity
  8
1
370
     9
  6
Continuous
 62
     7
100
AcDbLine
 10
175.000001
 20
241.812872
 30
0.0
 11
172.681779
 21
241.191706
 31
0.0
  0
LINE
  5
2C5
100
AcDbEntity
  8
1
370
     9
  6
Continuous
 62
     7
100
AcDbLine
 10
175.000001
 20
241.812872
 30
0.0
 11
172.681779
 21
242.434038
 31
0.0
  0
TEXT
  5
2C6
100
AcDbEntity
  8
1
370
     9
  6
Continuous
 62
     7
100
AcDbText
 10
158.950001
 20
242.312872
 30
0.0
 40
3.0
  1
25.5
 41
0.611111
 11
158.950001
 21
242.312872
 31
0.0
100
AcDbText
 73
     1
  0
ENDBLK
  5
2C7
100
AcDbEntity
  8
1
370
     9
  6
Continuous
 62
     7
100
AcDbBlockEnd
  0
ENDSEC
  0
SECTION
  2
ENTITIES
  0
INSERT
  5
7A
100
AcDbEntity
  8
0
370
     9
  6
Continuous
 62
     7
100
AcDbBlockReference
  2
*G0
 10
0.0
 20
0.0
 30
0.0
  0
LINE
  5
7B
100
AcDbEntity
  8
15
370
     9
  6
Continuous
 62
    96
100
AcDbLine
 10
310.0
 20
238.826
 30
0.0
 11
400.0
 21
238.826
 31
0.0
  0
TEXT
  5
7C
100
AcDbEntity
  8
15
370
     9
  6
PHANTOM
 62
    96
100
AcDbText
 10
318.0
 20
240.076
 30
0.0
 40
3.0
  1
パネル
 41
0.833333
 11
318.0
 21
240.076
 31
0.0
100
AcDbText
 73
     1
  0
TEXT
  5
7D
100
AcDbEntity
  8
15
370
     9
  6
PHANTOM
 62
    96
100
AcDbText
 10
318.0
 20
245.576
 30
0.0
 40
3.0
  1
彩　色
 41
0.833333
 11
318.0
 21
245.576
 31
0.0
100
AcDbText
 73
     1
  0
TEXT
  5
7E
100
AcDbEntity
  8
15
370
     9
  6
PHANTOM
 62
    96
100
AcDbText
 10
318.0
 20
251.076
 30
0.0
 40
3.0
  1
仕　上
 41
0.833333
 11
318.0
 21
251.076
 31
0.0
100
AcDbText
 73
     1
  0
TEXT
  5
7F
100
AcDbEntity
  8
15
370
     9
  6
PHANTOM
 62
    96
100
AcDbText
 10
318.0
 20
256.576
 30
0.0
 40
3.0
  1
材　質
 41
0.833333
 11
318.0
 21
256.576
 31
0.0
100
AcDbText
 73
     1
  0
LINE
  5
80
100
AcDbEntity
  8
15
370
     9
  6
Continuous
 62
    96
100
AcDbLine
 10
310.0
 20
238.826
 30
0.0
 11
400.0
 21
238.826
 31
0.0
  0
LINE
  5
81
100
AcDbEntity
  8
15
370
     9
  6
Continuous
 62
    96
100
AcDbLine
 10
310.0
 20
244.326
 30
0.0
 11
400.0
 21
244.326
 31
0.0
  0
LINE
  5
82
100
AcDbEntity
  8
15
370
     9
  6
Continuous
 62
    96
100
AcDbLine
 10
400.0
 20
249.826
 30
0.0
 11
310.0
 21
249.826
 31
0.0
  0
LINE
  5
83
100
AcDbEntity
  8
15
370
     9
  6
Continuous
 62
    96
100
AcDbLine
 10
310.0
 20
255.326
 30
0.0
 11
400.0
 21
255.326
 31
0.0
  0
TEXT
  5
84
100
AcDbEntity
  8
15
370
     9
  6
PHANTOM
 62
    96
100
AcDbText
 10
315.69
 20
267.06
 30
0.0
 40
3.0
  1
商品コード
 41
0.833333
 11
315.69
 21
267.06
 31
0.0
100
AcDbText
 73
     1
  0
LINE
  5
85
100
AcDbEntity
  8
15
370
    30
  6
Continuous
 62
    96
100
AcDbLine
 10
310.0
 20
266.326
 30
0.0
 11
400.0
 21
266.326
 31
0.0
  0
LINE
  5
86
100
AcDbEntity
  8
15
370
    30
  6
Continuous
 62
    96
100
AcDbLine
 10
310.0
 20
260.826
 30
0.0
 11
400.0
 21
260.826
 31
0.0
  0
TEXT
  5
87
100
AcDbEntity
  8
15
370
     9
  6
PHANTOM
 62
    96
100
AcDbText
 10
344.5
 20
262.076
 30
0.0
 40
3.0
  1
定　　　　　格
 41
0.833333
 11
344.5
 21
262.076
 31
0.0
100
AcDbText
 73
     1
  0
LINE
  5
88
100
AcDbEntity
  8
15
370
     9
  6
Continuous
 62
    96
100
AcDbLine
 10
335.0
 20
272.0
 30
0.0
 11
335.0
 21
266.326
 31
0.0
  0
TEXT
  5
89
100
AcDbEntity
  8
15
370
     9
  6
Continuous
 62
    96
100
AcDbText
 10
366.0
 20
267.576
 30
0.0
 40
3.0
  1
　
 41
0.833333
 11
366.0
 21
267.576
 31
0.0
100
AcDbText
 73
     1
  0
TEXT
  5
8A
100
AcDbEntity
  8
15
370
     9
  6
Continuous
 62
    96
100
AcDbText
 10
312.808324
 20
34.511669
 30
0.0
 40
3.000885
  1
１：１
 41
0.833333
 11
312.808324
 21
34.511669
 31
0.0
100
AcDbText
 73
     1
  0
LINE
  5
8B
100
AcDbEntity
  8
15
370
     9
  6
Continuous
 62
    96
100
AcDbLine
 10
400.000259
 20
33.001776
 30
0.0
 11
309.973458
 21
33.001769
 31
0.0
  0
TEXT
  5
8C
100
AcDbEntity
  8
15
370
     9
  6
Continuous
 62
    96
100
AcDbText
 10
350.696414
 20
39.17943
 30
0.0
 40
2.500737
  1
検図
 41
0.85
 11
350.696414
 21
39.17943
 31
0.0
100
AcDbText
 73
     1
  0
TEXT
  5
8D
100
AcDbEntity
  8
15
370
     9
  6
Continuous
 62
    96
100
AcDbText
 10
325.689041
 20
39.17943
 30
0.0
 40
2.500737
  1
承認
 41
0.85
 11
325.689041
 21
39.17943
 31
0.0
100
AcDbText
 73
     1
  0
TEXT
  5
8E
100
AcDbEntity
  8
15
370
     9
  6
Continuous
 62
    96
100
AcDbText
 10
356.018627
 20
28.617941
 30
0.0
 40
2.5
  1
日付
 41
0.85
 11
356.018627
 21
28.617941
 31
0.0
100
AcDbText
 73
     1
  0
LINE
  5
8F
100
AcDbEntity
  8
15
370
     9
  6
Continuous
 62
    96
100
AcDbLine
 10
362.006961
 20
33.000008
 30
0.0
 11
362.006961
 21
27.000008
 31
0.0
  0
LINE
  5
90
100
AcDbEntity
  8
15
370
     9
  6
Continuous
 62
    96
100
AcDbLine
 10
355.006961
 20
33.000003
 30
0.0
 11
355.006961
 21
27.000003
 31
0.0
  0
LINE
  5
91
100
AcDbEntity
  8
15
370
     9
  6
Continuous
 62
    96
100
AcDbLine
 10
374.992627
 20
42.004424
 30
0.0
 11
374.992627
 21
33.001774
 31
0.0
  0
LINE
  5
92
100
AcDbEntity
  8
15
370
     9
  6
Continuous
 62
    96
100
AcDbLine
 10
349.985254
 20
42.004424
 30
0.0
 11
349.985254
 21
33.001773
 31
0.0
  0
LINE
  5
93
100
AcDbEntity
  8
15
370
     9
  6
Continuous
 62
    96
100
AcDbLine
 10
324.977882
 20
42.004424
 30
0.0
 11
324.977882
 21
33.001771
 31
0.0
  0
TEXT
  5
94
100
AcDbEntity
  8
15
370
     9
  6
Continuous
 62
    96
100
AcDbText
 10
376.04658
 20
38.852331
 30
0.0
 40
2.500737
  1
作図
 41
0.85
 11
376.04658
 21
38.852331
 31
0.0
100
AcDbText
 73
     1
  0
TEXT
  5
95
100
AcDbEntity
  8
15
370
     9
  6
Continuous
 62
    96
100
AcDbText
 10
312.111695
 20
28.509844
 30
0.0
 40
2.500737
  1
図面番号
 41
0.858333
 11
312.111695
 21
28.509844
 31
0.0
100
AcDbText
 73
     1
  0
LINE
  5
96
100
AcDbEntity
  8
15
370
     9
  6
Continuous
 62
    96
100
AcDbLine
 10
324.977882
 20
33.001771
 30
0.0
 11
324.977882
 21
27.000001
 31
0.0
  0
TEXT
  5
97
100
AcDbEntity
  8
15
370
     9
  6
Continuous
 62
    96
100
AcDbText
 10
310.71945
 20
39.084987
 30
0.0
 40
2.500737
  1
縮尺（Ａ３）
 41
0.861111
 11
310.71945
 21
39.084987
 31
0.0
100
AcDbText
 73
     1
  0
LINE
  5
98
100
AcDbEntity
  8
15
370
    50
  6
Continuous
 62
    96
100
AcDbLine
 10
15.0
 20
272.0
 30
0.0
 11
15.0
 21
15.0
 31
0.0
  0
LINE
  5
99
100
AcDbEntity
  8
15
370
    50
  6
Continuous
 62
    96
100
AcDbLine
 10
15.0
 20
15.0
 30
0.0
 11
400.0
 21
15.0
 31
0.0
  0
LINE
  5
9A
100
AcDbEntity
  8
15
370
    50
  6
Continuous
 62
    96
100
AcDbLine
 10
15.0
 20
272.0
 30
0.0
 11
400.0
 21
272.0
 31
0.0
  0
LINE
  5
9B
100
AcDbEntity
  8
15
370
    50
  6
Continuous
 62
    96
100
AcDbLine
 10
400.0
 20
272.0
 30
0.0
 11
400.0
 21
15.0
 31
0.0
  0
LINE
  5
9C
100
AcDbEntity
  8
15
370
     9
  6
Continuous
 62
    96
100
AcDbLine
 10
364.336481
 20
20.700096
 30
0.0
 11
351.873818
 21
20.700096
 31
0.0
  0
TEXT
  5
9D
100
AcDbEntity
  8
15
370
     9
  6
Continuous
 62
    96
100
AcDbText
 10
334.110576
 20
19.689758
 30
0.0
 40
1.8
  1
出入管理システム
 41
1.018519
 11
334.110576
 21
19.689758
 31
0.0
100
AcDbText
 73
     1
  0
TEXT
  5
9E
100
AcDbEntity
  8
15
370
     9
  6
Continuous
 62
    96
100
AcDbText
 10
334.181133
 20
15.809079
 30
0.0
 40
3.6
  1
株式会社
 41
1.753472
 11
334.181133
 21
15.809079
 31
0.0
100
AcDbText
 73
     1
  0
LINE
  5
9F
100
AcDbEntity
  8
15
370
    30
  6
Continuous
 62
    96
100
AcDbLine
 10
314.290135
 20
15.878561
 30
0.0
 11
317.456987
 21
15.878561
 31
0.0
  0
LINE
  5
A0
100
AcDbEntity
  8
15
370
    30
  6
Continuous
 62
    96
100
AcDbLine
 10
332.925428
 20
19.727154
 30
0.0
 11
332.925428
 21
20.942497
 31
0.0
  0
LINE
  5
A1
100
AcDbEntity
  8
15
370
    30
  6
Continuous
 62
    96
100
AcDbLine
 10
331.60881
 20
19.727154
 30
0.0
 11
332.925428
 21
19.727154
 31
0.0
  0
LINE
  5
A2
100
AcDbEntity
  8
15
370
    30
  6
Continuous
 62
    96
100
AcDbLine
 10
331.60881
 20
15.878561
 30
0.0
 11
331.60881
 21
19.727154
 31
0.0
  0
LINE
  5
A3
100
AcDbEntity
  8
15
370
    30
  6
Continuous
 62
    96
100
AcDbLine
 10
330.190905
 20
15.878561
 30
0.0
 11
331.60881
 21
15.878561
 31
0.0
  0
LINE
  5
A4
100
AcDbEntity
  8
15
370
    30
  6
Continuous
 62
    96
100
AcDbLine
 10
329.338856
 20
15.878561
 30
0.0
 11
327.557658
 21
15.878561
 31
0.0
  0
LINE
  5
A5
100
AcDbEntity
  8
15
370
    30
  6
Continuous
 62
    96
100
AcDbLine
 10
320.164308
 20
15.878561
 30
0.0
 11
324.519291
 21
15.878561
 31
0.0
  0
LINE
  5
A6
100
AcDbEntity
  8
15
370
    30
  6
Continuous
 62
    96
100
AcDbLine
 10
320.164308
 20
18.005414
 30
0.0
 11
320.164308
 21
15.878561
 31
0.0
  0
LINE
  5
A7
100
AcDbEntity
  8
15
370
    30
  6
Continuous
 62
    96
100
AcDbLine
 10
317.456987
 20
15.878561
 30
0.0
 11
322.39244
 21
20.765148
 31
0.0
  0
LINE
  5
A8
100
AcDbEntity
  8
15
370
    30
  6
Continuous
 62
    96
100
AcDbLine
 10
322.39244
 20
20.765148
 30
0.0
 11
322.39244
 21
18.005414
 31
0.0
  0
LINE
  5
A9
100
AcDbEntity
  8
15
370
    30
  6
Continuous
 62
    96
100
AcDbLine
 10
322.39244
 20
18.005414
 30
0.0
 11
320.164308
 21
18.005414
 31
0.0
  0
LINE
  5
AA
100
AcDbEntity
  8
15
370
    30
  6
Continuous
 62
    96
100
AcDbLine
 10
324.519291
 20
18.714365
 30
0.0
 11
327.557658
 21
15.878561
 31
0.0
  0
ARC
  5
AB
100
AcDbEntity
  8
15
370
    30
  6
Continuous
 62
    96
100
AcDbCircle
 10
326.949984
 20
19.220759
 30
0.0
 40
0.506395
100
AcDbArc
 50
-90.0
 51
90.0
  0
LINE
  5
AC
100
AcDbEntity
  8
15
370
    30
  6
Continuous
 62
    96
100
AcDbLine
 10
324.519291
 20
18.714365
 30
0.0
 11
326.949984
 21
18.714365
 31
0.0
  0
LINE
  5
AD
100
AcDbEntity
  8
15
370
    30
  6
Continuous
 62
    96
100
AcDbLine
 10
324.924408
 20
19.727154
 30
0.0
 11
326.949984
 21
19.727154
 31
0.0
  0
LINE
  5
AE
100
AcDbEntity
  8
15
370
    30
  6
Continuous
 62
    96
100
AcDbLine
 10
324.924408
 20
20.942497
 30
0.0
 11
324.924408
 21
19.727154
 31
0.0
  0
LINE
  5
AF
100
AcDbEntity
  8
15
370
    30
  6
Continuous
 62
    96
100
AcDbLine
 10
324.924408
 20
20.942497
 30
0.0
 11
327.333779
 21
20.942497
 31
0.0
  0
ARC
  5
B0
100
AcDbEntity
  8
15
370
    30
  6
Continuous
 62
    96
100
AcDbCircle
 10
327.141879
 20
19.220759
 30
0.0
 40
1.732399
100
AcDbArc
 50
-76.055153
 51
83.640296
  0
LINE
  5
B1
100
AcDbEntity
  8
15
370
    30
  6
Continuous
 62
    96
100
AcDbLine
 10
327.557658
 20
17.541014
 30
0.0
 11
329.338856
 21
15.878561
 31
0.0
  0
LINE
  5
B2
100
AcDbEntity
  8
15
370
    30
  6
Continuous
 62
    96
100
AcDbLine
 10
332.925428
 20
20.942497
 30
0.0
 11
328.874278
 21
20.942497
 31
0.0
  0
LINE
  5
B3
100
AcDbEntity
  8
15
370
    30
  6
Continuous
 62
    96
100
AcDbLine
 10
328.874278
 20
20.942497
 30
0.0
 11
328.874278
 21
19.727154
 31
0.0
  0
LINE
  5
B4
100
AcDbEntity
  8
15
370
    30
  6
Continuous
 62
    96
100
AcDbLine
 10
328.874278
 20
19.727154
 30
0.0
 11
330.190905
 21
19.727154
 31
0.0
  0
LINE
  5
B5
100
AcDbEntity
  8
15
370
    30
  6
Continuous
 62
    96
100
AcDbLine
 10
330.190905
 20
19.727154
 30
0.0
 11
330.190905
 21
15.878561
 31
0.0
  0
TEXT
  5
B6
100
AcDbEntity
  8
15
370
    30
  6
Continuous
 62
    96
100
AcDbText
 10
310.431027
 20
57.115582
 30
0.0
 40
2.5
  1
型　式
 41
0.855556
 11
310.431027
 21
57.115582
 31
0.0
100
AcDbText
 73
     1
  0
TEXT
  5
B7
100
AcDbEntity
  8
15
370
    30
  6
Continuous
 62
    96
100
AcDbText
 10
310.431027
 20
47.954625
 30
0.0
 40
2.5
  1
製品名
 41
0.855556
 11
310.431027
 21
47.954625
 31
0.0
100
AcDbText
 73
     1
  0
LINE
  5
B8
100
AcDbEntity
  8
15
370
    30
  6
Continuous
 62
    96
100
AcDbLine
 10
310.0
 20
15.0
 30
0.0
 11
310.0
 21
60.000007
 31
0.0
  0
LINE
  5
B9
100
AcDbEntity
  8
15
370
     9
  6
Continuous
 62
    96
100
AcDbLine
 10
310.0
 20
51.000007
 30
0.0
 11
400.0
 21
51.000007
 31
0.0
  0
LINE
  5
BA
100
AcDbEntity
  8
15
370
     9
  6
Continuous
 62
    96
100
AcDbLine
 10
310.0
 20
51.0
 30
0.0
 11
400.0
 21
51.000007
 31
0.0
  0
LINE
  5
BB
100
AcDbEntity
  8
15
370
     9
  6
Continuous
 62
    96
100
AcDbLine
 10
400.0
 20
27.000007
 30
0.0
 11
310.0
 21
27.0
 31
0.0
  0
LINE
  5
BC
100
AcDbEntity
  8
15
370
     9
  6
Continuous
 62
    96
100
AcDbLine
 10
310.0
 20
42.0
 30
0.0
 11
399.698557
 21
42.0
 31
0.0
  0
LINE
  5
BD
100
AcDbEntity
  8
15
370
     9
  6
Continuous
 62
    96
100
AcDbLine
 10
324.519291
 20
15.878561
 30
0.0
 11
324.519291
 21
26.006435
 31
0.0
  0
LINE
  5
BE
100
AcDbEntity
  8
15
370
     9
  6
Continuous
 62
    96
100
AcDbLine
 10
324.519291
 20
26.006435
 30
0.0
 11
314.290135
 21
15.878561
 31
0.0
  0
INSERT
  5
C3
100
AcDbEntity
  8
0
370
     9
  6
Continuous
 62
    96
100
AcDbBlockReference
  2
*G1
 10
0.0
 20
0.0
 30
0.0
  0
TEXT
  5
C4
100
AcDbEntity
  8
15
370
     9
  6
Continuous
 62
    96
100
AcDbText
 10
366.508819
 20
15.386878
 30
0.0
 40
10.0
  1
アート
 41
0.833333
 11
366.508819
 21
15.386878
 31
0.0
100
AcDbText
 73
     1
  0
LINE
  5
C5
100
AcDbEntity
  8
15
370
    30
  6
Continuous
 62
    96
100
AcDbLine
 10
310.0
 20
272.0
 30
0.0
 11
310.0
 21
72.500007
 31
0.0
  0
LINE
  5
C6
100
AcDbEntity
  8
15
370
    30
  6
Continuous
 62
    96
100
AcDbLine
 10
310.0
 20
60.000007
 30
0.0
 11
310.0
 21
72.500007
 31
0.0
  0
LINE
  5
C7
100
AcDbEntity
  8
15
370
    30
  6
Continuous
 62
    96
100
AcDbLine
 10
310.033019
 20
65.500007
 30
0.0
 11
400.033019
 21
65.500007
 31
0.0
  0
LINE
  5
C8
100
AcDbEntity
  8
15
370
     9
  6
Continuous
 62
    96
100
AcDbLine
 10
335.033019
 20
65.500007
 30
0.0
 11
335.033019
 21
60.000007
 31
0.0
  0
TEXT
  5
C9
100
AcDbEntity
  8
15
370
     9
  6
Continuous
 62
    96
100
AcDbText
 10
316.233019
 20
61.250007
 30
0.0
 40
3.0
  1
図面履歴
 41
0.875
 11
316.233019
 21
61.250007
 31
0.0
100
AcDbText
 73
     1
  0
LINE
  5
CA
100
AcDbEntity
  8
15
370
    30
  6
Continuous
 62
    96
100
AcDbLine
 10
310.0
 20
60.000007
 30
0.0
 11
400.033019
 21
60.000007
 31
0.0
  0
LINE
  5
CB
100
AcDbEntity
  8
129
370
     9
  6
Continuous
 62
     7
100
AcDbLine
 10
241.4998
 20
66.830333
 30
0.0
 11
238.4998
 21
66.830333
 31
0.0
  0
LINE
  5
CC
100
AcDbEntity
  8
129
370
     9
  6
Continuous
 62
     7
100
AcDbLine
 10
241.4998
 20
66.847793
 30
0.0
 11
238.4998
 21
66.847793
 31
0.0
  0
LINE
  5
CD
100
AcDbEntity
  8
129
370
     9
  6
Continuous
 62
     7
100
AcDbLine
 10
264.9998
 20
67.336684
 30
0.0
 11
257.9998
 21
67.336684
 31
0.0
  0
LINE
  5
CE
100
AcDbEntity
  8
129
370
     9
  6
Continuous
 62
     7
100
AcDbLine
 10
224.9998
 20
67.336684
 30
0.0
 11
209.9358
 21
67.336684
 31
0.0
  0
LINE
  5
CF
100
AcDbEntity
  8
129
370
     9
  6
Continuous
 62
     7
100
AcDbLine
 10
224.9998
 20
67.344033
 30
0.0
 11
257.9998
 21
67.344033
 31
0.0
  0
LINE
  5
D0
100
AcDbEntity
  8
129
370
     9
  6
Continuous
 62
     7
100
AcDbLine
 10
197.529743
 20
67.643851
 30
0.0
 11
209.9358
 21
67.643851
 31
0.0
  0
LINE
  5
D1
100
AcDbEntity
  8
129
370
     9
  6
Continuous
 62
     7
100
AcDbLine
 10
224.9998
 20
67.643851
 30
0.0
 11
257.9998
 21
67.643851
 31
0.0
  0
LINE
  5
D2
100
AcDbEntity
  8
129
370
     9
  6
Continuous
 62
     7
100
AcDbLine
 10
264.9998
 20
67.643851
 30
0.0
 11
282.469857
 21
67.643851
 31
0.0
  0
LINE
  5
D3
100
AcDbEntity
  8
129
370
     9
  6
Continuous
 62
     7
100
AcDbLine
 10
209.9358
 20
68.312872
 30
0.0
 11
210.6358
 21
68.312872
 31
0.0
  0
LINE
  5
D4
100
AcDbEntity
  8
129
370
     9
  6
Continuous
 62
     7
100
AcDbLine
 10
224.2998
 20
68.312872
 30
0.0
 11
224.9998
 21
68.312872
 31
0.0
  0
LINE
  5
D5
100
AcDbEntity
  8
129
370
     9
  6
Continuous
 62
     7
100
AcDbLine
 10
281.9998
 20
68.812872
 30
0.0
 11
264.9998
 21
68.812872
 31
0.0
  0
LINE
  5
D6
100
AcDbEntity
  8
129
370
     9
  6
Continuous
 62
     7
100
AcDbLine
 10
257.9998
 20
68.812872
 30
0.0
 11
224.9998
 21
68.812872
 31
0.0
  0
LINE
  5
D7
100
AcDbEntity
  8
129
370
     9
  6
Continuous
 62
     7
100
AcDbLine
 10
209.9358
 20
68.812872
 30
0.0
 11
197.9998
 21
68.812872
 31
0.0
  0
LINE
  5
D8
100
AcDbEntity
  8
129
370
     9
  6
Continuous
 62
     7
100
AcDbLine
 10
281.9998
 20
69.101547
 30
0.0
 11
264.9998
 21
69.101547
 31
0.0
  0
LINE
  5
D9
100
AcDbEntity
  8
129
370
     9
  6
Continuous
 62
     7
100
AcDbLine
 10
257.9998
 20
69.101547
 30
0.0
 11
224.9998
 21
69.101547
 31
0.0
  0
LINE
  5
DA
100
AcDbEntity
  8
129
370
     9
  6
Continuous
 62
     7
100
AcDbLine
 10
209.9358
 20
69.101547
 30
0.0
 11
197.9998
 21
69.101547
 31
0.0
  0
LINE
  5
DB
100
AcDbEntity
  8
129
370
     9
  6
Continuous
 62
     7
100
AcDbLine
 10
223.9998
 20
71.212872
 30
0.0
 11
210.9358
 21
71.212872
 31
0.0
  0
LINE
  5
DC
100
AcDbEntity
  8
129
370
     9
  6
Continuous
 62
     7
100
AcDbLine
 10
210.4358
 20
73.212872
 30
0.0
 11
224.4998
 21
73.212872
 31
0.0
  0
LINE
  5
DD
100
AcDbEntity
  8
129
370
     9
  6
Continuous
 62
     7
100
AcDbLine
 10
243.7998
 20
73.224709
 30
0.0
 11
276.4998
 21
73.224709
 31
0.0
  0
LINE
  5
DE
100
AcDbEntity
  8
129
370
     9
  6
Continuous
 62
     7
100
AcDbLine
 10
202.4998
 20
73.564602
 30
0.0
 11
236.1998
 21
73.564602
 31
0.0
  0
LINE
  5
DF
100
AcDbEntity
  8
129
370
     9
  6
Continuous
 62
     7
100
AcDbLine
 10
243.7998
 20
73.564602
 30
0.0
 11
276.4998
 21
73.564602
 31
0.0
  0
LINE
  5
E0
100
AcDbEntity
  8
129
370
     9
  6
Continuous
 62
     7
100
AcDbLine
 10
275.6998
 20
74.561142
 30
0.0
 11
243.7998
 21
74.561142
 31
0.0
  0
LINE
  5
E1
100
AcDbEntity
  8
129
370
     9
  6
Continuous
 62
     7
100
AcDbLine
 10
236.1998
 20
74.561142
 30
0.0
 11
203.2998
 21
74.561142
 31
0.0
  0
LINE
  5
E2
100
AcDbEntity
  8
129
370
     9
  6
Continuous
 62
     7
100
AcDbLine
 10
275.6998
 20
74.901036
 30
0.0
 11
243.7998
 21
74.901036
 31
0.0
  0
LINE
  5
E3
100
AcDbEntity
  8
129
370
     9
  6
Continuous
 62
     7
100
AcDbLine
 10
236.1998
 20
74.901036
 30
0.0
 11
203.2998
 21
74.901036
 31
0.0
  0
LINE
  5
E4
100
AcDbEntity
  8
129
370
     9
  6
Continuous
 62
     7
100
AcDbLine
 10
229.287845
 20
195.062872
 30
0.0
 11
230.194153
 21
195.48549
 31
0.0
  0
LINE
  5
E5
100
AcDbEntity
  8
129
370
     9
  6
Continuous
 62
     7
100
AcDbLine
 10
230.194153
 20
97.140254
 30
0.0
 11
229.287845
 21
97.562872
 31
0.0
  0
LINE
  5
E6
100
AcDbEntity
  8
129
370
     9
  6
Continuous
 62
     7
100
AcDbLine
 10
195.830779
 20
219.778572
 30
0.0
 11
195.830779
 21
69.342815
 31
0.0
  0
LINE
  5
E7
100
AcDbEntity
  8
129
370
     9
  6
Continuous
 62
     7
100
AcDbLine
 10
196.9998
 20
69.812872
 30
0.0
 11
196.9998
 21
219.398297
 31
0.0
  0
LINE
  5
E8
100
AcDbEntity
  8
129
370
     9
  6
Continuous
 62
     7
100
AcDbLine
 10
197.288475
 20
69.812872
 30
0.0
 11
197.288475
 21
219.398297
 31
0.0
  0
LINE
  5
E9
100
AcDbEntity
  8
129
370
     9
  6
Continuous
 62
     7
100
AcDbLine
 10
240.999702
 20
102.462872
 30
0.0
 11
238.999702
 21
102.462872
 31
0.0
  0
LINE
  5
EA
100
AcDbEntity
  8
129
370
     9
  6
Continuous
 62
     7
100
AcDbLine
 10
201.411636
 20
214.701441
 30
0.0
 11
201.411636
 21
74.312872
 31
0.0
  0
LINE
  5
EB
100
AcDbEntity
  8
129
370
     9
  6
Continuous
 62
     7
100
AcDbLine
 10
201.75153
 20
214.701441
 30
0.0
 11
201.75153
 21
74.312872
 31
0.0
  0
LINE
  5
EC
100
AcDbEntity
  8
129
370
     9
  6
Continuous
 62
     7
100
AcDbLine
 10
202.74807
 20
75.112872
 30
0.0
 11
202.74807
 21
214.040862
 31
0.0
  0
LINE
  5
ED
100
AcDbEntity
  8
129
370
     9
  6
Continuous
 62
     7
100
AcDbLine
 10
203.087963
 20
75.112872
 30
0.0
 11
203.087963
 21
214.040862
 31
0.0
  0
LINE
  5
EE
100
AcDbEntity
  8
129
370
     9
  6
Continuous
 62
     7
100
AcDbLine
 10
233.882222
 20
185.210199
 30
0.0
 11
234.335376
 21
185.421508
 31
0.0
  0
LINE
  5
EF
100
AcDbEntity
  8
129
370
     9
  6
Continuous
 62
     7
100
AcDbLine
 10
238.9998
 20
106.662872
 30
0.0
 11
240.9998
 21
106.662872
 31
0.0
  0
LINE
  5
F0
100
AcDbEntity
  8
129
370
     9
  6
Continuous
 62
     7
100
AcDbLine
 10
209.9358
 20
67.344033
 30
0.0
 11
209.9358
 21
72.712872
 31
0.0
  0
LINE
  5
F1
100
AcDbEntity
  8
129
370
     9
  6
Continuous
 62
     7
100
AcDbLine
 10
209.9358
 20
218.550859
 30
0.0
 11
209.9358
 21
223.079874
 31
0.0
  0
LINE
  5
F2
100
AcDbEntity
  8
129
370
     9
  6
Continuous
 62
     7
100
AcDbLine
 10
210.4358
 20
220.415321
 30
0.0
 11
210.4358
 21
223.153926
 31
0.0
  0
LINE
  5
F3
100
AcDbEntity
  8
129
370
     9
  6
Continuous
 62
     7
100
AcDbLine
 10
210.6358
 20
68.312872
 30
0.0
 11
210.6358
 21
70.912872
 31
0.0
  0
LINE
  5
F4
100
AcDbEntity
  8
129
370
     9
  6
Continuous
 62
     7
100
AcDbLine
 10
224.2998
 20
70.912872
 30
0.0
 11
224.2998
 21
68.312872
 31
0.0
  0
LINE
  5
F5
100
AcDbEntity
  8
129
370
     9
  6
Continuous
 62
     7
100
AcDbLine
 10
224.4998
 20
221.937019
 30
0.0
 11
224.4998
 21
224.721719
 31
0.0
  0
LINE
  5
F6
100
AcDbEntity
  8
129
370
     9
  6
Continuous
 62
     7
100
AcDbLine
 10
224.9998
 20
72.712872
 30
0.0
 11
224.9998
 21
67.344033
 31
0.0
  0
LINE
  5
F7
100
AcDbEntity
  8
129
370
     9
  6
Continuous
 62
     7
100
AcDbLine
 10
224.9998
 20
220.15504
 30
0.0
 11
224.9998
 21
224.759294
 31
0.0
  0
LINE
  5
F8
100
AcDbEntity
  8
129
370
     9
  6
Continuous
 62
     7
100
AcDbLine
 10
245.21107
 20
185.632817
 30
0.0
 11
249.805447
 21
195.48549
 31
0.0
  0
LINE
  5
F9
100
AcDbEntity
  8
129
370
     9
  6
Continuous
 62
     7
100
AcDbLine
 10
249.8058
 20
97.140419
 30
0.0
 11
245.210983
 21
106.993114
 31
0.0
  0
LINE
  5
FA
100
AcDbEntity
  8
129
370
     9
  6
Continuous
 62
     7
100
AcDbLine
 10
250.258954
 20
97.351728
 30
0.0
 11
245.664129
 21
107.204439
 31
0.0
  0
LINE
  5
FB
100
AcDbEntity
  8
129
370
     9
  6
Continuous
 62
     7
100
AcDbLine
 10
250.258601
 20
195.274181
 30
0.0
 11
245.664224
 21
185.421508
 31
0.0
  0
LINE
  5
FC
100
AcDbEntity
  8
129
370
     9
  6
Continuous
 62
     7
100
AcDbLine
 10
250.711755
 20
195.062872
 30
0.0
 11
246.117378
 21
185.210199
 31
0.0
  0
LINE
  5
FD
100
AcDbEntity
  8
129
370
     9
  6
Continuous
 62
     7
100
AcDbLine
 10
246.117378
 20
107.415545
 30
0.0
 11
250.711755
 21
97.562872
 31
0.0
  0
LINE
  5
FE
100
AcDbEntity
  8
129
370
     9
  6
Continuous
 62
     7
100
AcDbLine
 10
236.24807
 20
73.612872
 30
0.0
 11
236.24807
 21
74.512872
 31
0.0
  0
LINE
  5
FF
100
AcDbEntity
  8
129
370
     9
  6
Continuous
 62
     7
100
AcDbLine
 10
236.587963
 20
74.512872
 30
0.0
 11
236.587963
 21
73.612872
 31
0.0
  0
LINE
  5
100
100
AcDbEntity
  8
129
370
     9
  6
Continuous
 62
     7
100
AcDbLine
 10
236.9998
 20
104.462872
 30
0.0
 11
236.9998
 21
104.662872
 31
0.0
  0
LINE
  5
101
100
AcDbEntity
  8
129
370
     9
  6
Continuous
 62
     7
100
AcDbLine
 10
236.9998
 20
187.962872
 30
0.0
 11
236.9998
 21
188.162872
 31
0.0
  0
LINE
  5
102
100
AcDbEntity
  8
129
370
     9
  6
Continuous
 62
     7
100
AcDbLine
 10
242.9998
 20
188.162872
 30
0.0
 11
242.9998
 21
187.962872
 31
0.0
  0
LINE
  5
103
100
AcDbEntity
  8
129
370
     9
  6
Continuous
 62
     7
100
AcDbLine
 10
242.9998
 20
104.662872
 30
0.0
 11
242.9998
 21
104.462872
 31
0.0
  0
LINE
  5
104
100
AcDbEntity
  8
129
370
     9
  6
Continuous
 62
     7
100
AcDbLine
 10
243.411636
 20
73.612872
 30
0.0
 11
243.411636
 21
74.512872
 31
0.0
  0
LINE
  5
105
100
AcDbEntity
  8
129
370
     9
  6
Continuous
 62
     7
100
AcDbLine
 10
243.75153
 20
74.512872
 30
0.0
 11
243.75153
 21
73.612872
 31
0.0
  0
LINE
  5
106
100
AcDbEntity
  8
129
370
     9
  6
Continuous
 62
     7
100
AcDbLine
 10
229.287845
 20
97.562872
 30
0.0
 11
233.882222
 21
107.415545
 31
0.0
  0
LINE
  5
107
100
AcDbEntity
  8
129
370
     9
  6
Continuous
 62
     7
100
AcDbLine
 10
234.335376
 20
107.204236
 30
0.0
 11
229.740999
 21
97.351563
 31
0.0
  0
LINE
  5
108
100
AcDbEntity
  8
129
370
     9
  6
Continuous
 62
     7
100
AcDbLine
 10
234.78853
 20
106.992927
 30
0.0
 11
230.194153
 21
97.140254
 31
0.0
  0
LINE
  5
109
100
AcDbEntity
  8
129
370
     9
  6
Continuous
 62
     7
100
AcDbLine
 10
233.882222
 20
185.210199
 30
0.0
 11
229.287845
 21
195.062872
 31
0.0
  0
LINE
  5
10A
100
AcDbEntity
  8
129
370
     9
  6
Continuous
 62
     7
100
AcDbLine
 10
234.335376
 20
185.421508
 30
0.0
 11
229.740999
 21
195.274181
 31
0.0
  0
LINE
  5
10B
100
AcDbEntity
  8
129
370
     9
  6
Continuous
 62
     7
100
AcDbLine
 10
230.194153
 20
195.48549
 30
0.0
 11
234.78853
 21
185.632817
 31
0.0
  0
LINE
  5
10C
100
AcDbEntity
  8
129
370
     9
  6
Continuous
 62
     7
100
AcDbLine
 10
257.9998
 20
67.344033
 30
0.0
 11
257.9998
 21
69.101547
 31
0.0
  0
LINE
  5
10D
100
AcDbEntity
  8
129
370
     9
  6
Continuous
 62
     7
100
AcDbLine
 10
264.9998
 20
67.344033
 30
0.0
 11
264.9998
 21
69.101547
 31
0.0
  0
LINE
  5
10E
100
AcDbEntity
  8
129
370
     9
  6
Continuous
 62
     7
100
AcDbLine
 10
276.25153
 20
214.229088
 30
0.0
 11
276.25153
 21
75.112872
 31
0.0
  0
LINE
  5
10F
100
AcDbEntity
  8
129
370
     9
  6
Continuous
 62
     7
100
AcDbLine
 10
277.24807
 20
74.312872
 30
0.0
 11
277.24807
 21
214.893166
 31
0.0
  0
LINE
  5
110
100
AcDbEntity
  8
129
370
     9
  6
Continuous
 62
     7
100
AcDbLine
 10
246.117378
 20
185.210199
 30
0.0
 11
245.664224
 21
185.421508
 31
0.0
  0
LINE
  5
111
100
AcDbEntity
  8
129
370
     9
  6
Continuous
 62
     7
100
AcDbLine
 10
277.587963
 20
74.312872
 30
0.0
 11
277.587963
 21
214.893166
 31
0.0
  0
LINE
  5
112
100
AcDbEntity
  8
129
370
     9
  6
Continuous
 62
     7
100
AcDbLine
 10
282.711125
 20
219.398297
 30
0.0
 11
282.711125
 21
69.812872
 31
0.0
  0
LINE
  5
113
100
AcDbEntity
  8
129
370
     9
  6
Continuous
 62
     7
100
AcDbLine
 10
282.9998
 20
219.398297
 30
0.0
 11
282.9998
 21
69.812872
 31
0.0
  0
LINE
  5
114
100
AcDbEntity
  8
129
370
     9
  6
Continuous
 62
     7
100
AcDbLine
 10
240.9998
 20
185.962872
 30
0.0
 11
238.9998
 21
185.962872
 31
0.0
  0
LINE
  5
115
100
AcDbEntity
  8
129
370
     9
  6
Continuous
 62
     7
100
AcDbLine
 10
238.9998
 20
190.162872
 30
0.0
 11
240.9998
 21
190.162872
 31
0.0
  0
LINE
  5
116
100
AcDbEntity
  8
129
370
     9
  6
Continuous
 62
     7
100
AcDbLine
 10
284.168821
 20
69.342815
 30
0.0
 11
284.168821
 21
219.778572
 31
0.0
  0
LINE
  5
117
100
AcDbEntity
  8
129
370
     9
  6
Continuous
 62
     7
100
AcDbLine
 10
250.711755
 20
97.562872
 30
0.0
 11
249.8058
 21
97.140419
 31
0.0
  0
LINE
  5
118
100
AcDbEntity
  8
129
370
     9
  6
Continuous
 62
     7
100
AcDbLine
 10
249.805447
 20
195.48549
 30
0.0
 11
250.711755
 21
195.062872
 31
0.0
  0
ARC
  5
119
100
AcDbEntity
  8
129
370
     9
  6
Continuous
 62
     7
100
AcDbCircle
 10
238.9998
 20
104.462872
 30
0.0
 40
2.0
100
AcDbArc
 50
-180.0
 51
-90.002818
  0
ARC
  5
11A
100
AcDbEntity
  8
129
370
     9
  6
Continuous
 62
     7
100
AcDbCircle
 10
238.9998
 20
104.662872
 30
0.0
 40
2.0
100
AcDbArc
 50
90.0
 51
180.0
  0
ARC
  5
11B
100
AcDbEntity
  8
129
370
     9
  6
Continuous
 62
     7
100
AcDbCircle
 10
197.529583
 20
69.342652
 30
0.0
 40
1.698809
100
AcDbArc
 50
179.994481
 51
-89.994596
  0
ARC
  5
11C
100
AcDbEntity
  8
129
370
     9
  6
Continuous
 62
     7
100
AcDbCircle
 10
202.4998
 20
74.312872
 30
0.0
 40
1.088163
100
AcDbArc
 50
180.0
 51
-90.0
  0
ARC
  5
11D
100
AcDbEntity
  8
129
370
     9
  6
Continuous
 62
     7
100
AcDbCircle
 10
197.9998
 20
69.812872
 30
0.0
 40
1.0
100
AcDbArc
 50
180.0
 51
-90.0
  0
ARC
  5
11E
100
AcDbEntity
  8
129
370
     9
  6
Continuous
 62
     7
100
AcDbCircle
 10
202.4998
 20
74.312872
 30
0.0
 40
0.748269
100
AcDbArc
 50
180.0
 51
-90.0
  0
ARC
  5
11F
100
AcDbEntity
  8
129
370
     9
  6
Continuous
 62
     7
100
AcDbCircle
 10
197.9998
 20
69.812872
 30
0.0
 40
0.711325
100
AcDbArc
 50
180.0
 51
-90.0
  0
ARC
  5
120
100
AcDbEntity
  8
129
370
     9
  6
Continuous
 62
     7
100
AcDbCircle
 10
203.2998
 20
75.112872
 30
0.0
 40
0.551729
100
AcDbArc
 50
180.0
 51
-90.0
  0
ARC
  5
121
100
AcDbEntity
  8
129
370
     9
  6
Continuous
 62
     7
100
AcDbCircle
 10
224.4998
 20
72.712872
 30
0.0
 40
0.5
100
AcDbArc
 50
0.0
 51
90.0
  0
ARC
  5
122
100
AcDbEntity
  8
129
370
     9
  6
Continuous
 62
     7
100
AcDbCircle
 10
210.4358
 20
72.712872
 30
0.0
 40
0.5
100
AcDbArc
 50
90.0
 51
180.0
  0
ARC
  5
123
100
AcDbEntity
  8
129
370
     9
  6
Continuous
 62
     7
100
AcDbCircle
 10
225.508423
 20
100.312872
 30
0.0
 40
0.5
100
AcDbArc
 50
178.023892
 51
-1.976108
  0
ARC
  5
124
100
AcDbEntity
  8
129
370
     9
  6
Continuous
 62
     7
100
AcDbCircle
 10
236.1998
 20
74.512872
 30
0.0
 40
0.388163
100
AcDbArc
 50
0.0
 51
90.0
  0
ARC
  5
125
100
AcDbEntity
  8
129
370
     9
  6
Continuous
 62
     7
100
AcDbCircle
 10
236.1998
 20
73.612872
 30
0.0
 40
0.388163
100
AcDbArc
 50
-90.0
 51
0.0
  0
ARC
  5
126
100
AcDbEntity
  8
129
370
     9
  6
Continuous
 62
     7
100
AcDbCircle
 10
223.9998
 20
70.912872
 30
0.0
 40
0.3
100
AcDbArc
 50
0.0
 51
90.0
  0
ARC
  5
127
100
AcDbEntity
  8
129
370
     9
  6
Continuous
 62
     7
100
AcDbCircle
 10
210.9358
 20
70.912872
 30
0.0
 40
0.3
100
AcDbArc
 50
90.0
 51
180.0
  0
ARC
  5
128
100
AcDbEntity
  8
129
370
     9
  6
Continuous
 62
     7
100
AcDbCircle
 10
203.2998
 20
75.112872
 30
0.0
 40
0.211837
100
AcDbArc
 50
180.0
 51
-90.0
  0
ARC
  5
129
100
AcDbEntity
  8
129
370
     9
  6
Continuous
 62
     7
100
AcDbCircle
 10
225.508423
 20
100.312872
 30
0.0
 40
0.199989
100
AcDbArc
 50
178.023892
 51
-1.976108
  0
ARC
  5
12A
100
AcDbEntity
  8
129
370
     9
  6
Continuous
 62
     7
100
AcDbCircle
 10
236.1998
 20
74.512872
 30
0.0
 40
0.048265
100
AcDbArc
 50
0.0
 51
90.0
  0
ARC
  5
12B
100
AcDbEntity
  8
129
370
     9
  6
Continuous
 62
     7
100
AcDbCircle
 10
236.1998
 20
73.612872
 30
0.0
 40
0.048265
100
AcDbArc
 50
-90.0
 51
0.0
  0
ARC
  5
12C
100
AcDbEntity
  8
129
370
     9
  6
Continuous
 62
     7
100
AcDbCircle
 10
238.9998
 20
187.962872
 30
0.0
 40
2.0
100
AcDbArc
 50
180.0
 51
-90.0
  0
ARC
  5
12D
100
AcDbEntity
  8
129
370
     9
  6
Continuous
 62
     7
100
AcDbCircle
 10
238.9998
 20
188.162872
 30
0.0
 40
2.0
100
AcDbArc
 50
90.0
 51
180.0
  0
ARC
  5
12E
100
AcDbEntity
  8
129
370
     9
  6
Continuous
 62
     7
100
AcDbCircle
 10
197.529722
 20
219.778588
 30
0.0
 40
1.698957
100
AcDbArc
 50
102.10771
 51
-179.99944
  0
ARC
  5
12F
100
AcDbEntity
  8
129
370
     9
  6
Continuous
 62
     7
100
AcDbCircle
 10
202.4998
 20
214.701441
 30
0.0
 40
1.088163
100
AcDbArc
 50
101.001792
 51
180.0
  0
ARC
  5
130
100
AcDbEntity
  8
129
370
     9
  6
Continuous
 62
     7
100
AcDbCircle
 10
197.9998
 20
219.398297
 30
0.0
 40
1.0
100
AcDbArc
 50
102.000533
 51
180.0
  0
ARC
  5
131
100
AcDbEntity
  8
129
370
     9
  6
Continuous
 62
     7
100
AcDbCircle
 10
202.4998
 20
214.701441
 30
0.0
 40
0.74826
100
AcDbArc
 50
101.001792
 51
180.0
  0
ARC
  5
132
100
AcDbEntity
  8
129
370
     9
  6
Continuous
 62
     7
100
AcDbCircle
 10
197.9998
 20
219.398297
 30
0.0
 40
0.711325
100
AcDbArc
 50
102.000533
 51
180.0
  0
ARC
  5
133
100
AcDbEntity
  8
129
370
     9
  6
Continuous
 62
     7
100
AcDbCircle
 10
203.2998
 20
214.040862
 30
0.0
 40
0.551724
100
AcDbArc
 50
100.808786
 51
180.0
  0
ARC
  5
134
100
AcDbEntity
  8
129
370
     9
  6
Continuous
 62
     7
100
AcDbCircle
 10
224.4998
 20
220.15504
 30
0.0
 40
0.5
100
AcDbArc
 50
-85.531544
 51
0.0
  0
ARC
  5
135
100
AcDbEntity
  8
129
370
     9
  6
Continuous
 62
     7
100
AcDbCircle
 10
210.4358
 20
218.550859
 30
0.0
 40
0.5
100
AcDbArc
 50
180.0
 51
-81.454053
  0
ARC
  5
136
100
AcDbEntity
  8
129
370
     9
  6
Continuous
 62
     7
100
AcDbCircle
 10
225.508423
 20
188.562872
 30
0.0
 40
0.5
100
AcDbArc
 50
178.023892
 51
-1.976108
  0
ARC
  5
137
100
AcDbEntity
  8
129
370
     9
  6
Continuous
 62
     7
100
AcDbCircle
 10
224.1998
 20
221.937019
 30
0.0
 40
0.3
100
AcDbArc
 50
-85.485805
 51
0.0
  0
ARC
  5
138
100
AcDbEntity
  8
129
370
     9
  6
Continuous
 62
     7
100
AcDbCircle
 10
210.7358
 20
220.415321
 30
0.0
 40
0.3
100
AcDbArc
 50
180.0
 51
-81.617805
  0
ARC
  5
139
100
AcDbEntity
  8
129
370
     9
  6
Continuous
 62
     7
100
AcDbCircle
 10
203.2998
 20
214.040862
 30
0.0
 40
0.211837
100
AcDbArc
 50
100.808786
 51
180.0
  0
ARC
  5
13A
100
AcDbEntity
  8
129
370
     9
  6
Continuous
 62
     7
100
AcDbCircle
 10
225.508423
 20
188.562872
 30
0.0
 40
0.199989
100
AcDbArc
 50
178.023892
 51
-1.976108
  0
ARC
  5
13B
100
AcDbEntity
  8
129
370
     9
  6
Continuous
 62
     7
100
AcDbCircle
 10
239.9998
 20
21.812872
 30
0.0
 40
204.169021
100
AcDbArc
 50
77.89173
 51
102.10827
  0
ARC
  5
13C
100
AcDbEntity
  8
129
370
     9
  6
Continuous
 62
     7
100
AcDbCircle
 10
239.9998
 20
21.812872
 30
0.0
 40
203.5
100
AcDbArc
 50
94.22711
 51
94.368283
  0
ARC
  5
13D
100
AcDbEntity
  8
129
370
     9
  6
Continuous
 62
     7
100
AcDbCircle
 10
239.9998
 20
21.812872
 30
0.0
 40
203.5
100
AcDbArc
 50
98.353357
 51
98.495669
  0
ARC
  5
13E
100
AcDbEntity
  8
129
370
     9
  6
Continuous
 62
     7
100
AcDbCircle
 10
239.9998
 20
21.812872
 30
0.0
 40
203.0
100
AcDbArc
 50
77.999467
 51
94.23754
  0
ARC
  5
13F
100
AcDbEntity
  8
129
370
     9
  6
Continuous
 62
     7
100
AcDbCircle
 10
239.9998
 20
21.812872
 30
0.0
 40
203.0
100
AcDbArc
 50
94.379063
 51
98.374079
  0
ARC
  5
140
100
AcDbEntity
  8
129
370
     9
  6
Continuous
 62
     7
100
AcDbCircle
 10
239.9998
 20
21.812872
 30
0.0
 40
203.0
100
AcDbArc
 50
98.516749
 51
102.000533
  0
ARC
  5
141
100
AcDbEntity
  8
129
370
     9
  6
Continuous
 62
     7
100
AcDbCircle
 10
239.9998
 20
21.812872
 30
0.0
 40
202.711325
100
AcDbArc
 50
77.999467
 51
94.243586
  0
ARC
  5
142
100
AcDbEntity
  8
129
370
     9
  6
Continuous
 62
     7
100
AcDbCircle
 10
239.9998
 20
21.812872
 30
0.0
 40
202.711325
100
AcDbArc
 50
98.528968
 51
102.000533
  0
ARC
  5
143
100
AcDbEntity
  8
129
370
     9
  6
Continuous
 62
     7
100
AcDbCircle
 10
239.9998
 20
21.812872
 30
0.0
 40
202.711325
100
AcDbArc
 50
94.385311
 51
98.386091
  0
ARC
  5
144
100
AcDbEntity
  8
129
370
     9
  6
Continuous
 62
     7
100
AcDbCircle
 10
239.9998
 20
21.812872
 30
0.0
 40
200.446891
100
AcDbArc
 50
94.514195
 51
98.382195
  0
ARC
  5
145
100
AcDbEntity
  8
129
370
     9
  6
Continuous
 62
     7
100
AcDbCircle
 10
239.9998
 20
21.812872
 30
0.0
 40
198.446891
100
AcDbArc
 50
94.468456
 51
98.545947
  0
ARC
  5
146
100
AcDbEntity
  8
129
370
     9
  6
Continuous
 62
     7
100
AcDbCircle
 10
239.9998
 20
21.812872
 30
0.0
 40
197.588163
100
AcDbArc
 50
79.295101
 51
101.001792
  0
ARC
  5
147
100
AcDbEntity
  8
129
370
     9
  6
Continuous
 62
     7
100
AcDbCircle
 10
239.9998
 20
21.812872
 30
0.0
 40
197.24827
100
AcDbArc
 50
79.295101
 51
101.001792
  0
ARC
  5
148
100
AcDbEntity
  8
129
370
     9
  6
Continuous
 62
     7
100
AcDbCircle
 10
239.9998
 20
21.812872
 30
0.0
 40
196.25173
100
AcDbArc
 50
79.489129
 51
100.808786
  0
ARC
  5
149
100
AcDbEntity
  8
129
370
     9
  6
Continuous
 62
     7
100
AcDbCircle
 10
239.9998
 20
21.812872
 30
0.0
 40
195.911837
100
AcDbArc
 50
79.489129
 51
100.808786
  0
ARC
  5
14A
100
AcDbEntity
  8
129
370
     9
  6
Continuous
 62
     7
100
AcDbCircle
 10
239.9998
 20
99.812872
 30
0.0
 40
15.0
100
AcDbArc
 50
1.976108
 51
178.023892
  0
ARC
  5
14B
100
AcDbEntity
  8
129
370
     9
  6
Continuous
 62
     7
100
AcDbCircle
 10
239.9998
 20
99.812872
 30
0.0
 40
14.699998
100
AcDbArc
 50
1.976108
 51
178.023892
  0
ARC
  5
14C
100
AcDbEntity
  8
129
370
     9
  6
Continuous
 62
     7
100
AcDbCircle
 10
239.9998
 20
99.812872
 30
0.0
 40
14.299998
100
AcDbArc
 50
1.976108
 51
178.023892
  0
ARC
  5
14D
100
AcDbEntity
  8
129
370
     9
  6
Continuous
 62
     7
100
AcDbCircle
 10
239.9998
 20
99.812872
 30
0.0
 40
14.0
100
AcDbArc
 50
1.976108
 51
178.023892
  0
ARC
  5
14E
100
AcDbEntity
  8
129
370
     9
  6
Continuous
 62
     7
100
AcDbCircle
 10
239.9998
 20
104.562872
 30
0.0
 40
6.75
100
AcDbArc
 50
25.0
 51
155.0
  0
ARC
  5
14F
100
AcDbEntity
  8
129
370
     9
  6
Continuous
 62
     7
100
AcDbCircle
 10
239.9998
 20
104.562872
 30
0.0
 40
6.25
100
AcDbArc
 50
25.002054
 51
155.0
  0
ARC
  5
150
100
AcDbEntity
  8
129
370
     9
  6
Continuous
 62
     7
100
AcDbCircle
 10
239.9998
 20
104.562872
 30
0.0
 40
5.75
100
AcDbArc
 50
25.002054
 51
155.0
  0
ARC
  5
151
100
AcDbEntity
  8
129
370
     9
  6
Continuous
 62
     7
100
AcDbCircle
 10
240.9998
 20
104.462872
 30
0.0
 40
2.0
100
AcDbArc
 50
-90.002818
 51
0.0
  0
ARC
  5
152
100
AcDbEntity
  8
129
370
     9
  6
Continuous
 62
     7
100
AcDbCircle
 10
240.9998
 20
104.662872
 30
0.0
 40
2.0
100
AcDbArc
 50
0.0
 51
90.0
  0
ARC
  5
153
100
AcDbEntity
  8
129
370
     9
  6
Continuous
 62
     7
100
AcDbCircle
 10
254.491177
 20
100.312872
 30
0.0
 40
0.5
100
AcDbArc
 50
-178.023892
 51
1.976108
  0
ARC
  5
154
100
AcDbEntity
  8
129
370
     9
  6
Continuous
 62
     7
100
AcDbCircle
 10
243.7998
 20
74.512872
 30
0.0
 40
0.388163
100
AcDbArc
 50
90.0
 51
180.0
  0
ARC
  5
155
100
AcDbEntity
  8
129
370
     9
  6
Continuous
 62
     7
100
AcDbCircle
 10
243.7998
 20
73.612872
 30
0.0
 40
0.388163
100
AcDbArc
 50
180.0
 51
-90.0
  0
ARC
  5
156
100
AcDbEntity
  8
129
370
     9
  6
Continuous
 62
     7
100
AcDbCircle
 10
254.491177
 20
100.312872
 30
0.0
 40
0.199989
100
AcDbArc
 50
-178.023892
 51
1.976108
  0
ARC
  5
157
100
AcDbEntity
  8
129
370
     9
  6
Continuous
 62
     7
100
AcDbCircle
 10
243.7998
 20
73.612872
 30
0.0
 40
0.048265
100
AcDbArc
 50
180.0
 51
-90.0
  0
ARC
  5
158
100
AcDbEntity
  8
129
370
     9
  6
Continuous
 62
     7
100
AcDbCircle
 10
243.7998
 20
74.512872
 30
0.0
 40
0.048265
100
AcDbArc
 50
90.0
 51
180.0
  0
ARC
  5
159
100
AcDbEntity
  8
129
370
     9
  6
Continuous
 62
     7
100
AcDbCircle
 10
282.470021
 20
69.342655
 30
0.0
 40
1.698809
100
AcDbArc
 50
-90.005519
 51
0.005404
  0
ARC
  5
15A
100
AcDbEntity
  8
129
370
     9
  6
Continuous
 62
     7
100
AcDbCircle
 10
276.4998
 20
74.312872
 30
0.0
 40
1.088163
100
AcDbArc
 50
-90.0
 51
0.0
  0
ARC
  5
15B
100
AcDbEntity
  8
129
370
     9
  6
Continuous
 62
     7
100
AcDbCircle
 10
281.9998
 20
69.812872
 30
0.0
 40
1.0
100
AcDbArc
 50
-90.0
 51
0.0
  0
ARC
  5
15C
100
AcDbEntity
  8
129
370
     9
  6
Continuous
 62
     7
100
AcDbCircle
 10
276.4998
 20
74.312872
 30
0.0
 40
0.748269
100
AcDbArc
 50
-90.0
 51
0.0
  0
ARC
  5
15D
100
AcDbEntity
  8
129
370
     9
  6
Continuous
 62
     7
100
AcDbCircle
 10
281.9998
 20
69.812872
 30
0.0
 40
0.711325
100
AcDbArc
 50
-90.0
 51
0.0
  0
ARC
  5
15E
100
AcDbEntity
  8
129
370
     9
  6
Continuous
 62
     7
100
AcDbCircle
 10
275.6998
 20
75.112872
 30
0.0
 40
0.551729
100
AcDbArc
 50
-90.0
 51
0.0
  0
ARC
  5
15F
100
AcDbEntity
  8
129
370
     9
  6
Continuous
 62
     7
100
AcDbCircle
 10
275.6998
 20
75.112872
 30
0.0
 40
0.211837
100
AcDbArc
 50
-90.0
 51
0.0
  0
CIRCLE
  5
160
100
AcDbEntity
  8
129
370
     9
  6
Continuous
 62
     7
100
AcDbCircle
 10
239.9998
 20
146.712872
 30
0.0
 40
14.0
  0
CIRCLE
  5
161
100
AcDbEntity
  8
129
370
     9
  6
Continuous
 62
     7
100
AcDbCircle
 10
239.9998
 20
146.712872
 30
0.0
 40
13.699998
  0
CIRCLE
  5
162
100
AcDbEntity
  8
129
370
     9
  6
Continuous
 62
     7
100
AcDbCircle
 10
239.9998
 20
146.712872
 30
0.0
 40
13.0
  0
ARC
  5
163
100
AcDbEntity
  8
129
370
     9
  6
Continuous
 62
     7
100
AcDbCircle
 10
239.9998
 20
146.712872
 30
0.0
 40
12.5
100
AcDbArc
 50
0.458351
 51
179.541649
  0
ARC
  5
164
100
AcDbEntity
  8
129
370
     9
  6
Continuous
 62
     7
100
AcDbCircle
 10
239.9998
 20
146.812872
 30
0.0
 40
12.5
100
AcDbArc
 50
180.0
 51
0.0
  0
ARC
  5
165
100
AcDbEntity
  8
129
370
     9
  6
Continuous
 62
     7
100
AcDbCircle
 10
239.9998
 20
146.712872
 30
0.0
 40
12.5
100
AcDbArc
 50
179.999995
 51
0.000005
  0
ARC
  5
166
100
AcDbEntity
  8
129
370
     9
  6
Continuous
 62
     7
100
AcDbCircle
 10
239.9998
 20
188.062872
 30
0.0
 40
15.0
100
AcDbArc
 50
1.976108
 51
178.023892
  0
ARC
  5
167
100
AcDbEntity
  8
129
370
     9
  6
Continuous
 62
     7
100
AcDbCircle
 10
239.9998
 20
188.062872
 30
0.0
 40
14.699998
100
AcDbArc
 50
1.976108
 51
178.023892
  0
ARC
  5
168
100
AcDbEntity
  8
129
370
     9
  6
Continuous
 62
     7
100
AcDbCircle
 10
239.9998
 20
188.062872
 30
0.0
 40
14.299998
100
AcDbArc
 50
1.976108
 51
178.023892
  0
ARC
  5
169
100
AcDbEntity
  8
129
370
     9
  6
Continuous
 62
     7
100
AcDbCircle
 10
239.9998
 20
188.062872
 30
0.0
 40
14.0
100
AcDbArc
 50
1.976108
 51
178.023892
  0
ARC
  5
16A
100
AcDbEntity
  8
129
370
     9
  6
Continuous
 62
     7
100
AcDbCircle
 10
239.9998
 20
188.062872
 30
0.0
 40
6.75
100
AcDbArc
 50
-155.0
 51
-25.0
  0
ARC
  5
16B
100
AcDbEntity
  8
129
370
     9
  6
Continuous
 62
     7
100
AcDbCircle
 10
239.9998
 20
188.062872
 30
0.0
 40
6.25
100
AcDbArc
 50
-155.0
 51
-25.0
  0
ARC
  5
16C
100
AcDbEntity
  8
129
370
     9
  6
Continuous
 62
     7
100
AcDbCircle
 10
239.9998
 20
188.062872
 30
0.0
 40
5.75
100
AcDbArc
 50
-155.0
 51
-25.0
  0
ARC
  5
16D
100
AcDbEntity
  8
129
370
     9
  6
Continuous
 62
     7
100
AcDbCircle
 10
240.9998
 20
187.962872
 30
0.0
 40
2.0
100
AcDbArc
 50
-90.0
 51
0.0
  0
ARC
  5
16E
100
AcDbEntity
  8
129
370
     9
  6
Continuous
 62
     7
100
AcDbCircle
 10
240.9998
 20
188.162872
 30
0.0
 40
2.0
100
AcDbArc
 50
0.0
 51
90.0
  0
ARC
  5
16F
100
AcDbEntity
  8
129
370
     9
  6
Continuous
 62
     7
100
AcDbCircle
 10
254.491177
 20
188.562872
 30
0.0
 40
0.5
100
AcDbArc
 50
-178.023892
 51
1.976108
  0
ARC
  5
170
100
AcDbEntity
  8
129
370
     9
  6
Continuous
 62
     7
100
AcDbCircle
 10
254.491177
 20
188.562872
 30
0.0
 40
0.199989
100
AcDbArc
 50
-178.023892
 51
1.976108
  0
ARC
  5
171
100
AcDbEntity
  8
129
370
     9
  6
Continuous
 62
     7
100
AcDbCircle
 10
282.469877
 20
219.778588
 30
0.0
 40
1.698957
100
AcDbArc
 50
-0.00055
 51
77.89228
  0
ARC
  5
172
100
AcDbEntity
  8
129
370
     9
  6
Continuous
 62
     7
100
AcDbCircle
 10
276.4998
 20
214.893166
 30
0.0
 40
1.088163
100
AcDbArc
 50
0.0
 51
79.295101
  0
ARC
  5
173
100
AcDbEntity
  8
129
370
     9
  6
Continuous
 62
     7
100
AcDbCircle
 10
281.9998
 20
219.398297
 30
0.0
 40
1.0
100
AcDbArc
 50
0.0
 51
77.999467
  0
ARC
  5
174
100
AcDbEntity
  8
129
370
     9
  6
Continuous
 62
     7
100
AcDbCircle
 10
276.4998
 20
214.893166
 30
0.0
 40
0.74826
100
AcDbArc
 50
0.0
 51
79.295101
  0
ARC
  5
175
100
AcDbEntity
  8
129
370
     9
  6
Continuous
 62
     7
100
AcDbCircle
 10
281.9998
 20
219.398297
 30
0.0
 40
0.711325
100
AcDbArc
 50
0.0
 51
77.999467
  0
ARC
  5
176
100
AcDbEntity
  8
129
370
     9
  6
Continuous
 62
     7
100
AcDbCircle
 10
275.6998
 20
214.229088
 30
0.0
 40
0.551724
100
AcDbArc
 50
0.0
 51
79.489129
  0
ARC
  5
177
100
AcDbEntity
  8
129
370
     9
  6
Continuous
 62
     7
100
AcDbCircle
 10
275.6998
 20
214.229088
 30
0.0
 40
0.211837
100
AcDbArc
 50
0.0
 51
79.489129
  0
POLYLINE
  5
178
100
AcDbEntity
  8
129
370
     9
  6
Continuous
 62
     7
100
AcDb2dPolyline
 66
     1
 10
0.0
 20
0.0
 30
0.0
 70
     2
  0
VERTEX
  5
179
100
AcDbEntity
  8
129
370
     9
  6
Continuous
 62
     7
100
AcDbVertex
100
AcDb2dVertex
 10
202.4998
 20
73.224709
 30
0.0
  0
VERTEX
  5
17A
100
AcDbEntity
  8
129
370
     9
  6
Continuous
 62
     7
100
AcDbVertex
100
AcDb2dVertex
 10
202.830473
 20
73.224709
 30
0.0
  0
VERTEX
  5
17B
100
AcDbEntity
  8
129
370
     9
  6
Continuous
 62
     7
100
AcDbVertex
100
AcDb2dVertex
 10
202.899914
 20
73.224709
 30
0.0
  0
VERTEX
  5
17C
100
AcDbEntity
  8
129
370
     9
  6
Continuous
 62
     7
100
AcDbVertex
100
AcDb2dVertex
 10
202.975969
 20
73.224708
 30
0.0
  0
VERTEX
  5
17D
100
AcDbEntity
  8
129
370
     9
  6
Continuous
 62
     7
100
AcDbVertex
100
AcDb2dVertex
 10
203.058637
 20
73.224708
 30
0.0
  0
VERTEX
  5
17E
100
AcDbEntity
  8
129
370
     9
  6
Continuous
 62
     7
100
AcDbVertex
100
AcDb2dVertex
 10
203.147918
 20
73.224708
 30
0.0
  0
VERTEX
  5
17F
100
AcDbEntity
  8
129
370
     9
  6
Continuous
 62
     7
100
AcDbVertex
100
AcDb2dVertex
 10
203.243814
 20
73.224707
 30
0.0
  0
VERTEX
  5
180
100
AcDbEntity
  8
129
370
     9
  6
Continuous
 62
     7
100
AcDbVertex
100
AcDb2dVertex
 10
203.346322
 20
73.224706
 30
0.0
  0
VERTEX
  5
181
100
AcDbEntity
  8
129
370
     9
  6
Continuous
 62
     7
100
AcDbVertex
100
AcDb2dVertex
 10
203.455444
 20
73.224705
 30
0.0
  0
VERTEX
  5
182
100
AcDbEntity
  8
129
370
     9
  6
Continuous
 62
     7
100
AcDbVertex
100
AcDb2dVertex
 10
203.57118
 20
73.224704
 30
0.0
  0
VERTEX
  5
183
100
AcDbEntity
  8
129
370
     9
  6
Continuous
 62
     7
100
AcDbVertex
100
AcDb2dVertex
 10
203.693528
 20
73.224703
 30
0.0
  0
VERTEX
  5
184
100
AcDbEntity
  8
129
370
     9
  6
Continuous
 62
     7
100
AcDbVertex
100
AcDb2dVertex
 10
203.822491
 20
73.224702
 30
0.0
  0
VERTEX
  5
185
100
AcDbEntity
  8
129
370
     9
  6
Continuous
 62
     7
100
AcDbVertex
100
AcDb2dVertex
 10
203.956413
 20
73.224701
 30
0.0
  0
VERTEX
  5
186
100
AcDbEntity
  8
129
370
     9
  6
Continuous
 62
     7
100
AcDbVertex
100
AcDb2dVertex
 10
204.093642
 20
73.2247
 30
0.0
  0
VERTEX
  5
187
100
AcDbEntity
  8
129
370
     9
  6
Continuous
 62
     7
100
AcDbVertex
100
AcDb2dVertex
 10
204.234178
 20
73.224701
 30
0.0
  0
VERTEX
  5
188
100
AcDbEntity
  8
129
370
     9
  6
Continuous
 62
     7
100
AcDbVertex
100
AcDb2dVertex
 10
204.378021
 20
73.224701
 30
0.0
  0
VERTEX
  5
189
100
AcDbEntity
  8
129
370
     9
  6
Continuous
 62
     7
100
AcDbVertex
100
AcDb2dVertex
 10
204.52517
 20
73.224703
 30
0.0
  0
VERTEX
  5
18A
100
AcDbEntity
  8
129
370
     9
  6
Continuous
 62
     7
100
AcDbVertex
100
AcDb2dVertex
 10
204.675626
 20
73.224705
 30
0.0
  0
VERTEX
  5
18B
100
AcDbEntity
  8
129
370
     9
  6
Continuous
 62
     7
100
AcDbVertex
100
AcDb2dVertex
 10
204.829389
 20
73.224708
 30
0.0
  0
VERTEX
  5
18C
100
AcDbEntity
  8
129
370
     9
  6
Continuous
 62
     7
100
AcDbVertex
100
AcDb2dVertex
 10
204.986458
 20
73.224711
 30
0.0
  0
VERTEX
  5
18D
100
AcDbEntity
  8
129
370
     9
  6
Continuous
 62
     7
100
AcDbVertex
100
AcDb2dVertex
 10
205.146835
 20
73.224715
 30
0.0
  0
VERTEX
  5
18E
100
AcDbEntity
  8
129
370
     9
  6
Continuous
 62
     7
100
AcDbVertex
100
AcDb2dVertex
 10
205.310518
 20
73.224719
 30
0.0
  0
VERTEX
  5
18F
100
AcDbEntity
  8
129
370
     9
  6
Continuous
 62
     7
100
AcDbVertex
100
AcDb2dVertex
 10
205.4742
 20
73.224723
 30
0.0
  0
VERTEX
  5
190
100
AcDbEntity
  8
129
370
     9
  6
Continuous
 62
     7
100
AcDbVertex
100
AcDb2dVertex
 10
205.634577
 20
73.224726
 30
0.0
  0
VERTEX
  5
191
100
AcDbEntity
  8
129
370
     9
  6
Continuous
 62
     7
100
AcDbVertex
100
AcDb2dVertex
 10
205.791646
 20
73.224727
 30
0.0
  0
VERTEX
  5
192
100
AcDbEntity
  8
129
370
     9
  6
Continuous
 62
     7
100
AcDbVertex
100
AcDb2dVertex
 10
205.945409
 20
73.224726
 30
0.0
  0
VERTEX
  5
193
100
AcDbEntity
  8
129
370
     9
  6
Continuous
 62
     7
100
AcDbVertex
100
AcDb2dVertex
 10
206.095865
 20
73.224724
 30
0.0
  0
VERTEX
  5
194
100
AcDbEntity
  8
129
370
     9
  6
Continuous
 62
     7
100
AcDbVertex
100
AcDb2dVertex
 10
206.243015
 20
73.22472
 30
0.0
  0
VERTEX
  5
195
100
AcDbEntity
  8
129
370
     9
  6
Continuous
 62
     7
100
AcDbVertex
100
AcDb2dVertex
 10
206.386857
 20
73.224714
 30
0.0
  0
VERTEX
  5
196
100
AcDbEntity
  8
129
370
     9
  6
Continuous
 62
     7
100
AcDbVertex
100
AcDb2dVertex
 10
206.527393
 20
73.224707
 30
0.0
  0
VERTEX
  5
197
100
AcDbEntity
  8
129
370
     9
  6
Continuous
 62
     7
100
AcDbVertex
100
AcDb2dVertex
 10
206.664623
 20
73.224699
 30
0.0
  0
VERTEX
  5
198
100
AcDbEntity
  8
129
370
     9
  6
Continuous
 62
     7
100
AcDbVertex
100
AcDb2dVertex
 10
206.798545
 20
73.224689
 30
0.0
  0
VERTEX
  5
199
100
AcDbEntity
  8
129
370
     9
  6
Continuous
 62
     7
100
AcDbVertex
100
AcDb2dVertex
 10
206.928334
 20
73.22468
 30
0.0
  0
VERTEX
  5
19A
100
AcDbEntity
  8
129
370
     9
  6
Continuous
 62
     7
100
AcDbVertex
100
AcDb2dVertex
 10
207.053163
 20
73.224675
 30
0.0
  0
VERTEX
  5
19B
100
AcDbEntity
  8
129
370
     9
  6
Continuous
 62
     7
100
AcDbVertex
100
AcDb2dVertex
 10
207.173032
 20
73.224675
 30
0.0
  0
VERTEX
  5
19C
100
AcDbEntity
  8
129
370
     9
  6
Continuous
 62
     7
100
AcDbVertex
100
AcDb2dVertex
 10
207.287941
 20
73.22468
 30
0.0
  0
VERTEX
  5
19D
100
AcDbEntity
  8
129
370
     9
  6
Continuous
 62
     7
100
AcDbVertex
100
AcDb2dVertex
 10
207.39789
 20
73.224689
 30
0.0
  0
VERTEX
  5
19E
100
AcDbEntity
  8
129
370
     9
  6
Continuous
 62
     7
100
AcDbVertex
100
AcDb2dVertex
 10
207.502878
 20
73.224702
 30
0.0
  0
VERTEX
  5
19F
100
AcDbEntity
  8
129
370
     9
  6
Continuous
 62
     7
100
AcDbVertex
100
AcDb2dVertex
 10
207.602906
 20
73.224719
 30
0.0
  0
VERTEX
  5
1A0
100
AcDbEntity
  8
129
370
     9
  6
Continuous
 62
     7
100
AcDbVertex
100
AcDb2dVertex
 10
207.697975
 20
73.224741
 30
0.0
  0
VERTEX
  5
1A1
100
AcDbEntity
  8
129
370
     9
  6
Continuous
 62
     7
100
AcDbVertex
100
AcDb2dVertex
 10
207.788082
 20
73.224767
 30
0.0
  0
VERTEX
  5
1A2
100
AcDbEntity
  8
129
370
     9
  6
Continuous
 62
     7
100
AcDbVertex
100
AcDb2dVertex
 10
207.87323
 20
73.224798
 30
0.0
  0
VERTEX
  5
1A3
100
AcDbEntity
  8
129
370
     9
  6
Continuous
 62
     7
100
AcDbVertex
100
AcDb2dVertex
 10
207.955071
 20
73.224828
 30
0.0
  0
VERTEX
  5
1A4
100
AcDbEntity
  8
129
370
     9
  6
Continuous
 62
     7
100
AcDbVertex
100
AcDb2dVertex
 10
208.035259
 20
73.224851
 30
0.0
  0
VERTEX
  5
1A5
100
AcDbEntity
  8
129
370
     9
  6
Continuous
 62
     7
100
AcDbVertex
100
AcDb2dVertex
 10
208.113794
 20
73.224869
 30
0.0
  0
VERTEX
  5
1A6
100
AcDbEntity
  8
129
370
     9
  6
Continuous
 62
     7
100
AcDbVertex
100
AcDb2dVertex
 10
208.190675
 20
73.22488
 30
0.0
  0
VERTEX
  5
1A7
100
AcDbEntity
  8
129
370
     9
  6
Continuous
 62
     7
100
AcDbVertex
100
AcDb2dVertex
 10
208.265903
 20
73.224885
 30
0.0
  0
VERTEX
  5
1A8
100
AcDbEntity
  8
129
370
     9
  6
Continuous
 62
     7
100
AcDbVertex
100
AcDb2dVertex
 10
208.339478
 20
73.224883
 30
0.0
  0
VERTEX
  5
1A9
100
AcDbEntity
  8
129
370
     9
  6
Continuous
 62
     7
100
AcDbVertex
100
AcDb2dVertex
 10
208.4114
 20
73.224876
 30
0.0
  0
VERTEX
  5
1AA
100
AcDbEntity
  8
129
370
     9
  6
Continuous
 62
     7
100
AcDbVertex
100
AcDb2dVertex
 10
208.481668
 20
73.224862
 30
0.0
  0
VERTEX
  5
1AB
100
AcDbEntity
  8
129
370
     9
  6
Continuous
 62
     7
100
AcDbVertex
100
AcDb2dVertex
 10
208.550284
 20
73.224842
 30
0.0
  0
VERTEX
  5
1AC
100
AcDbEntity
  8
129
370
     9
  6
Continuous
 62
     7
100
AcDbVertex
100
AcDb2dVertex
 10
208.617246
 20
73.224816
 30
0.0
  0
VERTEX
  5
1AD
100
AcDbEntity
  8
129
370
     9
  6
Continuous
 62
     7
100
AcDbVertex
100
AcDb2dVertex
 10
208.682554
 20
73.224782
 30
0.0
  0
VERTEX
  5
1AE
100
AcDbEntity
  8
129
370
     9
  6
Continuous
 62
     7
100
AcDbVertex
100
AcDb2dVertex
 10
208.746209
 20
73.22474
 30
0.0
  0
VERTEX
  5
1AF
100
AcDbEntity
  8
129
370
     9
  6
Continuous
 62
     7
100
AcDbVertex
100
AcDb2dVertex
 10
208.80821
 20
73.224689
 30
0.0
  0
VERTEX
  5
1B0
100
AcDbEntity
  8
129
370
     9
  6
Continuous
 62
     7
100
AcDbVertex
100
AcDb2dVertex
 10
208.868558
 20
73.224628
 30
0.0
  0
VERTEX
  5
1B1
100
AcDbEntity
  8
129
370
     9
  6
Continuous
 62
     7
100
AcDbVertex
100
AcDb2dVertex
 10
208.927251
 20
73.224559
 30
0.0
  0
VERTEX
  5
1B2
100
AcDbEntity
  8
129
370
     9
  6
Continuous
 62
     7
100
AcDbVertex
100
AcDb2dVertex
 10
208.984292
 20
73.224481
 30
0.0
  0
VERTEX
  5
1B3
100
AcDbEntity
  8
129
370
     9
  6
Continuous
 62
     7
100
AcDbVertex
100
AcDb2dVertex
 10
209.039678
 20
73.224394
 30
0.0
  0
VERTEX
  5
1B4
100
AcDbEntity
  8
129
370
     9
  6
Continuous
 62
     7
100
AcDbVertex
100
AcDb2dVertex
 10
209.093411
 20
73.224299
 30
0.0
  0
VERTEX
  5
1B5
100
AcDbEntity
  8
129
370
     9
  6
Continuous
 62
     7
100
AcDbVertex
100
AcDb2dVertex
 10
209.14549
 20
73.224194
 30
0.0
  0
VERTEX
  5
1B6
100
AcDbEntity
  8
129
370
     9
  6
Continuous
 62
     7
100
AcDbVertex
100
AcDb2dVertex
 10
209.195915
 20
73.224081
 30
0.0
  0
VERTEX
  5
1B7
100
AcDbEntity
  8
129
370
     9
  6
Continuous
 62
     7
100
AcDbVertex
100
AcDb2dVertex
 10
209.245515
 20
73.224004
 30
0.0
  0
VERTEX
  5
1B8
100
AcDbEntity
  8
129
370
     9
  6
Continuous
 62
     7
100
AcDbVertex
100
AcDb2dVertex
 10
209.295115
 20
73.224008
 30
0.0
  0
VERTEX
  5
1B9
100
AcDbEntity
  8
129
370
     9
  6
Continuous
 62
     7
100
AcDbVertex
100
AcDb2dVertex
 10
209.344716
 20
73.224095
 30
0.0
  0
VERTEX
  5
1BA
100
AcDbEntity
  8
129
370
     9
  6
Continuous
 62
     7
100
AcDbVertex
100
AcDb2dVertex
 10
209.394319
 20
73.224263
 30
0.0
  0
VERTEX
  5
1BB
100
AcDbEntity
  8
129
370
     9
  6
Continuous
 62
     7
100
AcDbVertex
100
AcDb2dVertex
 10
209.443922
 20
73.224513
 30
0.0
  0
VERTEX
  5
1BC
100
AcDbEntity
  8
129
370
     9
  6
Continuous
 62
     7
100
AcDbVertex
100
AcDb2dVertex
 10
209.493527
 20
73.224844
 30
0.0
  0
VERTEX
  5
1BD
100
AcDbEntity
  8
129
370
     9
  6
Continuous
 62
     7
100
AcDbVertex
100
AcDb2dVertex
 10
209.543133
 20
73.225257
 30
0.0
  0
VERTEX
  5
1BE
100
AcDbEntity
  8
129
370
     9
  6
Continuous
 62
     7
100
AcDbVertex
100
AcDb2dVertex
 10
209.59274
 20
73.225752
 30
0.0
  0
VERTEX
  5
1BF
100
AcDbEntity
  8
129
370
     9
  6
Continuous
 62
     7
100
AcDbVertex
100
AcDb2dVertex
 10
209.642348
 20
73.226328
 30
0.0
  0
VERTEX
  5
1C0
100
AcDbEntity
  8
129
370
     9
  6
Continuous
 62
     7
100
AcDbVertex
100
AcDb2dVertex
 10
209.691957
 20
73.226987
 30
0.0
  0
VERTEX
  5
1C1
100
AcDbEntity
  8
129
370
     9
  6
Continuous
 62
     7
100
AcDbVertex
100
AcDb2dVertex
 10
209.740738
 20
73.227563
 30
0.0
  0
VERTEX
  5
1C2
100
AcDbEntity
  8
129
370
     9
  6
Continuous
 62
     7
100
AcDbVertex
100
AcDb2dVertex
 10
209.787863
 20
73.227893
 30
0.0
  0
VERTEX
  5
1C3
100
AcDbEntity
  8
129
370
     9
  6
Continuous
 62
     7
100
AcDbVertex
100
AcDb2dVertex
 10
209.833332
 20
73.227977
 30
0.0
  0
VERTEX
  5
1C4
100
AcDbEntity
  8
129
370
     9
  6
Continuous
 62
     7
100
AcDbVertex
100
AcDb2dVertex
 10
209.877144
 20
73.227815
 30
0.0
  0
VERTEX
  5
1C5
100
AcDbEntity
  8
129
370
     9
  6
Continuous
 62
     7
100
AcDbVertex
100
AcDb2dVertex
 10
209.9193
 20
73.227407
 30
0.0
  0
VERTEX
  5
1C6
100
AcDbEntity
  8
129
370
     9
  6
Continuous
 62
     7
100
AcDbVertex
100
AcDb2dVertex
 10
209.9598
 20
73.226753
 30
0.0
  0
VERTEX
  5
1C7
100
AcDbEntity
  8
129
370
     9
  6
Continuous
 62
     7
100
AcDbVertex
100
AcDb2dVertex
 10
209.998643
 20
73.225853
 30
0.0
  0
VERTEX
  5
1C8
100
AcDbEntity
  8
129
370
     9
  6
Continuous
 62
     7
100
AcDbVertex
100
AcDb2dVertex
 10
210.03583
 20
73.224707
 30
0.0
  0
VERTEX
  5
1C9
100
AcDbEntity
  8
129
370
     9
  6
Continuous
 62
     7
100
AcDbVertex
100
AcDb2dVertex
 10
210.07136
 20
73.223315
 30
0.0
  0
VERTEX
  5
1CA
100
AcDbEntity
  8
129
370
     9
  6
Continuous
 62
     7
100
AcDbVertex
100
AcDb2dVertex
 10
210.105235
 20
73.221677
 30
0.0
  0
VERTEX
  5
1CB
100
AcDbEntity
  8
129
370
     9
  6
Continuous
 62
     7
100
AcDbVertex
100
AcDb2dVertex
 10
210.137455
 20
73.220004
 30
0.0
  0
VERTEX
  5
1CC
100
AcDbEntity
  8
129
370
     9
  6
Continuous
 62
     7
100
AcDbVertex
100
AcDb2dVertex
 10
210.168024
 20
73.218507
 30
0.0
  0
VERTEX
  5
1CD
100
AcDbEntity
  8
129
370
     9
  6
Continuous
 62
     7
100
AcDbVertex
100
AcDb2dVertex
 10
210.196942
 20
73.217186
 30
0.0
  0
VERTEX
  5
1CE
100
AcDbEntity
  8
129
370
     9
  6
Continuous
 62
     7
100
AcDbVertex
100
AcDb2dVertex
 10
210.224208
 20
73.216042
 30
0.0
  0
VERTEX
  5
1CF
100
AcDbEntity
  8
129
370
     9
  6
Continuous
 62
     7
100
AcDbVertex
100
AcDb2dVertex
 10
210.249824
 20
73.215073
 30
0.0
  0
VERTEX
  5
1D0
100
AcDbEntity
  8
129
370
     9
  6
Continuous
 62
     7
100
AcDbVertex
100
AcDb2dVertex
 10
210.273788
 20
73.214281
 30
0.0
  0
VERTEX
  5
1D1
100
AcDbEntity
  8
129
370
     9
  6
Continuous
 62
     7
100
AcDbVertex
100
AcDb2dVertex
 10
210.296101
 20
73.213665
 30
0.0
  0
VERTEX
  5
1D2
100
AcDbEntity
  8
129
370
     9
  6
Continuous
 62
     7
100
AcDbVertex
100
AcDb2dVertex
 10
210.316762
 20
73.213224
 30
0.0
  0
VERTEX
  5
1D3
100
AcDbEntity
  8
129
370
     9
  6
Continuous
 62
     7
100
AcDbVertex
100
AcDb2dVertex
 10
210.335773
 20
73.21296
 30
0.0
  0
VERTEX
  5
1D4
100
AcDbEntity
  8
129
370
     9
  6
Continuous
 62
     7
100
AcDbVertex
100
AcDb2dVertex
 10
210.353132
 20
73.212872
 30
0.0
  0
VERTEX
  5
1D5
100
AcDbEntity
  8
129
370
     9
  6
Continuous
 62
     7
100
AcDbVertex
100
AcDb2dVertex
 10
210.4358
 20
73.212872
 30
0.0
  0
SEQEND
  5
1D6
100
AcDbEntity
  8
129
370
     9
  6
Continuous
 62
     7
  0
ELLIPSE
  5
1D7
100
AcDbEntity
  8
129
370
     9
  6
Continuous
 62
     7
100
AcDbEllipse
 10
241.4998
 20
66.830333
 30
0.0
 11
0.5
 21
0.0
 31
0.0
210
0.0
220
0.0
230
1.0
 40
0.034921
 41
0.0
 42
1.5707963267950753
  0
ELLIPSE
  5
1D8
100
AcDbEntity
  8
129
370
     9
  6
Continuous
 62
     7
100
AcDbEllipse
 10
238.4998
 20
66.830333
 30
0.0
 11
0.5
 21
0.0
 31
0.0
210
0.0
220
0.0
230
1.0
 40
0.034921
 41
1.5707963267950753
 42
3.14159265358979
  0
POLYLINE
  5
1D9
100
AcDbEntity
  8
129
370
     9
  6
Continuous
 62
     7
100
AcDb2dPolyline
 66
     1
 10
0.0
 20
0.0
 30
0.0
  0
VERTEX
  5
1DA
100
AcDbEntity
  8
129
370
     9
  6
Continuous
 62
     7
100
AcDbVertex
100
AcDb2dVertex
 10
224.715615
 20
73.224742
 30
0.0
  0
VERTEX
  5
1DB
100
AcDbEntity
  8
129
370
     9
  6
Continuous
 62
     7
100
AcDbVertex
100
AcDb2dVertex
 10
225.557445
 20
73.224737
 30
0.0
  0
VERTEX
  5
1DC
100
AcDbEntity
  8
129
370
     9
  6
Continuous
 62
     7
100
AcDbVertex
100
AcDb2dVertex
 10
226.371104
 20
73.224733
 30
0.0
  0
VERTEX
  5
1DD
100
AcDbEntity
  8
129
370
     9
  6
Continuous
 62
     7
100
AcDbVertex
100
AcDb2dVertex
 10
227.156592
 20
73.22473
 30
0.0
  0
VERTEX
  5
1DE
100
AcDbEntity
  8
129
370
     9
  6
Continuous
 62
     7
100
AcDbVertex
100
AcDb2dVertex
 10
227.91391
 20
73.224726
 30
0.0
  0
VERTEX
  5
1DF
100
AcDbEntity
  8
129
370
     9
  6
Continuous
 62
     7
100
AcDbVertex
100
AcDb2dVertex
 10
228.643058
 20
73.224723
 30
0.0
  0
VERTEX
  5
1E0
100
AcDbEntity
  8
129
370
     9
  6
Continuous
 62
     7
100
AcDbVertex
100
AcDb2dVertex
 10
229.344034
 20
73.22472
 30
0.0
  0
VERTEX
  5
1E1
100
AcDbEntity
  8
129
370
     9
  6
Continuous
 62
     7
100
AcDbVertex
100
AcDb2dVertex
 10
230.016841
 20
73.224717
 30
0.0
  0
VERTEX
  5
1E2
100
AcDbEntity
  8
129
370
     9
  6
Continuous
 62
     7
100
AcDbVertex
100
AcDb2dVertex
 10
230.661476
 20
73.224715
 30
0.0
  0
VERTEX
  5
1E3
100
AcDbEntity
  8
129
370
     9
  6
Continuous
 62
     7
100
AcDbVertex
100
AcDb2dVertex
 10
231.277941
 20
73.224713
 30
0.0
  0
VERTEX
  5
1E4
100
AcDbEntity
  8
129
370
     9
  6
Continuous
 62
     7
100
AcDbVertex
100
AcDb2dVertex
 10
231.866236
 20
73.224711
 30
0.0
  0
VERTEX
  5
1E5
100
AcDbEntity
  8
129
370
     9
  6
Continuous
 62
     7
100
AcDbVertex
100
AcDb2dVertex
 10
232.42636
 20
73.224709
 30
0.0
  0
VERTEX
  5
1E6
100
AcDbEntity
  8
129
370
     9
  6
Continuous
 62
     7
100
AcDbVertex
100
AcDb2dVertex
 10
232.958313
 20
73.224708
 30
0.0
  0
VERTEX
  5
1E7
100
AcDbEntity
  8
129
370
     9
  6
Continuous
 62
     7
100
AcDbVertex
100
AcDb2dVertex
 10
233.462096
 20
73.224707
 30
0.0
  0
VERTEX
  5
1E8
100
AcDbEntity
  8
129
370
     9
  6
Continuous
 62
     7
100
AcDbVertex
100
AcDb2dVertex
 10
233.937708
 20
73.224707
 30
0.0
  0
VERTEX
  5
1E9
100
AcDbEntity
  8
129
370
     9
  6
Continuous
 62
     7
100
AcDbVertex
100
AcDb2dVertex
 10
234.38515
 20
73.224706
 30
0.0
  0
VERTEX
  5
1EA
100
AcDbEntity
  8
129
370
     9
  6
Continuous
 62
     7
100
AcDbVertex
100
AcDb2dVertex
 10
234.804421
 20
73.224706
 30
0.0
  0
VERTEX
  5
1EB
100
AcDbEntity
  8
129
370
     9
  6
Continuous
 62
     7
100
AcDbVertex
100
AcDb2dVertex
 10
235.195522
 20
73.224706
 30
0.0
  0
VERTEX
  5
1EC
100
AcDbEntity
  8
129
370
     9
  6
Continuous
 62
     7
100
AcDbVertex
100
AcDb2dVertex
 10
235.558452
 20
73.224707
 30
0.0
  0
VERTEX
  5
1ED
100
AcDbEntity
  8
129
370
     9
  6
Continuous
 62
     7
100
AcDbVertex
100
AcDb2dVertex
 10
235.893211
 20
73.224708
 30
0.0
  0
VERTEX
  5
1EE
100
AcDbEntity
  8
129
370
     9
  6
Continuous
 62
     7
100
AcDbVertex
100
AcDb2dVertex
 10
236.1998
 20
73.224709
 30
0.0
  0
SEQEND
  5
1EF
100
AcDbEntity
  8
129
370
     9
  6
Continuous
 62
     7
  0
LINE
  5
1F0
100
AcDbEntity
  8
1
370
     9
  6
CENTER
 62
     7
100
AcDbLine
 10
240.0
 20
233.348676
 30
0.0
 11
240.0
 21
60.870676
 31
0.0
  0
LINE
  5
1F1
100
AcDbEntity
  8
129
370
     9
  6
Continuous
 62
     7
100
AcDbLine
 10
69.999224
 20
80.127822
 30
0.0
 11
86.000693
 21
80.127822
 31
0.0
  0
LINE
  5
1F2
100
AcDbEntity
  8
129
370
     9
  6
Continuous
 62
     7
100
AcDbLine
 10
85.940603
 20
81.064404
 30
0.0
 11
70.059397
 21
81.064404
 31
0.0
  0
LINE
  5
1F3
100
AcDbEntity
  8
129
370
     9
  6
Continuous
 62
     7
100
AcDbLine
 10
70.060212
 20
88.552649
 30
0.0
 11
85.939788
 21
88.552649
 31
0.0
  0
LINE
  5
1F4
100
AcDbEntity
  8
129
370
     9
  6
Continuous
 62
     7
100
AcDbLine
 10
86.0
 20
89.495715
 30
0.0
 11
70.0
 21
89.495715
 31
0.0
  0
LINE
  5
1F5
100
AcDbEntity
  8
129
370
     9
  6
Continuous
 62
     7
100
AcDbLine
 10
109.5
 20
94.912872
 30
0.0
 11
46.5
 21
94.912872
 31
0.0
  0
LINE
  5
1F6
100
AcDbEntity
  8
129
370
     9
  6
Continuous
 62
     7
100
AcDbLine
 10
68.817157
 20
88.312872
 30
0.0
 11
68.817157
 21
81.292149
 31
0.0
  0
LINE
  5
1F7
100
AcDbEntity
  8
129
370
     9
  6
Continuous
 62
     7
100
AcDbLine
 10
69.760223
 20
85.812872
 30
0.0
 11
69.760223
 21
88.252661
 31
0.0
  0
LINE
  5
1F8
100
AcDbEntity
  8
129
370
     9
  6
Continuous
 62
     7
100
AcDbLine
 10
69.759508
 20
81.364992
 30
0.0
 11
69.760223
 21
85.812872
 31
0.0
  0
LINE
  5
1F9
100
AcDbEntity
  8
129
370
     9
  6
Continuous
 62
     7
100
AcDbLine
 10
86.239777
 20
85.812872
 30
0.0
 11
86.240492
 21
81.364992
 31
0.0
  0
LINE
  5
1FA
100
AcDbEntity
  8
129
370
     9
  6
Continuous
 62
     7
100
AcDbLine
 10
86.239777
 20
88.252661
 30
0.0
 11
86.239777
 21
85.812872
 31
0.0
  0
LINE
  5
1FB
100
AcDbEntity
  8
129
370
     9
  6
Continuous
 62
     7
100
AcDbLine
 10
87.182843
 20
81.292159
 30
0.0
 11
87.182843
 21
88.312872
 31
0.0
  0
LINE
  5
1FC
100
AcDbEntity
  8
129
370
     9
  6
Continuous
 62
     7
100
AcDbLine
 10
82.5
 20
212.512872
 30
0.0
 11
73.5
 21
212.512872
 31
0.0
  0
LINE
  5
1FD
100
AcDbEntity
  8
129
370
     9
  6
Continuous
 62
     7
100
AcDbLine
 10
82.5
 20
212.812872
 30
0.0
 11
73.5
 21
212.812872
 31
0.0
  0
LINE
  5
1FE
100
AcDbEntity
  8
129
370
     9
  6
Continuous
 62
     7
100
AcDbLine
 10
73.5
 20
213.812872
 30
0.0
 11
82.5
 21
213.812872
 31
0.0
  0
LINE
  5
1FF
100
AcDbEntity
  8
129
370
     9
  6
Continuous
 62
     7
100
AcDbLine
 10
73.5
 20
214.112872
 30
0.0
 11
82.5
 21
214.112872
 31
0.0
  0
ARC
  5
200
100
AcDbEntity
  8
129
370
     9
  6
Continuous
 62
     7
100
AcDbCircle
 10
46.5
 20
96.812872
 30
0.0
 40
1.899982
100
AcDbArc
 50
180.0
 51
-90.0
  0
ARC
  5
201
100
AcDbEntity
  8
129
370
     9
  6
Continuous
 62
     7
100
AcDbCircle
 10
70.000023
 20
81.310841
 30
0.0
 40
1.18302
100
AcDbArc
 50
-179.094651
 51
-90.03872
  0
ARC
  5
202
100
AcDbEntity
  8
129
370
     9
  6
Continuous
 62
     7
100
AcDbCircle
 10
70.059674
 20
81.364571
 30
0.0
 40
0.300166
100
AcDbArc
 50
179.919666
 51
-90.05295
  0
ARC
  5
203
100
AcDbEntity
  8
129
370
     9
  6
Continuous
 62
     7
100
AcDbCircle
 10
85.940326
 20
81.364571
 30
0.0
 40
0.300166
100
AcDbArc
 50
-89.94705
 51
0.080334
  0
ARC
  5
204
100
AcDbEntity
  8
129
370
     9
  6
Continuous
 62
     7
100
AcDbCircle
 10
86.0
 20
88.312872
 30
0.0
 40
1.18284
100
AcDbArc
 50
0.0
 51
90.0
  0
ARC
  5
205
100
AcDbEntity
  8
129
370
     9
  6
Continuous
 62
     7
100
AcDbCircle
 10
70.0
 20
88.312872
 30
0.0
 40
1.18284
100
AcDbArc
 50
90.0
 51
180.0
  0
ARC
  5
206
100
AcDbEntity
  8
129
370
     9
  6
Continuous
 62
     7
100
AcDbCircle
 10
85.939793
 20
88.252665
 30
0.0
 40
0.299984
100
AcDbArc
 50
-0.000781
 51
90.000781
  0
ARC
  5
207
100
AcDbEntity
  8
129
370
     9
  6
Continuous
 62
     7
100
AcDbCircle
 10
70.060208
 20
88.252665
 30
0.0
 40
0.299984
100
AcDbArc
 50
89.999219
 51
-179.999219
  0
ARC
  5
208
100
AcDbEntity
  8
129
370
     9
  6
Continuous
 62
     7
100
AcDbCircle
 10
109.5
 20
96.812872
 30
0.0
 40
1.899982
100
AcDbArc
 50
-90.0
 51
0.0
  0
ARC
  5
209
100
AcDbEntity
  8
129
370
     9
  6
Continuous
 62
     7
100
AcDbCircle
 10
82.5
 20
213.312872
 30
0.0
 40
0.799999
100
AcDbArc
 50
-90.0
 51
90.0
  0
ARC
  5
20A
100
AcDbEntity
  8
129
370
     9
  6
Continuous
 62
     7
100
AcDbCircle
 10
73.5
 20
213.312872
 30
0.0
 40
0.799999
100
AcDbArc
 50
90.0
 51
-90.0
  0
ARC
  5
20B
100
AcDbEntity
  8
129
370
     9
  6
Continuous
 62
     7
100
AcDbCircle
 10
82.5
 20
213.312872
 30
0.0
 40
0.5
100
AcDbArc
 50
-90.0
 51
90.0
  0
ARC
  5
20C
100
AcDbEntity
  8
129
370
     9
  6
Continuous
 62
     7
100
AcDbCircle
 10
73.5
 20
213.312872
 30
0.0
 40
0.5
100
AcDbArc
 50
90.0
 51
-90.0
  0
ELLIPSE
  5
20D
100
AcDbEntity
  8
129
370
     9
  6
Continuous
 62
     7
100
AcDbEllipse
 10
87.490354
 20
85.812872
 30
0.0
 11
0.000000000000193
 21
119.48333333330001
 31
0.0
210
0.0
220
0.0
230
1.0
 40
0.008727
 41
1.5707963267947631
 42
1.5711214546623351
  0
ARC
  5
20E
100
AcDbEntity
  8
129
370
     9
  6
Continuous
 62
     7
100
AcDbCircle
 10
85.999968
 20
81.312728
 30
0.0
 40
1.18302
100
AcDbArc
 50
-89.947763
 51
-0.891832
  0
POLYLINE
  5
20F
100
AcDbEntity
  8
129
370
     9
  6
Continuous
 62
     7
100
AcDb2dPolyline
 66
     1
 10
0.0
 20
0.0
 30
0.0
  0
VERTEX
  5
210
100
AcDbEntity
  8
129
370
     9
  6
Continuous
 62
     7
100
AcDbVertex
100
AcDb2dVertex
 10
86.439769
 20
85.812872
 30
0.0
  0
VERTEX
  5
211
100
AcDbEntity
  8
129
370
     9
  6
Continuous
 62
     7
100
AcDbVertex
100
AcDb2dVertex
 10
86.43977
 20
85.661151
 30
0.0
  0
VERTEX
  5
212
100
AcDbEntity
  8
129
370
     9
  6
Continuous
 62
     7
100
AcDbVertex
100
AcDb2dVertex
 10
86.439772
 20
85.502021
 30
0.0
  0
VERTEX
  5
213
100
AcDbEntity
  8
129
370
     9
  6
Continuous
 62
     7
100
AcDbVertex
100
AcDb2dVertex
 10
86.439775
 20
85.335483
 30
0.0
  0
VERTEX
  5
214
100
AcDbEntity
  8
129
370
     9
  6
Continuous
 62
     7
100
AcDbVertex
100
AcDb2dVertex
 10
86.439779
 20
85.161537
 30
0.0
  0
VERTEX
  5
215
100
AcDbEntity
  8
129
370
     9
  6
Continuous
 62
     7
100
AcDbVertex
100
AcDb2dVertex
 10
86.439784
 20
84.980182
 30
0.0
  0
VERTEX
  5
216
100
AcDbEntity
  8
129
370
     9
  6
Continuous
 62
     7
100
AcDbVertex
100
AcDb2dVertex
 10
86.439791
 20
84.791419
 30
0.0
  0
VERTEX
  5
217
100
AcDbEntity
  8
129
370
     9
  6
Continuous
 62
     7
100
AcDbVertex
100
AcDb2dVertex
 10
86.439799
 20
84.595247
 30
0.0
  0
VERTEX
  5
218
100
AcDbEntity
  8
129
370
     9
  6
Continuous
 62
     7
100
AcDbVertex
100
AcDb2dVertex
 10
86.439807
 20
84.391667
 30
0.0
  0
VERTEX
  5
219
100
AcDbEntity
  8
129
370
     9
  6
Continuous
 62
     7
100
AcDbVertex
100
AcDb2dVertex
 10
86.439818
 20
84.180678
 30
0.0
  0
VERTEX
  5
21A
100
AcDbEntity
  8
129
370
     9
  6
Continuous
 62
     7
100
AcDbVertex
100
AcDb2dVertex
 10
86.439829
 20
83.962281
 30
0.0
  0
VERTEX
  5
21B
100
AcDbEntity
  8
129
370
     9
  6
Continuous
 62
     7
100
AcDbVertex
100
AcDb2dVertex
 10
86.439841
 20
83.736475
 30
0.0
  0
VERTEX
  5
21C
100
AcDbEntity
  8
129
370
     9
  6
Continuous
 62
     7
100
AcDbVertex
100
AcDb2dVertex
 10
86.439855
 20
83.503261
 30
0.0
  0
VERTEX
  5
21D
100
AcDbEntity
  8
129
370
     9
  6
Continuous
 62
     7
100
AcDbVertex
100
AcDb2dVertex
 10
86.43987
 20
83.262639
 30
0.0
  0
VERTEX
  5
21E
100
AcDbEntity
  8
129
370
     9
  6
Continuous
 62
     7
100
AcDbVertex
100
AcDb2dVertex
 10
86.439886
 20
83.014608
 30
0.0
  0
VERTEX
  5
21F
100
AcDbEntity
  8
129
370
     9
  6
Continuous
 62
     7
100
AcDbVertex
100
AcDb2dVertex
 10
86.439903
 20
82.759169
 30
0.0
  0
VERTEX
  5
220
100
AcDbEntity
  8
129
370
     9
  6
Continuous
 62
     7
100
AcDbVertex
100
AcDb2dVertex
 10
86.439922
 20
82.496321
 30
0.0
  0
VERTEX
  5
221
100
AcDbEntity
  8
129
370
     9
  6
Continuous
 62
     7
100
AcDbVertex
100
AcDb2dVertex
 10
86.439941
 20
82.226064
 30
0.0
  0
VERTEX
  5
222
100
AcDbEntity
  8
129
370
     9
  6
Continuous
 62
     7
100
AcDbVertex
100
AcDb2dVertex
 10
86.439962
 20
81.9484
 30
0.0
  0
VERTEX
  5
223
100
AcDbEntity
  8
129
370
     9
  6
Continuous
 62
     7
100
AcDbVertex
100
AcDb2dVertex
 10
86.439984
 20
81.663326
 30
0.0
  0
VERTEX
  5
224
100
AcDbEntity
  8
129
370
     9
  6
Continuous
 62
     7
100
AcDbVertex
100
AcDb2dVertex
 10
86.440008
 20
81.370845
 30
0.0
  0
SEQEND
  5
225
100
AcDbEntity
  8
129
370
     9
  6
Continuous
 62
     7
  0
LINE
  5
226
100
AcDbEntity
  8
129
370
    30
  6
Continuous
 62
     7
100
AcDbLine
 10
121.0
 20
66.812872
 30
0.0
 11
34.998782
 21
66.812872
 31
0.0
  0
ELLIPSE
  5
227
100
AcDbEntity
  8
129
370
    30
  6
Continuous
 62
     7
100
AcDbEllipse
 10
35.001219
 20
68.814091
 30
0.0
 11
-1.4159370891999998
 21
-1.4159370892000001
 31
0.0
210
0.0
220
0.0
230
1.0
 40
0.998783
 41
-0.7853981633649463
 42
0.7853981633649456
  0
ELLIPSE
  5
228
100
AcDbEntity
  8
129
370
    30
  6
Continuous
 62
     7
100
AcDbEllipse
 10
120.998781
 20
68.814091
 30
0.0
 11
1.415937089200014
 21
-1.4159370891999998
 31
0.0
210
0.0
220
0.0
230
1.0
 40
0.998783
 41
-0.7853981633649463
 42
0.7853981633649502
  0
ARC
  5
229
100
AcDbEntity
  8
129
370
    30
  6
Continuous
 62
     7
100
AcDbCircle
 10
121.001409
 20
220.207557
 30
0.0
 40
1.998598
100
AcDbArc
 50
-0.004401
 51
77.774939
  0
ARC
  5
22A
100
AcDbEntity
  8
129
370
    30
  6
Continuous
 62
     7
100
AcDbCircle
 10
78.0
 20
21.812872
 30
0.0
 40
205.0
100
AcDbArc
 50
77.770536
 51
102.229464
  0
ARC
  5
22B
100
AcDbEntity
  8
129
370
    30
  6
Continuous
 62
     7
100
AcDbCircle
 10
34.998591
 20
220.207557
 30
0.0
 40
1.998598
100
AcDbArc
 50
102.225052
 51
-179.995588
  0
LINE
  5
22C
100
AcDbEntity
  8
129
370
    30
  6
Continuous
 62
     7
100
AcDbLine
 10
123.0
 20
220.207403
 30
0.0
 11
123.0
 21
68.811654
 31
0.0
  0
LINE
  5
22D
100
AcDbEntity
  8
129
370
    30
  6
Continuous
 62
     7
100
AcDbLine
 10
33.0
 20
68.811654
 30
0.0
 11
33.0
 21
220.207403
 31
0.0
  0
ARC
  5
22E
100
AcDbEntity
  8
129
370
    30
  6
Continuous
 62
     7
100
AcDbCircle
 10
174.700001
 20
67.643851
 30
0.0
 40
0.3
100
AcDbArc
 50
-88.0
 51
0.0
  0
ARC
  5
22F
100
AcDbEntity
  8
129
370
    30
  6
Continuous
 62
     7
100
AcDbCircle
 10
174.700001
 20
225.981894
 30
0.0
 40
0.3
100
AcDbArc
 50
-0.000003
 51
88.0
  0
ARC
  5
230
100
AcDbEntity
  8
129
370
    30
  6
Continuous
 62
     7
100
AcDbCircle
 10
151.500001
 20
224.532287
 30
0.0
 40
2.0
100
AcDbArc
 50
92.0
 51
180.0
  0
ARC
  5
231
100
AcDbEntity
  8
129
370
    30
  6
Continuous
 62
     7
100
AcDbCircle
 10
152.685431
 20
69.052061
 30
0.0
 40
2.0
100
AcDbArc
 50
-171.908834
 51
-92.0
  0
ARC
  5
232
100
AcDbEntity
  8
129
370
    30
  6
Continuous
 62
     7
100
AcDbCircle
 10
270.583334
 20
85.812872
 30
0.0
 40
121.083333
100
AcDbArc
 50
180.0
 51
-171.908834
  0
LINE
  5
233
100
AcDbEntity
  8
129
370
    30
  6
Continuous
 62
     7
100
AcDbLine
 10
174.71047
 20
226.281711
 30
0.0
 11
159.500001
 21
226.812872
 31
0.0
  0
LINE
  5
234
100
AcDbEntity
  8
2
370
    30
  6
Continuous
 62
   134
100
AcDbLine
 10
159.000001
 20
226.312872
 30
0.0
 11
159.500001
 21
226.312872
 31
0.0
  0
LINE
  5
235
100
AcDbEntity
  8
129
370
    30
  6
Continuous
 62
     7
100
AcDbLine
 10
159.000001
 20
226.795412
 30
0.0
 11
151.430202
 21
226.531069
 31
0.0
  0
LINE
  5
236
100
AcDbEntity
  8
129
370
    30
  6
Continuous
 62
     7
100
AcDbLine
 10
175.000001
 20
67.643851
 30
0.0
 11
175.000001
 21
225.981894
 31
0.0
  0
LINE
  5
237
100
AcDbEntity
  8
129
370
    30
  6
Continuous
 62
     7
100
AcDbLine
 10
159.500001
 20
66.812872
 30
0.0
 11
159.500001
 21
226.812872
 31
0.0
  0
LINE
  5
238
100
AcDbEntity
  8
129
370
    30
  6
Continuous
 62
     7
100
AcDbLine
 10
149.500001
 20
85.812872
 30
0.0
 11
149.500001
 21
224.532287
 31
0.0
  0
LINE
  5
239
100
AcDbEntity
  8
129
370
    30
  6
Continuous
 62
     7
100
AcDbLine
 10
159.000001
 20
67.312872
 30
0.0
 11
159.500001
 21
67.312872
 31
0.0
  0
LINE
  5
23A
100
AcDbEntity
  8
2
370
    30
  6
Continuous
 62
   134
100
AcDbLine
 10
159.500001
 20
67.312872
 30
0.0
 11
159.000001
 21
67.312872
 31
0.0
  0
LINE
  5
23B
100
AcDbEntity
  8
129
370
    30
  6
Continuous
 62
     7
100
AcDbLine
 10
174.71047
 20
67.344033
 30
0.0
 11
159.500001
 21
66.812872
 31
0.0
  0
LINE
  5
23C
100
AcDbEntity
  8
1
370
    30
  6
Continuous
 62
     7
100
AcDbLine
 10
159.000001
 20
66.830333
 30
0.0
 11
159.000001
 21
226.795412
 31
0.0
  0
ARC
  5
23D
100
AcDbEntity
  8
129
370
    30
  6
Continuous
 62
     7
100
AcDbCircle
 10
70.059993
 20
81.371854
 30
0.0
 40
0.5
100
AcDbArc
 50
179.996035
 51
-90.003965
  0
ARC
  5
23E
100
AcDbEntity
  8
129
370
    30
  6
Continuous
 62
     7
100
AcDbCircle
 10
85.940007
 20
81.371854
 30
0.0
 40
0.5
100
AcDbArc
 50
-89.996035
 51
0.003965
  0
POLYLINE
  5
23F
100
AcDbEntity
  8
129
370
    30
  6
Continuous
 62
     7
100
AcDb2dPolyline
 66
     1
 10
0.0
 20
0.0
 30
0.0
  0
VERTEX
  5
240
100
AcDbEntity
  8
129
370
    30
  6
Continuous
 62
     7
100
AcDbVertex
100
AcDb2dVertex
 10
69.559516
 20
81.372369
 30
0.0
  0
VERTEX
  5
241
100
AcDbEntity
  8
129
370
    30
  6
Continuous
 62
     7
100
AcDbVertex
100
AcDb2dVertex
 10
69.559625
 20
81.71653
 30
0.0
  0
VERTEX
  5
242
100
AcDbEntity
  8
129
370
    30
  6
Continuous
 62
     7
100
AcDbVertex
100
AcDb2dVertex
 10
69.559732
 20
82.060691
 30
0.0
  0
VERTEX
  5
243
100
AcDbEntity
  8
129
370
    30
  6
Continuous
 62
     7
100
AcDbVertex
100
AcDb2dVertex
 10
69.559836
 20
82.404852
 30
0.0
  0
VERTEX
  5
244
100
AcDbEntity
  8
129
370
    30
  6
Continuous
 62
     7
100
AcDbVertex
100
AcDb2dVertex
 10
69.559937
 20
82.749013
 30
0.0
  0
VERTEX
  5
245
100
AcDbEntity
  8
129
370
    30
  6
Continuous
 62
     7
100
AcDbVertex
100
AcDb2dVertex
 10
69.560035
 20
83.093174
 30
0.0
  0
VERTEX
  5
246
100
AcDbEntity
  8
129
370
    30
  6
Continuous
 62
     7
100
AcDbVertex
100
AcDb2dVertex
 10
69.560131
 20
83.437336
 30
0.0
  0
VERTEX
  5
247
100
AcDbEntity
  8
129
370
    30
  6
Continuous
 62
     7
100
AcDbVertex
100
AcDb2dVertex
 10
69.560224
 20
83.781497
 30
0.0
  0
VERTEX
  5
248
100
AcDbEntity
  8
129
370
    30
  6
Continuous
 62
     7
100
AcDbVertex
100
AcDb2dVertex
 10
69.560314
 20
84.125658
 30
0.0
  0
VERTEX
  5
249
100
AcDbEntity
  8
129
370
    30
  6
Continuous
 62
     7
100
AcDbVertex
100
AcDb2dVertex
 10
69.560401
 20
84.469819
 30
0.0
  0
VERTEX
  5
24A
100
AcDbEntity
  8
129
370
    30
  6
Continuous
 62
     7
100
AcDbVertex
100
AcDb2dVertex
 10
69.560486
 20
84.81398
 30
0.0
  0
VERTEX
  5
24B
100
AcDbEntity
  8
129
370
    30
  6
Continuous
 62
     7
100
AcDbVertex
100
AcDb2dVertex
 10
69.560567
 20
85.158141
 30
0.0
  0
VERTEX
  5
24C
100
AcDbEntity
  8
129
370
    30
  6
Continuous
 62
     7
100
AcDbVertex
100
AcDb2dVertex
 10
69.560646
 20
85.502302
 30
0.0
  0
VERTEX
  5
24D
100
AcDbEntity
  8
129
370
    30
  6
Continuous
 62
     7
100
AcDbVertex
100
AcDb2dVertex
 10
69.560722
 20
85.846463
 30
0.0
  0
VERTEX
  5
24E
100
AcDbEntity
  8
129
370
    30
  6
Continuous
 62
     7
100
AcDbVertex
100
AcDb2dVertex
 10
69.560796
 20
86.190625
 30
0.0
  0
VERTEX
  5
24F
100
AcDbEntity
  8
129
370
    30
  6
Continuous
 62
     7
100
AcDbVertex
100
AcDb2dVertex
 10
69.560866
 20
86.534786
 30
0.0
  0
VERTEX
  5
250
100
AcDbEntity
  8
129
370
    30
  6
Continuous
 62
     7
100
AcDbVertex
100
AcDb2dVertex
 10
69.560934
 20
86.878947
 30
0.0
  0
VERTEX
  5
251
100
AcDbEntity
  8
129
370
    30
  6
Continuous
 62
     7
100
AcDbVertex
100
AcDb2dVertex
 10
69.560999
 20
87.223108
 30
0.0
  0
VERTEX
  5
252
100
AcDbEntity
  8
129
370
    30
  6
Continuous
 62
     7
100
AcDbVertex
100
AcDb2dVertex
 10
69.561062
 20
87.567269
 30
0.0
  0
VERTEX
  5
253
100
AcDbEntity
  8
129
370
    30
  6
Continuous
 62
     7
100
AcDbVertex
100
AcDb2dVertex
 10
69.561121
 20
87.91143
 30
0.0
  0
VERTEX
  5
254
100
AcDbEntity
  8
129
370
    30
  6
Continuous
 62
     7
100
AcDbVertex
100
AcDb2dVertex
 10
69.561178
 20
88.255591
 30
0.0
  0
SEQEND
  5
255
100
AcDbEntity
  8
129
370
    30
  6
Continuous
 62
     7
  0
ARC
  5
256
100
AcDbEntity
  8
129
370
    30
  6
Continuous
 62
     7
100
AcDbCircle
 10
70.060231
 20
88.252659
 30
0.0
 40
0.5
100
AcDbArc
 50
89.999871
 51
179.999871
  0
ARC
  5
257
100
AcDbEntity
  8
129
370
    30
  6
Continuous
 62
     7
100
AcDbCircle
 10
85.939769
 20
88.252642
 30
0.0
 40
0.5
100
AcDbArc
 50
0.0
 51
90.0
  0
LINE
  5
258
100
AcDbEntity
  8
129
370
    30
  6
Continuous
 62
     7
100
AcDbLine
 10
86.439769
 20
88.252642
 30
0.0
 11
86.439769
 21
85.812872
 31
0.0
  0
LINE
  5
259
100
AcDbEntity
  8
129
370
    30
  6
Continuous
 62
     7
100
AcDbLine
 10
70.060212
 20
88.752642
 30
0.0
 11
85.939769
 21
88.752642
 31
0.0
  0
ARC
  5
25A
100
AcDbEntity
  8
129
370
    30
  6
Continuous
 62
     7
100
AcDbCircle
 10
109.5
 20
96.812872
 30
0.0
 40
1.0
100
AcDbArc
 50
-90.0
 51
0.0
  0
ARC
  5
25B
100
AcDbEntity
  8
129
370
    30
  6
Continuous
 62
     7
100
AcDbCircle
 10
86.0
 20
88.312872
 30
0.0
 40
0.6
100
AcDbArc
 50
0.0
 51
90.0
  0
ARC
  5
25C
100
AcDbEntity
  8
129
370
    30
  6
Continuous
 62
     7
100
AcDbCircle
 10
70.0
 20
88.312872
 30
0.0
 40
0.6
100
AcDbArc
 50
90.0
 51
180.0
  0
ARC
  5
25D
100
AcDbEntity
  8
129
370
    30
  6
Continuous
 62
     7
100
AcDbCircle
 10
86.0
 20
81.312872
 30
0.0
 40
0.6
100
AcDbArc
 50
-90.0
 51
0.0
  0
ARC
  5
25E
100
AcDbEntity
  8
129
370
    30
  6
Continuous
 62
     7
100
AcDbCircle
 10
70.0
 20
81.312872
 30
0.0
 40
0.6
100
AcDbArc
 50
180.0
 51
-90.0
  0
ARC
  5
25F
100
AcDbEntity
  8
129
370
    30
  6
Continuous
 62
     7
100
AcDbCircle
 10
46.5
 20
96.812872
 30
0.0
 40
1.0
100
AcDbArc
 50
180.0
 51
-90.0
  0
LINE
  5
260
100
AcDbEntity
  8
129
370
    30
  6
Continuous
 62
     7
100
AcDbLine
 10
86.6
 20
88.312872
 30
0.0
 11
86.6
 21
81.312872
 31
0.0
  0
LINE
  5
261
100
AcDbEntity
  8
129
370
    30
  6
Continuous
 62
     7
100
AcDbLine
 10
69.4
 20
81.312872
 30
0.0
 11
69.4
 21
88.312872
 31
0.0
  0
LINE
  5
262
100
AcDbEntity
  8
129
370
    30
  6
Continuous
 62
     7
100
AcDbLine
 10
109.5
 20
95.812872
 30
0.0
 11
46.5
 21
95.812872
 31
0.0
  0
LINE
  5
263
100
AcDbEntity
  8
129
370
    30
  6
Continuous
 62
     7
100
AcDbLine
 10
70.0
 20
88.912872
 30
0.0
 11
86.0
 21
88.912872
 31
0.0
  0
LINE
  5
264
100
AcDbEntity
  8
129
370
    30
  6
Continuous
 62
     7
100
AcDbLine
 10
85.940603
 20
80.872288
 30
0.0
 11
70.059397
 21
80.872288
 31
0.0
  0
LINE
  5
265
100
AcDbEntity
  8
129
370
    30
  6
Continuous
 62
     7
100
AcDbLine
 10
86.0
 20
80.712872
 30
0.0
 11
70.0
 21
80.712872
 31
0.0
  0
LINE
  5
266
100
AcDbEntity
  8
129
370
    30
  6
Continuous
 62
     7
100
AcDbLine
 10
102.75
 20
196.112872
 30
0.0
 11
53.25
 21
196.112872
 31
0.0
  0
LINE
  5
267
100
AcDbEntity
  8
129
370
    30
  6
Continuous
 62
     7
100
AcDbLine
 10
102.75
 20
158.612872
 30
0.0
 11
102.75
 21
196.112872
 31
0.0
  0
LINE
  5
268
100
AcDbEntity
  8
129
370
    30
  6
Continuous
 62
     7
100
AcDbLine
 10
53.25
 20
158.612872
 30
0.0
 11
102.75
 21
158.612872
 31
0.0
  0
LINE
  5
269
100
AcDbEntity
  8
129
370
    30
  6
Continuous
 62
     7
100
AcDbLine
 10
53.25
 20
196.112872
 30
0.0
 11
53.25
 21
158.612872
 31
0.0
  0
ELLIPSE
  5
26A
100
AcDbEntity
  8
129
370
    30
  6
Continuous
 62
     7
100
AcDbEllipse
 10
197.001019
 20
68.814091
 30
0.0
 11
1.4159370891999858
 21
1.4159370891999998
 31
0.0
210
0.0
220
0.0
230
1.0
 40
0.998783
 41
2.3561944902146448
 42
-2.3561944902350582
  0
ELLIPSE
  5
26B
100
AcDbEntity
  8
129
370
    30
  6
Continuous
 62
     7
100
AcDbEllipse
 10
282.998581
 20
68.814091
 30
0.0
 11
-1.4159370891999856
 21
1.4159370891999998
 31
0.0
210
0.0
220
0.0
230
1.0
 40
0.998783
 41
2.3561944902146479
 42
-2.3561944902350627
  0
ELLIPSE
  5
26C
100
AcDbEntity
  8
129
370
    30
  6
Continuous
 62
     7
100
AcDbEllipse
 10
265.9998
 20
66.830333
 30
0.0
 11
0.5
 21
0.0
 31
0.0
210
0.0
220
0.0
230
1.0
 40
0.034921
 41
0.0
 42
1.5707963267950753
  0
ELLIPSE
  5
26D
100
AcDbEntity
  8
129
370
    30
  6
Continuous
 62
     7
100
AcDbEllipse
 10
261.9998
 20
66.830333
 30
0.0
 11
0.5
 21
0.0
 31
0.0
210
0.0
220
0.0
230
1.0
 40
0.034921
 41
1.5707963267950753
 42
3.14159265358979
  0
ELLIPSE
  5
26E
100
AcDbEntity
  8
129
370
    30
  6
Continuous
 62
     7
100
AcDbEllipse
 10
217.9998
 20
66.830333
 30
0.0
 11
0.5
 21
0.0
 31
0.0
210
0.0
220
0.0
230
1.0
 40
0.034921
 41
0.0
 42
1.5707963267950753
  0
ELLIPSE
  5
26F
100
AcDbEntity
  8
129
370
    30
  6
Continuous
 62
     7
100
AcDbEllipse
 10
213.9998
 20
66.830333
 30
0.0
 11
0.5
 21
0.0
 31
0.0
210
0.0
220
0.0
230
1.0
 40
0.034921
 41
1.5707963267950753
 42
3.14159265358979
  0
ARC
  5
270
100
AcDbEntity
  8
129
370
    30
  6
Continuous
 62
     7
100
AcDbCircle
 10
283.001209
 20
220.207557
 30
0.0
 40
1.998598
100
AcDbArc
 50
-0.004402
 51
77.774938
  0
ARC
  5
271
100
AcDbEntity
  8
129
370
    30
  6
Continuous
 62
     7
100
AcDbCircle
 10
239.9998
 20
21.812872
 30
0.0
 40
205.0
100
AcDbArc
 50
77.770536
 51
102.229464
  0
ARC
  5
272
100
AcDbEntity
  8
129
370
    30
  6
Continuous
 62
     7
100
AcDbCircle
 10
196.998391
 20
220.207557
 30
0.0
 40
1.998598
100
AcDbArc
 50
102.225051
 51
-179.995589
  0
LINE
  5
273
100
AcDbEntity
  8
129
370
    30
  6
Continuous
 62
     7
100
AcDbLine
 10
284.9998
 20
68.811654
 30
0.0
 11
284.9998
 21
220.207403
 31
0.0
  0
LINE
  5
274
100
AcDbEntity
  8
129
370
    30
  6
Continuous
 62
     7
100
AcDbLine
 10
194.9998
 20
220.207403
 30
0.0
 11
194.9998
 21
68.811654
 31
0.0
  0
LINE
  5
275
100
AcDbEntity
  8
129
370
    30
  6
Continuous
 62
     7
100
AcDbLine
 10
217.9998
 20
66.847793
 30
0.0
 11
213.9998
 21
66.847793
 31
0.0
  0
LINE
  5
276
100
AcDbEntity
  8
129
370
    30
  6
Continuous
 62
     7
100
AcDbLine
 10
265.9998
 20
66.847793
 30
0.0
 11
261.9998
 21
66.847793
 31
0.0
  0
LINE
  5
277
100
AcDbEntity
  8
129
370
    30
  6
Continuous
 62
     7
100
AcDbLine
 10
217.9998
 20
66.830333
 30
0.0
 11
213.9998
 21
66.830333
 31
0.0
  0
LINE
  5
278
100
AcDbEntity
  8
129
370
    30
  6
Continuous
 62
     7
100
AcDbLine
 10
265.9998
 20
66.830333
 30
0.0
 11
261.9998
 21
66.830333
 31
0.0
  0
LINE
  5
279
100
AcDbEntity
  8
129
370
    30
  6
Continuous
 62
     7
100
AcDbLine
 10
266.4998
 20
66.812872
 30
0.0
 11
283.001018
 21
66.812872
 31
0.0
  0
LINE
  5
27A
100
AcDbEntity
  8
129
370
    30
  6
Continuous
 62
     7
100
AcDbLine
 10
241.9998
 20
66.812872
 30
0.0
 11
261.4998
 21
66.812872
 31
0.0
  0
LINE
  5
27B
100
AcDbEntity
  8
129
370
    30
  6
Continuous
 62
     7
100
AcDbLine
 10
218.4998
 20
66.812872
 30
0.0
 11
237.9998
 21
66.812872
 31
0.0
  0
LINE
  5
27C
100
AcDbEntity
  8
129
370
    30
  6
Continuous
 62
     7
100
AcDbLine
 10
196.998582
 20
66.812872
 30
0.0
 11
213.4998
 21
66.812872
 31
0.0
  0
LINE
  5
27D
100
AcDbEntity
  8
1
370
     9
  6
CENTER
 62
     7
100
AcDbLine
 10
234.753
 20
188.062872
 30
0.0
 11
245.167
 21
188.062872
 31
0.0
  0
LINE
  5
27E
100
AcDbEntity
  8
1
370
     9
  6
CENTER
 62
     7
100
AcDbLine
 10
234.922
 20
104.562872
 30
0.0
 11
245.088
 21
104.562872
 31
0.0
  0
DIMENSION
  5
28A
100
AcDbEntity
  8
1
370
     9
  6
Continuous
 62
     7
100
AcDbDimension
  2
*D2
 10
301.535
 20
188.062872
 30
0.0
 11
301.035
 21
146.312872
 31
0.0
 71
     5
 72
     1
 41
1.0
 42
0.0
  1
83.5
100
AcDbAlignedDimension
 13
248.344223
 23
188.062872
 33
0.0
 14
247.088
 24
104.562872
 34
0.0
 50
90.0
100
AcDbRotatedDimension
  0
LINE
  5
28B
100
AcDbEntity
  8
1
370
     9
  6
CENTER
 62
     7
100
AcDbLine
 10
188.346821
 20
146.812872
 30
0.0
 11
291.833821
 21
146.812872
 31
0.0
  0
LINE
  5
28C
100
AcDbEntity
  8
129
370
     9
  6
Continuous
 62
     7
100
AcDbLine
 10
275.911636
 20
214.229088
 30
0.0
 11
275.911636
 21
75.112872
 31
0.0
  0
DIMENSION
  5
298
100
AcDbEntity
  8
1
370
     9
  6
Continuous
 62
     7
100
AcDbDimension
  2
*D3
 10
33.0
 20
241.812872
 30
0.0
 11
78.000004
 21
242.312872
 31
0.0
 71
     5
 72
     1
 41
1.0
 42
0.0
  1
90
100
AcDbAlignedDimension
 13
33.0
 23
222.207403
 33
0.0
 14
123.000007
 24
222.207557
 34
0.0
100
AcDbRotatedDimension
  0
DIMENSION
  5
2A4
100
AcDbEntity
  8
1
370
     9
  6
Continuous
 62
     7
100
AcDbDimension
  2
*D4
 10
138.0
 20
226.812819
 30
0.0
 11
137.5
 21
146.812845
 31
0.0
 71
     5
 72
     1
 41
1.0
 42
0.0
  1
160
100
AcDbAlignedDimension
 13
79.851994
 23
226.812819
 33
0.0
 14
123.0
 24
66.812872
 34
0.0
 50
90.0
100
AcDbRotatedDimension
  0
INSERT
  5
2AE
100
AcDbEntity
  8
0
370
     9
  6
Continuous
 62
     7
100
AcDbBlockReference
  2
*G5
 10
0.0
 20
0.0
 30
0.0
  0
LINE
  5
2AF
100
AcDbEntity
  8
129
370
     9
  6
Continuous
 62
     7
100
AcDbLine
 10
44.6
 20
96.812872
 30
0.0
 11
44.6
 21
201.812872
 31
0.0
  0
LINE
  5
2B0
100
AcDbEntity
  8
129
370
     9
  6
Continuous
 62
     7
100
AcDbLine
 10
111.4
 20
201.812872
 30
0.0
 11
111.4
 21
96.812872
 31
0.0
  0
LINE
  5
2B1
100
AcDbEntity
  8
129
370
     9
  6
Continuous
 62
     7
100
AcDbLine
 10
46.5
 20
203.712872
 30
0.0
 11
109.5
 21
203.712872
 31
0.0
  0
ARC
  5
2B2
100
AcDbEntity
  8
129
370
     9
  6
Continuous
 62
     7
100
AcDbCircle
 10
46.5
 20
201.812872
 30
0.0
 40
1.899982
100
AcDbArc
 50
90.0
 51
180.0
  0
ARC
  5
2B3
100
AcDbEntity
  8
129
370
     9
  6
Continuous
 62
     7
100
AcDbCircle
 10
109.5
 20
201.812872
 30
0.0
 40
1.899982
100
AcDbArc
 50
0.0
 51
90.0
  0
ARC
  5
2B4
100
AcDbEntity
  8
129
370
    30
  6
Continuous
 62
     7
100
AcDbCircle
 10
109.5
 20
201.812872
 30
0.0
 40
1.0
100
AcDbArc
 50
0.0
 51
90.0
  0
ARC
  5
2B5
100
AcDbEntity
  8
129
370
    30
  6
Continuous
 62
     7
100
AcDbCircle
 10
46.5
 20
201.812872
 30
0.0
 40
1.0
100
AcDbArc
 50
90.0
 51
180.0
  0
LINE
  5
2B6
100
AcDbEntity
  8
129
370
    30
  6
Continuous
 62
     7
100
AcDbLine
 10
46.5
 20
202.812872
 30
0.0
 11
109.5
 21
202.812872
 31
0.0
  0
LINE
  5
2B7
100
AcDbEntity
  8
129
370
    30
  6
Continuous
 62
     7
100
AcDbLine
 10
110.5
 20
201.812872
 30
0.0
 11
110.5
 21
96.812872
 31
0.0
  0
LINE
  5
2B8
100
AcDbEntity
  8
129
370
    30
  6
Continuous
 62
     7
100
AcDbLine
 10
45.5
 20
96.812872
 30
0.0
 11
45.5
 21
201.812872
 31
0.0
  0
TEXT
  5
2B9
100
AcDbEntity
  8
15
370
     9
  6
Continuous
 62
    96
100
AcDbText
 10
203.712516
 20
20.677729
 30
0.0
 40
3.0
  1
＊　記載されている会社名、製品名は、登録商標または商標です。
 41
0.887037
 11
203.712516
 21
20.677729
 31
0.0
100
AcDbText
 73
     1
  0
LINE
  5
2BA
100
AcDbEntity
  8
15
370
     9
  6
Continuous
 62
    96
100
AcDbLine
 10
335.0
 20
260.826
 30
0.0
 11
335.0
 21
189.326
 31
0.0
  0
TEXT
  5
2BB
100
AcDbEntity
  8
15
370
     9
  6
Continuous
 62
    96
100
AcDbText
 10
362.8
 20
256.576
 30
0.0
 40
3.0
  1
樹　脂
 41
0.87037
 11
362.8
 21
256.576
 31
0.0
100
AcDbText
 73
     1
  0
TEXT
  5
2BC
100
AcDbEntity
  8
15
370
     9
  6
Continuous
 62
    96
100
AcDbText
 10
362.8
 20
251.076
 30
0.0
 40
3.0
  1
艶　消
 41
0.87037
 11
362.8
 21
251.076
 31
0.0
100
AcDbText
 73
     1
  0
DIMENSION
  5
2C8
100
AcDbEntity
  8
1
370
     9
  6
Continuous
 62
     7
100
AcDbDimension
  2
*D6
 10
149.500001
 20
241.812872
 30
0.0
 11
162.250001
 21
242.312872
 31
0.0
 71
     5
 72
     1
 41
1.0
 42
0.0
  1
25.5
100
AcDbAlignedDimension
 13
149.500001
 23
226.532287
 33
0.0
 14
175.000001
 24
227.981894
 34
0.0
100
AcDbRotatedDimension
  0
LINE
  5
2C9
100
AcDbEntity
  8
129
370
     9
  6
Continuous
 62
     7
100
AcDbLine
 10
216.434419
 20
78.813044
 30
0.0
 11
214.934419
 21
78.813044
 31
0.0
  0
LINE
  5
2CA
100
AcDbEntity
  8
129
370
     9
  6
Continuous
 62
     7
100
AcDbLine
 10
208.134419
 20
78.813044
 30
0.0
 11
209.634419
 21
78.813044
 31
0.0
  0
LINE
  5
2CB
100
AcDbEntity
  8
129
370
     9
  6
Continuous
 62
     7
100
AcDbLine
 10
221.734419
 20
78.813044
 30
0.0
 11
223.234419
 21
78.813044
 31
0.0
  0
LINE
  5
2CC
100
AcDbEntity
  8
129
370
     9
  6
Continuous
 62
     7
100
AcDbLine
 10
269.834419
 20
78.813044
 30
0.0
 11
271.334419
 21
78.813044
 31
0.0
  0
LINE
  5
2CD
100
AcDbEntity
  8
129
370
     9
  6
Continuous
 62
     7
100
AcDbLine
 10
208.134419
 20
212.813044
 30
0.0
 11
208.134419
 21
78.813044
 31
0.0
  0
LINE
  5
2CE
100
AcDbEntity
  8
129
370
     9
  6
Continuous
 62
     7
100
AcDbLine
 10
209.634419
 20
78.813044
 30
0.0
 11
209.634419
 21
212.813044
 31
0.0
  0
LINE
  5
2CF
100
AcDbEntity
  8
129
370
     9
  6
Continuous
 62
     7
100
AcDbLine
 10
214.934419
 20
78.813044
 30
0.0
 11
214.934419
 21
213.813044
 31
0.0
  0
LINE
  5
2D0
100
AcDbEntity
  8
129
370
     9
  6
Continuous
 62
     7
100
AcDbLine
 10
216.434419
 20
213.813044
 30
0.0
 11
216.434419
 21
78.813044
 31
0.0
  0
LINE
  5
2D1
100
AcDbEntity
  8
129
370
     9
  6
Continuous
 62
     7
100
AcDbLine
 10
221.734419
 20
214.813044
 30
0.0
 11
221.734419
 21
78.813044
 31
0.0
  0
LINE
  5
2D2
100
AcDbEntity
  8
129
370
     9
  6
Continuous
 62
     7
100
AcDbLine
 10
223.234419
 20
78.813044
 30
0.0
 11
223.234419
 21
214.813044
 31
0.0
  0
LINE
  5
2D3
100
AcDbEntity
  8
129
370
     9
  6
Continuous
 62
     7
100
AcDbLine
 10
269.834419
 20
212.813044
 30
0.0
 11
269.834419
 21
78.813044
 31
0.0
  0
LINE
  5
2D4
100
AcDbEntity
  8
129
370
     9
  6
Continuous
 62
     7
100
AcDbLine
 10
271.334419
 20
78.813044
 30
0.0
 11
271.334419
 21
212.813044
 31
0.0
  0
LINE
  5
2D5
100
AcDbEntity
  8
129
370
     9
  6
Continuous
 62
     7
100
AcDbLine
 10
271.334419
 20
212.813044
 30
0.0
 11
269.834419
 21
212.813044
 31
0.0
  0
LINE
  5
2D6
100
AcDbEntity
  8
129
370
     9
  6
Continuous
 62
     7
100
AcDbLine
 10
209.634419
 20
212.813044
 30
0.0
 11
208.134419
 21
212.813044
 31
0.0
  0
LINE
  5
2D7
100
AcDbEntity
  8
129
370
     9
  6
Continuous
 62
     7
100
AcDbLine
 10
264.534419
 20
213.813044
 30
0.0
 11
263.034419
 21
213.813044
 31
0.0
  0
LINE
  5
2D8
100
AcDbEntity
  8
129
370
     9
  6
Continuous
 62
     7
100
AcDbLine
 10
214.934419
 20
213.813044
 30
0.0
 11
216.434419
 21
213.813044
 31
0.0
  0
LINE
  5
2D9
100
AcDbEntity
  8
129
370
     9
  6
Continuous
 62
     7
100
AcDbLine
 10
257.734419
 20
214.813044
 30
0.0
 11
256.234419
 21
214.813044
 31
0.0
  0
LINE
  5
2DA
100
AcDbEntity
  8
129
370
     9
  6
Continuous
 62
     7
100
AcDbLine
 10
223.234419
 20
214.813044
 30
0.0
 11
221.734419
 21
214.813044
 31
0.0
  0
LINE
  5
2DB
100
AcDbEntity
  8
129
370
     9
  6
Continuous
 62
     7
100
AcDbLine
 10
256.234419
 20
214.813044
 30
0.0
 11
256.234419
 21
78.813044
 31
0.0
  0
LINE
  5
2DC
100
AcDbEntity
  8
129
370
     9
  6
Continuous
 62
     7
100
AcDbLine
 10
257.734419
 20
78.813044
 30
0.0
 11
257.734419
 21
214.813044
 31
0.0
  0
LINE
  5
2DD
100
AcDbEntity
  8
129
370
     9
  6
Continuous
 62
     7
100
AcDbLine
 10
263.034419
 20
213.813044
 30
0.0
 11
263.034419
 21
78.813044
 31
0.0
  0
LINE
  5
2DE
100
AcDbEntity
  8
129
370
     9
  6
Continuous
 62
     7
100
AcDbLine
 10
264.534419
 20
78.813044
 30
0.0
 11
264.534419
 21
213.813044
 31
0.0
  0
LINE
  5
2DF
100
AcDbEntity
  8
129
370
     9
  6
Continuous
 62
     7
100
AcDbLine
 10
263.034419
 20
78.813044
 30
0.0
 11
264.534419
 21
78.813044
 31
0.0
  0
LINE
  5
2E0
100
AcDbEntity
  8
129
370
     9
  6
Continuous
 62
     7
100
AcDbLine
 10
256.234419
 20
78.813044
 30
0.0
 11
257.734419
 21
78.813044
 31
0.0
  0
LINE
  5
2E1
100
AcDbEntity
  8
1
370
     9
  6
CENTER
 62
     7
100
AcDbLine
 10
248.698878
 20
137.836456
 30
0.0
 11
250.564802
 21
136.327044
 31
0.0
  0
LINE
  5
2E2
100
AcDbEntity
  8
1
370
     9
  6
CENTER
 62
     7
100
AcDbLine
 10
248.698878
 20
137.836456
 30
0.0
 11
249.56011
 21
135.596305
 31
0.0
  0
POLYLINE
  5
2E3
100
AcDbEntity
  8
1
370
     9
  6
CENTER
 62
     7
100
AcDb2dPolyline
 66
     1
 10
0.0
 20
0.0
 30
0.0
  0
VERTEX
  5
2E4
100
AcDbEntity
  8
1
370
     9
  6
CENTER
 62
     7
100
AcDbVertex
100
AcDb2dVertex
 10
248.698878
 20
137.836456
 30
0.0
  0
VERTEX
  5
2E5
100
AcDbEntity
  8
1
370
     9
  6
CENTER
 62
     7
100
AcDbVertex
100
AcDb2dVertex
 10
288.009
 20
83.789
 30
0.0
  0
VERTEX
  5
2E6
100
AcDbEntity
  8
1
370
     9
  6
CENTER
 62
     7
100
AcDbVertex
100
AcDb2dVertex
 10
307.209
 20
83.789
 30
0.0
  0
SEQEND
  5
2E7
100
AcDbEntity
  8
1
370
     9
  6
CENTER
 62
     7
  0
TEXT
  5
2E8
100
AcDbEntity
  8
1
370
     9
  6
CENTER
 62
     7
100
AcDbText
 10
288.009
 20
84.289
 30
0.0
 40
3.0
  1
%%c30　通線孔
 41
0.820513
 11
288.009
 21
84.289
 31
0.0
100
AcDbText
 73
     1
  0
TEXT
  5
2E9
100
AcDbEntity
  8
15
370
     9
  6
Continuous
 62
    96
100
AcDbText
 10
342.95
 20
53.000007
 30
0.0
 40
5.0
  1
AIR-R601A
 41
0.535556
 11
342.95
 21
53.000007
 31
0.0
100
AcDbText
 73
     1
  0
TEXT
  5
2EA
100
AcDbEntity
  8
15
370
     9
  6
Continuous
 62
    96
100
AcDbText
 10
332.37354
 20
34.567071
 30
0.0
 40
5.001475
  1
仲代
 41
0.85
 11
332.37354
 21
34.567071
 31
0.0
100
AcDbText
 73
     1
  0
TEXT
  5
2EB
100
AcDbEntity
  8
15
370
     9
  6
Continuous
 62
    96
100
AcDbText
 10
331.6
 20
44.25
 30
0.0
 40
4.5
  1
液晶付カードリーダー
 41
0.866667
 11
331.6
 21
44.25
 31
0.0
100
AcDbText
 73
     1
  0
LINE
  5
2EC
100
AcDbEntity
  8
1
370
    30
  6
Continuous
 62
     7
100
AcDbLine
 10
152.615632
 20
67.05328
 30
0.0
 11
159.000001
 21
66.830333
 31
0.0
  0
LINE
  5
2ED
100
AcDbEntity
  8
1
370
    30
  6
Continuous
 62
     7
100
AcDbLine
 10
152.615632
 20
67.05328
 30
0.0
 11
159.000001
 21
66.830333
 31
0.0
  0
TEXT
  5
2EE
100
AcDbEntity
  8
15
370
     9
  6
Continuous
 62
    96
100
AcDbText
 10
383.702245
 20
34.653071
 30
0.0
 40
5.001475
  1
片山
 41
0.85
 11
383.702245
 21
34.653071
 31
0.0
100
AcDbText
 73
     1
  0
TEXT
  5
2EF
100
AcDbEntity
  8
15
370
     9
  6
Continuous
 62
    96
100
AcDbText
 10
357.703246
 20
34.567071
 30
0.0
 40
5.001475
  1
加川
 41
0.85
 11
357.703246
 21
34.567071
 31
0.0
100
AcDbText
 73
     1
  0
TEXT
  5
2F0
100
AcDbEntity
  8
15
370
     9
  6
PHANTOM
 62
    96
100
AcDbText
 10
317.973717
 20
229.076
 30
0.0
 40
3.0
  1
重　量
 41
0.833333
 11
317.973717
 21
229.076
 31
0.0
100
AcDbText
 73
     1
  0
LINE
  5
2F1
100
AcDbEntity
  8
15
370
     9
  6
Continuous
 62
    96
100
AcDbLine
 10
309.973717
 20
227.826
 30
0.0
 11
399.973717
 21
227.826
 31
0.0
  0
TEXT
  5
2F2
100
AcDbEntity
  8
15
370
     9
  6
Continuous
 62
    96
100
AcDbText
 10
339.973717
 20
223.576
 30
0.0
 40
3.0
  1
DC24V%%p10%%%（電気錠制御盤より供給）
 41
0.783476
 11
339.973717
 21
223.576
 31
0.0
100
AcDbText
 73
     1
  0
TEXT
  5
2F3
100
AcDbEntity
  8
15
370
     9
  6
PHANTOM
 62
    96
100
AcDbText
 10
316.473717
 20
223.576
 30
0.0
 40
3.0
  1
供給電源
 41
0.833333
 11
316.473717
 21
223.576
 31
0.0
100
AcDbText
 73
     1
  0
TEXT
  5
2F4
100
AcDbEntity
  8
15
370
     9
  6
PHANTOM
 62
    96
100
AcDbText
 10
316.300717
 20
218.326
 30
0.0
 40
3.0
  1
消費電力
 41
0.833333
 11
316.300717
 21
218.326
 31
0.0
100
AcDbText
 73
     1
  0
LINE
  5
2F5
100
AcDbEntity
  8
15
370
     9
  6
Continuous
 62
    96
100
AcDbLine
 10
309.973717
 20
222.326
 30
0.0
 11
399.930235
 21
222.326
 31
0.0
  0
TEXT
  5
2F6
100
AcDbEntity
  8
15
370
     9
  6
PHANTOM
 62
    96
100
AcDbText
 10
316.466757
 20
201.654
 30
0.0
 40
3.0
  1
設置場所
 41
0.833333
 11
316.466757
 21
201.654
 31
0.0
100
AcDbText
 73
     1
  0
TEXT
  5
2F7
100
AcDbEntity
  8
15
370
     9
  6
PHANTOM
 62
    96
100
AcDbText
 10
313.466757
 20
207.154
 30
0.0
 40
3.0
  1
使用環境温度
 41
0.833333
 11
313.466757
 21
207.154
 31
0.0
100
AcDbText
 73
     1
  0
LINE
  5
2F8
100
AcDbEntity
  8
15
370
     9
  6
Continuous
 62
    96
100
AcDbLine
 10
309.973717
 20
211.326
 30
0.0
 11
399.973717
 21
211.326
 31
0.0
  0
LINE
  5
2F9
100
AcDbEntity
  8
15
370
     9
  6
Continuous
 62
    96
100
AcDbLine
 10
399.966757
 20
200.326
 30
0.0
 11
309.966757
 21
200.326
 31
0.0
  0
LINE
  5
2FA
100
AcDbEntity
  8
15
370
     9
  6
Continuous
 62
    96
100
AcDbLine
 10
309.966757
 20
205.826
 30
0.0
 11
399.966757
 21
205.826
 31
0.0
  0
TEXT
  5
2FB
100
AcDbEntity
  8
15
370
     9
  6
PHANTOM
 62
    96
100
AcDbText
 10
314.973717
 20
193.326
 30
0.0
 40
3.0
  1
適応カード
 41
0.833333
 11
314.973717
 21
193.326
 31
0.0
100
AcDbText
 73
     1
  0
LINE
  5
2FC
100
AcDbEntity
  8
15
370
     9
  6
Continuous
 62
    96
100
AcDbLine
 10
334.973717
 20
194.826
 30
0.0
 11
399.973717
 21
194.826
 31
0.0
  0
TEXT
  5
2FD
100
AcDbEntity
  8
15
370
     9
  6
Continuous
 62
    96
100
AcDbText
 10
355.473717
 20
196.076
 30
0.0
 40
3.0
  1
FeliCa対応カード
 41
0.666667
 11
355.473717
 21
196.076
 31
0.0
100
AcDbText
 73
     1
  0
TEXT
  5
2FE
100
AcDbEntity
  8
15
370
     9
  6
Continuous
 62
    96
100
AcDbText
 10
358.473717
 20
190.576
 30
0.0
 40
3.0
  1
MIFAREカード
 41
0.625
 11
358.473717
 21
190.576
 31
0.0
100
AcDbText
 73
     1
  0
TEXT
  5
2FF
100
AcDbEntity
  8
15
370
     9
  6
PHANTOM
 62
    96
100
AcDbText
 10
311.966757
 20
185.154
 30
0.0
 40
3.0
  1
カード感知距離
 41
0.833333
 11
311.966757
 21
185.154
 31
0.0
100
AcDbText
 73
     1
  0
LINE
  5
300
100
AcDbEntity
  8
15
370
     9
  6
Continuous
 62
    96
100
AcDbLine
 10
309.966757
 20
189.326
 30
0.0
 11
399.966757
 21
189.326
 31
0.0
  0
LINE
  5
301
100
AcDbEntity
  8
15
370
     9
  6
Continuous
 62
    96
100
AcDbLine
 10
309.960443
 20
183.826
 30
0.0
 11
400.0
 21
183.826
 31
0.0
  0
LINE
  5
302
100
AcDbEntity
  8
15
370
    30
  6
Continuous
 62
    96
100
AcDbLine
 10
309.973458
 20
183.826
 30
0.0
 11
400.0
 21
183.826
 31
0.0
  0
TEXT
  5
303
100
AcDbEntity
  8
15
370
     9
  6
Continuous
 62
    96
100
AcDbText
 10
342.623717
 20
207.076
 30
0.0
 40
3.0
  1
－１０℃～４０℃(結露無きこと) 
 41
0.853952
 11
342.623717
 21
207.076
 31
0.0
100
AcDbText
 73
     1
  0
LINE
  5
304
100
AcDbEntity
  8
15
370
     9
  6
Continuous
 62
    96
100
AcDbLine
 10
309.973717
 20
216.826
 30
0.0
 11
399.973717
 21
216.826
 31
0.0
  0
TEXT
  5
305
100
AcDbEntity
  8
15
370
     9
  6
PHANTOM
 62
    96
100
AcDbText
 10
316.449092
 20
212.576369
 30
0.0
 40
3.000885
  1
通信方式
 41
0.833333
 11
316.449092
 21
212.576369
 31
0.0
100
AcDbText
 73
     1
  0
TEXT
  5
306
100
AcDbEntity
  8
15
370
     9
  6
PHANTOM
 62
    96
100
AcDbText
 10
362.266528
 20
212.613476
 30
0.0
 40
3.000885
  1
CANopen
 41
0.5
 11
362.266528
 21
212.613476
 31
0.0
100
AcDbText
 73
     1
  0
TEXT
  5
307
100
AcDbEntity
  8
15
370
     9
  6
Continuous
 62
    96
100
AcDbText
 10
361.473717
 20
218.076
 30
0.0
 40
3.0
  1
最大３Ｗ
 41
0.833333
 11
361.473717
 21
218.076
 31
0.0
100
AcDbText
 73
     1
  0
TEXT
  5
308
100
AcDbEntity
  8
15
370
     9
  6
Continuous
 62
    96
100
AcDbText
 10
337.473717
 20
201.576
 30
0.0
 40
3.0
  1
屋内外(IPX4:JIS保護等級防沫型 相当)　※１
 41
0.724638
 11
337.473717
 21
201.576
 31
0.0
100
AcDbText
 73
     1
  0
TEXT
  5
309
100
AcDbEntity
  8
15
370
     9
  6
Continuous
 62
    96
100
AcDbText
 10
311.488717
 20
178.844
 30
0.0
 40
3.0
  1
※１：屋外設置時、直射日光下は避け、コーキング処理が
 41
0.833333
 11
311.488717
 21
178.844
 31
0.0
100
AcDbText
 73
     1
  0
TEXT
  5
30A
100
AcDbEntity
  8
15
370
     9
  6
Continuous
 62
    96
100
AcDbText
 10
311.377557
 20
170.374747
 30
0.0
 40
3.0
  1
※２：設置周囲環境及びカードの種類により異なります。
 41
0.886752
 11
311.377557
 21
170.374747
 31
0.0
100
AcDbText
 73
     1
  0
TEXT
  5
30B
100
AcDbEntity
  8
15
370
     9
  6
Continuous
 62
    96
100
AcDbText
 10
355.473717
 20
185.076
 30
0.0
 40
3.0
  1
５ｃｍ以内　※２
 41
0.833333
 11
355.473717
 21
185.076
 31
0.0
100
AcDbText
 73
     1
  0
TEXT
  5
30C
100
AcDbEntity
  8
15
370
     9
  6
Continuous
 62
    96
100
AcDbText
 10
320.34523
 20
174.868003
 30
0.0
 40
3.0
  1
必要となります。
 41
0.881944
 11
320.34523
 21
174.868003
 31
0.0
100
AcDbText
 73
     1
  0
LINE
  5
30D
100
AcDbEntity
  8
15
370
     9
  6
Continuous
 62
    96
100
AcDbLine
 10
309.973717
 20
233.326
 30
0.0
 11
399.973717
 21
233.326
 31
0.0
  0
TEXT
  5
30E
100
AcDbEntity
  8
15
370
     9
  6
PHANTOM
 62
    96
100
AcDbText
 10
317.973717
 20
234.576
 30
0.0
 40
3.0
  1
寸　法
 41
0.833333
 11
317.973717
 21
234.576
 31
0.0
100
AcDbText
 73
     1
  0
TEXT
  5
30F
100
AcDbEntity
  8
15
370
     9
  6
Continuous
 62
    96
100
AcDbText
 10
340.598717
 20
234.576
 30
0.0
 40
3.0
  1
90%%p0.3mm(W)×160%%p0.5mm(H)×25.5%%p0.2mm(D)
 41
0.486866
 11
340.598717
 21
234.576
 31
0.0
100
AcDbText
 73
     1
  0
TEXT
  5
310
100
AcDbEntity
  8
15
370
     9
  6
Continuous
 62
    96
100
AcDbText
 10
355.473717
 20
229.076
 30
0.0
 40
3.0
  1
２５０ｇ%%p１０％
 41
0.851064
 11
355.473717
 21
229.076
 31
0.0
100
AcDbText
 73
     1
  0
TEXT
  5
311
100
AcDbEntity
  8
15
370
     9
  6
Continuous
 62
    96
100
AcDbText
 10
345.2
 20
245.576
 30
0.0
 40
3.0
  1
ホワイト（マンセルＮ９近似）
 41
0.884921
 11
345.2
 21
245.576
 31
0.0
100
AcDbText
 73
     1
  0
TEXT
  5
312
100
AcDbEntity
  8
15
370
     9
  6
Continuous
 62
    96
100
AcDbText
 10
345.2
 20
240.076
 30
0.0
 40
3.0
  1
ホワイト（マンセルＮ９近似）
 41
0.884921
 11
345.2
 21
240.076
 31
0.0
100
AcDbText
 73
     1
  0
TEXT
  5
313
100
AcDbEntity
  8
15
370
     9
  6
Continuous
 62
    96
100
AcDbText
 10
355.212937
 20
60.758027
 30
0.0
 40
3.5
  1
G07008-01-15417
 41
0.5
 11
355.212937
 21
60.758027
 31
0.0
100
AcDbText
 73
     1
  0
TEXT
  5
314
100
AcDbEntity
  8
15
370
     9
  6
Continuous
 62
    96
100
AcDbText
 10
327.1708
 20
28.055791
 30
0.0
 40
3.5
  1
G07008-01-16Z02
 41
0.5
 11
327.1708
 21
28.055791
 31
0.0
100
AcDbText
 73
     1
  0
TEXT
  5
315
100
AcDbEntity
  8
15
370
     9
  6
Continuous
 62
    96
100
AcDbText
 10
364.291982
 20
28.440418
 30
0.0
 40
3.5
  1
2016年12月02日
 41
0.603448
 11
364.291982
 21
28.440418
 31
0.0
100
AcDbText
 73
     1
  0
TEXT
  5
316
100
AcDbEntity
  8
15
370
     9
  6
Continuous
 62
    96
100
AcDbText
 10
357.0
 20
267.576
 30
0.0
 40
3.0
  1
０１５１００８
 41
0.833333
 11
357.0
 21
267.576
 31
0.0
100
AcDbText
 73
     1
  0
LINE
  5
317
100
AcDbEntity
  8
1
370
     9
  6
Continuous
 62
     7
100
AcDbLine
 10
78.0
 20
226.812872
 30
0.0
 11
80.430541
 21
229.989737
 31
0.0
  0
LINE
  5
318
100
AcDbEntity
  8
1
370
     9
  6
Continuous
 62
     7
100
AcDbLine
 10
78.0
 20
226.812872
 30
0.0
 11
81.693343
 21
228.348848
 31
0.0
  0
POLYLINE
  5
319
100
AcDbEntity
  8
1
370
     9
  6
Continuous
 62
     7
100
AcDb2dPolyline
 66
     1
 10
0.0
 20
0.0
 30
0.0
  0
VERTEX
  5
31A
100
AcDbEntity
  8
1
370
     9
  6
Continuous
 62
     7
100
AcDbVertex
100
AcDb2dVertex
 10
78.0
 20
226.812872
 30
0.0
  0
VERTEX
  5
31B
100
AcDbEntity
  8
1
370
     9
  6
Continuous
 62
     7
100
AcDbVertex
100
AcDb2dVertex
 10
86.826251
 20
233.60541
 30
0.0
  0
VERTEX
  5
31C
100
AcDbEntity
  8
1
370
     9
  6
Continuous
 62
     7
100
AcDbVertex
100
AcDb2dVertex
 10
92.826251
 20
233.60541
 30
0.0
  0
SEQEND
  5
31D
100
AcDbEntity
  8
1
370
     9
  6
Continuous
 62
     7
  0
TEXT
  5
31E
100
AcDbEntity
  8
1
370
     9
  6
Continuous
 62
     7
100
AcDbText
 10
86.826251
 20
233.60541
 30
0.0
 40
3.0
  1
R205
 41
0.5
 11
86.826251
 21
233.60541
 31
0.0
100
AcDbText
 73
     1
  0
LINE
  5
31F
100
AcDbEntity
  8
1
370
     9
  6
Continuous
 62
     7
100
AcDbLine
 10
149.807114
 20
225.597244
 30
0.0
 11
147.06575
 21
228.510134
 31
0.0
  0
LINE
  5
320
100
AcDbEntity
  8
1
370
     9
  6
Continuous
 62
     7
100
AcDbLine
 10
149.807114
 20
225.597244
 30
0.0
 11
148.889468
 21
229.490562
 31
0.0
  0
POLYLINE
  5
321
100
AcDbEntity
  8
1
370
     9
  6
Continuous
 62
     7
100
AcDb2dPolyline
 66
     1
 10
0.0
 20
0.0
 30
0.0
  0
VERTEX
  5
322
100
AcDbEntity
  8
1
370
     9
  6
Continuous
 62
     7
100
AcDbVertex
100
AcDb2dVertex
 10
149.807114
 20
225.597244
 30
0.0
  0
VERTEX
  5
323
100
AcDbEntity
  8
1
370
     9
  6
Continuous
 62
     7
100
AcDbVertex
100
AcDb2dVertex
 10
145.513327
 20
233.584215
 30
0.0
  0
VERTEX
  5
324
100
AcDbEntity
  8
1
370
     9
  6
Continuous
 62
     7
100
AcDbVertex
100
AcDb2dVertex
 10
139.513327
 20
233.584215
 30
0.0
  0
SEQEND
  5
325
100
AcDbEntity
  8
1
370
     9
  6
Continuous
 62
     7
  0
TEXT
  5
326
100
AcDbEntity
  8
1
370
     9
  6
Continuous
 62
     7
100
AcDbText
 10
139.513327
 20
233.584215
 30
0.0
 40
3.0
  1
2-R2
 41
0.5
 11
139.513327
 21
233.584215
 31
0.0
100
AcDbText
 73
     1
  0
LINE
  5
327
100
AcDbEntity
  8
1
370
     9
  6
Continuous
 62
     7
100
AcDbLine
 10
122.557127
 20
221.462203
 30
0.0
 11
123.360574
 21
225.380681
 31
0.0
  0
LINE
  5
328
100
AcDbEntity
  8
1
370
     9
  6
Continuous
 62
     7
100
AcDbLine
 10
122.557127
 20
221.462203
 30
0.0
 11
125.212172
 21
224.453981
 31
0.0
  0
POLYLINE
  5
329
100
AcDbEntity
  8
1
370
     9
  6
Continuous
 62
     7
100
AcDb2dPolyline
 66
     1
 10
0.0
 20
0.0
 30
0.0
  0
VERTEX
  5
32A
100
AcDbEntity
  8
1
370
     9
  6
Continuous
 62
     7
100
AcDbVertex
100
AcDb2dVertex
 10
122.557127
 20
221.462203
 30
0.0
  0
VERTEX
  5
32B
100
AcDbEntity
  8
1
370
     9
  6
Continuous
 62
     7
100
AcDbVertex
100
AcDb2dVertex
 10
128.607265
 20
233.550712
 30
0.0
  0
VERTEX
  5
32C
100
AcDbEntity
  8
1
370
     9
  6
Continuous
 62
     7
100
AcDbVertex
100
AcDb2dVertex
 10
134.607265
 20
233.550712
 30
0.0
  0
SEQEND
  5
32D
100
AcDbEntity
  8
1
370
     9
  6
Continuous
 62
     7
  0
TEXT
  5
32E
100
AcDbEntity
  8
1
370
     9
  6
Continuous
 62
     7
100
AcDbText
 10
128.607265
 20
233.550712
 30
0.0
 40
3.0
  1
4-R2
 41
0.5
 11
128.607265
 21
233.550712
 31
0.0
100
AcDbText
 73
     1
  0
LINE
  5
32F
100
AcDbEntity
  8
1
370
     9
  6
Continuous
 62
     7
100
AcDbLine
 10
149.89614
 20
76.026406
 30
0.0
 11
148.808618
 21
72.177082
 31
0.0
  0
LINE
  5
330
100
AcDbEntity
  8
1
370
     9
  6
Continuous
 62
     7
100
AcDbLine
 10
149.89614
 20
76.026406
 30
0.0
 11
147.029657
 21
73.236554
 31
0.0
  0
POLYLINE
  5
331
100
AcDbEntity
  8
1
370
     9
  6
Continuous
 62
     7
100
AcDb2dPolyline
 66
     1
 10
0.0
 20
0.0
 30
0.0
  0
VERTEX
  5
332
100
AcDbEntity
  8
1
370
     9
  6
Continuous
 62
     7
100
AcDbVertex
100
AcDb2dVertex
 10
149.89614
 20
76.026406
 30
0.0
  0
VERTEX
  5
333
100
AcDbEntity
  8
1
370
     9
  6
Continuous
 62
     7
100
AcDbVertex
100
AcDb2dVertex
 10
140.290034
 20
59.896782
 30
0.0
  0
VERTEX
  5
334
100
AcDbEntity
  8
1
370
     9
  6
Continuous
 62
     7
100
AcDbVertex
100
AcDb2dVertex
 10
128.290034
 20
59.896782
 30
0.0
  0
SEQEND
  5
335
100
AcDbEntity
  8
1
370
     9
  6
Continuous
 62
     7
  0
TEXT
  5
336
100
AcDbEntity
  8
1
370
     9
  6
Continuous
 62
     7
100
AcDbText
 10
128.290034
 20
60.396782
 30
0.0
 40
3.0
  1
（R120）
 41
0.625
 11
128.290034
 21
60.396782
 31
0.0
100
AcDbText
 73
     1
  0
ENDSEC
  0
SECTION
  2
OBJECTS
  0
DICTIONARY
  5
19
100
AcDbDictionary
280
     0
281
     1
  3
ACAD_GROUP
350
1A
  3
ACAD_MLINESTYLE
350
1B
  3
ACAD_LAYOUT
350
1E
  3
ACAD_PLOTSETTINGS
350
22
  3
ACAD_PLOTSTYLENAME
350
1F
  3
ACAD_WIPEOUT_VARS
350
23
  0
DICTIONARY
  5
1A
102
{ACAD_REACTORS
330
19
102
}
100
AcDbDictionary
280
     0
281
     1
  0
DICTIONARY
  5
1B
102
{ACAD_REACTORS
330
19
102
}
100
AcDbDictionary
280
     0
281
     1
  3
Standard
350
1C
  0
MLINESTYLE
  5
1C
102
{ACAD_REACTORS
330
1B
102
}
100
AcDbMlineStyle
  2
Standard
 70
     0
  3

 62
     0
 51
90.0
 52
90.0
 71
     2
 49
0.5
 62
   256
  6
ByLayer
 49
-0.5
 62
   256
  6
ByLayer
  0
ACDBDICTIONARYWDFLT
  5
1F
102
{ACAD_REACTORS
330
19
102
}
100
AcDbDictionary
281
     1
  3
Normal
350
1D
100
AcDbDictionaryWithDefault
340
1D
  0
ACDBPLACEHOLDER
  5
1D
102
{ACAD_REACTORS
330
1F
102
}
  0
LAYOUT
  5
20
102
{ACAD_REACTORS
330
1E
102
}
100
AcDbPlotSettings
  1

  2

  4

  6

 40
0.0
 41
0.0
 42
0.0
 43
0.0
 44
0.0
 45
0.0
 46
0.0
 47
0.0
 48
0.0
 49
0.0
140
0.0
141
0.0
142
1.0
143
1.0
 70
  1024
 72
     0
 73
     0
 74
     0
  7

 75
     0
147
1.0
148
0.0
149
0.0
100
AcDbLayout
  1
Model
 70
     0
 71
     0
 10
0.0
 20
0.0
 11
0.0
 21
0.0
 12
0.0
 22
0.0
 32
0.0
 14
0.0
 24
0.0
 34
0.0
 15
0.0
 25
0.0
 35
0.0
146
0.0
 13
0.0
 23
0.0
 33
0.0
 16
0.0
 26
0.0
 36
0.0
 17
0.0
 27
0.0
 37
0.0
 76
     0
330
A
331
0
345
0
346
0
  0
LAYOUT
  5
21
102
{ACAD_REACTORS
330
1E
102
}
100
AcDbPlotSettings
  1

  2

  4

  6

 40
0.0
 41
0.0
 42
0.0
 43
0.0
 44
0.0
 45
0.0
 46
0.0
 47
0.0
 48
0.0
 49
0.0
140
0.0
141
0.0
142
1.0
143
1.0
 70
     0
 72
     0
 73
     0
 74
     0
  7

 75
     0
147
1.0
148
0.0
149
0.0
100
AcDbLayout
  1
Layout1
 70
     0
 71
     0
 10
0.0
 20
0.0
 11
0.0
 21
0.0
 12
0.0
 22
0.0
 32
0.0
 14
0.0
 24
0.0
 34
0.0
 15
0.0
 25
0.0
 35
0.0
146
0.0
 13
0.0
 23
0.0
 33
0.0
 16
0.0
 26
0.0
 36
0.0
 17
0.0
 27
0.0
 37
0.0
 76
     0
330
B
331
0
345
0
346
0
  0
DICTIONARY
  5
1E
102
{ACAD_REACTORS
330
19
102
}
100
AcDbDictionary
280
     0
281
     1
  3
Layout1
350
21
  3
Model
350
20
  0
DICTIONARY
  5
22
102
{ACAD_REACTORS
330
19
102
}
100
AcDbDictionary
280
     0
281
     1
  0
WIPEOUTVARIABLES
  5
23
100
AcDbWipeoutVariables
 70
     1
  0
ENDSEC
  0
EOF
